0
SECTION
2
HEADER
9
$ACADVER
1
AC1015
9
$DWGCODEPAGE
3
ANSI_1252
9
$HANDSEED
5
220
9
$ANGBASE
50
0
9
$ANGDIR
70
0
9
$ATTMODE
70
1
9
$AUNITS
70
0
9
$AUPREC
70
0
9
$CECOLOR
62
256
9
$CELTSCALE
40
1
9
$CELTYPE
6
ByLayer
9
$CELWEIGHT
370
18
9
$CLAYER
8
0
9
$CMLJUST
70
0
9
$CMLSCALE
40
1
9
$CMLSTYLE
2
Standard
9
$DIMSTYLE
2
Standard
9
$TEXTSIZE
40
0.2
9
$TEXTSTYLE
7
Standard
9
$LUNITS
70
2
9
$LUPREC
70
4
9
$EXTNAMES
290
1
9
$INSUNITS
70
4
9
$LTSCALE
40
1
9
$LWDISPLAY
290
1
9
$PDMODE
70
0
9
$PDSIZE
40
0
9
$PLINEGEN
70
0
0
ENDSEC
0
SECTION
2
CLASSES
0
CLASS
1
RASTERVARIABLES
2
AcDbRasterVariables
3
ISM
90
0
280
0
281
0
0
ENDSEC
0
SECTION
2
TABLES
0
TABLE
2
VPORT
5
216
100
AcDbSymbolTable
0
VPORT
5
1
100
AcDbSymbolTableRecord
100
AcDbViewportTableRecord
2
*Active
70
0
10
0
20
0
11
1
21
1
12
-1
22
1
13
0
23
0
14
0.5
24
0.5
15
10
25
10
16
0
26
0
36
1
17
0
27
0
37
0
0
ENDTAB
0
TABLE
2
LTYPE
5
217
100
AcDbSymbolTable
0
LTYPE
5
14
100
AcDbSymbolTableRecord
100
AcDbLinetypeTableRecord
70
0
2
ByBlock
3

72
65
73
0
40
0
0
LTYPE
5
15
100
AcDbSymbolTableRecord
100
AcDbLinetypeTableRecord
70
0
2
ByLayer
3

72
65
73
0
40
0
0
LTYPE
5
16
100
AcDbSymbolTableRecord
100
AcDbLinetypeTableRecord
70
0
2
Continuous
3
Solid line
72
65
73
0
40
0
0
LTYPE
5
6E
100
AcDbSymbolTableRecord
100
AcDbLinetypeTableRecord
70
0
2
CENTER
3
____ _ ____ _ ____ _ ____
72
65
73
4
40
47.5
49
22
74
0
49
-8.5
74
0
49
8.5
74
0
49
-8.5
74
0
0
LTYPE
5
6F
100
AcDbSymbolTableRecord
100
AcDbLinetypeTableRecord
70
0
2
DASHED
3
__ __ __ __ __ __ __ __ __
72
65
73
2
40
25.72
49
12.86
74
0
49
-12.86
74
0
0
ENDTAB
0
TABLE
2
LAYER
5
218
100
AcDbSymbolTable
0
LAYER
5
10
100
AcDbSymbolTableRecord
100
AcDbLayerTableRecord
2
0
70
0
62
7
6
Continuous
290
1
370
-3
390
0
0
LAYER
5
71
100
AcDbSymbolTableRecord
100
AcDbLayerTableRecord
2
81
70
0
62
-3
6
Continuous
290
1
370
-3
390
0
0
LAYER
5
73
100
AcDbSymbolTableRecord
100
AcDbLayerTableRecord
2
80
70
0
62
-6
6
Continuous
290
1
370
-3
390
0
0
LAYER
5
75
100
AcDbSymbolTableRecord
100
AcDbLayerTableRecord
2
1
70
0
62
4
6
Continuous
290
1
370
-3
390
0
0
LAYER
5
7B
100
AcDbSymbolTableRecord
100
AcDbLayerTableRecord
2
4
70
0
62
-2
6
CENTER
290
1
370
-3
390
0
0
LAYER
5
DC
100
AcDbSymbolTableRecord
100
AcDbLayerTableRecord
2
2
70
0
62
7
6
Continuous
290
1
370
-3
390
0
0
LAYER
5
174
100
AcDbSymbolTableRecord
100
AcDbLayerTableRecord
2
Defpoints
70
0
62
7
6
Continuous
290
0
370
-3
390
0
0
LAYER
5
202
100
AcDbSymbolTableRecord
100
AcDbLayerTableRecord
2
SK4
70
0
62
2
6
CENTER
290
1
370
-3
390
0
0
LAYER
5
203
100
AcDbSymbolTableRecord
100
AcDbLayerTableRecord
2
SK1
70
0
62
4
6
Continuous
290
1
370
-3
390
0
0
LAYER
5
204
100
AcDbSymbolTableRecord
100
AcDbLayerTableRecord
2
SK2
70
0
62
7
6
Continuous
290
1
370
-3
390
0
0
LAYER
5
205
100
AcDbSymbolTableRecord
100
AcDbLayerTableRecord
2
SK6
70
0
62
5
6
Continuous
290
1
370
-3
390
0
0
ENDTAB
0
TABLE
2
STYLE
5
219
100
AcDbSymbolTable
0
STYLE
5
11
100
AcDbSymbolTableRecord
100
AcDbTextStyleTableRecord
2
Standard
3
txt
70
0
71
0
40
0
41
1
42
0
50
0
0
STYLE
5
146
100
AcDbSymbolTableRecord
100
AcDbTextStyleTableRecord
2
iso_b_vert
3
simplex.shx
70
0
71
0
40
0
41
1
42
0
50
0
0
STYLE
5
147
100
AcDbSymbolTableRecord
100
AcDbTextStyleTableRecord
2
DWGDirectTextStyle
3
simplex
70
0
71
0
40
0
41
1
42
0
50
0
0
ENDTAB
0
TABLE
2
DIMSTYLE
5
21a
100
AcDbSymbolTable
100
AcDbDimStyleTable
0
DIMSTYLE
105
27
100
AcDbSymbolTableRecord
100
AcDbDimStyleTableRecord
2
Standard
70
0
3
<>
41
0.18
42
0.0625
44
0.18
140
0.18
147
0.09
73
0
74
0
77
1
271
2
275
0
278
52
280
0
340
11
0
ENDTAB
0
TABLE
2
VIEW
5
21b
100
AcDbSymbolTable
0
ENDTAB
0
TABLE
2
UCS
5
21c
100
AcDbSymbolTable
0
ENDTAB
0
TABLE
2
APPID
5
21d
100
AcDbSymbolTable
0
APPID
5
12
100
AcDbSymbolTableRecord
100
AcDbRegAppTableRecord
2
ACAD
70
0
0
APPID
5
170
100
AcDbSymbolTableRecord
100
AcDbRegAppTableRecord
2
ACAD_DSTYLE_DIMBREAK
70
0
0
APPID
5
1C1
100
AcDbSymbolTableRecord
100
AcDbRegAppTableRecord
2
ACAD_DSTYLE_DIM_LINETYPE
70
0
0
APPID
5
1C2
100
AcDbSymbolTableRecord
100
AcDbRegAppTableRecord
2
ACAD_DSTYLE_DIM_EXT1_LINETYPE
70
0
0
APPID
5
1C3
100
AcDbSymbolTableRecord
100
AcDbRegAppTableRecord
2
ACAD_DSTYLE_DIM_EXT2_LINETYPE
70
0
0
APPID
5
1FE
100
AcDbSymbolTableRecord
100
AcDbRegAppTableRecord
2
ACAD_MLEADERVER
70
0
0
ENDTAB
0
TABLE
2
BLOCK_RECORD
5
21e
100
AcDbSymbolTable
0
BLOCK_RECORD
5
1F
100
AcDbSymbolTableRecord
100
AcDbBlockTableRecord
2
*Model_Space
340
0
70
0
0
BLOCK_RECORD
5
1B
100
AcDbSymbolTableRecord
100
AcDbBlockTableRecord
2
*Paper_Space
340
0
70
0
0
BLOCK_RECORD
5
23
100
AcDbSymbolTableRecord
100
AcDbBlockTableRecord
2
*Paper_Space0
340
0
70
0
0
BLOCK_RECORD
5
175
100
AcDbSymbolTableRecord
100
AcDbBlockTableRecord
2
*D1
340
0
70
0
0
BLOCK_RECORD
5
182
100
AcDbSymbolTableRecord
100
AcDbBlockTableRecord
2
_U0
340
0
70
0
0
BLOCK_RECORD
5
18E
100
AcDbSymbolTableRecord
100
AcDbBlockTableRecord
2
*D3
340
0
70
0
0
BLOCK_RECORD
5
19A
100
AcDbSymbolTableRecord
100
AcDbBlockTableRecord
2
_U1
340
0
70
0
0
ENDTAB
0
ENDSEC
0
SECTION
2
BLOCKS
0
BLOCK
5
20
100
AcDbEntity
8
0
100
AcDbBlockBegin
2
*Model_Space
70
0
10
0
20
0
30
0
3
*Model_Space
0
ENDBLK
5
21
100
AcDbEntity
8
0
100
AcDbBlockEnd
0
BLOCK
5
1C
100
AcDbEntity
8
0
100
AcDbBlockBegin
2
*Paper_Space
70
0
10
0
20
0
30
0
3
*Paper_Space
0
ENDBLK
5
1D
100
AcDbEntity
8
0
100
AcDbBlockEnd
0
BLOCK
5
24
100
AcDbEntity
8
0
100
AcDbBlockBegin
2
*Paper_Space0
70
0
10
0
20
0
30
0
3
*Paper_Space0
0
ENDBLK
5
25
100
AcDbEntity
8
0
100
AcDbBlockEnd
0
BLOCK
5
176
100
AcDbEntity
8
0
100
AcDbBlockBegin
2
*D1
70
1
10
0
20
0
30
0
3
*D1
0
LINE
5
178
100
AcDbEntity
8
0
62
256
6
ByLayer
370
-2
48
1
60
0
100
AcDbLine
10
27
20
-5.5875
30
0
11
27
21
-20.718605
31
0
39
0
210
0
220
0
230
1
0
LINE
5
179
100
AcDbEntity
8
0
62
256
6
ByLayer
370
-2
48
1
60
0
100
AcDbLine
10
15
20
-5.5875
30
0
11
15
21
-20.718605
31
0
39
0
210
0
220
0
230
1
0
LINE
5
17A
100
AcDbEntity
8
0
62
256
6
ByLayer
370
-2
48
1
60
0
100
AcDbLine
10
30.5
20
-18.718605
30
0
11
34
21
-18.718605
31
0
39
0
210
0
220
0
230
1
0
LINE
5
17B
100
AcDbEntity
8
0
62
256
6
ByLayer
370
-2
48
1
60
0
100
AcDbLine
10
11.5
20
-18.718605
30
0
11
8
21
-18.718605
31
0
39
0
210
0
220
0
230
1
0
SOLID
5
17C
100
AcDbEntity
8
0
62
256
6
ByLayer
370
-1
48
1
60
0
100
AcDbTrace
10
30.5
20
-18.135271
30
0
11
30.5
21
-19.301938
31
0
12
27
22
-18.718605
32
0
13
27
23
-18.718605
33
0
39
0
210
0
220
0
230
1
0
SOLID
5
17D
100
AcDbEntity
8
0
62
256
6
ByLayer
370
-1
48
1
60
0
100
AcDbTrace
10
11.5
20
-19.301938
30
0
11
11.5
21
-18.135271
31
0
12
15
22
-18.718605
32
0
13
15
23
-18.718605
33
0
39
0
210
0
220
0
230
1
0
MTEXT
5
17E
100
AcDbEntity
8
0
62
256
6
ByLayer
370
18
48
1
60
0
100
AcDbMText
10
21
20
-11.718605
30
0
210
0
220
0
230
1
1
\A1;12
40
3.5
41
0
44
1
50
0
71
5
72
5
7
iso_b_vert
0
POINT
5
17F
100
AcDbEntity
8
Defpoints
62
0
6
ByLayer
370
-1
48
1
60
0
100
AcDbPoint
10
27
20
-4
30
0
39
0
210
0
220
0
230
1
50
360
0
POINT
5
180
100
AcDbEntity
8
Defpoints
62
0
6
ByLayer
370
-1
48
1
60
0
100
AcDbPoint
10
15
20
-4
30
0
39
0
210
0
220
0
230
1
50
360
0
POINT
5
181
100
AcDbEntity
8
Defpoints
62
0
6
ByLayer
370
-1
48
1
60
0
100
AcDbPoint
10
15
20
-18.718605
30
0
39
0
210
0
220
0
230
1
50
360
0
ENDBLK
5
177
100
AcDbEntity
8
0
100
AcDbBlockEnd
0
BLOCK
5
189
100
AcDbEntity
8
0
100
AcDbBlockBegin
2
_U0
70
0
10
0
20
0
30
0
3
_U0
0
MTEXT
5
183
100
AcDbEntity
8
2
62
256
6
ByLayer
370
18
48
1
60
0
100
AcDbMText
10
19.532467
20
-17.685971
30
0
210
0
220
0
230
1
1
\W0.5321;12
40
3.5
41
0
44
1.084337
50
0
71
7
72
5
7
iso_b_vert
0
LINE
5
184
100
AcDbEntity
8
2
62
256
6
ByLayer
370
13
48
1
60
0
100
AcDbLine
10
27
20
-5.5875
30
0
11
27
21
-20.718605
31
0
39
0
210
0
220
0
230
1
0
LINE
5
185
100
AcDbEntity
8
2
62
256
6
ByLayer
370
13
48
1
60
0
100
AcDbLine
10
15
20
-5.5875
30
0
11
15
21
-20.718605
31
0
39
0
210
0
220
0
230
1
0
LINE
5
186
100
AcDbEntity
8
2
62
256
6
ByLayer
370
13
48
1
60
0
100
AcDbLine
10
27
20
-18.718605
30
0
11
15
21
-18.718605
31
0
39
0
210
0
220
0
230
1
0
SOLID
5
187
100
AcDbEntity
8
2
62
256
6
ByLayer
370
18
48
1
60
0
100
AcDbTrace
10
27
20
-18.718605
30
0
11
23.500002
21
-19.179388
31
0
12
23.499998
22
-18.257821
32
0
13
23.499998
23
-18.257821
33
0
39
0
210
0
220
0
230
1
0
SOLID
5
188
100
AcDbEntity
8
2
62
256
6
ByLayer
370
18
48
1
60
0
100
AcDbTrace
10
15
20
-18.718605
30
0
11
18.499998
21
-18.257821
31
0
12
18.500002
22
-19.179388
32
0
13
18.500002
23
-19.179388
33
0
39
0
210
0
220
0
230
1
0
ENDBLK
5
18A
100
AcDbEntity
8
0
100
AcDbBlockEnd
0
BLOCK
5
18F
100
AcDbEntity
8
0
100
AcDbBlockBegin
2
*D3
70
1
10
0
20
0
30
0
3
*D3
0
LINE
5
191
100
AcDbEntity
8
0
62
256
6
ByLayer
370
-2
48
1
60
0
100
AcDbLine
10
27
20
-5.5875
30
0
11
27
21
-35.718605
31
0
39
0
210
0
220
0
230
1
0
LINE
5
192
100
AcDbEntity
8
0
62
256
6
ByLayer
370
-2
48
1
60
0
100
AcDbLine
10
2.997679
20
-5.4275
30
0
11
2.997679
21
-35.718605
31
0
39
0
210
0
220
0
230
1
0
LINE
5
193
100
AcDbEntity
8
0
62
256
6
ByLayer
370
-2
48
1
60
0
100
AcDbLine
10
23.5
20
-33.718605
30
0
11
6.497679
21
-33.718605
31
0
39
0
210
0
220
0
230
1
0
SOLID
5
194
100
AcDbEntity
8
0
62
256
6
ByLayer
370
-1
48
1
60
0
100
AcDbTrace
10
23.5
20
-34.301938
30
0
11
23.5
21
-33.135271
31
0
12
27
22
-33.718605
32
0
13
27
23
-33.718605
33
0
39
0
210
0
220
0
230
1
0
SOLID
5
195
100
AcDbEntity
8
0
62
256
6
ByLayer
370
-1
48
1
60
0
100
AcDbTrace
10
6.497679
20
-33.135271
30
0
11
6.497679
21
-34.301938
31
0
12
2.997679
22
-33.718605
32
0
13
2.997679
23
-33.718605
33
0
39
0
210
0
220
0
230
1
0
MTEXT
5
196
100
AcDbEntity
8
0
62
256
6
ByLayer
370
18
48
1
60
0
100
AcDbMText
10
14.998839
20
-26.718605
30
0
210
0
220
0
230
1
1
\A1;24
40
3.5
41
0
44
1
50
0
71
5
72
5
7
iso_b_vert
0
POINT
5
197
100
AcDbEntity
8
Defpoints
62
0
6
ByLayer
370
-1
48
1
60
0
100
AcDbPoint
10
27
20
-4
30
0
39
0
210
0
220
0
230
1
50
360
0
POINT
5
198
100
AcDbEntity
8
Defpoints
62
0
6
ByLayer
370
-1
48
1
60
0
100
AcDbPoint
10
2.997679
20
-3.84
30
0
39
0
210
0
220
0
230
1
50
360
0
POINT
5
199
100
AcDbEntity
8
Defpoints
62
0
6
ByLayer
370
-1
48
1
60
0
100
AcDbPoint
10
2.997679
20
-33.718605
30
0
39
0
210
0
220
0
230
1
50
360
0
ENDBLK
5
190
100
AcDbEntity
8
0
100
AcDbBlockEnd
0
BLOCK
5
1A1
100
AcDbEntity
8
0
100
AcDbBlockBegin
2
_U1
70
0
10
0
20
0
30
0
3
_U1
0
MTEXT
5
19B
100
AcDbEntity
8
SK2
62
256
6
ByLayer
370
18
48
1
60
0
100
AcDbMText
10
12.909607
20
-32.685971
30
0
210
0
220
0
230
1
1
\W0.7167;24
40
3.5
41
0
44
1.084337
50
0
71
7
72
5
7
iso_b_vert
0
LINE
5
19C
100
AcDbEntity
8
SK2
62
256
6
ByLayer
370
13
48
1
60
0
100
AcDbLine
10
27
20
-5.5875
30
0
11
27
21
-35.718605
31
0
39
0
210
0
220
0
230
1
0
LINE
5
19D
100
AcDbEntity
8
SK2
62
256
6
ByLayer
370
13
48
1
60
0
100
AcDbLine
10
2.997679
20
-5.4275
30
0
11
2.997679
21
-35.718605
31
0
39
0
210
0
220
0
230
1
0
LINE
5
19E
100
AcDbEntity
8
SK2
62
256
6
ByLayer
370
13
48
1
60
0
100
AcDbLine
10
27
20
-33.718605
30
0
11
2.997679
21
-33.718605
31
0
39
0
210
0
220
0
230
1
0
SOLID
5
19F
100
AcDbEntity
8
SK2
62
256
6
ByLayer
370
18
48
1
60
0
100
AcDbTrace
10
27
20
-33.718605
30
0
11
23.500002
21
-34.179388
31
0
12
23.499998
22
-33.257821
32
0
13
23.499998
23
-33.257821
33
0
39
0
210
0
220
0
230
1
0
SOLID
5
1A0
100
AcDbEntity
8
SK2
62
256
6
ByLayer
370
18
48
1
60
0
100
AcDbTrace
10
2.997679
20
-33.718605
30
0
11
6.497677
21
-33.257821
31
0
12
6.497681
22
-34.179388
32
0
13
6.497681
23
-34.179388
33
0
39
0
210
0
220
0
230
1
0
ENDBLK
5
1A2
100
AcDbEntity
8
0
100
AcDbBlockEnd
0
ENDSEC
0
SECTION
2
ENTITIES
0
ARC
5
EE
100
AcDbEntity
8
1
62
256
6
ByLayer
370
18
48
1
60
0
100
AcDbCircle
39
0
10
2.997679
20
4.84
30
0
40
1
210
0
220
0
230
1
100
AcDbArc
50
240
51
270
0
ARC
5
EF
100
AcDbEntity
8
1
62
256
6
ByLayer
370
18
48
1
60
0
100
AcDbCircle
39
0
10
2.997679
20
-4.84
30
0
40
1
210
0
220
0
230
1
100
AcDbArc
50
90
51
120
0
ELLIPSE
5
F0
100
AcDbEntity
8
1
62
256
6
ByLayer
370
18
48
1
60
0
100
AcDbEllipse
10
19.365717
20
0
30
0
11
8.33545384172836
21
-2.6604641355327
31
0
210
0
220
0
230
1
40
0.332199
41
-2.45236121812914
42
-2.09110416037959
0
POINT
5
70
100
AcDbEntity
8
81
62
256
6
ByLayer
370
18
48
1
60
0
100
AcDbPoint
10
27
20
0
30
0
39
0
210
0
220
0
230
1
50
360
0
POINT
5
72
100
AcDbEntity
8
80
62
256
6
ByLayer
370
18
48
1
60
0
100
AcDbPoint
10
0
20
0
30
0
39
0
210
0
220
0
230
1
50
360
0
POINT
5
74
100
AcDbEntity
8
1
62
256
6
ByLayer
370
18
48
1
60
1
100
AcDbPoint
10
27
20
-4
30
0
39
0
210
0
220
0
230
1
50
360
0
POINT
5
76
100
AcDbEntity
8
1
62
256
6
ByLayer
370
18
48
1
60
1
100
AcDbPoint
10
15
20
-4
30
0
39
0
210
0
220
0
230
1
50
360
0
POINT
5
77
100
AcDbEntity
8
1
62
256
6
ByLayer
370
18
48
1
60
1
100
AcDbPoint
10
27
20
-4
30
0
39
0
210
0
220
0
230
1
50
360
0
POINT
5
78
100
AcDbEntity
8
1
62
256
6
ByLayer
370
18
48
1
60
1
100
AcDbPoint
10
2.997679
20
-3.84
30
0
39
0
210
0
220
0
230
1
50
360
0
SPLINE
5
F1
100
AcDbEntity
8
1
62
256
6
ByLayer
370
18
48
1
60
0
100
AcDbSpline
70
4
71
3
72
12
73
8
40
0
40
0
40
0
40
0
40
0.249999999999982
40
0.249999999999982
40
0.499999999999964
40
0.499999999999964
40
1
40
1
40
1
40
1
41
1
10
14.7127361114076
20
3.84255439815459
30
0
41
1
10
14.7337351621514
20
3.8478759142412
30
0
41
1
10
14.7546304017072
20
3.85391227190996
30
0
41
1
10
14.7962069462696
20
3.8674581358994
30
0
41
1
10
14.8167645235244
20
3.87492970595662
30
0
41
1
10
14.8774757671912
20
3.89932881344458
30
0
41
1
10
14.9167894044175
20
3.91827000672472
30
0
41
1
10
14.9549226783589
20
3.93993205026751
30
0
0
SPLINE
5
F2
100
AcDbEntity
8
1
62
256
6
ByLayer
370
18
48
1
60
0
100
AcDbSpline
70
4
71
3
72
8
73
4
40
0
40
0
40
0
40
0
40
1
40
1
40
1
40
1
41
1
10
14.9549226783579
20
3.93993205026982
30
0
41
1
10
14.9699484121458
20
3.94846759065055
30
0
41
1
10
14.9849741862849
20
3.95700305837647
30
0
41
1
10
15.0000000000001
20
3.96553845484075
30
0
0
SPLINE
5
F3
100
AcDbEntity
8
1
62
256
6
ByLayer
370
18
48
1
60
0
100
AcDbSpline
70
4
71
3
72
8
73
4
40
0
40
0
40
0
40
0
40
1
40
1
40
1
40
1
41
1
10
26.8274157536486
20
3.99819631638496
30
0
41
1
10
26.8722604172563
20
3.99786849113863
30
0
41
1
10
26.9171068597591
20
3.99779859138749
30
0
41
1
10
26.9619550819042
20
3.99798672527547
30
0
0
SPLINE
5
F4
100
AcDbEntity
8
1
62
256
6
ByLayer
370
18
48
1
60
0
100
AcDbSpline
70
4
71
3
72
8
73
4
40
0
40
0
40
0
40
0
40
1
40
1
40
1
40
1
41
1
10
26.9619550821444
20
3.99798672528203
30
0
41
1
10
26.9746352010828
20
3.99711688552796
30
0
41
1
10
26.9873168763536
20
3.99626804983183
30
0
41
1
10
27
20
3.9954401500838
30
0
0
SPLINE
5
F5
100
AcDbEntity
8
1
62
256
6
ByLayer
370
18
48
1
60
0
100
AcDbSpline
70
4
71
3
72
8
73
4
40
0
40
0
40
0
40
0
40
1
40
1
40
1
40
1
41
1
10
26.827415753648
20
3.99819631638471
30
0
41
1
10
26.8581053184822
20
3.90567648895379
30
0
41
1
10
26.8910494105855
20
3.81398793461125
30
0
41
1
10
26.9267364352818
20
3.72331073388943
30
0
0
SPLINE
5
F6
100
AcDbEntity
8
1
62
256
6
ByLayer
370
18
48
1
60
0
100
AcDbSpline
70
4
71
3
72
24
73
20
40
0
40
0
40
0
40
0
40
0.0658967247788462
40
0.0658967247788462
40
0.150815204344405
40
0.150815204344405
40
0.320652163475523
40
0.320652163475523
40
0.405570643041082
40
0.405570643041082
40
0.490489122606641
40
0.490489122606641
40
0.660326081737758
40
0.660326081737758
40
0.745244561303319
40
0.745244561303319
40
0.830163040868879
40
0.830163040868879
40
1
40
1
40
1
40
1
41
1
10
22.4736883057672
20
2.80885457498474
30
0
41
1
10
22.5692729979305
20
2.85652513217417
30
0
41
1
10
22.6649312601885
20
2.9030487044854
30
0
41
1
10
22.8841251368887
20
3.0067925092645
30
0
41
1
10
23.007436582972
20
3.06307887736443
30
0
41
1
10
23.3769521847755
20
3.22520230457292
30
0
41
1
10
23.6228954505255
20
3.32438111336467
30
0
41
1
10
23.9921694708275
20
3.45902597616313
30
0
41
1
10
24.115317865927
20
3.50155418385137
30
0
41
1
10
24.3618866419365
20
3.58177171591558
30
0
41
1
10
24.4854042599961
20
3.61948491065098
30
0
41
1
10
24.855411070686
20
3.72480254825325
30
0
41
1
10
25.1016267980998
20
3.78468466944219
30
0
41
1
10
25.4713257714548
20
3.85853109159046
30
0
41
1
10
25.5946353281571
20
3.88048578843493
30
0
41
1
10
25.8415007890053
20
3.91896937353093
30
0
41
1
10
25.9647905583798
20
3.93545712641586
30
0
41
1
10
26.3344915460101
20
3.97662251536269
30
0
41
1
10
26.580738862214
20
3.993004910499
30
0
41
1
10
26.8274157536486
20
3.99819631638496
30
0
0
SPLINE
5
F7
100
AcDbEntity
8
1
62
256
6
ByLayer
370
18
48
1
60
0
100
AcDbSpline
70
4
71
3
72
8
73
4
40
0
40
0
40
0
40
0
40
1
40
1
40
1
40
1
41
1
10
15.9575022063811
20
-2.86028304953388
30
0
41
1
10
15.6383348042541
20
-2.9138092357625
30
0
41
1
10
15.319167402127
20
-2.95390446342955
30
0
41
1
10
15
20
-2.97949070339771
30
0
0
SPLINE
5
F8
100
AcDbEntity
8
1
62
256
6
ByLayer
370
18
48
1
60
0
100
AcDbSpline
70
4
71
3
72
15
73
11
40
0
40
0
40
0
40
0
40
0.500000000000018
40
0.500000000000018
40
0.625000000000019
40
0.625000000000019
40
0.687500000000017
40
0.687500000000017
40
0.750000000000015
40
1
40
1
40
1
40
1
41
1
10
26.9850622412883
20
3.55021420617933
30
0
41
1
10
26.9696364710606
20
3.42303906881261
30
0
41
1
10
26.9561502194353
20
3.29483449873291
30
0
41
1
10
26.9417510231896
20
3.13327383237348
30
0
41
1
10
26.9389950844106
20
3.10089593680524
30
0
41
1
10
26.935050694591
20
3.05222850334363
30
0
41
1
10
26.9337663215694
20
3.03597291300986
30
0
41
1
10
26.9312754541427
20
3.00361255251141
30
0
41
1
10
26.9252349084609
20
2.92298989883392
30
0
41
1
10
26.9201121454775
20
2.84373562398127
30
0
41
1
10
26.9165809829915
20
2.78117765078437
30
0
0
SPLINE
5
F9
100
AcDbEntity
8
1
62
256
6
ByLayer
370
18
48
1
60
0
100
AcDbSpline
70
4
71
3
72
8
73
4
40
0
40
0
40
0
40
0
40
1
40
1
40
1
40
1
41
1
10
26.9267364464972
20
3.72331073797989
30
0
41
1
10
26.949074157682
20
3.66655087260978
30
0
41
1
10
26.9687469400047
20
3.60892688358234
30
0
41
1
10
26.9850622412893
20
3.5502142061797
30
0
0
SPLINE
5
FA
100
AcDbEntity
8
1
62
256
6
ByLayer
370
18
48
1
60
0
100
AcDbSpline
70
4
71
3
72
11
73
7
40
0
40
0
40
0
40
0
40
0.34466315211758
40
0.707024911391261
40
0.978796230846522
40
1
40
1
40
1
40
1
41
1
10
26.9267364448518
20
3.72331073812876
30
0
41
1
10
26.4511576299012
20
3.71515783355798
30
0
41
1
10
25.4755788149506
20
3.61739633666968
30
0
41
1
10
24.125
20
3.26794637468538
30
0
41
1
10
23.2207422643107
20
2.91477682165495
30
0
41
1
10
22.8164845286214
20
2.73635958948526
30
0
41
1
10
22.7872267929321
20
2.72334089050867
30
0
0
SPLINE
5
FB
100
AcDbEntity
8
1
62
256
6
ByLayer
370
18
48
1
60
0
100
AcDbSpline
70
4
71
3
72
36
73
32
40
0
40
0
40
0
40
0
40
0.0176715878282559
40
0.0176715878282559
40
0.0353431756565118
40
0.0353431756565118
40
0.0706863513130336
40
0.0706863513130336
40
0.141372702626089
40
0.141372702626089
40
0.176715878282617
40
0.176715878282617
40
0.212059053939145
40
0.212059053939145
40
0.2827454052522
40
0.2827454052522
40
0.353431756565256
40
0.353431756565256
40
0.424118107878312
40
0.424118107878312
40
0.494804459191367
40
0.494804459191367
40
0.565490810504423
40
0.565490810504423
40
0.706863513130525
40
0.706863513130525
40
0.848236215756627
40
0.848236215756627
40
0.98960891838273
40
0.98960891838273
40
1
40
1
40
1
40
1
41
1
10
26.9165809829846
20
2.78117765078642
30
0
41
1
10
26.9095564095514
20
2.76942184695881
30
0
41
1
10
26.9022306050043
20
2.75781364418472
30
0
41
1
10
26.8869851935667
20
2.73488819746259
30
0
41
1
10
26.8790471101389
20
2.72354614559123
30
0
41
1
10
26.8544890466231
20
2.69012970766758
30
0
41
1
10
26.8372200402554
20
2.66877912066695
30
0
41
1
10
26.7830352289163
20
2.60718487676883
30
0
41
1
10
26.7437539608885
20
2.56938599440974
30
0
41
1
10
26.6810647380719
20
2.51658130594103
30
0
41
1
10
26.6595370356071
20
2.49963220462902
30
0
41
1
10
26.6153464901182
20
2.46690720262984
30
0
41
1
10
26.5927507233776
20
2.45118532592738
30
0
41
1
10
26.5241940625859
20
2.40605666995518
30
0
41
1
10
26.4772462257727
20
2.37850316635846
30
0
41
1
10
26.3814621802741
20
2.32724196595058
30
0
41
1
10
26.332622523308
20
2.30354129181401
30
0
41
1
10
26.2334530651956
20
2.25917473064277
30
0
41
1
10
26.1831214530288
20
2.23851253188315
30
0
41
1
10
26.0812527094571
20
2.1996432620505
30
0
41
1
10
26.0296577961072
20
2.18142414746322
30
0
41
1
10
25.9263101861455
20
2.14726955465142
30
0
41
1
10
25.874449503501
20
2.13129153671568
30
0
41
1
10
25.718412120184
20
2.08603592169939
30
0
41
1
10
25.6137853738657
20
2.05940564736011
30
0
41
1
10
25.4036940561695
20
2.01107347284739
30
0
41
1
10
25.2982263899993
20
1.98938977730268
30
0
41
1
10
25.0866684943783
20
1.94968451681305
30
0
41
1
10
24.9805768227717
20
1.9316714351225
30
0
41
1
10
24.8664290010467
20
1.91385360765125
30
0
41
1
10
24.8586121348985
20
1.9126413115425
30
0
41
1
10
24.8507939846128
20
1.91143656917103
30
0
0
SPLINE
5
FC
100
AcDbEntity
8
1
62
256
6
ByLayer
370
18
48
1
60
0
100
AcDbSpline
70
4
71
3
72
10
73
6
40
0
40
0
40
0
40
0
40
0.5
40
0.5
40
1
40
1
40
1
40
1
41
1
10
14.4549226783579
20
3.81336710443355
30
0
41
1
10
14.4983924674646
20
3.81246916878951
30
0
41
1
10
14.5415856069157
20
3.81442419071593
30
0
41
1
10
14.6274992622848
20
3.82408034560535
30
0
41
1
10
14.6702194509286
20
3.83177995432627
30
0
41
1
10
14.7127361114077
20
3.84255439815462
30
0
0
SPLINE
5
FD
100
AcDbEntity
8
1
62
256
6
ByLayer
370
18
48
1
60
0
100
AcDbSpline
70
4
71
3
72
10
73
6
40
0
40
0
40
0
40
0
40
0.5
40
0.5
40
1
40
1
40
1
40
1
41
1
10
24.1273551286062
20
-1.23443214890045
30
0
41
1
10
24.144254678942
20
-1.26844172017658
30
0
41
1
10
24.1599345023397
20
-1.30374293138399
30
0
41
1
10
24.1870750270242
20
-1.37610741786983
30
0
41
1
10
24.1986255654238
20
-1.41324339985098
30
0
41
1
10
24.2071290755617
20
-1.45181822634024
30
0
0
SPLINE
5
FE
100
AcDbEntity
8
1
62
256
6
ByLayer
370
18
48
1
60
0
100
AcDbSpline
70
4
71
3
72
18
73
14
40
0
40
0
40
0
40
0
40
0.249999999999998
40
0.249999999999998
40
0.374999999999997
40
0.374999999999997
40
0.499999999999996
40
0.499999999999996
40
0.749999999999993
40
0.749999999999993
40
0.874999999999996
40
0.874999999999996
40
1
40
1
40
1
40
1
41
1
10
24.127355128606
20
-1.23443214890068
30
0
41
1
10
24.1163807622525
20
-1.21234673909407
30
0
41
1
10
24.1083350213825
20
-1.18951083246227
30
0
41
1
10
24.0999806595768
20
-1.15455627479514
30
0
41
1
10
24.09781993229
20
-1.14278622911681
30
0
41
1
10
24.0946914565383
20
-1.11906207131116
30
0
41
1
10
24.0937345186199
20
-1.10713316815659
30
0
41
1
10
24.0925934393916
20
-1.07191866561553
30
0
41
1
10
24.0940774465566
20
-1.04894165728228
30
0
41
1
10
24.0993129287378
20
-1.01538534044457
30
0
41
1
10
24.1015757934154
20
-1.00431954258997
30
0
41
1
10
24.1070380027892
20
-0.982801375365739
30
0
41
1
10
24.1102383976953
20
-0.972322045841878
30
0
41
1
10
24.1138978837965
20
-0.962129333597545
30
0
0
SPLINE
5
FF
100
AcDbEntity
8
1
62
256
6
ByLayer
370
18
48
1
60
0
100
AcDbSpline
70
4
71
3
72
12
73
8
40
0
40
0
40
0
40
0
40
0.28193604240435
40
0.28193604240435
40
0.640968021202175
40
0.640968021202175
40
1
40
1
40
1
40
1
41
1
10
24.5210332575965
20
2.1524014934804
30
0
41
1
10
24.5259106594626
20
2.1508587171565
30
0
41
1
10
24.5310543714385
20
2.14903388928673
30
0
41
1
10
24.54335230671
20
2.14424557792094
30
0
41
1
10
24.5506515943877
20
2.14111403412991
30
0
41
1
10
24.565980653519
20
2.1340083518821
30
0
41
1
10
24.5740199726212
20
2.13003055982475
30
0
41
1
10
24.5824213939675
20
2.12564220212141
30
0
0
SPLINE
5
100
100
AcDbEntity
8
1
62
256
6
ByLayer
370
18
48
1
60
0
100
AcDbSpline
70
4
71
3
72
13
73
9
40
0
40
0
40
0
40
0
40
0.500000000000003
40
0.500000000000003
40
0.625000000000002
40
0.625000000000002
40
0.750000000000001
40
1
40
1
40
1
40
1
41
1
10
24.5279344105282
20
-2.19185920868637
30
0
41
1
10
24.5111328635078
20
-2.28064887896528
30
0
41
1
10
24.5001272118712
20
-2.36902448000336
30
0
41
1
10
24.4945252116379
20
-2.47891136876825
30
0
41
1
10
24.4938162903935
20
-2.5008813917284
30
0
41
1
10
24.4932474549206
20
-2.54437461591604
30
0
41
1
10
24.4936583037245
20
-2.60908237760856
30
0
41
1
10
24.4978595720129
20
-2.67219470962422
30
0
41
1
10
24.5023600835975
20
-2.71355418929556
30
0
0
SPLINE
5
101
100
AcDbEntity
8
1
62
256
6
ByLayer
370
18
48
1
60
0
100
AcDbSpline
70
4
71
3
72
16
73
12
40
0
40
0
40
0
40
0
40
0.25
40
0.25
40
0.500000000000001
40
0.500000000000001
40
0.625000000000001
40
0.625000000000001
40
0.750000000000001
40
0.750000000000001
40
1
40
1
40
1
40
1
41
1
10
24.2071290757772
20
-1.45181822621535
30
0
41
1
10
24.2222218416069
20
-1.52028073572734
30
0
41
1
10
24.2407271919939
20
-1.58705879351277
30
0
41
1
10
24.283882884399
20
-1.71758174129093
30
0
41
1
10
24.3085362947776
20
-1.78132511672601
30
0
41
1
10
24.3497950701208
20
-1.87482823344581
30
0
41
1
10
24.3643082418889
20
-1.90572767228801
30
0
41
1
10
24.3943533550147
20
-1.96612397226147
30
0
41
1
10
24.4099105967959
20
-1.9956897073358
30
0
41
1
10
24.4580642923329
20
-2.08263406804736
30
0
41
1
10
24.4921389083211
20
-2.13826435315309
30
0
41
1
10
24.5279344105268
20
-2.19185920868395
30
0
0
SPLINE
5
102
100
AcDbEntity
8
1
62
256
6
ByLayer
370
18
48
1
60
0
100
AcDbSpline
70
4
71
3
72
24
73
20
40
0
40
0
40
0
40
0
40
0.022496597378288
40
0.185413831148573
40
0.348331064918859
40
0.470518990246573
40
0.592706915574287
40
0.674165532459429
40
0.735259495123286
40
0.796353457787143
40
0.826900439119072
40
0.857447420451
40
0.872720911116965
40
0.887994401782929
40
0.903267892448893
40
0.918541383114857
40
0.938906037336143
40
0.959270691557429
40
1
40
1
40
1
40
1
41
1
10
24.2071290758289
20
-1.45181822620467
30
0
41
1
10
24.1380860505526
20
-1.43273327353072
30
0
41
1
10
23.5690430252763
20
-1.27255680958311
30
0
41
1
10
22.5
20
-0.928828726601381
30
0
41
1
10
21.125
20
-0.430198347026334
30
0
41
1
10
19.875
20
0.0410338067453893
30
0
41
1
10
18.875
20
0.408738760803061
30
0
41
1
10
18.0625
20
0.689941916745198
30
0
41
1
10
17.4375
20
0.894180915764139
30
0
41
1
10
16.96875
20
1.03768307163938
30
0
41
1
10
16.59375
20
1.14561889836645
30
0
41
1
10
16.359375
20
1.21002012759203
30
0
41
1
10
16.1718750000001
20
1.25959691447639
30
0
41
1
10
16.03125
20
1.29578219096788
30
0
41
1
10
15.8906250000001
20
1.3309460420887
30
0
41
1
10
15.734375
20
1.36885662804201
30
0
41
1
10
15.5625
20
1.40903814901611
30
0
41
1
10
15.3125
20
1.4648922780481
30
0
41
1
10
15.125
20
1.50379873411634
30
0
41
1
10
15
20
1.52835298235104
30
0
0
SPLINE
5
103
100
AcDbEntity
8
1
62
256
6
ByLayer
370
18
48
1
60
0
100
AcDbSpline
70
4
71
3
72
11
73
7
40
0
40
0
40
0
40
0
40
0.25
40
0.5
40
0.75
40
1
40
1
40
1
40
1
41
1
10
15
20
1.52835298235104
30
0
41
1
10
15
20
1.52544244363608
30
0
41
1
10
15
20
1.49425737127174
30
0
41
1
10
15
20
1.37323206123489
30
0
41
1
10
15
20
1.17980333302077
30
0
41
1
10
15
20
1.00761365342518
30
0
41
1
10
15
20
0.911967452930526
30
0
0
SPLINE
5
104
100
AcDbEntity
8
1
62
256
6
ByLayer
370
18
48
1
60
0
100
AcDbSpline
70
4
71
3
72
8
73
4
40
0
40
0
40
0
40
0
40
1
40
1
40
1
40
1
41
1
10
27
20
-2.20447743385989
30
0
41
1
10
26.9856611736265
20
-2.27441594136806
30
0
41
1
10
26.9713245654967
20
-2.34397042891328
30
0
41
1
10
26.9569911136997
20
-2.41313714433295
30
0
0
SPLINE
5
105
100
AcDbEntity
8
1
62
256
6
ByLayer
370
18
48
1
60
0
100
AcDbSpline
70
4
71
3
72
18
73
14
40
0
40
0
40
0
40
0
40
0.249999999999976
40
0.249999999999976
40
0.499999999999949
40
0.499999999999949
40
0.624999999999939
40
0.624999999999939
40
0.74999999999996
40
0.74999999999996
40
0.87499999999998
40
0.87499999999998
40
1
40
1
40
1
40
1
41
1
10
26.4406842768114
20
-2.96951452185254
30
0
41
1
10
26.4492544391611
20
-2.9599559017509
30
0
41
1
10
26.4576608994833
20
-2.95153825987614
30
0
41
1
10
26.474113716525
20
-2.93721296526513
30
0
41
1
10
26.4821320195954
20
-2.93133422478158
30
0
41
1
10
26.4936253997582
20
-2.92493855057995
30
0
41
1
10
26.4973788213603
20
-2.92320886281109
30
0
41
1
10
26.504592612255
20
-2.92070122022341
30
0
41
1
10
26.5080659198225
20
-2.91991415789062
30
0
41
1
10
26.5147082438798
20
-2.91940323287321
30
0
41
1
10
26.5178777612026
20
-2.91967762026721
30
0
41
1
10
26.5238503790123
20
-2.92150666345751
30
0
41
1
10
26.526645972319
20
-2.92306715865666
30
0
41
1
10
26.5291532286689
20
-2.92537999439591
30
0
0
SPLINE
5
106
100
AcDbEntity
8
1
62
256
6
ByLayer
370
18
48
1
60
0
100
AcDbSpline
70
4
71
3
72
20
73
16
40
0
40
0
40
0
40
0
40
0.125000000000011
40
0.125000000000011
40
0.187500000000014
40
0.187500000000014
40
0.250000000000016
40
0.250000000000016
40
0.500000000000013
40
0.500000000000013
40
0.75000000000001
40
0.75000000000001
40
0.875000000000005
40
0.875000000000005
40
1
40
1
40
1
40
1
41
1
10
25.971511918025
20
-3.29300570431943
30
0
41
1
10
25.9882948472296
20
-3.29125946897509
30
0
41
1
10
26.0055602717559
20
-3.28786444601516
30
0
41
1
10
26.0321572286686
20
-3.28038389678133
30
0
41
1
10
26.0411395177028
20
-3.27749180822369
30
0
41
1
10
26.0593350830139
20
-3.27091829929859
30
0
41
1
10
26.0685612442349
20
-3.26723067659793
30
0
41
1
10
26.1150213069702
20
-3.24694181544956
30
0
41
1
10
26.1533472225356
20
-3.22477931143635
30
0
41
1
10
26.232103366901
20
-3.16967450506053
30
0
41
1
10
26.2725301730609
20
-3.13674973590955
30
0
41
1
10
26.3346802058838
20
-3.07962818527852
30
0
41
1
10
26.3556829503063
20
-3.05925719604522
30
0
41
1
10
26.3979609634196
20
-3.01615971069179
30
0
41
1
10
26.4192487909941
20
-2.99342530111284
30
0
41
1
10
26.4406842727106
20
-2.96951452144171
30
0
0
SPLINE
5
107
100
AcDbEntity
8
1
62
256
6
ByLayer
370
18
48
1
60
0
100
AcDbSpline
70
4
71
3
72
30
73
26
40
0
40
0
40
0
40
0
40
0.0625000000000037
40
0.0625000000000037
40
0.125000000000007
40
0.125000000000007
40
0.187500000000011
40
0.187500000000011
40
0.218750000000013
40
0.218750000000013
40
0.250000000000015
40
0.250000000000015
40
0.375000000000012
40
0.375000000000012
40
0.50000000000001
40
0.50000000000001
40
0.562500000000009
40
0.562500000000009
40
0.625000000000007
40
0.625000000000007
40
0.750000000000005
40
0.750000000000005
40
0.875000000000002
40
0.875000000000002
40
1
40
1
40
1
40
1
41
1
10
24.5023600844542
20
-2.71355418939018
30
0
41
1
10
24.519842362171
20
-2.75051799820849
30
0
41
1
10
24.5391371652492
20
-2.78482249115081
30
0
41
1
10
24.5806935962641
20
-2.84907858763938
30
0
41
1
10
24.6029598021059
20
-2.87902347423116
30
0
41
1
10
24.650044141446
20
-2.93516908962619
30
0
41
1
10
24.67486450255
20
-2.9613665501131
30
0
41
1
10
24.7137963058133
20
-2.99816667012536
30
0
41
1
10
24.7270579676059
20
-3.01001611725883
30
0
41
1
10
24.7541226261631
20
-3.03292077131843
30
0
41
1
10
24.7679487512303
20
-3.04399323756886
30
0
41
1
10
24.8381008722657
20
-3.09724864509212
30
0
41
1
10
24.8969385778956
20
-3.13282507790876
30
0
41
1
10
25.0187792177489
20
-3.1932000765112
30
0
41
1
10
25.0817902794763
20
-3.21797761172078
30
0
41
1
10
25.178917736735
20
-3.24838809031331
30
0
41
1
10
25.2117320754856
20
-3.25739021128953
30
0
41
1
10
25.2781814781177
20
-3.27327076035655
30
0
41
1
10
25.3118894444447
20
-3.28015962914915
30
0
41
1
10
25.4134887172963
20
-3.29769546691261
30
0
41
1
10
25.481899833517
20
-3.30526388206602
30
0
41
1
10
25.6198974204101
20
-3.31325754474176
30
0
41
1
10
25.6894858206957
20
-3.31367106512107
30
0
41
1
10
25.8297221767586
20
-3.308058701596
30
0
41
1
10
25.9003704201293
20
-3.30203106985431
30
0
41
1
10
25.9715119180254
20
-3.29300570431943
30
0
0
SPLINE
5
108
100
AcDbEntity
8
1
62
256
6
ByLayer
370
18
48
1
60
0
100
AcDbSpline
70
4
71
3
72
24
73
20
40
0
40
0
40
0
40
0
40
0.0528668750918617
40
0.210722395909885
40
0.368577916727908
40
0.486969557341425
40
0.605361197954942
40
0.684288958363954
40
0.743484778670713
40
0.802680598977471
40
0.832278509130851
40
0.86187641928423
40
0.876675374360919
40
0.891474329437609
40
0.906273284514299
40
0.921072239590989
40
0.940804179693241
40
0.960536119795494
40
1
40
1
40
1
40
1
41
1
10
24.5023600836186
20
-2.71355418928673
30
0
41
1
10
24.3349067224124
20
-2.68637202357368
30
0
41
1
10
23.6674533612062
20
-2.5662324417257
30
0
41
1
10
22.5
20
-2.2773278221062
30
0
41
1
10
21.125
20
-1.81713861390168
30
0
41
1
10
19.875
20
-1.31857492899161
30
0
41
1
10
18.875
20
-0.880064926642405
30
0
41
1
10
18.0625
20
-0.507319972779641
30
0
41
1
10
17.4375
20
-0.215785800920372
30
0
41
1
10
16.96875
20
0.0046203284833268
30
0
41
1
10
16.59375
20
0.180137312491524
30
0
41
1
10
16.359375
20
0.290195372058093
30
0
41
1
10
16.1718750000001
20
0.376851434313494
30
0
41
1
10
16.03125
20
0.443240525845283
30
0
41
1
10
15.8906250000001
20
0.505347007972233
30
0
41
1
10
15.734375
20
0.578984138385835
30
0
41
1
10
15.5625
20
0.658089415105081
30
0
41
1
10
15.3125
20
0.772876999981349
30
0
41
1
10
15.125
20
0.858851361549995
30
0
41
1
10
15
20
0.911967452930526
30
0
0
SPLINE
5
109
100
AcDbEntity
8
1
62
256
6
ByLayer
370
13
48
1
60
0
100
AcDbSpline
70
4
71
3
72
23
73
19
40
0
40
0
40
0
40
0
40
0.0800436026573108
40
0.264034882125849
40
0.402028341727252
40
0.540021801328655
40
0.632017441062924
40
0.701014170863626
40
0.770010900664328
40
0.804509265564679
40
0.839007630465029
40
0.856256812915205
40
0.87350599536538
40
0.890755177815556
40
0.908004360265731
40
0.931003270199298
40
0.954002180132866
40
1
40
1
40
1
40
1
41
1
10
23.1525602970574
20
-3.51613261645835
30
0
41
1
10
22.9350401980383
20
-3.52024882221491
30
0
41
1
10
22.2175200990191
20
-3.51213281142995
30
0
41
1
10
21.125
20
-3.38936231008981
30
0
41
1
10
19.8749999999999
20
-3.10652743343698
30
0
41
1
10
18.875
20
-2.78779931537901
30
0
41
1
10
18.0625
20
-2.47227009267067
30
0
41
1
10
17.4375
20
-2.20253424374772
30
0
41
1
10
16.9687499999999
20
-1.98486645154176
30
0
41
1
10
16.59375
20
-1.80284603995952
30
0
41
1
10
16.359375
20
-1.68608494605775
30
0
41
0.999999999999999
10
16.171875
20
-1.59104822981658
30
0
41
1
10
16.03125
20
-1.51899906831892
30
0
41
1
10
15.890625
20
-1.44621993743766
30
0
41
1
10
15.734375
20
-1.36458854443106
30
0
41
1
10
15.5625
20
-1.27386819142814
30
0
41
0.999999999999999
10
15.3125
20
-1.14049339055111
30
0
41
1
10
15.125
20
-1.03899670303187
30
0
41
1
10
15
20
-0.97078631814901
30
0
0
SPLINE
5
10A
100
AcDbEntity
8
1
62
256
6
ByLayer
370
18
48
1
60
0
100
AcDbSpline
70
4
71
3
72
22
73
18
40
0
40
0
40
0
40
0
40
0.125000000000001
40
0.125000000000001
40
0.250000000000002
40
0.250000000000002
40
0.375000000000003
40
0.375000000000003
40
0.437500000000004
40
0.437500000000004
40
0.500000000000004
40
0.500000000000004
40
0.625000000000005
40
0.625000000000005
40
0.750000000000006
40
0.750000000000006
40
1
40
1
40
1
40
1
41
1
10
24.5824213936283
20
2.12564220242365
30
0
41
1
10
24.6247369989863
20
2.09510509127807
30
0
41
1
10
24.6693670159083
20
2.06134261740857
30
0
41
1
10
24.7621807738463
20
1.98886519991282
30
0
41
1
10
24.810375461074
20
1.9501350021456
30
0
41
1
10
24.9097223675056
20
1.86855299098824
30
0
41
1
10
24.9608791653447
20
1.82569479681445
30
0
41
1
10
25.0395535235714
20
1.75870509074929
30
0
41
1
10
25.0661554455982
20
1.73587722433447
30
0
41
1
10
25.119669360328
20
1.68962846415229
30
0
41
1
10
25.146576489931
20
1.66621265407826
30
0
41
1
10
25.2277146120686
20
1.59515649523797
30
0
41
1
10
25.2823607888717
20
1.54671042401574
30
0
41
1
10
25.392629236066
20
1.44792403706614
30
0
41
1
10
25.4482521365909
20
1.39758249847716
30
0
41
1
10
25.6164534263713
20
1.2439718111205
30
0
41
1
10
25.7303554429786
20
1.13813398054614
30
0
41
1
10
25.8458284522448
20
1.02924742159749
30
0
0
SPLINE
5
10B
100
AcDbEntity
8
1
62
256
6
ByLayer
370
18
48
1
60
0
100
AcDbSpline
70
4
71
3
72
9
73
5
40
0
40
0
40
0
40
0
40
0.394316502232148
40
1
40
1
40
1
40
1
41
1
10
24.5824213912764
20
2.12564220307948
30
0
41
1
10
24.3882809275176
20
2.20354947482221
30
0
41
1
10
23.8959341384287
20
2.39057551366253
30
0
41
1
10
23.4035873493396
20
2.54814586776638
30
0
41
1
10
23.1053810240094
20
2.63136830193045
30
0
0
SPLINE
5
10C
100
AcDbEntity
8
1
62
256
6
ByLayer
370
13
48
1
60
0
100
AcDbSpline
70
4
71
3
72
11
73
7
40
0
40
0
40
0
40
0
40
0.197545199897522
40
0.524814861295933
40
0.770267107344742
40
1
40
1
40
1
40
1
41
1
10
26.4054239814963
20
-0.318508922617895
30
0
41
1
10
26.1036159876642
20
-0.119075391623625
30
0
41
1
10
25.3018079938321
20
0.411007644867709
30
0
41
1
10
24.125
20
1.17665698106919
30
0
41
1
10
22.8990159037755
20
1.90932438836228
30
0
41
1
10
22.1730318075509
20
2.28820935574092
30
0
41
1
10
21.8220477113264
20
2.45489168641637
30
0
0
SPLINE
5
10D
100
AcDbEntity
8
1
62
256
6
ByLayer
370
18
48
1
60
0
100
AcDbSpline
70
4
71
3
72
22
73
18
40
0
40
0
40
0
40
0
40
0.125000000000006
40
0.125000000000006
40
0.187500000000006
40
0.187500000000006
40
0.250000000000007
40
0.250000000000007
40
0.500000000000008
40
0.500000000000008
40
0.625000000000006
40
0.625000000000006
40
0.687500000000005
40
0.687500000000005
40
0.750000000000004
40
0.750000000000004
40
1
40
1
40
1
40
1
41
1
10
25.8458284522445
20
1.02924742159749
30
0
41
1
10
25.864036582279
20
0.978112751819594
30
0
41
1
10
25.883217573588
20
0.92563676279471
30
0
41
1
10
25.9133880923318
20
0.844993883221861
30
0
41
1
10
25.9236457660421
20
0.817879371617636
30
0
41
1
10
25.9444429673451
20
0.76347338454201
30
0
41
1
10
25.9549982361173
20
0.73613978293028
30
0
41
1
10
26.0085240731673
20
0.598846951765353
30
0
41
1
10
26.0537231740947
20
0.487029881856529
30
0
41
1
10
26.124713259982
20
0.316643703095195
30
0
41
1
10
26.1489124643756
20
0.25940159933441
30
0
41
1
10
26.1859979751919
20
0.172882599203149
30
0
41
1
10
26.1985093168427
20
0.143891703045881
30
0
41
1
10
26.2236940204183
20
0.0859208492805976
30
0
41
1
10
26.2363612770662
20
0.0569542442518696
30
0
41
1
10
26.3000632212405
20
-0.0877868987803652
30
0
41
1
10
26.3521875948151
20
-0.203287623844943
30
0
41
1
10
26.4054239751133
20
-0.318508927523311
30
0
0
SPLINE
5
10E
100
AcDbEntity
8
1
62
256
6
ByLayer
370
18
48
1
60
0
100
AcDbSpline
70
4
71
3
72
18
73
14
40
0
40
0
40
0
40
0
40
0.25
40
0.25
40
0.499999999999999
40
0.499999999999999
40
0.624999999999999
40
0.624999999999999
40
0.75
40
0.75
40
0.875
40
0.875
40
1
40
1
40
1
40
1
41
1
10
26.4054239793853
20
-0.318508925745817
30
0
41
1
10
26.4143353314982
20
-0.33779611134986
30
0
41
1
10
26.4230477616783
20
-0.357065207852543
30
0
41
1
10
26.4400400199979
20
-0.395564052688116
30
0
41
1
10
26.4483214544477
20
-0.414793949315623
30
0
41
1
10
26.4603400584799
20
-0.443602092902267
30
0
41
1
10
26.4642764053779
20
-0.4531957497436
30
0
41
1
10
26.4718754137335
20
-0.472086158176438
30
0
41
1
10
26.4755521228099
20
-0.481415784410871
30
0
41
1
10
26.4826136607758
20
-0.499800311563462
30
0
41
1
10
26.4859736881258
20
-0.508791744012626
30
0
41
1
10
26.4922334511352
20
-0.526150527583354
30
0
41
1
10
26.4951424755506
20
-0.534540450128617
30
0
41
1
10
26.4977711760037
20
-0.542562961790793
30
0
0
SPLINE
5
10F
100
AcDbEntity
8
1
62
256
6
ByLayer
370
18
48
1
60
0
100
AcDbSpline
70
4
71
3
72
14
73
10
40
0
40
0
40
0
40
0
40
0.500000000000003
40
0.500000000000003
40
0.625000000000003
40
0.625000000000003
40
0.750000000000003
40
0.750000000000003
40
1
40
1
40
1
40
1
41
1
10
26.9853861469276
20
-1.81406231061669
30
0
41
1
10
26.9694166807183
20
-1.72560548593304
30
0
41
1
10
26.9555010855245
20
-1.64842746113322
30
0
41
1
10
26.9407186704237
20
-1.56629911965322
30
0
41
1
10
26.9378938836566
20
-1.55059665922809
30
0
41
1
10
26.9325133882283
20
-1.52066937649849
30
0
41
1
10
26.9299768718126
20
-1.50655128366344
30
0
41
1
10
26.9228431691356
20
-1.46681591705709
30
0
41
1
10
26.9187089348471
20
-1.44374589864739
30
0
41
1
10
26.9151755938165
20
-1.4239823445435
30
0
0
SPLINE
5
110
100
AcDbEntity
8
1
62
256
6
ByLayer
370
13
48
1
60
0
100
AcDbSpline
70
4
71
3
72
24
73
20
40
0
40
0
40
0
40
0
40
0.0411459514667932
40
0.0617189272001899
40
0.0822919029335865
40
0.097721634733634
40
0.113151366533681
40
0.128581098333729
40
0.144010830133776
40
0.174870293733871
40
0.205729757333966
40
0.267448684534156
40
0.329167611734346
40
0.411459514667933
40
0.534897369068312
40
0.658335223468692
40
0.822919029335865
40
0.987502835203038
40
1
40
1
40
1
40
1
41
1
10
15
20
1.59811841151324
30
0
41
1
10
15.125
20
1.58075760637561
30
0
41
0.999999999999999
10
15.3125000000001
20
1.55274239758578
30
0
41
1
10
15.5625
20
1.51155700367118
30
0
41
1
10
15.734375
20
1.48151504081534
30
0
41
1
10
15.8906250000001
20
1.45285578452325
30
0
41
1
10
16.03125
20
1.42603818622729
30
0
41
0.999999999999999
10
16.1718750000001
20
1.3982133759655
30
0
41
1
10
16.359375
20
1.35979501221144
30
0
41
1
10
16.59375
20
1.30934798609331
30
0
41
1
10
16.96875
20
1.2236889908348
30
0
41
1
10
17.4375
20
1.10782045368498
30
0
41
1
10
18.0625
20
0.939625898360873
30
0
41
1
10
18.875
20
0.703458510321923
30
0
41
1
10
19.875
20
0.387602417666357
30
0
41
1
10
21.125
20
-0.027124424746944
30
0
41
1
10
22.5
20
-0.482510999353622
30
0
41
1
10
23.5379659612655
20
-0.801214369340102
30
0
41
1
10
24.075931922531
20
-0.95159234857789
30
0
41
1
10
24.1138978837965
20
-0.962129333597545
30
0
0
SPLINE
5
111
100
AcDbEntity
8
1
62
256
6
ByLayer
370
18
48
1
60
0
100
AcDbSpline
70
4
71
3
72
30
73
26
40
0
40
0
40
0
40
0
40
0.125000000000037
40
0.125000000000037
40
0.187500000000056
40
0.187500000000056
40
0.250000000000074
40
0.250000000000074
40
0.375000000000088
40
0.375000000000088
40
0.437500000000083
40
0.437500000000083
40
0.500000000000077
40
0.500000000000077
40
0.625000000000067
40
0.625000000000067
40
0.687500000000061
40
0.687500000000061
40
0.750000000000056
40
0.750000000000056
40
0.875000000000045
40
0.875000000000045
40
0.937500000000023
40
0.937500000000023
40
1
40
1
40
1
40
1
41
1
10
24.113897883797
20
-0.962129333597602
30
0
41
1
10
24.1211110369462
20
-0.942040634700334
30
0
41
1
10
24.1306364767587
20
-0.923256870343351
30
0
41
1
10
24.1480482816723
20
-0.896927440424406
30
0
41
1
10
24.1543778465995
20
-0.888460650782548
30
0
41
1
10
24.1680844751265
20
-0.872149510391637
30
0
41
1
10
24.175490603593
20
-0.864285420906327
30
0
41
1
10
24.198806239892
20
-0.84209688025885
30
0
41
1
10
24.2159220910238
20
-0.829000260156278
30
0
41
1
10
24.2438479554983
20
-0.811725329137261
30
0
41
1
10
24.2535610759407
20
-0.806351578515006
30
0
41
1
10
24.2736410831184
20
-0.796451154381828
30
0
41
1
10
24.2839220199248
20
-0.791963432621117
30
0
41
1
10
24.3154611569386
20
-0.779797629731149
30
0
41
1
10
24.3374113218667
20
-0.773410007192155
30
0
41
1
10
24.3717124520649
20
-0.766212978946044
30
0
41
1
10
24.3834186601352
20
-0.764209952874808
30
0
41
1
10
24.4069361104557
20
-0.761029543496164
30
0
41
1
10
24.4187787882014
20
-0.759842516079203
30
0
41
1
10
24.4545559648626
20
-0.757403898963219
30
0
41
1
10
24.4787386068519
20
-0.757269374690281
30
0
41
1
10
24.515519598828
20
-0.75907829051954
30
0
41
1
10
24.5278859808227
20
-0.760021277028017
30
0
41
1
10
24.5525590044647
20
-0.762529580099226
30
0
41
1
10
24.5648904037625
20
-0.764095029649127
30
0
41
1
10
24.5772189691621
20
-0.76595227981926
30
0
0
SPLINE
5
112
100
AcDbEntity
8
1
62
256
6
ByLayer
370
18
48
1
60
0
100
AcDbSpline
70
4
71
3
72
10
73
6
40
0
40
0
40
0
40
0
40
0.496126353275074
40
0.496126353275074
40
1
40
1
40
1
40
1
41
1
10
25.2086323414223
20
-0.869530862635429
30
0
41
1
10
25.1049279641368
20
-0.850878241879201
30
0
41
1
10
25.0008102811628
20
-0.83310504528643
30
0
41
1
10
24.7902985287515
20
-0.798665299208295
30
0
41
1
10
24.6838933630539
20
-0.782022360139422
30
0
41
1
10
24.5772189691621
20
-0.765952279819288
30
0
0
SPLINE
5
113
100
AcDbEntity
8
1
62
256
6
ByLayer
370
18
48
1
60
0
100
AcDbSpline
70
4
71
3
72
16
73
12
40
0
40
0
40
0
40
0
40
0.0414581599478294
40
0.0414581599478294
40
0.20121513328986
40
0.20121513328986
40
0.360972106631891
40
0.360972106631891
40
0.680486053315945
40
0.680486053315945
40
1
40
1
40
1
40
1
41
1
10
13.1113564214799
20
-3.83442271181951
30
0
41
1
10
13.1097753052654
20
-3.83500116123142
30
0
41
1
10
13.108102129437
20
-3.8355339956328
30
0
41
1
10
13.0995665181222
20
-3.83790054073478
30
0
41
1
10
13.0915147183113
20
-3.83910755776981
30
0
41
1
10
13.0733317372474
20
-3.84020515238555
30
0
41
1
10
13.0631805853444
20
-3.8400923754975
30
0
41
1
10
13.0303341863547
20
-3.83783516115332
30
0
41
1
10
13.0052218968014
20
-3.83378844988894
30
0
41
1
10
12.9501173318136
20
-3.82096141319983
30
0
41
1
10
12.9201032374095
20
-3.81217812027933
30
0
41
1
10
12.887963862754
20
-3.80113617446742
30
0
0
SPLINE
5
114
100
AcDbEntity
8
1
62
256
6
ByLayer
370
18
48
1
60
0
100
AcDbSpline
70
4
71
3
72
13
73
9
40
0
40
0
40
0
40
0
40
0.25
40
0.5
40
0.5
40
0.75
40
0.75
40
1
40
1
40
1
40
1
41
1
10
12.887963862754
20
-3.80113617446745
30
0
41
1
10
12.7807507386536
20
-3.78443246327544
30
0
41
1
10
12.5679838049323
20
-3.74034630455313
30
0
41
1
10
12.3554433152674
20
-3.67577557812217
30
0
41
1
10
12.1414330561395
20
-3.60165851833662
30
0
41
1
10
12.0336936391166
20
-3.55982548620258
30
0
41
1
10
11.8151115839782
20
-3.46759327045493
30
0
41
1
10
11.7042693332533
20
-3.41719206142071
30
0
41
1
10
11.5910249675296
20
-3.36316591866779
30
0
0
SPLINE
5
115
100
AcDbEntity
8
1
62
256
6
ByLayer
370
18
48
1
60
0
100
AcDbSpline
70
4
71
3
72
25
73
21
40
0
40
0
40
0
40
0
40
0.249999999999986
40
0.249999999999986
40
0.374999999999987
40
0.374999999999987
40
0.437499999999988
40
0.437499999999988
40
0.499999999999989
40
0.499999999999989
40
0.624999999999991
40
0.624999999999991
40
0.687499999999993
40
0.687499999999993
40
0.749999999999994
40
0.812499999999996
40
0.812499999999996
40
0.874999999999998
40
0.874999999999998
40
1
40
1
40
1
40
1
41
1
10
11.5910249675296
20
-3.36316591866779
30
0
41
1
10
11.551041072118
20
-3.3440905710554
30
0
41
1
10
11.514158267729
20
-3.32337390811691
30
0
41
1
10
11.465531014213
20
-3.28870831380891
30
0
41
1
10
11.4504504247463
20
-3.27654830309265
30
0
41
1
10
11.4300087058872
20
-3.25714137936603
30
0
41
1
10
11.4235374863388
20
-3.25044903161395
30
0
41
1
10
11.4115820438695
20
-3.23677239322504
30
0
41
1
10
11.4060959164989
20
-3.2297921845234
30
0
41
1
10
11.3912595472838
20
-3.20838595977221
30
0
41
1
10
11.383513266611
20
-3.19349875814942
30
0
41
1
10
11.3759516670681
20
-3.1700218969419
30
0
41
1
10
11.3741477305095
20
-3.16209922903621
30
0
41
1
10
11.3720590631546
20
-3.14618209730111
30
0
41
1
10
11.3714767731667
20
-3.13015452549041
30
0
41
1
10
11.3740275205159
20
-3.11390851443733
30
0
41
1
10
11.3782226961659
20
-3.09755466382495
30
0
41
1
10
11.3811705319414
20
-3.08927801818984
30
0
41
1
10
11.3923134299068
20
-3.06488568365307
30
0
41
1
10
11.4027981508138
20
-3.04906342889436
30
0
41
1
10
11.4160750352754
20
-3.03367432131432
30
0
0
SPLINE
5
116
100
AcDbEntity
8
1
62
256
6
ByLayer
370
18
48
1
60
0
100
AcDbSpline
70
4
71
3
72
33
73
29
40
0
40
0
40
0
40
0
40
0.0625000000000002
40
0.0625000000000002
40
0.125
40
0.125
40
0.187500000000001
40
0.187500000000001
40
0.250000000000001
40
0.250000000000001
40
0.312500000000001
40
0.312500000000001
40
0.343749999999998
40
0.343749999999998
40
0.374999999999996
40
0.374999999999996
40
0.499999999999997
40
0.499999999999997
40
0.562499999999997
40
0.562499999999997
40
0.624999999999997
40
0.687499999999998
40
0.687499999999998
40
0.749999999999998
40
0.749999999999998
40
0.874999999999999
40
0.874999999999999
40
1
40
1
40
1
40
1
41
1
10
11.4160750352753
20
-3.03367432131432
30
0
41
1
10
11.4493399488481
20
-2.99511728369797
30
0
41
1
10
11.4888632839513
20
-2.95848362911463
30
0
41
1
10
11.5771122191817
20
-2.88829920534622
30
0
41
1
10
11.6258769840278
20
-2.85475352379527
30
0
41
1
10
11.7307470451076
20
-2.79035766097843
30
0
41
1
10
11.7856984630489
20
-2.76020489904147
30
0
41
1
10
11.8993717446625
20
-2.703132782589
30
0
41
1
10
11.9581056746042
20
-2.67622174396763
30
0
41
1
10
12.0786233412213
20
-2.62515566507099
30
0
41
1
10
12.1404122626613
20
-2.60100420265726
30
0
41
1
10
12.2350363793135
20
-2.56662412734056
30
0
41
1
10
12.2669157491387
20
-2.55546982301084
30
0
41
1
10
12.3309756381961
20
-2.53385243224912
30
0
41
1
10
12.363194288474
20
-2.52337509192745
30
0
41
1
10
12.5251602246347
20
-2.47255252401246
30
0
41
1
10
12.6574895918542
20
-2.43684775505923
30
0
41
1
10
12.8592852938377
20
-2.38969733199673
30
0
41
1
10
12.9271235547849
20
-2.37505827975221
30
0
41
1
10
13.0632682863894
20
-2.34796195858411
30
0
41
1
10
13.2000270854074
20
-2.323011917033
30
0
41
1
10
13.3379405058971
20
-2.30220514171847
30
0
41
1
10
13.4764081416622
20
-2.28343235933022
30
0
41
1
10
13.5459725267749
20
-2.27505871531321
30
0
41
1
10
13.754804919954
20
-2.25304141904991
30
0
41
1
10
13.8943652035295
20
-2.24246379211309
30
0
41
1
10
14.174144989333
20
-2.22946855947271
30
0
41
1
10
14.3143647991493
20
-2.22705443684734
30
0
41
1
10
14.4549226783579
20
-2.22884546351887
30
0
0
SPLINE
5
117
100
AcDbEntity
8
1
62
256
6
ByLayer
370
18
48
1
60
0
100
AcDbSpline
70
4
71
3
72
16
73
12
40
0
40
0
40
0
40
0
40
0.499999999999989
40
0.499999999999989
40
0.624999999999987
40
0.624999999999987
40
0.687499999999988
40
0.687499999999988
40
0.749999999999989
40
0.749999999999989
40
1
40
1
40
1
40
1
41
1
10
12.5718022155889
20
2.23699389650179
30
0
41
1
10
12.3947412765342
20
2.51709893670323
30
0
41
1
10
12.2190930372296
20
2.76376234063085
30
0
41
1
10
11.9819784798927
20
3.02674980163883
30
0
41
1
10
11.9336761738079
20
3.07707753595392
30
0
41
1
10
11.8595049616673
20
3.14908653342229
30
0
41
1
10
11.8344945805682
20
3.17250903758517
30
0
41
1
10
11.7838290441035
20
3.21817946660585
30
0
41
1
10
11.758163956046
20
3.24043326826282
30
0
41
1
10
11.6286624932642
20
3.34823510739409
30
0
41
1
10
11.5208545188293
20
3.42381276610385
30
0
41
1
10
11.4066679641748
20
3.48917347175507
30
0
0
SPLINE
5
118
100
AcDbEntity
8
1
62
256
6
ByLayer
370
18
48
1
60
0
100
AcDbSpline
70
4
71
3
72
18
73
14
40
0
40
0
40
0
40
0
40
0.250000000000003
40
0.250000000000003
40
0.375000000000003
40
0.375000000000003
40
0.500000000000003
40
0.500000000000003
40
0.750000000000004
40
0.750000000000004
40
0.875000000000002
40
0.875000000000002
40
1
40
1
40
1
40
1
41
1
10
11.4066679641734
20
3.4891734717564
30
0
41
1
10
11.3901326220883
20
3.49863834816091
30
0
41
1
10
11.375208143891
20
3.5082889253419
30
0
41
1
10
11.3557847134775
20
3.52309135237292
30
0
41
1
10
11.3498064516153
20
3.52808019416591
30
0
41
1
10
11.338972772155
20
3.53817988459861
30
0
41
1
10
11.334106427048
20
3.54331116924709
30
0
41
1
10
11.3216785147495
20
3.55858284488235
30
0
41
1
10
11.3161680207439
20
3.56868632230427
30
0
41
1
10
11.3125596755092
20
3.58371229565924
30
0
41
1
10
11.3121352521466
20
3.58869946263331
30
0
41
1
10
11.312957934917
20
3.59862940215012
30
0
41
1
10
11.3142002211059
20
3.60349944625503
30
0
41
1
10
11.3162631896129
20
3.60827125666279
30
0
0
SPLINE
5
119
100
AcDbEntity
8
1
62
256
6
ByLayer
370
18
48
1
60
0
100
AcDbSpline
70
4
71
3
72
39
73
35
40
0
40
0
40
0
40
0
40
0.0625000000000069
40
0.0625000000000069
40
0.0781250000000081
40
0.0781250000000081
40
0.0937500000000093
40
0.0937500000000093
40
0.125000000000009
40
0.125000000000009
40
0.187500000000011
40
0.187500000000011
40
0.203125000000013
40
0.203125000000013
40
0.218750000000014
40
0.250000000000013
40
0.250000000000013
40
0.312500000000011
40
0.312500000000011
40
0.375000000000009
40
0.375000000000009
40
0.437500000000007
40
0.437500000000007
40
0.500000000000005
40
0.500000000000005
40
0.625000000000001
40
0.625000000000001
40
0.687499999999999
40
0.687499999999999
40
0.749999999999997
40
0.749999999999997
40
0.874999999999999
40
0.874999999999999
40
1
40
1
40
1
40
1
41
1
10
11.3162631896129
20
3.60827125666279
30
0
41
1
10
11.3280017439935
20
3.63542346755438
30
0
41
1
10
11.3512194752947
20
3.65891102599628
30
0
41
1
10
11.3916051061776
20
3.6847563975081
30
0
41
1
10
11.4002560095842
20
3.68974794212181
30
0
41
1
10
11.4186504949328
20
3.69939622003994
30
0
41
1
10
11.4283838968958
20
3.70404452749514
30
0
41
1
10
11.4587376144456
20
3.71735773941177
30
0
41
1
10
11.4806213508325
20
3.72545683422354
30
0
41
1
10
11.5503854144203
20
3.74785283318323
30
0
41
1
10
11.6023363438223
20
3.76026956771528
30
0
41
1
10
11.6723245535066
20
3.77356434828857
30
0
41
1
10
11.6865976692683
20
3.77611308938378
30
0
41
1
10
11.7154543070292
20
3.78097326828413
30
0
41
1
10
11.7592514730629
20
3.78791696101322
30
0
41
1
10
11.8044548807969
20
3.79392203298355
30
0
41
1
10
11.8964698753229
20
3.80488923963981
30
0
41
1
10
11.959944328615
20
3.81081994568316
30
0
41
1
10
12.0902012298619
20
3.82067945733988
30
0
41
1
10
12.156990968488
20
3.82460270812669
30
0
41
1
10
12.2932930746847
20
3.83093153050243
30
0
41
1
10
12.3629336601338
20
3.83333641065738
30
0
41
1
10
12.5036125184635
20
3.83695306670757
30
0
41
1
10
12.5747206587052
20
3.83816936453724
30
0
41
1
10
12.7900262737092
20
3.84047247261583
30
0
41
1
10
12.9361855459125
20
3.84023247728305
30
0
41
1
10
13.1586039026621
20
3.83835927177077
30
0
41
1
10
13.2333361439002
20
3.83747572900705
30
0
41
1
10
13.3833392492733
20
3.83533928195513
30
0
41
1
10
13.4586486790155
20
3.83408615425898
30
0
41
1
10
13.6854486516875
20
3.82995456060803
30
0
41
1
10
13.8378055690237
20
3.82670909417345
30
0
41
1
10
14.1447098809557
20
3.82002470205768
30
0
41
1
10
14.2992581224135
20
3.81658259629953
30
0
41
1
10
14.454922678358
20
3.81336710443338
30
0
0
SPLINE
5
11A
100
AcDbEntity
8
1
62
256
6
ByLayer
370
18
48
1
60
0
100
AcDbSpline
70
4
71
3
72
8
73
4
40
0
40
0
40
0
40
0
40
1
40
1
40
1
40
1
41
1
10
27
20
-2.02998927221319
30
0
41
1
10
26.9853938383926
20
-1.94637332092873
30
0
41
1
10
26.970790116022
20
-1.86245927433248
30
0
41
1
10
26.9561901175188
20
-1.77825492890455
30
0
0
SPLINE
5
11B
100
AcDbEntity
8
1
62
256
6
ByLayer
370
18
48
1
60
0
100
AcDbSpline
70
4
71
3
72
11
73
7
40
0
40
0
40
0
40
0
40
0.25
40
0.5
40
0.75
40
1
40
1
40
1
40
1
41
1
10
15
20
0.911967452930526
30
0
41
1
10
15
20
0.805013856678983
30
0
41
1
10
15
20
0.549887970240405
30
0
41
1
10
15
20
0.0737181687885027
30
0
41
1
10
15
20
-0.452394852590487
30
0
41
1
10
15
20
-0.803230429319939
30
0
41
1
10
15
20
-0.97078631814901
30
0
0
SPLINE
5
11C
100
AcDbEntity
8
1
62
256
6
ByLayer
370
18
48
1
60
0
100
AcDbSpline
70
4
71
3
72
47
73
43
40
0
40
0
40
0
40
0
40
0.0625000000000007
40
0.0625000000000007
40
0.093750000000001
40
0.093750000000001
40
0.125000000000001
40
0.125000000000001
40
0.187500000000002
40
0.187500000000002
40
0.203125
40
0.203125
40
0.218749999999998
40
0.249999999999995
40
0.249999999999995
40
0.281249999999992
40
0.281249999999992
40
0.312499999999988
40
0.312499999999988
40
0.328124999999989
40
0.328124999999989
40
0.343749999999989
40
0.343749999999989
40
0.374999999999989
40
0.374999999999989
40
0.40624999999999
40
0.40624999999999
40
0.43749999999999
40
0.43749999999999
40
0.499999999999991
40
0.499999999999991
40
0.562499999999993
40
0.562499999999993
40
0.624999999999994
40
0.624999999999994
40
0.749999999999994
40
0.749999999999994
40
0.812499999999996
40
0.812499999999996
40
0.874999999999997
40
0.874999999999997
40
1
40
1
40
1
40
1
41
1
10
12.2874443600271
20
0.509409395600954
30
0
41
1
10
12.3373534149638
20
0.511787148082476
30
0
41
1
10
12.3870043524403
20
0.516151996551912
30
0
41
1
10
12.4609218907093
20
0.526995724466133
30
0
41
1
10
12.4854670706305
20
0.531332886903925
30
0
41
1
10
12.5343247346101
20
0.541793882092662
30
0
41
1
10
12.5585523791654
20
0.547905926066647
30
0
41
1
10
12.6298200633892
20
0.569253703832004
30
0
41
1
10
12.6757186047712
20
0.587473633503691
30
0
41
1
10
12.7300463701737
20
0.617736986841578
30
0
41
1
10
12.7407932435964
20
0.624194149853224
30
0
41
1
10
12.7617668772341
20
0.637847295652676
30
0
41
1
10
12.7923027681789
20
0.659331092546182
30
0
41
1
10
12.8199506595838
20
0.683943614923919
30
0
41
1
10
12.854042050216
20
0.719745633246959
30
0
41
1
10
12.8697843836671
20
0.739312858949461
30
0
41
1
10
12.8973811749137
20
0.780083138966859
30
0
41
1
10
12.909381467641
20
0.801392497841448
30
0
41
1
10
12.9249484780101
20
0.834587623551016
30
0
41
1
10
12.9297316237063
20
0.845858006579704
30
0
41
1
10
12.938526596054
20
0.868785569503643
30
0
41
1
10
12.9425240395669
20
0.880413591344279
30
0
41
1
10
12.9532912837392
20
0.915333160238873
30
0
41
1
10
12.9589063843133
20
0.938820847409716
30
0
41
1
10
12.9676080284057
20
0.98610424467725
30
0
41
1
10
12.9706922615067
20
1.00990036552878
30
0
41
1
10
12.9747590817455
20
1.05772297544866
30
0
41
1
10
12.9757373001252
20
1.08183851735552
30
0
41
1
10
12.9760115759015
20
1.15350788251831
30
0
41
1
10
12.9727395783613
20
1.20055924510638
30
0
41
1
10
12.9614989101894
20
1.29349355630634
30
0
41
1
10
12.9535033904687
20
1.33937309823651
30
0
41
1
10
12.9339534824144
20
1.43011286383015
30
0
41
1
10
12.9223535996489
20
1.47507528269011
30
0
41
1
10
12.8836074076304
20
1.60736620682698
30
0
41
1
10
12.8525620547981
20
1.69242415788341
30
0
41
1
10
12.8004940809202
20
1.81621148110961
30
0
41
1
10
12.7821730264495
20
1.85688110463477
30
0
41
1
10
12.7439595938766
20
1.93675371689179
30
0
41
1
10
12.7240807631272
20
1.97593401920312
30
0
41
1
10
12.6623269134874
20
2.09135077361682
30
0
41
1
10
12.6183516757743
20
2.16547209214588
30
0
41
1
10
12.5718022155889
20
2.23699389650179
30
0
0
SPLINE
5
11D
100
AcDbEntity
8
1
62
256
6
ByLayer
370
13
48
1
60
0
100
AcDbSpline
70
4
71
3
72
23
73
19
40
0
40
0
40
0
40
0
40
0.0751561399645543
40
0.260124911971644
40
0.39885149097696
40
0.537578069982277
40
0.630062455985822
40
0.69942574548848
40
0.768789034991139
40
0.803470679742468
40
0.838152324493797
40
0.855493146869462
40
0.872833969245126
40
0.890174791620791
40
0.907515613996455
40
0.930636710497342
40
0.953757806998228
40
1
40
1
40
1
40
1
41
1
10
23.1094769875129
20
0.693900882725842
30
0
41
1
10
22.9063179916753
20
0.833906432983213
30
0
41
1
10
22.2031589958376
20
1.3133290342071
30
0
41
1
10
21.125
20
2.00436044509959
30
0
41
1
10
19.875
20
2.68240460104548
30
0
41
1
10
18.875
20
3.11994214586562
30
0
41
1
10
18.0625
20
3.39046550695605
30
0
41
1
10
17.4375
20
3.54766851528797
30
0
41
1
10
16.96875
20
3.63238454725533
30
0
41
1
10
16.59375
20
3.67995621679074
30
0
41
1
10
16.359375
20
3.70120856612437
30
0
41
0.999999999999999
10
16.171875
20
3.71308363598897
30
0
41
1
10
16.03125
20
3.71941657228192
30
0
41
1
10
15.890625
20
3.72316603691579
30
0
41
1
10
15.734375
20
3.72445017733906
30
0
41
1
10
15.5625
20
3.72214938665414
30
0
41
0.999999999999999
10
15.3125
20
3.71259642663958
30
0
41
1
10
15.125
20
3.6984111797511
30
0
41
1
10
15
20
3.68579935492389
30
0
0
SPLINE
5
11E
100
AcDbEntity
8
1
62
256
6
ByLayer
370
18
48
1
60
0
100
AcDbSpline
70
4
71
3
72
8
73
4
40
0
40
0
40
0
40
0
40
1
40
1
40
1
40
1
41
1
10
26.5291532308794
20
-2.92537999192194
30
0
41
1
10
26.5564761185707
20
-2.95077988905931
30
0
41
1
10
26.5844505723978
20
-2.97444582046805
30
0
41
1
10
26.6131202634147
20
-2.99626157509385
30
0
0
SPLINE
5
11F
100
AcDbEntity
8
1
62
256
6
ByLayer
370
13
48
1
60
0
100
AcDbSpline
70
4
71
3
72
8
73
4
40
0
40
0
40
0
40
0
40
1
40
1
40
1
40
1
41
1
10
26.5291532321002
20
-2.92537999232942
30
0
41
1
10
26.5087368779213
20
-2.932369212427
30
0
41
1
10
26.4883205237425
20
-2.9393082269477
30
0
41
1
10
26.4679041695636
20
-2.94619685171648
30
0
0
SPLINE
5
120
100
AcDbEntity
8
1
62
256
6
ByLayer
370
13
48
1
60
0
100
AcDbSpline
70
4
71
3
72
24
73
20
40
0
40
0
40
0
40
0
40
0.0337619857353467
40
0.194801654779456
40
0.355841323823564
40
0.476621075606646
40
0.597400827389728
40
0.677920661911782
40
0.738310537803323
40
0.798700413694864
40
0.828895351640634
40
0.859090289586405
40
0.87418775855929
40
0.889285227532175
40
0.90438269650506
40
0.919480165477946
40
0.939610124108459
40
0.959740082738973
40
1
40
1
40
1
40
1
41
1
10
24.3144751780952
20
-3.4779109483317
30
0
41
1
10
24.2096501187302
20
-3.49391835993308
30
0
41
1
10
23.6048250593652
20
-3.57762938885318
30
0
41
1
10
22.5000000000001
20
-3.63786541451108
30
0
41
1
10
21.1250000000001
20
-3.51388726322762
30
0
41
1
10
19.8750000000001
20
-3.25339698656984
30
0
41
1
10
18.8750000000001
20
-2.94827351277147
30
0
41
1
10
18.0625000000001
20
-2.64054520109454
30
0
41
1
10
17.4375000000001
20
-2.37497412752143
30
0
41
1
10
16.9687500000001
20
-2.15922530379348
30
0
41
1
10
16.5937500000001
20
-1.97801106648578
30
0
41
1
10
16.3593750000001
20
-1.86144976055812
30
0
41
1
10
16.1718750000001
20
-1.76639043458618
30
0
41
1
10
16.0312500000001
20
-1.6942331291076
30
0
41
1
10
15.8906250000001
20
-1.62125470470335
30
0
41
1
10
15.7343750000001
20
-1.53930063909996
30
0
41
1
10
15.5625000000001
20
-1.44809547051875
30
0
41
1
10
15.3125000000001
20
-1.31379960527883
30
0
41
1
10
15.1250000000001
20
-1.21136914929744
30
0
41
1
10
15.0000000000001
20
-1.1424279196612
30
0
0
SPLINE
5
121
100
AcDbEntity
8
1
62
256
6
ByLayer
370
18
48
1
60
0
100
AcDbSpline
70
4
71
3
72
8
73
4
40
0
40
0
40
0
40
0
40
1
40
1
40
1
40
1
41
1
10
26.9569911086176
20
-2.4131371497059
30
0
41
1
10
26.9431327419278
20
-2.46962735676158
30
0
41
1
10
26.9292962511973
20
-2.52565889999607
30
0
41
1
10
26.9154814982962
20
-2.58123451115364
30
0
0
SPLINE
5
122
100
AcDbEntity
8
1
62
256
6
ByLayer
370
18
48
1
60
0
100
AcDbSpline
70
4
71
3
72
8
73
4
40
0
40
0
40
0
40
0
40
1
40
1
40
1
40
1
41
1
10
26.9154814982962
20
-2.58123451115364
30
0
41
1
10
26.8165123548262
20
-2.72303542185952
30
0
41
1
10
26.7184861948457
20
-2.85791694765692
30
0
41
1
10
26.6213869694477
20
-2.98599685154474
30
0
0
SPLINE
5
123
100
AcDbEntity
8
1
62
256
6
ByLayer
370
18
48
1
60
0
100
AcDbSpline
70
4
71
3
72
8
73
4
40
0
40
0
40
0
40
0
40
1
40
1
40
1
40
1
41
1
10
26.6213869694473
20
-2.98599685154465
30
0
41
1
10
26.618631137002
20
-2.9894236198358
30
0
41
1
10
26.615875568325
20
-2.99284519434229
30
0
41
1
10
26.6131202634143
20
-2.99626157509815
30
0
0
SPLINE
5
124
100
AcDbEntity
8
1
62
256
6
ByLayer
370
18
48
1
60
0
100
AcDbSpline
70
4
71
3
72
8
73
4
40
0
40
0
40
0
40
0
40
1
40
1
40
1
40
1
41
1
10
26.6131202634042
20
-2.99626157510031
30
0
41
1
10
26.506448785737
20
-3.03827969432061
30
0
41
1
10
26.3997655304938
20
-3.07886871549721
30
0
41
1
10
26.2930477397916
20
-3.11801921258188
30
0
0
SPLINE
5
125
100
AcDbEntity
8
1
62
256
6
ByLayer
370
18
48
1
60
0
100
AcDbSpline
70
4
71
3
72
50
73
46
40
0
40
0
40
0
40
0
40
0.0097488733204356
40
0.0097488733204356
40
0.0438954638955929
40
0.0438954638955929
40
0.112188645045906
40
0.112188645045906
40
0.180481826196219
40
0.180481826196219
40
0.248775007346532
40
0.248775007346532
40
0.317068188496845
40
0.317068188496845
40
0.334141483784423
40
0.334141483784423
40
0.351214779072001
40
0.351214779072001
40
0.385361369647157
40
0.385361369647157
40
0.45365455079747
40
0.45365455079747
40
0.487801141372627
40
0.487801141372627
40
0.521947731947785
40
0.521947731947785
40
0.590240913098099
40
0.590240913098099
40
0.658534094248414
40
0.658534094248414
40
0.692680684823571
40
0.692680684823571
40
0.709753980111149
40
0.709753980111149
40
0.726827275398728
40
0.726827275398728
40
0.795120456549045
40
0.795120456549045
40
0.863413637699363
40
0.863413637699363
40
0.897560228274522
40
0.897560228274522
40
0.931706818849681
40
0.931706818849681
40
1
40
1
40
1
40
1
41
1
10
25.623288096887
20
-3.34453414204143
30
0
41
1
10
25.5885263618524
20
-3.35528495078688
30
0
41
1
10
25.5537557316405
20
-3.36587999639687
30
0
41
1
10
25.3971529132723
20
-3.41288003218782
30
0
41
1
10
25.2751438008872
20
-3.44753332696661
30
0
41
1
10
24.9101962423142
20
-3.54517473120069
30
0
41
1
10
24.6678426981151
20
-3.60204718758922
30
0
41
1
10
24.1844418352997
20
-3.69846182308356
30
0
41
1
10
23.9433847781252
20
-3.73797937438871
30
0
41
1
10
23.4613274948821
20
-3.80008739298947
30
0
41
1
10
23.2203585095977
20
-3.82259690475394
30
0
41
1
10
22.737530799039
20
-3.84995955694191
30
0
41
1
10
22.4956714611426
20
-3.85480248590122
30
0
41
1
10
22.1921262949006
20
-3.84928147101684
30
0
41
1
10
22.1313551633824
20
-3.84760552796979
30
0
41
1
10
22.0096690561416
20
-3.84312314477938
30
0
41
1
10
21.9488390259069
20
-3.84031940706089
30
0
41
1
10
21.7666238069828
20
-3.8302740019179
30
0
41
1
10
21.6454021834038
20
-3.82139146474978
30
0
41
1
10
21.2823228938266
20
-3.7882938591348
30
0
41
1
10
21.0410355982634
20
-3.75764262867054
30
0
41
1
10
20.6796433654932
20
-3.69907573986055
30
0
41
1
10
20.5592784325649
20
-3.67744815680641
30
0
41
1
10
20.3186887170705
20
-3.62996668667211
30
0
41
1
10
20.1984648539292
20
-3.60410548995273
30
0
41
1
10
19.8378138003267
20
-3.52049494440592
30
0
41
1
10
19.597390140265
20
-3.45686800124227
30
0
41
1
10
19.1159200676681
20
-3.31354876554522
30
0
41
1
10
18.8748538627581
20
-3.23392754280843
30
0
41
1
10
18.5120513658086
20
-3.10257948146693
30
0
41
1
10
18.390924432692
20
-3.05673770211186
30
0
41
1
10
18.208814053442
20
-2.98508163196197
30
0
41
1
10
18.1480013268279
20
-2.960720291093
30
0
41
1
10
18.0263867050294
20
-2.9111854540146
30
0
41
1
10
17.9656370436898
20
-2.88602776766569
30
0
41
1
10
17.6621479007221
20
-2.75831030338975
30
0
41
1
10
17.4201816271855
20
-2.64997993430509
30
0
41
1
10
16.9369842423642
20
-2.42194698163007
30
0
41
1
10
16.6957528357935
20
-2.30225120225717
30
0
41
1
10
16.3337884910904
20
-2.11470243100609
30
0
41
1
10
16.2131048830755
20
-2.05087513554165
30
0
41
1
10
15.9714306778221
20
-1.9212504333419
30
0
41
1
10
15.8504601605186
20
-1.85538422703337
30
0
41
1
10
15.4870241792767
20
-1.65472731245626
30
0
41
1
10
15.244027269895
20
-1.51691101294571
30
0
41
1
10
15.0000000000001
20
-1.37527864056341
30
0
0
SPLINE
5
126
100
AcDbEntity
8
1
62
256
6
ByLayer
370
18
48
1
60
0
100
AcDbSpline
70
4
71
3
72
8
73
4
40
0
40
0
40
0
40
0
40
1
40
1
40
1
40
1
41
1
10
15.0000000000001
20
-1.37527864056341
30
0
41
1
10
14.8748821645764
20
-1.31358093626179
30
0
41
1
10
14.750275109647
20
-1.25049277127016
30
0
41
1
10
14.6262343862086
20
-1.18586292313998
30
0
0
SPLINE
5
127
100
AcDbEntity
8
1
62
256
6
ByLayer
370
18
48
1
60
0
100
AcDbSpline
70
4
71
3
72
27
73
23
40
0
40
0
40
0
40
0
40
0.0378631126259866
40
0.0647070090777019
40
0.0915509055294172
40
0.118394801981133
40
0.145238698432848
40
0.172082594884563
40
0.198926491336278
40
0.252614284239709
40
0.30630207714314
40
0.35998987004657
40
0.467365455853431
40
0.521053248756862
40
0.574741041660293
40
0.628428834563723
40
0.682116627467154
40
0.735804420370585
40
0.789492213274015
40
0.843180006177446
40
0.896867799080877
40
1
40
1
40
1
40
1
41
1
10
17.5474286740599
20
3.84079915988198
30
0
41
1
10
17.66349634654
20
3.81827730540081
30
0
41
1
10
17.8618846395295
20
3.77505052000754
30
0
41
1
10
18.1426098989506
20
3.7027482495082
30
0
41
1
10
18.3895558821008
20
3.6311980160817
30
0
41
1
10
18.6364869607059
20
3.55172213936658
30
0
41
1
10
18.8833764099614
20
3.46455055118099
30
0
41
1
10
19.1301905581446
20
3.36995059620065
30
0
41
1
10
19.4591416969444
20
3.23423673882857
30
0
41
1
10
19.8700338332127
20
3.0469191666167
30
0
41
1
10
20.3623342419831
20
2.79647694865253
30
0
41
1
10
21.0178112020988
20
2.43086627819301
30
0
41
1
10
21.6735758760573
20
2.02180871674941
30
0
41
1
10
22.3327936960756
20
1.57762013414251
30
0
41
1
10
22.8296548392665
20
1.22894150506431
30
0
41
1
10
23.3298336644635
20
0.867096834920432
30
0
41
1
10
23.8341041910585
20
0.494488945395602
30
0
41
1
10
24.3434359950286
20
0.11366237754774
30
0
41
1
10
24.8586018413875
20
-0.272645449506655
30
0
41
1
10
25.3806593556004
20
-0.661528450116435
30
0
41
1
10
26.0729840281577
20
-1.16886527133798
30
0
41
1
10
26.6015578065829
20
-1.54066049985627
30
0
41
1
10
26.9561901113766
20
-1.77825492989683
30
0
0
SPLINE
5
128
100
AcDbEntity
8
1
62
256
6
ByLayer
370
18
48
1
60
0
100
AcDbSpline
70
4
71
3
72
8
73
4
40
0
40
0
40
0
40
0
40
1
40
1
40
1
40
1
41
1
10
26.9561901124756
20
-1.7782549269308
30
0
41
1
10
26.9426022310495
20
-1.69279524378129
30
0
41
1
10
26.9290382890229
20
-1.60719953582665
30
0
41
1
10
26.9154981433909
20
-1.52146856529387
30
0
0
SPLINE
5
129
100
AcDbEntity
8
1
62
256
6
ByLayer
370
18
48
1
60
0
100
AcDbSpline
70
4
71
3
72
8
73
4
40
0
40
0
40
0
40
0
40
1
40
1
40
1
40
1
41
1
10
26.9154981433909
20
-1.52146856529387
30
0
41
1
10
26.8146591661316
20
-1.30715706353126
30
0
41
1
10
26.7149144893272
20
-1.09000736591707
30
0
41
1
10
26.6162516734119
20
-0.870051735916121
30
0
0
SPLINE
5
12A
100
AcDbEntity
8
1
62
256
6
ByLayer
370
18
48
1
60
0
100
AcDbSpline
70
4
71
3
72
8
73
4
40
0
40
0
40
0
40
0
40
1
40
1
40
1
40
1
41
1
10
26.6162516734119
20
-0.870051735916121
30
0
41
1
10
26.6057196374668
20
-0.84798391892366
30
0
41
1
10
26.5951919379202
20
-0.825889511106197
30
0
41
1
10
26.5846685782798
20
-0.803768490953217
30
0
0
SPLINE
5
12B
100
AcDbEntity
8
1
62
256
6
ByLayer
370
18
48
1
60
0
100
AcDbSpline
70
4
71
3
72
8
73
4
40
0
40
0
40
0
40
0
40
1
40
1
40
1
40
1
41
1
10
26.4977711791696
20
-0.542562962599391
30
0
41
1
10
26.525897687906
20
-0.628411301060538
30
0
41
1
10
26.5548429122552
20
-0.715449900065977
30
0
41
1
10
26.58466857828
20
-0.803768490953104
30
0
0
SPLINE
5
12C
100
AcDbEntity
8
1
62
256
6
ByLayer
370
18
48
1
60
0
100
AcDbSpline
70
4
71
3
72
11
73
7
40
0
40
0
40
0
40
0
40
0.254159327678017
40
0.636249930332626
40
0.922817882323583
40
1
40
1
40
1
40
1
41
1
10
26.4977711801033
20
-0.542562961264935
30
0
41
1
10
26.1651807867356
20
-0.318777951460191
30
0
41
1
10
25.3325903933678
20
0.244490515177858
30
0
41
1
10
24.1250000000001
20
1.05630764916896
30
0
41
1
10
23.149000240859
20
1.66604892212681
30
0
41
1
10
22.6730004817179
20
1.94078496811056
30
0
41
1
10
22.5720007225767
20
1.99796977252578
30
0
0
SPLINE
5
12D
100
AcDbEntity
8
1
62
256
6
ByLayer
370
18
48
1
60
0
100
AcDbSpline
70
4
71
3
72
47
73
43
40
0
40
0
40
0
40
0
40
0.0800608469172321
40
0.0800608469172321
40
0.120091270375848
40
0.120091270375848
40
0.140106482105155
40
0.140106482105155
40
0.160121693834463
40
0.160121693834463
40
0.240182540751693
40
0.240182540751693
40
0.320243387668924
40
0.320243387668924
40
0.400304234586155
40
0.400304234586155
40
0.44033465804477
40
0.44033465804477
40
0.460349869774078
40
0.460349869774078
40
0.480365081503385
40
0.480365081503385
40
0.560425928420617
40
0.560425928420617
40
0.640486775337849
40
0.640486775337849
40
0.720547622255081
40
0.720547622255081
40
0.760578045713696
40
0.760578045713696
40
0.800608469172312
40
0.800608469172312
40
0.820623680901618
40
0.820623680901618
40
0.840638892630925
40
0.880669316089539
40
0.880669316089539
40
0.920699739548153
40
0.920699739548153
40
0.960730163006766
40
0.960730163006766
40
1
40
1
40
1
40
1
41
1
10
26.5846685782795
20
-0.803768490952933
30
0
41
1
10
26.3424788049297
20
-0.631177965101898
30
0
41
1
10
26.1001315559068
20
-0.457071644961332
30
0
41
1
10
25.7357781377921
20
-0.194523967035792
30
0
41
1
10
25.6141888701145
20
-0.106774612273085
30
0
41
1
10
25.43152282237
20
0.0251034444232516
30
0
41
1
10
25.3706123118028
20
0.069086675159781
30
0
41
1
10
25.2490852890512
20
0.156817322711873
30
0
41
1
10
25.1884194396098
20
0.200600039398864
30
0
41
1
10
24.8855232950595
20
0.419030644990272
30
0
41
1
10
24.6445906258215
20
0.592236168198241
30
0
41
1
10
24.1640776868897
20
0.933660147587347
30
0
41
1
10
23.9245028881682
20
1.10187723926415
30
0
41
1
10
23.4450463894367
20
1.43112855807618
30
0
41
1
10
23.2051799257769
20
1.5921657712486
30
0
41
1
10
22.8438437172173
20
1.82652302883915
30
0
41
1
10
22.7231381619899
20
1.90343997814742
30
0
41
1
10
22.5415270824461
20
2.01678672721818
30
0
41
1
10
22.4808980605821
20
2.05423085475013
30
0
41
1
10
22.3594289953434
20
2.12840424975778
30
0
41
1
10
22.2986743673509
20
2.16508039175318
30
0
41
1
10
21.9956020889743
20
2.34582372399106
30
0
41
1
10
21.7544969783065
20
2.48248843110491
30
0
41
1
10
21.2734406804977
20
2.73900646498268
30
0
41
1
10
21.0335644304248
20
2.85889268964681
30
0
41
1
10
20.5538366111491
20
3.08055764641526
30
0
41
1
10
20.3139717728264
20
3.18228396919233
30
0
41
1
10
19.9529707200052
20
3.32024775031149
30
0
41
1
10
19.8324281438584
20
3.36382217550514
30
0
41
1
10
19.5907331022972
20
3.44594765936497
30
0
41
1
10
19.4695854916492
20
3.48448415064433
30
0
41
1
10
19.2872787658137
20
3.5382145821869
30
0
41
1
10
19.2265180898659
20
3.55541673938876
30
0
41
1
10
19.1052609957222
20
3.58836808432571
30
0
41
1
10
18.9236269440778
20
3.63567046644894
30
0
41
1
10
18.7426661851742
20
3.67655725756802
30
0
41
1
10
18.5018523977889
20
3.72519711364325
30
0
41
1
10
18.3816865645863
20
3.74655634131403
30
0
41
1
10
18.1416055783859
20
3.78337925795105
30
0
41
1
10
18.0216570969622
20
3.79893298635935
30
0
41
1
10
17.7840546645672
20
3.82404484318616
30
0
41
1
10
17.6664121084153
20
3.83368919086578
30
0
41
1
10
17.548727516936
20
3.84046370487843
30
0
0
SPLINE
5
12E
100
AcDbEntity
8
1
62
256
6
ByLayer
370
18
48
1
60
0
100
AcDbSpline
70
4
71
3
72
31
73
27
40
0
40
0
40
0
40
0
40
0.141227972563613
40
0.141227972563613
40
0.21184195884542
40
0.21184195884542
40
0.247148951986324
40
0.247148951986324
40
0.282455945127229
40
0.282455945127229
40
0.423683917690845
40
0.423683917690845
40
0.56491189025446
40
0.56491189025446
40
0.600218883395364
40
0.600218883395364
40
0.635525876536267
40
0.706139862818073
40
0.706139862818073
40
0.847367835381689
40
0.847367835381689
40
0.917981821663498
40
0.917981821663498
40
0.988595807945307
40
0.988595807945307
40
1
40
1
40
1
40
1
41
1
10
15.0000000000001
20
-2.37224352887304
30
0
41
1
10
15.2465799592343
20
-2.50115599987015
30
0
41
1
10
15.492728283032
20
-2.62418856005289
30
0
41
1
10
15.8620842202325
20
-2.79900611757091
30
0
41
1
10
15.9852258002351
20
-2.85565406521837
30
0
41
1
10
16.1700773327614
20
-2.93805330122512
30
0
41
1
10
16.2317274206419
20
-2.96509440290848
30
0
41
1
10
16.3549112976112
20
-3.01821942794155
30
0
41
1
10
16.4164666691164
20
-3.04431333963222
30
0
41
1
10
16.724104403072
20
-3.17240259315199
30
0
41
1
10
16.9697731652824
20
-3.26727005972017
30
0
41
1
10
17.461276784566
20
-3.4410933308622
30
0
41
1
10
17.7071098025306
20
-3.52005206325063
30
0
41
1
10
18.0151179940971
20
-3.60821153978296
30
0
41
1
10
18.0767828348883
20
-3.62532307912881
30
0
41
1
10
18.2000198942686
20
-3.65842594474052
30
0
41
1
10
18.3847553199189
20
-3.70640720480415
30
0
41
1
10
18.569205164856
20
-3.74932866798574
30
0
41
1
10
18.9379246478911
20
-3.82836741808117
30
0
41
1
10
19.1834966698179
20
-3.87199736289668
30
0
41
1
10
19.5523015650983
20
-3.92353472833173
30
0
41
1
10
19.6753111396546
20
-3.93839431197244
30
0
41
1
10
19.9216162214495
20
-3.96340362108117
30
0
41
1
10
20.0449612611665
20
-3.9735497804314
30
0
41
1
10
20.1879613090935
20
-3.98253375847051
30
0
41
1
10
20.2078415108556
20
-3.98372029441669
30
0
41
1
10
20.2277187781306
20
-3.98484423410545
30
0
0
SPLINE
5
12F
100
AcDbEntity
8
1
62
256
6
ByLayer
370
18
48
1
60
0
100
AcDbSpline
70
4
71
3
72
10
73
6
40
0
40
0
40
0
40
0
40
0.54804701803411
40
0.54804701803411
40
1
40
1
40
1
40
1
41
1
10
20.2926936918849
20
-3.98829578242066
30
0
41
1
10
20.4972494878595
20
-3.99846180304991
30
0
41
1
10
20.7015244459854
20
-4.00199947707168
30
0
41
1
10
21.0742637855767
20
-3.99644409133955
30
0
41
1
10
21.2427198130701
20
-3.98946204471366
30
0
41
1
10
21.4113381280792
20
-3.97799952710534
30
0
0
SPLINE
5
130
100
AcDbEntity
8
1
62
256
6
ByLayer
370
18
48
1
60
0
100
AcDbSpline
70
4
71
3
72
20
73
16
40
0
40
0
40
0
40
0
40
0.144699942318803
40
0.182078536032511
40
0.219457129746219
40
0.294214317173635
40
0.443728692028467
40
0.481107285742175
40
0.518485879455883
40
0.593243066883299
40
0.668000254310715
40
0.742757441738131
40
0.817514629165547
40
0.892271816592963
40
1
40
1
40
1
40
1
41
1
10
14.9988504866425
20
-2.30642015128626
30
0
41
1
10
15.3180423662293
20
-2.47571832135151
30
0
41
1
10
15.7198119047638
20
-2.67713765160178
30
0
41
1
10
16.2043052291976
20
-2.89858109112498
30
0
41
1
10
16.5344595159595
20
-3.04323294465593
30
0
41
1
10
17.1124168616665
20
-3.27929142585114
30
0
41
1
10
17.6906650522472
20
-3.47916736685778
30
0
41
1
10
18.1864138363974
20
-3.62179634787722
30
0
41
1
10
18.5169340112467
20
-3.70906507895722
30
0
41
1
10
18.9301145406286
20
-3.80311925794246
30
0
41
1
10
19.4259349482815
20
-3.8913875715532
30
0
41
1
10
19.921714882508
20
-3.95450675635601
30
0
41
1
10
20.4173386067695
20
-3.99204646814218
30
0
41
1
10
20.9857710548596
20
-4.00535597204183
30
0
41
1
10
21.3893732142285
20
-3.98910054000851
30
0
41
1
10
21.6279494977405
20
-3.9705499464803
30
0
0
SPLINE
5
131
100
AcDbEntity
8
1
62
256
6
ByLayer
370
18
48
1
60
0
100
AcDbSpline
70
4
71
3
72
28
73
24
40
0
40
0
40
0
40
0
40
0.250000000000055
40
0.250000000000055
40
0.375000000000058
40
0.375000000000058
40
0.500000000000062
40
0.500000000000062
40
0.625000000000065
40
0.625000000000065
40
0.687500000000051
40
0.687500000000051
40
0.750000000000037
40
0.750000000000037
40
0.781250000000032
40
0.781250000000032
40
0.812500000000028
40
0.812500000000028
40
0.875000000000018
40
0.875000000000018
40
0.937500000000009
40
0.937500000000009
40
1
40
1
40
1
40
1
41
1
10
12.3709059277774
20
0.292224228815314
30
0
41
1
10
12.3506225395634
20
0.309038550405461
30
0
41
1
10
12.3307908200265
20
0.326309319924746
30
0
41
1
10
12.3022430852684
20
0.353435464165671
30
0
41
1
10
12.2929299899469
20
0.362683758131198
30
0
41
1
10
12.2749127683769
20
0.381801384444685
30
0
41
1
10
12.2661743655679
20
0.391691481132028
30
0
41
1
10
12.2498674432668
20
0.412406010293154
30
0
41
1
10
12.2422786809772
20
0.423141125473762
30
0
41
1
10
12.2329637645554
20
0.440634063005262
30
0
41
1
10
12.2302417207323
20
0.446645215382631
30
0
41
1
10
12.226285474038
20
0.459262411323493
30
0
41
1
10
12.2250642976478
20
0.465700825596372
30
0
41
1
10
12.2257174639991
20
0.475656580053538
30
0
41
1
10
12.2263624701357
20
0.478882304884536
30
0
41
1
10
12.2287333991653
20
0.48509933863798
30
0
41
1
10
12.2304171359965
20
0.487949398476758
30
0
41
1
10
12.2367815446604
20
0.495602874148489
30
0
41
1
10
12.2425648000787
20
0.499260991256648
30
0
41
1
10
12.2546970243873
20
0.504481743468006
30
0
41
1
10
12.2611433873012
20
0.506148575449259
30
0
41
1
10
12.2742090700815
20
0.508462585649909
30
0
41
1
10
12.2808072106981
20
0.509093190489352
30
0
41
1
10
12.2874443600271
20
0.509409395600983
30
0
0
SPLINE
5
132
100
AcDbEntity
8
1
62
256
6
ByLayer
370
18
48
1
60
0
100
AcDbSpline
70
4
71
3
72
24
73
20
40
0
40
0
40
0
40
0
40
0.0010040064064977
40
0.125651465151713
40
0.156813329838016
40
0.18797519452432
40
0.250298923896928
40
0.374946382642143
40
0.406108247328447
40
0.43727011201475
40
0.499593841387358
40
0.561917570759965
40
0.624241300132573
40
0.68656502950518
40
0.748888758877788
40
0.873536217623003
40
0.93585994699561
40
0.998183676368218
40
1
40
1
40
1
40
1
41
1
10
14.9588950582234
20
-2.04982030309236
30
0
41
1
10
14.9615515498445
20
-2.05128947918945
30
0
41
1
10
15.2940124367258
20
-2.23508549326397
30
0
41
1
10
15.7090482201836
20
-2.45327632190984
30
0
41
1
10
16.2041651569008
20
-2.69291008827369
30
0
41
1
10
16.5343228547243
20
-2.84698435012589
30
0
41
1
10
17.1122959333332
20
-3.1005140852059
30
0
41
1
10
17.6905401377794
20
-3.31976268392793
30
0
41
1
10
18.1862811964918
20
-3.48037202344352
30
0
41
1
10
18.5167996067506
20
-3.58002220240863
30
0
41
1
10
18.9299843385811
20
-3.68995419252778
30
0
41
1
10
19.4258073366176
20
-3.79799563244427
30
0
41
1
10
19.9215846853043
20
-3.88144985199236
30
0
41
1
10
20.4172077253026
20
-3.93996465389196
30
0
41
1
10
21.0779785454368
20
-3.98370070918122
30
0
41
1
10
21.7394606180998
20
-3.97602829768437
30
0
41
1
10
22.4032187395467
20
-3.91678324971869
30
0
41
1
10
22.7409242590132
20
-3.86911633499926
30
0
41
1
10
22.9125386564596
20
-3.84042698203999
30
0
41
1
10
22.9173987195259
20
-3.8396109360059
30
0
0
SPLINE
5
133
100
AcDbEntity
8
1
62
256
6
ByLayer
370
18
48
1
60
0
100
AcDbSpline
70
4
71
3
72
8
73
4
40
0
40
0
40
0
40
0
40
1
40
1
40
1
40
1
41
1
10
14.9999300798154
20
-2.37223961095916
30
0
41
1
10
14.9999533865432
20
-2.37224091688225
30
0
41
1
10
14.9999766932714
20
-2.37224222285354
30
0
41
1
10
15.0000000000001
20
-2.37224352887304
30
0
0
SPLINE
5
134
100
AcDbEntity
8
1
62
256
6
ByLayer
370
18
48
1
60
0
100
AcDbSpline
70
4
71
3
72
8
73
4
40
0
40
0
40
0
40
0
40
1
40
1
40
1
40
1
41
1
10
14.9549226783579
20
-2.35027128152075
30
0
41
1
10
14.9699238979033
20
-2.35759550468802
30
0
41
1
10
14.9849263736923
20
-2.36491827162547
30
0
41
1
10
14.9999300798154
20
-2.37223961095916
30
0
0
SPLINE
5
135
100
AcDbEntity
8
1
62
256
6
ByLayer
370
18
48
1
60
0
100
AcDbSpline
70
4
71
3
72
8
73
4
40
0
40
0
40
0
40
0
40
1
40
1
40
1
40
1
41
1
10
14.9988504866425
20
-2.30642015128626
30
0
41
1
10
14.9987470396736
20
-2.32836747200744
30
0
41
1
10
14.9991173747384
20
-2.35031057460529
30
0
41
1
10
14.999930079815
20
-2.37223961095921
30
0
0
SPLINE
5
136
100
AcDbEntity
8
1
62
256
6
ByLayer
370
18
48
1
60
0
100
AcDbSpline
70
4
71
3
72
8
73
4
40
0
40
0
40
0
40
0
40
1
40
1
40
1
40
1
41
1
10
14.9588950582234
20
-2.04982030309236
30
0
41
1
10
14.9674307394834
20
-2.1362321686911
30
0
41
1
10
14.9811598134546
20
-2.22191550333508
30
0
41
1
10
14.9988504866425
20
-2.30642015128626
30
0
0
SPLINE
5
137
100
AcDbEntity
8
1
62
256
6
ByLayer
370
18
48
1
60
0
100
AcDbSpline
70
4
71
3
72
10
73
6
40
0
40
0
40
0
40
0
40
0.5
40
0.5
40
1
40
1
40
1
40
1
41
1
10
14.4549226783579
20
-2.22884546351887
30
0
41
1
10
14.5042067521952
20
-2.22947345457294
30
0
41
1
10
14.5528932538435
20
-2.23297384200265
30
0
41
1
10
14.6490572997002
20
-2.24625456667798
30
0
41
1
10
14.696534859667
20
-2.25603276254816
30
0
41
1
10
14.7433640824691
20
-2.26942876542918
30
0
0
SPLINE
5
138
100
AcDbEntity
8
1
62
256
6
ByLayer
370
18
48
1
60
0
100
AcDbSpline
70
4
71
3
72
12
73
8
40
0
40
0
40
0
40
0
40
0.25
40
0.25
40
0.5
40
0.5
40
1
40
1
40
1
40
1
41
1
10
14.7433640824691
20
-2.26942876542918
30
0
41
1
10
14.7617671286042
20
-2.27469315472064
30
0
41
1
10
14.780108146177
20
-2.28036611695006
30
0
41
1
10
14.8163711745988
20
-2.29244863119658
30
0
41
1
10
14.8342597018166
20
-2.29884471298047
30
0
41
1
10
14.8872054541321
20
-2.31908409772586
30
0
41
1
10
14.9215452557016
20
-2.33397502696843
30
0
41
1
10
14.9549226783587
20
-2.35027128151952
30
0
0
SPLINE
5
139
100
AcDbEntity
8
1
62
256
6
ByLayer
370
18
48
1
60
0
100
AcDbSpline
70
4
71
3
72
10
73
6
40
0
40
0
40
0
40
0
40
0.5
40
0.5
40
1
40
1
40
1
40
1
41
1
10
14.6262343862086
20
-1.18586292313998
30
0
41
1
10
14.5986928974562
20
-1.16675418789762
30
0
41
1
10
14.5705217289195
20
-1.14822112168747
30
0
41
1
10
14.5133243559028
20
-1.11278922613835
30
0
41
1
10
14.4843378906476
20
-1.0959086744715
30
0
41
1
10
14.4549226783579
20
-1.07995177735396
30
0
0
SPLINE
5
13A
100
AcDbEntity
8
1
62
256
6
ByLayer
370
18
48
1
60
0
100
AcDbSpline
70
4
71
1
72
4
73
2
40
0
40
0
40
1
40
1
41
1
10
27
20
-2.02998927221319
30
0
41
1
10
27
20
-2.03032807551185
30
0
0
SPLINE
5
13B
100
AcDbEntity
8
1
62
256
6
ByLayer
370
18
48
1
60
0
100
AcDbSpline
70
4
71
3
72
8
73
4
40
0
40
0
40
0
40
0
40
1
40
1
40
1
40
1
41
1
10
26.9650951485463
20
-2.02845619620862
30
0
41
1
10
26.9767284518289
20
-2.02906982070721
30
0
41
1
10
26.9883634414291
20
-2.02969379868915
30
0
41
1
10
27
20
-2.03032807551185
30
0
0
SPLINE
5
13C
100
AcDbEntity
8
1
62
256
6
ByLayer
370
18
48
1
60
0
100
AcDbSpline
70
4
71
3
72
8
73
4
40
0
40
0
40
0
40
0
40
1
40
1
40
1
40
1
41
1
10
26.8416135104236
20
-2.01755075080052
30
0
41
1
10
26.8827721780866
20
-2.02105998349378
30
0
41
1
10
26.9239327249972
20
-2.02469520159798
30
0
41
1
10
26.9650951480957
20
-2.0284561998165
30
0
0
SPLINE
5
13D
100
AcDbEntity
8
1
62
256
6
ByLayer
370
18
48
1
60
0
100
AcDbSpline
70
4
71
3
72
31
73
27
40
0
40
0
40
0
40
0
40
0.0213737842196642
40
0.068115247717167
40
0.0914859794659184
40
0.11485671121467
40
0.161598174712173
40
0.184968906460924
40
0.208339638209675
40
0.231710369958427
40
0.255081101707178
40
0.27845183345593
40
0.301822565204681
40
0.348564028702184
40
0.395305492199687
40
0.442046955697189
40
0.535529882692195
40
0.582271346189698
40
0.629012809687201
40
0.675754273184703
40
0.722495736682206
40
0.769237200179709
40
0.815978663677212
40
0.862720127174714
40
0.909461590672217
40
1
40
1
40
1
40
1
41
1
10
16.1902028378561
20
3.98880086378912
30
0
41
1
10
16.2652757829067
20
3.98468527562548
30
0
41
1
10
16.5045891821314
20
3.96775854697282
30
0
41
1
10
16.8262972966417
20
3.9286623905717
30
0
41
1
10
17.1552412880947
20
3.87180512294827
30
0
41
1
10
17.4843006986893
20
3.80379641888573
30
0
41
1
10
17.81349686106
20
3.71917736267045
30
0
41
1
10
18.1427475299366
20
3.61858255348565
30
0
41
1
10
18.3896938331114
20
3.53530862574189
30
0
41
1
10
18.6366241413788
20
3.44436903784103
30
0
41
1
10
18.8835125158097
20
3.34599080382307
30
0
41
1
10
19.1303282430612
20
3.24042924301364
30
0
41
1
10
19.4592816052682
20
3.09041345455822
30
0
41
1
10
19.8701708248306
20
2.88611178282707
30
0
41
1
10
20.3624726272959
20
2.61656578480603
30
0
41
1
10
21.017945891521
20
2.22765213006881
30
0
41
1
10
21.6737333675982
20
1.7987288904616
30
0
41
1
10
22.3329246259468
20
1.33841184490362
30
0
41
1
10
22.8297934818571
20
0.979700527409705
30
0
41
1
10
23.3299625957668
20
0.609953903211931
30
0
41
1
10
23.8342584946521
20
0.23169009519151
30
0
41
1
10
24.3435663257707
20
-0.152452835013435
30
0
41
1
10
24.8587520441428
20
-0.539621624252305
30
0
41
1
10
25.3807608418314
20
-0.926815845535401
30
0
41
1
10
26.0760214799454
20
-1.4305292311646
30
0
41
1
10
26.6075690736951
20
-1.79615196864921
30
0
41
1
10
26.9650951489937
20
-2.0284561924887
30
0
0
SPLINE
5
13E
100
AcDbEntity
8
1
62
256
6
ByLayer
370
18
48
1
60
0
100
AcDbSpline
70
4
71
3
72
56
73
52
40
0
40
0
40
0
40
0
40
0.0624999999999997
40
0.0624999999999997
40
0.0937499999999996
40
0.0937499999999996
40
0.124999999999999
40
0.124999999999999
40
0.187499999999999
40
0.187499999999999
40
0.218749999999999
40
0.218749999999999
40
0.249999999999999
40
0.249999999999999
40
0.312499999999998
40
0.312499999999998
40
0.343749999999998
40
0.343749999999998
40
0.374999999999997
40
0.374999999999997
40
0.437499999999997
40
0.437499999999997
40
0.468749999999997
40
0.468749999999997
40
0.499999999999998
40
0.499999999999998
40
0.562499999999998
40
0.562499999999998
40
0.593749999999999
40
0.593749999999999
40
0.624999999999999
40
0.624999999999999
40
0.6875
40
0.6875
40
0.703125
40
0.703125
40
0.718750000000001
40
0.718750000000001
40
0.75
40
0.75
40
0.812499999999997
40
0.812499999999997
40
0.828124999999998
40
0.828124999999998
40
0.843749999999998
40
0.843749999999998
40
0.874999999999998
40
0.874999999999998
40
0.937499999999999
40
0.937499999999999
40
1
40
1
40
1
40
1
41
1
10
15.0000000000001
20
3.96555319248964
30
0
41
1
10
15.2473444023844
20
3.98997022881181
30
0
41
1
10
15.494001208998
20
4.00141617986625
30
0
41
1
10
15.8642537177133
20
3.99910543561219
30
0
41
1
10
15.9877164680446
20
3.99509195125242
30
0
41
1
10
16.2349605184392
20
3.98055455696905
30
0
41
1
10
16.3584629115294
20
3.97004342938266
30
0
41
1
10
16.7284957200353
20
3.92892122071802
30
0
41
1
10
16.9747523265208
20
3.88874851476152
30
0
41
1
10
17.3448174225228
20
3.80977245534157
30
0
41
1
10
17.4682856600014
20
3.78032041825813
30
0
41
1
10
17.7156574535972
20
3.715213579406
30
0
41
1
10
17.8392068429924
20
3.67965419035866
30
0
41
1
10
18.2093885658666
20
3.56426877967482
30
0
41
1
10
18.4556916550697
20
3.47567131617046
30
0
41
1
10
18.825709849988
20
3.32608095336968
30
0
41
1
10
18.9491438299513
20
3.27343926265502
30
0
41
1
10
19.1964315599662
20
3.16271884298459
30
0
41
1
10
19.3198821253505
20
3.10481646142176
30
0
41
1
10
19.6898771498229
20
2.92389177014906
30
0
41
1
10
19.9361226247032
20
2.79364654406581
30
0
41
1
10
20.306209333541
20
2.58508258032845
30
0
41
1
10
20.4297065302172
20
2.51334841088632
30
0
41
1
10
20.6770911316793
20
2.36569496804228
30
0
41
1
10
20.8005774433781
20
2.29001808749717
30
0
41
1
10
21.1707127847698
20
2.05780699555873
30
0
41
1
10
21.4170196643202
20
1.89607683695851
30
0
41
1
10
21.7870808857272
20
1.6445467760185
30
0
41
1
10
21.9105792017441
20
1.55918483007952
30
0
41
1
10
22.1578346441029
20
1.38586008910983
30
0
41
1
10
22.281247933526
20
1.29814024255285
30
0
41
1
10
22.6511942623527
20
1.03226590740837
30
0
41
1
10
22.8974370693121
20
0.851403933152739
30
0
41
1
10
23.2058791461656
20
0.622271762619704
30
0
41
1
10
23.2675992329243
20
0.576292122003395
30
0
41
1
10
23.3911297887485
20
0.484060911607372
30
0
41
1
10
23.4529682138442
20
0.437788385979729
30
0
41
1
10
23.6384609936696
20
0.298761586311656
30
0
41
1
10
23.761925708671
20
0.205925109890188
30
0
41
1
10
24.1320271986231
20
-0.0726435285380944
30
0
41
1
10
24.3783532073898
20
-0.258459430921363
30
0
41
1
10
24.6868005440504
20
-0.489459579615215
30
0
41
1
10
24.7485175638476
20
-0.535595356378877
30
0
41
1
10
24.8720349486934
20
-0.627700708068517
30
0
41
1
10
24.9338754599739
20
-0.67369996298379
30
0
41
1
10
25.1192540657366
20
-0.811160606299296
30
0
41
1
10
25.242547019825
20
-0.902009671265148
30
0
41
1
10
25.6118936011665
20
-1.17176747718256
30
0
41
1
10
25.857418058622
20
-1.34788580574084
30
0
41
1
10
26.348830481174
20
-1.69047772825226
30
0
41
1
10
26.5947214849898
20
-1.85694674476781
30
0
41
1
10
26.8416135104227
20
-2.01755075080791
30
0
0
SPLINE
5
13F
100
AcDbEntity
8
1
62
256
6
ByLayer
370
18
48
1
60
0
100
AcDbSpline
70
4
71
3
72
10
73
6
40
0
40
0
40
0
40
0
40
0.5
40
0.5
40
1
40
1
40
1
40
1
41
1
10
14.6262343862086
20
-1.18586292313998
30
0
41
1
10
14.6829227139166
20
-1.32933162029875
30
0
41
1
10
14.7389790746502
20
-1.47201755330002
30
0
41
1
10
14.8489027689356
20
-1.75625608563917
30
0
41
1
10
14.9027664307735
20
-1.89780929214763
30
0
41
1
10
14.9549226783579
20
-2.03909598543265
30
0
0
SPLINE
5
140
100
AcDbEntity
8
1
62
256
6
ByLayer
370
18
48
1
60
0
100
AcDbSpline
70
4
71
3
72
8
73
4
40
0
40
0
40
0
40
0
40
1
40
1
40
1
40
1
41
1
10
14.9549226783579
20
-2.03909598543243
30
0
41
1
10
14.9562431105079
20
-2.04267292013969
30
0
41
1
10
14.9575672501069
20
-2.04624769501436
30
0
41
1
10
14.9588950582234
20
-2.04982030309236
30
0
0
SPLINE
5
141
100
AcDbEntity
8
1
62
256
6
ByLayer
370
18
48
1
60
0
100
AcDbSpline
70
4
71
1
72
4
73
2
40
0
40
0
40
1
40
1
41
1
10
15
20
-3.09959930861953
30
0
41
1
10
16.0182928637243
20
-2.8639623546222
30
0
0
SPLINE
5
142
100
AcDbEntity
8
1
62
256
6
ByLayer
370
18
48
1
60
0
100
AcDbSpline
70
4
71
1
72
4
73
2
40
0
40
0
40
1
40
1
41
1
10
24.5249022770733
20
2.15095407881375
30
0
41
1
10
24.1922570797748
20
2.27648587616167
30
0
0
SPLINE
5
143
100
AcDbEntity
8
1
62
256
6
ByLayer
370
18
48
1
60
0
100
AcDbSpline
70
4
71
3
72
11
73
7
40
0
40
0
40
0
40
0
40
0.183346495395083
40
0.443096068608517
40
0.779571494577734
40
1
40
1
40
1
40
1
41
1
10
23.1492454426407
20
-3.51619483543845
30
0
41
1
10
23.3254984634416
20
-3.51260726255273
30
0
41
1
10
23.7494079254388
20
-3.49950970369221
30
0
41
1
10
24.4833437453915
20
-3.45567682571846
30
0
41
1
10
25.2476116232297
20
-3.38794695439395
30
0
41
1
10
25.7660090167685
20
-3.31749105521294
30
0
41
1
10
25.9707523310842
20
-3.28641399055837
30
0
0
SPLINE
5
144
100
AcDbEntity
8
1
62
256
6
ByLayer
370
18
48
1
60
0
100
AcDbSpline
70
4
71
3
72
16
73
12
40
0
40
0
40
0
40
0
40
0.219624164844543
40
0.441365920335948
40
0.62837135322738
40
0.76506123590677
40
0.822505797722023
40
0.877937379925184
40
0.931358725410987
40
0.997030386859806
40
1
40
1
40
1
40
1
41
1
10
23.1635559147299
20
2.61497847292816
30
0
41
1
10
22.9180239180656
20
2.68432508776834
30
0
41
1
10
22.4288647618926
20
2.81664066221293
30
0
41
1
10
21.747979618392
20
2.98687802335138
30
0
41
1
10
21.1614959521581
20
3.11520809577627
30
0
41
1
10
20.7460434829653
20
3.19575297721488
30
0
41
1
10
20.4716784879186
20
3.24471461280325
30
0
41
1
10
20.2884559270287
20
3.27571620437644
30
0
41
1
10
20.0952311004727
20
3.30661630667021
30
0
41
1
10
19.9603565889015
20
3.32679065162679
30
0
41
1
10
19.8847599626338
20
3.3376588074934
30
0
41
1
10
19.8814898970425
20
3.3381281020414
30
0
0
LINE
5
79
100
AcDbEntity
8
80
62
256
6
ByLayer
370
18
48
1
60
0
100
AcDbLine
10
0
20
0
30
0
11
-5
21
0
31
0
39
0
210
0
220
0
230
1
0
LINE
5
7A
100
AcDbEntity
8
4
62
256
6
ByLayer
370
18
48
0.05
60
0
100
AcDbLine
10
0
20
0
30
0
11
27
21
0
31
0
39
0
210
0
220
0
230
1
0
LINE
5
7C
100
AcDbEntity
8
81
62
256
6
ByLayer
370
18
48
1
60
0
100
AcDbLine
10
27
20
0
30
0
11
32
21
0
31
0
39
0
210
0
220
0
230
1
0
LINE
5
7D
100
AcDbEntity
8
SK4
62
256
6
ByLayer
370
18
48
0.05
60
0
100
AcDbLine
10
-36
20
0
30
0
11
27
21
0
31
0
39
0
210
0
220
0
230
1
0
LINE
5
7F
100
AcDbEntity
8
1
62
256
6
ByLayer
370
18
48
1
60
0
100
AcDbLine
10
0
20
4
30
0
11
0
21
0
31
0
39
0
210
0
220
0
230
1
0
LINE
5
80
100
AcDbEntity
8
1
62
256
6
ByLayer
370
18
48
1
60
0
100
AcDbLine
10
0
20
0
30
0
11
0
21
-4
31
0
39
0
210
0
220
0
230
1
0
LINE
5
81
100
AcDbEntity
8
1
62
256
6
ByLayer
370
18
48
1
60
0
100
AcDbLine
10
27
20
-2.204477
30
0
11
27
21
-2.200337
31
0
39
0
210
0
220
0
230
1
0
LINE
5
82
100
AcDbEntity
8
1
62
256
6
ByLayer
370
18
48
1
60
0
100
AcDbLine
10
26.997358
20
-2.030187
30
0
11
27
21
-2.200337
31
0
39
0
210
0
220
0
230
1
0
LINE
5
83
100
AcDbEntity
8
1
62
256
6
ByLayer
370
18
48
1
60
0
100
AcDbLine
10
26.915481
20
-2.581235
30
0
11
26.91369
21
-2.463728
31
0
39
0
210
0
220
0
230
1
0
LINE
5
84
100
AcDbEntity
8
1
62
256
6
ByLayer
370
18
48
1
60
0
100
AcDbLine
10
26.91369
20
-2.463728
30
0
11
26.996955
21
-2.030166
31
0
39
0
210
0
220
0
230
1
0
LINE
5
85
100
AcDbEntity
8
1
62
256
6
ByLayer
370
18
48
1
60
0
100
AcDbLine
10
26.621387
20
-2.985997
30
0
11
26.91369
21
-2.463728
31
0
39
0
210
0
220
0
230
1
0
LINE
5
86
100
AcDbEntity
8
1
62
256
6
ByLayer
370
18
48
1
60
0
100
AcDbLine
10
26.91369
20
-2.463728
30
0
11
26.845534
21
-2.01789
31
0
39
0
210
0
220
0
230
1
0
LINE
5
87
100
AcDbEntity
8
1
62
256
6
ByLayer
370
18
48
1
60
0
100
AcDbLine
10
26.985062
20
3.550214
30
0
11
26.997328
21
3.687952
31
0
39
0
210
0
220
0
230
1
0
LINE
5
88
100
AcDbEntity
8
1
62
256
6
ByLayer
370
18
48
1
60
0
100
AcDbLine
10
26.997328
20
3.687952
30
0
11
27
21
3.988711
31
0
39
0
210
0
220
0
230
1
0
LINE
5
89
100
AcDbEntity
8
1
62
256
6
ByLayer
370
18
48
1
60
0
100
AcDbLine
10
27
20
3.988711
30
0
11
27
21
3.99544
31
0
39
0
210
0
220
0
230
1
0
LINE
5
8A
100
AcDbEntity
8
1
62
256
6
ByLayer
370
18
48
1
60
0
100
AcDbLine
10
26.565661
20
-0.096126
30
0
11
26.658836
21
-0.113273
31
0
39
0
210
0
220
0
230
1
0
LINE
5
8B
100
AcDbEntity
8
1
62
256
6
ByLayer
370
18
48
1
60
0
100
AcDbLine
10
26.658836
20
-0.113273
30
0
11
26.916581
21
2.781178
31
0
39
0
210
0
220
0
230
1
0
LINE
5
8C
100
AcDbEntity
8
1
62
256
6
ByLayer
370
18
48
1
60
0
100
AcDbLine
10
15
20
-3.099695
30
0
11
15
21
-2.979491
31
0
39
0
210
0
220
0
230
1
0
LINE
5
8D
100
AcDbEntity
8
1
62
256
6
ByLayer
370
18
48
1
60
0
100
AcDbLine
10
25.971512
20
-3.293006
30
0
11
26.41364
21
-1.921321
31
0
39
0
210
0
220
0
230
1
0
LINE
5
8E
100
AcDbEntity
8
1
62
256
6
ByLayer
370
18
48
1
60
0
100
AcDbLine
10
26.41364
20
-1.921321
30
0
11
26.497843
21
-1.783403
31
0
39
0
210
0
220
0
230
1
0
LINE
5
8F
100
AcDbEntity
8
1
62
256
6
ByLayer
370
18
48
1
60
0
100
AcDbLine
10
24.527934
20
-2.191859
30
0
11
26.41364
21
-1.921321
31
0
39
0
210
0
220
0
230
1
0
LINE
5
90
100
AcDbEntity
8
1
62
256
6
ByLayer
370
13
48
1
60
0
100
AcDbLine
10
14.712736
20
3.842554
30
0
11
15
21
3.685799
31
0
39
0
210
0
220
0
230
1
0
LINE
5
91
100
AcDbEntity
8
1
62
256
6
ByLayer
370
13
48
1
60
0
100
AcDbLine
10
11.316263
20
3.608271
30
0
11
15
21
1.598118
31
0
39
0
210
0
220
0
230
1
0
LINE
5
92
100
AcDbEntity
8
1
62
256
6
ByLayer
370
13
48
1
60
0
100
AcDbLine
10
24.952387
20
-0.829564
30
0
11
24.127355
21
-1.234432
31
0
39
0
210
0
220
0
230
1
0
LINE
5
93
100
AcDbEntity
8
1
62
256
6
ByLayer
370
18
48
1
60
0
100
AcDbLine
10
12.887964
20
-3.801136
30
0
11
15
21
-2.979491
31
0
39
0
210
0
220
0
230
1
0
LINE
5
94
100
AcDbEntity
8
1
62
256
6
ByLayer
370
18
48
1
60
0
100
AcDbLine
10
15
20
-2.979491
30
0
11
15
21
-2.388579
31
0
39
0
210
0
220
0
230
1
0
LINE
5
95
100
AcDbEntity
8
1
62
256
6
ByLayer
370
18
48
1
60
0
100
AcDbLine
10
15
20
1.528353
30
0
11
15
21
1.598118
31
0
39
0
210
0
220
0
230
1
0
LINE
5
96
100
AcDbEntity
8
1
62
256
6
ByLayer
370
13
48
1
60
0
100
AcDbLine
10
11.591025
20
-3.363166
30
0
11
14.455736
21
-2.248707
31
0
39
0
210
0
220
0
230
1
0
LINE
5
97
100
AcDbEntity
8
1
62
256
6
ByLayer
370
18
48
1
60
0
100
AcDbLine
10
11.406668
20
3.489173
30
0
11
15
21
1.528353
31
0
39
0
210
0
220
0
230
1
0
LINE
5
98
100
AcDbEntity
8
1
62
256
6
ByLayer
370
13
48
1
60
0
100
AcDbLine
10
11.416075
20
-3.033674
30
0
11
13.233349
21
-2.3267
31
0
39
0
210
0
220
0
230
1
0
LINE
5
99
100
AcDbEntity
8
1
62
256
6
ByLayer
370
18
48
1
60
0
100
AcDbLine
10
26.985386
20
-1.814062
30
0
11
26.997328
21
-1.880407
31
0
39
0
210
0
220
0
230
1
0
LINE
5
9A
100
AcDbEntity
8
1
62
256
6
ByLayer
370
18
48
1
60
0
100
AcDbLine
10
26.810101
20
-0.840204
30
0
11
26.915176
21
-1.423982
31
0
39
0
210
0
220
0
230
1
0
LINE
5
9B
100
AcDbEntity
8
1
62
256
6
ByLayer
370
18
48
1
60
0
100
AcDbLine
10
26.736485
20
-0.436021
30
0
11
26.810101
21
-0.840204
31
0
39
0
210
0
220
0
230
1
0
LINE
5
9C
100
AcDbEntity
8
1
62
256
6
ByLayer
370
18
48
1
60
0
100
AcDbLine
10
27
20
-2.029989
30
0
11
27
21
-2.027053
31
0
39
0
210
0
220
0
230
1
0
LINE
5
9D
100
AcDbEntity
8
1
62
256
6
ByLayer
370
18
48
1
60
0
100
AcDbLine
10
26.997328
20
-1.880407
30
0
11
27
21
-2.027053
31
0
39
0
210
0
220
0
230
1
0
LINE
5
9E
100
AcDbEntity
8
1
62
256
6
ByLayer
370
18
48
1
60
0
100
AcDbLine
10
26.91369
20
-1.420722
30
0
11
26.997328
21
-1.880407
31
0
39
0
210
0
220
0
230
1
0
LINE
5
9F
100
AcDbEntity
8
1
62
256
6
ByLayer
370
18
48
1
60
0
100
AcDbLine
10
26.915498
20
-1.521469
30
0
11
26.91369
21
-1.420722
31
0
39
0
210
0
220
0
230
1
0
LINE
5
A0
100
AcDbEntity
8
1
62
256
6
ByLayer
370
18
48
1
60
0
100
AcDbLine
10
26.616252
20
-0.870052
30
0
11
26.91369
21
-1.420722
31
0
39
0
210
0
220
0
230
1
0
LINE
5
A1
100
AcDbEntity
8
1
62
256
6
ByLayer
370
18
48
1
60
0
100
AcDbLine
10
26.91369
20
-1.420722
30
0
11
26.736485
21
-0.436021
31
0
39
0
210
0
220
0
230
1
0
LINE
5
A2
100
AcDbEntity
8
1
62
256
6
ByLayer
370
18
48
1
60
0
100
AcDbLine
10
26.432735
20
0.168384
30
0
11
26.736485
21
-0.436021
31
0
39
0
210
0
220
0
230
1
0
LINE
5
A3
100
AcDbEntity
8
1
62
256
6
ByLayer
370
18
48
1
60
0
100
AcDbLine
10
25.845828
20
1.029247
30
0
11
26.432735
21
0.168384
31
0
39
0
210
0
220
0
230
1
0
LINE
5
A4
100
AcDbEntity
8
1
62
256
6
ByLayer
370
18
48
1
60
0
100
AcDbLine
10
15
20
1.598118
30
0
11
15
21
3.685799
31
0
39
0
210
0
220
0
230
1
0
LINE
5
A5
100
AcDbEntity
8
1
62
256
6
ByLayer
370
13
48
1
60
0
100
AcDbLine
10
12.370906
20
0.292224
30
0
11
15
21
-1.142428
31
0
39
0
210
0
220
0
230
1
0
LINE
5
A6
100
AcDbEntity
8
1
62
256
6
ByLayer
370
18
48
1
60
0
100
AcDbLine
10
15
20
-1.142428
30
0
11
15
21
-0.970786
31
0
39
0
210
0
220
0
230
1
0
LINE
5
A7
100
AcDbEntity
8
1
62
256
6
ByLayer
370
13
48
1
60
0
100
AcDbLine
10
12.287444
20
0.509409
30
0
11
15
21
-0.970786
31
0
39
0
210
0
220
0
230
1
0
LINE
5
A8
100
AcDbEntity
8
1
62
256
6
ByLayer
370
18
48
1
60
0
100
AcDbLine
10
12.571802
20
2.236994
30
0
11
15
21
0.911967
31
0
39
0
210
0
220
0
230
1
0
LINE
5
A9
100
AcDbEntity
8
1
62
256
6
ByLayer
370
18
48
1
60
0
100
AcDbLine
10
15
20
3.965538
30
0
11
15
21
3.965553
31
0
39
0
210
0
220
0
230
1
0
LINE
5
AA
100
AcDbEntity
8
1
62
256
6
ByLayer
370
18
48
1
60
0
100
AcDbLine
10
15
20
3.965538
30
0
11
15
21
3.685799
31
0
39
0
210
0
220
0
230
1
0
LINE
5
AB
100
AcDbEntity
8
1
62
256
6
ByLayer
370
18
48
1
60
0
100
AcDbLine
10
15
20
-1.142428
30
0
11
15
21
-1.375279
31
0
39
0
210
0
220
0
230
1
0
LINE
5
AC
100
AcDbEntity
8
1
62
256
6
ByLayer
370
13
48
1
60
0
100
AcDbLine
10
14.454923
20
-2.228845
30
0
11
14.454923
21
-1.079952
31
0
39
0
210
0
220
0
230
1
0
LINE
5
AD
100
AcDbEntity
8
1
62
256
6
ByLayer
370
13
48
1
60
0
100
AcDbLine
10
14.954923
20
-2.039096
30
0
11
14.954923
21
-2.350271
31
0
39
0
210
0
220
0
230
1
0
LINE
5
AE
100
AcDbEntity
8
1
62
256
6
ByLayer
370
13
48
1
60
0
100
AcDbLine
10
2.997679
20
-3.84
30
0
11
2.997679
21
0
31
0
39
0
210
0
220
0
230
1
0
LINE
5
AF
100
AcDbEntity
8
1
62
256
6
ByLayer
370
13
48
1
60
0
100
AcDbLine
10
2.997679
20
0
30
0
11
2.997679
21
3.84
31
0
39
0
210
0
220
0
230
1
0
LINE
5
B0
100
AcDbEntity
8
1
62
256
6
ByLayer
370
13
48
1
60
0
100
AcDbLine
10
2.497679
20
3.973975
30
0
11
2.497679
21
0
31
0
39
0
210
0
220
0
230
1
0
LINE
5
B1
100
AcDbEntity
8
1
62
256
6
ByLayer
370
13
48
1
60
0
100
AcDbLine
10
2.497679
20
0
30
0
11
2.497679
21
-3.973975
31
0
39
0
210
0
220
0
230
1
0
LINE
5
B2
100
AcDbEntity
8
1
62
256
6
ByLayer
370
18
48
1
60
0
100
AcDbLine
10
2.452602
20
4
30
0
11
2.452602
21
0
31
0
39
0
210
0
220
0
230
1
0
LINE
5
B3
100
AcDbEntity
8
1
62
256
6
ByLayer
370
18
48
1
60
0
100
AcDbLine
10
2.452602
20
0
30
0
11
2.452602
21
-4
31
0
39
0
210
0
220
0
230
1
0
LINE
5
B4
100
AcDbEntity
8
SK1
62
256
6
ByLayer
370
18
48
1
60
0
100
AcDbLine
10
0
20
4
30
0
11
0
21
0
31
0
39
0
210
0
220
0
230
1
0
LINE
5
B6
100
AcDbEntity
8
SK1
62
256
6
ByLayer
370
18
48
1
60
0
100
AcDbLine
10
0
20
0
30
0
11
0
21
-4
31
0
39
0
210
0
220
0
230
1
0
LINE
5
B7
100
AcDbEntity
8
SK1
62
256
6
ByLayer
370
18
48
1
60
0
100
AcDbLine
10
-20.75
20
2.9
30
0
11
-21.85
21
4
31
0
39
0
210
0
220
0
230
1
0
LINE
5
B8
100
AcDbEntity
8
SK1
62
256
6
ByLayer
370
18
48
1
60
0
100
AcDbLine
10
-15.25
20
2.9
30
0
11
-14.15
21
4
31
0
39
0
210
0
220
0
230
1
0
LINE
5
B9
100
AcDbEntity
8
SK1
62
256
6
ByLayer
370
18
48
1
60
0
100
AcDbLine
10
-20.75
20
2.9
30
0
11
-15.25
21
2.9
31
0
39
0
210
0
220
0
230
1
0
LINE
5
BA
100
AcDbEntity
8
SK1
62
256
6
ByLayer
370
18
48
1
60
0
100
AcDbLine
10
-35.4
20
4
30
0
11
-35.4
21
-4
31
0
39
0
210
0
220
0
230
1
0
LINE
5
BB
100
AcDbEntity
8
SK1
62
256
6
ByLayer
370
18
48
1
60
0
100
AcDbLine
10
-36
20
-3.4
30
0
11
-36
21
3.4
31
0
39
0
210
0
220
0
230
1
0
LINE
5
BC
100
AcDbEntity
8
1
62
256
6
ByLayer
370
18
48
1
60
0
100
AcDbLine
10
2.452602
20
4
30
0
11
0
21
4
31
0
39
0
210
0
220
0
230
1
0
LINE
5
BD
100
AcDbEntity
8
1
62
256
6
ByLayer
370
18
48
1
60
0
100
AcDbLine
10
0
20
-4
30
0
11
2.452602
21
-4
31
0
39
0
210
0
220
0
230
1
0
LINE
5
BE
100
AcDbEntity
8
1
62
256
6
ByLayer
370
18
48
1
60
0
100
AcDbLine
10
13.101221
20
-3.838377
30
0
11
15.000108
21
-3.099653
31
0
39
0
210
0
220
0
230
1
0
LINE
5
BF
100
AcDbEntity
8
1
62
256
6
ByLayer
370
18
48
1
60
0
100
AcDbLine
10
12.900968
20
3.84
30
0
11
2.997679
21
3.84
31
0
39
0
210
0
220
0
230
1
0
LINE
5
C0
100
AcDbEntity
8
1
62
256
6
ByLayer
370
18
48
1
60
0
100
AcDbLine
10
2.997679
20
-3.84
30
0
11
13.069733
21
-3.84
31
0
39
0
210
0
220
0
230
1
0
LINE
5
C1
100
AcDbEntity
8
1
62
256
6
ByLayer
370
18
48
1
60
0
100
AcDbLine
10
2.497679
20
3.973975
30
0
11
2.452602
21
4
31
0
39
0
210
0
220
0
230
1
0
LINE
5
C2
100
AcDbEntity
8
1
62
256
6
ByLayer
370
18
48
1
60
0
100
AcDbLine
10
2.452602
20
-4
30
0
11
2.497679
21
-3.973975
31
0
39
0
210
0
220
0
230
1
0
LINE
5
C3
100
AcDbEntity
8
SK1
62
256
6
ByLayer
370
18
48
1
60
0
100
AcDbLine
10
0
20
4
30
0
11
-14.15
21
4
31
0
39
0
210
0
220
0
230
1
0
LINE
5
C4
100
AcDbEntity
8
SK1
62
256
6
ByLayer
370
18
48
1
60
0
100
AcDbLine
10
-21.85
20
4
30
0
11
-35.4
21
4
31
0
39
0
210
0
220
0
230
1
0
LINE
5
C5
100
AcDbEntity
8
SK1
62
256
6
ByLayer
370
18
48
1
60
0
100
AcDbLine
10
-35.4
20
-4
30
0
11
0
21
-4
31
0
39
0
210
0
220
0
230
1
0
LINE
5
C6
100
AcDbEntity
8
SK1
62
256
6
ByLayer
370
18
48
1
60
0
100
AcDbLine
10
-36
20
-3.4
30
0
11
-35.4
21
-4
31
0
39
0
210
0
220
0
230
1
0
LINE
5
C7
100
AcDbEntity
8
SK1
62
256
6
ByLayer
370
18
48
1
60
0
100
AcDbLine
10
-35.4
20
4
30
0
11
-36
21
3.4
31
0
39
0
210
0
220
0
230
1
0
LINE
5
C8
100
AcDbEntity
8
SK2
62
256
6
ByLayer
370
18
48
1
60
0
100
AcDbLine
10
-43.65
20
4
30
0
11
-43.65
21
-20.315466
31
0
39
0
210
0
220
0
230
1
0
LINE
5
CA
100
AcDbEntity
8
SK2
62
256
6
ByLayer
370
18
48
1
60
0
100
AcDbLine
10
-36.9875
20
4
30
0
11
-45.65
21
4
31
0
39
0
210
0
220
0
230
1
0
LINE
5
CB
100
AcDbEntity
8
SK2
62
256
6
ByLayer
370
18
48
1
60
0
100
AcDbLine
10
-36.9875
20
-4
30
0
11
-45.65
21
-4
31
0
39
0
210
0
220
0
230
1
0
LINE
5
CC
100
AcDbEntity
8
1
62
256
6
ByLayer
370
18
48
1
60
1
100
AcDbLine
10
-43.65
20
4
30
0
11
-43.189216
21
0.500002
31
0
39
0
210
0
220
0
230
1
0
LINE
5
CD
100
AcDbEntity
8
1
62
256
6
ByLayer
370
18
48
1
60
1
100
AcDbLine
10
-43.189216
20
0.500002
30
0
11
-44.110784
21
0.499998
31
0
39
0
210
0
220
0
230
1
0
LINE
5
CE
100
AcDbEntity
8
1
62
256
6
ByLayer
370
18
48
1
60
1
100
AcDbLine
10
-44.110784
20
0.499998
30
0
11
-43.65
21
4
31
0
39
0
210
0
220
0
230
1
0
LINE
5
CF
100
AcDbEntity
8
1
62
256
6
ByLayer
370
18
48
1
60
1
100
AcDbLine
10
-43.65
20
-4
30
0
11
-44.110784
21
-0.500002
31
0
39
0
210
0
220
0
230
1
0
LINE
5
D0
100
AcDbEntity
8
1
62
256
6
ByLayer
370
18
48
1
60
1
100
AcDbLine
10
-44.110784
20
-0.500002
30
0
11
-43.189216
21
-0.499998
31
0
39
0
210
0
220
0
230
1
0
LINE
5
D1
100
AcDbEntity
8
1
62
256
6
ByLayer
370
18
48
1
60
1
100
AcDbLine
10
-43.189216
20
-0.499998
30
0
11
-43.65
21
-4
31
0
39
0
210
0
220
0
230
1
0
LINE
5
D2
100
AcDbEntity
8
SK2
62
256
6
ByLayer
370
13
48
1
60
0
100
AcDbLine
10
10.176301
20
-3.84
30
0
11
10.176301
21
30.804398
31
0
39
0
210
0
220
0
230
1
0
LINE
5
D3
100
AcDbEntity
8
SK2
62
256
6
ByLayer
370
13
48
1
60
0
100
AcDbLine
10
12.867423
20
3.84
30
0
11
8.176301
21
3.84
31
0
39
0
210
0
220
0
230
1
0
LINE
5
D4
100
AcDbEntity
8
SK2
62
256
6
ByLayer
370
13
48
1
60
0
100
AcDbLine
10
12.867423
20
-3.84
30
0
11
8.176301
21
-3.84
31
0
39
0
210
0
220
0
230
1
0
LINE
5
D5
100
AcDbEntity
8
1
62
256
6
ByLayer
370
18
48
1
60
1
100
AcDbLine
10
10.176301
20
3.84
30
0
11
10.637085
21
0.340002
31
0
39
0
210
0
220
0
230
1
0
LINE
5
D6
100
AcDbEntity
8
1
62
256
6
ByLayer
370
18
48
1
60
1
100
AcDbLine
10
10.637085
20
0.340002
30
0
11
9.715517
21
0.339998
31
0
39
0
210
0
220
0
230
1
0
LINE
5
D7
100
AcDbEntity
8
1
62
256
6
ByLayer
370
18
48
1
60
1
100
AcDbLine
10
9.715517
20
0.339998
30
0
11
10.176301
21
3.84
31
0
39
0
210
0
220
0
230
1
0
LINE
5
D8
100
AcDbEntity
8
1
62
256
6
ByLayer
370
18
48
1
60
1
100
AcDbLine
10
10.176301
20
-3.84
30
0
11
9.715517
21
-0.340002
31
0
39
0
210
0
220
0
230
1
0
LINE
5
D9
100
AcDbEntity
8
1
62
256
6
ByLayer
370
18
48
1
60
1
100
AcDbLine
10
9.715517
20
-0.340002
30
0
11
10.637085
21
-0.339998
31
0
39
0
210
0
220
0
230
1
0
LINE
5
DA
100
AcDbEntity
8
1
62
256
6
ByLayer
370
18
48
1
60
1
100
AcDbLine
10
10.637085
20
-0.339998
30
0
11
10.176301
21
-3.84
31
0
39
0
210
0
220
0
230
1
0
LINE
5
DB
100
AcDbEntity
8
2
62
256
6
ByLayer
370
18
48
1
60
0
100
AcDbLine
10
39
20
-4
30
0
11
39
21
20.315466
31
0
39
0
210
0
220
0
230
1
0
LINE
5
DD
100
AcDbEntity
8
2
62
256
6
ByLayer
370
18
48
1
60
0
100
AcDbLine
10
28.5875
20
4
30
0
11
41
21
4
31
0
39
0
210
0
220
0
230
1
0
LINE
5
DE
100
AcDbEntity
8
2
62
256
6
ByLayer
370
18
48
1
60
0
100
AcDbLine
10
28.5875
20
-4
30
0
11
41
21
-4
31
0
39
0
210
0
220
0
230
1
0
LINE
5
DF
100
AcDbEntity
8
1
62
256
6
ByLayer
370
18
48
1
60
1
100
AcDbLine
10
39
20
4
30
0
11
39.460784
21
0.500002
31
0
39
0
210
0
220
0
230
1
0
LINE
5
E0
100
AcDbEntity
8
1
62
256
6
ByLayer
370
18
48
1
60
1
100
AcDbLine
10
39.460784
20
0.500002
30
0
11
38.539216
21
0.499998
31
0
39
0
210
0
220
0
230
1
0
LINE
5
E1
100
AcDbEntity
8
1
62
256
6
ByLayer
370
18
48
1
60
1
100
AcDbLine
10
38.539216
20
0.499998
30
0
11
39
21
4
31
0
39
0
210
0
220
0
230
1
0
LINE
5
E2
100
AcDbEntity
8
1
62
256
6
ByLayer
370
18
48
1
60
1
100
AcDbLine
10
39
20
-4
30
0
11
38.539216
21
-0.500002
31
0
39
0
210
0
220
0
230
1
0
LINE
5
E3
100
AcDbEntity
8
1
62
256
6
ByLayer
370
18
48
1
60
1
100
AcDbLine
10
38.539216
20
-0.500002
30
0
11
39.460784
21
-0.499998
31
0
39
0
210
0
220
0
230
1
0
LINE
5
E4
100
AcDbEntity
8
1
62
256
6
ByLayer
370
18
48
1
60
1
100
AcDbLine
10
39.460784
20
-0.499998
30
0
11
39
21
-4
31
0
39
0
210
0
220
0
230
1
0
LINE
5
E5
100
AcDbEntity
8
SK2
62
256
6
ByLayer
370
18
48
1
60
0
100
AcDbLine
10
27
20
-50.718605
30
0
11
-36
21
-50.718605
31
0
39
0
210
0
220
0
230
1
0
LINE
5
E6
100
AcDbEntity
8
SK2
62
256
6
ByLayer
370
18
48
1
60
0
100
AcDbLine
10
-36
20
-4.9875
30
0
11
-36
21
-52.718605
31
0
39
0
210
0
220
0
230
1
0
LINE
5
E7
100
AcDbEntity
8
SK2
62
256
6
ByLayer
370
18
48
1
60
0
100
AcDbLine
10
27
20
-5.5875
30
0
11
27
21
-52.718605
31
0
39
0
210
0
220
0
230
1
0
LINE
5
E8
100
AcDbEntity
8
1
62
256
6
ByLayer
370
18
48
1
60
1
100
AcDbLine
10
-36
20
-50.718605
30
0
11
-32.500002
21
-50.257821
31
0
39
0
210
0
220
0
230
1
0
LINE
5
E9
100
AcDbEntity
8
1
62
256
6
ByLayer
370
18
48
1
60
1
100
AcDbLine
10
-32.500002
20
-50.257821
30
0
11
-32.499998
21
-51.179388
31
0
39
0
210
0
220
0
230
1
0
LINE
5
EA
100
AcDbEntity
8
1
62
256
6
ByLayer
370
18
48
1
60
1
100
AcDbLine
10
-32.499998
20
-51.179388
30
0
11
-36
21
-50.718605
31
0
39
0
210
0
220
0
230
1
0
LINE
5
EB
100
AcDbEntity
8
1
62
256
6
ByLayer
370
18
48
1
60
1
100
AcDbLine
10
27
20
-50.718605
30
0
11
23.500002
21
-51.179388
31
0
39
0
210
0
220
0
230
1
0
LINE
5
EC
100
AcDbEntity
8
1
62
256
6
ByLayer
370
18
48
1
60
1
100
AcDbLine
10
23.500002
20
-51.179388
30
0
11
23.499998
21
-50.257821
31
0
39
0
210
0
220
0
230
1
0
LINE
5
ED
100
AcDbEntity
8
1
62
256
6
ByLayer
370
18
48
1
60
1
100
AcDbLine
10
23.499998
20
-50.257821
30
0
11
27
21
-50.718605
31
0
39
0
210
0
220
0
230
1
0
LINE
5
149
100
AcDbEntity
8
1
62
256
6
ByLayer
370
18
48
1
60
1
100
AcDbLine
10
-43.65
20
4
30
0
11
-43.189216
21
0.500002
31
0
39
0
210
0
220
0
230
1
0
LINE
5
14A
100
AcDbEntity
8
1
62
256
6
ByLayer
370
18
48
1
60
1
100
AcDbLine
10
-43.189216
20
0.500002
30
0
11
-44.110784
21
0.499998
31
0
39
0
210
0
220
0
230
1
0
LINE
5
14B
100
AcDbEntity
8
1
62
256
6
ByLayer
370
18
48
1
60
1
100
AcDbLine
10
-44.110784
20
0.499998
30
0
11
-43.65
21
4
31
0
39
0
210
0
220
0
230
1
0
LINE
5
14D
100
AcDbEntity
8
1
62
256
6
ByLayer
370
18
48
1
60
1
100
AcDbLine
10
-43.65
20
-4
30
0
11
-44.110784
21
-0.500002
31
0
39
0
210
0
220
0
230
1
0
LINE
5
14E
100
AcDbEntity
8
1
62
256
6
ByLayer
370
18
48
1
60
1
100
AcDbLine
10
-44.110784
20
-0.500002
30
0
11
-43.189216
21
-0.499998
31
0
39
0
210
0
220
0
230
1
0
LINE
5
14F
100
AcDbEntity
8
1
62
256
6
ByLayer
370
18
48
1
60
1
100
AcDbLine
10
-43.189216
20
-0.499998
30
0
11
-43.65
21
-4
31
0
39
0
210
0
220
0
230
1
0
LINE
5
153
100
AcDbEntity
8
1
62
256
6
ByLayer
370
18
48
1
60
1
100
AcDbLine
10
10.176301
20
3.84
30
0
11
10.637085
21
0.340002
31
0
39
0
210
0
220
0
230
1
0
LINE
5
154
100
AcDbEntity
8
1
62
256
6
ByLayer
370
18
48
1
60
1
100
AcDbLine
10
10.637085
20
0.340002
30
0
11
9.715517
21
0.339998
31
0
39
0
210
0
220
0
230
1
0
LINE
5
155
100
AcDbEntity
8
1
62
256
6
ByLayer
370
18
48
1
60
1
100
AcDbLine
10
9.715517
20
0.339998
30
0
11
10.176301
21
3.84
31
0
39
0
210
0
220
0
230
1
0
LINE
5
157
100
AcDbEntity
8
1
62
256
6
ByLayer
370
18
48
1
60
1
100
AcDbLine
10
10.176301
20
-3.84
30
0
11
9.715517
21
-0.340002
31
0
39
0
210
0
220
0
230
1
0
LINE
5
158
100
AcDbEntity
8
1
62
256
6
ByLayer
370
18
48
1
60
1
100
AcDbLine
10
9.715517
20
-0.340002
30
0
11
10.637085
21
-0.339998
31
0
39
0
210
0
220
0
230
1
0
LINE
5
159
100
AcDbEntity
8
1
62
256
6
ByLayer
370
18
48
1
60
1
100
AcDbLine
10
10.637085
20
-0.339998
30
0
11
10.176301
21
-3.84
31
0
39
0
210
0
220
0
230
1
0
LINE
5
15D
100
AcDbEntity
8
1
62
256
6
ByLayer
370
18
48
1
60
1
100
AcDbLine
10
39
20
4
30
0
11
39.460784
21
0.500002
31
0
39
0
210
0
220
0
230
1
0
LINE
5
15E
100
AcDbEntity
8
1
62
256
6
ByLayer
370
18
48
1
60
1
100
AcDbLine
10
39.460784
20
0.500002
30
0
11
38.539216
21
0.499998
31
0
39
0
210
0
220
0
230
1
0
LINE
5
15F
100
AcDbEntity
8
1
62
256
6
ByLayer
370
18
48
1
60
1
100
AcDbLine
10
38.539216
20
0.499998
30
0
11
39
21
4
31
0
39
0
210
0
220
0
230
1
0
LINE
5
161
100
AcDbEntity
8
1
62
256
6
ByLayer
370
18
48
1
60
1
100
AcDbLine
10
39
20
-4
30
0
11
38.539216
21
-0.500002
31
0
39
0
210
0
220
0
230
1
0
LINE
5
162
100
AcDbEntity
8
1
62
256
6
ByLayer
370
18
48
1
60
1
100
AcDbLine
10
38.539216
20
-0.500002
30
0
11
39.460784
21
-0.499998
31
0
39
0
210
0
220
0
230
1
0
LINE
5
163
100
AcDbEntity
8
1
62
256
6
ByLayer
370
18
48
1
60
1
100
AcDbLine
10
39.460784
20
-0.499998
30
0
11
39
21
-4
31
0
39
0
210
0
220
0
230
1
0
LINE
5
166
100
AcDbEntity
8
1
62
256
6
ByLayer
370
18
48
1
60
1
100
AcDbLine
10
-36
20
-50.718605
30
0
11
-32.500002
21
-50.257821
31
0
39
0
210
0
220
0
230
1
0
LINE
5
167
100
AcDbEntity
8
1
62
256
6
ByLayer
370
18
48
1
60
1
100
AcDbLine
10
-32.500002
20
-50.257821
30
0
11
-32.499998
21
-51.179388
31
0
39
0
210
0
220
0
230
1
0
LINE
5
168
100
AcDbEntity
8
1
62
256
6
ByLayer
370
18
48
1
60
1
100
AcDbLine
10
-32.499998
20
-51.179388
30
0
11
-36
21
-50.718605
31
0
39
0
210
0
220
0
230
1
0
LINE
5
16A
100
AcDbEntity
8
1
62
256
6
ByLayer
370
18
48
1
60
1
100
AcDbLine
10
27
20
-50.718605
30
0
11
23.500002
21
-51.179388
31
0
39
0
210
0
220
0
230
1
0
LINE
5
16B
100
AcDbEntity
8
1
62
256
6
ByLayer
370
18
48
1
60
1
100
AcDbLine
10
23.500002
20
-51.179388
30
0
11
23.499998
21
-50.257821
31
0
39
0
210
0
220
0
230
1
0
LINE
5
16C
100
AcDbEntity
8
1
62
256
6
ByLayer
370
18
48
1
60
1
100
AcDbLine
10
23.499998
20
-50.257821
30
0
11
27
21
-50.718605
31
0
39
0
210
0
220
0
230
1
0
MTEXT
5
145
100
AcDbEntity
8
SK2
62
256
6
ByLayer
370
18
48
1
60
0
100
AcDbMText
10
-45.214634
20
-18.380622
30
0
210
0
220
0
230
1
1
%%c
40
3.5
41
0
44
1.084337
50
90
71
7
72
5
7
iso_b_vert
0
MTEXT
5
148
100
AcDbEntity
8
SK2
62
256
6
ByLayer
370
18
48
1
60
0
100
AcDbMText
10
-45.214634
20
-11.407966
30
0
210
0
220
0
230
1
1
\W0.5404;8
40
3.5
41
0
44
1.084337
50
90
71
7
72
5
7
iso_b_vert
0
MTEXT
5
151
100
AcDbEntity
8
SK2
62
256
6
ByLayer
370
18
48
1
60
0
100
AcDbMText
10
8.611667
20
15.774844
30
0
210
0
220
0
230
1
1
%%c
40
3.5
41
0
44
1.084337
50
90
71
7
72
5
7
iso_b_vert
0
MTEXT
5
152
100
AcDbEntity
8
SK2
62
256
6
ByLayer
370
18
48
1
60
0
100
AcDbMText
10
8.611667
20
22.7475
30
0
210
0
220
0
230
1
1
\W0.7346;7.68
40
3.5
41
0
44
1.084337
50
90
71
7
72
5
7
iso_b_vert
0
MTEXT
5
15B
100
AcDbEntity
8
2
62
256
6
ByLayer
370
18
48
1
60
0
100
AcDbMText
10
37.435366
20
11.934844
30
0
210
0
220
0
230
1
1
%%c
40
3.5
41
0
44
1.084337
50
90
71
7
72
5
7
iso_b_vert
0
MTEXT
5
15C
100
AcDbEntity
8
2
62
256
6
ByLayer
370
18
48
1
60
0
100
AcDbMText
10
37.435366
20
18.9075
30
0
210
0
220
0
230
1
1
\W0.5404;8
40
3.5
41
0
44
1.084337
50
90
71
7
72
5
7
iso_b_vert
0
MTEXT
5
165
100
AcDbEntity
8
SK2
62
256
6
ByLayer
370
18
48
1
60
0
100
AcDbMText
10
-6.404966
20
-49.685971
30
0
210
0
220
0
230
1
1
\W0.6740;63
40
3.5
41
0
44
1.084337
50
0
71
7
72
5
7
iso_b_vert
0
MTEXT
5
16E
100
AcDbEntity
8
SK6
62
256
6
ByLayer
370
18
48
1
60
0
100
AcDbMText
10
-29.12863
20
-62.206056
30
0
210
0
220
0
230
1
1
\W0.6902;1K223-0800-NH       H10F
40
3
41
0
44
1.084337
50
0
71
7
72
5
7
iso_b_vert
0
HATCH
5
14C
100
AcDbEntity
8
SK2
62
256
6
ByLayer
370
13
48
1
60
0
100
AcDbHatch
10
0
20
0
30
0
210
0
220
0
230
1
2
ANSI31
70
0
71
0
91
1
92
5
93
3
72
1
10
-43.65
20
4
11
-43.1892162584472
21
0.500001692553184
72
1
10
-43.1892162584472
20
0.500001692553184
11
-44.1107837415528
21
0.499998307446816
72
1
10
-44.1107837415528
20
0.499998307446816
11
-43.65
21
4
97
0
75
0
76
1
52
0
41
0.0062
77
0
78
1
53
45
43
0
44
0
45
-0.0139193969876572
46
0.0139193969876572
79
0
47
0
98
1
10
0
20
0
0
HATCH
5
150
100
AcDbEntity
8
SK2
62
256
6
ByLayer
370
13
48
1
60
0
100
AcDbHatch
10
0
20
0
30
0
210
0
220
0
230
1
2
ANSI31
70
0
71
0
91
1
92
5
93
3
72
1
10
-43.65
20
-4
11
-44.1107837415528
21
-0.500001692553184
72
1
10
-44.1107837415528
20
-0.500001692553184
11
-43.1892162584472
21
-0.499998307446816
72
1
10
-43.1892162584472
20
-0.499998307446816
11
-43.65
21
-4
97
0
75
0
76
1
52
0
41
0.0062
77
0
78
1
53
45
43
0
44
0
45
-0.0139193969876572
46
0.0139193969876572
79
0
47
0
98
1
10
0
20
0
0
HATCH
5
156
100
AcDbEntity
8
SK2
62
256
6
ByLayer
370
13
48
1
60
0
100
AcDbHatch
10
0
20
0
30
0
210
0
220
0
230
1
2
ANSI31
70
0
71
0
91
1
92
5
93
3
72
1
10
10.1763008002594
20
3.83999999999995
11
10.6370845418121
21
0.34000169255313
72
1
10
10.6370845418121
20
0.34000169255313
11
9.71551705870658
21
0.339998307446763
72
1
10
9.71551705870658
20
0.339998307446763
11
10.1763008002594
21
3.83999999999995
97
0
75
0
76
1
52
0
41
0.0062
77
0
78
1
53
45
43
0
44
0
45
-0.0139193969876572
46
0.0139193969876572
79
0
47
0
98
1
10
0
20
0
0
HATCH
5
15A
100
AcDbEntity
8
SK2
62
256
6
ByLayer
370
13
48
1
60
0
100
AcDbHatch
10
0
20
0
30
0
210
0
220
0
230
1
2
ANSI31
70
0
71
0
91
1
92
5
93
3
72
1
10
10.1763008002594
20
-3.84000000000003
11
9.71551705870658
21
-0.340001692553216
72
1
10
9.71551705870658
20
-0.340001692553216
11
10.6370845418121
21
-0.339998307446848
72
1
10
10.6370845418121
20
-0.339998307446848
11
10.1763008002594
21
-3.84000000000003
97
0
75
0
76
1
52
0
41
0.0062
77
0
78
1
53
45
43
0
44
0
45
-0.0139193969876572
46
0.0139193969876572
79
0
47
0
98
1
10
0
20
0
0
HATCH
5
160
100
AcDbEntity
8
2
62
256
6
ByLayer
370
13
48
1
60
0
100
AcDbHatch
10
0
20
0
30
0
210
0
220
0
230
1
2
ANSI31
70
0
71
0
91
1
92
5
93
3
72
1
10
39
20
3.99999999999992
11
39.4607837415528
21
0.500001692553099
72
1
10
39.4607837415528
20
0.500001692553099
11
38.5392162584472
21
0.499998307446731
72
1
10
38.5392162584472
20
0.499998307446731
11
39
21
3.99999999999992
97
0
75
0
76
1
52
0
41
0.0062
77
0
78
1
53
45
43
0
44
0
45
-0.0139193969876572
46
0.0139193969876572
79
0
47
0
98
1
10
0
20
0
0
HATCH
5
164
100
AcDbEntity
8
2
62
256
6
ByLayer
370
13
48
1
60
0
100
AcDbHatch
10
0
20
0
30
0
210
0
220
0
230
1
2
ANSI31
70
0
71
0
91
1
92
5
93
3
72
1
10
39
20
-4.00000000000009
11
38.5392162584472
21
-0.500001692553269
72
1
10
38.5392162584472
20
-0.500001692553269
11
39.4607837415528
21
-0.499998307446901
72
1
10
39.4607837415528
20
-0.499998307446901
11
39
21
-4.00000000000009
97
0
75
0
76
1
52
0
41
0.0062
77
0
78
1
53
45
43
0
44
0
45
-0.0139193969876572
46
0.0139193969876572
79
0
47
0
98
1
10
0
20
0
0
HATCH
5
169
100
AcDbEntity
8
SK2
62
256
6
ByLayer
370
13
48
1
60
0
100
AcDbHatch
10
0
20
0
30
0
210
0
220
0
230
1
2
ANSI31
70
0
71
0
91
1
92
5
93
3
72
1
10
-36
20
-50.7186045105773
11
-32.5000016925532
21
-50.2578207690245
72
1
10
-32.5000016925532
20
-50.2578207690245
11
-32.4999983074468
21
-51.1793882521301
72
1
10
-32.4999983074468
20
-51.1793882521301
11
-36
21
-50.7186045105773
97
0
75
0
76
1
52
0
41
0.0062
77
0
78
1
53
45
43
0
44
0
45
-0.0139193969876572
46
0.0139193969876572
79
0
47
0
98
1
10
0
20
0
0
HATCH
5
16D
100
AcDbEntity
8
SK2
62
256
6
ByLayer
370
13
48
1
60
0
100
AcDbHatch
10
0
20
0
30
0
210
0
220
0
230
1
2
ANSI31
70
0
71
0
91
1
92
5
93
3
72
1
10
27
20
-50.7186045105773
11
23.5000016925532
21
-51.1793882521301
72
1
10
23.5000016925532
20
-51.1793882521301
11
23.4999983074468
21
-50.2578207690245
72
1
10
23.4999983074468
20
-50.2578207690245
11
27
21
-50.7186045105773
97
0
75
0
76
1
52
0
41
0.0062
77
0
78
1
53
45
43
0
44
0
45
-0.0139193969876572
46
0.0139193969876572
79
0
47
0
98
1
10
0
20
0
0
DIMENSION
5
171
100
AcDbEntity
8
2
62
256
6
ByLayer
370
18
48
1
60
0
100
AcDbDimension
2
_U0
10
15
20
-18.718605
30
0
11
21
21
-18.718605
31
0
70
32
71
1
72
1
41
1
210
0
220
0
230
1
3
Standard
100
AcDbAlignedDimension
13
27
23
-4
33
0
14
15
24
-4
34
0
50
0
100
AcDbRotatedDimension
1001
ACAD
1000
DSTYLE
1002
{
1070
   371
1070
    13
1070
   372
1070
    13
1070
   170
1070
     0
1070
   144
1040
1.0
1070
   277
1070
     2
1070
   284
1070
     8
1070
   278
1070
    46
1070
   146
1040
1.0
1070
   345
1005
16
1070
   347
1005
16
1070
   346
1005
16
1070
   344
1005
0
1070
   343
1005
0
1070
   172
1070
     1
1070
    76
1070
     0
1070
    75
1070
     0
1070
   282
1070
     0
1070
   281
1070
     0
1070
    71
1070
     0
1070
    74
1070
     0
1070
   279
1070
     0
1070
   173
1070
     1
1070
   340
1005
146
1070
   271
1070
     2
1070
   272
1070
     2
1070
    77
1070
     1
1070
    73
1070
     1
1070
   171
1070
     3
1070
   274
1070
     4
1070
   177
1070
     2
1070
   176
1070
     2
1070
   178
1070
     2
1070
    78
1070
     8
1070
    48
1040
-0.1
1070
    41
1040
3.5
1070
   147
1040
1.75
1070
    42
1040
1.5875
1070
    44
1040
2.0
1070
   140
1040
3.5
1002
}
1001
ACAD_DSTYLE_DIM_LINETYPE
1070
   380
1005
16
1001
ACAD_DSTYLE_DIM_EXT1_LINETYPE
1070
   381
1005
16
1001
ACAD_DSTYLE_DIM_EXT2_LINETYPE
1070
   382
1005
16
0
DIMENSION
5
18B
100
AcDbEntity
8
SK2
62
256
6
ByLayer
370
18
48
1
60
0
100
AcDbDimension
2
_U1
10
2.997679
20
-33.718605
30
0
11
14.998839
21
-33.718605
31
0
70
32
71
1
72
1
41
1
210
0
220
0
230
1
3
Standard
100
AcDbAlignedDimension
13
27
23
-4
33
0
14
2.997679
24
-3.84
34
0
50
0
100
AcDbRotatedDimension
1001
ACAD
1000
DSTYLE
1002
{
1070
   371
1070
    13
1070
   372
1070
    13
1070
   170
1070
     0
1070
   144
1040
1.0
1070
   277
1070
     2
1070
   284
1070
     8
1070
   278
1070
    46
1070
   146
1040
1.0
1070
   345
1005
16
1070
   347
1005
16
1070
   346
1005
16
1070
   344
1005
0
1070
   343
1005
0
1070
   172
1070
     1
1070
    76
1070
     0
1070
    75
1070
     0
1070
   282
1070
     0
1070
   281
1070
     0
1070
    71
1070
     0
1070
    74
1070
     0
1070
   279
1070
     0
1070
   173
1070
     1
1070
   340
1005
146
1070
   271
1070
     2
1070
   272
1070
     2
1070
    77
1070
     1
1070
    73
1070
     1
1070
   171
1070
     3
1070
   274
1070
     4
1070
   177
1070
     2
1070
   176
1070
     2
1070
   178
1070
     2
1070
    78
1070
     8
1070
    48
1040
-0.1
1070
    41
1040
3.5
1070
   147
1040
1.75
1070
    42
1040
1.5875
1070
    44
1040
2.0
1070
   140
1040
3.5
1002
}
1001
ACAD_DSTYLE_DIM_LINETYPE
1070
   380
1005
16
1001
ACAD_DSTYLE_DIM_EXT1_LINETYPE
1070
   381
1005
16
1001
ACAD_DSTYLE_DIM_EXT2_LINETYPE
1070
   382
1005
16
0
ENDSEC
0
SECTION
2
OBJECTS
0
DICTIONARY
5
213
330
0
100
AcDbDictionary
280
0
281
1
3
ACAD_GROUP
350
214
3
ACAD_MLINESTYLE
350
215
0
DICTIONARY
5
214
330
0
100
AcDbDictionary
280
0
281
1
0
DICTIONARY
5
215
330
0
100
AcDbDictionary
280
0
281
1
3
Standard
350
18
0
MLINESTYLE
5
18
330
215
100
AcDbMlineStyle
2
Standard
70
0
3

62
256
51
90
52
90
71
2
49
-0.5
62
256
6
ByLayer
49
0.5
62
256
6
ByLayer
0
RASTERVARIABLES
5
201
330

100
AcDbRasterVariables
90
0
70
1
71
1
72
1
0
ENDSEC
0
EOF
