0
SECTION
2
HEADER
9
$ACADVER
1
AC1015
9
$DWGCODEPAGE
3
ANSI_1252
9
$HANDSEED
5
1ed
9
$ANGBASE
50
0
9
$ANGDIR
70
0
9
$ATTMODE
70
1
9
$AUNITS
70
0
9
$AUPREC
70
0
9
$CECOLOR
62
256
9
$CELTSCALE
40
1
9
$CELTYPE
6
ByLayer
9
$CELWEIGHT
370
18
9
$CLAYER
8
0
9
$CMLJUST
70
0
9
$CMLSCALE
40
1
9
$CMLSTYLE
2
Standard
9
$DIMSTYLE
2
Standard
9
$TEXTSIZE
40
0.2
9
$TEXTSTYLE
7
Standard
9
$LUNITS
70
2
9
$LUPREC
70
4
9
$EXTNAMES
290
1
9
$INSUNITS
70
4
9
$LTSCALE
40
1
9
$LWDISPLAY
290
1
9
$PDMODE
70
0
9
$PDSIZE
40
0
9
$PLINEGEN
70
0
0
ENDSEC
0
SECTION
2
CLASSES
0
CLASS
1
RASTERVARIABLES
2
AcDbRasterVariables
3
ISM
90
0
280
0
281
0
0
ENDSEC
0
SECTION
2
TABLES
0
TABLE
2
VPORT
5
1e3
100
AcDbSymbolTable
0
VPORT
5
1
100
AcDbSymbolTableRecord
100
AcDbViewportTableRecord
2
*Active
70
0
10
0
20
0
11
1
21
1
12
-1
22
1
13
0
23
0
14
0.5
24
0.5
15
10
25
10
16
0
26
0
36
1
17
0
27
0
37
0
0
ENDTAB
0
TABLE
2
LTYPE
5
1e4
100
AcDbSymbolTable
0
LTYPE
5
14
100
AcDbSymbolTableRecord
100
AcDbLinetypeTableRecord
70
0
2
ByBlock
3

72
65
73
0
40
0
0
LTYPE
5
15
100
AcDbSymbolTableRecord
100
AcDbLinetypeTableRecord
70
0
2
ByLayer
3

72
65
73
0
40
0
0
LTYPE
5
16
100
AcDbSymbolTableRecord
100
AcDbLinetypeTableRecord
70
0
2
Continuous
3
Solid line
72
65
73
0
40
0
0
LTYPE
5
6E
100
AcDbSymbolTableRecord
100
AcDbLinetypeTableRecord
70
0
2
CENTER
3
____ _ ____ _ ____ _ ____
72
65
73
4
40
47.5
49
22
74
0
49
-8.5
74
0
49
8.5
74
0
49
-8.5
74
0
0
LTYPE
5
6F
100
AcDbSymbolTableRecord
100
AcDbLinetypeTableRecord
70
0
2
DASHED
3
__ __ __ __ __ __ __ __ __
72
65
73
2
40
25.72
49
12.86
74
0
49
-12.86
74
0
0
ENDTAB
0
TABLE
2
LAYER
5
1e5
100
AcDbSymbolTable
0
LAYER
5
10
100
AcDbSymbolTableRecord
100
AcDbLayerTableRecord
2
0
70
0
62
7
6
Continuous
290
1
370
-3
390
0
0
LAYER
5
71
100
AcDbSymbolTableRecord
100
AcDbLayerTableRecord
2
81
70
0
62
-3
6
Continuous
290
1
370
-3
390
0
0
LAYER
5
73
100
AcDbSymbolTableRecord
100
AcDbLayerTableRecord
2
80
70
0
62
-6
6
Continuous
290
1
370
-3
390
0
0
LAYER
5
75
100
AcDbSymbolTableRecord
100
AcDbLayerTableRecord
2
1
70
0
62
4
6
Continuous
290
1
370
-3
390
0
0
LAYER
5
79
100
AcDbSymbolTableRecord
100
AcDbLayerTableRecord
2
4
70
0
62
-2
6
CENTER
290
1
370
-3
390
0
0
LAYER
5
B9
100
AcDbSymbolTableRecord
100
AcDbLayerTableRecord
2
2
70
0
62
7
6
Continuous
290
1
370
-3
390
0
0
LAYER
5
159
100
AcDbSymbolTableRecord
100
AcDbLayerTableRecord
2
Defpoints
70
0
62
7
6
Continuous
290
0
370
-3
390
0
0
LAYER
5
1cf
100
AcDbSymbolTableRecord
100
AcDbLayerTableRecord
2
SK4
70
0
62
2
6
CENTER
290
1
370
-3
390
0
0
LAYER
5
1d0
100
AcDbSymbolTableRecord
100
AcDbLayerTableRecord
2
SK1
70
0
62
4
6
Continuous
290
1
370
-3
390
0
0
LAYER
5
1d1
100
AcDbSymbolTableRecord
100
AcDbLayerTableRecord
2
SK2
70
0
62
7
6
Continuous
290
1
370
-3
390
0
0
LAYER
5
1d2
100
AcDbSymbolTableRecord
100
AcDbLayerTableRecord
2
SK6
70
0
62
5
6
Continuous
290
1
370
-3
390
0
0
ENDTAB
0
TABLE
2
STYLE
5
1e6
100
AcDbSymbolTable
0
STYLE
5
11
100
AcDbSymbolTableRecord
100
AcDbTextStyleTableRecord
2
Standard
3
txt
70
0
71
0
40
0
41
1
42
0
50
0
0
STYLE
5
135
100
AcDbSymbolTableRecord
100
AcDbTextStyleTableRecord
2
iso_b_vert
3
simplex.shx
70
0
71
0
40
0
41
1
42
0
50
0
0
STYLE
5
136
100
AcDbSymbolTableRecord
100
AcDbTextStyleTableRecord
2
DWGDirectTextStyle
3
simplex
70
0
71
0
40
0
41
1
42
0
50
0
0
ENDTAB
0
TABLE
2
DIMSTYLE
5
1e7
100
AcDbSymbolTable
100
AcDbDimStyleTable
0
DIMSTYLE
105
27
100
AcDbSymbolTableRecord
100
AcDbDimStyleTableRecord
2
Standard
70
0
3
<>
41
0.18
42
0.0625
44
0.18
140
0.18
147
0.09
73
0
74
0
77
1
271
2
275
0
278
52
280
0
340
11
0
ENDTAB
0
TABLE
2
VIEW
5
1e8
100
AcDbSymbolTable
0
ENDTAB
0
TABLE
2
UCS
5
1e9
100
AcDbSymbolTable
0
ENDTAB
0
TABLE
2
APPID
5
1ea
100
AcDbSymbolTable
0
APPID
5
12
100
AcDbSymbolTableRecord
100
AcDbRegAppTableRecord
2
ACAD
70
0
0
APPID
5
155
100
AcDbSymbolTableRecord
100
AcDbRegAppTableRecord
2
ACAD_DSTYLE_DIMBREAK
70
0
0
APPID
5
18E
100
AcDbSymbolTableRecord
100
AcDbRegAppTableRecord
2
ACAD_DSTYLE_DIM_LINETYPE
70
0
0
APPID
5
18F
100
AcDbSymbolTableRecord
100
AcDbRegAppTableRecord
2
ACAD_DSTYLE_DIM_EXT1_LINETYPE
70
0
0
APPID
5
190
100
AcDbSymbolTableRecord
100
AcDbRegAppTableRecord
2
ACAD_DSTYLE_DIM_EXT2_LINETYPE
70
0
0
APPID
5
1CB
100
AcDbSymbolTableRecord
100
AcDbRegAppTableRecord
2
ACAD_MLEADERVER
70
0
0
ENDTAB
0
TABLE
2
BLOCK_RECORD
5
1eb
100
AcDbSymbolTable
0
BLOCK_RECORD
5
1F
100
AcDbSymbolTableRecord
100
AcDbBlockTableRecord
2
*Model_Space
340
0
70
0
0
BLOCK_RECORD
5
1B
100
AcDbSymbolTableRecord
100
AcDbBlockTableRecord
2
*Paper_Space
340
0
70
0
0
BLOCK_RECORD
5
23
100
AcDbSymbolTableRecord
100
AcDbBlockTableRecord
2
*Paper_Space0
340
0
70
0
0
BLOCK_RECORD
5
15A
100
AcDbSymbolTableRecord
100
AcDbBlockTableRecord
2
*D1
340
0
70
0
0
BLOCK_RECORD
5
167
100
AcDbSymbolTableRecord
100
AcDbBlockTableRecord
2
_U0
340
0
70
0
0
ENDTAB
0
ENDSEC
0
SECTION
2
BLOCKS
0
BLOCK
5
20
100
AcDbEntity
8
0
100
AcDbBlockBegin
2
*Model_Space
70
0
10
0
20
0
30
0
3
*Model_Space
0
ENDBLK
5
21
100
AcDbEntity
8
0
100
AcDbBlockEnd
0
BLOCK
5
1C
100
AcDbEntity
8
0
100
AcDbBlockBegin
2
*Paper_Space
70
0
10
0
20
0
30
0
3
*Paper_Space
0
ENDBLK
5
1D
100
AcDbEntity
8
0
100
AcDbBlockEnd
0
BLOCK
5
24
100
AcDbEntity
8
0
100
AcDbBlockBegin
2
*Paper_Space0
70
0
10
0
20
0
30
0
3
*Paper_Space0
0
ENDBLK
5
25
100
AcDbEntity
8
0
100
AcDbBlockEnd
0
BLOCK
5
15B
100
AcDbEntity
8
0
100
AcDbBlockBegin
2
*D1
70
1
10
0
20
0
30
0
3
*D1
0
LINE
5
15D
100
AcDbEntity
8
0
62
256
6
ByLayer
370
-2
48
1
60
0
100
AcDbLine
10
18
20
-3.0876
30
0
11
18
21
-19.1
31
0
39
0
210
0
220
0
230
1
0
LINE
5
15E
100
AcDbEntity
8
0
62
256
6
ByLayer
370
-2
48
1
60
0
100
AcDbLine
10
10
20
-3.0876
30
0
11
10
21
-19.1
31
0
39
0
210
0
220
0
230
1
0
LINE
5
15F
100
AcDbEntity
8
0
62
256
6
ByLayer
370
-2
48
1
60
0
100
AcDbLine
10
21.5
20
-17.1
30
0
11
25
21
-17.1
31
0
39
0
210
0
220
0
230
1
0
LINE
5
160
100
AcDbEntity
8
0
62
256
6
ByLayer
370
-2
48
1
60
0
100
AcDbLine
10
6.5
20
-17.1
30
0
11
3
21
-17.1
31
0
39
0
210
0
220
0
230
1
0
SOLID
5
161
100
AcDbEntity
8
0
62
256
6
ByLayer
370
-1
48
1
60
0
100
AcDbTrace
10
21.5
20
-16.516667
30
0
11
21.5
21
-17.683333
31
0
12
18
22
-17.1
32
0
13
18
23
-17.1
33
0
39
0
210
0
220
0
230
1
0
SOLID
5
162
100
AcDbEntity
8
0
62
256
6
ByLayer
370
-1
48
1
60
0
100
AcDbTrace
10
6.5
20
-17.683333
30
0
11
6.5
21
-16.516667
31
0
12
10
22
-17.1
32
0
13
10
23
-17.1
33
0
39
0
210
0
220
0
230
1
0
MTEXT
5
163
100
AcDbEntity
8
0
62
256
6
ByLayer
370
18
48
1
60
0
100
AcDbMText
10
14
20
-10.1
30
0
210
0
220
0
230
1
1
\A1;8
40
3.5
41
0
44
1
50
0
71
5
72
5
7
iso_b_vert
0
POINT
5
164
100
AcDbEntity
8
Defpoints
62
0
6
ByLayer
370
-1
48
1
60
0
100
AcDbPoint
10
18
20
-1.5001
30
0
39
0
210
0
220
0
230
1
50
360
0
POINT
5
165
100
AcDbEntity
8
Defpoints
62
0
6
ByLayer
370
-1
48
1
60
0
100
AcDbPoint
10
10
20
-1.5001
30
0
39
0
210
0
220
0
230
1
50
360
0
POINT
5
166
100
AcDbEntity
8
Defpoints
62
0
6
ByLayer
370
-1
48
1
60
0
100
AcDbPoint
10
10
20
-17.1
30
0
39
0
210
0
220
0
230
1
50
360
0
ENDBLK
5
15C
100
AcDbEntity
8
0
100
AcDbBlockEnd
0
BLOCK
5
16E
100
AcDbEntity
8
0
100
AcDbBlockBegin
2
_U0
70
0
10
0
20
0
30
0
3
_U0
0
MTEXT
5
168
100
AcDbEntity
8
2
62
256
6
ByLayer
370
18
48
1
60
0
100
AcDbMText
10
13.402767
20
-16.067366
30
0
210
0
220
0
230
1
1
\W0.5404;8
40
3.5
41
0
44
1.084337
50
0
71
7
72
5
7
iso_b_vert
0
LINE
5
169
100
AcDbEntity
8
2
62
256
6
ByLayer
370
13
48
1
60
0
100
AcDbLine
10
18
20
-3.0876
30
0
11
18
21
-19.1
31
0
39
0
210
0
220
0
230
1
0
LINE
5
16A
100
AcDbEntity
8
2
62
256
6
ByLayer
370
13
48
1
60
0
100
AcDbLine
10
10
20
-3.0876
30
0
11
10
21
-19.1
31
0
39
0
210
0
220
0
230
1
0
LINE
5
16B
100
AcDbEntity
8
2
62
256
6
ByLayer
370
13
48
1
60
0
100
AcDbLine
10
18
20
-17.1
30
0
11
10
21
-17.1
31
0
39
0
210
0
220
0
230
1
0
SOLID
5
16C
100
AcDbEntity
8
2
62
256
6
ByLayer
370
18
48
1
60
0
100
AcDbTrace
10
18
20
-17.1
30
0
11
14.500002
21
-17.560784
31
0
12
14.499998
22
-16.639216
32
0
13
14.499998
23
-16.639216
33
0
39
0
210
0
220
0
230
1
0
SOLID
5
16D
100
AcDbEntity
8
2
62
256
6
ByLayer
370
18
48
1
60
0
100
AcDbTrace
10
10
20
-17.1
30
0
11
13.499998
21
-16.639216
31
0
12
13.500002
22
-17.560784
32
0
13
13.500002
23
-17.560784
33
0
39
0
210
0
220
0
230
1
0
ENDBLK
5
16F
100
AcDbEntity
8
0
100
AcDbBlockEnd
0
ENDSEC
0
SECTION
2
ENTITIES
0
ARC
5
CB
100
AcDbEntity
8
1
62
256
6
ByLayer
370
18
48
1
60
0
100
AcDbCircle
39
0
10
4.897679
20
2.5
30
0
40
1
210
0
220
0
230
1
100
AcDbArc
50
240
51
270
0
ARC
5
CC
100
AcDbEntity
8
1
62
256
6
ByLayer
370
18
48
1
60
0
100
AcDbCircle
39
0
10
4.897679
20
-2.5
30
0
40
1
210
0
220
0
230
1
100
AcDbArc
50
90
51
120
0
ELLIPSE
5
CD
100
AcDbEntity
8
1
62
256
6
ByLayer
370
18
48
1
60
0
100
AcDbEllipse
10
11.507732
20
0
30
0
11
2.9923745964521
21
-1.13065213512033
31
0
210
0
220
0
230
1
40
0.329408
41
2.35181495888924
42
2.42457777192034
0
ELLIPSE
5
CE
100
AcDbEntity
8
1
62
256
6
ByLayer
370
18
48
1
60
0
100
AcDbEllipse
10
11.507732
20
0
30
0
11
3.00309978212992
21
-0.594933951913828
31
0
210
0
220
0
230
1
40
0.458517
41
-2.56510238399921
42
-2.13740027526466
0
POINT
5
70
100
AcDbEntity
8
81
62
256
6
ByLayer
370
18
48
1
60
0
100
AcDbPoint
10
18
20
0
30
0
39
0
210
0
220
0
230
1
50
360
0
POINT
5
72
100
AcDbEntity
8
80
62
256
6
ByLayer
370
18
48
1
60
0
100
AcDbPoint
10
0
20
0
30
0
39
0
210
0
220
0
230
1
50
360
0
POINT
5
74
100
AcDbEntity
8
1
62
256
6
ByLayer
370
18
48
1
60
1
100
AcDbPoint
10
18
20
-1.5001
30
0
39
0
210
0
220
0
230
1
50
360
0
POINT
5
76
100
AcDbEntity
8
1
62
256
6
ByLayer
370
18
48
1
60
1
100
AcDbPoint
10
10
20
-1.5001
30
0
39
0
210
0
220
0
230
1
50
360
0
SPLINE
5
CF
100
AcDbEntity
8
1
62
256
6
ByLayer
370
18
48
1
60
0
100
AcDbSpline
70
4
71
3
72
10
73
6
40
0
40
0
40
0
40
0
40
0.780602270816154
40
0.780602270816154
40
1
40
1
40
1
40
1
41
1
10
17.9719439005119
20
-0.554319767114805
30
0
41
1
10
17.9742199930293
20
-0.580136626892255
30
0
41
1
10
17.971372760091
20
-0.605932594361519
30
0
41
1
10
17.9618877307433
20
-0.638955026311834
30
0
41
1
10
17.9594429855779
20
-0.646198589559532
30
0
41
1
10
17.9566291899279
20
-0.653440647863249
30
0
0
SPLINE
5
D0
100
AcDbEntity
8
1
62
256
6
ByLayer
370
13
48
1
60
0
100
AcDbSpline
70
4
71
3
72
8
73
4
40
0
40
0
40
0
40
0
40
1
40
1
40
1
40
1
41
1
10
17.9719439005021
20
-0.554319767135951
30
0
41
1
10
17.9431972843422
20
-0.661719539649141
30
0
41
1
10
17.9144506681823
20
-0.769119312162331
30
0
41
1
10
17.8857040520224
20
-0.876519084675522
30
0
0
SPLINE
5
D1
100
AcDbEntity
8
1
62
256
6
ByLayer
370
18
48
1
60
0
100
AcDbSpline
70
4
71
3
72
8
73
4
40
0
40
0
40
0
40
0
40
1
40
1
40
1
40
1
41
1
10
17.7911067136743
20
-1.19753586930028
30
0
41
1
10
17.7973539597651
20
-1.1880138041526
30
0
41
1
10
17.8031424137354
20
-1.17848137568004
30
0
41
1
10
17.8084420656775
20
-1.16898290822255
30
0
0
SPLINE
5
D2
100
AcDbEntity
8
1
62
256
6
ByLayer
370
18
48
1
60
0
100
AcDbSpline
70
4
71
3
72
22
73
18
40
0
40
0
40
0
40
0
40
0.249999999999998
40
0.249999999999998
40
0.374999999999993
40
0.374999999999993
40
0.437499999999997
40
0.437499999999997
40
0.5
40
0.5
40
0.750000000000011
40
0.750000000000011
40
0.812500000000009
40
0.812500000000009
40
0.875000000000006
40
0.875000000000006
40
1
40
1
40
1
40
1
41
1
10
17.9719439005137
20
0.96975693063311
30
0
41
1
10
17.9742199930284
20
1.01212790416361
30
0
41
1
10
17.9713727600865
20
1.0536990692668
30
0
41
1
10
17.9602667069126
20
1.11498876508679
30
0
41
1
10
17.9554135180684
20
1.13523895299758
30
0
41
1
10
17.9463622267654
20
1.16533768263213
30
0
41
1
10
17.9430374630781
20
1.17535567080583
30
0
41
1
10
17.9358399360956
20
1.19513416298076
30
0
41
1
10
17.9319763128134
20
1.20487633035009
30
0
41
1
10
17.9113579965938
20
1.25286515605075
30
0
41
1
10
17.8907863947022
20
1.28899225491924
30
0
41
1
10
17.8597098923962
20
1.33117356790478
30
0
41
1
10
17.8531978140233
20
1.33948572399933
30
0
41
1
10
17.8397578380071
20
1.35561378974572
30
0
41
1
10
17.8328274375541
20
1.36343761108353
30
0
41
1
10
17.8114093246385
20
1.3861933788952
30
0
41
1
10
17.7962997556095
20
1.40041540005689
30
0
41
1
10
17.7803373460417
20
1.41366379945714
30
0
0
SPLINE
5
D3
100
AcDbEntity
8
1
62
256
6
ByLayer
370
18
48
1
60
0
100
AcDbSpline
70
4
71
3
72
8
73
4
40
0
40
0
40
0
40
0
40
1
40
1
40
1
40
1
41
1
10
9.66560000305711
20
1.49603136745841
30
0
41
1
10
9.69926869494415
20
1.48118676360514
30
0
41
1
10
9.73297818279647
20
1.46655705495641
30
0
41
1
10
9.76672819105968
20
1.45214079001249
30
0
0
SPLINE
5
D4
100
AcDbEntity
8
1
62
256
6
ByLayer
370
18
48
1
60
0
100
AcDbSpline
70
4
71
3
72
8
73
4
40
0
40
0
40
0
40
0
40
1
40
1
40
1
40
1
41
1
10
17.8084425759371
20
-1.16898200039177
30
0
41
1
10
17.811683900276
20
-1.17707647182738
30
0
41
1
10
17.8148530680051
20
-1.18523609990157
30
0
41
1
10
17.8179636241268
20
-1.19344864678197
30
0
0
SPLINE
5
D5
100
AcDbEntity
8
1
62
256
6
ByLayer
370
18
48
1
60
0
100
AcDbSpline
70
4
71
3
72
12
73
8
40
0
40
0
40
0
40
0
40
0.500000000000009
40
0.500000000000009
40
0.750000000000005
40
0.750000000000005
40
1
40
1
40
1
40
1
41
1
10
17.8084450246149
20
-1.1689828507084
30
0
41
1
10
17.8278146473961
20
-1.1223827990006
30
0
41
1
10
17.8447925973426
20
-1.07495899478002
30
0
41
1
10
17.8650956197753
20
-1.00204470924308
30
0
41
1
10
17.8709944741655
20
-0.977440703857155
30
0
41
1
10
17.8804264253857
20
-0.927417866230087
30
0
41
1
10
17.8839687371131
20
-0.901857808192091
30
0
41
1
10
17.8857040520046
20
-0.876519084756978
30
0
0
SPLINE
5
D6
100
AcDbEntity
8
1
62
256
6
ByLayer
370
18
48
1
60
0
100
AcDbSpline
70
4
71
3
72
12
73
8
40
0
40
0
40
0
40
0
40
0.499999999999999
40
0.499999999999999
40
0.75
40
0.75
40
1
40
1
40
1
40
1
41
1
10
17.0093726980308
20
-0.40833086606284
30
0
41
1
10
17.0319732273221
20
-0.432683946165071
30
0
41
1
10
17.0539207226793
20
-0.458411374710181
30
0
41
1
10
17.084926788757
20
-0.499761183480132
30
0
41
1
10
17.0949549103721
20
-0.514037551678797
30
0
41
1
10
17.1139442101339
20
-0.543584097240142
30
0
41
1
10
17.1229362338518
20
-0.558875969002742
30
0
41
1
10
17.1311762174802
20
-0.574943779724975
30
0
0
SPLINE
5
D7
100
AcDbEntity
8
1
62
256
6
ByLayer
370
18
48
1
60
0
100
AcDbSpline
70
4
71
3
72
8
73
4
40
0
40
0
40
0
40
0
40
1
40
1
40
1
40
1
41
1
10
17.0093726980308
20
-0.40833086606284
30
0
41
1
10
17.0008299915703
20
-0.399125718163873
30
0
41
1
10
16.993493351088
20
-0.389358575804636
30
0
41
1
10
16.9873458530439
20
-0.379234078002526
30
0
0
SPLINE
5
D8
100
AcDbEntity
8
1
62
256
6
ByLayer
370
18
48
1
60
0
100
AcDbSpline
70
4
71
3
72
40
73
36
40
0
40
0
40
0
40
0
40
0.0681361532238163
40
0.0681361532238163
40
0.136272306447633
40
0.136272306447633
40
0.204408459671449
40
0.204408459671449
40
0.238476536283357
40
0.238476536283357
40
0.272544612895266
40
0.272544612895266
40
0.340680766119083
40
0.340680766119083
40
0.374748842730991
40
0.374748842730991
40
0.408816919342899
40
0.408816919342899
40
0.476953072566716
40
0.476953072566716
40
0.511021149178616
40
0.511021149178616
40
0.545089225790517
40
0.545089225790517
40
0.613225379014301
40
0.613225379014301
40
0.681361532238084
40
0.681361532238084
40
0.749497685461868
40
0.749497685461868
40
0.817633838685652
40
0.817633838685652
40
0.95390614513322
40
0.95390614513322
40
1
40
1
40
1
40
1
41
1
10
17.7902609496666
20
1.38764450512008
30
0
41
1
10
17.7987387748103
20
1.36589890209243
30
0
41
1
10
17.8061082210433
20
1.34385261808455
30
0
41
1
10
17.8180821694462
20
1.29900997637375
30
0
41
1
10
17.8226938759743
20
1.27621557302311
30
0
41
1
10
17.8282663884729
20
1.229636350335
30
0
41
1
10
17.8291538457866
20
1.20635432303413
30
0
41
1
10
17.8270151236175
20
1.17154683360332
30
0
41
1
10
17.8257222850596
20
1.1599587528674
30
0
41
1
10
17.8218430444953
20
1.13681474637605
30
0
41
1
10
17.8192369755305
20
1.12522670545712
30
0
41
1
10
17.8095753697773
20
1.0914727113101
30
0
41
1
10
17.800641642951
20
1.07000735940031
30
0
41
1
10
17.7835958356068
20
1.03932627682661
30
0
41
1
10
17.7772702270653
20
1.02930184379716
30
0
41
1
10
17.7635970384232
20
1.00998752478387
30
0
41
1
10
17.7563077162571
20
1.00076480757824
30
0
41
1
10
17.7332504644629
20
0.97423790637626
30
0
41
1
10
17.7163001209349
20
0.958068378931785
30
0
41
1
10
17.6890220086684
20
0.935591858895151
30
0
41
1
10
17.6795947299345
20
0.928383328785657
30
0
41
1
10
17.6604456714587
20
0.914673913737005
30
0
41
1
10
17.6506966501916
20
0.90814816622165
30
0
41
1
10
17.6210051339441
20
0.889408824875886
30
0
41
1
10
17.6006218717565
20
0.878026184671967
30
0
41
1
10
17.5589750419113
20
0.856920494657516
30
0
41
1
10
17.5377096106679
20
0.847200958160357
30
0
41
1
10
17.4944921968895
20
0.829056201703537
30
0
41
1
10
17.4725125717744
20
0.820626496926991
30
0
41
1
10
17.428456192946
20
0.804952640971237
30
0
41
1
10
17.4063187374497
20
0.79768262655071
30
0
41
1
10
17.3396482197305
20
0.777211969031299
30
0
41
1
10
17.2948605984255
20
0.765332074256293
30
0
41
1
10
17.2346200134592
20
0.751009193735968
30
0
41
1
10
17.2193677028942
20
0.74752514420814
30
0
41
1
10
17.2040916952026
20
0.744164044291637
30
0
0
SPLINE
5
D9
100
AcDbEntity
8
1
62
256
6
ByLayer
370
18
48
1
60
0
100
AcDbSpline
70
4
71
3
72
10
73
6
40
0
40
0
40
0
40
0
40
0.0681958417212848
40
0.0681958417212848
40
1
40
1
40
1
40
1
41
1
10
17.1860112495479
20
0.766850456720817
30
0
41
1
10
17.187379150489
20
0.76638665415453
30
0
41
1
10
17.1887683718101
20
0.765896854742181
30
0
41
1
10
17.2094252713939
20
0.758345480025582
30
0
41
1
10
17.2322837784286
20
0.746693699286567
30
0
41
1
10
17.2579658065198
20
0.731432374135323
30
0
0
SPLINE
5
DA
100
AcDbEntity
8
1
62
256
6
ByLayer
370
18
48
1
60
0
100
AcDbSpline
70
4
71
3
72
16
73
12
40
0
40
0
40
0
40
0
40
0.250000000000014
40
0.250000000000014
40
0.500000000000028
40
0.500000000000028
40
0.625000000000035
40
0.625000000000035
40
0.750000000000042
40
0.750000000000042
40
1
40
1
40
1
40
1
41
1
10
17.5413979532015
20
1.46585328118928
30
0
41
1
10
17.5615422824492
20
1.46742555692123
30
0
41
1
10
17.581667329369
20
1.46775830764281
30
0
41
1
10
17.6219680144532
20
1.46565858084594
30
0
41
1
10
17.6421430844967
20
1.46322973329632
30
0
41
1
10
17.6725254258239
20
1.45712678644065
30
0
41
1
10
17.6827007553009
20
1.45466772279468
30
0
41
1
10
17.7027822966299
20
1.44891589166033
30
0
41
1
10
17.7127226814182
20
1.44561887570757
30
0
41
1
10
17.7422384850297
20
1.43437836767401
30
0
41
1
10
17.7615115458617
20
1.42509918521992
30
0
41
1
10
17.7803373460417
20
1.41366379945717
30
0
0
SPLINE
5
DB
100
AcDbEntity
8
1
62
256
6
ByLayer
370
13
48
1
60
0
100
AcDbSpline
70
4
71
3
72
10
73
6
40
0
40
0
40
0
40
0
40
0.572765663704808
40
0.935155874208647
40
1
40
1
40
1
40
1
41
1
10
17.790260949528
20
1.38764450514904
30
0
41
1
10
17.5268406330186
20
1.36760383102529
30
0
41
1
10
17.0967536498426
20
1.28159168739563
30
0
41
1
10
16.6368442432531
20
1.11311642205629
30
0
41
1
10
16.440355153173
20
1.02811767730168
30
0
41
1
10
16.4105327297594
20
1.01492479508718
30
0
0
SPLINE
5
DC
100
AcDbEntity
8
1
62
256
6
ByLayer
370
18
48
1
60
0
100
AcDbSpline
70
4
71
3
72
8
73
4
40
0
40
0
40
0
40
0
40
1
40
1
40
1
40
1
41
1
10
17.7803373460417
20
1.41366379945717
30
0
41
1
10
17.7835800003742
20
1.40496682002805
30
0
41
1
10
17.7868867438829
20
1.39629331018452
30
0
41
1
10
17.7902609487098
20
1.38764450475105
30
0
0
SPLINE
5
DD
100
AcDbEntity
8
1
62
256
6
ByLayer
370
13
48
1
60
0
100
AcDbSpline
70
4
71
3
72
13
73
9
40
0
40
0
40
0
40
0
40
0.122904396560193
40
0.269086997133494
40
0.415269597706795
40
0.561452198280097
40
0.707634798853398
40
1
40
1
40
1
40
1
41
1
10
13.4203797034606
20
-0.698101745081289
30
0
41
1
10
13.2802531356404
20
-0.683701045171802
30
0
41
1
10
12.9734599011536
20
-0.642049771212754
30
0
41
1
10
12.5
20
-0.548277611625565
30
0
41
1
10
12
20
-0.421887681215821
30
0
41
1
10
11.5
20
-0.269805588697409
30
0
41
1
10
10.8333333333333
20
-0.0464189972768452
30
0
41
1
10
10.3333333333333
20
0.126631746196608
30
0
41
1
10
10
20
0.233914800510831
30
0
0
SPLINE
5
DE
100
AcDbEntity
8
1
62
256
6
ByLayer
370
18
48
1
60
0
100
AcDbSpline
70
4
71
3
72
24
73
20
40
0
40
0
40
0
40
0
40
0.125000000000002
40
0.125000000000002
40
0.187500000000003
40
0.187500000000003
40
0.250000000000004
40
0.250000000000004
40
0.375000000000006
40
0.375000000000006
40
0.500000000000008
40
0.500000000000008
40
0.625000000000009
40
0.625000000000009
40
0.68750000000001
40
0.68750000000001
40
0.750000000000011
40
0.750000000000011
40
1
40
1
40
1
40
1
41
1
10
17.1479830996162
20
-0.606192071850444
30
0
41
1
10
17.143027637883
20
-0.631224687155196
30
0
41
1
10
17.1390988559709
20
-0.656290932678104
30
0
41
1
10
17.1349405344268
20
-0.693947128249107
30
0
41
1
10
17.1338440988018
20
-0.706508682003886
30
0
41
1
10
17.1322708762921
20
-0.731652086904973
30
0
41
1
10
17.131799013741
20
-0.744184073010445
30
0
41
1
10
17.1313624364477
20
-0.781358779051999
30
0
41
1
10
17.1323672491912
20
-0.805699636271584
30
0
41
1
10
17.1370767184414
20
-0.853459890564835
30
0
41
1
10
17.140828820323
20
-0.877022227737228
30
0
41
1
10
17.150836814457
20
-0.921874302749586
30
0
41
1
10
17.1570874782774
20
-0.943302895417958
30
0
41
1
10
17.1682118463837
20
-0.974046930239581
30
0
41
1
10
17.172211833822
20
-0.984061423969251
30
0
41
1
10
17.1807804511682
20
-1.0036354466238
30
0
41
1
10
17.1853650402322
20
-1.01322372649062
30
0
41
1
10
17.209425271394
20
-1.05958138365881
30
0
41
1
10
17.2322837784286
20
-1.09180789195858
30
0
41
1
10
17.2579658065198
20
-1.12023384408317
30
0
0
SPLINE
5
DF
100
AcDbEntity
8
1
62
256
6
ByLayer
370
18
48
1
60
0
100
AcDbSpline
70
4
71
3
72
8
73
4
40
0
40
0
40
0
40
0
40
1
40
1
40
1
40
1
41
1
10
17.1311762174956
20
-0.574943779710196
30
0
41
1
10
17.1366233365008
20
-0.585564841263704
30
0
41
1
10
17.1422294825952
20
-0.595975850624001
30
0
41
1
10
17.1479830996162
20
-0.606192071850501
30
0
0
SPLINE
5
E0
100
AcDbEntity
8
1
62
256
6
ByLayer
370
13
48
1
60
0
100
AcDbSpline
70
4
71
3
72
15
73
11
40
0
40
0
40
0
40
0
40
0.0371705043954791
40
0.178852072535334
40
0.320533640675188
40
0.462215208815042
40
0.603896776954897
40
0.745578345094751
40
0.887259913234606
40
1
40
1
40
1
40
1
41
1
10
17.1311762174978
20
-0.57494377970778
30
0
41
1
10
17.0874508116652
20
-0.565666793231031
30
0
41
1
10
16.877058739166
20
-0.519317630833768
30
0
41
1
10
16.5
20
-0.422261997007865
30
0
41
1
10
16
20
-0.274385873687606
30
0
41
1
10
15.5
20
-0.107264089299974
30
0
41
1
10
15
20
0.0661445071692981
30
0
41
1
10
14.5
20
0.233569421010799
30
0
41
1
10
14.0340452205068
20
0.376553453095994
30
0
41
1
10
13.7347571076804
20
0.458630079931027
30
0
41
1
10
13.6021356615206
20
0.49222933058212
30
0
0
SPLINE
5
E1
100
AcDbEntity
8
1
62
256
6
ByLayer
370
18
48
1
60
0
100
AcDbSpline
70
4
71
3
72
15
73
11
40
0
40
0
40
0
40
0
40
0.005331114071532
40
0.129664724812591
40
0.253998335553649
40
0.378331946294708
40
0.502665557035766
40
0.626999167776824
40
0.751332778517883
40
1
40
1
40
1
40
1
41
1
10
14.021438748701
20
-1.04377026015985
30
0
41
1
10
14.014292499134
20
-1.04527215098963
30
0
41
1
10
13.8404795829003
20
-1.08137514326629
30
0
41
1
10
13.5
20
-1.13169064312493
30
0
41
1
10
13
20
-1.14554576396355
30
0
41
1
10
12.5
20
-1.09633556468344
30
0
41
1
10
12
20
-0.987824457882511
30
0
41
1
10
11.5
20
-0.82496160480693
30
0
41
1
10
10.8333333333333
20
-0.549570130835804
30
0
41
1
10
10.3333333333333
20
-0.293519697255505
30
0
41
1
10
10
20
-0.115412633072765
30
0
0
SPLINE
5
E2
100
AcDbEntity
8
1
62
256
6
ByLayer
370
18
48
1
60
0
100
AcDbSpline
70
4
71
3
72
11
73
7
40
0
40
0
40
0
40
0
40
0.0521800018148326
40
0.289135001361124
40
0.526090000907417
40
1
40
1
40
1
40
1
41
1
10
12.1101052982945
20
-1.31842596879645
30
0
41
1
10
12.0734035321963
20
-1.31925425524437
30
0
41
1
10
11.8700350994315
20
-1.32063833204776
30
0
41
1
10
11.5
20
-1.29080591771847
30
0
41
1
10
10.8333333333333
20
-1.14346821640757
30
0
41
1
10
10.3333333333333
20
-0.936279338608131
30
0
41
1
10
9.99999999999997
20
-0.768803976198996
30
0
0
SPLINE
5
E3
100
AcDbEntity
8
1
62
256
6
ByLayer
370
18
48
1
60
0
100
AcDbSpline
70
4
71
3
72
8
73
4
40
0
40
0
40
0
40
0
40
1
40
1
40
1
40
1
41
1
10
17.7911057252046
20
0.241877565877928
30
0
41
1
10
17.8001125089279
20
0.243233262327578
30
0
41
1
10
17.809064687292
20
0.244676991783336
30
0
41
1
10
17.8179636241364
20
0.246199819558996
30
0
0
SPLINE
5
E4
100
AcDbEntity
8
1
62
256
6
ByLayer
370
18
48
1
60
0
100
AcDbSpline
70
4
71
3
72
20
73
16
40
0
40
0
40
0
40
0
40
0.125000000000006
40
0.125000000000006
40
0.250000000000013
40
0.250000000000013
40
0.375000000000019
40
0.375000000000019
40
0.437500000000014
40
0.437500000000014
40
0.500000000000008
40
0.500000000000008
40
0.750000000000004
40
0.750000000000004
40
1
40
1
40
1
40
1
41
1
10
17.2579658067967
20
0.731432373963457
30
0
41
1
10
17.2787535851517
20
0.716442665655762
30
0
41
1
10
17.3000979482179
20
0.700412808380207
30
0
41
1
10
17.3436728494006
20
0.666697004578907
30
0
41
1
10
17.3659054216148
20
0.649007256665584
30
0
41
1
10
17.4111265365977
20
0.612214998440408
30
0
41
1
10
17.4341159757808
20
0.593110812902609
30
0
41
1
10
17.4691059258075
20
0.563509308810524
30
0
41
1
10
17.4808538534431
20
0.553484019301038
30
0
41
1
10
17.5045116398359
20
0.533130822408907
30
0
41
1
10
17.5164413520196
20
0.522785505708242
30
0
41
1
10
17.5762199578485
20
0.470557103597486
30
0
41
1
10
17.6242872988135
20
0.427338491852879
30
0
41
1
10
17.7208276284466
20
0.33851857052295
30
0
41
1
10
17.769301682431
20
0.292911003470607
30
0
41
1
10
17.8179636241269
20
0.246199819557262
30
0
0
SPLINE
5
E5
100
AcDbEntity
8
1
62
256
6
ByLayer
370
18
48
1
60
0
100
AcDbSpline
70
4
71
3
72
10
73
6
40
0
40
0
40
0
40
0
40
0.324727355330988
40
0.954127351214112
40
1
40
1
40
1
40
1
41
1
10
17.257965806685
20
0.731432374088399
30
0
41
1
10
17.1719772044566
20
0.766452406231082
30
0
41
1
10
16.9193219355617
20
0.864084396747273
30
0
41
1
10
16.6545194764628
20
0.947372385019975
30
0
41
1
10
16.4757056195923
20
0.993871598798137
30
0
41
1
10
16.4635584293884
20
0.996984627093895
30
0
0
SPLINE
5
E6
100
AcDbEntity
8
1
62
256
6
ByLayer
370
18
48
1
60
0
100
AcDbSpline
70
4
71
3
72
8
73
4
40
0
40
0
40
0
40
0
40
1
40
1
40
1
40
1
41
1
10
10.1910883057457
20
-0.85935499045209
30
0
41
1
10
10.1644758677438
20
-0.868632357502264
30
0
41
1
10
10.1378634297418
20
-0.877706646726352
30
0
41
1
10
10.1112509917398
20
-0.886569724737257
30
0
0
SPLINE
5
E7
100
AcDbEntity
8
1
62
256
6
ByLayer
370
18
48
1
60
0
100
AcDbSpline
70
4
71
3
72
8
73
4
40
0
40
0
40
0
40
0
40
1
40
1
40
1
40
1
41
1
10
17.7911057252046
20
-1.19753737591415
30
0
41
1
10
17.8001125089279
20
-1.19621941967091
30
0
41
1
10
17.809064687292
20
-1.19485845973801
30
0
41
1
10
17.8179636241364
20
-1.1934486467801
30
0
0
SPLINE
5
E8
100
AcDbEntity
8
1
62
256
6
ByLayer
370
18
48
1
60
0
100
AcDbSpline
70
4
71
3
72
20
73
16
40
0
40
0
40
0
40
0
40
0.125000000000019
40
0.125000000000019
40
0.250000000000038
40
0.250000000000038
40
0.375000000000056
40
0.375000000000056
40
0.437500000000057
40
0.437500000000057
40
0.500000000000058
40
0.500000000000058
40
0.750000000000029
40
0.750000000000029
40
1
40
1
40
1
40
1
41
1
10
17.2579658067967
20
-1.12023384398932
30
0
41
1
10
17.2787535851517
20
-1.13378902111179
30
0
41
1
10
17.3000979482178
20
-1.14541680597549
30
0
41
1
10
17.3436728494005
20
-1.16560364732655
30
0
41
1
10
17.3659054216147
20
-1.17415566013713
30
0
41
1
10
17.4111265365974
20
-1.18864184178364
30
0
41
1
10
17.4341159757805
20
-1.19457290643214
30
0
41
1
10
17.4691059258072
20
-1.20171800320128
30
0
41
1
10
17.4808538534428
20
-1.20380670355496
30
0
41
1
10
17.5045116398355
20
-1.20742335436225
30
0
41
1
10
17.5164413520192
20
-1.2089531600293
30
0
41
1
10
17.576219957848
20
-1.21522401010188
30
0
41
1
10
17.624287298813
20
-1.21588395317221
30
0
41
1
10
17.7208276284459
20
-1.20997432492823
30
0
41
1
10
17.7693016824303
20
-1.20338576738462
30
0
41
1
10
17.8179636241261
20
-1.19344864678178
30
0
0
SPLINE
5
E9
100
AcDbEntity
8
1
62
256
6
ByLayer
370
18
48
1
60
0
100
AcDbSpline
70
4
71
3
72
19
73
15
40
0
40
0
40
0
40
0
40
0.0485189980004769
40
0.142560527426364
40
0.23660205685225
40
0.330643586278137
40
0.424685115704024
40
0.518726645129911
40
0.612768174555797
40
0.706809703981684
40
0.800851233407571
40
0.894892762833458
40
0.988934292259344
40
1
40
1
40
1
40
1
41
1
10
17.257965806685
20
-1.12023384398793
30
0
41
1
10
17.1719772044567
20
-1.11231492979732
30
0
41
1
10
16.9193219355617
20
-1.0811052898124
30
0
41
1
10
16.5
20
-0.990955632333567
30
0
41
1
10
16
20
-0.830797159037644
30
0
41
1
10
15.5
20
-0.624397534454261
30
0
41
1
10
15
20
-0.384749258443975
30
0
41
1
10
14.5
20
-0.124905486747082
30
0
41
1
10
14
20
0.143378649906396
30
0
41
1
10
13.5
20
0.402662675332323
30
0
41
1
10
13
20
0.639649143063878
30
0
41
1
10
12.5
20
0.84365388921654
30
0
41
1
10
12.1470552818381
20
0.954783359028255
30
0
41
1
10
11.9607772303428
20
1.00184339901227
30
0
41
1
10
11.9411658455141
20
1.00666872689555
30
0
0
SPLINE
5
EA
100
AcDbEntity
8
1
62
256
6
ByLayer
370
13
48
1
60
0
100
AcDbSpline
70
4
71
3
72
11
73
7
40
0
40
0
40
0
40
0
40
0.414922740196811
40
0.688069085700963
40
0.961215431205116
40
1
40
1
40
1
40
1
41
1
10
17.759524604715
20
-0.0744630279840806
30
0
41
1
10
17.5063497364767
20
0.0811560367935727
30
0
41
1
10
17.0865082015717
20
0.34298768798817
30
0
41
1
10
16.5
20
0.67369452455435
30
0
41
1
10
16.1430013498666
20
0.851784181506474
30
0
41
1
10
15.9526693663997
20
0.93502307162214
30
0
41
1
10
15.9290040495996
20
0.945189420365693
30
0
0
SPLINE
5
EB
100
AcDbEntity
8
1
62
256
6
ByLayer
370
13
48
1
60
0
100
AcDbSpline
70
4
71
3
72
18
73
14
40
0
40
0
40
0
40
0
40
0.0169534304427301
40
0.115778346768231
40
0.214603263093731
40
0.313428179419232
40
0.412253095744733
40
0.511078012070233
40
0.609902928395734
40
0.708727844721235
40
0.807552761046735
40
0.906377677372236
40
1
40
1
40
1
40
1
41
1
10
16.5857750811895
20
-1.31865442158323
30
0
41
1
10
16.5571833874597
20
-1.31921232624163
30
0
41
1
10
16.3619250270632
20
-1.32060649800519
30
0
41
1
10
16
20
-1.29248244476946
30
0
41
1
10
15.5
20
-1.18420283574753
30
0
41
1
10
15
20
-1.01151787355968
30
0
41
1
10
14.4999999999999
20
-0.783119649489833
30
0
41
1
10
14
20
-0.512970390849517
30
0
41
1
10
13.5
20
-0.215038704412535
30
0
41
1
10
13
20
0.093966870573837
30
0
41
1
10
12.4999999999999
20
0.399850582272478
30
0
41
1
10
12.0087740924239
20
0.677900764926932
30
0
41
1
10
11.6842148515143
20
0.837343661957505
30
0
41
1
10
11.5263222772716
20
0.907752975748878
30
0
0
SPLINE
5
EC
100
AcDbEntity
8
1
62
256
6
ByLayer
370
18
48
1
60
0
100
AcDbSpline
70
4
71
3
72
14
73
10
40
0
40
0
40
0
40
0
40
0.0660758812036978
40
0.199493612460312
40
0.332911343716927
40
0.466329074973542
40
0.599746806230156
40
0.733164537486771
40
1
40
1
40
1
40
1
41
1
10
13.7476278099672
20
-0.897426080848277
30
0
41
1
10
13.6650852066448
20
-0.93632577136546
30
0
41
1
10
13.4158759366558
20
-1.0477401838661
30
0
41
1
10
13.0000000000001
20
-1.19926193030651
30
0
41
1
10
12.5000000000001
20
-1.31727505543881
30
0
41
1
10
12.0000000000001
20
-1.3629392260591
30
0
41
1
10
11.5000000000001
20
-1.33521934315186
30
0
41
1
10
10.8333333333334
20
-1.20148812030521
30
0
41
1
10
10.3333333333334
20
-1.00002551173361
30
0
41
1
10
10.0000000000001
20
-0.833947675203319
30
0
0
SPLINE
5
ED
100
AcDbEntity
8
1
62
256
6
ByLayer
370
18
48
1
60
0
100
AcDbSpline
70
4
71
3
72
34
73
30
40
0
40
0
40
0
40
0
40
0.0541870997273793
40
0.0541870997273793
40
0.133004841416768
40
0.133004841416768
40
0.211822583106157
40
0.211822583106157
40
0.251231453950851
40
0.251231453950851
40
0.290640324795545
40
0.290640324795545
40
0.369458066484929
40
0.369458066484929
40
0.448275808174313
40
0.448275808174313
40
0.527093549863697
40
0.527093549863697
40
0.605911291553081
40
0.605911291553081
40
0.645320162397773
40
0.645320162397773
40
0.684729033242464
40
0.684729033242464
40
0.763546774931848
40
0.763546774931848
40
0.842364516621232
40
0.842364516621232
40
1
40
1
40
1
40
1
41
1
10
13.0006609377534
20
-1.24772724339886
30
0
41
1
10
12.946774022446
20
-1.26675945304643
30
0
41
1
10
12.8929034895601
20
-1.28464289324757
30
0
41
1
10
12.7606304258552
20
-1.32556977446495
30
0
41
1
10
12.6822078616949
20
-1.34725117273476
30
0
41
1
10
12.5249441903851
20
-1.38500139711729
30
0
41
1
10
12.4460813451061
20
-1.4011059610263
30
0
41
1
10
12.3271578252264
20
-1.42098163014498
30
0
41
1
10
12.2873768428028
20
-1.42689005741212
30
0
41
1
10
12.2081252649817
20
-1.43714975386939
30
0
41
1
10
12.1685921823179
20
-1.44150980497494
30
0
41
1
10
12.0501849174026
20
-1.45235126388351
30
0
41
1
10
11.9714885145578
20
-1.45661118516026
30
0
41
1
10
11.8142706340014
20
-1.45945195258321
30
0
41
1
10
11.735759540253
20
-1.45803823927662
30
0
41
1
10
11.5787593820144
20
-1.44947164043541
30
0
41
1
10
11.5002754777235
20
-1.44230885852747
30
0
41
1
10
11.3431134920625
20
-1.42195581538104
30
0
41
1
10
11.2644358288373
20
-1.40872095546919
30
0
41
1
10
11.1459601254205
20
-1.38452143664995
30
0
41
1
10
11.1063913933158
20
-1.37573646917383
30
0
41
1
10
11.0270592268493
20
-1.35670595476449
30
0
41
1
10
10.9872979628153
20
-1.34645734738979
30
0
41
1
10
10.8684262512524
20
-1.31369706264445
30
0
41
1
10
10.7894694797326
20
-1.28912812055924
30
0
41
1
10
10.6317284455777
20
-1.23515683204741
30
0
41
1
10
10.552953361254
20
-1.20573444645461
30
0
41
1
10
10.3165354108481
20
-1.11040561101959
30
0
41
1
10
10.1588079195487
20
-1.03750081414299
30
0
41
1
10
10.0000000000001
20
-0.955077719716286
30
0
0
SPLINE
5
EE
100
AcDbEntity
8
1
62
256
6
ByLayer
370
13
48
1
60
0
100
AcDbSpline
70
4
71
3
72
13
73
9
40
0
40
0
40
0
40
0
40
0.316352731003965
40
0.474529096505947
40
0.632705462007929
40
0.790881827509911
40
0.949058193011894
40
1
40
1
40
1
40
1
41
1
10
10
20
0.34656291109772
30
0
41
1
10
10.3333333333333
20
0.259585400455421
30
0
41
1
10
10.8333333333333
20
0.110199612181958
30
0
41
1
10
11.5
20
-0.0979852659494043
30
0
41
1
10
12
20
-0.24779997349566
30
0
41
1
10
12.5
20
-0.382623937982686
30
0
41
1
10
12.8870095013104
20
-0.472283267674243
30
0
41
1
10
13.1073523359541
20
-0.515618656498447
30
0
41
1
10
13.1610285039311
20
-0.525681716052503
30
0
0
SPLINE
5
EF
100
AcDbEntity
8
1
62
256
6
ByLayer
370
18
48
1
60
0
100
AcDbSpline
70
4
71
3
72
10
73
6
40
0
40
0
40
0
40
0
40
0.179741996988691
40
0.179741996988691
40
1
40
1
40
1
40
1
41
1
10
17.2794041090877
20
-0.271647860864761
30
0
41
1
10
17.2695631277377
20
-0.269793622972514
30
0
41
1
10
17.259710055214
20
-0.267962475241831
30
0
41
1
10
17.204831577735
20
-0.257890579734323
30
0
41
1
10
17.1595877558832
20
-0.250066936327073
30
0
41
1
10
17.1141802257506
20
-0.242555921843547
30
0
0
SPLINE
5
F0
100
AcDbEntity
8
1
62
256
6
ByLayer
370
13
48
1
60
0
100
AcDbSpline
70
4
71
3
72
15
73
11
40
0
40
0
40
0
40
0
40
0.0544093618716093
40
0.189983904514602
40
0.325558447157594
40
0.461132989800587
40
0.59670753244358
40
0.732282075086572
40
0.867856617729565
40
1
40
1
40
1
40
1
41
1
10
13.2993378372853
20
0.590532199428395
30
0
41
1
10
13.3662252248568
20
0.581267184971665
30
0
41
1
10
13.5997792790951
20
0.545875792182045
30
0
41
1
10
14
20
0.468064892223651
30
0
41
1
10
14.5
20
0.347458003209482
30
0
41
1
10
15
20
0.206939739716148
30
0
41
1
10
15.5
20
0.0535813619357271
30
0
41
1
10
16
20
-0.101919569878049
30
0
41
1
10
16.4957819510142
20
-0.248535662834087
30
0
41
1
10
16.8248972353618
20
-0.338151506106811
30
0
41
1
10
16.9873458530427
20
-0.379234078002213
30
0
0
SPLINE
5
F1
100
AcDbEntity
8
1
62
256
6
ByLayer
370
18
48
1
60
0
100
AcDbSpline
70
4
71
3
72
29
73
25
40
0
40
0
40
0
40
0
40
0.125000000000017
40
0.125000000000017
40
0.187500000000026
40
0.187500000000026
40
0.250000000000034
40
0.312500000000043
40
0.312500000000043
40
0.375000000000051
40
0.375000000000051
40
0.500000000000069
40
0.500000000000069
40
0.56250000000006
40
0.56250000000006
40
0.625000000000052
40
0.625000000000052
40
0.687500000000043
40
0.687500000000043
40
0.750000000000034
40
0.750000000000034
40
0.875000000000017
40
0.875000000000017
40
1
40
1
40
1
40
1
41
1
10
16.9873458530427
20
-0.379234078002213
30
0
41
1
10
16.981754673762
20
-0.370025594013583
30
0
41
1
10
16.9774710416814
20
-0.360530545342357
30
0
41
1
10
16.9731511484209
20
-0.345953241494612
30
0
41
1
10
16.9720605486695
20
-0.341006791301368
30
0
41
1
10
16.9706672646429
20
-0.331168149536239
30
0
41
1
10
16.9700610254155
20
-0.321452578384765
30
0
41
1
10
16.9710141142497
20
-0.312025522670808
30
0
41
1
10
16.9727742078374
20
-0.302767561982705
30
0
41
1
10
16.9740746265001
20
-0.298187446149029
30
0
41
1
10
16.9791300541324
20
-0.285115345135608
30
0
41
1
10
16.9839966081121
20
-0.277223263881154
30
0
41
1
10
16.9936170983718
20
-0.266693254073914
30
0
41
1
10
16.9971918072136
20
-0.263439945709024
30
0
41
1
10
17.0049049830427
20
-0.257573839015521
30
0
41
1
10
17.0090648269249
20
-0.254936868952541
30
0
41
1
10
17.0179988442714
20
-0.250244354135589
30
0
41
1
10
17.0228137547584
20
-0.248177845523458
30
0
41
1
10
17.0328194966203
20
-0.244723970441868
30
0
41
1
10
17.0380198991502
20
-0.24332410049351
30
0
41
1
10
17.054203407018
20
-0.240033924922329
30
0
41
1
10
17.0658917525262
20
-0.239069873532657
30
0
41
1
10
17.0896200945247
20
-0.239325049927942
30
0
41
1
10
17.1018652146246
20
-0.240518853836079
30
0
41
1
10
17.1141802257506
20
-0.242555921843547
30
0
0
SPLINE
5
F2
100
AcDbEntity
8
1
62
256
6
ByLayer
370
18
48
1
60
0
100
AcDbSpline
70
4
71
3
72
8
73
4
40
0
40
0
40
0
40
0
40
1
40
1
40
1
40
1
41
1
10
9.66560000305057
20
-0.842448785421823
30
0
41
1
10
9.69927132560667
20
-0.842986110536742
30
0
41
1
10
9.73298081346178
20
-0.843821002276059
30
0
41
1
10
9.76672819108322
20
-0.844951312381738
30
0
0
SPLINE
5
F3
100
AcDbEntity
8
1
62
256
6
ByLayer
370
18
48
1
60
0
100
AcDbSpline
70
4
71
3
72
9
73
5
40
0
40
0
40
0
40
0
40
0.5
40
1
40
1
40
1
40
1
41
1
10
10.0000000000001
20
-0.955077719716286
30
0
41
1
10
9.96078375606388
20
-0.937784682504343
30
0
41
1
10
9.88270281418684
20
-0.902093540393935
30
0
41
1
10
9.80526703407875
20
-0.864374363743053
30
0
41
1
10
9.76672839847237
20
-0.844951297805494
30
0
0
SPLINE
5
F4
100
AcDbEntity
8
1
62
256
6
ByLayer
370
18
48
1
60
0
100
AcDbSpline
70
4
71
3
72
18
73
14
40
0
40
0
40
0
40
0
40
0.249999999999997
40
0.249999999999997
40
0.374999999999994
40
0.374999999999994
40
0.499999999999992
40
0.499999999999992
40
0.749999999999996
40
0.749999999999996
40
0.874999999999998
40
0.874999999999998
40
1
40
1
40
1
40
1
41
1
10
9.62599799479506
20
1.45219998375558
30
0
41
1
10
9.62082565015979
20
1.4579545737146
30
0
41
1
10
9.61749686697718
20
1.4632246171914
30
0
41
1
10
9.6156395183603
20
1.47038329881894
30
0
41
1
10
9.61554455093457
20
1.47264505511348
30
0
41
1
10
9.61648784465933
20
1.47691535161414
30
0
41
1
10
9.61753943760095
20
1.47893402387464
30
0
41
1
10
9.6224252058548
20
1.48448915983005
30
0
41
1
10
9.62796095365766
20
1.48755434412757
30
0
41
1
10
9.63961541393104
20
1.49132886642667
30
0
41
1
10
9.64406000637189
20
1.49244960888683
30
0
41
1
10
9.65406913889291
20
1.49443653577893
30
0
41
1
10
9.65961604826052
20
1.49529728452467
30
0
41
1
10
9.66560000306777
20
1.49603136745378
30
0
0
SPLINE
5
F5
100
AcDbEntity
8
1
62
256
6
ByLayer
370
18
48
1
60
0
100
AcDbSpline
70
4
71
3
72
10
73
6
40
0
40
0
40
0
40
0
40
0.5
40
0.5
40
1
40
1
40
1
40
1
41
1
10
9.08470716968125
20
-1.43655047613561
30
0
41
1
10
9.01155823684695
20
-1.46846154761198
30
0
41
1
10
8.93989797741037
20
-1.48807993281213
30
0
41
1
10
8.79149051594953
20
-1.50385155138906
30
0
41
1
10
8.7148234698183
20
-1.49997394769389
30
0
41
1
10
8.63141184528067
20
-1.48574652812306
30
0
0
SPLINE
5
F6
100
AcDbEntity
8
1
62
256
6
ByLayer
370
18
48
1
60
0
100
AcDbSpline
70
4
71
3
72
20
73
16
40
0
40
0
40
0
40
0
40
0.24999999999996
40
0.24999999999996
40
0.374999999999967
40
0.374999999999967
40
0.499999999999974
40
0.499999999999974
40
0.62499999999998
40
0.62499999999998
40
0.749999999999987
40
0.749999999999987
40
0.874999999999993
40
0.874999999999993
40
1
40
1
40
1
40
1
41
1
10
8.63141184528067
20
-1.48574652812306
30
0
41
1
10
8.62139236747123
20
-1.48403751795251
30
0
41
1
10
8.61238310392994
20
-1.48209460716623
30
0
41
1
10
8.60090193031024
20
-1.47869975948492
30
0
41
1
10
8.59741651269337
20
-1.47748744739386
30
0
41
1
10
8.59127421040193
20
-1.47486720267165
30
0
41
1
10
8.58865621286222
20
-1.47347277170647
30
0
41
1
10
8.58451090113476
20
-1.47053169605672
30
0
41
1
10
8.58297122660824
20
-1.46898022591213
30
0
41
1
10
8.58110899390505
20
-1.46569633336037
30
0
41
1
10
8.58080288875576
20
-1.46395870608649
30
0
41
1
10
8.58152530885803
20
-1.46043025619355
30
0
41
1
10
8.58253987153981
20
-1.45862401020278
30
0
41
1
10
8.58587883302351
20
-1.45493528442745
30
0
41
1
10
8.58822393302344
20
-1.45304141172858
30
0
41
1
10
8.59117441471244
20
-1.45115057457315
30
0
0
SPLINE
5
F7
100
AcDbEntity
8
1
62
256
6
ByLayer
370
13
48
1
60
0
100
AcDbSpline
70
4
71
3
72
12
73
8
40
0
40
0
40
0
40
0
40
0.197351784593516
40
0.395893624415512
40
0.595760927873832
40
0.797086428937529
40
1
40
1
40
1
40
1
41
1
10
9.6066207793202
20
-1.07190444450407
30
0
41
1
10
9.60778410355715
20
-1.07051843706148
30
0
41
1
10
9.61011776701747
20
-1.06773806438309
30
0
41
1
10
9.61382706852123
20
-1.06361688263078
30
0
41
1
10
9.61770392617916
20
-1.05951937018151
30
0
41
1
10
9.62175052874758
20
-1.05544497721445
30
0
41
1
10
9.62457846955414
20
-1.05276854280433
30
0
41
1
10
9.62599799479889
20
-1.05142506835736
30
0
0
SPLINE
5
F8
100
AcDbEntity
8
1
62
256
6
ByLayer
370
18
48
1
60
0
100
AcDbSpline
70
4
71
3
72
18
73
14
40
0
40
0
40
0
40
0
40
0.250000000000003
40
0.250000000000003
40
0.375000000000006
40
0.375000000000006
40
0.500000000000009
40
0.500000000000009
40
0.750000000000004
40
0.750000000000004
40
0.875000000000002
40
0.875000000000002
40
1
40
1
40
1
40
1
41
1
10
9.62599799479506
20
-1.05142506835543
30
0
41
1
10
9.62082565015979
20
-1.03503667483776
30
0
41
1
10
9.61749686697721
20
-1.01820423927018
30
0
41
1
10
9.6156395183603
20
-0.992253659757495
30
0
41
1
10
9.61554455093454
20
-0.983486336833636
30
0
41
1
10
9.61648784465933
20
-0.965709354576973
30
0
41
1
10
9.6175394376009
20
-0.956645835636266
30
0
41
1
10
9.6224252058548
20
-0.929656045774294
30
0
41
1
10
9.62796095365766
20
-0.911843996340991
30
0
41
1
10
9.63961541393098
20
-0.8854629837777
30
0
41
1
10
9.64406000637186
20
-0.876725679736609
30
0
41
1
10
9.65406913889288
20
-0.859376348958023
30
0
41
1
10
9.65961604826049
20
-0.850803879536898
30
0
41
1
10
9.66560000306774
20
-0.842448785421936
30
0
0
SPLINE
5
F9
100
AcDbEntity
8
1
62
256
6
ByLayer
370
18
48
1
60
0
100
AcDbSpline
70
4
71
3
72
22
73
18
40
0
40
0
40
0
40
0
40
0.249999999999999
40
0.249999999999999
40
0.374999999999999
40
0.374999999999999
40
0.499999999999999
40
0.499999999999999
40
0.624999999999999
40
0.624999999999999
40
0.687499999999999
40
0.687499999999999
40
0.749999999999999
40
0.749999999999999
40
0.874999999999999
40
0.874999999999999
40
1
40
1
40
1
40
1
41
1
10
8.8412980511898
20
-0.251785588799805
30
0
41
1
10
8.83592213615597
20
-0.246140647162235
30
0
41
1
10
8.83077820532671
20
-0.240302376074993
30
0
41
1
10
8.82374983759502
20
-0.23097679668183
30
0
41
1
10
8.82151976611888
20
-0.227764466002753
30
0
41
1
10
8.81750040535078
20
-0.221109347613179
30
0
41
1
10
8.81568363760678
20
-0.217640906021757
30
0
41
1
10
8.8129369588535
20
-0.210352062997998
30
0
41
1
10
8.81197258352987
20
-0.206484631421148
30
0
41
1
10
8.81226318827291
20
-0.200652850505094
30
0
41
1
10
8.81267427602589
20
-0.198709281358788
30
0
41
1
10
8.81428542039589
20
-0.195136539889518
30
0
41
1
10
8.81547051588817
20
-0.193545120954809
30
0
41
1
10
8.81985017226401
20
-0.189547323771734
30
0
41
1
10
8.82358528817974
20
-0.188024475738217
30
0
41
1
10
8.83114518249207
20
-0.186084384361294
30
0
41
1
10
8.83508200112007
20
-0.185652430595752
30
0
41
1
10
8.83901361395559
20
-0.18549412892574
30
0
0
SPLINE
5
FA
100
AcDbEntity
8
1
62
256
6
ByLayer
370
18
48
1
60
0
100
AcDbSpline
70
4
71
3
72
20
73
16
40
0
40
0
40
0
40
0
40
0.250000000000001
40
0.250000000000001
40
0.375000000000001
40
0.375000000000001
40
0.500000000000001
40
0.500000000000001
40
0.625000000000001
40
0.625000000000001
40
0.75
40
0.75
40
0.875
40
0.875
40
1
40
1
40
1
40
1
41
1
10
8.63141184528033
20
0.921529192112473
30
0
41
1
10
8.62139236747086
20
0.931334097920114
30
0
41
1
10
8.6123831039296
20
0.941523003830241
30
0
41
1
10
8.60090193030987
20
0.957572752472856
30
0
41
1
10
8.59741651269303
20
0.963051513466269
30
0
41
1
10
8.59127421040154
20
0.974321556535415
30
0
41
1
10
8.58865621286185
20
0.980051713650113
30
0
41
1
10
8.58451090113439
20
0.99157865229401
30
0
41
1
10
8.58297122660784
20
0.997396490316561
30
0
41
1
10
8.58110899390465
20
1.00915892493612
30
0
41
1
10
8.58080288875536
20
1.01511462326627
30
0
41
1
10
8.58152530885766
20
1.02670206066705
30
0
41
1
10
8.58253987153938
20
1.03239106501925
30
0
41
1
10
8.58587883302312
20
1.04356479106465
30
0
41
1
10
8.58822393302307
20
1.04908053350101
30
0
41
1
10
8.59117441471204
20
1.05439363749986
30
0
0
SPLINE
5
FB
100
AcDbEntity
8
1
62
256
6
ByLayer
370
18
48
1
60
0
100
AcDbSpline
70
4
71
3
72
33
73
29
40
0
40
0
40
0
40
0
40
0.0624999999999938
40
0.0624999999999938
40
0.093749999999991
40
0.093749999999991
40
0.124999999999988
40
0.124999999999988
40
0.187499999999982
40
0.187499999999982
40
0.249999999999976
40
0.249999999999976
40
0.28124999999998
40
0.28124999999998
40
0.312499999999983
40
0.37499999999999
40
0.37499999999999
40
0.437499999999996
40
0.437499999999996
40
0.500000000000003
40
0.500000000000003
40
0.625000000000002
40
0.625000000000002
40
0.750000000000001
40
0.750000000000001
40
0.875000000000001
40
0.875000000000001
40
1
40
1
40
1
40
1
41
1
10
8.59117441471201
20
1.05439363749986
30
0
41
1
10
8.60203007250396
20
1.07394205192975
30
0
41
1
10
8.61608026026943
20
1.09151302403728
30
0
41
1
10
8.64072211320479
20
1.11573694108847
30
0
41
1
10
8.64953838029598
20
1.1234509411064
30
0
41
1
10
8.66824211957271
20
1.13824996135529
30
0
41
1
10
8.67813802328669
20
1.14533351657548
30
0
41
1
10
8.70871063402367
20
1.16541649946646
30
0
41
1
10
8.73043548748714
20
1.17740840598515
30
0
41
1
10
8.77589178565344
20
1.19938700667575
30
0
41
1
10
8.79962989411692
20
1.20936608852764
30
0
41
1
10
8.83645447147958
20
1.22317099207905
30
0
41
1
10
8.84894691854319
20
1.22758064814553
30
0
41
1
10
8.87415417586968
20
1.23600204020059
30
0
41
1
10
8.91234977786945
20
1.24805589616653
30
0
41
1
10
8.95158275716912
20
1.25859051453136
30
0
41
1
10
9.00467524230538
20
1.27155177921014
30
0
41
1
10
9.03164624237527
20
1.27749495444442
30
0
41
1
10
9.08610756644319
20
1.28844006153128
30
0
41
1
10
9.11358075699553
20
1.29343959772746
30
0
41
1
10
9.19665352522588
20
1.30723913720561
30
0
41
1
10
9.25298729981628
20
1.31486132658935
30
0
41
1
10
9.36660803176898
20
1.32757794508643
30
0
41
1
10
9.42398496144071
20
1.33267953961948
30
0
41
1
10
9.53941677064969
20
1.34071915587631
30
0
41
1
10
9.59731214866801
20
1.34364645000443
30
0
41
1
10
9.71346127733906
20
1.34747938723785
30
0
41
1
10
9.77171512318799
20
1.34838450642485
30
0
41
1
10
9.83015972516307
20
1.34823997960711
30
0
0
SPLINE
5
FC
100
AcDbEntity
8
1
62
256
6
ByLayer
370
18
48
1
60
0
100
AcDbSpline
70
4
71
2
72
6
73
3
40
0
40
0
40
0
40
1
40
1
40
1
41
0.500000532062383
10
9.8301597251631
20
1.34823997960717
30
0
41
0.499999467937617
10
9.91507507114944
20
1.34802999366636
30
0
41
0.500000532062383
10
9.99999999999996
20
1.34781973269799
30
0
0
SPLINE
5
FD
100
AcDbEntity
8
1
62
256
6
ByLayer
370
18
48
1
60
0
100
AcDbSpline
70
4
71
3
72
10
73
6
40
0
40
0
40
0
40
0
40
0.5
40
0.5
40
1
40
1
40
1
40
1
41
1
10
9.08470716968105
20
0.344454362331703
30
0
41
1
10
9.01155823684672
20
0.452382821264393
30
0
41
1
10
8.93989797741011
20
0.555901969700642
30
0
41
1
10
8.79149051594922
20
0.749644510382524
30
0
41
1
10
8.71482346981796
20
0.839903868177629
30
0
41
1
10
8.63141184528033
20
0.921529192112473
30
0
0
SPLINE
5
FE
100
AcDbEntity
8
1
62
256
6
ByLayer
370
18
48
1
60
0
100
AcDbSpline
70
4
71
3
72
30
73
26
40
0
40
0
40
0
40
0
40
0.125000000000025
40
0.125000000000025
40
0.187500000000023
40
0.187500000000023
40
0.250000000000021
40
0.250000000000021
40
0.312500000000019
40
0.312500000000019
40
0.375000000000017
40
0.375000000000017
40
0.437500000000016
40
0.437500000000016
40
0.500000000000014
40
0.500000000000014
40
0.562500000000012
40
0.562500000000012
40
0.62500000000001
40
0.62500000000001
40
0.750000000000007
40
0.750000000000007
40
0.875000000000004
40
0.875000000000004
40
1
40
1
40
1
40
1
41
1
10
8.83901361395749
20
-0.185494128935346
30
0
41
1
10
8.86930846684587
20
-0.184274343053318
30
0
41
1
10
8.89936038079799
20
-0.18125271978036
30
0
41
1
10
8.94381780465662
20
-0.172107811458005
30
0
41
1
10
8.95855945614105
20
-0.168255593460657
30
0
41
1
10
8.98709507601404
20
-0.158642159293265
30
0
41
1
10
9.0009613761286
20
-0.15287297532484
30
0
41
1
10
9.02764747222761
20
-0.138818900468834
30
0
41
1
10
9.04052808136726
20
-0.130440636057585
30
0
41
1
10
9.06381371876384
20
-0.111354606531592
30
0
41
1
10
9.07438883652065
20
-0.100555364888407
30
0
41
1
10
9.09304381876373
20
-0.0764421458869435
30
0
41
1
10
9.10082785400334
20
-0.0635345709871444
30
0
41
1
10
9.11374382878097
20
-0.0362508693438031
30
0
41
1
10
9.11888293455007
20
-0.0217729368798416
30
0
41
1
10
9.12665132068412
20
0.0073748916929048
30
0
41
1
10
9.12935367022479
20
0.0221608800234776
30
0
41
1
10
9.13294938256627
20
0.0520557378509352
30
0
41
1
10
9.13383795200579
20
0.0672453208576655
30
0
41
1
10
9.13432355475365
20
0.11252043034429
30
0
41
1
10
9.1318452313659
20
0.142288865157127
30
0
41
1
10
9.12340640834483
20
0.201247157733917
30
0
41
1
10
9.11738876579824
20
0.230500043213283
30
0
41
1
10
9.10279496822298
20
0.288216504671226
30
0
41
1
10
9.0942482319679
20
0.316554433637634
30
0
41
1
10
9.08470716968105
20
0.344454362331703
30
0
0
SPLINE
5
FF
100
AcDbEntity
8
1
62
256
6
ByLayer
370
18
48
1
60
0
100
AcDbSpline
70
4
71
3
72
14
73
10
40
0
40
0
40
0
40
0
40
0.5
40
0.5
40
0.625
40
0.625
40
0.75
40
0.75
40
1
40
1
40
1
40
1
41
1
10
17.7911121738349
20
0.241874402333224
30
0
41
1
10
17.7814984411113
20
0.193747138800148
30
0
41
1
10
17.7718605242692
20
0.143338319791752
30
0
41
1
10
17.7638937320954
20
0.0768540940807725
30
0
41
1
10
17.7625061145989
20
0.0633819932569395
30
0
41
1
10
17.7602522533831
20
0.0360652737101361
30
0
41
1
10
17.7593941400869
20
0.0222917181787352
30
0
41
1
10
17.7577613181674
20
-0.019014919222343
30
0
41
1
10
17.757923888487
20
-0.0466785385754065
30
0
41
1
10
17.7595246047108
20
-0.0744630279814373
30
0
0
SPLINE
5
100
100
AcDbEntity
8
1
62
256
6
ByLayer
370
18
48
1
60
0
100
AcDbSpline
70
4
71
3
72
18
73
14
40
0
40
0
40
0
40
0
40
0.125
40
0.125
40
0.25
40
0.25
40
0.375
40
0.375
40
0.5
40
0.5
40
0.75
40
0.75
40
1
40
1
40
1
40
1
41
1
10
17.7595246047153
20
-0.0744630279835974
30
0
41
1
10
17.7596840600487
20
-0.0772281038157132
30
0
41
1
10
17.7597137780903
20
-0.0799782124014143
30
0
41
1
10
17.7594569705372
20
-0.0854424024751097
30
0
41
1
10
17.7591646268573
20
-0.0881876731289708
30
0
41
1
10
17.7581992724711
20
-0.0934592589250656
30
0
41
1
10
17.7575327042279
20
-0.0959770818247705
30
0
41
1
10
17.755773562064
20
-0.100745107263037
30
0
41
1
10
17.7546624204656
20
-0.103009117643467
30
0
41
1
10
17.7508336221655
20
-0.108950633958699
30
0
41
1
10
17.7475170453872
20
-0.111933478614674
30
0
41
1
10
17.7402458743671
20
-0.115840617842622
30
0
41
1
10
17.7363214681326
20
-0.116825046365847
30
0
41
1
10
17.7322986889941
20
-0.117166696045444
30
0
0
SPLINE
5
101
100
AcDbEntity
8
1
62
256
6
ByLayer
370
13
48
1
60
0
100
AcDbSpline
70
4
71
3
72
8
73
4
40
0
40
0
40
0
40
0
40
1
40
1
40
1
40
1
41
1
10
17.4726720297926
20
-0.404442932329431
30
0
41
1
10
17.468503307265
20
-0.379689931593134
30
0
41
1
10
17.4643345847374
20
-0.354936930856809
30
0
41
1
10
17.4601658622098
20
-0.330183930120512
30
0
0
SPLINE
5
102
100
AcDbEntity
8
1
62
256
6
ByLayer
370
18
48
1
60
0
100
AcDbSpline
70
4
71
3
72
22
73
18
40
0
40
0
40
0
40
0
40
0.250000000000007
40
0.250000000000007
40
0.37500000000001
40
0.37500000000001
40
0.437500000000012
40
0.437500000000012
40
0.500000000000013
40
0.500000000000013
40
0.750000000000017
40
0.750000000000017
40
0.812500000000012
40
0.812500000000012
40
0.875000000000008
40
0.875000000000008
40
1
40
1
40
1
40
1
41
1
10
17.9719439005139
20
-0.415437163499718
30
0
41
1
10
17.9742199930284
20
-0.43199127725515
30
0
41
1
10
17.9713727600873
20
-0.447766474878591
30
0
41
1
10
17.9602667069142
20
-0.470390092650376
30
0
41
1
10
17.9554135180701
20
-0.477756282217172
30
0
41
1
10
17.9463622267673
20
-0.488536238334632
30
0
41
1
10
17.94303746308
20
-0.492095553493272
30
0
41
1
10
17.9358399360975
20
-0.499064543384748
30
0
41
1
10
17.9319763128154
20
-0.502467983686017
30
0
41
1
10
17.9113579965957
20
-0.519087286995585
30
0
41
1
10
17.890786394704
20
-0.531135067083113
30
0
41
1
10
17.8597098923977
20
-0.544553867394853
30
0
41
1
10
17.8531978140247
20
-0.547162504188975
30
0
41
1
10
17.8397578380082
20
-0.552150167432075
30
0
41
1
10
17.8328274375551
20
-0.554532016128093
30
0
41
1
10
17.8114093246391
20
-0.561343915647655
30
0
41
1
10
17.7962997556097
20
-0.565443010202756
30
0
41
1
10
17.7803373460417
20
-0.569088217258013
30
0
0
SPLINE
5
103
100
AcDbEntity
8
1
62
256
6
ByLayer
370
13
48
1
60
0
100
AcDbSpline
70
4
71
3
72
8
73
4
40
0
40
0
40
0
40
0
40
1
40
1
40
1
40
1
41
1
10
17.9719439005112
20
-0.415437163537774
30
0
41
1
10
17.943197284344
20
-0.244745781120457
30
0
41
1
10
17.9144506681769
20
-0.0740543987031401
30
0
41
1
10
17.8857040520098
20
0.0966369837141769
30
0
0
SPLINE
5
104
100
AcDbEntity
8
1
62
256
6
ByLayer
370
18
48
1
60
0
100
AcDbSpline
70
4
71
3
72
12
73
8
40
0
40
0
40
0
40
0
40
0.499999999999991
40
0.499999999999991
40
0.749999999999995
40
0.749999999999995
40
1
40
1
40
1
40
1
41
1
10
17.8084450245826
20
0.24797083346931
30
0
41
1
10
17.8278146473692
20
0.217483495013113
30
0
41
1
10
17.844792597321
20
0.188925970759186
30
0
41
1
10
17.8650956197607
20
0.150256394046409
30
0
41
1
10
17.8709944741533
20
0.138067577545542
30
0
41
1
10
17.8804264253782
20
0.115598851838286
30
0
41
1
10
17.8839687371082
20
0.105271232072653
30
0
41
1
10
17.8857040520018
20
0.0966369838133119
30
0
0
SPLINE
5
105
100
AcDbEntity
8
1
62
256
6
ByLayer
370
18
48
1
60
0
100
AcDbSpline
70
4
71
3
72
9
73
5
40
0
40
0
40
0
40
0
40
0.5
40
1
40
1
40
1
40
1
41
1
10
10.0000000000001
20
1.43274849269983
30
0
41
1
10
9.96078068779875
20
1.43696643051973
30
0
41
1
10
9.88269685422142
20
1.44437566074637
30
0
41
1
10
9.80526399855026
20
1.44990117969806
30
0
41
1
10
9.76672839842902
20
1.45214068453856
30
0
0
SPLINE
5
106
100
AcDbEntity
8
1
62
256
6
ByLayer
370
18
48
1
60
0
100
AcDbSpline
70
4
71
3
72
19
73
15
40
0
40
0
40
0
40
0
40
0.0829911957191479
40
0.166027613929202
40
0.249114750623523
40
0.332257912568453
40
0.415462224497655
40
0.498732635956323
40
0.582073927806294
40
0.665490718403888
40
0.748987471815426
40
0.83256851834652
40
0.916238028831179
40
1
40
1
40
1
40
1
41
1
10
9.76672840129365
20
1.45214068490878
30
0
41
1
10
9.76267163243327
20
1.45164951037813
30
0
41
1
10
9.75455588415042
20
1.45066689367235
30
0
41
1
10
9.74249546521466
20
1.44952714232474
30
0
41
1
10
9.73051414021117
20
1.44862830398597
30
0
41
1
10
9.7186202702633
20
1.44799210289537
30
0
41
1
10
9.7068116436111
20
1.44760952069566
30
0
41
1
10
9.69508890465849
20
1.44747982295314
30
0
41
1
10
9.68345188304147
20
1.44759992951845
30
0
41
1
10
9.67190083476837
20
1.44796786976804
30
0
41
1
10
9.66043514807242
20
1.44857959650369
30
0
41
1
10
9.64905728426041
20
1.44943828064103
30
0
41
1
10
9.63775832560049
20
1.45052024833205
30
0
41
1
10
9.63030491623155
20
1.45144097825136
30
0
41
1
10
9.62657615354902
20
1.45190159743837
30
0
0
SPLINE
5
107
100
AcDbEntity
8
1
62
256
6
ByLayer
370
18
48
1
60
0
100
AcDbSpline
70
4
71
3
72
8
73
4
40
0
40
0
40
0
40
0
40
1
40
1
40
1
40
1
41
1
10
16.9765871436193
20
-1.30675148064626
30
0
41
1
10
16.8374460036697
20
-1.32911613320303
30
0
41
1
10
16.69830486372
20
-1.34314297201709
30
0
41
1
10
16.5591637237703
20
-1.34860295732153
30
0
0
SPLINE
5
108
100
AcDbEntity
8
1
62
256
6
ByLayer
370
13
48
1
60
0
100
AcDbSpline
70
4
71
3
72
18
73
14
40
0
40
0
40
0
40
0
40
0.0124332596611056
40
0.117508285962724
40
0.222583312264342
40
0.32765833856596
40
0.432733364867578
40
0.537808391169196
40
0.642883417470815
40
0.747958443772433
40
0.853033470074051
40
0.958108496375669
40
1
40
1
40
1
40
1
41
1
10
16.5591637237636
20
-1.34860295732176
30
0
41
1
10
16.5394424825091
20
-1.3493768311557
30
0
41
1
10
16.3530545745879
20
-1.35506427868722
30
0
41
1
10
16.0000000000001
20
-1.3366085038617
30
0
41
1
10
15.5000000000001
20
-1.23857214063264
30
0
41
1
10
15.0000000000001
20
-1.07321740102515
30
0
41
1
10
14.5000000000001
20
-0.848789942091031
30
0
41
1
10
14.0000000000001
20
-0.579059791548531
30
0
41
1
10
13.5000000000001
20
-0.277942247270659
30
0
41
1
10
13.0000000000001
20
0.037607546275467
30
0
41
1
10
12.5000000000001
20
0.353163555145073
30
0
41
1
10
12.1002196952363
20
0.589187318765596
30
0
41
1
10
11.8671060571391
20
0.714896798693616
30
0
41
1
10
11.8006590857086
20
0.74964812749684
30
0
0
SPLINE
5
109
100
AcDbEntity
8
1
62
256
6
ByLayer
370
13
48
1
60
0
100
AcDbSpline
70
4
71
3
72
11
73
7
40
0
40
0
40
0
40
0
40
0.0098960887869833
40
0.257422066590237
40
0.504948044393492
40
1
40
1
40
1
40
1
41
1
10
12.0199900003926
20
0.258654530200602
30
0
41
1
10
12.0133266669284
20
0.262902429242047
30
0
41
1
10
11.8399966667975
20
0.373295242239465
30
0
41
1
10
11.5
20
0.584191864663467
30
0
41
1
10
10.8333333333333
20
0.957120502781635
30
0
41
1
10
10.3333333333333
20
1.16998967470363
30
0
41
1
10
9.99999999999997
20
1.26290779486717
30
0
0
SPLINE
5
10A
100
AcDbEntity
8
1
62
256
6
ByLayer
370
18
48
1
60
0
100
AcDbSpline
70
4
71
3
72
8
73
4
40
0
40
0
40
0
40
0
40
1
40
1
40
1
40
1
41
1
10
17.4363262659893
20
-0.314358964511797
30
0
41
1
10
17.438486743973
20
-0.326891646475531
30
0
41
1
10
17.4406459881702
20
-0.339423721480273
30
0
41
1
10
17.442803950665
20
-0.3519548999775
30
0
0
SPLINE
5
10B
100
AcDbEntity
8
1
62
256
6
ByLayer
370
18
48
1
60
0
100
AcDbSpline
70
4
71
3
72
12
73
8
40
0
40
0
40
0
40
0
40
0.430906998582817
40
0.430906998582817
40
0.715446714925996
40
0.715446714925996
40
1
40
1
40
1
40
1
41
1
10
17.4363262659893
20
-0.314358964511854
30
0
41
1
10
17.4397764993253
20
-0.316594361593502
30
0
41
1
10
17.4432164766824
20
-0.318844870217333
30
0
41
1
10
17.4489088857756
20
-0.322608837436434
30
0
41
1
10
17.4511678294362
20
-0.324113018858071
30
0
41
1
10
17.4556750498452
20
-0.327136728672627
30
0
41
1
10
17.4579233534507
20
-0.328656275978176
30
0
41
1
10
17.4601658622098
20
-0.330183930120512
30
0
0
SPLINE
5
10C
100
AcDbEntity
8
1
62
256
6
ByLayer
370
18
48
1
60
0
100
AcDbSpline
70
4
71
3
72
28
73
24
40
0
40
0
40
0
40
0
40
0.0625000000000605
40
0.0625000000000605
40
0.125000000000121
40
0.125000000000121
40
0.15625000000012
40
0.15625000000012
40
0.187500000000119
40
0.187500000000119
40
0.250000000000117
40
0.250000000000117
40
0.312500000000115
40
0.312500000000115
40
0.375000000000113
40
0.375000000000113
40
0.500000000000092
40
0.500000000000092
40
0.62500000000007
40
0.62500000000007
40
0.750000000000048
40
0.750000000000048
40
1
40
1
40
1
40
1
41
1
10
17.4601658622097
20
-0.330183930120455
30
0
41
1
10
17.4657636420866
20
-0.333997280494856
30
0
41
1
10
17.4715835556786
20
-0.337427229384843
30
0
41
1
10
17.4840474380837
20
-0.342699443933668
30
0
41
1
10
17.4905076558405
20
-0.34449552634959
30
0
41
1
10
17.5007459543714
20
-0.344397306828171
30
0
41
1
10
17.5040834804128
20
-0.343876040339552
30
0
41
1
10
17.5105867896446
20
-0.341708529093609
30
0
41
1
10
17.5135947853239
20
-0.340111588543948
30
0
41
1
10
17.5219167325661
20
-0.334089161943439
30
0
41
1
10
17.5262810983473
20
-0.328675909317099
30
0
41
1
10
17.5334945332085
20
-0.317100907769344
30
0
41
1
10
17.5363376048834
20
-0.310971563295738
30
0
41
1
10
17.5412810474601
20
-0.298380375463637
30
0
41
1
10
17.5433678989125
20
-0.291883970449021
30
0
41
1
10
17.5488606934999
20
-0.272291500760503
30
0
41
1
10
17.5515374401586
20
-0.25909673244567
30
0
41
1
10
17.5560243386596
20
-0.232590170283771
30
0
41
1
10
17.5578020832081
20
-0.219273977267278
30
0
41
1
10
17.5608237928166
20
-0.192569330046638
30
0
41
1
10
17.5620609296209
20
-0.17917995104844
30
0
41
1
10
17.5652375804752
20
-0.138939103806365
30
0
41
1
10
17.5666538999471
20
-0.112026116221983
30
0
41
1
10
17.5677102043464
20
-0.0851182405481268
30
0
0
SPLINE
5
10D
100
AcDbEntity
8
1
62
256
6
ByLayer
370
18
48
1
60
0
100
AcDbSpline
70
4
71
3
72
12
73
8
40
0
40
0
40
0
40
0
40
0.500000000000043
40
0.500000000000043
40
0.750000000000022
40
0.750000000000022
40
1
40
1
40
1
40
1
41
1
10
17.7322986890131
20
-0.117166696069035
30
0
41
1
10
17.7075293507856
20
-0.119291142972145
30
0
41
1
10
17.6812037557904
20
-0.117130408886823
30
0
41
1
10
17.6396697846901
20
-0.108677606089344
30
0
41
1
10
17.6254057920648
20
-0.104957865987501
30
0
41
1
10
17.5967198392242
20
-0.0960694093071766
30
0
41
1
10
17.5822698499667
20
-0.0909041672044282
30
0
41
1
10
17.5677102043262
20
-0.0851182405486384
30
0
0
SPLINE
5
10E
100
AcDbEntity
8
1
62
256
6
ByLayer
370
13
48
1
60
0
100
AcDbSpline
70
4
71
3
72
10
73
6
40
0
40
0
40
0
40
0
40
0.506705581974109
40
0.852674781141637
40
1
40
1
40
1
40
1
41
1
10
17.7322986890067
20
-0.117166696070058
30
0
41
1
10
17.4881991260045
20
0.0362254318124258
30
0
41
1
10
17.0774328963356
20
0.299252749687355
30
0
41
1
10
16.5956944436997
20
0.582511775347513
30
0
41
1
10
16.358055554066
20
0.71190319956645
30
0
41
1
10
16.2870833310989
20
0.749337371627689
30
0
0
SPLINE
5
10F
100
AcDbEntity
8
1
62
256
6
ByLayer
370
13
48
1
60
0
100
AcDbSpline
70
4
71
3
72
17
73
13
40
0
40
0
40
0
40
0
40
0.10055047061358
40
0.21093671759969
40
0.3213229645858
40
0.43170921157191
40
0.542095458558019
40
0.652481705544129
40
0.762867952530239
40
0.873254199516349
40
0.983640446502458
40
1
40
1
40
1
40
1
41
1
10
16.4554483613625
20
0.29280607237294
30
0
41
1
10
16.3036322409084
20
0.389462606449883
30
0
41
1
10
15.9851494537875
20
0.587373629344853
30
0
41
1
10
15.5
20
0.857919523570502
30
0
41
1
10
15
20
1.0917230382662
30
0
41
1
10
14.5
20
1.26909151647314
30
0
41
1
10
14
20
1.37824014589421
30
0
41
1
10
13.5
20
1.406858238708
30
0
41
1
10
13
20
1.36019991778483
30
0
41
1
10
12.5
20
1.24329978499125
30
0
41
1
10
12.1419661960552
20
1.1124993051838
30
0
41
1
10
11.950599058777
20
1.02907934009318
30
0
41
1
10
11.9258985881656
20
1.01809627136916
30
0
0
SPLINE
5
110
100
AcDbEntity
8
1
62
256
6
ByLayer
370
18
48
1
60
0
100
AcDbSpline
70
4
71
3
72
8
73
4
40
0
40
0
40
0
40
0
40
1
40
1
40
1
40
1
41
1
10
17.4428039554152
20
-0.35195489913275
30
0
41
1
10
17.4452122727987
20
-0.366534959798372
30
0
41
1
10
17.4476171998337
20
-0.381104022795426
30
0
41
1
10
17.4500186886752
20
-0.395661700921096
30
0
0
SPLINE
5
111
100
AcDbEntity
8
1
62
256
6
ByLayer
370
18
48
1
60
0
100
AcDbSpline
70
4
71
3
72
12
73
8
40
0
40
0
40
0
40
0
40
0.254350360008036
40
0.254350360008036
40
0.508700789352059
40
0.508700789352059
40
1
40
1
40
1
40
1
41
1
10
17.4726720297926
20
-0.404442932329431
30
0
41
1
10
17.470756091332
20
-0.403687537514657
30
0
41
1
10
17.4688390619589
20
-0.402934622089532
30
0
41
1
10
17.4650026773955
20
-0.40143417007144
30
0
41
1
10
17.4630833179443
20
-0.400686631596528
30
0
41
1
10
17.457452919508
20
-0.398503727679753
30
0
41
1
10
17.4537384577445
20
-0.397076301139776
30
0
41
1
10
17.4500186886752
20
-0.395661700921067
30
0
0
SPLINE
5
112
100
AcDbEntity
8
1
62
256
6
ByLayer
370
18
48
1
60
0
100
AcDbSpline
70
4
71
3
72
14
73
10
40
0
40
0
40
0
40
0
40
0.256871328570595
40
0.256871328570595
40
0.3853069928559
40
0.3853069928559
40
0.513742657141205
40
0.513742657141205
40
1
40
1
40
1
40
1
41
1
10
10.0000000000001
20
-1.24410285588178
30
0
41
1
10
10.0792763023464
20
-1.275103433471
30
0
41
1
10
10.1584102687053
20
-1.30345776597287
30
0
41
1
10
10.2770959604132
20
-1.34195694423585
30
0
41
1
10
10.316655588075
20
-1.35411667459149
30
0
41
1
10
10.3958073116998
20
-1.37706550217393
30
0
41
1
10
10.435445851562
20
-1.38786597156224
30
0
41
1
10
10.6247094657038
20
-1.43604679195394
30
0
41
1
10
10.7729180092333
20
-1.46362633795525
30
0
41
1
10
10.9208107903832
20
-1.4804341773503
30
0
0
SPLINE
5
113
100
AcDbEntity
8
1
62
256
6
ByLayer
370
18
48
1
60
0
100
AcDbSpline
70
4
71
3
72
8
73
4
40
0
40
0
40
0
40
0
40
1
40
1
40
1
40
1
41
1
10
10.9666234273464
20
-1.48529681364488
30
0
41
1
10
11.0792815612756
20
-1.49640777132794
30
0
41
1
10
11.1918358640856
20
-1.50125579304552
30
0
41
1
10
11.3047953642022
20
-1.49982262884856
30
0
0
SPLINE
5
114
100
AcDbEntity
8
1
62
256
6
ByLayer
370
18
48
1
60
0
100
AcDbSpline
70
4
71
3
72
16
73
12
40
0
40
0
40
0
40
0
40
0.246065355586346
40
0.246065355586346
40
0.340307186138048
40
0.340307186138048
40
0.434549016689751
40
0.434549016689751
40
0.623032677793167
40
0.623032677793167
40
1
40
1
40
1
40
1
41
1
10
16.2918323362426
20
1.04708313039967
30
0
41
1
10
16.3940186731711
20
1.09820521411575
30
0
41
1
10
16.4963126062613
20
1.14593057307317
30
0
41
1
10
16.6384088857564
20
1.20663845645757
30
0
41
1
10
16.67782827136
20
1.22288483481657
30
0
41
1
10
16.7568499168512
20
1.25418931500101
30
0
41
1
10
16.7964941900265
20
1.26926054926707
30
0
41
1
10
16.9149612817868
20
1.31232119127765
30
0
41
1
10
16.9935614782156
20
1.33825705529182
30
0
41
1
10
17.2287783381085
20
1.40759739235614
30
0
41
1
10
17.3848250811035
20
1.44258773622536
30
0
41
1
10
17.5413979532015
20
1.46585328118928
30
0
0
SPLINE
5
115
100
AcDbEntity
8
1
62
256
6
ByLayer
370
18
48
1
60
0
100
AcDbSpline
70
4
71
3
72
18
73
14
40
0
40
0
40
0
40
0
40
0.0189728216437372
40
0.116149313849097
40
0.164737559951776
40
0.213325806054456
40
0.407678790465175
40
0.504855282670534
40
0.602031774875894
40
0.699208267081253
40
0.796384759286613
40
0.990737743697332
40
1
40
1
40
1
40
1
41
1
10
9.62657615354917
20
-1.05156956509572
30
0
41
1
10
9.64056855246972
20
-1.05855835367541
30
0
41
1
10
9.72621933479516
20
-1.10092907370395
30
0
41
1
10
9.84762007805813
20
-1.15735740674256
30
0
41
1
10
9.99072925846835
20
-1.2179501680892
30
0
41
1
10
10.2052760987246
20
-1.3025772940309
30
0
41
1
10
10.4552399447419
20
-1.38264753139515
30
0
41
1
10
10.7404583778009
20
-1.44636342575018
30
0
41
1
10
10.9541585376544
20
-1.47971590096279
30
0
41
1
10
11.1676170806902
20
-1.49826394025831
30
0
41
1
10
11.4518327807256
20
-1.5031010620512
30
0
41
1
10
11.6714289885725
20
-1.48380207355271
30
0
41
1
10
11.8200474985401
20
-1.46026863386569
30
0
41
1
10
11.8268079540782
20
-1.45917648718654
30
0
0
SPLINE
5
116
100
AcDbEntity
8
1
62
256
6
ByLayer
370
18
48
1
60
0
100
AcDbSpline
70
4
71
3
72
78
73
74
40
0
40
0
40
0
40
0
40
0.0156249999999997
40
0.0156249999999997
40
0.0312499999999995
40
0.0312499999999995
40
0.0624999999999989
40
0.0624999999999989
40
0.124999999999996
40
0.124999999999996
40
0.156249999999993
40
0.156249999999993
40
0.171874999999992
40
0.171874999999992
40
0.187499999999991
40
0.187499999999991
40
0.218749999999991
40
0.218749999999991
40
0.24999999999999
40
0.24999999999999
40
0.312499999999987
40
0.312499999999987
40
0.343749999999986
40
0.343749999999986
40
0.359374999999986
40
0.359374999999986
40
0.374999999999986
40
0.374999999999986
40
0.406249999999987
40
0.406249999999987
40
0.437499999999988
40
0.437499999999988
40
0.46874999999999
40
0.46874999999999
40
0.499999999999991
40
0.499999999999991
40
0.515624999999992
40
0.515624999999992
40
0.531249999999992
40
0.531249999999992
40
0.546874999999993
40
0.546874999999993
40
0.562499999999993
40
0.562499999999993
40
0.593749999999995
40
0.593749999999995
40
0.624999999999996
40
0.624999999999996
40
0.656249999999997
40
0.656249999999997
40
0.687499999999998
40
0.687499999999998
40
0.703124999999998
40
0.703124999999998
40
0.718749999999998
40
0.718749999999998
40
0.749999999999997
40
0.749999999999997
40
0.781249999999997
40
0.781249999999997
40
0.812499999999996
40
0.812499999999996
40
0.843749999999996
40
0.843749999999996
40
0.859374999999995
40
0.859374999999995
40
0.874999999999995
40
0.874999999999995
40
0.906249999999996
40
0.906249999999996
40
0.937499999999998
40
0.937499999999998
40
1
40
1
40
1
40
1
41
1
10
17.5677102043261
20
-1.21871969376082
30
0
41
1
10
17.5280525018754
20
-1.23356688097942
30
0
41
1
10
17.488378075707
20
-1.24779633760392
30
0
41
1
10
17.4089465580775
20
-1.27499136679475
30
0
41
1
10
17.3691760835718
20
-1.28795857093286
30
0
41
1
10
17.2502471527517
20
-1.32474198913411
30
0
41
1
10
17.1712725483418
20
-1.34652805746953
30
0
41
1
10
16.9348079766276
20
-1.40335681517084
30
0
41
1
10
16.7777444860087
20
-1.42962672310045
30
0
41
1
10
16.5417266090751
20
-1.45185209265392
30
0
41
1
10
16.4629986493535
20
-1.45642619575509
30
0
41
1
10
16.3445935684838
20
-1.45889051012301
30
0
41
1
10
16.3050690028886
20
-1.45897625185535
30
0
41
1
10
16.2258501400521
20
-1.45764175472814
30
0
41
1
10
16.1860900299469
20
-1.45621629057902
30
0
41
1
10
16.0671511908686
20
-1.44967650664225
30
0
41
1
10
15.9882090622922
20
-1.44230075176085
30
0
41
1
10
15.8306403623973
20
-1.42179800601349
30
0
41
1
10
15.7520367436637
20
-1.40867170861142
30
0
41
1
10
15.5164685718575
20
-1.36097755986702
30
0
41
1
10
15.3597987915068
20
-1.31808346633346
30
0
41
1
10
15.1236851208269
20
-1.23784107316928
30
0
41
1
10
15.0447859116578
20
-1.2084467577738
30
0
41
1
10
14.9258873760958
20
-1.1604941102114
30
0
41
1
10
14.8861007894432
20
-1.14383830611848
30
0
41
1
10
14.8067952398052
20
-1.10947667951177
30
0
41
1
10
14.7672377770424
20
-1.09175603969231
30
0
41
1
10
14.6487822805076
20
-1.03706815418201
30
0
41
1
10
14.5700917085697
20
-0.998599634898198
30
0
41
1
10
14.4129924153243
20
-0.917945027563121
30
0
41
1
10
14.3346239192123
20
-0.875644544405105
30
0
41
1
10
14.1778646353948
20
-0.787758410520468
30
0
41
1
10
14.099483939429
20
-0.742145040082789
30
0
41
1
10
13.9423945244191
20
-0.647989169154187
30
0
41
1
10
13.8636613568337
20
-0.599535770053507
30
0
41
1
10
13.7450975354047
20
-0.524980723204322
30
0
41
1
10
13.7054993936884
20
-0.499813492761206
30
0
41
1
10
13.6261183413762
20
-0.448849918622386
30
0
41
1
10
13.5862890139622
20
-0.423020421603809
30
0
41
1
10
13.5069737191625
20
-0.371102032996163
30
0
41
1
10
13.4674329598814
20
-0.344966572716231
30
0
41
1
10
13.3884910191297
20
-0.292483781888251
30
0
41
1
10
13.349083420992
20
-0.266146061930158
30
0
41
1
10
13.2310345870003
20
-0.186867797263091
30
0
41
1
10
13.1525701790732
20
-0.133657812496921
30
0
41
1
10
12.9957437076406
20
-0.0270704687774526
30
0
41
1
10
12.9173986164941
20
0.0263322011161904
30
0
41
1
10
12.7606304258552
20
0.133036936943967
30
0
41
1
10
12.6822078616949
20
0.186339840352332
30
0
41
1
10
12.5249441903851
20
0.292338455778776
30
0
41
1
10
12.4460813451061
20
0.345001621963746
30
0
41
1
10
12.3271578252264
20
0.423070671841487
30
0
41
1
10
12.2873768428028
20
0.448966693741426
30
0
41
1
10
12.2081252649817
20
0.500043706031278
30
0
41
1
10
12.1685921823179
20
0.525266344287701
30
0
41
1
10
12.0501849174026
20
0.599915079124997
30
0
41
1
10
11.9714885145579
20
0.648313336379118
30
0
41
1
10
11.8142706340015
20
0.742119992903497
30
0
41
1
10
11.735759540253
20
0.787544929538541
30
0
41
1
10
11.5787593820145
20
0.875172778611471
30
0
41
1
10
11.5002754777235
20
0.917376772690886
30
0
41
1
10
11.3431134920625
20
0.998119276053245
30
0
41
1
10
11.2644358288373
20
1.03663306724613
30
0
41
1
10
11.1459601254205
20
1.0913464969783
30
0
41
1
10
11.1063913933158
20
1.10907782210086
30
0
41
1
10
11.0270592268493
20
1.14346092221575
30
0
41
1
10
10.9872979628153
20
1.16010840270167
30
0
41
1
10
10.8684262512524
20
1.20802593985502
30
0
41
1
10
10.7894694797326
20
1.2373887691881
30
0
41
1
10
10.6317284455776
20
1.2910016818868
30
0
41
1
10
10.552953361254
20
1.31524386551538
30
0
41
1
10
10.3165354108481
20
1.37995895214226
30
0
41
1
10
10.1588079195487
20
1.41250361768422
30
0
41
1
10
10.0000000000001
20
1.43274849269983
30
0
0
SPLINE
5
117
100
AcDbEntity
8
1
62
256
6
ByLayer
370
18
48
1
60
0
100
AcDbSpline
70
4
71
3
72
38
73
34
40
0
40
0
40
0
40
0
40
0.0338478250129429
40
0.0338478250129429
40
0.0676956500258858
40
0.0676956500258858
40
0.135391300051767
40
0.135391300051767
40
0.270782600103531
40
0.270782600103531
40
0.338478250129413
40
0.338478250129413
40
0.372326075142355
40
0.372326075142355
40
0.406173900155298
40
0.406173900155298
40
0.473869550181184
40
0.473869550181184
40
0.54156520020707
40
0.54156520020707
40
0.676956500258841
40
0.676956500258841
40
0.744652150284725
40
0.744652150284725
40
0.778499975297667
40
0.778499975297667
40
0.812347800310608
40
0.812347800310608
40
0.880043450336492
40
0.880043450336492
40
0.947739100362376
40
0.947739100362376
40
1
40
1
40
1
40
1
41
1
10
17.5677102043262
20
-0.0851182405486384
30
0
41
1
10
17.5280525018754
20
-0.0581180744323433
30
0
41
1
10
17.488378075707
20
-0.0310512273572954
30
0
41
1
10
17.4089465580775
20
0.0231415050811563
30
0
41
1
10
17.3691760835719
20
0.0502771949720682
30
0
41
1
10
17.2502471527517
20
0.131275792800182
30
0
41
1
10
17.1712725483418
20
0.184854686961785
30
0
41
1
10
16.9348079766276
20
0.343606059653837
30
0
41
1
10
16.7777444860087
20
0.446675992563428
30
0
41
1
10
16.5417266090751
20
0.595501765010994
30
0
41
1
10
16.4629986493535
20
0.644175906893821
30
0
41
1
10
16.3445935684837
20
0.715437232188918
30
0
41
1
10
16.3050690028886
20
0.738893176576312
30
0
41
1
10
16.2258501400521
20
0.785123161831137
30
0
41
1
10
16.1860900299469
20
0.80793344215752
30
0
41
1
10
16.0671511908686
20
0.874826813793987
30
0
41
1
10
15.9882090622922
20
0.917410440179026
30
0
41
1
10
15.8306403623973
20
0.998253841078679
30
0
41
1
10
15.7520367436636
20
1.03654588862363
30
0
41
1
10
15.5164685718575
20
1.1448755821493
30
0
41
1
10
15.3597987915068
20
1.208429625039
30
0
41
1
10
15.1236851208269
20
1.28906938354953
30
0
41
1
10
15.0447859116578
20
1.31348997035079
30
0
41
1
10
14.9258873760957
20
1.34616618144679
30
0
41
1
10
14.8861007894431
20
1.35641218216165
30
0
41
1
10
14.8067952398051
20
1.37542443370501
30
0
41
1
10
14.7672377770424
20
1.38420261725156
30
0
41
1
10
14.6487822805076
20
1.40836049818486
30
0
41
1
10
14.5700917085697
20
1.42158534334692
30
0
41
1
10
14.4129924153243
20
1.44217400899097
30
0
41
1
10
14.3346239192122
20
1.44942891578634
30
0
41
1
10
14.1957353583722
20
1.45715137613757
30
0
41
1
10
14.1352258112431
20
1.45877405058212
30
0
41
1
10
14.0746406598481
20
1.45865072210017
30
0
0
SPLINE
5
118
100
AcDbEntity
8
1
62
256
6
ByLayer
370
18
48
1
60
0
100
AcDbSpline
70
4
71
3
72
8
73
4
40
0
40
0
40
0
40
0
40
1
40
1
40
1
40
1
41
1
10
10
20
-1.24103784745586
30
0
41
1
10
10
20
-1.24205951328165
30
0
41
1
10
10
20
-1.24308118275695
30
0
41
1
10
10
20
-1.24410285588178
30
0
0
SPLINE
5
119
100
AcDbEntity
8
1
62
256
6
ByLayer
370
18
48
1
60
0
100
AcDbSpline
70
4
71
3
72
19
73
15
40
0
40
0
40
0
40
0
40
0.0829911957166967
40
0.166027613924127
40
0.24911475061577
40
0.332257912558216
40
0.415462224485382
40
0.498732635942579
40
0.582073927791878
40
0.665490718389807
40
0.74898747180277
40
0.832568518336578
40
0.916238028825389
40
1
40
1
40
1
40
1
41
1
10
9.76672840382687
20
-0.844951290617672
30
0
41
1
10
9.76267163489049
20
-0.850321188217407
30
0
41
1
10
9.75455588645559
20
-0.861063909512154
30
0
41
1
10
9.74249546729553
20
-0.877432895420071
30
0
41
1
10
9.73051414207052
20
-0.893988999227702
30
0
41
1
10
9.71862027190414
20
-0.910747136264121
30
0
41
1
10
9.70681164503637
20
-0.927699044441709
30
0
41
1
10
9.69508890587119
20
-0.944842784229508
30
0
41
1
10
9.68345188404453
20
-0.962174721317894
30
0
41
1
10
9.67190083556466
20
-0.97969206300769
30
0
41
1
10
9.66043514866507
20
-0.997390730965463
30
0
41
1
10
9.64905728465234
20
-1.01527133860833
30
0
41
1
10
9.63775832579447
20
-1.03331737457373
30
0
41
1
10
9.63030491629627
20
-1.04548326213237
30
0
41
1
10
9.62657615354902
20
-1.05156956509566
30
0
0
SPLINE
5
11A
100
AcDbEntity
8
1
62
256
6
ByLayer
370
18
48
1
60
0
100
AcDbSpline
70
4
71
3
72
34
73
30
40
0
40
0
40
0
40
0
40
0.0624999999999895
40
0.0624999999999895
40
0.09374999999998
40
0.09374999999998
40
0.12499999999997
40
0.12499999999997
40
0.187499999999962
40
0.187499999999962
40
0.249999999999953
40
0.249999999999953
40
0.281249999999955
40
0.281249999999955
40
0.312499999999957
40
0.312499999999957
40
0.374999999999961
40
0.374999999999961
40
0.437499999999965
40
0.437499999999965
40
0.499999999999969
40
0.499999999999969
40
0.624999999999976
40
0.624999999999976
40
0.749999999999984
40
0.749999999999984
40
0.874999999999992
40
0.874999999999992
40
1
40
1
40
1
40
1
41
1
10
8.59117441471241
20
-1.45115057457315
30
0
41
1
10
8.60203007250433
20
-1.44419364914089
30
0
41
1
10
8.61608026026983
20
-1.43703629821329
30
0
41
1
10
8.64072211320516
20
-1.42617478219108
30
0
41
1
10
8.64953838029635
20
-1.42253243182938
30
0
41
1
10
8.66824211957308
20
-1.41522509679405
30
0
41
1
10
8.67813802328703
20
-1.41155906320441
30
0
41
1
10
8.70871063402404
20
-1.40074313691443
30
0
41
1
10
8.73043548748748
20
-1.39370442335348
30
0
41
1
10
8.77589178565373
20
-1.37997958985199
30
0
41
1
10
8.7996298941172
20
-1.37329352094474
30
0
41
1
10
8.83645447147987
20
-1.36354044637452
30
0
41
1
10
8.84894691854345
20
-1.36033245222134
30
0
41
1
10
8.87415417586996
20
-1.35404792916361
30
0
41
1
10
8.88688574748855
20
-1.35096677132148
30
0
41
1
10
8.92542743763627
20
-1.34190277495199
30
0
41
1
10
8.95158275716935
20
-1.3360990067921
30
0
41
1
10
9.00467524230561
20
-1.3249610297427
30
0
41
1
10
9.03164624237544
20
-1.31962092736046
30
0
41
1
10
9.08610756644336
20
-1.30944580443753
30
0
41
1
10
9.11358075699567
20
-1.30461317145731
30
0
41
1
10
9.19665352522603
20
-1.29087706470361
30
0
41
1
10
9.2529872998164
20
-1.28272261845154
30
0
41
1
10
9.36660803176903
20
-1.26859295739632
30
0
41
1
10
9.42398496144074
20
-1.26260548069268
30
0
41
1
10
9.53941677064969
20
-1.25295117868839
30
0
41
1
10
9.59731214866795
20
-1.24929596596914
30
0
41
1
10
9.71346127733901
20
-1.24447481540821
30
0
41
1
10
9.77171512318805
20
-1.2433095510269
30
0
41
1
10
9.8301597251631
20
-1.2434939600916
30
0
0
SPLINE
5
11B
100
AcDbEntity
8
1
62
256
6
ByLayer
370
18
48
1
60
0
100
AcDbSpline
70
4
71
2
72
6
73
3
40
0
40
0
40
0
40
1
40
1
40
1
41
0.500005395794511
10
9.83015972516575
20
-1.24349396009169
30
0
41
0.499994604205489
10
9.91507507121105
20
-1.24376189175709
30
0
41
0.500005395794511
10
9.99999999999997
20
-1.24402956966792
30
0
0
SPLINE
5
11C
100
AcDbEntity
8
1
62
256
6
ByLayer
370
18
48
1
60
0
100
AcDbSpline
70
4
71
3
72
14
73
10
40
0
40
0
40
0
40
0
40
0.25
40
0.25
40
0.5
40
0.5
40
0.75
40
0.75
40
1
40
1
40
1
40
1
41
1
10
9.99999999999997
20
-1.24103784745736
30
0
41
1
10
9.96768771460464
20
-1.22805859667349
30
0
41
1
10
9.93513353358969
20
-1.21484870655379
30
0
41
1
10
9.86968985181718
20
-1.18800412149335
30
0
41
1
10
9.8367831121422
20
-1.17437264585215
30
0
41
1
10
9.77092363656271
20
-1.14643488623736
30
0
41
1
10
9.7379727364266
20
-1.13212554652293
30
0
41
1
10
9.67219206232184
20
-1.10266653355117
30
0
41
1
10
9.63936191496447
20
-1.08751632750628
30
0
41
1
10
9.60661658148004
20
-1.07190922357435
30
0
0
SPLINE
5
11D
100
AcDbEntity
8
1
62
256
6
ByLayer
370
18
48
1
60
0
100
AcDbSpline
70
4
71
3
72
36
73
32
40
0
40
0
40
0
40
0
40
0.0062611533062379
40
0.0383300214421679
40
0.0543644555101329
40
0.0703988895780978
40
0.134536625849958
40
0.166605493985888
40
0.198674362121818
40
0.230743230257748
40
0.262812098393677
40
0.326949834665537
40
0.359018702801467
40
0.391087570937397
40
0.423156439073327
40
0.455225307209257
40
0.519363043481117
40
0.551431911617047
40
0.567466345685012
40
0.583500779752977
40
0.615569647888907
40
0.647638516024837
40
0.679707384160767
40
0.695741818228732
40
0.711776252296697
40
0.743845120432627
40
0.775913988568557
40
0.840051724840416
40
0.904189461112276
40
0.968327197384136
40
1
40
1
40
1
40
1
41
1
10
9.62657615354914
20
1.45190159743834
30
0
41
1
10
9.64056855246972
20
1.4494491493638
30
0
41
1
10
9.72621933479519
20
1.43387305048245
30
0
41
1
10
9.84762007805816
20
1.4069223282678
30
0
41
1
10
9.99072925846841
20
1.36810274733981
30
0
41
1
10
10.2052760987247
20
1.30292318299786
30
0
41
1
10
10.4552399447421
20
1.20732767313808
30
0
41
1
10
10.740458377801
20
1.0750388641477
30
0
41
1
10
10.9541585376544
20
0.965219304603067
30
0
41
1
10
11.1676170806902
20
0.845899463440588
30
0
41
1
10
11.4518327807256
20
0.675833832886127
30
0
41
1
10
11.7356117127208
20
0.491805491502021
30
0
41
1
10
12.0193005426759
20
0.299184249491276
30
0
41
1
10
12.2321221719566
20
0.151702315296177
30
0
41
1
10
12.4450632722476
20
0.0026225980820129
30
0
41
1
10
12.7292370363764
20
-0.196390252121404
30
0
41
1
10
13.01386356196
20
-0.392780014451859
30
0
41
1
10
13.2634396012322
20
-0.557357845170515
30
0
41
1
10
13.4062273208863
20
-0.648509533078368
30
0
41
1
10
13.5491260057476
20
-0.737665214385828
30
0
41
1
10
13.7279134349819
20
-0.844631683212896
30
0
41
1
10
13.942670409951
20
-0.964765132876124
30
0
41
1
10
14.1217323944779
20
-1.056936550107
30
0
41
1
10
14.265002417303
20
-1.12514569613538
30
0
41
1
10
14.4082799609048
20
-1.18968446646804
30
0
41
1
10
14.5873236753364
20
-1.26284079066897
30
0
41
1
10
14.8736271978488
20
-1.3629145233626
30
0
41
1
10
15.2305988205407
20
-1.45426829940016
30
0
41
1
10
15.6592475747064
20
-1.50618063763361
30
0
41
1
10
16.0203200685338
20
-1.49898060350355
30
0
41
1
10
16.2405372653168
20
-1.47102855419888
30
0
41
1
10
16.3138593767574
20
-1.45915070686419
30
0
0
SPLINE
5
11E
100
AcDbEntity
8
1
62
256
6
ByLayer
370
18
48
1
60
0
100
AcDbSpline
70
4
71
3
72
8
73
4
40
0
40
0
40
0
40
0
40
1
40
1
40
1
40
1
41
1
10
16.8485759029288
20
-1.32827375333744
30
0
41
1
10
16.8681496154055
20
-1.32190970286808
30
0
41
1
10
16.8877768045793
20
-1.31536162392655
30
0
41
1
10
16.9074595954231
20
-1.30862835630052
30
0
0
SPLINE
5
11F
100
AcDbEntity
8
1
62
256
6
ByLayer
370
13
48
1
60
0
100
AcDbSpline
70
4
71
3
72
12
73
8
40
0
40
0
40
0
40
0
40
0.197351784591527
40
0.395893624412357
40
0.595760927870734
40
0.797086428935616
40
1
40
1
40
1
40
1
41
1
10
9.60662077932031
20
1.44466870520441
30
0
41
1
10
9.60778410355724
20
1.44519905014235
30
0
41
1
10
9.61011776701753
20
1.44626293806263
30
0
41
1
10
9.61382706852126
20
1.44780369773085
30
0
41
1
10
9.61770392617919
20
1.44930957329569
30
0
41
1
10
9.62175052874755
20
1.45078104118576
30
0
41
1
10
9.62457846955417
20
1.4517257657686
30
0
41
1
10
9.62599799479895
20
1.45219998375489
30
0
0
SPLINE
5
120
100
AcDbEntity
8
1
62
256
6
ByLayer
370
18
48
1
60
0
100
AcDbSpline
70
4
71
3
72
14
73
10
40
0
40
0
40
0
40
0
40
0.25
40
0.25
40
0.5
40
0.5
40
0.75
40
0.75
40
1
40
1
40
1
40
1
41
1
10
10
20
1.35015499457739
30
0
41
1
10
9.96768771460464
20
1.36022267298867
30
0
41
1
10
9.93513353358972
20
1.36964734437063
30
0
41
1
10
9.86968985181724
20
1.38732518438522
30
0
41
1
10
9.83678311214226
20
1.39558049168806
30
0
41
1
10
9.77092363656274
20
1.41114927465162
30
0
41
1
10
9.73797273648461
20
1.41846197908811
30
0
41
1
10
9.67219206237596
20
1.43221945848549
30
0
41
1
10
9.63936191496447
20
1.43866291372336
30
0
41
1
10
9.60661658148004
20
1.44466686674588
30
0
0
SPLINE
5
121
100
AcDbEntity
8
1
62
256
6
ByLayer
370
18
48
1
60
0
100
AcDbSpline
70
4
71
3
72
8
73
4
40
0
40
0
40
0
40
0
40
1
40
1
40
1
40
1
41
1
10
10
20
1.3501549945785
30
0
41
1
10
10
20
1.34939818920318
30
0
41
1
10
10
20
1.34864138785863
30
0
41
1
10
10
20
1.34788459054494
30
0
0
SPLINE
5
122
100
AcDbEntity
8
1
62
256
6
ByLayer
370
18
48
1
60
0
100
AcDbSpline
70
4
71
3
72
50
73
46
40
0
40
0
40
0
40
0
40
0.0424367154955462
40
0.0424367154955462
40
0.0636550732433205
40
0.0636550732433205
40
0.0848734309910948
40
0.0848734309910948
40
0.16974686198219
40
0.16974686198219
40
0.254620292973285
40
0.254620292973285
40
0.297057008468832
40
0.297057008468832
40
0.318275366216605
40
0.318275366216605
40
0.339493723964377
40
0.339493723964377
40
0.424367154955469
40
0.424367154955469
40
0.509240585946562
40
0.509240585946562
40
0.530458943694336
40
0.530458943694336
40
0.55167730144211
40
0.55167730144211
40
0.594114016937659
40
0.594114016937659
40
0.678987447928759
40
0.678987447928759
40
0.721424163424309
40
0.721424163424309
40
0.742642521172084
40
0.742642521172084
40
0.763860878919859
40
0.763860878919859
40
0.848734309910964
40
0.848734309910964
40
0.933607740902069
40
0.933607740902069
40
0.97604445639762
40
0.97604445639762
40
0.997262814145397
40
0.997262814145397
40
1
40
1
40
1
40
1
41
1
10
10.0000000000001
20
1.34788459054494
30
0
41
1
10
10.0792763023464
20
1.32350546357139
30
0
41
1
10
10.1584102687054
20
1.29638235532195
30
0
41
1
10
10.2770959604132
20
1.25179931360759
30
0
41
1
10
10.316655588075
20
1.23628772685757
30
0
41
1
10
10.3958073116999
20
1.20399227418199
30
0
41
1
10
10.435445851562
20
1.18718758929103
30
0
41
1
10
10.633172177751
20
1.10033620841335
30
0
41
1
10
10.7896679283943
20
1.02190082598088
30
0
41
1
10
11.1021051700916
20
0.850340300388496
30
0
41
1
10
11.2580641588063
20
0.757238086615246
30
0
41
1
10
11.4936482411312
20
0.609120473762488
30
0
41
1
10
11.5724467677154
20
0.558338776779721
30
0
41
1
10
11.6912694330362
20
0.480321024796837
30
0
41
1
10
11.7310004471244
20
0.453993023944662
30
0
41
1
10
11.8101509613084
20
0.401130257490706
30
0
41
1
10
11.849638510612
20
0.374551147852458
30
0
41
1
10
12.0467124237598
20
0.241025476397084
30
0
41
1
10
12.2031599438425
20
0.132119620135057
30
0
41
1
10
12.5157904094346
20
-0.0867370351914758
30
0
41
1
10
12.6719943571387
20
-0.196658388498776
30
0
41
1
10
12.8688402886218
20
-0.332169457296516
30
0
41
1
10
12.9082898595961
20
-0.359175919295808
30
0
41
1
10
12.9873969615673
20
-0.412929047571481
30
0
41
1
10
13.0269490084769
20
-0.43960328544307
30
0
41
1
10
13.1452156707112
20
-0.518623038339769
30
0
41
1
10
13.2237268282523
20
-0.570095407418734
30
0
41
1
10
13.4588092298415
20
-0.720102926685456
30
0
41
1
10
13.6149642877813
20
-0.81432345496637
30
0
41
1
10
13.8500610742452
20
-0.945154948501909
30
0
41
1
10
13.9285608596522
20
-0.987032831720768
30
0
41
1
10
14.0466715201366
20
-1.0470157395514
30
0
41
1
10
14.0861017770715
20
-1.06653617544916
30
0
41
1
10
14.1651208351721
20
-1.10456302561025
30
0
41
1
10
14.2047403019182
20
-1.12307681409263
30
0
41
1
10
14.4030056981643
20
-1.21289965299576
30
0
41
1
10
14.5597599118885
20
-1.27489899311993
30
0
41
1
10
14.872248932169
20
-1.37748462378306
30
0
41
1
10
15.0279953742547
20
-1.41806842008509
30
0
41
1
10
15.2630248709422
20
-1.46159307501972
30
0
41
1
10
15.3416040900414
20
-1.47320551741802
30
0
41
1
10
15.4600904293727
20
-1.4861249056498
30
0
41
1
10
15.4997591100183
20
-1.48968578029894
30
0
41
1
10
15.5444566190338
20
-1.49283045256658
30
0
41
1
10
15.5495623334753
20
-1.4931769079331
30
0
41
1
10
15.5546666192504
20
-1.49351052840396
30
0
0
SPLINE
5
123
100
AcDbEntity
8
1
62
256
6
ByLayer
370
18
48
1
60
0
100
AcDbSpline
70
4
71
3
72
16
73
12
40
0
40
0
40
0
40
0
40
0.249999999999985
40
0.249999999999985
40
0.499999999999971
40
0.499999999999971
40
0.624999999999964
40
0.624999999999964
40
0.749999999999957
40
0.749999999999957
40
1
40
1
40
1
40
1
41
1
10
17.5413979532013
20
-0.457228820503701
30
0
41
1
10
17.561542282449
20
-0.469997276279372
30
0
41
1
10
17.5816673293688
20
-0.482170289705181
30
0
41
1
10
17.621968014453
20
-0.505069281136258
30
0
41
1
10
17.6421430844966
20
-0.515797794762904
30
0
41
1
10
17.6725254258237
20
-0.530508674674593
30
0
41
1
10
17.6827007553008
20
-0.535189903479363
30
0
41
1
10
17.7027822966298
20
-0.543874742485997
30
0
41
1
10
17.7127226814182
20
-0.547896438702452
30
0
41
1
10
17.7422384850297
20
-0.558911645753227
30
0
41
1
10
17.7615115458617
20
-0.564866154157301
30
0
41
1
10
17.7803373460417
20
-0.569088217258042
30
0
0
SPLINE
5
124
100
AcDbEntity
8
1
62
256
6
ByLayer
370
18
48
1
60
0
100
AcDbSpline
70
4
71
3
72
22
73
18
40
0
40
0
40
0
40
0
40
0.0260487137577461
40
0.0839423566025141
40
0.141835999447282
40
0.170782820869666
40
0.19972964229205
40
0.257623285136818
40
0.315516927981586
40
0.431304213671123
40
0.547091499360659
40
0.662878785050195
40
0.720772427894963
40
0.778666070739731
40
0.894453356429267
40
0.952346999274035
40
1
40
1
40
1
40
1
41
1
10
13.6313907852005
20
1.4992465406587
30
0
41
1
10
13.6635691170827
20
1.49859009267581
30
0
41
1
10
13.767289782728
20
1.49483741074184
30
0
41
1
10
13.942670409951
20
1.47967929143934
30
0
41
1
10
14.1217323944778
20
1.45194016217843
30
0
41
1
10
14.2650024173029
20
1.4223280656044
30
0
41
1
10
14.4082799609047
20
1.38800555213348
30
0
41
1
10
14.5873236753365
20
1.3362354424518
30
0
41
1
10
14.8736271978488
20
1.23568878664017
30
0
41
1
10
15.2305988205407
20
1.07881059575351
30
0
41
1
10
15.6592475747064
20
0.847199150057264
30
0
41
1
10
16.0212141598574
20
0.623190638812218
30
0
41
1
10
16.316072637632
20
0.42848421035481
30
0
41
1
10
16.6152322659562
20
0.22451346017445
30
0
41
1
10
16.9223221165559
20
0.0089487855147468
30
0
41
1
10
17.2264323686665
20
-0.203475701391483
30
0
41
1
10
17.3749428676998
20
-0.305765484238833
30
0
41
1
10
17.442803960212
20
-0.351954898305848
30
0
0
SPLINE
5
125
100
AcDbEntity
8
1
62
256
6
ByLayer
370
18
48
1
60
0
100
AcDbSpline
70
4
71
3
72
48
73
44
40
0
40
0
40
0
40
0
40
0.0151826474769441
40
0.0151826474769441
40
0.0972507601871913
40
0.0972507601871913
40
0.179318872897438
40
0.179318872897438
40
0.199835901075001
40
0.199835901075001
40
0.220352929252564
40
0.220352929252564
40
0.261386985607688
40
0.261386985607688
40
0.343455098317935
40
0.343455098317935
40
0.38448915467306
40
0.38448915467306
40
0.405006182850624
40
0.405006182850624
40
0.425523211028187
40
0.425523211028187
40
0.507591323738447
40
0.507591323738447
40
0.589659436448706
40
0.589659436448706
40
0.630693492803837
40
0.630693492803837
40
0.651210520981402
40
0.651210520981402
40
0.671727549158967
40
0.671727549158967
40
0.753795661869227
40
0.753795661869227
40
0.835863774579486
40
0.835863774579486
40
0.85638080275705
40
0.85638080275705
40
0.876897830934615
40
0.876897830934615
40
0.917931887289743
40
0.917931887289743
40
1
40
1
40
1
40
1
41
1
10
11.8014266107099
20
1.04684105596519
30
0
41
1
10
11.8306793885318
20
1.06144370560438
30
0
41
1
10
11.8598862645244
20
1.07573245322345
30
0
41
1
10
12.0467124237598
20
1.16522100253962
30
0
41
1
10
12.2031599438425
20
1.23147606904362
30
0
41
1
10
12.5157904094346
20
1.3437261775847
30
0
41
1
10
12.6719943571387
20
1.38967448627619
30
0
41
1
10
12.8688402886217
20
1.4330522860796
30
0
41
1
10
12.9082898595961
20
1.44102466045385
30
0
41
1
10
12.9873969615673
20
1.45552389809191
30
0
41
1
10
13.0269490084768
20
1.46202945250192
30
0
41
1
10
13.1452156707111
20
1.47923517050853
30
0
41
1
10
13.2237268282522
20
1.48766463463397
30
0
41
1
10
13.4588092298414
20
1.50364964069536
30
0
41
1
10
13.6149642877813
20
1.50216137167428
30
0
41
1
10
13.8500610742451
20
1.482337201272
30
0
41
1
10
13.9285608596521
20
1.47280630389147
30
0
41
1
10
14.0466715201365
20
1.45406215168691
30
0
41
1
10
14.0861017770714
20
1.44706960927476
30
0
41
1
10
14.165120835172
20
1.43156214247728
30
0
41
1
10
14.2047403019181
20
1.4230337352609
30
0
41
1
10
14.4030056981642
20
1.37671429149182
30
0
41
1
10
14.5597599118885
20
1.32843082665528
30
0
41
1
10
14.872248932169
20
1.21160495773148
30
0
41
1
10
15.0279953742545
20
1.14307627825124
30
0
41
1
10
15.2630248709421
20
1.02692692449006
30
0
41
1
10
15.3416040900412
20
0.985982429641524
30
0
41
1
10
15.4600904293725
20
0.921447009903346
30
0
41
1
10
15.4997591100182
20
0.899374956005005
30
0
41
1
10
15.5789397583446
20
0.854456936826807
30
0
41
1
10
15.618441722932
20
0.831618815649989
30
0
41
1
10
15.8156069756941
20
0.715675608255566
30
0
41
1
10
15.9722673682163
20
0.617364419127711
30
0
41
1
10
16.2853096660059
20
0.412320515653562
30
0
41
1
10
16.4416541000848
20
0.305547786796268
30
0
41
1
10
16.6384088857563
20
0.168758328924326
30
0
41
1
10
16.6778282713598
20
0.141236563162153
30
0
41
1
10
16.756849916851
20
0.0859249420927313
30
0
41
1
10
16.7964941900264
20
0.058105546114092
30
0
41
1
10
16.9149612817867
20
-0.0250893099784832
30
0
41
1
10
16.9935614782154
20
-0.0803688464006882
30
0
41
1
10
17.2287783381083
20
-0.244900628409567
30
0
41
1
10
17.3848250811033
20
-0.352840993512416
30
0
41
1
10
17.5413979532013
20
-0.457228820503701
30
0
0
SPLINE
5
126
100
AcDbEntity
8
1
62
256
6
ByLayer
370
18
48
1
60
0
100
AcDbSpline
70
4
71
3
72
12
73
8
40
0
40
0
40
0
40
0
40
0.499999999999999
40
0.499999999999999
40
0.75
40
0.75
40
1
40
1
40
1
40
1
41
1
10
17.5413979532014
20
-0.457228820503673
30
0
41
1
10
17.5313217426024
20
-0.446928525097007
30
0
41
1
10
17.5208938837811
20
-0.436961061027802
30
0
41
1
10
17.5040739767282
20
-0.423191269768438
30
0
41
1
10
17.498252918397
20
-0.418790507680228
30
0
41
1
10
17.4859617464423
20
-0.410766792653902
30
0
41
1
10
17.479574031153
20
-0.40716417632899
30
0
41
1
10
17.4726720297926
20
-0.404442932329431
30
0
0
SPLINE
5
127
100
AcDbEntity
8
1
62
256
6
ByLayer
370
18
48
1
60
0
100
AcDbSpline
70
4
71
2
72
6
73
3
40
0
40
0
40
0
40
1
40
1
40
1
41
1
10
17.8433250103111
20
-1.07683114116122
30
0
41
1
10
17.8998220143176
20
-0.865753588790227
30
0
41
1
10
17.9563190183242
20
-0.654676036419261
30
0
0
SPLINE
5
128
100
AcDbEntity
8
1
62
256
6
ByLayer
370
18
48
1
60
0
100
AcDbSpline
70
4
71
2
72
6
73
3
40
0
40
0
40
0
40
1
40
1
40
1
41
1
10
16.5851542644855
20
-1.31866647987491
30
0
41
1
10
17.1756477112944
20
-1.30754547571289
30
0
41
1
10
17.7665903057704
20
-1.19940390456395
30
0
0
SPLINE
5
129
100
AcDbEntity
8
1
62
256
6
ByLayer
370
18
48
1
60
0
100
AcDbSpline
70
4
71
2
72
6
73
3
40
0
40
0
40
0
40
1
40
1
40
1
41
1
10
17.186379270624
20
0.766974834055247
30
0
41
1
10
17.0635126327287
20
0.808396402788475
30
0
41
1
10
16.9409508619714
20
0.851808279644757
30
0
0
SPLINE
5
12A
100
AcDbEntity
8
1
62
256
6
ByLayer
370
18
48
1
60
0
100
AcDbSpline
70
4
71
1
72
4
73
2
40
0
40
0
40
1
40
1
41
1
10
16.9409508619714
20
0.851808279644757
30
0
41
1
10
16.9066420353532
20
0.863765481511138
30
0
0
SPLINE
5
12B
100
AcDbEntity
8
1
62
256
6
ByLayer
370
18
48
1
60
0
100
AcDbSpline
70
4
71
2
72
6
73
3
40
0
40
0
40
0
40
1
40
1
40
1
41
1
10
11.3056379898058
20
-1.49981425497396
30
0
41
1
10
11.3055995562778
20
-1.49982249926043
30
0
41
1
10
11.3055611228954
20
-1.49982998302013
30
0
0
SPLINE
5
12C
100
AcDbEntity
8
1
62
256
6
ByLayer
370
18
48
1
60
0
100
AcDbSpline
70
4
71
3
72
11
73
7
40
0
40
0
40
0
40
0
40
0.312717590835
40
0.5001212676723
40
0.687763899348318
40
1
40
1
40
1
40
1
41
1
10
13.6238167370408
20
0.486711948380361
30
0
41
1
10
13.5026471008628
20
0.5179947125512
30
0
41
1
10
13.3089239975628
20
0.571506131417067
30
0
41
1
10
13.0427163000227
20
0.653223568338888
30
0
41
1
10
12.7766618294853
20
0.739679130732526
30
0
41
1
10
12.5831249522864
20
0.806269824024696
30
0
41
1
10
12.4622257554387
20
0.849411167750475
30
0
0
SPLINE
5
12D
100
AcDbEntity
8
1
62
256
6
ByLayer
370
18
48
1
60
0
100
AcDbSpline
70
4
71
3
72
13
73
9
40
0
40
0
40
0
40
0
40
0.256411688550451
40
0.437273666514421
40
0.569479271506408
40
0.701838570158634
40
0.870815287715561
40
1
40
1
40
1
40
1
41
1
10
12.0996424967642
20
-1.3186464217452
30
0
41
1
10
12.2655701165497
20
-1.31528536097551
30
0
41
1
10
12.5490574950248
20
-1.30013696696275
30
0
41
1
10
12.918987424876
20
-1.25898333534874
30
0
41
1
10
13.2095580226312
20
-1.21577522433407
30
0
41
1
10
13.4913805424647
20
-1.16541542815247
30
0
41
1
10
13.7712240737922
20
-1.10665870863323
30
0
41
1
10
13.9649794845175
20
-1.06134955081225
30
0
41
1
10
14.0489195046678
20
-1.04080754585519
30
0
0
SPLINE
5
12E
100
AcDbEntity
8
1
62
256
6
ByLayer
370
18
48
1
60
0
100
AcDbSpline
70
4
71
3
72
11
73
7
40
0
40
0
40
0
40
0
40
0.393787868474185
40
0.671327732853188
40
0.839291412459904
40
1
40
1
40
1
40
1
41
1
10
16.4823453337873
20
0.99213362703415
30
0
41
1
10
16.3124847692975
20
1.037329136718
30
0
41
1
10
16.0227654670667
20
1.10713293234306
30
0
41
1
10
15.6601184137195
20
1.17979797129607
30
0
41
1
10
15.3981980484717
20
1.22390905582284
30
0
41
1
10
15.2562158795991
20
1.24446753025873
30
0
41
1
10
15.1867968931536
20
1.25364327693916
30
0
0
SPLINE
5
12F
100
AcDbEntity
8
1
62
256
6
ByLayer
370
18
48
1
60
0
100
AcDbSpline
70
4
71
3
72
13
73
9
40
0
40
0
40
0
40
0
40
0.277419333284664
40
0.5030618948286
40
0.676908306521021
40
0.79892591955065
40
0.920826090093432
40
1
40
1
40
1
40
1
41
1
10
11.9953568411966
20
0.993006970342748
30
0
41
1
10
11.8782166620977
20
1.02337939849411
30
0
41
1
10
11.6657713949505
20
1.07534314480952
30
0
41
1
10
11.3797589467445
20
1.13818408739601
30
0
41
1
10
11.1594808929371
20
1.18125045330942
30
0
41
1
10
10.9823522975612
20
1.21232888158286
30
0
41
1
10
10.8462015726219
20
1.23372749047775
30
0
41
1
10
10.7620452835899
20
1.24563432652258
30
0
41
1
10
10.7289711744007
20
1.25010415161304
30
0
0
SPLINE
5
130
100
AcDbEntity
8
1
62
256
6
ByLayer
370
18
48
1
60
0
100
AcDbSpline
70
4
71
2
72
6
73
3
40
0
40
0
40
0
40
1
40
1
40
1
41
1
10
11.7993826709708
20
0.750315551005457
30
0
41
1
10
11.7993622249103
20
0.750328687998859
30
0
41
1
10
11.7993417788182
20
0.750344293769558
30
0
0
SPLINE
5
131
100
AcDbEntity
8
1
62
256
6
ByLayer
370
18
48
1
60
0
100
AcDbSpline
70
4
71
2
72
6
73
3
40
0
40
0
40
0
40
1
40
1
40
1
41
1
10
15.7913572085345
20
-1.4998565986678
30
0
41
1
10
15.7913127647003
20
-1.49985041886904
30
0
41
1
10
15.7912683232981
20
-1.49984334369006
30
0
0
SPLINE
5
132
100
AcDbEntity
8
1
62
256
6
ByLayer
370
18
48
1
60
0
100
AcDbSpline
70
4
71
1
72
4
73
2
40
0
40
0
40
1
40
1
41
1
10
16.2870958062427
20
0.749330791622953
30
0
41
1
10
16.287097571853
20
0.749342515286713
30
0
0
SPLINE
5
133
100
AcDbEntity
8
1
62
256
6
ByLayer
370
18
48
1
60
0
100
AcDbSpline
70
4
71
2
72
6
73
3
40
0
40
0
40
0
40
1
40
1
40
1
41
1
10
13.5483862327649
20
1.49980930773231
30
0
41
1
10
13.548425260752
20
1.49980530948903
30
0
41
1
10
13.5484642880204
20
1.49980051330854
30
0
0
LINE
5
77
100
AcDbEntity
8
80
62
256
6
ByLayer
370
18
48
1
60
0
100
AcDbLine
10
0
20
0
30
0
11
-5
21
0
31
0
39
0
210
0
220
0
230
1
0
LINE
5
78
100
AcDbEntity
8
4
62
256
6
ByLayer
370
18
48
0.05
60
0
100
AcDbLine
10
0
20
0
30
0
11
18
21
0
31
0
39
0
210
0
220
0
230
1
0
LINE
5
7A
100
AcDbEntity
8
81
62
256
6
ByLayer
370
18
48
1
60
0
100
AcDbLine
10
18
20
0
30
0
11
23
21
0
31
0
39
0
210
0
220
0
230
1
0
LINE
5
7B
100
AcDbEntity
8
SK4
62
256
6
ByLayer
370
18
48
0.05
60
0
100
AcDbLine
10
-36
20
0
30
0
11
18
21
0
31
0
39
0
210
0
220
0
230
1
0
LINE
5
7D
100
AcDbEntity
8
1
62
256
6
ByLayer
370
18
48
1
60
0
100
AcDbLine
10
0
20
3
30
0
11
0
21
0
31
0
39
0
210
0
220
0
230
1
0
LINE
5
7E
100
AcDbEntity
8
1
62
256
6
ByLayer
370
18
48
1
60
0
100
AcDbLine
10
0
20
0
30
0
11
0
21
-3
31
0
39
0
210
0
220
0
230
1
0
LINE
5
7F
100
AcDbEntity
8
1
62
256
6
ByLayer
370
18
48
1
60
0
100
AcDbLine
10
17.96198
20
-0.441298
30
0
11
17.971944
21
-0.55432
31
0
39
0
210
0
220
0
230
1
0
LINE
5
80
100
AcDbEntity
8
1
62
256
6
ByLayer
370
18
48
1
60
0
100
AcDbLine
10
17.916399
20
-0.06425
30
0
11
17.971944
21
0.969757
31
0
39
0
210
0
220
0
230
1
0
LINE
5
81
100
AcDbEntity
8
1
62
256
6
ByLayer
370
18
48
1
60
0
100
AcDbLine
10
9.084707
20
-1.43655
30
0
11
9.384222
21
-1.268293
31
0
39
0
210
0
220
0
230
1
0
LINE
5
82
100
AcDbEntity
8
1
62
256
6
ByLayer
370
13
48
1
60
0
100
AcDbLine
10
8.631412
20
-1.485747
30
0
11
8.857635
21
-1.358662
31
0
39
0
210
0
220
0
230
1
0
LINE
5
83
100
AcDbEntity
8
1
62
256
6
ByLayer
370
18
48
1
60
0
100
AcDbLine
10
17.885704
20
-0.876519
30
0
11
17.905486
21
-0.58767
31
0
39
0
210
0
220
0
230
1
0
LINE
5
84
100
AcDbEntity
8
1
62
256
6
ByLayer
370
18
48
1
60
0
100
AcDbLine
10
17.147983
20
-0.606192
30
0
11
17.905486
21
-0.58767
31
0
39
0
210
0
220
0
230
1
0
LINE
5
85
100
AcDbEntity
8
1
62
256
6
ByLayer
370
18
48
1
60
0
100
AcDbLine
10
17.905486
20
-0.58767
30
0
11
17.918542
21
-0.507336
31
0
39
0
210
0
220
0
230
1
0
LINE
5
86
100
AcDbEntity
8
1
62
256
6
ByLayer
370
13
48
1
60
0
100
AcDbLine
10
17.312546
20
-0.29883
30
0
11
17.009373
21
-0.408331
31
0
39
0
210
0
220
0
230
1
0
LINE
5
87
100
AcDbEntity
8
1
62
256
6
ByLayer
370
18
48
1
60
0
100
AcDbLine
10
17.950478
20
-0.259313
30
0
11
17.971944
21
-0.415437
31
0
39
0
210
0
220
0
230
1
0
LINE
5
88
100
AcDbEntity
8
1
62
256
6
ByLayer
370
18
48
1
60
0
100
AcDbLine
10
17.885704
20
0.096637
30
0
11
17.905486
21
-0.001789
31
0
39
0
210
0
220
0
230
1
0
LINE
5
89
100
AcDbEntity
8
1
62
256
6
ByLayer
370
18
48
1
60
0
100
AcDbLine
10
17.905486
20
-0.001789
30
0
11
17.950478
21
-0.259313
31
0
39
0
210
0
220
0
230
1
0
LINE
5
8A
100
AcDbEntity
8
1
62
256
6
ByLayer
370
13
48
1
60
0
100
AcDbLine
10
9.83016
20
1.34824
30
0
11
10
21
1.262908
31
0
39
0
210
0
220
0
230
1
0
LINE
5
8B
100
AcDbEntity
8
1
62
256
6
ByLayer
370
18
48
1
60
0
100
AcDbLine
10
10
20
0.233915
30
0
11
10
21
0.346563
31
0
39
0
210
0
220
0
230
1
0
LINE
5
8C
100
AcDbEntity
8
1
62
256
6
ByLayer
370
13
48
1
60
0
100
AcDbLine
10
8.591174
20
1.054394
30
0
11
10
21
0.346563
31
0
39
0
210
0
220
0
230
1
0
LINE
5
8D
100
AcDbEntity
8
1
62
256
6
ByLayer
370
18
48
1
60
0
100
AcDbLine
10
10
20
0.346563
30
0
11
10
21
1.262908
31
0
39
0
210
0
220
0
230
1
0
LINE
5
8E
100
AcDbEntity
8
1
62
256
6
ByLayer
370
18
48
1
60
0
100
AcDbLine
10
10
20
-0.833948
30
0
11
10
21
-0.955078
31
0
39
0
210
0
220
0
230
1
0
LINE
5
8F
100
AcDbEntity
8
1
62
256
6
ByLayer
370
13
48
1
60
0
100
AcDbLine
10
8.841298
20
-0.251786
30
0
11
10
21
-0.833948
31
0
39
0
210
0
220
0
230
1
0
LINE
5
90
100
AcDbEntity
8
1
62
256
6
ByLayer
370
18
48
1
60
0
100
AcDbLine
10
10
20
-0.833948
30
0
11
10
21
-0.768804
31
0
39
0
210
0
220
0
230
1
0
LINE
5
91
100
AcDbEntity
8
1
62
256
6
ByLayer
370
18
48
1
60
0
100
AcDbLine
10
10
20
-0.115413
30
0
11
10
21
0.233915
31
0
39
0
210
0
220
0
230
1
0
LINE
5
92
100
AcDbEntity
8
1
62
256
6
ByLayer
370
13
48
1
60
0
100
AcDbLine
10
8.631412
20
0.921529
30
0
11
10
21
0.233915
31
0
39
0
210
0
220
0
230
1
0
LINE
5
93
100
AcDbEntity
8
1
62
256
6
ByLayer
370
13
48
1
60
0
100
AcDbLine
10
8.839014
20
-0.185494
30
0
11
10
21
-0.768804
31
0
39
0
210
0
220
0
230
1
0
LINE
5
94
100
AcDbEntity
8
1
62
256
6
ByLayer
370
18
48
1
60
0
100
AcDbLine
10
10
20
-0.768804
30
0
11
10
21
-0.115413
31
0
39
0
210
0
220
0
230
1
0
LINE
5
95
100
AcDbEntity
8
1
62
256
6
ByLayer
370
18
48
1
60
0
100
AcDbLine
10
9.084707
20
0.344454
30
0
11
10
21
-0.115413
31
0
39
0
210
0
220
0
230
1
0
LINE
5
96
100
AcDbEntity
8
1
62
256
6
ByLayer
370
18
48
1
60
0
100
AcDbLine
10
10
20
1.34782
30
0
11
10
21
1.347885
31
0
39
0
210
0
220
0
230
1
0
LINE
5
97
100
AcDbEntity
8
1
62
256
6
ByLayer
370
18
48
1
60
0
100
AcDbLine
10
10
20
1.34782
30
0
11
10
21
1.262908
31
0
39
0
210
0
220
0
230
1
0
LINE
5
98
100
AcDbEntity
8
1
62
256
6
ByLayer
370
13
48
1
60
0
100
AcDbLine
10
4.897679
20
-1.5
30
0
11
4.897679
21
0
31
0
39
0
210
0
220
0
230
1
0
LINE
5
99
100
AcDbEntity
8
1
62
256
6
ByLayer
370
13
48
1
60
0
100
AcDbLine
10
4.897679
20
0
30
0
11
4.897679
21
1.5
31
0
39
0
210
0
220
0
230
1
0
LINE
5
9A
100
AcDbEntity
8
1
62
256
6
ByLayer
370
13
48
1
60
0
100
AcDbLine
10
4.397679
20
1.633975
30
0
11
4.397679
21
0
31
0
39
0
210
0
220
0
230
1
0
LINE
5
9B
100
AcDbEntity
8
1
62
256
6
ByLayer
370
13
48
1
60
0
100
AcDbLine
10
4.397679
20
0
30
0
11
4.397679
21
-1.633975
31
0
39
0
210
0
220
0
230
1
0
LINE
5
9C
100
AcDbEntity
8
1
62
256
6
ByLayer
370
18
48
1
60
0
100
AcDbLine
10
2.031654
20
3
30
0
11
2.031654
21
0
31
0
39
0
210
0
220
0
230
1
0
LINE
5
9D
100
AcDbEntity
8
1
62
256
6
ByLayer
370
18
48
1
60
0
100
AcDbLine
10
2.031654
20
0
30
0
11
2.031654
21
-3
31
0
39
0
210
0
220
0
230
1
0
LINE
5
9E
100
AcDbEntity
8
SK1
62
256
6
ByLayer
370
18
48
1
60
0
100
AcDbLine
10
-36
20
-2.6
30
0
11
-36
21
2.6
31
0
39
0
210
0
220
0
230
1
0
LINE
5
A0
100
AcDbEntity
8
SK1
62
256
6
ByLayer
370
18
48
1
60
0
100
AcDbLine
10
0
20
3
30
0
11
0
21
0
31
0
39
0
210
0
220
0
230
1
0
LINE
5
A1
100
AcDbEntity
8
SK1
62
256
6
ByLayer
370
18
48
1
60
0
100
AcDbLine
10
0
20
0
30
0
11
0
21
-3
31
0
39
0
210
0
220
0
230
1
0
LINE
5
A2
100
AcDbEntity
8
SK1
62
256
6
ByLayer
370
18
48
1
60
0
100
AcDbLine
10
-35.6
20
3
30
0
11
-35.6
21
-3
31
0
39
0
210
0
220
0
230
1
0
LINE
5
A3
100
AcDbEntity
8
1
62
256
6
ByLayer
370
18
48
1
60
0
100
AcDbLine
10
4.897679
20
-1.5
30
0
11
8.784256
21
-1.5
31
0
39
0
210
0
220
0
230
1
0
LINE
5
A4
100
AcDbEntity
8
1
62
256
6
ByLayer
370
18
48
1
60
0
100
AcDbLine
10
2.031654
20
3
30
0
11
0
21
3
31
0
39
0
210
0
220
0
230
1
0
LINE
5
A5
100
AcDbEntity
8
1
62
256
6
ByLayer
370
18
48
1
60
0
100
AcDbLine
10
0
20
-3
30
0
11
2.031654
21
-3
31
0
39
0
210
0
220
0
230
1
0
LINE
5
A6
100
AcDbEntity
8
1
62
256
6
ByLayer
370
18
48
1
60
0
100
AcDbLine
10
16.313883
20
-1.458935
30
0
11
16.316028
21
-1.458753
31
0
39
0
210
0
220
0
230
1
0
LINE
5
A7
100
AcDbEntity
8
1
62
256
6
ByLayer
370
18
48
1
60
0
100
AcDbLine
10
9.496924
20
1.5
30
0
11
4.897679
21
1.5
31
0
39
0
210
0
220
0
230
1
0
LINE
5
A8
100
AcDbEntity
8
1
62
256
6
ByLayer
370
18
48
1
60
0
100
AcDbLine
10
4.397679
20
1.633975
30
0
11
2.031654
21
3
31
0
39
0
210
0
220
0
230
1
0
LINE
5
A9
100
AcDbEntity
8
1
62
256
6
ByLayer
370
18
48
1
60
0
100
AcDbLine
10
2.031654
20
-3
30
0
11
4.397679
21
-1.633975
31
0
39
0
210
0
220
0
230
1
0
LINE
5
AA
100
AcDbEntity
8
SK1
62
256
6
ByLayer
370
18
48
1
60
0
100
AcDbLine
10
-36
20
-2.6
30
0
11
-35.6
21
-3
31
0
39
0
210
0
220
0
230
1
0
LINE
5
AB
100
AcDbEntity
8
SK1
62
256
6
ByLayer
370
18
48
1
60
0
100
AcDbLine
10
-35.6
20
3
30
0
11
-36
21
2.6
31
0
39
0
210
0
220
0
230
1
0
LINE
5
AC
100
AcDbEntity
8
SK1
62
256
6
ByLayer
370
18
48
1
60
0
100
AcDbLine
10
0
20
3
30
0
11
-35.6
21
3
31
0
39
0
210
0
220
0
230
1
0
LINE
5
AD
100
AcDbEntity
8
SK1
62
256
6
ByLayer
370
18
48
1
60
0
100
AcDbLine
10
-35.6
20
-3
30
0
11
0
21
-3
31
0
39
0
210
0
220
0
230
1
0
LINE
5
AE
100
AcDbEntity
8
SK2
62
256
6
ByLayer
370
18
48
1
60
0
100
AcDbLine
10
-43.85
20
11.75
30
0
11
-43.85
21
-19.315466
31
0
39
0
210
0
220
0
230
1
0
LINE
5
B0
100
AcDbEntity
8
SK2
62
256
6
ByLayer
370
18
48
1
60
0
100
AcDbLine
10
-37.1875
20
3
30
0
11
-45.85
21
3
31
0
39
0
210
0
220
0
230
1
0
LINE
5
B1
100
AcDbEntity
8
SK2
62
256
6
ByLayer
370
18
48
1
60
0
100
AcDbLine
10
-37.1875
20
-3
30
0
11
-45.85
21
-3
31
0
39
0
210
0
220
0
230
1
0
LINE
5
B2
100
AcDbEntity
8
1
62
256
6
ByLayer
370
18
48
1
60
1
100
AcDbLine
10
-43.85
20
3
30
0
11
-44.310784
21
6.499998
31
0
39
0
210
0
220
0
230
1
0
LINE
5
B3
100
AcDbEntity
8
1
62
256
6
ByLayer
370
18
48
1
60
1
100
AcDbLine
10
-44.310784
20
6.499998
30
0
11
-43.389216
21
6.500002
31
0
39
0
210
0
220
0
230
1
0
LINE
5
B4
100
AcDbEntity
8
1
62
256
6
ByLayer
370
18
48
1
60
1
100
AcDbLine
10
-43.389216
20
6.500002
30
0
11
-43.85
21
3
31
0
39
0
210
0
220
0
230
1
0
LINE
5
B5
100
AcDbEntity
8
1
62
256
6
ByLayer
370
18
48
1
60
1
100
AcDbLine
10
-43.85
20
-3
30
0
11
-43.389216
21
-6.499998
31
0
39
0
210
0
220
0
230
1
0
LINE
5
B6
100
AcDbEntity
8
1
62
256
6
ByLayer
370
18
48
1
60
1
100
AcDbLine
10
-43.389216
20
-6.499998
30
0
11
-44.310784
21
-6.500002
31
0
39
0
210
0
220
0
230
1
0
LINE
5
B7
100
AcDbEntity
8
1
62
256
6
ByLayer
370
18
48
1
60
1
100
AcDbLine
10
-44.310784
20
-6.500002
30
0
11
-43.85
21
-3
31
0
39
0
210
0
220
0
230
1
0
LINE
5
B8
100
AcDbEntity
8
2
62
256
6
ByLayer
370
18
48
1
60
0
100
AcDbLine
10
30
20
17.815566
30
0
11
30
21
-10.2501
31
0
39
0
210
0
220
0
230
1
0
LINE
5
BA
100
AcDbEntity
8
2
62
256
6
ByLayer
370
18
48
1
60
0
100
AcDbLine
10
19.5875
20
1.5001
30
0
11
32
21
1.5001
31
0
39
0
210
0
220
0
230
1
0
LINE
5
BB
100
AcDbEntity
8
2
62
256
6
ByLayer
370
18
48
1
60
0
100
AcDbLine
10
19.5875
20
-1.5001
30
0
11
32
21
-1.5001
31
0
39
0
210
0
220
0
230
1
0
LINE
5
BC
100
AcDbEntity
8
1
62
256
6
ByLayer
370
18
48
1
60
1
100
AcDbLine
10
30
20
1.5001
30
0
11
29.539216
21
5.000098
31
0
39
0
210
0
220
0
230
1
0
LINE
5
BD
100
AcDbEntity
8
1
62
256
6
ByLayer
370
18
48
1
60
1
100
AcDbLine
10
29.539216
20
5.000098
30
0
11
30.460784
21
5.000102
31
0
39
0
210
0
220
0
230
1
0
LINE
5
BE
100
AcDbEntity
8
1
62
256
6
ByLayer
370
18
48
1
60
1
100
AcDbLine
10
30.460784
20
5.000102
30
0
11
30
21
1.5001
31
0
39
0
210
0
220
0
230
1
0
LINE
5
BF
100
AcDbEntity
8
1
62
256
6
ByLayer
370
18
48
1
60
1
100
AcDbLine
10
30
20
-1.5001
30
0
11
30.460784
21
-5.000098
31
0
39
0
210
0
220
0
230
1
0
LINE
5
C0
100
AcDbEntity
8
1
62
256
6
ByLayer
370
18
48
1
60
1
100
AcDbLine
10
30.460784
20
-5.000098
30
0
11
29.539216
21
-5.000102
31
0
39
0
210
0
220
0
230
1
0
LINE
5
C1
100
AcDbEntity
8
1
62
256
6
ByLayer
370
18
48
1
60
1
100
AcDbLine
10
29.539216
20
-5.000102
30
0
11
30
21
-1.5001
31
0
39
0
210
0
220
0
230
1
0
LINE
5
C2
100
AcDbEntity
8
SK2
62
256
6
ByLayer
370
18
48
1
60
0
100
AcDbLine
10
18
20
-33.1
30
0
11
-36
21
-33.1
31
0
39
0
210
0
220
0
230
1
0
LINE
5
C3
100
AcDbEntity
8
SK2
62
256
6
ByLayer
370
18
48
1
60
0
100
AcDbLine
10
-36
20
-4.1875
30
0
11
-36
21
-35.1
31
0
39
0
210
0
220
0
230
1
0
LINE
5
C4
100
AcDbEntity
8
SK2
62
256
6
ByLayer
370
18
48
1
60
0
100
AcDbLine
10
18
20
-3.0876
30
0
11
18
21
-35.1
31
0
39
0
210
0
220
0
230
1
0
LINE
5
C5
100
AcDbEntity
8
1
62
256
6
ByLayer
370
18
48
1
60
1
100
AcDbLine
10
-36
20
-33.1
30
0
11
-32.500002
21
-32.639216
31
0
39
0
210
0
220
0
230
1
0
LINE
5
C6
100
AcDbEntity
8
1
62
256
6
ByLayer
370
18
48
1
60
1
100
AcDbLine
10
-32.500002
20
-32.639216
30
0
11
-32.499998
21
-33.560784
31
0
39
0
210
0
220
0
230
1
0
LINE
5
C7
100
AcDbEntity
8
1
62
256
6
ByLayer
370
18
48
1
60
1
100
AcDbLine
10
-32.499998
20
-33.560784
30
0
11
-36
21
-33.1
31
0
39
0
210
0
220
0
230
1
0
LINE
5
C8
100
AcDbEntity
8
1
62
256
6
ByLayer
370
18
48
1
60
1
100
AcDbLine
10
18
20
-33.1
30
0
11
14.500002
21
-33.560784
31
0
39
0
210
0
220
0
230
1
0
LINE
5
C9
100
AcDbEntity
8
1
62
256
6
ByLayer
370
18
48
1
60
1
100
AcDbLine
10
14.500002
20
-33.560784
30
0
11
14.499998
21
-32.639216
31
0
39
0
210
0
220
0
230
1
0
LINE
5
CA
100
AcDbEntity
8
1
62
256
6
ByLayer
370
18
48
1
60
1
100
AcDbLine
10
14.499998
20
-32.639216
30
0
11
18
21
-33.1
31
0
39
0
210
0
220
0
230
1
0
LINE
5
138
100
AcDbEntity
8
1
62
256
6
ByLayer
370
18
48
1
60
1
100
AcDbLine
10
-43.85
20
3
30
0
11
-44.310784
21
6.499998
31
0
39
0
210
0
220
0
230
1
0
LINE
5
139
100
AcDbEntity
8
1
62
256
6
ByLayer
370
18
48
1
60
1
100
AcDbLine
10
-44.310784
20
6.499998
30
0
11
-43.389216
21
6.500002
31
0
39
0
210
0
220
0
230
1
0
LINE
5
13A
100
AcDbEntity
8
1
62
256
6
ByLayer
370
18
48
1
60
1
100
AcDbLine
10
-43.389216
20
6.500002
30
0
11
-43.85
21
3
31
0
39
0
210
0
220
0
230
1
0
LINE
5
13C
100
AcDbEntity
8
1
62
256
6
ByLayer
370
18
48
1
60
1
100
AcDbLine
10
-43.85
20
-3
30
0
11
-43.389216
21
-6.499998
31
0
39
0
210
0
220
0
230
1
0
LINE
5
13D
100
AcDbEntity
8
1
62
256
6
ByLayer
370
18
48
1
60
1
100
AcDbLine
10
-43.389216
20
-6.499998
30
0
11
-44.310784
21
-6.500002
31
0
39
0
210
0
220
0
230
1
0
LINE
5
13E
100
AcDbEntity
8
1
62
256
6
ByLayer
370
18
48
1
60
1
100
AcDbLine
10
-44.310784
20
-6.500002
30
0
11
-43.85
21
-3
31
0
39
0
210
0
220
0
230
1
0
LINE
5
142
100
AcDbEntity
8
1
62
256
6
ByLayer
370
18
48
1
60
1
100
AcDbLine
10
30
20
1.5001
30
0
11
29.539216
21
5.000098
31
0
39
0
210
0
220
0
230
1
0
LINE
5
143
100
AcDbEntity
8
1
62
256
6
ByLayer
370
18
48
1
60
1
100
AcDbLine
10
29.539216
20
5.000098
30
0
11
30.460784
21
5.000102
31
0
39
0
210
0
220
0
230
1
0
LINE
5
144
100
AcDbEntity
8
1
62
256
6
ByLayer
370
18
48
1
60
1
100
AcDbLine
10
30.460784
20
5.000102
30
0
11
30
21
1.5001
31
0
39
0
210
0
220
0
230
1
0
LINE
5
146
100
AcDbEntity
8
1
62
256
6
ByLayer
370
18
48
1
60
1
100
AcDbLine
10
30
20
-1.5001
30
0
11
30.460784
21
-5.000098
31
0
39
0
210
0
220
0
230
1
0
LINE
5
147
100
AcDbEntity
8
1
62
256
6
ByLayer
370
18
48
1
60
1
100
AcDbLine
10
30.460784
20
-5.000098
30
0
11
29.539216
21
-5.000102
31
0
39
0
210
0
220
0
230
1
0
LINE
5
148
100
AcDbEntity
8
1
62
256
6
ByLayer
370
18
48
1
60
1
100
AcDbLine
10
29.539216
20
-5.000102
30
0
11
30
21
-1.5001
31
0
39
0
210
0
220
0
230
1
0
LINE
5
14B
100
AcDbEntity
8
1
62
256
6
ByLayer
370
18
48
1
60
1
100
AcDbLine
10
-36
20
-33.1
30
0
11
-32.500002
21
-32.639216
31
0
39
0
210
0
220
0
230
1
0
LINE
5
14C
100
AcDbEntity
8
1
62
256
6
ByLayer
370
18
48
1
60
1
100
AcDbLine
10
-32.500002
20
-32.639216
30
0
11
-32.499998
21
-33.560784
31
0
39
0
210
0
220
0
230
1
0
LINE
5
14D
100
AcDbEntity
8
1
62
256
6
ByLayer
370
18
48
1
60
1
100
AcDbLine
10
-32.499998
20
-33.560784
30
0
11
-36
21
-33.1
31
0
39
0
210
0
220
0
230
1
0
LINE
5
14F
100
AcDbEntity
8
1
62
256
6
ByLayer
370
18
48
1
60
1
100
AcDbLine
10
18
20
-33.1
30
0
11
14.500002
21
-33.560784
31
0
39
0
210
0
220
0
230
1
0
LINE
5
150
100
AcDbEntity
8
1
62
256
6
ByLayer
370
18
48
1
60
1
100
AcDbLine
10
14.500002
20
-33.560784
30
0
11
14.499998
21
-32.639216
31
0
39
0
210
0
220
0
230
1
0
LINE
5
151
100
AcDbEntity
8
1
62
256
6
ByLayer
370
18
48
1
60
1
100
AcDbLine
10
14.499998
20
-32.639216
30
0
11
18
21
-33.1
31
0
39
0
210
0
220
0
230
1
0
MTEXT
5
134
100
AcDbEntity
8
SK2
62
256
6
ByLayer
370
18
48
1
60
0
100
AcDbMText
10
-45.414634
20
-17.380622
30
0
210
0
220
0
230
1
1
%%c
40
3.5
41
0
44
1.084337
50
90
71
7
72
5
7
iso_b_vert
0
MTEXT
5
137
100
AcDbEntity
8
SK2
62
256
6
ByLayer
370
18
48
1
60
0
100
AcDbMText
10
-45.414634
20
-10.407966
30
0
210
0
220
0
230
1
1
\W0.5404;6
40
3.5
41
0
44
1.084337
50
90
71
7
72
5
7
iso_b_vert
0
MTEXT
5
140
100
AcDbEntity
8
2
62
256
6
ByLayer
370
18
48
1
60
0
100
AcDbMText
10
28.435366
20
9.434944
30
0
210
0
220
0
230
1
1
%%c
40
3.5
41
0
44
1.084337
50
90
71
7
72
5
7
iso_b_vert
0
MTEXT
5
141
100
AcDbEntity
8
2
62
256
6
ByLayer
370
18
48
1
60
0
100
AcDbMText
10
28.435366
20
16.4076
30
0
210
0
220
0
230
1
1
\W0.5404;3
40
3.5
41
0
44
1.084337
50
90
71
7
72
5
7
iso_b_vert
0
MTEXT
5
14A
100
AcDbEntity
8
SK2
62
256
6
ByLayer
370
18
48
1
60
0
100
AcDbMText
10
-11.089233
20
-32.067366
30
0
210
0
220
0
230
1
1
\W0.7167;54
40
3.5
41
0
44
1.084337
50
0
71
7
72
5
7
iso_b_vert
0
MTEXT
5
153
100
AcDbEntity
8
SK6
62
256
6
ByLayer
370
18
48
1
60
0
100
AcDbMText
10
-34.702
20
-62.114886
30
0
210
0
220
0
230
1
1
\W0.7224;1K233-0300-050-NA   H10F
40
3
41
0
44
1.084337
50
0
71
7
72
5
7
iso_b_vert
0
HATCH
5
13B
100
AcDbEntity
8
SK2
62
256
6
ByLayer
370
13
48
1
60
0
100
AcDbHatch
10
0
20
0
30
0
210
0
220
0
230
1
2
ANSI31
70
0
71
0
91
1
92
5
93
3
72
1
10
-43.85
20
3
11
-44.3107837415528
21
6.49999830744682
72
1
10
-44.3107837415528
20
6.49999830744682
11
-43.3892162584472
21
6.50000169255318
72
1
10
-43.3892162584472
20
6.50000169255318
11
-43.85
21
3
97
0
75
0
76
1
52
0
41
0.0062
77
0
78
1
53
45
43
0
44
0
45
-0.0139193969876572
46
0.0139193969876572
79
0
47
0
98
1
10
0
20
0
0
HATCH
5
13F
100
AcDbEntity
8
SK2
62
256
6
ByLayer
370
13
48
1
60
0
100
AcDbHatch
10
0
20
0
30
0
210
0
220
0
230
1
2
ANSI31
70
0
71
0
91
1
92
5
93
3
72
1
10
-43.85
20
-3.00000000000003
11
-43.3892162584472
21
-6.49999830744684
72
1
10
-43.3892162584472
20
-6.49999830744684
11
-44.3107837415528
21
-6.50000169255321
72
1
10
-44.3107837415528
20
-6.50000169255321
11
-43.85
21
-3.00000000000003
97
0
75
0
76
1
52
0
41
0.0062
77
0
78
1
53
45
43
0
44
0
45
-0.0139193969876572
46
0.0139193969876572
79
0
47
0
98
1
10
0
20
0
0
HATCH
5
145
100
AcDbEntity
8
2
62
256
6
ByLayer
370
13
48
1
60
0
100
AcDbHatch
10
0
20
0
30
0
210
0
220
0
230
1
2
ANSI31
70
0
71
0
91
1
92
5
93
3
72
1
10
30
20
1.50009999999992
11
29.5392162584472
21
5.00009830744673
72
1
10
29.5392162584472
20
5.00009830744673
11
30.4607837415528
21
5.0001016925531
72
1
10
30.4607837415528
20
5.0001016925531
11
30
21
1.50009999999992
97
0
75
0
76
1
52
0
41
0.0062
77
0
78
1
53
45
43
0
44
0
45
-0.0139193969876572
46
0.0139193969876572
79
0
47
0
98
1
10
0
20
0
0
HATCH
5
149
100
AcDbEntity
8
2
62
256
6
ByLayer
370
13
48
1
60
0
100
AcDbHatch
10
0
20
0
30
0
210
0
220
0
230
1
2
ANSI31
70
0
71
0
91
1
92
5
93
3
72
1
10
30
20
-1.50010000000006
11
30.4607837415528
21
-5.00009830744688
72
1
10
30.4607837415528
20
-5.00009830744688
11
29.5392162584472
21
-5.00010169255324
72
1
10
29.5392162584472
20
-5.00010169255324
11
30
21
-1.50010000000006
97
0
75
0
76
1
52
0
41
0.0062
77
0
78
1
53
45
43
0
44
0
45
-0.0139193969876572
46
0.0139193969876572
79
0
47
0
98
1
10
0
20
0
0
HATCH
5
14E
100
AcDbEntity
8
SK2
62
256
6
ByLayer
370
13
48
1
60
0
100
AcDbHatch
10
0
20
0
30
0
210
0
220
0
230
1
2
ANSI31
70
0
71
0
91
1
92
5
93
3
72
1
10
-36
20
-33.1000000000001
11
-32.5000016925532
21
-32.6392162584473
72
1
10
-32.5000016925532
20
-32.6392162584473
11
-32.4999983074468
21
-33.5607837415528
72
1
10
-32.4999983074468
20
-33.5607837415528
11
-36
21
-33.1000000000001
97
0
75
0
76
1
52
0
41
0.0062
77
0
78
1
53
45
43
0
44
0
45
-0.0139193969876572
46
0.0139193969876572
79
0
47
0
98
1
10
0
20
0
0
HATCH
5
152
100
AcDbEntity
8
SK2
62
256
6
ByLayer
370
13
48
1
60
0
100
AcDbHatch
10
0
20
0
30
0
210
0
220
0
230
1
2
ANSI31
70
0
71
0
91
1
92
5
93
3
72
1
10
18
20
-33.1000000000001
11
14.5000016925532
21
-33.5607837415528
72
1
10
14.5000016925532
20
-33.5607837415528
11
14.4999983074468
21
-32.6392162584473
72
1
10
14.4999983074468
20
-32.6392162584473
11
18
21
-33.1000000000001
97
0
75
0
76
1
52
0
41
0.0062
77
0
78
1
53
45
43
0
44
0
45
-0.0139193969876572
46
0.0139193969876572
79
0
47
0
98
1
10
0
20
0
0
DIMENSION
5
156
100
AcDbEntity
8
2
62
256
6
ByLayer
370
18
48
1
60
0
100
AcDbDimension
2
_U0
10
10
20
-17.1
30
0
11
14
21
-17.1
31
0
70
32
71
1
72
1
41
1
210
0
220
0
230
1
3
Standard
100
AcDbAlignedDimension
13
18
23
-1.5001
33
0
14
10
24
-1.5001
34
0
50
0
100
AcDbRotatedDimension
1001
ACAD
1000
DSTYLE
1002
{
1070
   371
1070
    13
1070
   372
1070
    13
1070
   170
1070
     0
1070
   144
1040
1.0
1070
   277
1070
     2
1070
   284
1070
     8
1070
   278
1070
    46
1070
   146
1040
1.0
1070
   345
1005
16
1070
   347
1005
16
1070
   346
1005
16
1070
   344
1005
0
1070
   343
1005
0
1070
   172
1070
     1
1070
    76
1070
     0
1070
    75
1070
     0
1070
   282
1070
     0
1070
   281
1070
     0
1070
    71
1070
     0
1070
    74
1070
     0
1070
   279
1070
     0
1070
   173
1070
     1
1070
   340
1005
135
1070
   271
1070
     2
1070
   272
1070
     2
1070
    77
1070
     1
1070
    73
1070
     1
1070
   171
1070
     3
1070
   274
1070
     4
1070
   177
1070
     2
1070
   176
1070
     2
1070
   178
1070
     2
1070
    78
1070
     8
1070
    48
1040
-0.1
1070
    41
1040
3.5
1070
   147
1040
1.75
1070
    42
1040
1.5875
1070
    44
1040
2.0
1070
   140
1040
3.5
1002
}
1001
ACAD_DSTYLE_DIM_LINETYPE
1070
   380
1005
16
1001
ACAD_DSTYLE_DIM_EXT1_LINETYPE
1070
   381
1005
16
1001
ACAD_DSTYLE_DIM_EXT2_LINETYPE
1070
   382
1005
16
0
ENDSEC
0
SECTION
2
OBJECTS
0
DICTIONARY
5
1e0
330
0
100
AcDbDictionary
280
0
281
1
3
ACAD_GROUP
350
1e1
3
ACAD_MLINESTYLE
350
1e2
0
DICTIONARY
5
1e1
330
0
100
AcDbDictionary
280
0
281
1
0
DICTIONARY
5
1e2
330
0
100
AcDbDictionary
280
0
281
1
3
Standard
350
18
0
MLINESTYLE
5
18
330
1e2
100
AcDbMlineStyle
2
Standard
70
0
3

62
256
51
90
52
90
71
2
49
-0.5
62
256
6
ByLayer
49
0.5
62
256
6
ByLayer
0
RASTERVARIABLES
5
1ce
330

100
AcDbRasterVariables
90
0
70
1
71
1
72
1
0
ENDSEC
0
EOF
