0
SECTION
2
HEADER
9
$ACADVER
1
AC1015
9
$DWGCODEPAGE
3
ANSI_1252
9
$HANDSEED
5
1f0
9
$ANGBASE
50
0
9
$ANGDIR
70
0
9
$ATTMODE
70
1
9
$AUNITS
70
0
9
$AUPREC
70
0
9
$CECOLOR
62
256
9
$CELTSCALE
40
1
9
$CELTYPE
6
ByLayer
9
$CELWEIGHT
370
18
9
$CLAYER
8
0
9
$CMLJUST
70
0
9
$CMLSCALE
40
1
9
$CMLSTYLE
2
Standard
9
$DIMSTYLE
2
Standard
9
$TEXTSIZE
40
0.2
9
$TEXTSTYLE
7
Standard
9
$LUNITS
70
2
9
$LUPREC
70
4
9
$EXTNAMES
290
1
9
$INSUNITS
70
4
9
$LTSCALE
40
1
9
$LWDISPLAY
290
1
9
$PDMODE
70
0
9
$PDSIZE
40
0
9
$PLINEGEN
70
0
0
ENDSEC
0
SECTION
2
CLASSES
0
CLASS
1
RASTERVARIABLES
2
AcDbRasterVariables
3
ISM
90
0
280
0
281
0
0
ENDSEC
0
SECTION
2
TABLES
0
TABLE
2
VPORT
5
1e6
100
AcDbSymbolTable
0
VPORT
5
1
100
AcDbSymbolTableRecord
100
AcDbViewportTableRecord
2
*Active
70
0
10
0
20
0
11
1
21
1
12
-1
22
1
13
0
23
0
14
0.5
24
0.5
15
10
25
10
16
0
26
0
36
1
17
0
27
0
37
0
0
ENDTAB
0
TABLE
2
LTYPE
5
1e7
100
AcDbSymbolTable
0
LTYPE
5
14
100
AcDbSymbolTableRecord
100
AcDbLinetypeTableRecord
70
0
2
ByBlock
3

72
65
73
0
40
0
0
LTYPE
5
15
100
AcDbSymbolTableRecord
100
AcDbLinetypeTableRecord
70
0
2
ByLayer
3

72
65
73
0
40
0
0
LTYPE
5
16
100
AcDbSymbolTableRecord
100
AcDbLinetypeTableRecord
70
0
2
Continuous
3
Solid line
72
65
73
0
40
0
0
LTYPE
5
6E
100
AcDbSymbolTableRecord
100
AcDbLinetypeTableRecord
70
0
2
CENTER
3
____ _ ____ _ ____ _ ____
72
65
73
4
40
47.5
49
22
74
0
49
-8.5
74
0
49
8.5
74
0
49
-8.5
74
0
0
LTYPE
5
6F
100
AcDbSymbolTableRecord
100
AcDbLinetypeTableRecord
70
0
2
DASHED
3
__ __ __ __ __ __ __ __ __
72
65
73
2
40
25.72
49
12.86
74
0
49
-12.86
74
0
0
ENDTAB
0
TABLE
2
LAYER
5
1e8
100
AcDbSymbolTable
0
LAYER
5
10
100
AcDbSymbolTableRecord
100
AcDbLayerTableRecord
2
0
70
0
62
7
6
Continuous
290
1
370
-3
390
0
0
LAYER
5
71
100
AcDbSymbolTableRecord
100
AcDbLayerTableRecord
2
80
70
0
62
-6
6
Continuous
290
1
370
-3
390
0
0
LAYER
5
73
100
AcDbSymbolTableRecord
100
AcDbLayerTableRecord
2
81
70
0
62
-3
6
Continuous
290
1
370
-3
390
0
0
LAYER
5
75
100
AcDbSymbolTableRecord
100
AcDbLayerTableRecord
2
1
70
0
62
4
6
Continuous
290
1
370
-3
390
0
0
LAYER
5
78
100
AcDbSymbolTableRecord
100
AcDbLayerTableRecord
2
4
70
0
62
-2
6
CENTER
290
1
370
-3
390
0
0
LAYER
5
BA
100
AcDbSymbolTableRecord
100
AcDbLayerTableRecord
2
2
70
0
62
7
6
Continuous
290
1
370
-3
390
0
0
LAYER
5
15C
100
AcDbSymbolTableRecord
100
AcDbLayerTableRecord
2
Defpoints
70
0
62
7
6
Continuous
290
0
370
-3
390
0
0
LAYER
5
1d2
100
AcDbSymbolTableRecord
100
AcDbLayerTableRecord
2
SK4
70
0
62
2
6
CENTER
290
1
370
-3
390
0
0
LAYER
5
1d3
100
AcDbSymbolTableRecord
100
AcDbLayerTableRecord
2
SK1
70
0
62
4
6
Continuous
290
1
370
-3
390
0
0
LAYER
5
1d4
100
AcDbSymbolTableRecord
100
AcDbLayerTableRecord
2
SK2
70
0
62
7
6
Continuous
290
1
370
-3
390
0
0
LAYER
5
1d5
100
AcDbSymbolTableRecord
100
AcDbLayerTableRecord
2
SK6
70
0
62
5
6
Continuous
290
1
370
-3
390
0
0
ENDTAB
0
TABLE
2
STYLE
5
1e9
100
AcDbSymbolTable
0
STYLE
5
11
100
AcDbSymbolTableRecord
100
AcDbTextStyleTableRecord
2
Standard
3
txt
70
0
71
0
40
0
41
1
42
0
50
0
0
STYLE
5
138
100
AcDbSymbolTableRecord
100
AcDbTextStyleTableRecord
2
iso_b_vert
3
simplex.shx
70
0
71
0
40
0
41
1
42
0
50
0
0
STYLE
5
139
100
AcDbSymbolTableRecord
100
AcDbTextStyleTableRecord
2
DWGDirectTextStyle
3
simplex
70
0
71
0
40
0
41
1
42
0
50
0
0
ENDTAB
0
TABLE
2
DIMSTYLE
5
1ea
100
AcDbSymbolTable
100
AcDbDimStyleTable
0
DIMSTYLE
105
27
100
AcDbSymbolTableRecord
100
AcDbDimStyleTableRecord
2
Standard
70
0
3
<>
41
0.18
42
0.0625
44
0.18
140
0.18
147
0.09
73
0
74
0
77
1
271
2
275
0
278
52
280
0
340
11
0
ENDTAB
0
TABLE
2
VIEW
5
1eb
100
AcDbSymbolTable
0
ENDTAB
0
TABLE
2
UCS
5
1ec
100
AcDbSymbolTable
0
ENDTAB
0
TABLE
2
APPID
5
1ed
100
AcDbSymbolTable
0
APPID
5
12
100
AcDbSymbolTableRecord
100
AcDbRegAppTableRecord
2
ACAD
70
0
0
APPID
5
158
100
AcDbSymbolTableRecord
100
AcDbRegAppTableRecord
2
ACAD_DSTYLE_DIMBREAK
70
0
0
APPID
5
191
100
AcDbSymbolTableRecord
100
AcDbRegAppTableRecord
2
ACAD_DSTYLE_DIM_LINETYPE
70
0
0
APPID
5
192
100
AcDbSymbolTableRecord
100
AcDbRegAppTableRecord
2
ACAD_DSTYLE_DIM_EXT1_LINETYPE
70
0
0
APPID
5
193
100
AcDbSymbolTableRecord
100
AcDbRegAppTableRecord
2
ACAD_DSTYLE_DIM_EXT2_LINETYPE
70
0
0
APPID
5
1CE
100
AcDbSymbolTableRecord
100
AcDbRegAppTableRecord
2
ACAD_MLEADERVER
70
0
0
ENDTAB
0
TABLE
2
BLOCK_RECORD
5
1ee
100
AcDbSymbolTable
0
BLOCK_RECORD
5
1F
100
AcDbSymbolTableRecord
100
AcDbBlockTableRecord
2
*Model_Space
340
0
70
0
0
BLOCK_RECORD
5
1B
100
AcDbSymbolTableRecord
100
AcDbBlockTableRecord
2
*Paper_Space
340
0
70
0
0
BLOCK_RECORD
5
23
100
AcDbSymbolTableRecord
100
AcDbBlockTableRecord
2
*Paper_Space0
340
0
70
0
0
BLOCK_RECORD
5
15D
100
AcDbSymbolTableRecord
100
AcDbBlockTableRecord
2
*D1
340
0
70
0
0
BLOCK_RECORD
5
16A
100
AcDbSymbolTableRecord
100
AcDbBlockTableRecord
2
_U0
340
0
70
0
0
ENDTAB
0
ENDSEC
0
SECTION
2
BLOCKS
0
BLOCK
5
20
100
AcDbEntity
8
0
100
AcDbBlockBegin
2
*Model_Space
70
0
10
0
20
0
30
0
3
*Model_Space
0
ENDBLK
5
21
100
AcDbEntity
8
0
100
AcDbBlockEnd
0
BLOCK
5
1C
100
AcDbEntity
8
0
100
AcDbBlockBegin
2
*Paper_Space
70
0
10
0
20
0
30
0
3
*Paper_Space
0
ENDBLK
5
1D
100
AcDbEntity
8
0
100
AcDbBlockEnd
0
BLOCK
5
24
100
AcDbEntity
8
0
100
AcDbBlockBegin
2
*Paper_Space0
70
0
10
0
20
0
30
0
3
*Paper_Space0
0
ENDBLK
5
25
100
AcDbEntity
8
0
100
AcDbBlockEnd
0
BLOCK
5
15E
100
AcDbEntity
8
0
100
AcDbBlockBegin
2
*D1
70
1
10
0
20
0
30
0
3
*D1
0
LINE
5
160
100
AcDbEntity
8
0
62
256
6
ByLayer
370
-2
48
1
60
0
100
AcDbLine
10
18
20
-3.0876
30
0
11
18
21
-19.1
31
0
39
0
210
0
220
0
230
1
0
LINE
5
161
100
AcDbEntity
8
0
62
256
6
ByLayer
370
-2
48
1
60
0
100
AcDbLine
10
10
20
-3.0876
30
0
11
10
21
-19.1
31
0
39
0
210
0
220
0
230
1
0
LINE
5
162
100
AcDbEntity
8
0
62
256
6
ByLayer
370
-2
48
1
60
0
100
AcDbLine
10
21.5
20
-17.1
30
0
11
25
21
-17.1
31
0
39
0
210
0
220
0
230
1
0
LINE
5
163
100
AcDbEntity
8
0
62
256
6
ByLayer
370
-2
48
1
60
0
100
AcDbLine
10
6.5
20
-17.1
30
0
11
3
21
-17.1
31
0
39
0
210
0
220
0
230
1
0
SOLID
5
164
100
AcDbEntity
8
0
62
256
6
ByLayer
370
-1
48
1
60
0
100
AcDbTrace
10
21.5
20
-16.516667
30
0
11
21.5
21
-17.683333
31
0
12
18
22
-17.1
32
0
13
18
23
-17.1
33
0
39
0
210
0
220
0
230
1
0
SOLID
5
165
100
AcDbEntity
8
0
62
256
6
ByLayer
370
-1
48
1
60
0
100
AcDbTrace
10
6.5
20
-17.683333
30
0
11
6.5
21
-16.516667
31
0
12
10
22
-17.1
32
0
13
10
23
-17.1
33
0
39
0
210
0
220
0
230
1
0
MTEXT
5
166
100
AcDbEntity
8
0
62
256
6
ByLayer
370
18
48
1
60
0
100
AcDbMText
10
14
20
-10.1
30
0
210
0
220
0
230
1
1
\A1;8
40
3.5
41
0
44
1
50
0
71
5
72
5
7
iso_b_vert
0
POINT
5
167
100
AcDbEntity
8
Defpoints
62
0
6
ByLayer
370
-1
48
1
60
0
100
AcDbPoint
10
18
20
-1.5001
30
0
39
0
210
0
220
0
230
1
50
360
0
POINT
5
168
100
AcDbEntity
8
Defpoints
62
0
6
ByLayer
370
-1
48
1
60
0
100
AcDbPoint
10
10
20
-1.5001
30
0
39
0
210
0
220
0
230
1
50
360
0
POINT
5
169
100
AcDbEntity
8
Defpoints
62
0
6
ByLayer
370
-1
48
1
60
0
100
AcDbPoint
10
10
20
-17.1
30
0
39
0
210
0
220
0
230
1
50
360
0
ENDBLK
5
15F
100
AcDbEntity
8
0
100
AcDbBlockEnd
0
BLOCK
5
171
100
AcDbEntity
8
0
100
AcDbBlockBegin
2
_U0
70
0
10
0
20
0
30
0
3
_U0
0
MTEXT
5
16B
100
AcDbEntity
8
2
62
256
6
ByLayer
370
18
48
1
60
0
100
AcDbMText
10
13.402767
20
-16.067366
30
0
210
0
220
0
230
1
1
\W0.5404;8
40
3.5
41
0
44
1.084337
50
0
71
7
72
5
7
iso_b_vert
0
LINE
5
16C
100
AcDbEntity
8
2
62
256
6
ByLayer
370
13
48
1
60
0
100
AcDbLine
10
18
20
-3.0876
30
0
11
18
21
-19.1
31
0
39
0
210
0
220
0
230
1
0
LINE
5
16D
100
AcDbEntity
8
2
62
256
6
ByLayer
370
13
48
1
60
0
100
AcDbLine
10
10
20
-3.0876
30
0
11
10
21
-19.1
31
0
39
0
210
0
220
0
230
1
0
LINE
5
16E
100
AcDbEntity
8
2
62
256
6
ByLayer
370
13
48
1
60
0
100
AcDbLine
10
18
20
-17.1
30
0
11
10
21
-17.1
31
0
39
0
210
0
220
0
230
1
0
SOLID
5
16F
100
AcDbEntity
8
2
62
256
6
ByLayer
370
18
48
1
60
0
100
AcDbTrace
10
18
20
-17.1
30
0
11
14.500002
21
-17.560784
31
0
12
14.499998
22
-16.639216
32
0
13
14.499998
23
-16.639216
33
0
39
0
210
0
220
0
230
1
0
SOLID
5
170
100
AcDbEntity
8
2
62
256
6
ByLayer
370
18
48
1
60
0
100
AcDbTrace
10
10
20
-17.1
30
0
11
13.499998
21
-16.639216
31
0
12
13.500002
22
-17.560784
32
0
13
13.500002
23
-17.560784
33
0
39
0
210
0
220
0
230
1
0
ENDBLK
5
172
100
AcDbEntity
8
0
100
AcDbBlockEnd
0
ENDSEC
0
SECTION
2
ENTITIES
0
ARC
5
CC
100
AcDbEntity
8
1
62
256
6
ByLayer
370
18
48
1
60
0
100
AcDbCircle
39
0
10
4.897679
20
2.5
30
0
40
1
210
0
220
0
230
1
100
AcDbArc
50
240
51
270
0
ARC
5
CD
100
AcDbEntity
8
1
62
256
6
ByLayer
370
18
48
1
60
0
100
AcDbCircle
39
0
10
4.897679
20
-2.5
30
0
40
1
210
0
220
0
230
1
100
AcDbArc
50
90
51
120
0
ELLIPSE
5
CE
100
AcDbEntity
8
1
62
256
6
ByLayer
370
18
48
1
60
0
100
AcDbEllipse
10
11.507732
20
0
30
0
11
2.9923745964521
21
-1.13065213512033
31
0
210
0
220
0
230
1
40
0.329408
41
2.35181495888924
42
2.42457777192034
0
ELLIPSE
5
CF
100
AcDbEntity
8
1
62
256
6
ByLayer
370
18
48
1
60
0
100
AcDbEllipse
10
11.507732
20
0
30
0
11
3.00309978212275
21
-0.594933951915518
31
0
210
0
220
0
230
1
40
0.458517
41
-2.56510238399871
42
-2.13740027526315
0
POINT
5
70
100
AcDbEntity
8
80
62
256
6
ByLayer
370
18
48
1
60
0
100
AcDbPoint
10
0
20
0
30
0
39
0
210
0
220
0
230
1
50
360
0
POINT
5
72
100
AcDbEntity
8
81
62
256
6
ByLayer
370
18
48
1
60
0
100
AcDbPoint
10
18
20
0
30
0
39
0
210
0
220
0
230
1
50
360
0
POINT
5
74
100
AcDbEntity
8
1
62
256
6
ByLayer
370
18
48
1
60
1
100
AcDbPoint
10
18
20
-1.5001
30
0
39
0
210
0
220
0
230
1
50
360
0
POINT
5
76
100
AcDbEntity
8
1
62
256
6
ByLayer
370
18
48
1
60
1
100
AcDbPoint
10
10
20
-1.5001
30
0
39
0
210
0
220
0
230
1
50
360
0
SPLINE
5
D0
100
AcDbEntity
8
1
62
256
6
ByLayer
370
13
48
1
60
0
100
AcDbSpline
70
4
71
5
72
12
73
6
40
0
40
0
40
0
40
0
40
0
40
0
40
1
40
1
40
1
40
1
40
1
40
1
41
1
10
17.8658040925891
20
-1.15817729615463
30
0
41
1
10
17.8657911171876
20
-1.15802274862102
30
0
41
1
10
17.8657776241854
20
-1.15786849781514
30
0
41
1
10
17.8657636142815
20
-1.15771454485784
30
0
41
1
10
17.8657490884219
20
-1.15756089072409
30
0
41
1
10
17.865734047842
20
-1.15740753621574
30
0
0
SPLINE
5
D1
100
AcDbEntity
8
1
62
256
6
ByLayer
370
13
48
1
60
0
100
AcDbSpline
70
4
71
3
72
8
73
4
40
0
40
0
40
0
40
0
40
1
40
1
40
1
40
1
41
1
10
17.9821490335817
20
-0.674550871655867
30
0
41
1
10
17.9433440383362
20
-0.835503093186134
30
0
41
1
10
17.9045390430906
20
-0.996455314716428
30
0
41
1
10
17.8657340478451
20
-1.15740753624669
30
0
0
SPLINE
5
D2
100
AcDbEntity
8
1
62
256
6
ByLayer
370
18
48
1
60
0
100
AcDbSpline
70
4
71
3
72
8
73
4
40
0
40
0
40
0
40
0
40
1
40
1
40
1
40
1
41
1
10
9.66560000305714
20
1.49603136745841
30
0
41
1
10
9.69926869494412
20
1.48118676360514
30
0
41
1
10
9.73297818279647
20
1.46655705495641
30
0
41
1
10
9.76672819105968
20
1.45214079001249
30
0
0
SPLINE
5
D3
100
AcDbEntity
8
1
62
256
6
ByLayer
370
18
48
1
60
0
100
AcDbSpline
70
4
71
3
72
10
73
6
40
0
40
0
40
0
40
0
40
0.5
40
0.5
40
1
40
1
40
1
40
1
41
1
10
16.9934127855159
20
-0.461399154443626
30
0
41
1
10
17.0024460896545
20
-0.475782395166959
30
0
41
1
10
17.0110368247607
20
-0.490785274255501
30
0
41
1
10
17.0265956628098
20
-0.521877416983784
30
0
41
1
10
17.0336006655467
20
-0.537979865049039
30
0
41
1
10
17.0393919252534
20
-0.554954322593005
30
0
0
SPLINE
5
D4
100
AcDbEntity
8
1
62
256
6
ByLayer
370
18
48
1
60
0
100
AcDbSpline
70
4
71
3
72
10
73
6
40
0
40
0
40
0
40
0
40
0.5
40
0.5
40
1
40
1
40
1
40
1
41
1
10
16.9934127855149
20
-0.461399154442603
30
0
41
1
10
16.9849880848265
20
-0.447984960016783
30
0
41
1
10
16.979401274731
20
-0.433602186901652
30
0
41
1
10
16.9732847775013
20
-0.404045719799456
30
0
41
1
10
16.9728793157299
20
-0.389675267846826
30
0
41
1
10
16.9747106704171
20
-0.37603236133387
30
0
0
SPLINE
5
D5
100
AcDbEntity
8
1
62
256
6
ByLayer
370
18
48
1
60
0
100
AcDbSpline
70
4
71
3
72
12
73
8
40
0
40
0
40
0
40
0
40
0.500000000000019
40
0.500000000000019
40
0.75000000000001
40
0.75000000000001
40
1
40
1
40
1
40
1
41
1
10
17.9587525849795
20
1.39595555308344
30
0
41
1
10
17.9678685854287
20
1.3778023836993
30
0
41
1
10
17.9742608386976
20
1.35876541491871
30
0
41
1
10
17.9801784475771
20
1.32905693553281
30
0
41
1
10
17.9815224868679
20
1.31889079192931
30
0
41
1
10
17.9828513067523
20
1.29847819942967
30
0
41
1
10
17.9828485627648
20
1.28826954184041
30
0
41
1
10
17.9821490335693
20
1.27805772841427
30
0
0
SPLINE
5
D6
100
AcDbEntity
8
1
62
256
6
ByLayer
370
18
48
1
60
0
100
AcDbSpline
70
4
71
3
72
22
73
18
40
0
40
0
40
0
40
0
40
0.124999999999997
40
0.124999999999997
40
0.187499999999996
40
0.187499999999996
40
0.249999999999994
40
0.249999999999994
40
0.374999999999991
40
0.374999999999991
40
0.499999999999988
40
0.499999999999988
40
0.624999999999985
40
0.624999999999985
40
0.749999999999983
40
0.749999999999983
40
1
40
1
40
1
40
1
41
1
10
17.9715542999085
20
0.965725154357699
30
0
41
1
10
17.9452188784719
20
0.939769895317568
30
0
41
1
10
17.9156288341171
20
0.917756131079614
30
0
41
1
10
17.8681263096821
20
0.888510866518743
30
0
41
1
10
17.8518531140425
20
0.879467905289118
30
0
41
1
10
17.818997549952
20
0.86267840914698
30
0
41
1
10
17.8023505289622
20
0.854893865196971
30
0
41
1
10
17.751891584038
20
0.832981645609721
30
0
41
1
10
17.7175690364384
20
0.820275180358209
30
0
41
1
10
17.6480129658268
20
0.797397752623709
30
0
41
1
10
17.6127745819228
20
0.787240319380714
30
0
41
1
10
17.5416378692656
20
0.768762266457998
30
0
41
1
10
17.5057085029864
20
0.760443197914839
30
0
41
1
10
17.4337574962471
20
0.745276055926098
30
0
41
1
10
17.397680132762
20
0.738415291134942
30
0
41
1
10
17.289213689471
20
0.719495980159536
30
0
41
1
10
17.2165939597037
20
0.709074141543198
30
0
41
1
10
17.1437755456873
20
0.700062179663604
30
0
0
SPLINE
5
D7
100
AcDbEntity
8
1
62
256
6
ByLayer
370
18
48
1
60
0
100
AcDbSpline
70
4
71
3
72
12
73
8
40
0
40
0
40
0
40
0
40
0.250000000000001
40
0.250000000000001
40
0.500000000000001
40
0.500000000000001
40
1
40
1
40
1
40
1
41
1
10
17.9821490335693
20
1.27805772841054
30
0
41
1
10
17.9803438505017
20
1.25170544345156
30
0
41
1
10
17.9787601729899
20
1.22524715356175
30
0
41
1
10
17.9760420951104
20
1.17211556521292
30
0
41
1
10
17.9749054256915
20
1.14531344851196
30
0
41
1
10
17.9722492424259
20
1.0664259125239
30
0
41
1
10
17.9714424101541
20
1.01535217333679
30
0
41
1
10
17.9715542999089
20
0.9657251543575
30
0
0
SPLINE
5
D8
100
AcDbEntity
8
1
62
256
6
ByLayer
370
18
48
1
60
0
100
AcDbSpline
70
4
71
3
72
10
73
6
40
0
40
0
40
0
40
0
40
0.380806249317436
40
0.380806249317436
40
1
40
1
40
1
40
1
41
1
10
17.0635835978902
20
0.808617925790742
30
0
41
1
10
17.0664630414135
20
0.807958131388148
30
0
41
1
10
17.0696723829568
20
0.806951262898053
30
0
41
1
10
17.0789606947731
20
0.803401856720228
30
0
41
1
10
17.0855205693562
20
0.800313029351457
30
0
41
1
10
17.0927955571031
20
0.796414378654219
30
0
0
SPLINE
5
D9
100
AcDbEntity
8
1
62
256
6
ByLayer
370
18
48
1
60
0
100
AcDbSpline
70
4
71
3
72
20
73
16
40
0
40
0
40
0
40
0
40
0.250000000000057
40
0.250000000000057
40
0.375000000000048
40
0.375000000000048
40
0.500000000000038
40
0.500000000000038
40
0.625000000000028
40
0.625000000000028
40
0.750000000000019
40
0.750000000000019
40
0.875000000000009
40
0.875000000000009
40
1
40
1
40
1
40
1
41
1
10
17.7987248638524
20
1.49339875220468
30
0
41
1
10
17.8139447845435
20
1.49382512478999
30
0
41
1
10
17.8290978690328
20
1.49239755935344
30
0
41
1
10
17.8517995935275
20
1.48700347083599
30
0
41
1
10
17.8593892846378
20
1.48463999086198
30
0
41
1
10
17.8741733724626
20
1.47883972728081
30
0
41
1
10
17.8814140164095
20
1.4753986684739
30
0
41
1
10
17.8955741378816
20
1.4673304709143
30
0
41
1
10
17.9025456736548
20
1.46265887156099
30
0
41
1
10
17.915871520722
20
1.4521497812494
30
0
41
1
10
17.9221660885106
20
1.44637308993259
30
0
41
1
10
17.9340146893124
20
1.43376454074502
30
0
41
1
10
17.9395702490877
20
1.42693474108808
30
0
41
1
10
17.9498859591652
20
1.41214321737633
30
0
41
1
10
17.9545990324928
20
1.40422713854329
30
0
41
1
10
17.9587525849795
20
1.39595555308344
30
0
0
SPLINE
5
DA
100
AcDbEntity
8
1
62
256
6
ByLayer
370
13
48
1
60
0
100
AcDbSpline
70
4
71
3
72
10
73
6
40
0
40
0
40
0
40
0
40
0.615403313336734
40
0.936342898260962
40
1
40
1
40
1
40
1
41
1
10
17.9587525849795
20
1.39595555308344
30
0
41
1
10
17.6391683899863
20
1.38884806236359
30
0
41
1
10
17.1529175283265
20
1.30216579219643
30
0
41
1
10
16.6336089902226
20
1.11193127536228
30
0
41
1
10
16.4338846471119
20
1.02531508669327
30
0
41
1
10
16.4008269706679
20
1.01062084692137
30
0
0
SPLINE
5
DB
100
AcDbEntity
8
1
62
256
6
ByLayer
370
13
48
1
60
0
100
AcDbSpline
70
4
71
3
72
13
73
9
40
0
40
0
40
0
40
0
40
0.122126726249962
40
0.268438938541635
40
0.414751150833308
40
0.561063363124981
40
0.707375575416654
40
1
40
1
40
1
40
1
41
1
10
13.4173497356684
20
-0.697789637292488
30
0
41
1
10
13.2782331571122
20
-0.683426599016315
30
0
41
1
10
12.9724499118895
20
-0.641849735530315
30
0
41
1
10
12.5
20
-0.548277611625565
30
0
41
1
10
12
20
-0.421887681215821
30
0
41
1
10
11.5
20
-0.269805588697409
30
0
41
1
10
10.8333333333333
20
-0.0464189972768736
30
0
41
1
10
10.3333333333333
20
0.126631746196608
30
0
41
1
10
10
20
0.233914800510831
30
0
0
SPLINE
5
DC
100
AcDbEntity
8
1
62
256
6
ByLayer
370
18
48
1
60
0
100
AcDbSpline
70
4
71
3
72
19
73
15
40
0
40
0
40
0
40
0
40
0.125
40
0.125
40
0.25
40
0.25
40
0.5
40
0.5
40
0.625
40
0.625
40
0.75
40
0.875
40
0.875
40
1
40
1
40
1
40
1
41
1
10
17.0798767214585
20
-0.6520840723513
30
0
41
1
10
17.0741291151854
20
-0.672149696151479
30
0
41
1
10
17.0689593938511
20
-0.692377264018148
30
0
41
1
10
17.0599660239377
20
-0.733116557591643
30
0
41
1
10
17.0561966784937
20
-0.753383530063388
30
0
41
1
10
17.0472310624746
20
-0.813853781547181
30
0
41
1
10
17.0443589253265
20
-0.853728976079339
30
0
41
1
10
17.0456043425128
20
-0.912757795036384
30
0
41
1
10
17.046947109812
20
-0.931933752189366
30
0
41
1
10
17.0514221742249
20
-0.969045484476027
30
0
41
1
10
17.0576884819331
20
-1.00500722116811
30
0
41
1
10
17.0674581655111
20
-1.03871975652621
30
0
41
1
10
17.0789606947732
20
-1.07131978812308
30
0
41
1
10
17.0855205693563
20
-1.08689131196638
30
0
41
1
10
17.0927955571032
20
-1.10170548033341
30
0
0
SPLINE
5
DD
100
AcDbEntity
8
1
62
256
6
ByLayer
370
18
48
1
60
0
100
AcDbSpline
70
4
71
3
72
8
73
4
40
0
40
0
40
0
40
0
40
1
40
1
40
1
40
1
41
1
10
17.0393919133095
20
-0.554954331635543
30
0
41
1
10
17.0509731573861
20
-0.588897497283341
30
0
41
1
10
17.0645665996347
20
-0.621193439732423
30
0
41
1
10
17.0798767214504
20
-0.652084072356274
30
0
0
SPLINE
5
DE
100
AcDbEntity
8
1
62
256
6
ByLayer
370
13
48
1
60
0
100
AcDbSpline
70
4
71
3
72
15
73
11
40
0
40
0
40
0
40
0
40
0.0113854031910553
40
0.155899881060732
40
0.300414358930409
40
0.444928836800086
40
0.589443314669763
40
0.733957792539439
40
0.878472270409116
40
1
40
1
40
1
40
1
41
1
10
17.0393919120039
20
-0.554954332890219
30
0
41
1
10
17.0262612746693
20
-0.552021727878355
30
0
41
1
10
16.846463970668
20
-0.511442479458424
30
0
41
1
10
16.5
20
-0.422261997007865
30
0
41
1
10
16
20
-0.274385873687606
30
0
41
1
10
15.5
20
-0.107264089299974
30
0
41
1
10
15
20
0.0661445071692981
30
0
41
1
10
14.5
20
0.233569421010799
30
0
41
1
10
14.0265103176485
20
0.378865631958547
30
0
41
1
10
13.7196873019637
20
0.462756627585833
30
0
41
1
10
13.5795309529455
20
0.497929178029125
30
0
0
SPLINE
5
DF
100
AcDbEntity
8
1
62
256
6
ByLayer
370
18
48
1
60
0
100
AcDbSpline
70
4
71
3
72
15
73
11
40
0
40
0
40
0
40
0
40
0.0073511575667615
40
0.131432262870916
40
0.255513368175071
40
0.379594473479226
40
0.503675578783381
40
0.627756684087535
40
0.75183778939169
40
1
40
1
40
1
40
1
41
1
10
14.029622389117
20
-1.04204268736569
30
0
41
1
10
14.0197482594113
20
-1.04413635935691
30
0
41
1
10
13.843207463039
20
-1.08097202172945
30
0
41
1
10
13.5
20
-1.1316906431249
30
0
41
1
10
13
20
-1.14554576396358
30
0
41
1
10
12.5
20
-1.09633556468344
30
0
41
1
10
12
20
-0.987824457882539
30
0
41
1
10
11.5
20
-0.82496160480693
30
0
41
1
10
10.8333333333333
20
-0.549570130835804
30
0
41
1
10
10.3333333333333
20
-0.293519697255476
30
0
41
1
10
10
20
-0.115412633072765
30
0
0
SPLINE
5
E0
100
AcDbEntity
8
1
62
256
6
ByLayer
370
18
48
1
60
0
100
AcDbSpline
70
4
71
3
72
11
73
7
40
0
40
0
40
0
40
0
40
0.0513727858414408
40
0.288529589381081
40
0.52568639292072
40
1
40
1
40
1
40
1
41
1
10
12.1083097450182
20
-1.31846602935118
30
0
41
1
10
12.0722064966788
20
-1.31926224798408
30
0
41
1
10
11.8694365816727
20
-1.32059007924744
30
0
41
1
10
11.4999999999999
20
-1.29080591771847
30
0
41
1
10
10.8333333333333
20
-1.14346821640754
30
0
41
1
10
10.3333333333333
20
-0.936279338608188
30
0
41
1
10
9.99999999999997
20
-0.768803976198996
30
0
0
SPLINE
5
E1
100
AcDbEntity
8
1
62
256
6
ByLayer
370
18
48
1
60
0
100
AcDbSpline
70
4
71
3
72
10
73
6
40
0
40
0
40
0
40
0
40
0.5
40
0.5
40
1
40
1
40
1
40
1
41
1
10
17.8658041431589
20
-1.15817789838533
30
0
41
1
10
17.8716793655544
20
-1.14676077172189
30
0
41
1
10
17.8756581574572
20
-1.13269675659529
30
0
41
1
10
17.8833656917141
20
-1.09902328394139
30
0
41
1
10
17.8870699297149
20
-1.07942844397547
30
0
41
1
10
17.8916741874635
20
-1.05705650868168
30
0
0
SPLINE
5
E2
100
AcDbEntity
8
1
62
256
6
ByLayer
370
18
48
1
60
0
100
AcDbSpline
70
4
71
3
72
8
73
4
40
0
40
0
40
0
40
0
40
1
40
1
40
1
40
1
41
1
10
17.8628643522749
20
-1.16358725870796
30
0
41
1
10
17.8638421077011
20
-1.16186040729275
30
0
41
1
10
17.8648235386042
20
-1.16005692375964
30
0
41
1
10
17.8658085961363
20
-1.15817782656654
30
0
0
SPLINE
5
E3
100
AcDbEntity
8
1
62
256
6
ByLayer
370
18
48
1
60
0
100
AcDbSpline
70
4
71
3
72
24
73
20
40
0
40
0
40
0
40
0
40
0.125000000000009
40
0.125000000000009
40
0.250000000000017
40
0.250000000000017
40
0.312500000000022
40
0.312500000000022
40
0.375000000000026
40
0.375000000000026
40
0.500000000000023
40
0.500000000000023
40
0.62500000000002
40
0.62500000000002
40
0.687500000000019
40
0.687500000000019
40
0.750000000000018
40
0.750000000000018
40
1
40
1
40
1
40
1
41
1
10
17.0927955576977
20
-1.10170548015771
30
0
41
1
10
17.1174888844596
20
-1.12651581265089
30
0
41
1
10
17.1442933262096
20
-1.14648775216446
30
0
41
1
10
17.2008041515123
20
-1.17978077005776
30
0
41
1
10
17.2305342916063
20
-1.19304740131645
30
0
41
1
10
17.2768928264924
20
-1.20890604417031
30
0
41
1
10
17.2926432124571
20
-1.21350519700155
30
0
41
1
10
17.3243078415717
20
-1.22136711537908
30
0
41
1
10
17.3402713899158
20
-1.22464767602165
30
0
41
1
10
17.3885160744135
20
-1.23273472784027
30
0
41
1
10
17.4211490031364
20
-1.23579772459183
30
0
41
1
10
17.4872205135957
20
-1.23793087782508
30
0
41
1
10
17.5206601986189
20
-1.23699556638451
30
0
41
1
10
17.5713718017361
20
-1.23285649623534
30
0
41
1
10
17.588368063145
20
-1.23101890024816
30
0
41
1
10
17.6225403055106
20
-1.22645301285502
30
0
41
1
10
17.6397168766323
20
-1.22372275020462
30
0
41
1
10
17.7254756587492
20
-1.20800319763722
30
0
41
1
10
17.7941424081506
20
-1.1888394742308
30
0
41
1
10
17.8628643522748
20
-1.16358725870799
30
0
0
SPLINE
5
E4
100
AcDbEntity
8
1
62
256
6
ByLayer
370
18
48
1
60
0
100
AcDbSpline
70
4
71
3
72
19
73
15
40
0
40
0
40
0
40
0
40
0.0180110685761682
40
0.11505810977078
40
0.212105150965392
40
0.309152192160003
40
0.406199233354615
40
0.503246274549227
40
0.600293315743839
40
0.69734035693845
40
0.794387398133062
40
0.891434439327674
40
0.988481480522285
40
1
40
1
40
1
40
1
41
1
10
17.0927955574661
20
-1.10170548015071
30
0
41
1
10
17.0618637049774
20
-1.09761565926905
30
0
41
1
10
16.864265185822
20
-1.06926868716894
30
0
41
1
10
16.5
20
-0.990955632333567
30
0
41
1
10
16
20
-0.830797159037644
30
0
41
1
10
15.5
20
-0.624397534454261
30
0
41
1
10
15
20
-0.384749258443975
30
0
41
1
10
14.5
20
-0.124905486747082
30
0
41
1
10
14
20
0.143378649906396
30
0
41
1
10
13.5
20
0.402662675332323
30
0
41
1
10
13
20
0.639649143063878
30
0
41
1
10
12.5
20
0.84365388921654
30
0
41
1
10
12.1468849894238
20
0.954836977923037
30
0
41
1
10
11.9604366455143
20
1.00192943239554
30
0
41
1
10
11.9406549682715
20
1.00679439763442
30
0
0
SPLINE
5
E5
100
AcDbEntity
8
1
62
256
6
ByLayer
370
18
48
1
60
0
100
AcDbSpline
70
4
71
3
72
24
73
20
40
0
40
0
40
0
40
0
40
0.124999999999987
40
0.124999999999987
40
0.249999999999974
40
0.249999999999974
40
0.312499999999973
40
0.312499999999973
40
0.374999999999972
40
0.374999999999972
40
0.499999999999971
40
0.499999999999971
40
0.624999999999969
40
0.624999999999969
40
0.687499999999974
40
0.687499999999974
40
0.749999999999979
40
0.749999999999979
40
1
40
1
40
1
40
1
41
1
10
17.0927955576977
20
0.796414378287096
30
0
41
1
10
17.1174888844595
20
0.778272106260857
30
0
41
1
10
17.1442933262095
20
0.7572375533517
30
0
41
1
10
17.2008041515122
20
0.711192714869924
30
0
41
1
10
17.2305342916062
20
0.686149881960034
30
0
41
1
10
17.2768928264924
20
0.646169833366599
30
0
41
1
10
17.2926432124571
20
0.632434521779402
30
0
41
1
10
17.3243078415716
20
0.604554235372802
30
0
41
1
10
17.3402713899157
20
0.590366918206399
30
0
41
1
10
17.3885160744135
20
0.547138146523736
30
0
41
1
10
17.4211490031364
20
0.517434103769716
30
0
41
1
10
17.4872205135957
20
0.456508600734509
30
0
41
1
10
17.5206601986189
20
0.425285062453611
30
0
41
1
10
17.5713718017361
20
0.377409941178001
30
0
41
1
10
17.588368063145
20
0.361277547311431
30
0
41
1
10
17.6225403055106
20
0.328674264484874
30
0
41
1
10
17.6397168766324
20
0.312202447754856
30
0
41
1
10
17.7254756587492
20
0.229559954923815
30
0
41
1
10
17.7941424081505
20
0.162120861692671
30
0
41
1
10
17.8628643522748
20
0.0934571547723806
30
0
0
SPLINE
5
E6
100
AcDbEntity
8
1
62
256
6
ByLayer
370
18
48
1
60
0
100
AcDbSpline
70
4
71
3
72
8
73
4
40
0
40
0
40
0
40
0
40
1
40
1
40
1
40
1
41
1
10
17.862864352275
20
0.0934571547722953
30
0
41
1
10
17.8638421077012
20
0.0872611605406348
30
0
41
1
10
17.8648235386043
20
0.0810567258829735
30
0
41
1
10
17.8658085961363
20
0.0748439629744553
30
0
0
SPLINE
5
E7
100
AcDbEntity
8
1
62
256
6
ByLayer
370
18
48
1
60
0
100
AcDbSpline
70
4
71
3
72
10
73
6
40
0
40
0
40
0
40
0
40
0.132027183450371
40
0.843414598192061
40
1
40
1
40
1
40
1
41
1
10
17.0927955574659
20
0.796414378535673
30
0
41
1
10
17.0618637049773
20
0.808140311122429
30
0
41
1
10
16.864265185822
20
0.88140132779941
30
0
41
1
10
16.6299812173219
20
0.955090373162932
30
0
41
1
10
16.4266291013105
20
1.00645010916713
30
0
41
0.999999999999999
10
16.3899436519658
20
1.01528354890942
30
0
0
SPLINE
5
E8
100
AcDbEntity
8
1
62
256
6
ByLayer
370
18
48
1
60
0
100
AcDbSpline
70
4
71
3
72
8
73
4
40
0
40
0
40
0
40
0
40
1
40
1
40
1
40
1
41
1
10
10.1918380368757
20
-0.859093572821877
30
0
41
1
10
10.1651293864646
20
-0.868408307668005
30
0
41
1
10
10.1384207360536
20
-0.877518570583874
30
0
41
1
10
10.1117120856425
20
-0.886416139648787
30
0
0
SPLINE
5
E9
100
AcDbEntity
8
1
62
256
6
ByLayer
370
13
48
1
60
0
100
AcDbSpline
70
4
71
3
72
18
73
14
40
0
40
0
40
0
40
0
40
0.0167579749787733
40
0.115926602646091
40
0.215095230313409
40
0.314263857980726
40
0.413432485648044
40
0.512601113315362
40
0.611769740982679
40
0.710938368649997
40
0.810106996317315
40
0.909275623984632
40
1
40
1
40
1
40
1
41
1
10
16.5844923206712
20
-1.31867921450464
30
0
41
1
10
16.5563282137808
20
-1.31921835285362
30
0
41
1
10
16.3614974402237
20
-1.32057327157946
30
0
41
1
10
16
20
-1.29248244476946
30
0
41
1
10
15.5
20
-1.18420283574753
30
0
41
1
10
15
20
-1.01151787355968
30
0
41
1
10
14.4999999999999
20
-0.783119649489833
30
0
41
1
10
13.9999999999999
20
-0.512970390849517
30
0
41
1
10
13.5
20
-0.215038704412535
30
0
41
1
10
13
20
0.093966870573837
30
0
41
1
10
12.4999999999999
20
0.399850582272478
30
0
41
1
10
12.0141917389443
20
0.674834197017276
30
0
41
1
10
11.6950501445554
20
0.832013956429819
30
0
41
1
10
11.5425752168331
20
0.900480052598255
30
0
0
SPLINE
5
EA
100
AcDbEntity
8
1
62
256
6
ByLayer
370
13
48
1
60
0
100
AcDbSpline
70
4
71
3
72
10
73
6
40
0
40
0
40
0
40
0
40
0.474059949262727
40
0.739885716077293
40
1
40
1
40
1
40
1
41
1
10
17.8916741874639
20
-0.155425074785171
30
0
41
1
10
17.5944494583093
20
0.0259368563699809
30
0
41
1
10
17.130558062488
20
0.31814985943646
30
0
41
1
10
16.5035809689433
20
0.671675369650927
30
0
41
1
10
16.1738286045534
20
0.836403428757365
30
0
41
1
10
16.0107429068301
20
0.909349881449771
30
0
0
SPLINE
5
EB
100
AcDbEntity
8
1
62
256
6
ByLayer
370
18
48
1
60
0
100
AcDbSpline
70
4
71
3
72
11
73
7
40
0
40
0
40
0
40
0
40
0.115617674280156
40
0.336713255710117
40
0.557808837140078
40
1
40
1
40
1
40
1
41
1
10
12.2614653660929
20
-1.3360077352981
30
0
41
1
10
12.1743102440619
20
-1.34423611894184
30
0
41
1
10
11.9204884553643
20
-1.35853112464494
30
0
41
1
10
11.5000000000001
20
-1.33521934315186
30
0
41
1
10
10.8333333333334
20
-1.20148812030521
30
0
41
1
10
10.3333333333334
20
-1.00002551173367
30
0
41
1
10
10.0000000000001
20
-0.833947675203319
30
0
0
SPLINE
5
EC
100
AcDbEntity
8
1
62
256
6
ByLayer
370
18
48
1
60
0
100
AcDbSpline
70
4
71
3
72
34
73
30
40
0
40
0
40
0
40
0
40
0.0271979126387028
40
0.0271979126387028
40
0.108264753252148
40
0.108264753252148
40
0.189331593865594
40
0.189331593865594
40
0.229865014172316
40
0.229865014172316
40
0.270398434479039
40
0.270398434479039
40
0.351465275092479
40
0.351465275092479
40
0.43253211570592
40
0.43253211570592
40
0.513598956319361
40
0.513598956319361
40
0.594665796932801
40
0.594665796932801
40
0.635199217239522
40
0.635199217239522
40
0.675732637546242
40
0.675732637546242
40
0.756799478159683
40
0.756799478159683
40
0.837866318773123
40
0.837866318773123
40
1
40
1
40
1
40
1
41
1
10
13.0001978536476
20
-1.24789280686639
30
0
41
1
10
12.9731548312573
20
-1.25743869729817
30
0
41
1
10
12.9461159993935
20
-1.26669494581256
30
0
41
1
10
12.8384845201659
20
-1.3023697073132
30
0
41
1
10
12.7578956579805
20
-1.3264528126453
30
0
41
1
10
12.5964061999086
20
-1.36882861410055
30
0
41
1
10
12.5155008619917
20
-1.38709734100934
30
0
41
1
10
12.3935429874884
20
-1.41003046184795
30
0
41
1
10
12.3527831041088
20
-1.41693124848041
30
0
41
1
10
12.2710694289175
20
-1.42917880517936
30
0
41
1
10
12.2303202141027
20
-1.43449254222145
30
0
41
1
10
12.1083283355037
20
-1.44801212468252
30
0
41
1
10
12.0273234768136
20
-1.4538254575551
30
0
41
1
10
11.8655394818867
20
-1.45941902089646
30
0
41
1
10
11.7847758688548
20
-1.45919725942358
30
0
41
1
10
11.6233039438301
20
-1.45273624307808
30
0
41
1
10
11.5426022942898
20
-1.44648178009538
30
0
41
1
10
11.3810443006782
20
-1.42765538296138
30
0
41
1
10
11.3001932669507
20
-1.41502338540977
30
0
41
1
10
11.1784831193052
20
-1.39140800519945
30
0
41
1
10
11.1378390721121
20
-1.38277079374467
30
0
41
1
10
11.0563552631344
20
-1.36396640282374
30
0
41
1
10
11.0154548787582
20
-1.35377752870491
30
0
41
1
10
10.8931029240118
20
-1.32104920966987
30
0
41
1
10
10.8118699407011
20
-1.2963044800261
30
0
41
1
10
10.6496172725195
20
-1.2416577826362
30
0
41
1
10
10.5686035534525
20
-1.21174790961803
30
0
41
1
10
10.3254862193912
20
-1.11454073513144
30
0
41
1
10
10.1633143000519
20
-1.03983967625257
30
0
41
1
10
10.0000000000001
20
-0.955077719716286
30
0
0
SPLINE
5
ED
100
AcDbEntity
8
1
62
256
6
ByLayer
370
18
48
1
60
0
100
AcDbSpline
70
4
71
3
72
12
73
8
40
0
40
0
40
0
40
0
40
0.0640146179308557
40
0.0640146179308557
40
0.532007308965428
40
0.532007308965428
40
1
40
1
40
1
40
1
41
1
10
17.9773620390988
20
-0.706172565985867
30
0
41
1
10
17.9776548356664
20
-0.705455872983435
30
0
41
1
10
17.9779360969011
20
-0.70474146669153
30
0
41
1
10
17.9801784475731
20
-0.698822195077526
30
0
41
1
10
17.9815224868646
20
-0.693708087630199
30
0
41
1
10
17.9828513067514
20
-0.683842822864278
30
0
41
1
10
17.9828485627648
20
-0.679104146916245
30
0
41
1
10
17.9821490335699
20
-0.674550871659733
30
0
0
SPLINE
5
EE
100
AcDbEntity
8
1
62
256
6
ByLayer
370
13
48
1
60
0
100
AcDbSpline
70
4
71
3
72
13
73
9
40
0
40
0
40
0
40
0
40
0.31672162311853
40
0.475082434677794
40
0.633443246237059
40
0.791804057796324
40
0.950164869355589
40
1
40
1
40
1
40
1
41
1
10
10
20
0.34656291109772
30
0
41
1
10
10.3333333333333
20
0.259585400455421
30
0
41
1
10
10.8333333333333
20
0.110199612181958
30
0
41
1
10
11.5
20
-0.0979852659494043
30
0
41
1
10
12
20
-0.24779997349566
30
0
41
1
10
12.5
20
-0.382623937982686
30
0
41
1
10
12.8857822632525
20
-0.471998950774349
30
0
41
1
10
13.1048978598382
20
-0.515135689169909
30
0
41
1
10
13.1573467897573
20
-0.524990704847113
30
0
0
SPLINE
5
EF
100
AcDbEntity
8
1
62
256
6
ByLayer
370
18
48
1
60
0
100
AcDbSpline
70
4
71
3
72
10
73
6
40
0
40
0
40
0
40
0
40
0.927909660145532
40
0.927909660145532
40
1
40
1
40
1
40
1
41
1
10
17.9821490335721
20
-0.674550871672153
30
0
41
1
10
17.9803438505041
20
-0.662800832565949
30
0
41
1
10
17.9787601729919
20
-0.649736551282444
30
0
41
1
10
17.9772955487957
20
-0.634220911163368
30
0
41
1
10
17.977191305742
20
-0.633093772723328
30
0
41
1
10
17.9770884184456
20
-0.631958235923975
30
0
0
SPLINE
5
F0
100
AcDbEntity
8
1
62
256
6
ByLayer
370
18
48
1
60
0
100
AcDbSpline
70
4
71
3
72
8
73
4
40
0
40
0
40
0
40
0
40
1
40
1
40
1
40
1
41
1
10
17.9716186464111
20
-0.502916774553768
30
0
41
1
10
17.9715504236163
20
-0.493966102218678
30
0
41
1
10
17.9715291460949
20
-0.484816441728697
30
0
41
1
10
17.9715542999089
20
-0.475469971526621
30
0
0
SPLINE
5
F1
100
AcDbEntity
8
1
62
256
6
ByLayer
370
13
48
1
60
0
100
AcDbSpline
70
4
71
3
72
15
73
11
40
0
40
0
40
0
40
0
40
0.0497146323720872
40
0.18645772521697
40
0.323200818061853
40
0.459943910906736
40
0.596687003751619
40
0.733430096596502
40
0.870173189441385
40
1
40
1
40
1
40
1
41
1
10
13.3182188535531
20
0.587893779409626
30
0
41
1
10
13.3788125690354
20
0.579352500305902
30
0
41
1
10
13.6060729511844
20
0.544652176652591
30
0
41
1
10
14
20
0.468064892223651
30
0
41
1
10
14.5
20
0.347458003209482
30
0
41
1
10
15
20
0.206939739716148
30
0
41
1
10
15.5
20
0.0535813619357271
30
0
41
1
10
16
20
-0.101919569878049
30
0
41
1
10
16.4915702234723
20
-0.247290141419853
30
0
41
1
10
16.8164737802781
20
-0.335856593805659
30
0
41
1
10
16.9747106704172
20
-0.376032361333841
30
0
0
SPLINE
5
F2
100
AcDbEntity
8
1
62
256
6
ByLayer
370
18
48
1
60
0
100
AcDbSpline
70
4
71
3
72
22
73
18
40
0
40
0
40
0
40
0
40
0.125
40
0.125
40
0.25
40
0.25
40
0.375
40
0.375
40
0.5
40
0.5
40
0.625
40
0.625
40
0.75
40
0.75
40
0.875
40
0.875
40
1
40
1
40
1
40
1
41
1
10
16.9747106704171
20
-0.37603236133387
30
0
41
1
10
16.9758013781605
20
-0.367908495702011
30
0
41
1
10
16.9779706005371
20
-0.36016279415864
30
0
41
1
10
16.9843185874567
20
-0.345445785446685
30
0
41
1
10
16.988566316481
20
-0.338414872791617
30
0
41
1
10
16.9986897508255
20
-0.32576315379643
30
0
41
1
10
17.0045740909101
20
-0.320070500905558
30
0
41
1
10
17.0179738813875
20
-0.309923698488859
30
0
41
1
10
17.0253276460469
20
-0.305601986692864
30
0
41
1
10
17.041090901796
20
-0.298412153813416
30
0
41
1
10
17.0496206385194
20
-0.295508746901675
30
0
41
1
10
17.0672665782421
20
-0.291190477826149
30
0
41
1
10
17.0763862225268
20
-0.289752635327005
30
0
41
1
10
17.0952042323717
20
-0.288151314307953
30
0
41
1
10
17.1049042458382
20
-0.288001780447047
30
0
41
1
10
17.1242550518644
20
-0.288831021849432
30
0
41
1
10
17.1339855633292
20
-0.289801204869121
30
0
41
1
10
17.1437755456872
20
-0.29125669400068
30
0
0
SPLINE
5
F3
100
AcDbEntity
8
1
62
256
6
ByLayer
370
18
48
1
60
0
100
AcDbSpline
70
4
71
3
72
8
73
4
40
0
40
0
40
0
40
0
40
1
40
1
40
1
40
1
41
1
10
17.3510826438252
20
-0.324210152149618
30
0
41
1
10
17.2822235939719
20
-0.312444593525896
30
0
41
1
10
17.2130895803703
20
-0.301561699715876
30
0
41
1
10
17.1437755456873
20
-0.29125669400122
30
0
0
SPLINE
5
F4
100
AcDbEntity
8
1
62
256
6
ByLayer
370
18
48
1
60
0
100
AcDbSpline
70
4
71
3
72
12
73
8
40
0
40
0
40
0
40
0
40
0.25
40
0.25
40
0.5
40
0.5
40
1
40
1
40
1
40
1
41
1
10
17.9821490335704
20
-0.603506856766785
30
0
41
1
10
17.9803438505027
20
-0.588904610912522
30
0
41
1
10
17.9787601729907
20
-0.575510602304462
30
0
41
1
10
17.9760420951109
20
-0.551173238651501
30
0
41
1
10
17.9749054256918
20
-0.540194808059084
30
0
41
1
10
17.9722492424259
20
-0.511699798720144
30
0
41
1
10
17.9714424101541
20
-0.498307025163342
30
0
41
1
10
17.9715542999089
20
-0.490255182831135
30
0
0
SPLINE
5
F5
100
AcDbEntity
8
1
62
256
6
ByLayer
370
18
48
1
60
0
100
AcDbSpline
70
4
71
3
72
8
73
4
40
0
40
0
40
0
40
0
40
1
40
1
40
1
40
1
41
1
10
9.66560000305094
20
-0.842448785421823
30
0
41
1
10
9.69927132560696
20
-0.842986110536742
30
0
41
1
10
9.73298081346189
20
-0.843821002276059
30
0
41
1
10
9.76672819108322
20
-0.844951312381738
30
0
0
SPLINE
5
F6
100
AcDbEntity
8
1
62
256
6
ByLayer
370
18
48
1
60
0
100
AcDbSpline
70
4
71
3
72
9
73
5
40
0
40
0
40
0
40
0
40
0.5
40
1
40
1
40
1
40
1
41
1
10
10.0000000000001
20
-0.955077719716286
30
0
41
1
10
9.96078375606388
20
-0.937784682504343
30
0
41
1
10
9.88270281418681
20
-0.902093540393935
30
0
41
1
10
9.80526703407875
20
-0.864374363743053
30
0
41
1
10
9.7667283984724
20
-0.844951297805494
30
0
0
SPLINE
5
F7
100
AcDbEntity
8
1
62
256
6
ByLayer
370
18
48
1
60
0
100
AcDbSpline
70
4
71
3
72
18
73
14
40
0
40
0
40
0
40
0
40
0.249999999999997
40
0.249999999999997
40
0.374999999999994
40
0.374999999999994
40
0.499999999999992
40
0.499999999999992
40
0.749999999999996
40
0.749999999999996
40
0.874999999999998
40
0.874999999999998
40
1
40
1
40
1
40
1
41
1
10
9.62599799479506
20
1.45219998375558
30
0
41
1
10
9.62082565015979
20
1.4579545737146
30
0
41
1
10
9.61749686697718
20
1.4632246171914
30
0
41
1
10
9.6156395183603
20
1.47038329881894
30
0
41
1
10
9.6155445509346
20
1.47264505511348
30
0
41
1
10
9.61648784465933
20
1.47691535161414
30
0
41
1
10
9.61753943760095
20
1.47893402387464
30
0
41
1
10
9.62242520585482
20
1.48448915983005
30
0
41
1
10
9.62796095365763
20
1.48755434412757
30
0
41
1
10
9.63961541393104
20
1.49132886642667
30
0
41
1
10
9.64406000637189
20
1.49244960888683
30
0
41
1
10
9.65406913889291
20
1.49443653577893
30
0
41
1
10
9.65961604826052
20
1.49529728452467
30
0
41
1
10
9.66560000306777
20
1.49603136745378
30
0
0
SPLINE
5
F8
100
AcDbEntity
8
1
62
256
6
ByLayer
370
18
48
1
60
0
100
AcDbSpline
70
4
71
3
72
10
73
6
40
0
40
0
40
0
40
0
40
0.5
40
0.5
40
1
40
1
40
1
40
1
41
1
10
9.08470716968122
20
-1.43655047613561
30
0
41
1
10
9.01155823684695
20
-1.46846154761198
30
0
41
1
10
8.93989797741037
20
-1.48807993281213
30
0
41
1
10
8.79149051594953
20
-1.50385155138906
30
0
41
1
10
8.7148234698183
20
-1.49997394769389
30
0
41
1
10
8.6314118452807
20
-1.48574652812306
30
0
0
SPLINE
5
F9
100
AcDbEntity
8
1
62
256
6
ByLayer
370
18
48
1
60
0
100
AcDbSpline
70
4
71
3
72
20
73
16
40
0
40
0
40
0
40
0
40
0.24999999999996
40
0.24999999999996
40
0.374999999999967
40
0.374999999999967
40
0.499999999999974
40
0.499999999999974
40
0.62499999999998
40
0.62499999999998
40
0.749999999999987
40
0.749999999999987
40
0.874999999999993
40
0.874999999999993
40
1
40
1
40
1
40
1
41
1
10
8.6314118452807
20
-1.48574652812306
30
0
41
1
10
8.62139236747123
20
-1.48403751795251
30
0
41
1
10
8.61238310392997
20
-1.48209460716623
30
0
41
1
10
8.60090193031024
20
-1.47869975948492
30
0
41
1
10
8.59741651269337
20
-1.47748744739386
30
0
41
1
10
8.59127421040193
20
-1.47486720267165
30
0
41
1
10
8.58865621286225
20
-1.47347277170647
30
0
41
1
10
8.58451090113476
20
-1.47053169605672
30
0
41
1
10
8.58297122660821
20
-1.46898022591213
30
0
41
1
10
8.58110899390505
20
-1.46569633336037
30
0
41
1
10
8.58080288875578
20
-1.46395870608649
30
0
41
1
10
8.58152530885803
20
-1.46043025619355
30
0
41
1
10
8.58253987153978
20
-1.45862401020278
30
0
41
1
10
8.58587883302351
20
-1.45493528442745
30
0
41
1
10
8.58822393302344
20
-1.45304141172858
30
0
41
1
10
8.59117441471244
20
-1.45115057457315
30
0
0
SPLINE
5
FA
100
AcDbEntity
8
1
62
256
6
ByLayer
370
18
48
1
60
0
100
AcDbSpline
70
4
71
3
72
18
73
14
40
0
40
0
40
0
40
0
40
0.249999999999999
40
0.249999999999999
40
0.375
40
0.375
40
0.499999999999999
40
0.499999999999999
40
0.749999999999988
40
0.749999999999988
40
0.874999999999994
40
0.874999999999994
40
1
40
1
40
1
40
1
41
1
10
9.62599799479506
20
-1.05142506835543
30
0
41
1
10
9.62082565015976
20
-1.03503667483776
30
0
41
1
10
9.61749686697715
20
-1.0182042392702
30
0
41
1
10
9.6156395183603
20
-0.992253659757495
30
0
41
1
10
9.61554455093454
20
-0.983486336833636
30
0
41
1
10
9.6164878446593
20
-0.965709354576973
30
0
41
1
10
9.6175394376009
20
-0.956645835636238
30
0
41
1
10
9.6224252058548
20
-0.929656045774294
30
0
41
1
10
9.62796095365763
20
-0.911843996340991
30
0
41
1
10
9.63961541393101
20
-0.885462983777671
30
0
41
1
10
9.64406000637186
20
-0.876725679736609
30
0
41
1
10
9.65406913889288
20
-0.859376348957994
30
0
41
1
10
9.65961604826049
20
-0.850803879536898
30
0
41
1
10
9.66560000306774
20
-0.842448785421936
30
0
0
SPLINE
5
FB
100
AcDbEntity
8
1
62
256
6
ByLayer
370
18
48
1
60
0
100
AcDbSpline
70
4
71
3
72
22
73
18
40
0
40
0
40
0
40
0
40
0.25000000000008
40
0.25000000000008
40
0.375000000000121
40
0.375000000000121
40
0.500000000000161
40
0.500000000000161
40
0.625000000000201
40
0.625000000000201
40
0.687500000000221
40
0.687500000000221
40
0.750000000000241
40
0.750000000000241
40
0.875000000000121
40
0.875000000000121
40
1
40
1
40
1
40
1
41
1
10
8.84129805118968
20
-0.251785588799606
30
0
41
1
10
8.83592213615589
20
-0.246140647162036
30
0
41
1
10
8.8307782053266
20
-0.240302376074794
30
0
41
1
10
8.8237498375949
20
-0.230976796681631
30
0
41
1
10
8.82151976611877
20
-0.227764466002554
30
0
41
1
10
8.8175004053507
20
-0.22110934761298
30
0
41
1
10
8.81568363760664
20
-0.217640906021558
30
0
41
1
10
8.81293695885344
20
-0.210352062997799
30
0
41
1
10
8.81197258352975
20
-0.206484631420949
30
0
41
1
10
8.81226318827282
20
-0.200652850504895
30
0
41
1
10
8.8126742760258
20
-0.198709281358589
30
0
41
1
10
8.81428542039578
20
-0.195136539889319
30
0
41
1
10
8.81547051588805
20
-0.19354512095461
30
0
41
1
10
8.81985017226393
20
-0.189547323771535
30
0
41
1
10
8.82358528817963
20
-0.188024475738018
30
0
41
1
10
8.83114518249201
20
-0.186084384361095
30
0
41
1
10
8.83508200112001
20
-0.185652430595553
30
0
41
1
10
8.83901361395553
20
-0.185494128925569
30
0
0
SPLINE
5
FC
100
AcDbEntity
8
1
62
256
6
ByLayer
370
18
48
1
60
0
100
AcDbSpline
70
4
71
3
72
20
73
16
40
0
40
0
40
0
40
0
40
0.250000000000002
40
0.250000000000002
40
0.375000000000003
40
0.375000000000003
40
0.500000000000004
40
0.500000000000004
40
0.625000000000003
40
0.625000000000003
40
0.750000000000002
40
0.750000000000002
40
0.875000000000001
40
0.875000000000001
40
1
40
1
40
1
40
1
41
1
10
8.63141184528047
20
0.921529192112558
30
0
41
1
10
8.62139236747103
20
0.931334097920228
30
0
41
1
10
8.61238310392974
20
0.941523003830326
30
0
41
1
10
8.60090193031004
20
0.957572752472942
30
0
41
1
10
8.59741651269317
20
0.963051513466354
30
0
41
1
10
8.59127421040171
20
0.9743215565355
30
0
41
1
10
8.58865621286202
20
0.980051713650198
30
0
41
1
10
8.58451090113456
20
0.991578652294095
30
0
41
1
10
8.58297122660804
20
0.997396490316646
30
0
41
1
10
8.58110899390485
20
1.0091589249362
30
0
41
1
10
8.58080288875556
20
1.01511462326636
30
0
41
1
10
8.58152530885783
20
1.02670206066713
30
0
41
1
10
8.58253987153955
20
1.03239106501934
30
0
41
1
10
8.58587883302329
20
1.04356479106474
30
0
41
1
10
8.58822393302324
20
1.0490805335011
30
0
41
1
10
8.59117441471224
20
1.05439363749994
30
0
0
SPLINE
5
FD
100
AcDbEntity
8
1
62
256
6
ByLayer
370
18
48
1
60
0
100
AcDbSpline
70
4
71
3
72
33
73
29
40
0
40
0
40
0
40
0
40
0.0624999999999915
40
0.0624999999999915
40
0.0937499999999871
40
0.0937499999999871
40
0.124999999999983
40
0.124999999999983
40
0.187499999999973
40
0.187499999999973
40
0.249999999999964
40
0.249999999999964
40
0.28124999999996
40
0.28124999999996
40
0.312499999999955
40
0.374999999999959
40
0.374999999999959
40
0.437499999999963
40
0.437499999999963
40
0.499999999999968
40
0.499999999999968
40
0.624999999999976
40
0.624999999999976
40
0.749999999999984
40
0.749999999999984
40
0.874999999999992
40
0.874999999999992
40
1
40
1
40
1
40
1
41
1
10
8.59117441471221
20
1.05439363749994
30
0
41
1
10
8.60203007250414
20
1.07394205192983
30
0
41
1
10
8.61608026026963
20
1.09151302403734
30
0
41
1
10
8.64072211320496
20
1.11573694108853
30
0
41
1
10
8.64953838029618
20
1.12345094110646
30
0
41
1
10
8.66824211957288
20
1.13824996135534
30
0
41
1
10
8.67813802328686
20
1.14533351657553
30
0
41
1
10
8.70871063402387
20
1.16541649946652
30
0
41
1
10
8.73043548748731
20
1.1774084059852
30
0
41
1
10
8.77589178565358
20
1.19938700667581
30
0
41
1
10
8.79962989411706
20
1.2093660885277
30
0
41
1
10
8.83645447147973
20
1.22317099207908
30
0
41
1
10
8.84894691854333
20
1.22758064814556
30
0
41
1
10
8.87415417586985
20
1.23600204020065
30
0
41
1
10
8.91234977786959
20
1.24805589616656
30
0
41
1
10
8.95158275716926
20
1.25859051453142
30
0
41
1
10
9.0046752423055
20
1.27155177921017
30
0
41
1
10
9.03164624237539
20
1.27749495444445
30
0
41
1
10
9.0861075664433
20
1.2884400615313
30
0
41
1
10
9.11358075699562
20
1.29343959772749
30
0
41
1
10
9.19665352522594
20
1.30723913720564
30
0
41
1
10
9.25298729981631
20
1.31486132658938
30
0
41
1
10
9.36660803176903
20
1.32757794508643
30
0
41
1
10
9.42398496144074
20
1.33267953961948
30
0
41
1
10
9.53941677064972
20
1.34071915587631
30
0
41
1
10
9.59731214866801
20
1.34364645000446
30
0
41
1
10
9.71346127733904
20
1.34747938723785
30
0
41
1
10
9.77171512318802
20
1.34838450642485
30
0
41
1
10
9.83015972516307
20
1.34823997960711
30
0
0
SPLINE
5
FE
100
AcDbEntity
8
1
62
256
6
ByLayer
370
18
48
1
60
0
100
AcDbSpline
70
4
71
2
72
6
73
3
40
0
40
0
40
0
40
1
40
1
40
1
41
0.500000532656203
10
9.83015972516405
20
1.34823997960717
30
0
41
0.499999467343797
10
9.91507507115136
20
1.34802999366634
30
0
41
0.500000532656203
10
9.99999999999998
20
1.34781973269798
30
0
0
SPLINE
5
FF
100
AcDbEntity
8
1
62
256
6
ByLayer
370
18
48
1
60
0
100
AcDbSpline
70
4
71
3
72
10
73
6
40
0
40
0
40
0
40
0
40
0.5
40
0.5
40
1
40
1
40
1
40
1
41
1
10
9.08470716968108
20
0.344454362331817
30
0
41
1
10
9.01155823684678
20
0.452382821264479
30
0
41
1
10
8.9398979774102
20
0.555901969700727
30
0
41
1
10
8.79149051594936
20
0.749644510382637
30
0
41
1
10
8.7148234698181
20
0.839903868177714
30
0
41
1
10
8.63141184528047
20
0.921529192112558
30
0
0
SPLINE
5
100
100
AcDbEntity
8
1
62
256
6
ByLayer
370
18
48
1
60
0
100
AcDbSpline
70
4
71
3
72
30
73
26
40
0
40
0
40
0
40
0
40
0.124999999999976
40
0.124999999999976
40
0.187499999999977
40
0.187499999999977
40
0.249999999999979
40
0.249999999999979
40
0.312499999999981
40
0.312499999999981
40
0.374999999999983
40
0.374999999999983
40
0.437499999999985
40
0.437499999999985
40
0.499999999999987
40
0.499999999999987
40
0.562499999999988
40
0.562499999999988
40
0.62499999999999
40
0.62499999999999
40
0.749999999999993
40
0.749999999999993
40
0.874999999999997
40
0.874999999999997
40
1
40
1
40
1
40
1
41
1
10
8.83901361395741
20
-0.185494128935147
30
0
41
1
10
8.86930846684575
20
-0.184274343053147
30
0
41
1
10
8.8993603807979
20
-0.18125271978019
30
0
41
1
10
8.94381780465653
20
-0.172107811457835
30
0
41
1
10
8.95855945614096
20
-0.168255593460486
30
0
41
1
10
8.98709507601396
20
-0.158642159293095
30
0
41
1
10
9.00096137612852
20
-0.152872975324669
30
0
41
1
10
9.02764747222753
20
-0.138818900468692
30
0
41
1
10
9.0405280813672
20
-0.130440636057443
30
0
41
1
10
9.06381371876378
20
-0.11135460653145
30
0
41
1
10
9.0743888365206
20
-0.100555364888294
30
0
41
1
10
9.09304381876368
20
-0.0764421458868298
30
0
41
1
10
9.10082785400331
20
-0.0635345709870307
30
0
41
1
10
9.11374382878091
20
-0.0362508693437178
30
0
41
1
10
9.11888293455007
20
-0.0217729368797563
30
0
41
1
10
9.12665132068412
20
0.0073748916930185
30
0
41
1
10
9.12935367022476
20
0.0221608800235913
30
0
41
1
10
9.13294938256627
20
0.0520557378510205
30
0
41
1
10
9.13383795200576
20
0.0672453208577792
30
0
41
1
10
9.13432355475365
20
0.112520430344404
30
0
41
1
10
9.1318452313659
20
0.142288865157212
30
0
41
1
10
9.12340640834483
20
0.201247157734031
30
0
41
1
10
9.11738876579827
20
0.230500043213397
30
0
41
1
10
9.10279496822298
20
0.28821650467134
30
0
41
1
10
9.09424823196792
20
0.31655443363772
30
0
41
1
10
9.08470716968108
20
0.344454362331817
30
0
0
SPLINE
5
101
100
AcDbEntity
8
1
62
256
6
ByLayer
370
18
48
1
60
0
100
AcDbSpline
70
4
71
3
72
12
73
8
40
0
40
0
40
0
40
0
40
0.5
40
0.5
40
0.75
40
0.75
40
1
40
1
40
1
40
1
41
1
10
17.9587525849794
20
-0.658904266891909
30
0
41
1
10
17.9678685854272
20
-0.652483151133112
30
0
41
1
10
17.9742608386957
20
-0.644322142067637
30
0
41
1
10
17.9801784475753
20
-0.630234740472702
30
0
41
1
10
17.9815224868664
20
-0.62518270431903
30
0
41
1
10
17.9828513067518
20
-0.614635376589803
30
0
41
1
10
17.9828485627648
20
-0.609165394931466
30
0
41
1
10
17.9821490335699
20
-0.603506856764255
30
0
0
SPLINE
5
102
100
AcDbEntity
8
1
62
256
6
ByLayer
370
13
48
1
60
0
100
AcDbSpline
70
4
71
3
72
8
73
4
40
0
40
0
40
0
40
0
40
1
40
1
40
1
40
1
41
1
10
17.9821490335726
20
-0.60350685677264
30
0
41
1
10
17.943344038331
20
-0.377168790168838
30
0
41
1
10
17.9045390430894
20
-0.150830723565036
30
0
41
1
10
17.8657340478477
20
0.0755073430387938
30
0
0
SPLINE
5
103
100
AcDbEntity
8
1
62
256
6
ByLayer
370
13
48
1
60
0
100
AcDbSpline
70
4
71
5
72
12
73
6
40
0
40
0
40
0
40
0
40
0
40
0
40
1
40
1
40
1
40
1
40
1
40
1
41
1
10
17.8658040925891
20
0.074843195414303
30
0
41
1
10
17.8657911171876
20
0.0749754454047888
30
0
41
1
10
17.8657776241855
20
0.0751079868024362
30
0
41
1
10
17.8657636142815
20
0.0752408180401858
30
0
41
1
10
17.8657490884219
20
0.0753739374150371
30
0
41
1
10
17.865734047842
20
0.0755073430666471
30
0
0
SPLINE
5
104
100
AcDbEntity
8
1
62
256
6
ByLayer
370
18
48
1
60
0
100
AcDbSpline
70
4
71
3
72
10
73
6
40
0
40
0
40
0
40
0
40
0.5
40
0.5
40
1
40
1
40
1
40
1
41
1
10
17.8658041431632
20
0.0748426800280697
30
0
41
1
10
17.8716793655572
20
0.037057434519852
30
0
41
1
10
17.8756581574592
20
-0.0011389525856771
30
0
41
1
10
17.883365691715
20
-0.0779911246532379
30
0
41
1
10
17.8870699297155
20
-0.11664841549981
30
0
41
1
10
17.8916741874635
20
-0.155425074784915
30
0
0
SPLINE
5
105
100
AcDbEntity
8
1
62
256
6
ByLayer
370
18
48
1
60
0
100
AcDbSpline
70
4
71
3
72
16
73
12
40
0
40
0
40
0
40
0
40
0.249999999999994
40
0.249999999999994
40
0.499999999999987
40
0.499999999999987
40
0.624999999999973
40
0.624999999999973
40
0.749999999999959
40
0.749999999999959
40
1
40
1
40
1
40
1
41
1
10
17.8916741874639
20
-0.1554250747852
30
0
41
1
10
17.8923325621838
20
-0.160969044142547
30
0
41
1
10
17.8928061469595
20
-0.166480575263677
30
0
41
1
10
17.8932688735395
20
-0.1774326587323
30
0
41
1
10
17.8932531249361
20
-0.182968344639988
30
0
41
1
10
17.8926685155769
20
-0.190743717411181
30
0
41
1
10
17.8923816683443
20
-0.193251270341051
30
0
41
1
10
17.8915811859945
20
-0.198075447525866
30
0
41
1
10
17.8910663129832
20
-0.200377065427887
30
0
41
1
10
17.889192048982
20
-0.206673147111644
30
0
41
1
10
17.8874492861328
20
-0.210206467368977
30
0
41
1
10
17.8852521075828
20
-0.212805637312954
30
0
0
SPLINE
5
106
100
AcDbEntity
8
1
62
256
6
ByLayer
370
13
48
1
60
0
100
AcDbSpline
70
4
71
3
72
8
73
4
40
0
40
0
40
0
40
0
40
1
40
1
40
1
40
1
41
1
10
17.7891646939278
20
-0.618305613955783
30
0
41
1
10
17.7798473925542
20
-0.563960549209895
30
0
41
1
10
17.7705300911806
20
-0.509615484464035
30
0
41
1
10
17.761212789807
20
-0.455270419718147
30
0
0
SPLINE
5
107
100
AcDbEntity
8
1
62
256
6
ByLayer
370
18
48
1
60
0
100
AcDbSpline
70
4
71
3
72
8
73
4
40
0
40
0
40
0
40
0
40
1
40
1
40
1
40
1
41
1
10
16.9485088573311
20
-1.31115135647215
30
0
41
1
10
16.8191414909227
20
-1.33090116598831
30
0
41
1
10
16.6897741245143
20
-1.34343005949449
30
0
41
1
10
16.5604067581059
20
-1.34855395197758
30
0
0
SPLINE
5
108
100
AcDbEntity
8
1
62
256
6
ByLayer
370
13
48
1
60
0
100
AcDbSpline
70
4
71
3
72
18
73
14
40
0
40
0
40
0
40
0
40
0.0126925150361259
40
0.117751248813732
40
0.222809982591339
40
0.327868716368945
40
0.432927450146552
40
0.537986183924158
40
0.643044917701765
40
0.748103651479371
40
0.853162385256977
40
0.958221119034584
40
1
40
1
40
1
40
1
41
1
10
16.5604067581045
20
-1.34855395197761
30
0
41
1
10
16.5402711720697
20
-1.34935146823531
30
0
41
1
10
16.3534689193683
20
-1.35508593838097
30
0
41
1
10
16.0000000000001
20
-1.3366085038617
30
0
41
1
10
15.5000000000001
20
-1.23857214063264
30
0
41
1
10
15.0000000000001
20
-1.07321740102515
30
0
41
1
10
14.5000000000001
20
-0.848789942091031
30
0
41
1
10
14.0000000000001
20
-0.579059791548531
30
0
41
1
10
13.5000000000001
20
-0.277942247270659
30
0
41
1
10
13.0000000000001
20
0.037607546275467
30
0
41
1
10
12.5000000000001
20
0.353163555145073
30
0
41
1
10
12.100388056815
20
0.589087920838836
30
0
41
1
10
11.8674427802965
20
0.714715210252933
30
0
41
1
10
11.8011641704447
20
0.749383950684546
30
0
0
SPLINE
5
109
100
AcDbEntity
8
1
62
256
6
ByLayer
370
18
48
1
60
0
100
AcDbSpline
70
4
71
3
72
8
73
4
40
0
40
0
40
0
40
0
40
1
40
1
40
1
40
1
41
1
10
11.8011641704107
20
0.749383950702367
30
0
41
1
10
11.7917593610231
20
0.75430337940179
30
0
41
1
10
11.7823545516355
20
0.759201157140495
30
0
41
1
10
11.772949742248
20
0.764076964067954
30
0
0
SPLINE
5
10A
100
AcDbEntity
8
1
62
256
6
ByLayer
370
18
48
1
60
0
100
AcDbSpline
70
4
71
3
72
9
73
5
40
0
40
0
40
0
40
0
40
0.5
40
1
40
1
40
1
40
1
41
1
10
10.0000000000001
20
1.43274849269983
30
0
41
1
10
9.96078068779877
20
1.43696643051973
30
0
41
1
10
9.88269685422142
20
1.44437566074637
30
0
41
1
10
9.80526399855026
20
1.44990117969806
30
0
41
1
10
9.766728398429
20
1.45214068453856
30
0
0
SPLINE
5
10B
100
AcDbEntity
8
1
62
256
6
ByLayer
370
18
48
1
60
0
100
AcDbSpline
70
4
71
3
72
19
73
15
40
0
40
0
40
0
40
0
40
0.0829911957191479
40
0.166027613929202
40
0.249114750623523
40
0.332257912568453
40
0.415462224497655
40
0.498732635956323
40
0.582073927806294
40
0.665490718403888
40
0.748987471815426
40
0.83256851834652
40
0.916238028831179
40
1
40
1
40
1
40
1
41
1
10
9.76672840129365
20
1.45214068490878
30
0
41
1
10
9.7626716324333
20
1.45164951037813
30
0
41
1
10
9.75455588415042
20
1.45066689367235
30
0
41
1
10
9.74249546521463
20
1.44952714232474
30
0
41
1
10
9.73051414021114
20
1.44862830398597
30
0
41
1
10
9.71862027026333
20
1.44799210289537
30
0
41
1
10
9.7068116436111
20
1.44760952069566
30
0
41
1
10
9.69508890465849
20
1.44747982295314
30
0
41
1
10
9.68345188304147
20
1.44759992951845
30
0
41
1
10
9.67190083476834
20
1.44796786976804
30
0
41
1
10
9.66043514807239
20
1.44857959650369
30
0
41
1
10
9.64905728426044
20
1.44943828064103
30
0
41
1
10
9.63775832560049
20
1.45052024833205
30
0
41
1
10
9.63030491623155
20
1.45144097825136
30
0
41
1
10
9.62657615354902
20
1.45190159743837
30
0
0
SPLINE
5
10C
100
AcDbEntity
8
1
62
256
6
ByLayer
370
13
48
1
60
0
100
AcDbSpline
70
4
71
3
72
11
73
7
40
0
40
0
40
0
40
0
40
0.0096724363963916
40
0.257254327297294
40
0.504836218198196
40
1
40
1
40
1
40
1
41
1
10
12.0195338123503
20
0.258945345367863
30
0
41
1
10
12.0130225415668
20
0.263096122602804
30
0
41
1
10
11.8398446041168
20
0.373389565239961
30
0
41
1
10
11.5
20
0.584191864663467
30
0
41
1
10
10.8333333333333
20
0.957120502781635
30
0
41
1
10
10.3333333333333
20
1.16998967470363
30
0
41
1
10
9.99999999999997
20
1.26290779486717
30
0
0
SPLINE
5
10D
100
AcDbEntity
8
1
62
256
6
ByLayer
370
18
48
1
60
0
100
AcDbSpline
70
4
71
3
72
8
73
4
40
0
40
0
40
0
40
0
40
1
40
1
40
1
40
1
41
1
10
17.7534104598825
20
-0.457786134437498
30
0
41
1
10
17.7602081109949
20
-0.495900221124657
30
0
41
1
10
17.7669645200474
20
-0.533961879000003
30
0
41
1
10
17.7736804013401
20
-0.571972016114955
30
0
0
SPLINE
5
10E
100
AcDbEntity
8
1
62
256
6
ByLayer
370
18
48
1
60
0
100
AcDbSpline
70
4
71
3
72
12
73
8
40
0
40
0
40
0
40
0
40
0.333390429696912
40
0.333390429696912
40
0.666491210105358
40
0.666491210105358
40
1
40
1
40
1
40
1
41
1
10
17.7534104598825
20
-0.457786134437527
30
0
41
1
10
17.7542901129032
20
-0.457550305389134
30
0
41
1
10
17.755166311746
20
-0.457300174850076
30
0
41
1
10
17.7569093079549
20
-0.456771006965312
30
0
41
1
10
17.7577763643992
20
-0.45649191748538
30
0
41
1
10
17.7595015941886
20
-0.455903779296136
30
0
41
1
10
17.7603600199252
20
-0.455594603049093
30
0
41
1
10
17.761212789807
20
-0.455270419718147
30
0
0
SPLINE
5
10F
100
AcDbEntity
8
1
62
256
6
ByLayer
370
18
48
1
60
0
100
AcDbSpline
70
4
71
3
72
22
73
18
40
0
40
0
40
0
40
0
40
0.0312499999999952
40
0.0312499999999952
40
0.0624999999999903
40
0.0624999999999903
40
0.124999999999981
40
0.124999999999981
40
0.249999999999985
40
0.249999999999985
40
0.374999999999988
40
0.374999999999988
40
0.499999999999992
40
0.499999999999992
40
0.749999999999996
40
0.749999999999996
40
1
40
1
40
1
40
1
41
1
10
17.761212789807
20
-0.455270419718118
30
0
41
1
10
17.7635314285165
20
-0.454388981435102
30
0
41
1
10
17.765419300577
20
-0.452710895858161
30
0
41
1
10
17.7684758102646
20
-0.448918830060819
30
0
41
1
10
17.7696947069462
20
-0.446766501348009
30
0
41
1
10
17.7727913506167
20
-0.440222829834056
30
0
41
1
10
17.7742083942629
20
-0.435606052989442
30
0
41
1
10
17.7777734520402
20
-0.421584709320541
30
0
41
1
10
17.7791512170396
20
-0.412147250491586
30
0
41
1
10
17.781349149868
20
-0.393221931444316
30
0
41
1
10
17.782100401754
20
-0.383727814492431
30
0
41
1
10
17.7832559182742
20
-0.364707444186308
30
0
41
1
10
17.783651846803
20
-0.355176061292241
30
0
41
1
10
17.784505327561
20
-0.326592396575506
30
0
41
1
10
17.7846374427233
20
-0.30754229325666
30
0
41
1
10
17.7844831431645
20
-0.269442367493298
30
0
41
1
10
17.7841852696647
20
-0.250392792119754
30
0
41
1
10
17.7837561148911
20
-0.231341212837634
30
0
0
SPLINE
5
110
100
AcDbEntity
8
1
62
256
6
ByLayer
370
18
48
1
60
0
100
AcDbSpline
70
4
71
3
72
16
73
12
40
0
40
0
40
0
40
0
40
0.250000000000048
40
0.250000000000048
40
0.500000000000097
40
0.500000000000097
40
0.625000000000073
40
0.625000000000073
40
0.750000000000048
40
0.750000000000048
40
1
40
1
40
1
40
1
41
1
10
17.8852521075876
20
-0.212805637314517
30
0
41
1
10
17.8802434289871
20
-0.218741397007108
30
0
41
1
10
17.8742640391297
20
-0.223690996873359
30
0
41
1
10
17.8602888706059
20
-0.231484340450351
30
0
41
1
10
17.8522025298225
20
-0.234322976806197
30
0
41
1
10
17.8391096061618
20
-0.236690785801102
30
0
41
1
10
17.834565635311
20
-0.237179180874023
30
0
41
1
10
17.8251192715507
20
-0.237559715522167
30
0
41
1
10
17.8201950119571
20
-0.237449667082416
30
0
41
1
10
17.8050275667343
20
-0.236236470575733
30
0
41
1
10
17.7945587766248
20
-0.234289067631323
30
0
41
1
10
17.7837561148841
20
-0.231341212852215
30
0
0
SPLINE
5
111
100
AcDbEntity
8
1
62
256
6
ByLayer
370
13
48
1
60
0
100
AcDbSpline
70
4
71
3
72
10
73
6
40
0
40
0
40
0
40
0
40
0.554789386123221
40
0.868140453784246
40
1
40
1
40
1
40
1
41
1
10
17.8852521075873
20
-0.212805637315682
30
0
41
1
10
17.5901680717249
20
-0.0293999037678532
30
0
41
1
10
17.1284173691958
20
0.269274216673949
30
0
41
1
10
16.5965325796825
20
0.582018956930057
30
0
41
1
10
16.3597318260315
20
0.710990361693234
30
0
41
1
10
16.2895977390472
20
0.748010646166591
30
0
0
SPLINE
5
112
100
AcDbEntity
8
1
62
256
6
ByLayer
370
13
48
1
60
0
100
AcDbSpline
70
4
71
3
72
17
73
13
40
0
40
0
40
0
40
0
40
0.0993021534405276
40
0.209925895551475
40
0.320549637662421
40
0.431173379773368
40
0.541797121884315
40
0.652420863995262
40
0.763044606106209
40
0.873668348217156
40
0.984292090328103
40
1
40
1
40
1
40
1
41
1
10
16.4488283959014
20
0.297019321065164
30
0
41
1
10
16.2992189306008
20
0.392204143220823
30
0
41
1
10
15.9829427986338
20
0.588604181058656
30
0
41
1
10
15.5
20
0.857919523570502
30
0
41
1
10
15
20
1.0917230382662
30
0
41
1
10
14.4999999999999
20
1.26909151647314
30
0
41
1
10
14
20
1.37824014589421
30
0
41
1
10
13.5
20
1.406858238708
30
0
41
1
10
13
20
1.36019991778483
30
0
41
1
10
12.5
20
1.24329978499125
30
0
41
1
10
12.1430009969346
20
1.11287734896081
30
0
41
1
10
11.952668660536
20
1.02998111729843
30
0
41
1
10
11.9290029908039
20
1.01947550792778
30
0
0
SPLINE
5
113
100
AcDbEntity
8
1
62
256
6
ByLayer
370
18
48
1
60
0
100
AcDbSpline
70
4
71
3
72
8
73
4
40
0
40
0
40
0
40
0
40
1
40
1
40
1
40
1
41
1
10
17.7736804013339
20
-0.571972016116234
30
0
41
1
10
17.7757941115729
20
-0.585625473240668
30
0
41
1
10
17.7779012970902
20
-0.599263705712787
30
0
41
1
10
17.7800019662607
20
-0.612886530772101
30
0
0
SPLINE
5
114
100
AcDbEntity
8
1
62
256
6
ByLayer
370
18
48
1
60
0
100
AcDbSpline
70
4
71
3
72
12
73
8
40
0
40
0
40
0
40
0
40
0.250766552858911
40
0.250766552858911
40
0.501533105718202
40
0.501533105718202
40
1
40
1
40
1
40
1
41
1
10
17.7891646939278
20
-0.618305613955783
30
0
41
1
10
17.7883988317452
20
-0.617852986477658
30
0
41
1
10
17.7876329596813
20
-0.617400271387453
30
0
41
1
10
17.7861011957281
20
-0.61649466676559
30
0
41
1
10
17.7853353037921
20
-0.616041777188684
30
0
41
1
10
17.783046963164
20
-0.614688386584902
30
0
41
1
10
17.7815244846906
20
-0.61378762893176
30
0
41
1
10
17.7800019662608
20
-0.612886530772101
30
0
0
SPLINE
5
115
100
AcDbEntity
8
1
62
256
6
ByLayer
370
18
48
1
60
0
100
AcDbSpline
70
4
71
3
72
14
73
10
40
0
40
0
40
0
40
0
40
0.265639446925219
40
0.265639446925219
40
0.398459170387835
40
0.398459170387835
40
0.531278893850452
40
0.531278893850452
40
1
40
1
40
1
40
1
41
1
10
10.0000000000001
20
-1.24410285588178
30
0
41
1
10
10.0819839738009
20
-1.27616225403313
30
0
41
1
10
10.1638156037564
20
-1.3053920354734
30
0
41
1
10
10.2865543379171
20
-1.34492046169666
30
0
41
1
10
10.3274661123847
20
-1.35737578379118
30
0
41
1
10
10.409328608113
20
-1.38081749742315
30
0
41
1
10
10.4503265356859
20
-1.39181468424741
30
0
41
1
10
10.6354120307286
20
-1.43802517644863
30
0
41
1
10
10.778266584047
20
-1.4642322777303
30
0
41
1
10
10.9208288558665
20
-1.48043549074023
30
0
0
SPLINE
5
116
100
AcDbEntity
8
1
62
256
6
ByLayer
370
18
48
1
60
0
100
AcDbSpline
70
4
71
3
72
10
73
6
40
0
40
0
40
0
40
0
40
0.0333100388442977
40
0.0333100388442977
40
1
40
1
40
1
40
1
41
1
10
10.9666301986345
20
-1.48529756272441
30
0
41
1
10
10.9703858950672
20
-1.48566803614949
30
0
41
1
10
10.9741414682486
20
-1.48603154662058
30
0
41
1
10
11.0868843433616
20
-1.49673534044641
30
0
41
1
10
11.1957941895404
20
-1.50121424738006
30
0
41
1
10
11.3050811536729
20
-1.49981717152343
30
0
0
SPLINE
5
117
100
AcDbEntity
8
1
62
256
6
ByLayer
370
18
48
1
60
0
100
AcDbSpline
70
4
71
3
72
18
73
14
40
0
40
0
40
0
40
0
40
0.0290475060621556
40
0.0290475060621556
40
0.190872921718449
40
0.190872921718449
40
0.271785629546601
40
0.271785629546601
40
0.352698337374752
40
0.352698337374752
40
0.676349168687376
40
0.676349168687376
40
1
40
1
40
1
40
1
41
1
10
16.2936921681428
20
1.04799703450848
30
0
41
1
10
16.308223285996
20
1.05525840251454
30
0
41
1
10
16.3227563302175
20
1.06245162406785
30
0
41
1
10
16.418271664716
20
1.10926541179478
30
0
41
1
10
16.4993424353062
20
1.14680077205435
30
0
41
1
10
16.6213628817064
20
1.19950336262366
30
0
41
1
10
16.6621058275218
20
1.21647070095858
30
0
41
1
10
16.7437811663806
20
1.24914210686705
30
0
41
1
10
16.7847805368412
20
1.26486913427476
30
0
41
1
10
16.9890558551086
20
1.33971289480056
30
0
41
1
10
17.150842008924
20
1.38772793971742
30
0
41
1
10
17.4742569655185
20
1.45926863870398
30
0
41
1
10
17.635892938343
20
1.48275281898154
30
0
41
1
10
17.7987248638523
20
1.49339875220468
30
0
0
SPLINE
5
118
100
AcDbEntity
8
1
62
256
6
ByLayer
370
18
48
1
60
0
100
AcDbSpline
70
4
71
3
72
78
73
74
40
0
40
0
40
0
40
0
40
0.0124656420080984
40
0.0124656420080984
40
0.0286547298440322
40
0.0286547298440322
40
0.0610329055159015
40
0.0610329055159015
40
0.0934110811877708
40
0.0934110811877708
40
0.12578925685964
40
0.12578925685964
40
0.15816743253151
40
0.15816743253151
40
0.174356520367443
40
0.174356520367443
40
0.190545608203377
40
0.190545608203377
40
0.222923783875244
40
0.222923783875244
40
0.287680135218977
40
0.287680135218977
40
0.320058310890845
40
0.320058310890845
40
0.336247398726778
40
0.336247398726778
40
0.35243648656271
40
0.35243648656271
40
0.384814662234578
40
0.384814662234578
40
0.417192837906445
40
0.417192837906445
40
0.433381925742378
40
0.433381925742378
40
0.449571013578311
40
0.449571013578311
40
0.481949189250176
40
0.481949189250176
40
0.514327364922042
40
0.514327364922042
40
0.530516452757975
40
0.530516452757975
40
0.546705540593907
40
0.546705540593907
40
0.579083716265773
40
0.579083716265773
40
0.611461891937638
40
0.611461891937638
40
0.643840067609504
40
0.643840067609504
40
0.676218243281369
40
0.676218243281369
40
0.692407331117302
40
0.692407331117302
40
0.708596418953235
40
0.708596418953235
40
0.740974594625099
40
0.740974594625099
40
0.773352770296962
40
0.773352770296962
40
0.805730945968826
40
0.805730945968826
40
0.838109121640689
40
0.838109121640689
40
0.85429820947662
40
0.85429820947662
40
0.870487297312551
40
0.870487297312551
40
0.902865472984413
40
0.902865472984413
40
0.935243648656275
40
0.935243648656275
40
1
40
1
40
1
40
1
41
1
10
17.5109229328095
20
-1.23955108081319
30
0
41
1
10
17.4795027760796
20
-1.25083854746174
30
0
41
1
10
17.4480647259454
20
-1.26173454814798
30
0
41
1
10
17.3757296085789
20
-1.28586314537401
30
0
41
1
10
17.3349028083108
20
-1.2987896140859
30
0
41
1
10
17.2127390788528
20
-1.335351820254
30
0
41
1
10
17.1315958848643
20
-1.35682991585958
30
0
41
1
10
16.9695842503229
20
-1.39370023355977
30
0
41
1
10
16.8887088006419
20
-1.40905689470441
30
0
41
1
10
16.7269857623729
20
-1.43366609567099
30
0
41
1
10
16.6461401428295
20
-1.44292691016204
30
0
41
1
10
16.4842523399892
20
-1.45541774169507
30
0
41
1
10
16.4032300309732
20
-1.45865927104737
30
0
41
1
10
16.281258868515
20
-1.45879819996622
30
0
41
1
10
16.2405266294392
20
-1.45805689173284
30
0
41
1
10
16.1588481525434
20
-1.45496122947276
30
0
41
1
10
16.1180773920823
20
-1.4526125352067
30
0
41
1
10
15.9960583939728
20
-1.44320180071506
30
0
41
1
10
15.9149992258689
20
-1.43378320931129
30
0
41
1
10
15.6722631473103
20
-1.39652932499325
30
0
41
1
10
15.511104719376
20
-1.35972934358139
30
0
41
1
10
15.2688496385745
20
-1.28749026800529
30
0
41
1
10
15.1879984316499
20
-1.26056500242657
30
0
41
1
10
15.0663054861787
20
-1.21602377818266
30
0
41
1
10
15.0256715280635
20
-1.20048473946798
30
0
41
1
10
14.9442171154028
20
-1.16804231937047
30
0
41
1
10
14.9033235723316
20
-1.15110700135585
30
0
41
1
10
14.7809092720084
20
-1.0985525255183
30
0
41
1
10
14.6997143962899
20
-1.06121711940844
30
0
41
1
10
14.5377634505895
20
-0.982481423953146
30
0
41
1
10
14.4570010111209
20
-0.941101616064202
30
0
41
1
10
14.3360354244562
20
-0.876039766923782
30
0
41
1
10
14.2957432923592
20
-0.853851847817424
30
0
41
1
10
14.215139344717
20
-0.808650648808339
30
0
41
1
10
14.1748319377783
20
-0.785625228878871
30
0
41
1
10
14.0538600418712
20
-0.715249407667642
30
0
41
1
10
13.9731236798637
20
-0.66665789932091
30
0
41
1
10
13.8110775240534
20
-0.566824975027089
30
0
41
1
10
13.7297863371011
20
-0.515545529930193
30
0
41
1
10
13.6072499448373
20
-0.436640934719861
30
0
41
1
10
13.566316089178
20
-0.410010644967429
30
0
41
1
10
13.4848301631586
20
-0.356498234302791
30
0
41
1
10
13.4442047191156
20
-0.329564706815915
30
0
41
1
10
13.3225127197859
20
-0.248483454861059
30
0
41
1
10
13.2416696607199
20
-0.193996484891983
30
0
41
1
10
13.0802625600346
20
-0.0845904247503881
30
0
41
1
10
12.9996698313487
20
-0.0297143420761472
30
0
41
1
10
12.8384845201659
20
0.0800541688562646
30
0
41
1
10
12.7578956579805
20
0.134952198391232
30
0
41
1
10
12.5964061999086
20
0.244300985423394
30
0
41
1
10
12.5155008619917
20
0.298744741276891
30
0
41
1
10
12.3935429874884
20
0.379529102699507
30
0
41
1
10
12.3527831041088
20
0.40632125082314
30
0
41
1
10
12.2710694289175
20
0.459532324779929
30
0
41
1
10
12.2303202141027
20
0.485818529647474
30
0
41
1
10
12.1083283355036
20
0.563637005547548
30
0
41
1
10
12.0273234768136
20
0.614122354539091
30
0
41
1
10
11.8655394818867
20
0.711968504529921
30
0
41
1
10
11.7847758688532
20
0.759348292878428
30
0
41
1
10
11.6233039438285
20
0.850771323780862
30
0
41
1
10
11.5426022942899
20
0.894814586174306
30
0
41
1
10
11.3810443006783
20
0.97912254263764
30
0
41
1
10
11.3001932669508
20
1.01936009915337
30
0
41
1
10
11.1784831193052
20
1.07651103488405
30
0
41
1
10
11.1378390721121
20
1.09503193752997
30
0
41
1
10
11.0563552631344
20
1.13095358036168
30
0
41
1
10
11.0154548787582
20
1.14837670653051
30
0
41
1
10
10.8931029240118
20
1.1985567585397
30
0
41
1
10
10.8118699407011
20
1.22927744552973
30
0
41
1
10
10.6496172725196
20
1.28530945409335
30
0
41
1
10
10.5686035534525
20
1.31062134392033
30
0
41
1
10
10.3254862193912
20
1.37810827300282
30
0
41
1
10
10.1633143000519
20
1.41192914312202
30
0
41
1
10
10.0000000000001
20
1.43274849269983
30
0
0
SPLINE
5
119
100
AcDbEntity
8
1
62
256
6
ByLayer
370
18
48
1
60
0
100
AcDbSpline
70
4
71
3
72
44
73
40
40
0
40
0
40
0
40
0
40
0.0655737647348298
40
0.0655737647348298
40
0.0983606471022466
40
0.0983606471022466
40
0.131147529469663
40
0.131147529469663
40
0.196721294204497
40
0.196721294204497
40
0.262295058939331
40
0.262295058939331
40
0.327868823674164
40
0.327868823674164
40
0.393442588408998
40
0.393442588408998
40
0.426229470776414
40
0.426229470776414
40
0.459016353143831
40
0.459016353143831
40
0.524590117878669
40
0.524590117878669
40
0.655737647348344
40
0.655737647348344
40
0.721311412083181
40
0.721311412083181
40
0.754098294450598
40
0.754098294450598
40
0.786885176818015
40
0.786885176818015
40
0.852458941552852
40
0.852458941552852
40
0.91803270628769
40
0.91803270628769
40
0.950819588655108
40
0.950819588655108
40
0.983606471022527
40
0.983606471022527
40
1
40
1
40
1
40
1
41
1
10
17.783756114857
20
-0.231341212845734
30
0
41
1
10
17.7021509589612
20
-0.176553706306151
30
0
41
1
10
17.6206592591192
20
-0.121207155986269
30
0
41
1
10
17.4982809965553
20
-0.0378155983238173
30
0
41
1
10
17.4574640778998
20
-0.0099577897050835
30
0
41
1
10
17.3757296085789
20
0.0458007510518144
30
0
41
1
10
17.3349028083107
20
0.0736399279578279
30
0
41
1
10
17.2127390788528
20
0.156737460006553
30
0
41
1
10
17.1315958848642
20
0.211650939658597
30
0
41
1
10
16.9695842503228
20
0.31999143568865
30
0
41
1
10
16.8887088006418
20
0.373398385028651
30
0
41
1
10
16.7269857623728
20
0.478394087254003
30
0
41
1
10
16.6461401428294
20
0.529987956212381
30
0
41
1
10
16.4842523399891
20
0.631083276054454
30
0
41
1
10
16.4032300309731
20
0.680614482846238
30
0
41
1
10
16.2812588685149
20
0.752897614228317
30
0
41
1
10
16.2405266294391
20
0.776653306637684
30
0
41
1
10
16.1588481525433
20
0.823391766919173
30
0
41
1
10
16.1180773920822
20
0.846273260071598
30
0
41
1
10
15.9960583939727
20
0.913249687278409
30
0
41
1
10
15.9149992258688
20
0.955694196803535
30
0
41
1
10
15.6722631473102
20
1.07619063002926
30
0
41
1
10
15.5111047193759
20
1.14753953852357
30
0
41
1
10
15.2688496385744
20
1.23974691054838
30
0
41
1
10
15.1879984316498
20
1.26799030138406
30
0
41
1
10
15.0663054861786
20
1.30634342991991
30
0
41
1
10
15.0256715280634
20
1.31845896265955
30
0
41
1
10
14.9442171154028
20
1.3413033487808
30
0
41
1
10
14.9033235723315
20
1.35204931115544
30
0
41
1
10
14.7809092720083
20
1.3819826062624
30
0
41
1
10
14.6997143962897
20
1.39885763865647
30
0
41
1
10
14.5377634505894
20
1.42649486098122
30
0
41
1
10
14.4570010111209
20
1.43727843583628
30
0
41
1
10
14.3360354244561
20
1.448626027952
30
0
41
1
10
14.2957432923592
20
1.45160064365245
30
0
41
1
10
14.2151393447169
20
1.45606238635787
30
0
41
1
10
14.1748319377782
20
1.4575382714857
30
0
41
1
10
14.1143458818488
20
1.4585598975103
30
0
41
1
10
14.0941782641999
20
1.45870498384025
30
0
41
1
10
14.0740020212841
20
1.45865714119154
30
0
0
SPLINE
5
11A
100
AcDbEntity
8
1
62
256
6
ByLayer
370
18
48
1
60
0
100
AcDbSpline
70
4
71
3
72
8
73
4
40
0
40
0
40
0
40
0
40
1
40
1
40
1
40
1
41
1
10
17.7987248638517
20
-0.624945216638253
30
0
41
1
10
17.7957057611223
20
-0.622557411393615
30
0
41
1
10
17.7925528923795
20
-0.620308052195298
30
0
41
1
10
17.7891646939279
20
-0.618305613955783
30
0
0
SPLINE
5
11B
100
AcDbEntity
8
1
62
256
6
ByLayer
370
18
48
1
60
0
100
AcDbSpline
70
4
71
3
72
20
73
16
40
0
40
0
40
0
40
0
40
0.25
40
0.25
40
0.375
40
0.375
40
0.5
40
0.5
40
0.625
40
0.625
40
0.75
40
0.75
40
0.875
40
0.875
40
1
40
1
40
1
40
1
41
1
10
17.7987248638516
20
-0.624945216638253
30
0
41
1
10
17.8139447845428
20
-0.6342937600281
30
0
41
1
10
17.8290978690322
20
-0.642554046454734
30
0
41
1
10
17.8517995935273
20
-0.652921228205685
30
0
41
1
10
17.8593892846376
20
-0.656041388502274
30
0
41
1
10
17.8741733724622
20
-0.661354638782569
30
0
41
1
10
17.8814140164092
20
-0.663573040546765
30
0
41
1
10
17.8955741378814
20
-0.667033922248748
30
0
41
1
10
17.9025456736547
20
-0.668279480463951
30
0
41
1
10
17.9158715207218
20
-0.669608415973215
30
0
41
1
10
17.9221660885104
20
-0.669694703815537
30
0
41
1
10
17.9340146893122
20
-0.668692419070368
30
0
41
1
10
17.9395702490875
20
-0.667606000072482
30
0
41
1
10
17.9498859591651
20
-0.664174523135074
30
0
41
1
10
17.9545990324926
20
-0.661830649457784
30
0
41
1
10
17.9587525849794
20
-0.658904266891795
30
0
0
SPLINE
5
11C
100
AcDbEntity
8
1
62
256
6
ByLayer
370
18
48
1
60
0
100
AcDbSpline
70
4
71
3
72
8
73
4
40
0
40
0
40
0
40
0
40
1
40
1
40
1
40
1
41
1
10
10
20
-1.24103784745586
30
0
41
1
10
10
20
-1.24205951328165
30
0
41
1
10
10
20
-1.24308118275695
30
0
41
1
10
10
20
-1.24410285588178
30
0
0
SPLINE
5
11D
100
AcDbEntity
8
1
62
256
6
ByLayer
370
18
48
1
60
0
100
AcDbSpline
70
4
71
3
72
19
73
15
40
0
40
0
40
0
40
0
40
0.0829911957166932
40
0.166027613924118
40
0.249114750615757
40
0.332257912558217
40
0.41546222448537
40
0.498732635942577
40
0.582073927791875
40
0.665490718389812
40
0.748987471802773
40
0.83256851833659
40
0.916238028825413
40
1
40
1
40
1
40
1
41
1
10
9.76672840382685
20
-0.844951290617672
30
0
41
1
10
9.76267163489049
20
-0.850321188217407
30
0
41
1
10
9.75455588645562
20
-0.861063909512154
30
0
41
1
10
9.74249546729553
20
-0.877432895420071
30
0
41
1
10
9.73051414207052
20
-0.893988999227702
30
0
41
1
10
9.71862027190417
20
-0.910747136264121
30
0
41
1
10
9.7068116450364
20
-0.927699044441709
30
0
41
1
10
9.69508890587119
20
-0.944842784229508
30
0
41
1
10
9.68345188404453
20
-0.962174721317894
30
0
41
1
10
9.67190083556466
20
-0.97969206300769
30
0
41
1
10
9.66043514866507
20
-0.997390730965463
30
0
41
1
10
9.64905728465232
20
-1.01527133860833
30
0
41
1
10
9.63775832579444
20
-1.03331737457373
30
0
41
1
10
9.63030491629627
20
-1.04548326213237
30
0
41
1
10
9.62657615354902
20
-1.05156956509566
30
0
0
SPLINE
5
11E
100
AcDbEntity
8
1
62
256
6
ByLayer
370
18
48
1
60
0
100
AcDbSpline
70
4
71
3
72
18
73
14
40
0
40
0
40
0
40
0
40
0.0189735829606221
40
0.116153974538764
40
0.164744170327835
40
0.213334366116906
40
0.40769514927319
40
0.504875540851332
40
0.602055932429474
40
0.699236324007616
40
0.796416715585758
40
0.990777498742042
40
1
40
1
40
1
40
1
41
1
10
9.62657615354914
20
-1.05156956509572
30
0
41
1
10
9.64056855246972
20
-1.05855835367541
30
0
41
1
10
9.72621933479516
20
-1.10092907370395
30
0
41
1
10
9.84762007805813
20
-1.15735740674256
30
0
41
1
10
9.99072925846835
20
-1.2179501680892
30
0
41
1
10
10.2052760987246
20
-1.3025772940309
30
0
41
1
10
10.4552399447419
20
-1.38264753139515
30
0
41
1
10
10.7404583778009
20
-1.44636342575018
30
0
41
1
10
10.9541585376544
20
-1.47971590096279
30
0
41
1
10
11.1676170806902
20
-1.49826394025831
30
0
41
1
10
11.4518327807256
20
-1.5031010620512
30
0
41
1
10
11.6713996948171
20
-1.48380464800451
30
0
41
1
10
11.8199889240203
20
-1.46027790861538
30
0
41
1
10
11.8267200929962
20
-1.45919067986202
30
0
0
SPLINE
5
11F
100
AcDbEntity
8
1
62
256
6
ByLayer
370
18
48
1
60
0
100
AcDbSpline
70
4
71
3
72
34
73
30
40
0
40
0
40
0
40
0
40
0.0624999999999895
40
0.0624999999999895
40
0.09374999999998
40
0.09374999999998
40
0.12499999999997
40
0.12499999999997
40
0.187499999999962
40
0.187499999999962
40
0.249999999999953
40
0.249999999999953
40
0.281249999999955
40
0.281249999999955
40
0.312499999999957
40
0.312499999999957
40
0.374999999999961
40
0.374999999999961
40
0.437499999999965
40
0.437499999999965
40
0.499999999999969
40
0.499999999999969
40
0.624999999999976
40
0.624999999999976
40
0.749999999999984
40
0.749999999999984
40
0.874999999999992
40
0.874999999999992
40
1
40
1
40
1
40
1
41
1
10
8.59117441471241
20
-1.45115057457315
30
0
41
1
10
8.60203007250433
20
-1.44419364914089
30
0
41
1
10
8.61608026026983
20
-1.43703629821329
30
0
41
1
10
8.64072211320516
20
-1.42617478219108
30
0
41
1
10
8.64953838029635
20
-1.42253243182938
30
0
41
1
10
8.66824211957308
20
-1.41522509679405
30
0
41
1
10
8.67813802328703
20
-1.41155906320441
30
0
41
1
10
8.70871063402404
20
-1.40074313691443
30
0
41
1
10
8.73043548748748
20
-1.39370442335348
30
0
41
1
10
8.77589178565373
20
-1.37997958985199
30
0
41
1
10
8.7996298941172
20
-1.37329352094474
30
0
41
1
10
8.83645447147987
20
-1.36354044637452
30
0
41
1
10
8.84894691854345
20
-1.36033245222134
30
0
41
1
10
8.87415417586996
20
-1.35404792916361
30
0
41
1
10
8.88688574748852
20
-1.35096677132148
30
0
41
1
10
8.92542743763627
20
-1.34190277495199
30
0
41
1
10
8.95158275716935
20
-1.3360990067921
30
0
41
1
10
9.00467524230561
20
-1.3249610297427
30
0
41
1
10
9.03164624237544
20
-1.31962092736046
30
0
41
1
10
9.08610756644339
20
-1.30944580443753
30
0
41
1
10
9.1135807569957
20
-1.30461317145731
30
0
41
1
10
9.196653525226
20
-1.29087706470361
30
0
41
1
10
9.25298729981637
20
-1.28272261845154
30
0
41
1
10
9.36660803176903
20
-1.26859295739632
30
0
41
1
10
9.42398496144074
20
-1.26260548069268
30
0
41
1
10
9.53941677064969
20
-1.25295117868839
30
0
41
1
10
9.59731214866795
20
-1.24929596596914
30
0
41
1
10
9.71346127733901
20
-1.24447481540821
30
0
41
1
10
9.77171512318802
20
-1.2433095510269
30
0
41
1
10
9.83015972516313
20
-1.2434939600916
30
0
0
SPLINE
5
120
100
AcDbEntity
8
1
62
256
6
ByLayer
370
18
48
1
60
0
100
AcDbSpline
70
4
71
2
72
6
73
3
40
0
40
0
40
0
40
1
40
1
40
1
41
0.500005395794511
10
9.83015972516575
20
-1.24349396009169
30
0
41
0.499994604205489
10
9.91507507121105
20
-1.24376189175709
30
0
41
0.500005395794511
10
9.99999999999997
20
-1.24402956966792
30
0
0
SPLINE
5
121
100
AcDbEntity
8
1
62
256
6
ByLayer
370
18
48
1
60
0
100
AcDbSpline
70
4
71
3
72
14
73
10
40
0
40
0
40
0
40
0
40
0.25
40
0.25
40
0.5
40
0.5
40
0.75
40
0.75
40
1
40
1
40
1
40
1
41
1
10
9.99999999999997
20
-1.24103784745736
30
0
41
1
10
9.96768771460461
20
-1.22805859667349
30
0
41
1
10
9.93513353358969
20
-1.21484870655379
30
0
41
1
10
9.86968985181718
20
-1.18800412149335
30
0
41
1
10
9.8367831121422
20
-1.17437264585215
30
0
41
1
10
9.77092363656271
20
-1.14643488623736
30
0
41
1
10
9.737972736427
20
-1.13212554652253
30
0
41
1
10
9.67219206232221
20
-1.1026665335508
30
0
41
1
10
9.63936191496447
20
-1.08751632750628
30
0
41
1
10
9.60661658148007
20
-1.07190922357435
30
0
0
SPLINE
5
122
100
AcDbEntity
8
1
62
256
6
ByLayer
370
13
48
1
60
0
100
AcDbSpline
70
4
71
3
72
12
73
8
40
0
40
0
40
0
40
0
40
0.197351784593516
40
0.395893624415512
40
0.595760927873832
40
0.797086428937529
40
1
40
1
40
1
40
1
41
1
10
9.6066207793202
20
-1.07190444450407
30
0
41
1
10
9.60778410355715
20
-1.07051843706148
30
0
41
1
10
9.61011776701747
20
-1.06773806438309
30
0
41
1
10
9.61382706852123
20
-1.06361688263078
30
0
41
1
10
9.61770392617916
20
-1.05951937018151
30
0
41
1
10
9.62175052874758
20
-1.05544497721445
30
0
41
1
10
9.62457846955414
20
-1.05276854280433
30
0
41
1
10
9.62599799479892
20
-1.05142506835736
30
0
0
SPLINE
5
123
100
AcDbEntity
8
1
62
256
6
ByLayer
370
18
48
1
60
0
100
AcDbSpline
70
4
71
3
72
36
73
32
40
0
40
0
40
0
40
0
40
0.006258779322612
40
0.0383154882022306
40
0.0543438426420399
40
0.0703721970818491
40
0.134485614841086
40
0.166542323720705
40
0.198599032600323
40
0.230655741479942
40
0.26271245035956
40
0.326825868118797
40
0.358882576998416
40
0.390939285878035
40
0.422995994757653
40
0.455052703637272
40
0.519166121396509
40
0.551222830276127
40
0.567251184715937
40
0.583279539155746
40
0.615336248035364
40
0.647392956914983
40
0.679449665794602
40
0.695478020234411
40
0.71150637467422
40
0.743563083553839
40
0.775619792433457
40
0.839733210192694
40
0.903846627951931
40
0.967960045711169
40
1
40
1
40
1
40
1
41
1
10
9.62657615354914
20
1.45190159743834
30
0
41
1
10
9.64056855246972
20
1.4494491493638
30
0
41
1
10
9.72621933479519
20
1.43387305048245
30
0
41
1
10
9.84762007805816
20
1.4069223282678
30
0
41
1
10
9.99072925846838
20
1.36810274733981
30
0
41
1
10
10.2052760987247
20
1.30292318299786
30
0
41
1
10
10.4552399447421
20
1.20732767313808
30
0
41
1
10
10.740458377801
20
1.0750388641477
30
0
41
1
10
10.9541585376544
20
0.965219304603067
30
0
41
1
10
11.1676170806902
20
0.845899463440588
30
0
41
1
10
11.4518327807256
20
0.675833832886127
30
0
41
1
10
11.7356117127208
20
0.491805491502021
30
0
41
1
10
12.0193005426759
20
0.299184249491276
30
0
41
1
10
12.2321221719566
20
0.151702315296177
30
0
41
1
10
12.4450632722476
20
0.0026225980820129
30
0
41
1
10
12.7292370363764
20
-0.196390252121404
30
0
41
1
10
13.01386356196
20
-0.392780014451859
30
0
41
1
10
13.2634396012322
20
-0.557357845170515
30
0
41
1
10
13.4062273208863
20
-0.648509533078368
30
0
41
1
10
13.5491260057476
20
-0.737665214385828
30
0
41
1
10
13.7279134349819
20
-0.844631683212896
30
0
41
1
10
13.942670409951
20
-0.964765132876124
30
0
41
1
10
14.1217323944779
20
-1.056936550107
30
0
41
1
10
14.265002417303
20
-1.12514569613538
30
0
41
1
10
14.4082799609048
20
-1.18968446646804
30
0
41
1
10
14.5873236753364
20
-1.26284079066897
30
0
41
1
10
14.8736271978488
20
-1.3629145233626
30
0
41
1
10
15.2305988205406
20
-1.45426829940016
30
0
41
1
10
15.6592475747064
20
-1.50618063763361
30
0
41
1
10
16.0211763231473
20
-1.49896352919703
30
0
41
1
10
16.2422809637184
20
-1.47080686483329
30
0
41
1
10
16.3164938569996
20
-1.45872283468944
30
0
0
SPLINE
5
124
100
AcDbEntity
8
1
62
256
6
ByLayer
370
13
48
1
60
0
100
AcDbSpline
70
4
71
3
72
12
73
8
40
0
40
0
40
0
40
0
40
0.197351784591527
40
0.395893624412357
40
0.595760927870734
40
0.797086428935616
40
1
40
1
40
1
40
1
41
1
10
9.60662077932028
20
1.44466870520441
30
0
41
1
10
9.60778410355724
20
1.44519905014235
30
0
41
1
10
9.61011776701753
20
1.44626293806263
30
0
41
1
10
9.61382706852129
20
1.44780369773085
30
0
41
1
10
9.61770392617919
20
1.44930957329569
30
0
41
1
10
9.62175052874755
20
1.45078104118576
30
0
41
1
10
9.62457846955414
20
1.4517257657686
30
0
41
1
10
9.62599799479895
20
1.45219998375489
30
0
0
SPLINE
5
125
100
AcDbEntity
8
1
62
256
6
ByLayer
370
18
48
1
60
0
100
AcDbSpline
70
4
71
3
72
14
73
10
40
0
40
0
40
0
40
0
40
0.25
40
0.25
40
0.5
40
0.5
40
0.75
40
0.75
40
1
40
1
40
1
40
1
41
1
10
10
20
1.35015499457739
30
0
41
1
10
9.96768771460464
20
1.36022267298867
30
0
41
1
10
9.93513353358972
20
1.36964734437063
30
0
41
1
10
9.86968985181727
20
1.38732518438522
30
0
41
1
10
9.83678311214226
20
1.39558049168806
30
0
41
1
10
9.77092363656271
20
1.41114927465162
30
0
41
1
10
9.73797273648461
20
1.41846197908811
30
0
41
1
10
9.67219206237596
20
1.43221945848549
30
0
41
1
10
9.63936191496447
20
1.43866291372336
30
0
41
1
10
9.60661658148004
20
1.44466686674588
30
0
0
SPLINE
5
126
100
AcDbEntity
8
1
62
256
6
ByLayer
370
18
48
1
60
0
100
AcDbSpline
70
4
71
3
72
8
73
4
40
0
40
0
40
0
40
0
40
1
40
1
40
1
40
1
41
1
10
10
20
1.3501549945785
30
0
41
1
10
10
20
1.34939818920318
30
0
41
1
10
10
20
1.34864138785863
30
0
41
1
10
10
20
1.34788459054494
30
0
0
SPLINE
5
127
100
AcDbEntity
8
1
62
256
6
ByLayer
370
18
48
1
60
0
100
AcDbSpline
70
4
71
3
72
52
73
48
40
0
40
0
40
0
40
0
40
0.0434470943416073
40
0.0434470943416073
40
0.0651706415124109
40
0.0651706415124109
40
0.0868941886832145
40
0.0868941886832145
40
0.173788377366431
40
0.173788377366431
40
0.260682566049649
40
0.260682566049649
40
0.282406113220454
40
0.282406113220454
40
0.304129660391258
40
0.304129660391258
40
0.347576754732866
40
0.347576754732866
40
0.43447094341608
40
0.43447094341608
40
0.521365132099295
40
0.521365132099295
40
0.543088679270098
40
0.543088679270098
40
0.564812226440901
40
0.564812226440901
40
0.608259320782507
40
0.608259320782507
40
0.695153509465719
40
0.695153509465719
40
0.738600603807326
40
0.738600603807326
40
0.749462377392729
40
0.749462377392729
40
0.760324150978132
40
0.760324150978132
40
0.782047698148938
40
0.782047698148938
40
0.868941886832162
40
0.868941886832162
40
0.955836075515387
40
0.955836075515387
40
0.977559622686192
40
0.977559622686192
40
0.999283169856998
40
0.999283169856998
40
1
40
1
40
1
40
1
41
1
10
10.0000000000001
20
1.34788459054494
30
0
41
1
10
10.081983973801
20
1.32267279776533
30
0
41
1
10
10.1638156037564
20
1.29452667647936
30
0
41
1
10
10.2865543379171
20
1.24814531296829
30
0
41
1
10
10.3274661123848
20
1.23199021331232
30
0
41
1
10
10.4093286081131
20
1.19832231303238
30
0
41
1
10
10.4503265356861
20
1.18078770288008
30
0
41
1
10
10.6546601657438
20
1.09018286281579
30
0
41
1
10
10.8163744038236
20
1.00817650865164
30
0
41
1
10
11.1394194717731
20
0.828702842897144
30
0
41
1
10
11.3007716534623
20
0.73126127545072
30
0
41
1
10
11.5040989913696
20
0.602138556487773
30
0
41
1
10
11.5448448618978
20
0.575947292757547
30
0
41
1
10
11.626537888404
20
0.522881286628632
30
0
41
1
10
11.6675202464837
20
0.495983208851868
30
0
41
1
10
11.7905995697309
20
0.414480267800741
30
0
41
1
10
11.8722426039125
20
0.359462622227824
30
0
41
1
10
12.1163390791893
20
0.192939193807547
30
0
41
1
10
12.2778975847893
20
0.0798719962340897
30
0
41
1
10
12.6012166714276
20
-0.146678304512562
30
0
41
1
10
12.7629948864008
20
-0.260136461207537
30
0
41
1
10
12.9673273927585
20
-0.399345670703894
30
0
41
1
10
13.0082893167017
20
-0.427046485244688
30
0
41
1
10
13.0898780909087
20
-0.481707270911187
30
0
41
1
10
13.1305797618749
20
-0.50871909147611
30
0
41
1
10
13.2524826506047
20
-0.588694127636217
30
0
41
1
10
13.3334844741632
20
-0.640565836200267
30
0
41
1
10
13.5762658369382
20
-0.791313647762991
30
0
41
1
10
13.7378545266947
20
-0.885275619088446
30
0
41
1
10
13.98153503224
20
-1.01455520323037
30
0
41
1
10
14.06295993741
20
-1.05572345015838
30
0
41
1
10
14.1651752330999
20
-1.10445471806764
30
0
41
1
10
14.1856407003052
20
-1.11406297926811
30
0
41
1
10
14.2266202989146
20
-1.13300177693873
30
0
41
1
10
14.2471465159343
20
-1.14233769841783
30
0
41
1
10
14.308589255479
20
-1.16983411100168
30
0
41
1
10
14.3494322379552
20
-1.18751208710194
30
0
41
1
10
14.5531600413628
20
-1.27247551542081
30
0
41
1
10
14.7145800255948
20
-1.32959294305309
30
0
41
1
10
15.0373856645713
20
-1.42034174563676
30
0
41
1
10
15.1987817618902
20
-1.45395548773553
30
0
41
1
10
15.4025030491454
20
-1.48006195156782
30
0
41
1
10
15.4433457799841
20
-1.48448822381434
30
0
41
1
10
15.5252754916831
20
-1.49172212412984
30
0
41
1
10
15.5662547677162
20
-1.49451797180842
30
0
41
1
10
15.6084472786477
20
-1.49655445927999
30
0
41
1
10
15.6097949773795
20
-1.49661862044059
30
0
41
1
10
15.611142587857
20
-1.49668189005868
30
0
0
SPLINE
5
128
100
AcDbEntity
8
1
62
256
6
ByLayer
370
18
48
1
60
0
100
AcDbSpline
70
4
71
3
72
23
73
19
40
0
40
0
40
0
40
0
40
0.0242110786583486
40
0.0780199036444383
40
0.131828728630528
40
0.158733141123573
40
0.185637553616617
40
0.239446378602707
40
0.293255203588796
40
0.400872853560976
40
0.508490503533155
40
0.616108153505334
40
0.669916978491424
40
0.723725803477513
40
0.831343453449692
40
0.885152278435782
40
0.938961103421871
40
1
40
1
40
1
40
1
41
1
10
13.6313896239415
20
1.49924656434854
30
0
41
1
10
13.6635683427195
20
1.49859012069271
30
0
41
1
10
13.767289395269
20
1.49483744422986
30
0
41
1
10
13.942670409951
20
1.47967929143934
30
0
41
1
10
14.1217323944778
20
1.45194016217843
30
0
41
1
10
14.2650024173029
20
1.4223280656044
30
0
41
1
10
14.4082799609047
20
1.38800555213348
30
0
41
1
10
14.5873236753365
20
1.3362354424518
30
0
41
1
10
14.8736271978488
20
1.23568878664017
30
0
41
1
10
15.2305988205407
20
1.07881059575351
30
0
41
1
10
15.6592475747064
20
0.847199150057264
30
0
41
1
10
16.0212141598574
20
0.623190638812218
30
0
41
1
10
16.316072637632
20
0.42848421035481
30
0
41
1
10
16.6152322659562
20
0.22451346017445
30
0
41
1
10
16.9223221165559
20
0.0089487855147468
30
0
41
1
10
17.2405028921824
20
-0.213304122885404
30
0
41
1
10
17.4964101384452
20
-0.389330095333946
30
0
41
1
10
17.6762640000585
20
-0.508959881138765
30
0
41
1
10
17.7736804013278
20
-0.571972016117485
30
0
0
SPLINE
5
129
100
AcDbEntity
8
1
62
256
6
ByLayer
370
18
48
1
60
0
100
AcDbSpline
70
4
71
3
72
50
73
46
40
0
40
0
40
0
40
0
40
0.0252421873034009
40
0.0252421873034009
40
0.106472005028115
40
0.106472005028115
40
0.187701822752829
40
0.187701822752829
40
0.208009277184008
40
0.208009277184008
40
0.228316731615188
40
0.228316731615188
40
0.268931640477545
40
0.268931640477545
40
0.350161458202262
40
0.350161458202262
40
0.390776367064621
40
0.390776367064621
40
0.400930094280211
40
0.400930094280211
40
0.411083821495801
40
0.411083821495801
40
0.43139127592698
40
0.43139127592698
40
0.512621093651699
40
0.512621093651699
40
0.593850911376417
40
0.593850911376417
40
0.614158365807596
40
0.614158365807596
40
0.634465820238775
40
0.634465820238775
40
0.675080729101133
40
0.675080729101133
40
0.756310546825852
40
0.756310546825852
40
0.79692545568821
40
0.79692545568821
40
0.817232910119389
40
0.817232910119389
40
0.837540364550568
40
0.837540364550568
40
0.918770182275284
40
0.918770182275284
40
1
40
1
40
1
40
1
41
1
10
11.8015486327533
20
1.04690221840409
30
0
41
1
10
11.8523634991465
20
1.07226710405055
30
0
41
1
10
11.90303939958
20
1.09668427438302
30
0
41
1
10
12.1163390791884
20
1.19559033031021
30
0
41
1
10
12.2778975847884
20
1.26104474033826
30
0
41
1
10
12.6012166714266
20
1.36987499876974
30
0
41
1
10
12.7629948863997
20
1.41321851081474
30
0
41
1
10
12.9673273927574
20
1.45204906501789
30
0
41
1
10
13.0082893167005
20
1.45904025287859
30
0
41
1
10
13.0898780909075
20
1.47136303682282
30
0
41
1
10
13.1305797618737
20
1.4767108468952
30
0
41
1
10
13.2524826506034
20
1.49029666569678
30
0
41
1
10
13.3334844741619
20
1.49602538918685
30
0
41
1
10
13.5762658369368
20
1.5035865548038
30
0
41
1
10
13.7378545266933
20
1.4957847251016
30
0
41
1
10
13.9815350322384
20
1.46533367165645
30
0
41
1
10
14.0629599374084
20
1.45205126045846
30
0
41
1
10
14.1651752330982
20
1.43136863511339
30
0
41
1
10
14.1856407003036
20
1.42702689678305
30
0
41
1
10
14.2266202989129
20
1.4179387941183
30
0
41
1
10
14.2471465159326
20
1.41318944650703
30
0
41
1
10
14.3085892554773
20
1.39839874467052
30
0
41
1
10
14.3494322379536
20
1.38780041697956
30
0
41
1
10
14.553160041361
20
1.33112366425121
30
0
41
1
10
14.714580025593
20
1.2740831724187
30
0
41
1
10
15.0373856645693
20
1.13926499009753
30
0
41
1
10
15.1987817618881
20
1.06148605530743
30
0
41
1
10
15.4025030491433
20
0.952949880794051
30
0
41
1
10
15.443345779982
20
0.930677016169426
30
0
41
1
10
15.5252754916809
20
0.885039558535368
30
0
41
1
10
15.566254767714
20
0.861733881637633
30
0
41
1
10
15.6887889375263
20
0.790741099776994
30
0
41
1
10
15.7701516972894
20
0.741866290580845
30
0
41
1
10
16.0137104586082
20
0.591264862747892
30
0
41
1
10
16.1753329298605
20
0.485510140324777
30
0
41
1
10
16.4182716647155
20
0.321110182468885
30
0
41
1
10
16.4993424353056
20
0.265355678231259
30
0
41
1
10
16.6213628817058
20
0.180639064419808
30
0
41
1
10
16.6621058275212
20
0.152220131645294
30
0
41
1
10
16.7437811663799
20
0.0950875712581194
30
0
41
1
10
16.7847805368405
20
0.066326889881708
30
0
41
1
10
16.9890558551079
20
-0.077106825760211
30
0
41
1
10
17.1508420089234
20
-0.191089773824558
30
0
41
1
10
17.4742569655178
20
-0.413276395231236
30
0
41
1
10
17.6358929383424
20
-0.521460568048497
30
0
41
1
10
17.7987248638517
20
-0.624945216638253
30
0
0
SPLINE
5
12A
100
AcDbEntity
8
1
62
256
6
ByLayer
370
18
48
1
60
0
100
AcDbSpline
70
4
71
2
72
6
73
3
40
0
40
0
40
0
40
1
40
1
40
1
41
1
10
17.8894578379567
20
-1.07054833311929
30
0
41
1
10
17.9331654453186
20
-0.889261453475001
30
0
41
1
10
17.9768730526805
20
-0.707974573830739
30
0
0
SPLINE
5
12B
100
AcDbEntity
8
1
62
256
6
ByLayer
370
18
48
1
60
0
100
AcDbSpline
70
4
71
2
72
6
73
3
40
0
40
0
40
0
40
1
40
1
40
1
41
1
10
17.0686644102837
20
0.806930850938272
30
0
41
1
10
16.9658199506291
20
0.842142782180275
30
0
41
1
10
16.8633004423087
20
0.878004947975739
30
0
0
SPLINE
5
12C
100
AcDbEntity
8
1
62
256
6
ByLayer
370
18
48
1
60
0
100
AcDbSpline
70
4
71
1
72
4
73
2
40
0
40
0
40
1
40
1
41
1
10
16.8633004423087
20
0.878004947975739
30
0
41
1
10
16.8304334311111
20
0.889430808371372
30
0
0
SPLINE
5
12D
100
AcDbEntity
8
1
62
256
6
ByLayer
370
18
48
1
60
0
100
AcDbSpline
70
4
71
2
72
6
73
3
40
0
40
0
40
0
40
1
40
1
40
1
41
1
10
11.3059948461595
20
-1.49980943155955
30
0
41
1
10
11.3059562432782
20
-1.49982128357405
30
0
41
1
10
11.3059176405432
20
-1.49983236825506
30
0
0
SPLINE
5
12E
100
AcDbEntity
8
1
62
256
6
ByLayer
370
18
48
1
60
0
100
AcDbSpline
70
4
71
2
72
6
73
3
40
0
40
0
40
0
40
1
40
1
40
1
41
1
10
13.6239722214631
20
0.486672204545897
30
0
41
1
10
13.0428296224872
20
0.639040761151847
30
0
41
1
10
12.4618299734382
20
0.849551397339098
30
0
0
SPLINE
5
12F
100
AcDbEntity
8
1
62
256
6
ByLayer
370
18
48
1
60
0
100
AcDbSpline
70
4
71
3
72
13
73
9
40
0
40
0
40
0
40
0
40
0.26103299760566
40
0.444044579643259
40
0.576840488620001
40
0.709803993808216
40
0.876820969834527
40
1
40
1
40
1
40
1
41
1
10
12.099641596111
20
-1.31864643937288
30
0
41
1
10
12.2685236951023
20
-1.31521666851944
30
0
41
1
10
12.5563876174335
20
-1.29965768867638
30
0
41
1
10
12.9311537008114
20
-1.25743568111338
30
0
41
1
10
13.224042625475
20
-1.21339576620383
30
0
41
1
10
13.5051645018976
20
-1.16269303981841
30
0
41
1
10
13.7802588728723
20
-1.10458884055768
30
0
41
1
10
13.9689066492942
20
-1.06037177150597
30
0
41
1
10
14.0489849552675
20
-1.04077656558027
30
0
0
SPLINE
5
130
100
AcDbEntity
8
1
62
256
6
ByLayer
370
18
48
1
60
0
100
AcDbSpline
70
4
71
3
72
13
73
9
40
0
40
0
40
0
40
0
40
0.273593815090711
40
0.496762684558139
40
0.669478677998392
40
0.791704786556225
40
0.914717629002386
40
1
40
1
40
1
40
1
41
1
10
11.9952800324459
20
0.993026797911682
30
0
41
1
10
11.8797946603555
20
1.02296459344484
30
0
41
1
10
11.6700733178952
20
1.07430199089617
30
0
41
1
10
11.3872753404111
20
1.13658837775242
30
0
41
1
10
11.1684656149758
20
1.17955960686265
30
0
41
1
10
10.9912271755559
20
1.21084984141572
30
0
41
1
10
10.8518879803276
20
1.23289164862319
30
0
41
1
10
10.7646983724688
20
1.24526904459066
30
0
41
1
10
10.7290714570402
20
1.25008342181303
30
0
0
SPLINE
5
131
100
AcDbEntity
8
1
62
256
6
ByLayer
370
18
48
1
60
0
100
AcDbSpline
70
4
71
2
72
6
73
3
40
0
40
0
40
0
40
1
40
1
40
1
41
1
10
16.5850942070456
20
-1.31866764048834
30
0
41
1
10
17.0994273537703
20
-1.31383040674933
30
0
41
1
10
17.6168957388418
20
-1.21975927128889
30
0
0
SPLINE
5
132
100
AcDbEntity
8
1
62
256
6
ByLayer
370
18
48
1
60
0
100
AcDbSpline
70
4
71
3
72
13
73
9
40
0
40
0
40
0
40
0
40
0.27181098102848
40
0.493952855943355
40
0.666455585351352
40
0.789424711414679
40
0.912852475048206
40
1
40
1
40
1
40
1
41
1
10
16.4824299180585
20
0.992111622365911
30
0
41
1
10
16.3654377999581
20
1.02297562965114
30
0
41
1
10
16.1527261628832
20
1.0756523799034
30
0
41
1
10
15.8655539148945
20
1.13912730403794
30
0
41
1
10
15.642239926019
20
1.1821786409611
30
0
41
1
10
15.4612505463617
20
1.21342874821823
30
0
41
1
10
15.3170438107202
20
1.23577891617944
30
0
41
1
10
15.2260958849095
20
1.24844147517825
30
0
41
1
10
15.1884669205923
20
1.25342342829129
30
0
0
SPLINE
5
133
100
AcDbEntity
8
1
62
256
6
ByLayer
370
18
48
1
60
0
100
AcDbSpline
70
4
71
2
72
6
73
3
40
0
40
0
40
0
40
1
40
1
40
1
41
1
10
11.7995512018089
20
0.750227443291607
30
0
41
1
10
11.7995340649002
20
0.750233763196292
30
0
41
1
10
11.7995169279693
20
0.750242152325455
30
0
0
SPLINE
5
134
100
AcDbEntity
8
1
62
256
6
ByLayer
370
18
48
1
60
0
100
AcDbSpline
70
4
71
2
72
6
73
3
40
0
40
0
40
0
40
1
40
1
40
1
41
1
10
15.7919043826917
20
-1.49984947540668
30
0
41
1
10
15.7918628752867
20
-1.49984876892165
30
0
41
1
10
15.7918213699841
20
-1.4998472859684
30
0
0
SPLINE
5
135
100
AcDbEntity
8
1
62
256
6
ByLayer
370
18
48
1
60
0
100
AcDbSpline
70
4
71
2
72
6
73
3
40
0
40
0
40
0
40
1
40
1
40
1
41
1
10
16.2859763700468
20
0.749921138150569
30
0
41
1
10
16.2859823542435
20
0.749958353751452
30
0
41
1
10
16.285988338443
20
0.749994842560568
30
0
0
SPLINE
5
136
100
AcDbEntity
8
1
62
256
6
ByLayer
370
18
48
1
60
0
100
AcDbSpline
70
4
71
2
72
6
73
3
40
0
40
0
40
0
40
1
40
1
40
1
41
1
10
13.5480652901153
20
1.49980707971801
30
0
41
1
10
13.5481031581931
20
1.49980630142323
30
0
41
1
10
13.5481410255931
20
1.49980477194995
30
0
0
LINE
5
77
100
AcDbEntity
8
4
62
256
6
ByLayer
370
18
48
0.05
60
0
100
AcDbLine
10
0
20
0
30
0
11
18
21
0
31
0
39
0
210
0
220
0
230
1
0
LINE
5
79
100
AcDbEntity
8
81
62
256
6
ByLayer
370
18
48
1
60
0
100
AcDbLine
10
18
20
0
30
0
11
23
21
0
31
0
39
0
210
0
220
0
230
1
0
LINE
5
7A
100
AcDbEntity
8
SK4
62
256
6
ByLayer
370
18
48
0.05
60
0
100
AcDbLine
10
-36
20
0
30
0
11
18
21
0
31
0
39
0
210
0
220
0
230
1
0
LINE
5
7C
100
AcDbEntity
8
80
62
256
6
ByLayer
370
18
48
1
60
0
100
AcDbLine
10
0
20
0
30
0
11
-5
21
0
31
0
39
0
210
0
220
0
230
1
0
LINE
5
7D
100
AcDbEntity
8
1
62
256
6
ByLayer
370
18
48
1
60
0
100
AcDbLine
10
0
20
3
30
0
11
0
21
0
31
0
39
0
210
0
220
0
230
1
0
LINE
5
7E
100
AcDbEntity
8
1
62
256
6
ByLayer
370
18
48
1
60
0
100
AcDbLine
10
0
20
0
30
0
11
0
21
-3
31
0
39
0
210
0
220
0
230
1
0
LINE
5
7F
100
AcDbEntity
8
1
62
256
6
ByLayer
370
18
48
1
60
0
100
AcDbLine
10
17.950478
20
-0.266027
30
0
11
17.971554
21
-0.47547
31
0
39
0
210
0
220
0
230
1
0
LINE
5
80
100
AcDbEntity
8
1
62
256
6
ByLayer
370
18
48
1
60
0
100
AcDbLine
10
17.906383
20
-0.068358
30
0
11
17.916315
21
-0.070123
31
0
39
0
210
0
220
0
230
1
0
LINE
5
81
100
AcDbEntity
8
1
62
256
6
ByLayer
370
18
48
1
60
0
100
AcDbLine
10
17.916315
20
-0.070123
30
0
11
17.971554
21
0.965725
31
0
39
0
210
0
220
0
230
1
0
LINE
5
82
100
AcDbEntity
8
1
62
256
6
ByLayer
370
18
48
1
60
0
100
AcDbLine
10
9.084707
20
-1.43655
30
0
11
9.384222
21
-1.268293
31
0
39
0
210
0
220
0
230
1
0
LINE
5
83
100
AcDbEntity
8
1
62
256
6
ByLayer
370
13
48
1
60
0
100
AcDbLine
10
8.631412
20
-1.485747
30
0
11
8.857635
21
-1.358662
31
0
39
0
210
0
220
0
230
1
0
LINE
5
84
100
AcDbEntity
8
1
62
256
6
ByLayer
370
18
48
1
60
0
100
AcDbLine
10
17.862864
20
-1.163587
30
0
11
17.897646
21
-0.6663
31
0
39
0
210
0
220
0
230
1
0
LINE
5
85
100
AcDbEntity
8
1
62
256
6
ByLayer
370
18
48
1
60
0
100
AcDbLine
10
17.079877
20
-0.652084
30
0
11
17.724639
21
-0.575652
31
0
39
0
210
0
220
0
230
1
0
LINE
5
86
100
AcDbEntity
8
1
62
256
6
ByLayer
370
18
48
1
60
0
100
AcDbLine
10
17.947209
20
-0.286966
30
0
11
17.950478
21
-0.266027
31
0
39
0
210
0
220
0
230
1
0
LINE
5
87
100
AcDbEntity
8
1
62
256
6
ByLayer
370
18
48
1
60
0
100
AcDbLine
10
17.942648
20
-0.262548
30
0
11
17.950478
21
-0.266027
31
0
39
0
210
0
220
0
230
1
0
LINE
5
88
100
AcDbEntity
8
1
62
256
6
ByLayer
370
13
48
1
60
0
100
AcDbLine
10
17.301928
20
-0.318257
30
0
11
16.993413
21
-0.461399
31
0
39
0
210
0
220
0
230
1
0
LINE
5
89
100
AcDbEntity
8
1
62
256
6
ByLayer
370
13
48
1
60
0
100
AcDbLine
10
9.83016
20
1.34824
30
0
11
10
21
1.262908
31
0
39
0
210
0
220
0
230
1
0
LINE
5
8A
100
AcDbEntity
8
1
62
256
6
ByLayer
370
18
48
1
60
0
100
AcDbLine
10
10
20
0.233915
30
0
11
10
21
0.346563
31
0
39
0
210
0
220
0
230
1
0
LINE
5
8B
100
AcDbEntity
8
1
62
256
6
ByLayer
370
13
48
1
60
0
100
AcDbLine
10
8.591174
20
1.054394
30
0
11
10
21
0.346563
31
0
39
0
210
0
220
0
230
1
0
LINE
5
8C
100
AcDbEntity
8
1
62
256
6
ByLayer
370
18
48
1
60
0
100
AcDbLine
10
17.862864
20
0.093457
30
0
11
17.905486
21
-0.063548
31
0
39
0
210
0
220
0
230
1
0
LINE
5
8D
100
AcDbEntity
8
1
62
256
6
ByLayer
370
18
48
1
60
0
100
AcDbLine
10
17.950478
20
-0.304467
30
0
11
17.971554
21
-0.490255
31
0
39
0
210
0
220
0
230
1
0
LINE
5
8E
100
AcDbEntity
8
1
62
256
6
ByLayer
370
18
48
1
60
0
100
AcDbLine
10
17.905486
20
-0.063548
30
0
11
17.950478
21
-0.304467
31
0
39
0
210
0
220
0
230
1
0
LINE
5
8F
100
AcDbEntity
8
1
62
256
6
ByLayer
370
18
48
1
60
0
100
AcDbLine
10
10
20
0.346563
30
0
11
10
21
1.262908
31
0
39
0
210
0
220
0
230
1
0
LINE
5
90
100
AcDbEntity
8
1
62
256
6
ByLayer
370
18
48
1
60
0
100
AcDbLine
10
10
20
-0.833948
30
0
11
10
21
-0.955078
31
0
39
0
210
0
220
0
230
1
0
LINE
5
91
100
AcDbEntity
8
1
62
256
6
ByLayer
370
13
48
1
60
0
100
AcDbLine
10
8.841298
20
-0.251786
30
0
11
10
21
-0.833948
31
0
39
0
210
0
220
0
230
1
0
LINE
5
92
100
AcDbEntity
8
1
62
256
6
ByLayer
370
18
48
1
60
0
100
AcDbLine
10
10
20
-0.833948
30
0
11
10
21
-0.768804
31
0
39
0
210
0
220
0
230
1
0
LINE
5
93
100
AcDbEntity
8
1
62
256
6
ByLayer
370
18
48
1
60
0
100
AcDbLine
10
10
20
-0.115413
30
0
11
10
21
0.233915
31
0
39
0
210
0
220
0
230
1
0
LINE
5
94
100
AcDbEntity
8
1
62
256
6
ByLayer
370
13
48
1
60
0
100
AcDbLine
10
8.631412
20
0.921529
30
0
11
10
21
0.233915
31
0
39
0
210
0
220
0
230
1
0
LINE
5
95
100
AcDbEntity
8
1
62
256
6
ByLayer
370
13
48
1
60
0
100
AcDbLine
10
8.839014
20
-0.185494
30
0
11
10
21
-0.768804
31
0
39
0
210
0
220
0
230
1
0
LINE
5
96
100
AcDbEntity
8
1
62
256
6
ByLayer
370
18
48
1
60
0
100
AcDbLine
10
10
20
-0.768804
30
0
11
10
21
-0.115413
31
0
39
0
210
0
220
0
230
1
0
LINE
5
97
100
AcDbEntity
8
1
62
256
6
ByLayer
370
18
48
1
60
0
100
AcDbLine
10
9.084707
20
0.344454
30
0
11
10
21
-0.115413
31
0
39
0
210
0
220
0
230
1
0
LINE
5
98
100
AcDbEntity
8
1
62
256
6
ByLayer
370
18
48
1
60
0
100
AcDbLine
10
10
20
1.34782
30
0
11
10
21
1.347885
31
0
39
0
210
0
220
0
230
1
0
LINE
5
99
100
AcDbEntity
8
1
62
256
6
ByLayer
370
18
48
1
60
0
100
AcDbLine
10
10
20
1.34782
30
0
11
10
21
1.262908
31
0
39
0
210
0
220
0
230
1
0
LINE
5
9A
100
AcDbEntity
8
1
62
256
6
ByLayer
370
13
48
1
60
0
100
AcDbLine
10
4.897679
20
-1.5
30
0
11
4.897679
21
0
31
0
39
0
210
0
220
0
230
1
0
LINE
5
9B
100
AcDbEntity
8
1
62
256
6
ByLayer
370
13
48
1
60
0
100
AcDbLine
10
4.897679
20
0
30
0
11
4.897679
21
1.5
31
0
39
0
210
0
220
0
230
1
0
LINE
5
9C
100
AcDbEntity
8
1
62
256
6
ByLayer
370
13
48
1
60
0
100
AcDbLine
10
4.397679
20
1.633975
30
0
11
4.397679
21
0
31
0
39
0
210
0
220
0
230
1
0
LINE
5
9D
100
AcDbEntity
8
1
62
256
6
ByLayer
370
13
48
1
60
0
100
AcDbLine
10
4.397679
20
0
30
0
11
4.397679
21
-1.633975
31
0
39
0
210
0
220
0
230
1
0
LINE
5
9E
100
AcDbEntity
8
1
62
256
6
ByLayer
370
18
48
1
60
0
100
AcDbLine
10
2.031654
20
3
30
0
11
2.031654
21
0
31
0
39
0
210
0
220
0
230
1
0
LINE
5
9F
100
AcDbEntity
8
1
62
256
6
ByLayer
370
18
48
1
60
0
100
AcDbLine
10
2.031654
20
0
30
0
11
2.031654
21
-3
31
0
39
0
210
0
220
0
230
1
0
LINE
5
A0
100
AcDbEntity
8
SK1
62
256
6
ByLayer
370
18
48
1
60
0
100
AcDbLine
10
-36
20
-2.6
30
0
11
-36
21
2.6
31
0
39
0
210
0
220
0
230
1
0
LINE
5
A2
100
AcDbEntity
8
SK1
62
256
6
ByLayer
370
18
48
1
60
0
100
AcDbLine
10
0
20
3
30
0
11
0
21
0
31
0
39
0
210
0
220
0
230
1
0
LINE
5
A3
100
AcDbEntity
8
SK1
62
256
6
ByLayer
370
18
48
1
60
0
100
AcDbLine
10
0
20
0
30
0
11
0
21
-3
31
0
39
0
210
0
220
0
230
1
0
LINE
5
A4
100
AcDbEntity
8
SK1
62
256
6
ByLayer
370
18
48
1
60
0
100
AcDbLine
10
-35.6
20
3
30
0
11
-35.6
21
-3
31
0
39
0
210
0
220
0
230
1
0
LINE
5
A5
100
AcDbEntity
8
1
62
256
6
ByLayer
370
18
48
1
60
0
100
AcDbLine
10
4.897679
20
-1.5
30
0
11
8.784256
21
-1.5
31
0
39
0
210
0
220
0
230
1
0
LINE
5
A6
100
AcDbEntity
8
1
62
256
6
ByLayer
370
18
48
1
60
0
100
AcDbLine
10
2.031654
20
3
30
0
11
0
21
3
31
0
39
0
210
0
220
0
230
1
0
LINE
5
A7
100
AcDbEntity
8
1
62
256
6
ByLayer
370
18
48
1
60
0
100
AcDbLine
10
0
20
-3
30
0
11
2.031654
21
-3
31
0
39
0
210
0
220
0
230
1
0
LINE
5
A8
100
AcDbEntity
8
1
62
256
6
ByLayer
370
18
48
1
60
0
100
AcDbLine
10
9.496924
20
1.5
30
0
11
4.897679
21
1.5
31
0
39
0
210
0
220
0
230
1
0
LINE
5
A9
100
AcDbEntity
8
1
62
256
6
ByLayer
370
18
48
1
60
0
100
AcDbLine
10
4.397679
20
1.633975
30
0
11
2.031654
21
3
31
0
39
0
210
0
220
0
230
1
0
LINE
5
AA
100
AcDbEntity
8
1
62
256
6
ByLayer
370
18
48
1
60
0
100
AcDbLine
10
2.031654
20
-3
30
0
11
4.397679
21
-1.633975
31
0
39
0
210
0
220
0
230
1
0
LINE
5
AB
100
AcDbEntity
8
SK1
62
256
6
ByLayer
370
18
48
1
60
0
100
AcDbLine
10
-36
20
-2.6
30
0
11
-35.6
21
-3
31
0
39
0
210
0
220
0
230
1
0
LINE
5
AC
100
AcDbEntity
8
SK1
62
256
6
ByLayer
370
18
48
1
60
0
100
AcDbLine
10
-35.6
20
3
30
0
11
-36
21
2.6
31
0
39
0
210
0
220
0
230
1
0
LINE
5
AD
100
AcDbEntity
8
SK1
62
256
6
ByLayer
370
18
48
1
60
0
100
AcDbLine
10
0
20
3
30
0
11
-35.6
21
3
31
0
39
0
210
0
220
0
230
1
0
LINE
5
AE
100
AcDbEntity
8
SK1
62
256
6
ByLayer
370
18
48
1
60
0
100
AcDbLine
10
-35.6
20
-3
30
0
11
0
21
-3
31
0
39
0
210
0
220
0
230
1
0
LINE
5
AF
100
AcDbEntity
8
SK2
62
256
6
ByLayer
370
18
48
1
60
0
100
AcDbLine
10
-43.85
20
11.75
30
0
11
-43.85
21
-19.315466
31
0
39
0
210
0
220
0
230
1
0
LINE
5
B1
100
AcDbEntity
8
SK2
62
256
6
ByLayer
370
18
48
1
60
0
100
AcDbLine
10
-37.1875
20
3
30
0
11
-45.85
21
3
31
0
39
0
210
0
220
0
230
1
0
LINE
5
B2
100
AcDbEntity
8
SK2
62
256
6
ByLayer
370
18
48
1
60
0
100
AcDbLine
10
-37.1875
20
-3
30
0
11
-45.85
21
-3
31
0
39
0
210
0
220
0
230
1
0
LINE
5
B3
100
AcDbEntity
8
1
62
256
6
ByLayer
370
18
48
1
60
1
100
AcDbLine
10
-43.85
20
3
30
0
11
-44.310784
21
6.499998
31
0
39
0
210
0
220
0
230
1
0
LINE
5
B4
100
AcDbEntity
8
1
62
256
6
ByLayer
370
18
48
1
60
1
100
AcDbLine
10
-44.310784
20
6.499998
30
0
11
-43.389216
21
6.500002
31
0
39
0
210
0
220
0
230
1
0
LINE
5
B5
100
AcDbEntity
8
1
62
256
6
ByLayer
370
18
48
1
60
1
100
AcDbLine
10
-43.389216
20
6.500002
30
0
11
-43.85
21
3
31
0
39
0
210
0
220
0
230
1
0
LINE
5
B6
100
AcDbEntity
8
1
62
256
6
ByLayer
370
18
48
1
60
1
100
AcDbLine
10
-43.85
20
-3
30
0
11
-43.389216
21
-6.499998
31
0
39
0
210
0
220
0
230
1
0
LINE
5
B7
100
AcDbEntity
8
1
62
256
6
ByLayer
370
18
48
1
60
1
100
AcDbLine
10
-43.389216
20
-6.499998
30
0
11
-44.310784
21
-6.500002
31
0
39
0
210
0
220
0
230
1
0
LINE
5
B8
100
AcDbEntity
8
1
62
256
6
ByLayer
370
18
48
1
60
1
100
AcDbLine
10
-44.310784
20
-6.500002
30
0
11
-43.85
21
-3
31
0
39
0
210
0
220
0
230
1
0
LINE
5
B9
100
AcDbEntity
8
2
62
256
6
ByLayer
370
18
48
1
60
0
100
AcDbLine
10
30
20
17.815566
30
0
11
30
21
-10.2501
31
0
39
0
210
0
220
0
230
1
0
LINE
5
BB
100
AcDbEntity
8
2
62
256
6
ByLayer
370
18
48
1
60
0
100
AcDbLine
10
19.5875
20
1.5001
30
0
11
32
21
1.5001
31
0
39
0
210
0
220
0
230
1
0
LINE
5
BC
100
AcDbEntity
8
2
62
256
6
ByLayer
370
18
48
1
60
0
100
AcDbLine
10
19.5875
20
-1.5001
30
0
11
32
21
-1.5001
31
0
39
0
210
0
220
0
230
1
0
LINE
5
BD
100
AcDbEntity
8
1
62
256
6
ByLayer
370
18
48
1
60
1
100
AcDbLine
10
30
20
1.5001
30
0
11
29.539216
21
5.000098
31
0
39
0
210
0
220
0
230
1
0
LINE
5
BE
100
AcDbEntity
8
1
62
256
6
ByLayer
370
18
48
1
60
1
100
AcDbLine
10
29.539216
20
5.000098
30
0
11
30.460784
21
5.000102
31
0
39
0
210
0
220
0
230
1
0
LINE
5
BF
100
AcDbEntity
8
1
62
256
6
ByLayer
370
18
48
1
60
1
100
AcDbLine
10
30.460784
20
5.000102
30
0
11
30
21
1.5001
31
0
39
0
210
0
220
0
230
1
0
LINE
5
C0
100
AcDbEntity
8
1
62
256
6
ByLayer
370
18
48
1
60
1
100
AcDbLine
10
30
20
-1.5001
30
0
11
30.460784
21
-5.000098
31
0
39
0
210
0
220
0
230
1
0
LINE
5
C1
100
AcDbEntity
8
1
62
256
6
ByLayer
370
18
48
1
60
1
100
AcDbLine
10
30.460784
20
-5.000098
30
0
11
29.539216
21
-5.000102
31
0
39
0
210
0
220
0
230
1
0
LINE
5
C2
100
AcDbEntity
8
1
62
256
6
ByLayer
370
18
48
1
60
1
100
AcDbLine
10
29.539216
20
-5.000102
30
0
11
30
21
-1.5001
31
0
39
0
210
0
220
0
230
1
0
LINE
5
C3
100
AcDbEntity
8
SK2
62
256
6
ByLayer
370
18
48
1
60
0
100
AcDbLine
10
18
20
-33.1
30
0
11
-36
21
-33.1
31
0
39
0
210
0
220
0
230
1
0
LINE
5
C4
100
AcDbEntity
8
SK2
62
256
6
ByLayer
370
18
48
1
60
0
100
AcDbLine
10
-36
20
-4.1875
30
0
11
-36
21
-35.1
31
0
39
0
210
0
220
0
230
1
0
LINE
5
C5
100
AcDbEntity
8
SK2
62
256
6
ByLayer
370
18
48
1
60
0
100
AcDbLine
10
18
20
-3.0876
30
0
11
18
21
-35.1
31
0
39
0
210
0
220
0
230
1
0
LINE
5
C6
100
AcDbEntity
8
1
62
256
6
ByLayer
370
18
48
1
60
1
100
AcDbLine
10
-36
20
-33.1
30
0
11
-32.500002
21
-32.639216
31
0
39
0
210
0
220
0
230
1
0
LINE
5
C7
100
AcDbEntity
8
1
62
256
6
ByLayer
370
18
48
1
60
1
100
AcDbLine
10
-32.500002
20
-32.639216
30
0
11
-32.499998
21
-33.560784
31
0
39
0
210
0
220
0
230
1
0
LINE
5
C8
100
AcDbEntity
8
1
62
256
6
ByLayer
370
18
48
1
60
1
100
AcDbLine
10
-32.499998
20
-33.560784
30
0
11
-36
21
-33.1
31
0
39
0
210
0
220
0
230
1
0
LINE
5
C9
100
AcDbEntity
8
1
62
256
6
ByLayer
370
18
48
1
60
1
100
AcDbLine
10
18
20
-33.1
30
0
11
14.500002
21
-33.560784
31
0
39
0
210
0
220
0
230
1
0
LINE
5
CA
100
AcDbEntity
8
1
62
256
6
ByLayer
370
18
48
1
60
1
100
AcDbLine
10
14.500002
20
-33.560784
30
0
11
14.499998
21
-32.639216
31
0
39
0
210
0
220
0
230
1
0
LINE
5
CB
100
AcDbEntity
8
1
62
256
6
ByLayer
370
18
48
1
60
1
100
AcDbLine
10
14.499998
20
-32.639216
30
0
11
18
21
-33.1
31
0
39
0
210
0
220
0
230
1
0
LINE
5
13B
100
AcDbEntity
8
1
62
256
6
ByLayer
370
18
48
1
60
1
100
AcDbLine
10
-43.85
20
3
30
0
11
-44.310784
21
6.499998
31
0
39
0
210
0
220
0
230
1
0
LINE
5
13C
100
AcDbEntity
8
1
62
256
6
ByLayer
370
18
48
1
60
1
100
AcDbLine
10
-44.310784
20
6.499998
30
0
11
-43.389216
21
6.500002
31
0
39
0
210
0
220
0
230
1
0
LINE
5
13D
100
AcDbEntity
8
1
62
256
6
ByLayer
370
18
48
1
60
1
100
AcDbLine
10
-43.389216
20
6.500002
30
0
11
-43.85
21
3
31
0
39
0
210
0
220
0
230
1
0
LINE
5
13F
100
AcDbEntity
8
1
62
256
6
ByLayer
370
18
48
1
60
1
100
AcDbLine
10
-43.85
20
-3
30
0
11
-43.389216
21
-6.499998
31
0
39
0
210
0
220
0
230
1
0
LINE
5
140
100
AcDbEntity
8
1
62
256
6
ByLayer
370
18
48
1
60
1
100
AcDbLine
10
-43.389216
20
-6.499998
30
0
11
-44.310784
21
-6.500002
31
0
39
0
210
0
220
0
230
1
0
LINE
5
141
100
AcDbEntity
8
1
62
256
6
ByLayer
370
18
48
1
60
1
100
AcDbLine
10
-44.310784
20
-6.500002
30
0
11
-43.85
21
-3
31
0
39
0
210
0
220
0
230
1
0
LINE
5
145
100
AcDbEntity
8
1
62
256
6
ByLayer
370
18
48
1
60
1
100
AcDbLine
10
30
20
1.5001
30
0
11
29.539216
21
5.000098
31
0
39
0
210
0
220
0
230
1
0
LINE
5
146
100
AcDbEntity
8
1
62
256
6
ByLayer
370
18
48
1
60
1
100
AcDbLine
10
29.539216
20
5.000098
30
0
11
30.460784
21
5.000102
31
0
39
0
210
0
220
0
230
1
0
LINE
5
147
100
AcDbEntity
8
1
62
256
6
ByLayer
370
18
48
1
60
1
100
AcDbLine
10
30.460784
20
5.000102
30
0
11
30
21
1.5001
31
0
39
0
210
0
220
0
230
1
0
LINE
5
149
100
AcDbEntity
8
1
62
256
6
ByLayer
370
18
48
1
60
1
100
AcDbLine
10
30
20
-1.5001
30
0
11
30.460784
21
-5.000098
31
0
39
0
210
0
220
0
230
1
0
LINE
5
14A
100
AcDbEntity
8
1
62
256
6
ByLayer
370
18
48
1
60
1
100
AcDbLine
10
30.460784
20
-5.000098
30
0
11
29.539216
21
-5.000102
31
0
39
0
210
0
220
0
230
1
0
LINE
5
14B
100
AcDbEntity
8
1
62
256
6
ByLayer
370
18
48
1
60
1
100
AcDbLine
10
29.539216
20
-5.000102
30
0
11
30
21
-1.5001
31
0
39
0
210
0
220
0
230
1
0
LINE
5
14E
100
AcDbEntity
8
1
62
256
6
ByLayer
370
18
48
1
60
1
100
AcDbLine
10
-36
20
-33.1
30
0
11
-32.500002
21
-32.639216
31
0
39
0
210
0
220
0
230
1
0
LINE
5
14F
100
AcDbEntity
8
1
62
256
6
ByLayer
370
18
48
1
60
1
100
AcDbLine
10
-32.500002
20
-32.639216
30
0
11
-32.499998
21
-33.560784
31
0
39
0
210
0
220
0
230
1
0
LINE
5
150
100
AcDbEntity
8
1
62
256
6
ByLayer
370
18
48
1
60
1
100
AcDbLine
10
-32.499998
20
-33.560784
30
0
11
-36
21
-33.1
31
0
39
0
210
0
220
0
230
1
0
LINE
5
152
100
AcDbEntity
8
1
62
256
6
ByLayer
370
18
48
1
60
1
100
AcDbLine
10
18
20
-33.1
30
0
11
14.500002
21
-33.560784
31
0
39
0
210
0
220
0
230
1
0
LINE
5
153
100
AcDbEntity
8
1
62
256
6
ByLayer
370
18
48
1
60
1
100
AcDbLine
10
14.500002
20
-33.560784
30
0
11
14.499998
21
-32.639216
31
0
39
0
210
0
220
0
230
1
0
LINE
5
154
100
AcDbEntity
8
1
62
256
6
ByLayer
370
18
48
1
60
1
100
AcDbLine
10
14.499998
20
-32.639216
30
0
11
18
21
-33.1
31
0
39
0
210
0
220
0
230
1
0
MTEXT
5
137
100
AcDbEntity
8
SK2
62
256
6
ByLayer
370
18
48
1
60
0
100
AcDbMText
10
-45.414634
20
-17.380622
30
0
210
0
220
0
230
1
1
%%c
40
3.5
41
0
44
1.084337
50
90
71
7
72
5
7
iso_b_vert
0
MTEXT
5
13A
100
AcDbEntity
8
SK2
62
256
6
ByLayer
370
18
48
1
60
0
100
AcDbMText
10
-45.414634
20
-10.407966
30
0
210
0
220
0
230
1
1
\W0.5404;6
40
3.5
41
0
44
1.084337
50
90
71
7
72
5
7
iso_b_vert
0
MTEXT
5
143
100
AcDbEntity
8
2
62
256
6
ByLayer
370
18
48
1
60
0
100
AcDbMText
10
28.435366
20
9.434944
30
0
210
0
220
0
230
1
1
%%c
40
3.5
41
0
44
1.084337
50
90
71
7
72
5
7
iso_b_vert
0
MTEXT
5
144
100
AcDbEntity
8
2
62
256
6
ByLayer
370
18
48
1
60
0
100
AcDbMText
10
28.435366
20
16.4076
30
0
210
0
220
0
230
1
1
\W0.5404;3
40
3.5
41
0
44
1.084337
50
90
71
7
72
5
7
iso_b_vert
0
MTEXT
5
14D
100
AcDbEntity
8
SK2
62
256
6
ByLayer
370
18
48
1
60
0
100
AcDbMText
10
-11.089233
20
-32.067366
30
0
210
0
220
0
230
1
1
\W0.7167;54
40
3.5
41
0
44
1.084337
50
0
71
7
72
5
7
iso_b_vert
0
MTEXT
5
156
100
AcDbEntity
8
SK6
62
256
6
ByLayer
370
18
48
1
60
0
100
AcDbMText
10
-34.696919
20
-62.114886
30
0
210
0
220
0
230
1
1
\W0.7224;1K233-0300-020-NA   H10F
40
3
41
0
44
1.084337
50
0
71
7
72
5
7
iso_b_vert
0
HATCH
5
13E
100
AcDbEntity
8
SK2
62
256
6
ByLayer
370
13
48
1
60
0
100
AcDbHatch
10
0
20
0
30
0
210
0
220
0
230
1
2
ANSI31
70
0
71
0
91
1
92
5
93
3
72
1
10
-43.85
20
3
11
-44.3107837415528
21
6.49999830744682
72
1
10
-44.3107837415528
20
6.49999830744682
11
-43.3892162584472
21
6.50000169255318
72
1
10
-43.3892162584472
20
6.50000169255318
11
-43.85
21
3
97
0
75
0
76
1
52
0
41
0.0062
77
0
78
1
53
45
43
0
44
0
45
-0.0139193969876572
46
0.0139193969876572
79
0
47
0
98
1
10
0
20
0
0
HATCH
5
142
100
AcDbEntity
8
SK2
62
256
6
ByLayer
370
13
48
1
60
0
100
AcDbHatch
10
0
20
0
30
0
210
0
220
0
230
1
2
ANSI31
70
0
71
0
91
1
92
5
93
3
72
1
10
-43.85
20
-3.00000000000003
11
-43.3892162584472
21
-6.49999830744684
72
1
10
-43.3892162584472
20
-6.49999830744684
11
-44.3107837415528
21
-6.50000169255321
72
1
10
-44.3107837415528
20
-6.50000169255321
11
-43.85
21
-3.00000000000003
97
0
75
0
76
1
52
0
41
0.0062
77
0
78
1
53
45
43
0
44
0
45
-0.0139193969876572
46
0.0139193969876572
79
0
47
0
98
1
10
0
20
0
0
HATCH
5
148
100
AcDbEntity
8
2
62
256
6
ByLayer
370
13
48
1
60
0
100
AcDbHatch
10
0
20
0
30
0
210
0
220
0
230
1
2
ANSI31
70
0
71
0
91
1
92
5
93
3
72
1
10
30
20
1.50009999999992
11
29.5392162584472
21
5.00009830744673
72
1
10
29.5392162584472
20
5.00009830744673
11
30.4607837415528
21
5.0001016925531
72
1
10
30.4607837415528
20
5.0001016925531
11
30
21
1.50009999999992
97
0
75
0
76
1
52
0
41
0.0062
77
0
78
1
53
45
43
0
44
0
45
-0.0139193969876572
46
0.0139193969876572
79
0
47
0
98
1
10
0
20
0
0
HATCH
5
14C
100
AcDbEntity
8
2
62
256
6
ByLayer
370
13
48
1
60
0
100
AcDbHatch
10
0
20
0
30
0
210
0
220
0
230
1
2
ANSI31
70
0
71
0
91
1
92
5
93
3
72
1
10
30
20
-1.50010000000006
11
30.4607837415528
21
-5.00009830744688
72
1
10
30.4607837415528
20
-5.00009830744688
11
29.5392162584472
21
-5.00010169255324
72
1
10
29.5392162584472
20
-5.00010169255324
11
30
21
-1.50010000000006
97
0
75
0
76
1
52
0
41
0.0062
77
0
78
1
53
45
43
0
44
0
45
-0.0139193969876572
46
0.0139193969876572
79
0
47
0
98
1
10
0
20
0
0
HATCH
5
151
100
AcDbEntity
8
SK2
62
256
6
ByLayer
370
13
48
1
60
0
100
AcDbHatch
10
0
20
0
30
0
210
0
220
0
230
1
2
ANSI31
70
0
71
0
91
1
92
5
93
3
72
1
10
-36
20
-33.1000000000001
11
-32.5000016925532
21
-32.6392162584473
72
1
10
-32.5000016925532
20
-32.6392162584473
11
-32.4999983074468
21
-33.5607837415528
72
1
10
-32.4999983074468
20
-33.5607837415528
11
-36
21
-33.1000000000001
97
0
75
0
76
1
52
0
41
0.0062
77
0
78
1
53
45
43
0
44
0
45
-0.0139193969876572
46
0.0139193969876572
79
0
47
0
98
1
10
0
20
0
0
HATCH
5
155
100
AcDbEntity
8
SK2
62
256
6
ByLayer
370
13
48
1
60
0
100
AcDbHatch
10
0
20
0
30
0
210
0
220
0
230
1
2
ANSI31
70
0
71
0
91
1
92
5
93
3
72
1
10
18
20
-33.1000000000001
11
14.5000016925532
21
-33.5607837415528
72
1
10
14.5000016925532
20
-33.5607837415528
11
14.4999983074468
21
-32.6392162584473
72
1
10
14.4999983074468
20
-32.6392162584473
11
18
21
-33.1000000000001
97
0
75
0
76
1
52
0
41
0.0062
77
0
78
1
53
45
43
0
44
0
45
-0.0139193969876572
46
0.0139193969876572
79
0
47
0
98
1
10
0
20
0
0
DIMENSION
5
159
100
AcDbEntity
8
2
62
256
6
ByLayer
370
18
48
1
60
0
100
AcDbDimension
2
_U0
10
10
20
-17.1
30
0
11
14
21
-17.1
31
0
70
32
71
1
72
1
41
1
210
0
220
0
230
1
3
Standard
100
AcDbAlignedDimension
13
18
23
-1.5001
33
0
14
10
24
-1.5001
34
0
50
0
100
AcDbRotatedDimension
1001
ACAD
1000
DSTYLE
1002
{
1070
   371
1070
    13
1070
   372
1070
    13
1070
   170
1070
     0
1070
   144
1040
1.0
1070
   277
1070
     2
1070
   284
1070
     8
1070
   278
1070
    46
1070
   146
1040
1.0
1070
   345
1005
16
1070
   347
1005
16
1070
   346
1005
16
1070
   344
1005
0
1070
   343
1005
0
1070
   172
1070
     1
1070
    76
1070
     0
1070
    75
1070
     0
1070
   282
1070
     0
1070
   281
1070
     0
1070
    71
1070
     0
1070
    74
1070
     0
1070
   279
1070
     0
1070
   173
1070
     1
1070
   340
1005
138
1070
   271
1070
     2
1070
   272
1070
     2
1070
    77
1070
     1
1070
    73
1070
     1
1070
   171
1070
     3
1070
   274
1070
     4
1070
   177
1070
     2
1070
   176
1070
     2
1070
   178
1070
     2
1070
    78
1070
     8
1070
    48
1040
-0.1
1070
    41
1040
3.5
1070
   147
1040
1.75
1070
    42
1040
1.5875
1070
    44
1040
2.0
1070
   140
1040
3.5
1002
}
1001
ACAD_DSTYLE_DIM_LINETYPE
1070
   380
1005
16
1001
ACAD_DSTYLE_DIM_EXT1_LINETYPE
1070
   381
1005
16
1001
ACAD_DSTYLE_DIM_EXT2_LINETYPE
1070
   382
1005
16
0
ENDSEC
0
SECTION
2
OBJECTS
0
DICTIONARY
5
1e3
330
0
100
AcDbDictionary
280
0
281
1
3
ACAD_GROUP
350
1e4
3
ACAD_MLINESTYLE
350
1e5
0
DICTIONARY
5
1e4
330
0
100
AcDbDictionary
280
0
281
1
0
DICTIONARY
5
1e5
330
0
100
AcDbDictionary
280
0
281
1
3
Standard
350
18
0
MLINESTYLE
5
18
330
1e5
100
AcDbMlineStyle
2
Standard
70
0
3

62
256
51
90
52
90
71
2
49
-0.5
62
256
6
ByLayer
49
0.5
62
256
6
ByLayer
0
RASTERVARIABLES
5
1d1
330

100
AcDbRasterVariables
90
0
70
1
71
1
72
1
0
ENDSEC
0
EOF
