0
SECTION
2
HEADER
9
$ACADVER
1
AC1015
9
$DWGCODEPAGE
3
ANSI_1252
9
$HANDSEED
5
222
9
$ANGBASE
50
0
9
$ANGDIR
70
0
9
$ATTMODE
70
1
9
$AUNITS
70
0
9
$AUPREC
70
0
9
$CECOLOR
62
256
9
$CELTSCALE
40
1
9
$CELTYPE
6
ByLayer
9
$CELWEIGHT
370
18
9
$CLAYER
8
0
9
$CMLJUST
70
0
9
$CMLSCALE
40
1
9
$CMLSTYLE
2
Standard
9
$DIMSTYLE
2
Standard
9
$TEXTSIZE
40
0.2
9
$TEXTSTYLE
7
Standard
9
$LUNITS
70
2
9
$LUPREC
70
4
9
$EXTNAMES
290
1
9
$INSUNITS
70
4
9
$LTSCALE
40
1
9
$LWDISPLAY
290
1
9
$PDMODE
70
0
9
$PDSIZE
40
0
9
$PLINEGEN
70
0
0
ENDSEC
0
SECTION
2
CLASSES
0
CLASS
1
RASTERVARIABLES
2
AcDbRasterVariables
3
ISM
90
0
280
0
281
0
0
ENDSEC
0
SECTION
2
TABLES
0
TABLE
2
VPORT
5
218
100
AcDbSymbolTable
0
VPORT
5
1
100
AcDbSymbolTableRecord
100
AcDbViewportTableRecord
2
*Active
70
0
10
0
20
0
11
1
21
1
12
-1
22
1
13
0
23
0
14
0.5
24
0.5
15
10
25
10
16
0
26
0
36
1
17
0
27
0
37
0
0
ENDTAB
0
TABLE
2
LTYPE
5
219
100
AcDbSymbolTable
0
LTYPE
5
14
100
AcDbSymbolTableRecord
100
AcDbLinetypeTableRecord
70
0
2
ByBlock
3

72
65
73
0
40
0
0
LTYPE
5
15
100
AcDbSymbolTableRecord
100
AcDbLinetypeTableRecord
70
0
2
ByLayer
3

72
65
73
0
40
0
0
LTYPE
5
16
100
AcDbSymbolTableRecord
100
AcDbLinetypeTableRecord
70
0
2
Continuous
3
Solid line
72
65
73
0
40
0
0
LTYPE
5
6E
100
AcDbSymbolTableRecord
100
AcDbLinetypeTableRecord
70
0
2
CENTER
3
____ _ ____ _ ____ _ ____
72
65
73
4
40
47.5
49
22
74
0
49
-8.5
74
0
49
8.5
74
0
49
-8.5
74
0
0
LTYPE
5
6F
100
AcDbSymbolTableRecord
100
AcDbLinetypeTableRecord
70
0
2
DASHED
3
__ __ __ __ __ __ __ __ __
72
65
73
2
40
25.72
49
12.86
74
0
49
-12.86
74
0
0
ENDTAB
0
TABLE
2
LAYER
5
21a
100
AcDbSymbolTable
0
LAYER
5
10
100
AcDbSymbolTableRecord
100
AcDbLayerTableRecord
2
0
70
0
62
7
6
Continuous
290
1
370
-3
390
0
0
LAYER
5
71
100
AcDbSymbolTableRecord
100
AcDbLayerTableRecord
2
80
70
0
62
-6
6
Continuous
290
1
370
-3
390
0
0
LAYER
5
73
100
AcDbSymbolTableRecord
100
AcDbLayerTableRecord
2
81
70
0
62
-3
6
Continuous
290
1
370
-3
390
0
0
LAYER
5
75
100
AcDbSymbolTableRecord
100
AcDbLayerTableRecord
2
1
70
0
62
4
6
Continuous
290
1
370
-3
390
0
0
LAYER
5
7B
100
AcDbSymbolTableRecord
100
AcDbLayerTableRecord
2
4
70
0
62
-2
6
CENTER
290
1
370
-3
390
0
0
LAYER
5
DD
100
AcDbSymbolTableRecord
100
AcDbLayerTableRecord
2
2
70
0
62
7
6
Continuous
290
1
370
-3
390
0
0
LAYER
5
177
100
AcDbSymbolTableRecord
100
AcDbLayerTableRecord
2
Defpoints
70
0
62
7
6
Continuous
290
0
370
-3
390
0
0
LAYER
5
204
100
AcDbSymbolTableRecord
100
AcDbLayerTableRecord
2
SK4
70
0
62
2
6
CENTER
290
1
370
-3
390
0
0
LAYER
5
205
100
AcDbSymbolTableRecord
100
AcDbLayerTableRecord
2
SK1
70
0
62
4
6
Continuous
290
1
370
-3
390
0
0
LAYER
5
206
100
AcDbSymbolTableRecord
100
AcDbLayerTableRecord
2
SK2
70
0
62
7
6
Continuous
290
1
370
-3
390
0
0
LAYER
5
207
100
AcDbSymbolTableRecord
100
AcDbLayerTableRecord
2
SK6
70
0
62
5
6
Continuous
290
1
370
-3
390
0
0
ENDTAB
0
TABLE
2
STYLE
5
21b
100
AcDbSymbolTable
0
STYLE
5
11
100
AcDbSymbolTableRecord
100
AcDbTextStyleTableRecord
2
Standard
3
txt
70
0
71
0
40
0
41
1
42
0
50
0
0
STYLE
5
149
100
AcDbSymbolTableRecord
100
AcDbTextStyleTableRecord
2
iso_b_vert
3
simplex.shx
70
0
71
0
40
0
41
1
42
0
50
0
0
STYLE
5
14A
100
AcDbSymbolTableRecord
100
AcDbTextStyleTableRecord
2
DWGDirectTextStyle
3
simplex
70
0
71
0
40
0
41
1
42
0
50
0
0
ENDTAB
0
TABLE
2
DIMSTYLE
5
21c
100
AcDbSymbolTable
100
AcDbDimStyleTable
0
DIMSTYLE
105
27
100
AcDbSymbolTableRecord
100
AcDbDimStyleTableRecord
2
Standard
70
0
3
<>
41
0.18
42
0.0625
44
0.18
140
0.18
147
0.09
73
0
74
0
77
1
271
2
275
0
278
52
280
0
340
11
0
ENDTAB
0
TABLE
2
VIEW
5
21d
100
AcDbSymbolTable
0
ENDTAB
0
TABLE
2
UCS
5
21e
100
AcDbSymbolTable
0
ENDTAB
0
TABLE
2
APPID
5
21f
100
AcDbSymbolTable
0
APPID
5
12
100
AcDbSymbolTableRecord
100
AcDbRegAppTableRecord
2
ACAD
70
0
0
APPID
5
173
100
AcDbSymbolTableRecord
100
AcDbRegAppTableRecord
2
ACAD_DSTYLE_DIMBREAK
70
0
0
APPID
5
1C3
100
AcDbSymbolTableRecord
100
AcDbRegAppTableRecord
2
ACAD_DSTYLE_DIM_LINETYPE
70
0
0
APPID
5
1C4
100
AcDbSymbolTableRecord
100
AcDbRegAppTableRecord
2
ACAD_DSTYLE_DIM_EXT1_LINETYPE
70
0
0
APPID
5
1C5
100
AcDbSymbolTableRecord
100
AcDbRegAppTableRecord
2
ACAD_DSTYLE_DIM_EXT2_LINETYPE
70
0
0
APPID
5
200
100
AcDbSymbolTableRecord
100
AcDbRegAppTableRecord
2
ACAD_MLEADERVER
70
0
0
ENDTAB
0
TABLE
2
BLOCK_RECORD
5
220
100
AcDbSymbolTable
0
BLOCK_RECORD
5
1F
100
AcDbSymbolTableRecord
100
AcDbBlockTableRecord
2
*Model_Space
340
0
70
0
0
BLOCK_RECORD
5
1B
100
AcDbSymbolTableRecord
100
AcDbBlockTableRecord
2
*Paper_Space
340
0
70
0
0
BLOCK_RECORD
5
23
100
AcDbSymbolTableRecord
100
AcDbBlockTableRecord
2
*Paper_Space0
340
0
70
0
0
BLOCK_RECORD
5
178
100
AcDbSymbolTableRecord
100
AcDbBlockTableRecord
2
*D1
340
0
70
0
0
BLOCK_RECORD
5
184
100
AcDbSymbolTableRecord
100
AcDbBlockTableRecord
2
_U0
340
0
70
0
0
BLOCK_RECORD
5
190
100
AcDbSymbolTableRecord
100
AcDbBlockTableRecord
2
*D3
340
0
70
0
0
BLOCK_RECORD
5
19C
100
AcDbSymbolTableRecord
100
AcDbBlockTableRecord
2
_U1
340
0
70
0
0
ENDTAB
0
ENDSEC
0
SECTION
2
BLOCKS
0
BLOCK
5
20
100
AcDbEntity
8
0
100
AcDbBlockBegin
2
*Model_Space
70
0
10
0
20
0
30
0
3
*Model_Space
0
ENDBLK
5
21
100
AcDbEntity
8
0
100
AcDbBlockEnd
0
BLOCK
5
1C
100
AcDbEntity
8
0
100
AcDbBlockBegin
2
*Paper_Space
70
0
10
0
20
0
30
0
3
*Paper_Space
0
ENDBLK
5
1D
100
AcDbEntity
8
0
100
AcDbBlockEnd
0
BLOCK
5
24
100
AcDbEntity
8
0
100
AcDbBlockBegin
2
*Paper_Space0
70
0
10
0
20
0
30
0
3
*Paper_Space0
0
ENDBLK
5
25
100
AcDbEntity
8
0
100
AcDbBlockEnd
0
BLOCK
5
179
100
AcDbEntity
8
0
100
AcDbBlockBegin
2
*D1
70
1
10
0
20
0
30
0
3
*D1
0
LINE
5
17B
100
AcDbEntity
8
0
62
256
6
ByLayer
370
-2
48
1
60
0
100
AcDbLine
10
79
20
-14.0875
30
0
11
79
21
-30.535422
31
0
39
0
210
0
220
0
230
1
0
LINE
5
17C
100
AcDbEntity
8
0
62
256
6
ByLayer
370
-2
48
1
60
0
100
AcDbLine
10
41.5
20
-14.0875
30
0
11
41.5
21
-30.535422
31
0
39
0
210
0
220
0
230
1
0
LINE
5
17D
100
AcDbEntity
8
0
62
256
6
ByLayer
370
-2
48
1
60
0
100
AcDbLine
10
75.5
20
-28.535422
30
0
11
45
21
-28.535422
31
0
39
0
210
0
220
0
230
1
0
SOLID
5
17E
100
AcDbEntity
8
0
62
256
6
ByLayer
370
-1
48
1
60
0
100
AcDbTrace
10
75.5
20
-29.118756
30
0
11
75.5
21
-27.952089
31
0
12
79
22
-28.535422
32
0
13
79
23
-28.535422
33
0
39
0
210
0
220
0
230
1
0
SOLID
5
17F
100
AcDbEntity
8
0
62
256
6
ByLayer
370
-1
48
1
60
0
100
AcDbTrace
10
45
20
-27.952089
30
0
11
45
21
-29.118756
31
0
12
41.5
22
-28.535422
32
0
13
41.5
23
-28.535422
33
0
39
0
210
0
220
0
230
1
0
MTEXT
5
180
100
AcDbEntity
8
0
62
256
6
ByLayer
370
18
48
1
60
0
100
AcDbMText
10
60.25
20
-21.535422
30
0
210
0
220
0
230
1
1
\A1;37.5
40
3.5
41
0
44
1
50
0
71
5
72
5
7
iso_b_vert
0
POINT
5
181
100
AcDbEntity
8
Defpoints
62
0
6
ByLayer
370
-1
48
1
60
0
100
AcDbPoint
10
79
20
-12.5
30
0
39
0
210
0
220
0
230
1
50
360
0
POINT
5
182
100
AcDbEntity
8
Defpoints
62
0
6
ByLayer
370
-1
48
1
60
0
100
AcDbPoint
10
41.5
20
-12.5
30
0
39
0
210
0
220
0
230
1
50
360
0
POINT
5
183
100
AcDbEntity
8
Defpoints
62
0
6
ByLayer
370
-1
48
1
60
0
100
AcDbPoint
10
41.5
20
-28.535422
30
0
39
0
210
0
220
0
230
1
50
360
0
ENDBLK
5
17A
100
AcDbEntity
8
0
100
AcDbBlockEnd
0
BLOCK
5
18B
100
AcDbEntity
8
0
100
AcDbBlockBegin
2
_U0
70
0
10
0
20
0
30
0
3
_U0
0
MTEXT
5
185
100
AcDbEntity
8
2
62
256
6
ByLayer
370
18
48
1
60
0
100
AcDbMText
10
56.328301
20
-27.502789
30
0
210
0
220
0
230
1
1
\W0.7346;37.5
40
3.5
41
0
44
1.084337
50
0
71
7
72
5
7
iso_b_vert
0
LINE
5
186
100
AcDbEntity
8
2
62
256
6
ByLayer
370
13
48
1
60
0
100
AcDbLine
10
79
20
-14.0875
30
0
11
79
21
-30.535422
31
0
39
0
210
0
220
0
230
1
0
LINE
5
187
100
AcDbEntity
8
2
62
256
6
ByLayer
370
13
48
1
60
0
100
AcDbLine
10
41.5
20
-14.0875
30
0
11
41.5
21
-30.535422
31
0
39
0
210
0
220
0
230
1
0
LINE
5
188
100
AcDbEntity
8
2
62
256
6
ByLayer
370
13
48
1
60
0
100
AcDbLine
10
79
20
-28.535422
30
0
11
41.5
21
-28.535422
31
0
39
0
210
0
220
0
230
1
0
SOLID
5
189
100
AcDbEntity
8
2
62
256
6
ByLayer
370
18
48
1
60
0
100
AcDbTrace
10
79
20
-28.535422
30
0
11
75.500002
21
-28.996206
31
0
12
75.499998
22
-28.074638
32
0
13
75.499998
23
-28.074638
33
0
39
0
210
0
220
0
230
1
0
SOLID
5
18A
100
AcDbEntity
8
2
62
256
6
ByLayer
370
18
48
1
60
0
100
AcDbTrace
10
41.5
20
-28.535422
30
0
11
44.999998
21
-28.074638
31
0
12
45.000002
22
-28.996206
32
0
13
45.000002
23
-28.996206
33
0
39
0
210
0
220
0
230
1
0
ENDBLK
5
18C
100
AcDbEntity
8
0
100
AcDbBlockEnd
0
BLOCK
5
191
100
AcDbEntity
8
0
100
AcDbBlockBegin
2
*D3
70
1
10
0
20
0
30
0
3
*D3
0
LINE
5
193
100
AcDbEntity
8
0
62
256
6
ByLayer
370
-2
48
1
60
0
100
AcDbLine
10
79
20
-14.0875
30
0
11
79
21
-45.535422
31
0
39
0
210
0
220
0
230
1
0
LINE
5
194
100
AcDbEntity
8
0
62
256
6
ByLayer
370
-2
48
1
60
0
100
AcDbLine
10
3.997679
20
-13.5875
30
0
11
3.997679
21
-45.535422
31
0
39
0
210
0
220
0
230
1
0
LINE
5
195
100
AcDbEntity
8
0
62
256
6
ByLayer
370
-2
48
1
60
0
100
AcDbLine
10
75.5
20
-43.535422
30
0
11
7.497679
21
-43.535422
31
0
39
0
210
0
220
0
230
1
0
SOLID
5
196
100
AcDbEntity
8
0
62
256
6
ByLayer
370
-1
48
1
60
0
100
AcDbTrace
10
75.5
20
-44.118756
30
0
11
75.5
21
-42.952089
31
0
12
79
22
-43.535422
32
0
13
79
23
-43.535422
33
0
39
0
210
0
220
0
230
1
0
SOLID
5
197
100
AcDbEntity
8
0
62
256
6
ByLayer
370
-1
48
1
60
0
100
AcDbTrace
10
7.497679
20
-42.952089
30
0
11
7.497679
21
-44.118756
31
0
12
3.997679
22
-43.535422
32
0
13
3.997679
23
-43.535422
33
0
39
0
210
0
220
0
230
1
0
MTEXT
5
198
100
AcDbEntity
8
0
62
256
6
ByLayer
370
18
48
1
60
0
100
AcDbMText
10
41.498839
20
-36.535422
30
0
210
0
220
0
230
1
1
\A1;75
40
3.5
41
0
44
1
50
0
71
5
72
5
7
iso_b_vert
0
POINT
5
199
100
AcDbEntity
8
Defpoints
62
0
6
ByLayer
370
-1
48
1
60
0
100
AcDbPoint
10
79
20
-12.5
30
0
39
0
210
0
220
0
230
1
50
360
0
POINT
5
19A
100
AcDbEntity
8
Defpoints
62
0
6
ByLayer
370
-1
48
1
60
0
100
AcDbPoint
10
3.997679
20
-12
30
0
39
0
210
0
220
0
230
1
50
360
0
POINT
5
19B
100
AcDbEntity
8
Defpoints
62
0
6
ByLayer
370
-1
48
1
60
0
100
AcDbPoint
10
3.997679
20
-43.535422
30
0
39
0
210
0
220
0
230
1
50
360
0
ENDBLK
5
192
100
AcDbEntity
8
0
100
AcDbBlockEnd
0
BLOCK
5
1A3
100
AcDbEntity
8
0
100
AcDbBlockBegin
2
_U1
70
0
10
0
20
0
30
0
3
_U1
0
MTEXT
5
19D
100
AcDbEntity
8
SK2
62
256
6
ByLayer
370
18
48
1
60
0
100
AcDbMText
10
39.593873
20
-42.502789
30
0
210
0
220
0
230
1
1
\W0.6740;75
40
3.5
41
0
44
1.084337
50
0
71
7
72
5
7
iso_b_vert
0
LINE
5
19E
100
AcDbEntity
8
SK2
62
256
6
ByLayer
370
13
48
1
60
0
100
AcDbLine
10
79
20
-14.0875
30
0
11
79
21
-45.535422
31
0
39
0
210
0
220
0
230
1
0
LINE
5
19F
100
AcDbEntity
8
SK2
62
256
6
ByLayer
370
13
48
1
60
0
100
AcDbLine
10
3.997679
20
-13.5875
30
0
11
3.997679
21
-45.535422
31
0
39
0
210
0
220
0
230
1
0
LINE
5
1A0
100
AcDbEntity
8
SK2
62
256
6
ByLayer
370
13
48
1
60
0
100
AcDbLine
10
79
20
-43.535422
30
0
11
3.997679
21
-43.535422
31
0
39
0
210
0
220
0
230
1
0
SOLID
5
1A1
100
AcDbEntity
8
SK2
62
256
6
ByLayer
370
18
48
1
60
0
100
AcDbTrace
10
79
20
-43.535422
30
0
11
75.500002
21
-43.996206
31
0
12
75.499998
22
-43.074638
32
0
13
75.499998
23
-43.074638
33
0
39
0
210
0
220
0
230
1
0
SOLID
5
1A2
100
AcDbEntity
8
SK2
62
256
6
ByLayer
370
18
48
1
60
0
100
AcDbTrace
10
3.997679
20
-43.535422
30
0
11
7.497677
21
-43.074638
31
0
12
7.497681
22
-43.996206
32
0
13
7.497681
23
-43.996206
33
0
39
0
210
0
220
0
230
1
0
ENDBLK
5
1A4
100
AcDbEntity
8
0
100
AcDbBlockEnd
0
ENDSEC
0
SECTION
2
ENTITIES
0
ARC
5
EF
100
AcDbEntity
8
1
62
256
6
ByLayer
370
18
48
1
60
0
100
AcDbCircle
39
0
10
3.997679
20
13
30
0
40
1
210
0
220
0
230
1
100
AcDbArc
50
240
51
270
0
ARC
5
F0
100
AcDbEntity
8
1
62
256
6
ByLayer
370
18
48
1
60
0
100
AcDbCircle
39
0
10
3.997679
20
-13
30
0
40
1
210
0
220
0
230
1
100
AcDbArc
50
90
51
120
0
ELLIPSE
5
F1
100
AcDbEntity
8
1
62
256
6
ByLayer
370
18
48
1
60
0
100
AcDbEllipse
10
55.088365
20
0
30
0
11
25.9418379090201
21
-8.31889615802734
31
0
210
0
220
0
230
1
40
0.333379
41
-2.45122718019032
42
-2.06387703838563
0
POINT
5
70
100
AcDbEntity
8
80
62
256
6
ByLayer
370
18
48
1
60
0
100
AcDbPoint
10
0
20
0
30
0
39
0
210
0
220
0
230
1
50
360
0
POINT
5
72
100
AcDbEntity
8
81
62
256
6
ByLayer
370
18
48
1
60
0
100
AcDbPoint
10
79
20
0
30
0
39
0
210
0
220
0
230
1
50
360
0
POINT
5
74
100
AcDbEntity
8
1
62
256
6
ByLayer
370
18
48
1
60
1
100
AcDbPoint
10
79
20
-12.5
30
0
39
0
210
0
220
0
230
1
50
360
0
POINT
5
76
100
AcDbEntity
8
1
62
256
6
ByLayer
370
18
48
1
60
1
100
AcDbPoint
10
41.5
20
-12.5
30
0
39
0
210
0
220
0
230
1
50
360
0
POINT
5
77
100
AcDbEntity
8
1
62
256
6
ByLayer
370
18
48
1
60
1
100
AcDbPoint
10
79
20
-12.5
30
0
39
0
210
0
220
0
230
1
50
360
0
POINT
5
78
100
AcDbEntity
8
1
62
256
6
ByLayer
370
18
48
1
60
1
100
AcDbPoint
10
3.997679
20
-12
30
0
39
0
210
0
220
0
230
1
50
360
0
SPLINE
5
F2
100
AcDbEntity
8
1
62
256
6
ByLayer
370
18
48
1
60
0
100
AcDbSpline
70
4
71
3
72
8
73
4
40
0
40
0
40
0
40
0
40
1
40
1
40
1
40
1
41
1
10
40.6986314343938
20
11.9570260377554
30
0
41
1
10
40.756726911111
20
11.9767909462351
30
0
41
1
10
40.8125314660847
20
12.0018430418462
30
0
41
1
10
40.8660254037855
20
12.0322277796336
30
0
0
SPLINE
5
F3
100
AcDbEntity
8
1
62
256
6
ByLayer
370
18
48
1
60
0
100
AcDbSpline
70
4
71
3
72
8
73
4
40
0
40
0
40
0
40
0
40
1
40
1
40
1
40
1
41
1
10
40.8660254037845
20
12.0322277796359
30
0
41
1
10
41.077333862159
20
12.1522516996523
30
0
41
1
10
41.2886451903801
20
12.2722704505837
30
0
41
1
10
41.4999591458537
20
12.3922844686018
30
0
0
SPLINE
5
F4
100
AcDbEntity
8
1
62
256
6
ByLayer
370
18
48
1
60
0
100
AcDbSpline
70
4
71
3
72
8
73
4
40
0
40
0
40
0
40
0
40
1
40
1
40
1
40
1
41
1
10
78.5606772334032
20
12.4963119918635
30
0
41
1
10
78.6335420811193
20
12.4957244063375
30
0
41
1
10
78.706408699038
20
12.4953567146625
30
0
41
1
10
78.779277091666
20
12.4952094766677
30
0
0
SPLINE
5
F5
100
AcDbEntity
8
1
62
256
6
ByLayer
370
18
48
1
60
0
100
AcDbSpline
70
4
71
3
72
8
73
4
40
0
40
0
40
0
40
0
40
1
40
1
40
1
40
1
41
1
10
78.7792770916182
20
12.4952094766823
30
0
41
1
10
78.8528342228281
20
12.4896880407519
30
0
41
1
10
78.9264085479285
20
12.4843984260833
30
0
41
1
10
79.0000000000001
20
12.4793397317259
30
0
0
SPLINE
5
F6
100
AcDbEntity
8
1
62
256
6
ByLayer
370
18
48
1
60
0
100
AcDbSpline
70
4
71
3
72
8
73
4
40
0
40
0
40
0
40
0
40
1
40
1
40
1
40
1
41
1
10
44.5693390919488
20
-8.92498700930144
30
0
41
1
10
43.5462260612993
20
-9.09887795811431
30
0
41
1
10
42.5231130306496
20
-9.22867805446444
30
0
41
1
10
41.5
20
-9.31080842187802
30
0
0
SPLINE
5
F7
100
AcDbEntity
8
1
62
256
6
ByLayer
370
18
48
1
60
0
100
AcDbSpline
70
4
71
3
72
8
73
4
40
0
40
0
40
0
40
0
40
1
40
1
40
1
40
1
41
1
10
78.5606772334132
20
12.4963119918668
30
0
41
1
10
78.6485306303438
20
12.207333116703
30
0
41
1
10
78.7429502014436
20
11.9205671514344
30
0
41
1
10
78.8454364100035
20
11.6365197777602
30
0
0
SPLINE
5
F8
100
AcDbEntity
8
1
62
256
6
ByLayer
370
18
48
1
60
0
100
AcDbSpline
70
4
71
3
72
28
73
24
40
0
40
0
40
0
40
0
40
0.0307219216397586
40
0.0307219216397586
40
0.0728644467858512
40
0.0728644467858512
40
0.157149497078037
40
0.157149497078037
40
0.32571959766241
40
0.32571959766241
40
0.410004647954599
40
0.410004647954599
40
0.431075910527648
40
0.431075910527648
40
0.452147173100697
40
0.452147173100697
40
0.494289698246795
40
0.494289698246795
40
0.662859798831197
40
0.662859798831197
40
0.831429899415599
40
0.831429899415599
40
1
40
1
40
1
40
1
41
1
10
64.8368743506491
20
8.76835787134678
30
0
41
1
10
64.9776867180186
20
8.83865649113653
30
0
41
1
10
65.1185496261211
20
8.90816305016614
30
0
41
1
10
65.4527918971308
20
9.07109952520329
30
0
41
1
10
65.6462657008477
20
9.16383618545274
30
0
41
1
10
66.226913523463
20
9.43724049738574
30
0
41
1
10
66.6134390135862
20
9.61267977513089
30
0
41
1
10
67.7721348745954
20
10.1178000555911
30
0
41
1
10
68.5434535958279
20
10.4263095319887
30
0
41
1
10
69.7016734094777
20
10.8447530646679
30
0
41
1
10
70.0879488920943
20
10.9768371734289
30
0
41
1
10
70.5713649077383
20
11.1324068023153
30
0
41
1
10
70.6680767512231
20
11.163043815492
30
0
41
1
10
70.8615659449193
20
11.2233560898485
30
0
41
1
10
70.9583731911252
20
11.2530403163403
30
0
41
1
10
71.2486717955483
20
11.3405674211399
30
0
41
1
10
71.441971300359
20
11.3968656100277
30
0
41
1
10
72.4074786924705
20
11.668028278109
30
0
41
1
10
73.1767229416034
20
11.8518849875761
30
0
41
1
10
74.7133408823864
20
12.1524896136038
30
0
41
1
10
75.4807122195786
20
12.2692822780375
30
0
41
1
10
77.0178535564201
20
12.434596494018
30
0
41
1
10
77.7876228889803
20
12.4831082194058
30
0
41
1
10
78.560677233404
20
12.4963119918632
30
0
0
SPLINE
5
F9
100
AcDbEntity
8
1
62
256
6
ByLayer
370
18
48
1
60
0
100
AcDbSpline
70
4
71
3
72
17
73
13
40
0
40
0
40
0
40
0
40
0.25
40
0.500000000000001
40
0.500000000000001
40
0.625
40
0.625
40
0.6875
40
0.6875
40
0.749999999999999
40
0.749999999999999
40
1
40
1
40
1
40
1
41
1
10
78.9674264446377
20
11.2555659867887
30
0
41
1
10
78.9427126473645
20
11.0536095765158
30
0
41
1
10
78.8964985988479
20
10.647874605149
30
0
41
1
10
78.8566436309075
20
10.2385338961387
30
0
41
1
10
78.8291744472749
20
9.93015501345801
30
0
41
1
10
78.8204223793166
20
9.82713279055503
30
0
41
1
10
78.8079116389945
20
9.6722493986741
30
0
41
1
10
78.8038443306637
20
9.62056323303378
30
0
41
1
10
78.7959179644683
20
9.51707281918812
30
0
41
1
10
78.7920758672849
20
9.46548961639954
30
0
41
1
10
78.7734709105142
20
9.20848457093962
30
0
41
1
10
78.7605111892451
20
9.00566950591187
30
0
41
1
10
78.7494014538669
20
8.80553578339251
30
0
0
SPLINE
5
FA
100
AcDbEntity
8
1
62
256
6
ByLayer
370
18
48
1
60
0
100
AcDbSpline
70
4
71
3
72
8
73
4
40
0
40
0
40
0
40
0
40
1
40
1
40
1
40
1
41
1
10
78.8454364002896
20
11.6365197745797
30
0
41
1
10
78.8907310851856
20
11.510982211123
30
0
41
1
10
78.9316462761221
20
11.3840763020417
30
0
41
1
10
78.9674264446378
20
11.2555659867888
30
0
0
SPLINE
5
FB
100
AcDbEntity
8
1
62
256
6
ByLayer
370
13
48
1
60
0
100
AcDbSpline
70
4
71
3
72
14
73
10
40
0
40
0
40
0
40
0
40
0.168327109383637
40
0.348538653870961
40
0.483697312236455
40
0.618855970601948
40
0.754014628967441
40
0.889173287332935
40
1
40
1
40
1
40
1
41
1
10
78.8454364016828
20
11.6365197745129
30
0
41
1
10
78.1157076011219
20
11.6260403984468
30
0
41
1
10
76.6047288005609
20
11.5426124995821
30
0
41
1
10
74.5078125
20
11.2556422572986
30
0
41
0.999999999999999
10
72.5546875000001
20
10.8494134211895
30
0
41
1
10
70.7968749999999
20
10.3797204299739
30
0
41
1
10
69.0390625000001
20
9.8086269209382
30
0
41
1
10
67.3867334340996
20
9.18039876611738
30
0
41
1
10
66.3203418681991
20
8.72631942879084
30
0
41
1
10
65.8398878022985
20
8.5125901697379
30
0
0
SPLINE
5
FC
100
AcDbEntity
8
1
62
256
6
ByLayer
370
18
48
1
60
0
100
AcDbSpline
70
4
71
3
72
42
73
38
40
0
40
0
40
0
40
0
40
0.0346338356084164
40
0.0346338356084164
40
0.0519507534126216
40
0.0519507534126216
40
0.0692676712168268
40
0.0692676712168268
40
0.138535342433647
40
0.138535342433647
40
0.173169178042062
40
0.173169178042062
40
0.190486095846269
40
0.190486095846269
40
0.207803013650476
40
0.207803013650476
40
0.277070684867296
40
0.277070684867296
40
0.346338356084116
40
0.346338356084116
40
0.415606027300936
40
0.415606027300936
40
0.484873698517756
40
0.484873698517756
40
0.519507534126172
40
0.519507534126172
40
0.554141369734587
40
0.554141369734587
40
0.623409040951407
40
0.623409040951407
40
0.692676712168227
40
0.692676712168227
40
0.831212054601867
40
0.831212054601867
40
0.969747397035506
40
0.969747397035506
40
1
40
1
40
1
40
1
41
1
10
78.749401453858
20
8.8055357833957
30
0
41
1
10
78.7056125121013
20
8.73185336789012
30
0
41
1
10
78.6582019651746
20
8.66004908388467
30
0
41
1
10
78.5818471533839
20
8.55505955116459
30
0
41
1
10
78.5555064895705
20
8.52050518386443
30
0
41
1
10
78.5016767824164
20
8.45295739417605
30
0
41
1
10
78.4741234129793
20
8.41987216341724
30
0
41
1
10
78.333358416743
20
8.25767962949365
30
0
41
1
10
78.2112073420732
20
8.13821386708733
30
0
41
1
10
78.0166696963705
20
7.97121461140426
30
0
41
1
10
77.9499276409182
20
7.91759328945841
30
0
41
1
10
77.8472629247473
20
7.83991334154814
30
0
41
1
10
77.8126155989187
20
7.81447921751052
30
0
41
1
10
77.7425129307401
20
7.76448244654847
30
0
41
1
10
77.7070273551526
20
7.73990103801873
30
0
41
1
10
77.5286202197484
20
7.61968111628818
30
0
41
1
10
77.3821226777058
20
7.5315385319748
30
0
41
1
10
77.0834149614273
20
7.3674202812945
30
0
41
1
10
76.9311939856377
20
7.29146762036836
30
0
41
1
10
76.6222522087875
20
7.14914614760622
30
0
41
1
10
76.4655259123971
20
7.08278903987153
30
0
41
1
10
76.1484372725789
20
6.95781897534039
30
0
41
1
10
75.9880717074894
20
6.89921288012522
30
0
41
1
10
75.7452749445227
20
6.81609247285158
30
0
41
1
10
75.6640647563779
20
6.78922131213605
30
0
41
1
10
75.5013885260051
20
6.73706946083982
30
0
41
1
10
75.4198819936483
20
6.71177501454369
30
0
41
1
10
75.1749046500615
20
6.63801568385378
30
0
41
1
10
75.0109777638977
20
6.59166705128033
30
0
41
1
10
74.6821114091488
20
6.50366831094729
30
0
41
1
10
74.5171713735764
20
6.46202083408866
30
0
41
1
10
74.0210668290827
20
6.34303837539633
30
0
41
1
10
73.6886291145572
20
6.27161124658997
30
0
41
1
10
73.0212340674152
20
6.14044837120159
30
0
41
1
10
72.6862711848736
20
6.08073837705135
30
0
41
1
10
72.2769737564249
20
6.01349779341729
30
0
41
1
10
72.2035667688637
20
6.00166320278595
30
0
41
1
10
72.130115237968
20
5.99003529948968
30
0
0
SPLINE
5
FD
100
AcDbEntity
8
1
62
256
6
ByLayer
370
18
48
1
60
0
100
AcDbSpline
70
4
71
3
72
10
73
6
40
0
40
0
40
0
40
0
40
0.5
40
0.5
40
1
40
1
40
1
40
1
41
1
10
40.3660254037851
20
11.9055412909987
30
0
41
1
10
40.4228238849585
20
11.9044474793664
30
0
41
1
10
40.4789157755652
20
11.9082283808682
30
0
41
1
10
40.5897743547494
20
11.9253178259676
30
0
41
1
10
40.6445410635237
20
11.938623723319
30
0
41
1
10
40.6986314343938
20
11.9570260377554
30
0
0
SPLINE
5
FE
100
AcDbEntity
8
1
62
256
6
ByLayer
370
18
48
1
60
0
100
AcDbSpline
70
4
71
3
72
14
73
10
40
0
40
0
40
0
40
0
40
0.250000000000001
40
0.250000000000001
40
0.500000000000001
40
0.500000000000001
40
0.75
40
0.75
40
1
40
1
40
1
40
1
41
1
10
70.0251075791202
20
-3.76414776520014
30
0
41
1
10
70.0562370510356
20
-3.82480159446163
30
0
41
1
10
70.0860570963762
20
-3.88656360744693
30
0
41
1
10
70.1425374456016
20
-4.01276176125455
30
0
41
1
10
70.1692478729075
20
-4.07735300403013
30
0
41
1
10
70.2181318991019
20
-4.20816875971425
30
0
41
1
10
70.2403858432063
20
-4.27453846651244
30
0
41
1
10
70.2795214058717
20
-4.40963944104968
30
0
41
1
10
70.2964143521789
20
-4.47836572944252
30
0
41
1
10
70.309858299848
20
-4.54860812476318
30
0
0
SPLINE
5
FF
100
AcDbEntity
8
1
62
256
6
ByLayer
370
18
48
1
60
0
100
AcDbSpline
70
4
71
3
72
22
73
18
40
0
40
0
40
0
40
0
40
0.250000000000004
40
0.250000000000004
40
0.375000000000017
40
0.375000000000017
40
0.437500000000016
40
0.437500000000016
40
0.500000000000014
40
0.500000000000014
40
0.750000000000007
40
0.750000000000007
40
0.875000000000003
40
0.875000000000003
40
0.937500000000002
40
0.937500000000002
40
1
40
1
40
1
40
1
41
1
10
70.025107579119
20
-3.76414776520099
30
0
41
1
10
69.9933841983964
20
-3.70233674177041
30
0
41
1
10
69.9690318168994
20
-3.63862586335117
30
0
41
1
10
69.9420393043838
20
-3.54124860970259
30
0
41
1
10
69.9346409681157
20
-3.50848420972733
30
0
41
1
10
69.9258378602662
20
-3.4589823473876
30
0
41
1
10
69.9232864724044
20
-3.44242235060577
30
0
41
1
10
69.9189394028505
20
-3.40919888950069
30
0
41
1
10
69.9171478850635
20
-3.39254985364712
30
0
41
1
10
69.9101078733818
20
-3.30991537003845
30
0
41
1
10
69.910455744569
20
-3.24509924415443
30
0
41
1
10
69.9188260750709
20
-3.15023464201539
30
0
41
1
10
69.9229364712946
20
-3.11900615728752
30
0
41
1
10
69.9310432696678
20
-3.07280912369228
30
0
41
1
10
69.9340740902648
20
-3.0575009732247
30
0
41
1
10
69.9407493856327
20
-3.02726245928474
30
0
41
1
10
69.9443956438197
20
-3.01231753009878
30
0
41
1
10
69.9483460013836
20
-2.99754939642327
30
0
0
SPLINE
5
100
100
AcDbEntity
8
1
62
256
6
ByLayer
370
18
48
1
60
0
100
AcDbSpline
70
4
71
3
72
10
73
6
40
0
40
0
40
0
40
0
40
0.149477852699925
40
0.149477852699925
40
1
40
1
40
1
40
1
41
1
10
71.0426264270063
20
6.80937308438837
30
0
41
1
10
71.0485081359685
20
6.80773491950208
30
0
41
1
10
71.0545677593611
20
6.80591207135569
30
0
41
1
10
71.0962246387432
20
6.79250353180924
30
0
41
1
10
71.1369677242952
20
6.77527140763129
30
0
41
1
10
71.1827381342467
20
6.75252476513273
30
0
0
SPLINE
5
101
100
AcDbEntity
8
1
62
256
6
ByLayer
370
18
48
1
60
0
100
AcDbSpline
70
4
71
3
72
16
73
12
40
0
40
0
40
0
40
0
40
0.249999999999994
40
0.249999999999994
40
0.312499999999995
40
0.312499999999995
40
0.374999999999996
40
0.499999999999997
40
0.499999999999997
40
0.749999999999998
40
1
40
1
40
1
40
1
41
1
10
71.180175813133
20
-6.75837394613754
30
0
41
1
10
71.1459174392452
20
-6.90243548424914
30
0
41
1
10
71.1162624453524
20
-7.04668823575184
30
0
41
1
10
71.0853887533498
20
-7.22726150270023
30
0
41
1
10
71.0795248310004
20
-7.26339060396651
30
0
41
1
10
71.0684704192408
20
-7.33539494157699
30
0
41
1
10
71.0528805583173
20
-7.44312525512112
30
0
41
1
10
71.0402777100978
20
-7.55002371988323
30
0
41
1
10
71.0190976131695
20
-7.76269956611077
30
0
41
1
10
71.0015841765152
20
-8.04328010021359
30
0
41
1
10
71.0061846071266
20
-8.31770217589241
30
0
41
1
10
71.0142534445118
20
-8.4533067186392
30
0
0
SPLINE
5
102
100
AcDbEntity
8
1
62
256
6
ByLayer
370
18
48
1
60
0
100
AcDbSpline
70
4
71
3
72
19
73
15
40
0
40
0
40
0
40
0
40
0.250000000000001
40
0.250000000000001
40
0.375000000000001
40
0.375000000000001
40
0.5
40
0.5
40
0.625
40
0.625
40
0.75
40
0.875
40
0.875
40
1
40
1
40
1
40
1
41
1
10
70.3098583003743
20
-4.54860812447137
30
0
41
1
10
70.3482263441747
20
-4.74906725389025
30
0
41
1
10
70.3963561043324
20
-4.94631992878413
30
0
41
1
10
70.4823634750827
20
-5.23766184025723
30
0
41
1
10
70.5133830759475
20
-5.33412280863422
30
0
41
1
10
70.579461291182
20
-5.52426282610321
30
0
41
1
10
70.6145592516067
20
-5.61809459073169
30
0
41
1
10
70.6886882230741
20
-5.80339268777868
30
0
41
1
10
70.7277418112118
20
-5.89490809775398
30
0
41
1
10
70.8095345783337
20
-6.07545697276166
30
0
41
1
10
70.8947470766551
20
-6.25295228434473
30
0
41
1
10
70.9864065258251
20
-6.42469095244843
30
0
41
1
10
71.0811242303643
20
-6.59369882792737
30
0
41
1
10
71.1300326173654
20
-6.67685950877919
30
0
41
1
10
71.180175813133
20
-6.75837394613751
30
0
0
SPLINE
5
103
100
AcDbEntity
8
1
62
256
6
ByLayer
370
13
48
1
60
0
100
AcDbSpline
70
4
71
3
72
73
73
69
40
0
40
0
40
0
40
0
40
0.0237716650097454
40
0.105124026258933
40
0.186476387508121
40
0.267828748757309
40
0.349181110006497
40
0.410195380943388
40
0.471209651880279
40
0.53222392281717
40
0.593238193754061
40
0.654252464690952
40
0.715266735627842
40
0.745773871096288
40
0.776281006564733
40
0.79661909687703
40
0.811872664611253
40
0.827126232345476
40
0.837295277501624
40
0.847464322657773
40
0.857633367813921
40
0.865260151681033
40
0.870344674259107
40
0.872251370225885
40
0.874158066192662
40
0.875111414176051
40
0.875905870828876
40
0.87638254482057
40
0.876859218812264
40
0.877335892803959
40
0.878289240787348
40
0.879242588770737
40
0.881149284737515
40
0.883055980704292
40
0.88559824199333
40
0.889411633926885
40
0.893225025860441
40
0.903394071016589
40
0.913563116172738
40
0.928816683906961
40
0.938985729063109
40
0.949154774219258
40
0.956781558086369
40
0.96440834195348
40
0.969492864531555
40
0.974577387109629
40
0.979661909687703
40
0.984746432265777
40
0.988559824199333
40
0.99110208548837
40
0.992055433471759
40
0.992849890124583
40
0.993326564116278
40
0.993644346777407
40
0.993882683773254
40
0.994081297936461
40
0.994180605018063
40
0.994240189267025
40
0.994319634932308
40
0.994438803430231
40
0.994597694760796
40
0.994756586091361
40
0.994994923087208
40
0.995233260083055
40
0.99570993407475
40
0.996504390727574
40
0.997457738710963
40
1
40
1
40
1
40
1
41
1
10
70.3098583004977
20
-4.54860812444858
30
0
41
1
10
70.0815722003318
20
-4.48573266056394
30
0
41
1
10
69.0720361001659
20
-4.2022175184
30
0
41
1
10
67.28125
20
-3.65786184217569
30
0
41
1
10
64.9375
20
-2.87873649689331
30
0
41
1
10
62.59375
20
-2.0514248697601
30
0
41
1
10
60.4453124999999
20
-1.26379734430148
30
0
41
1
10
58.4921875
20
-0.534459180746211
30
0
41
1
10
56.734375
20
0.123202875965006
30
0
41
1
10
54.9765625000001
20
0.773356612507456
30
0
41
1
10
53.21875
20
1.40814527231791
30
0
41
1
10
51.4609375
20
2.0208158748367
30
0
41
1
10
49.9960937500001
20
2.50888206422579
30
0
41
1
10
48.82421875
20
2.8823278662864
30
0
41
1
10
48.0429687500001
20
3.12289201343242
30
0
41
1
10
47.408203125
20
3.31215350347523
30
0
41
1
10
46.9199218750001
20
3.45423033822522
30
0
41
1
10
46.5292968750001
20
3.56540174534192
30
0
41
1
10
46.1875
20
3.66080302327464
30
0
41
1
10
45.8945312500001
20
3.7412653582644
30
0
41
1
10
45.6259765625
20
3.81379904415849
30
0
41
1
10
45.4062500000001
20
3.87225347035923
30
0
41
1
10
45.2658691406251
20
3.90918750401283
30
0
41
1
10
45.180419921875
20
3.93153010037275
30
0
41
1
10
45.1346435546876
20
3.94345861467906
30
0
41
1
10
45.0995483398438
20
3.95258031853729
30
0
41
1
10
45.0781860351562
20
3.95812390935626
30
0
41
1
10
45.0614013671876
20
3.96247458146445
30
0
41
1
10
45.0476684570313
20
3.96603114796707
30
0
41
1
10
45.0293579101564
20
3.97076913461277
30
0
41
1
10
45.0064697265625
20
3.9766839211207
30
0
41
1
10
44.9698486328125
20
3.98613113628386
30
0
41
1
10
44.9240722656251
20
3.9979092804044
30
0
41
1
10
44.863037109375
20
4.01355842932935
30
0
41
1
10
44.78369140625
20
4.03381860807988
30
0
41
1
10
44.6860351562501
20
4.05860648064129
30
0
41
1
10
44.51513671875
20
4.10167333916002
30
0
41
1
10
44.283203125
20
4.15934100131116
30
0
41
1
10
43.9414062500001
20
4.24262956415026
30
0
41
1
10
43.599609375
20
4.3237712982943
30
0
41
1
10
43.2578124999999
20
4.4027269621306
30
0
41
1
10
42.9892578125
20
4.46337375126424
30
0
41
1
10
42.7451171875001
20
4.51738957490124
30
0
41
1
10
42.5498046875
20
4.5598298156535
30
0
41
1
10
42.3789062500001
20
4.59639748627188
30
0
41
1
10
42.232421875
20
4.62735009089937
30
0
41
1
10
42.0859375000001
20
4.65790966049747
30
0
41
1
10
41.95166015625
20
4.68556057407156
30
0
41
1
10
41.8417968750002
20
4.70792363537157
30
0
41
1
10
41.7716064453125
20
4.72209188721573
30
0
41
1
10
41.7304077148438
20
4.73036944492935
30
0
41
1
10
41.7090454101563
20
4.7346514983158
30
0
41
1
10
41.6937866210938
20
4.7377049022422
30
0
41
1
10
41.6838684082032
20
4.73968749908488
30
0
41
1
10
41.6766204833984
20
4.74113523727414
30
0
41
1
10
41.67147064209
20
4.74216328885177
30
0
41
1
10
41.6680374145507
20
4.74284838174586
30
0
41
1
10
41.6657485961914
20
4.74330501261775
30
0
41
1
10
41.6632690429688
20
4.74379960342293
30
0
41
1
10
41.6598358154297
20
4.74448423820485
30
0
41
1
10
41.6556396484375
20
4.74532070044407
30
0
41
1
10
41.6502990722657
20
4.74638483252923
30
0
41
1
10
41.6441955566407
20
4.74760033164773
30
0
41
1
10
41.6350402832031
20
4.74942240676634
30
0
41
1
10
41.6205444335938
20
4.75230457123078
30
0
41
1
10
41.5991821289063
20
4.75654466460244
30
0
41
1
10
41.5579833984375
20
4.76470259727586
30
0
41
1
10
41.5244140625001
20
4.7713181752415
30
0
41
1
10
41.5
20
4.77611273892748
30
0
0
SPLINE
5
104
100
AcDbEntity
8
1
62
256
6
ByLayer
370
18
48
1
60
0
100
AcDbSpline
70
4
71
3
72
11
73
7
40
0
40
0
40
0
40
0
40
0.25
40
0.5
40
0.75
40
1
40
1
40
1
40
1
41
1
10
41.5
20
4.77611273892748
30
0
41
1
10
41.5
20
4.7669123373131
30
0
41
1
10
41.5000000000001
20
4.67001935895311
30
0
41
1
10
41.5
20
4.29003954360542
30
0
41
1
10
41.5000000000001
20
3.68582682447439
30
0
41
1
10
41.5
20
3.14655392575437
30
0
41
1
10
41.5
20
2.84736876166946
30
0
0
SPLINE
5
105
100
AcDbEntity
8
1
62
256
6
ByLayer
370
18
48
1
60
0
100
AcDbSpline
70
4
71
3
72
8
73
4
40
0
40
0
40
0
40
0
40
1
40
1
40
1
40
1
41
1
10
78.9999323522966
20
-6.8342590688402
30
0
41
1
10
78.9515623854114
20
-7.07043676327436
30
0
41
1
10
78.9032078219287
20
-7.30521929225384
30
0
41
1
10
78.854872297152
20
-7.53859186643848
30
0
0
SPLINE
5
106
100
AcDbEntity
8
1
62
256
6
ByLayer
370
18
48
1
60
0
100
AcDbSpline
70
4
71
3
72
22
73
18
40
0
40
0
40
0
40
0
40
0.250000000000007
40
0.250000000000007
40
0.37500000000001
40
0.37500000000001
40
0.500000000000014
40
0.500000000000014
40
0.625000000000018
40
0.625000000000018
40
0.750000000000021
40
0.750000000000021
40
0.875000000000024
40
0.875000000000024
40
0.937500000000012
40
0.937500000000012
40
1
40
1
40
1
40
1
41
1
10
77.2384643098869
20
-9.28099506727833
30
0
41
1
10
77.2649882843146
20
-9.25127235723664
30
0
41
1
10
77.2909696706865
20
-9.22508340643449
30
0
41
1
10
77.3290412266515
20
-9.19166488428397
30
0
41
1
10
77.3415905213488
20
-9.18150699669536
30
0
41
1
10
77.3661518141196
20
-9.16350664617872
30
0
41
1
10
77.3781885856883
20
-9.15563968528301
30
0
41
1
10
77.4017204445997
20
-9.14242281036707
30
0
41
1
10
77.4132263713576
20
-9.13707767225685
30
0
41
1
10
77.4352952877782
20
-9.12937653594545
30
0
41
1
10
77.4458993877901
20
-9.12699183636897
30
0
41
1
10
77.4661238210086
20
-9.12557330365973
30
0
41
1
10
77.4757458455441
20
-9.12653370959191
30
0
41
1
10
77.4892865161104
20
-9.13101386004436
30
0
41
1
10
77.4936543924704
20
-9.13302276041105
30
0
41
1
10
77.5019640086439
20
-9.13812700881923
30
0
41
1
10
77.5059173999362
20
-9.14122441161814
30
0
41
1
10
77.5096493178718
20
-9.1449213907928
30
0
0
SPLINE
5
107
100
AcDbEntity
8
1
62
256
6
ByLayer
370
18
48
1
60
0
100
AcDbSpline
70
4
71
3
72
29
73
25
40
0
40
0
40
0
40
0
40
0.124999999999998
40
0.124999999999998
40
0.249999999999996
40
0.249999999999996
40
0.312499999999995
40
0.312499999999995
40
0.343749999999998
40
0.343749999999998
40
0.375000000000001
40
0.375000000000001
40
0.5
40
0.5
40
0.624999999999998
40
0.624999999999998
40
0.749999999999997
40
0.749999999999997
40
0.812499999999996
40
0.843749999999996
40
0.843749999999996
40
0.874999999999995
40
0.874999999999995
40
1
40
1
40
1
40
1
41
1
10
75.5528793208055
20
-10.2718181678081
30
0
41
1
10
75.6082512014714
20
-10.2868612687117
30
0
41
1
10
75.6661215946012
20
-10.2935580048559
30
0
41
1
10
75.7864433454985
20
-10.2916486109924
30
0
41
1
10
75.8488965713908
20
-10.2830362404503
30
0
41
1
10
75.9458382900713
20
-10.2592212655263
30
0
41
1
10
75.9786970675733
20
-10.2494627797658
30
0
41
1
10
76.028790454747
20
-10.2321351836089
30
0
41
1
10
76.0456225180414
20
-10.2259107928986
30
0
41
1
10
76.0795539090891
20
-10.2125692055817
30
0
41
1
10
76.0966673906909
20
-10.2054453937487
30
0
41
1
10
76.1826245920057
20
-10.1677262692228
30
0
41
1
10
76.2527637912071
20
-10.1308051451231
30
0
41
1
10
76.3956292699958
20
-10.0442561068864
30
0
41
1
10
76.4683527388776
20
-9.99464199790361
30
0
41
1
10
76.616248510915
20
-9.88338600410191
30
0
41
1
10
76.6914213366282
20
-9.82174155267174
30
0
41
1
10
76.8059688246128
20
-9.72049165024552
30
0
41
1
10
76.8636903284736
20
-9.66766746677425
30
0
41
1
10
76.9220805627943
20
-9.61155872454435
30
0
41
1
10
76.9611560997446
20
-9.5734224674209
30
0
41
1
10
76.9807741582894
20
-9.5539829845072
30
0
41
1
10
77.0790511724338
20
-9.45514606014581
30
0
41
1
10
77.1583992093249
20
-9.37071619018576
30
0
41
1
10
77.2384643104766
20
-9.28099506733091
30
0
0
SPLINE
5
108
100
AcDbEntity
8
1
62
256
6
ByLayer
370
18
48
1
60
0
100
AcDbSpline
70
4
71
3
72
8
73
4
40
0
40
0
40
0
40
0
40
1
40
1
40
1
40
1
41
1
10
74.5063368535672
20
-10.3832395930771
30
0
41
1
10
74.8567733434774
20
-10.3482479441445
30
0
41
1
10
75.2056871961381
20
-10.311197213378
30
0
41
1
10
75.5528793208002
20
-10.27181816781
30
0
0
SPLINE
5
109
100
AcDbEntity
8
1
62
256
6
ByLayer
370
18
48
1
60
0
100
AcDbSpline
70
4
71
3
72
32
73
28
40
0
40
0
40
0
40
0
40
0.062499999999999
40
0.062499999999999
40
0.124999999999998
40
0.124999999999998
40
0.187499999999997
40
0.187499999999997
40
0.249999999999996
40
0.249999999999996
40
0.281249999999995
40
0.281249999999995
40
0.312499999999995
40
0.312499999999995
40
0.374999999999994
40
0.374999999999994
40
0.499999999999992
40
0.499999999999992
40
0.62499999999999
40
0.62499999999999
40
0.687499999999989
40
0.687499999999989
40
0.749999999999987
40
0.749999999999987
40
0.874999999999994
40
0.874999999999994
40
1
40
1
40
1
40
1
41
1
10
71.0142534471054
20
-8.45330671889315
30
0
41
1
10
71.0541010902364
20
-8.54914182306536
30
0
41
1
10
71.0979683102053
20
-8.63941876831842
30
0
41
1
10
71.1925073116383
20
-8.81056350404174
30
0
41
1
10
71.2431853902275
20
-8.89142258611224
30
0
41
1
10
71.3505054693145
20
-9.04489400646733
30
0
41
1
10
71.4071508830106
20
-9.11750162507681
30
0
41
1
10
71.5257990302688
20
-9.25530891078503
30
0
41
1
10
71.5878037512779
20
-9.32050582969782
30
0
41
1
10
71.6844921721427
20
-9.41321075536047
30
0
41
1
10
71.717336266872
20
-9.44326251643506
30
0
41
1
10
71.7842082046022
20
-9.50172918470625
30
0
41
1
10
71.81828534526
20
-9.53018022629075
30
0
41
1
10
71.9215425703537
20
-9.6126273390222
30
0
41
1
10
71.9919160893969
20
-9.66388883682171
30
0
41
1
10
72.207133432398
20
-9.80779205869482
30
0
41
1
10
72.3560437454731
20
-9.89062558571482
30
0
41
1
10
72.6627687051977
20
-10.0348157697039
30
0
41
1
10
72.8205997165749
20
-10.0961329556526
30
0
41
1
10
73.0631650292976
20
-10.1740740494268
30
0
41
1
10
73.1449944879224
20
-10.1977043131029
30
0
41
1
10
73.3104989619205
20
-10.2405134368623
30
0
41
1
10
73.3942983885624
20
-10.2597111583752
30
0
41
1
10
73.6466357274015
20
-10.3106128016888
30
0
41
1
10
73.816536724291
20
-10.3357911836308
30
0
41
1
10
74.1592889953296
20
-10.3707355619686
30
0
41
1
10
74.3321434665754
20
-10.3804848565825
30
0
41
1
10
74.506336853572
20
-10.383239593075
30
0
0
SPLINE
5
10A
100
AcDbEntity
8
1
62
256
6
ByLayer
370
18
48
1
60
0
100
AcDbSpline
70
4
71
3
72
73
73
69
40
0
40
0
40
0
40
0
40
0.0470705934633815
40
0.126481377341433
40
0.205892161219485
40
0.285302945097536
40
0.364713728975588
40
0.424271816884126
40
0.483829904792665
40
0.543387992701204
40
0.602946080609742
40
0.662504168518281
40
0.72206225642682
40
0.751841300381089
40
0.781620344335358
40
0.801473040304871
40
0.816362562282006
40
0.83125208425914
40
0.841178432243897
40
0.851104780228653
40
0.86103112821341
40
0.868475889201977
40
0.873439063194355
40
0.875300253441497
40
0.877161443688639
40
0.87809203881221
40
0.878867534748519
40
0.879332832310304
40
0.87979812987209
40
0.880263427433875
40
0.881194022557446
40
0.882124617681017
40
0.883985807928159
40
0.885846998175301
40
0.88832858517149
40
0.892050965665774
40
0.895773346160057
40
0.905699694144814
40
0.91562604212957
40
0.930515564106705
40
0.940441912091461
40
0.950368260076218
40
0.957813021064785
40
0.965257782053352
40
0.970220956045731
40
0.975184130038109
40
0.980147304030487
40
0.985110478022865
40
0.988832858517149
40
0.991314445513338
40
0.992245040636909
40
0.993020536573218
40
0.993485834135004
40
0.993796032509527
40
0.99402868129042
40
0.994222555274497
40
0.994319492266536
40
0.994377654461759
40
0.99445520405539
40
0.994571528445836
40
0.994726627633098
40
0.99488172682036
40
0.995114375601253
40
0.995347024382145
40
0.995812321943931
40
0.99658781788024
40
0.997518413003811
40
1
40
1
40
1
40
1
41
1
10
71.0142534243109
20
-8.4533067152307
30
0
41
1
10
70.5511689495406
20
-8.37670484131948
30
0
41
1
10
69.3068344747703
20
-8.15133037517293
30
0
41
1
10
67.28125
20
-7.70215386732875
30
0
41
1
10
64.9374999999999
20
-7.0703337771441
30
0
41
1
10
62.59375
20
-6.33453654051743
30
0
41
1
10
60.4453124999999
20
-5.57065106150043
30
0
41
1
10
58.4921875
20
-4.81631291795352
30
0
41
1
10
56.7343749999999
20
-4.09788378992431
30
0
41
1
10
54.9765625000001
20
-3.34588818934347
30
0
41
1
10
53.21875
20
-2.56645757209543
30
0
41
1
10
51.4609375
20
-1.76566280268071
30
0
41
1
10
49.9960937500001
20
-1.08569386559452
30
0
41
1
10
48.8242187499999
20
-0.537678208780221
30
0
41
1
10
48.0429687500001
20
-0.171302272350147
30
0
41
1
10
47.408203125
20
0.126516599955835
30
0
41
1
10
46.919921875
20
0.355551565862072
30
0
41
1
10
46.529296875
20
0.538519702717451
30
0
41
1
10
46.1875
20
0.698588283345288
30
0
41
1
10
45.8945312500001
20
0.835160165088581
30
0
41
1
10
45.6259765625
20
0.961764381883569
30
0
41
1
10
45.40625
20
1.06093319719753
30
0
41
1
10
45.2658691406251
20
1.12975236321773
30
0
41
1
10
45.1804199218749
20
1.16689940342272
30
0
41
1
10
45.1346435546876
20
1.19123092312699
30
0
41
1
10
45.0995483398438
20
1.20339247226417
30
0
41
1
10
45.0781860351562
20
1.21812170062029
30
0
41
1
10
45.0614013671875
20
1.22135954135641
30
0
41
1
10
45.0476684570313
20
1.22913604567748
30
0
41
1
10
45.0293579101563
20
1.23680279672325
30
0
41
1
10
45.0064697265624
20
1.24805456606651
30
0
41
1
10
44.9698486328126
20
1.2646465985747
30
0
41
1
10
44.924072265625
20
1.28625068977709
30
0
41
1
10
44.863037109375
20
1.3144292019488
30
0
41
1
10
44.7836914062501
20
1.35137910007222
30
0
41
1
10
44.6860351562499
20
1.3966784966845
30
0
41
1
10
44.5151367187501
20
1.47599643351398
30
0
41
1
10
44.2832031249999
20
1.5834213058933
30
0
41
1
10
43.9414062500001
20
1.74044335158408
30
0
41
1
10
43.5996093749999
20
1.89770559431571
30
0
41
1
10
43.2578124999999
20
2.05561485378587
30
0
41
1
10
42.9892578125
20
2.17871089208575
30
0
41
1
10
42.7451171875
20
2.28900029434465
30
0
41
1
10
42.5498046875
20
2.37889086656335
30
0
41
1
10
42.3789062500001
20
2.45448019924652
30
0
41
1
10
42.2324218750001
20
2.52104149511794
30
0
41
1
10
42.0859375000001
20
2.58679439240339
30
0
41
1
10
41.9516601562499
20
2.64759001337097
30
0
41
1
10
41.8417968750003
20
2.6957650936688
30
0
41
1
10
41.7716064453125
20
2.72836523103783
30
0
41
1
10
41.7304077148438
20
2.74595176140994
30
0
41
1
10
41.7090454101562
20
2.75634875964158
30
0
41
1
10
41.6937866210938
20
2.76242186796438
30
0
41
1
10
41.6838684082031
20
2.7678841355665
30
0
41
1
10
41.6766204833986
20
2.76870293774502
30
0
41
1
10
41.6714706420898
20
2.77421290043168
30
0
41
1
10
41.6680374145507
20
2.7733883151613
30
0
41
1
10
41.6657485961914
20
2.77638399980057
30
0
41
1
10
41.6632690429688
20
2.77030521634248
30
0
41
1
10
41.6598358154297
20
2.77811022058967
30
0
41
1
10
41.6556396484375
20
2.77754238817568
30
0
41
1
10
41.6502990722657
20
2.78073535733074
30
0
41
1
10
41.6441955566407
20
2.78300975058613
30
0
41
1
10
41.6350402832031
20
2.78739781343873
30
0
41
1
10
41.6205444335938
20
2.79358379061031
30
0
41
1
10
41.5991821289063
20
2.80341887483786
30
0
41
1
10
41.5579833984375
20
2.82142920141186
30
0
41
1
10
41.5244140625001
20
2.83660987862712
30
0
41
1
10
41.5
20
2.84736876166946
30
0
0
SPLINE
5
10B
100
AcDbEntity
8
1
62
256
6
ByLayer
370
13
48
1
60
0
100
AcDbSpline
70
4
71
3
72
71
73
67
40
0
40
0
40
0
40
0
40
0.0876932421162108
40
0.17892391790459
40
0.270154593692969
40
0.338577600534253
40
0.407000607375537
40
0.475423614216821
40
0.543846621058105
40
0.61226962789939
40
0.680692634740674
40
0.714904138161316
40
0.749115641581958
40
0.771923310529053
40
0.789029062239374
40
0.806134813949695
40
0.817538648423242
40
0.82894248289679
40
0.840346317370337
40
0.848899193225497
40
0.854601110462271
40
0.856739329426061
40
0.858877548389851
40
0.859946657871746
40
0.860837582439992
40
0.86137213718094
40
0.861906691921887
40
0.862441246662835
40
0.86351035614473
40
0.864579465626625
40
0.866717684590415
40
0.868855903554205
40
0.871706862172592
40
0.875983300100172
40
0.880259738027753
40
0.8916635725013
40
0.903067406974847
40
0.920173158685168
40
0.931576993158716
40
0.942980827632263
40
0.951533703487424
40
0.960086579342584
40
0.965788496579358
40
0.971490413816132
40
0.977192331052905
40
0.982894248289679
40
0.987170686217259
40
0.990021644835646
40
0.991090754317541
40
0.991981678885787
40
0.992516233626734
40
0.992872603454033
40
0.993139880824507
40
0.993362611966568
40
0.993473977537599
40
0.993540796880217
40
0.993629889337042
40
0.993763528022279
40
0.993941712935928
40
0.994119897849577
40
0.994387175220051
40
0.994654452590525
40
0.995189007331472
40
0.996079931899718
40
0.997149041381613
40
1
40
1
40
1
40
1
41
1
10
67.1903720129907
20
-10.9836742100921
30
0
41
1
10
66.4394146753271
20
-11.0024814091884
30
0
41
1
10
64.9072073376635
20
-10.9895817833749
30
0
41
1
10
62.5937499999999
20
-10.8121073257671
30
0
41
1
10
60.4453125
20
-10.5007278484668
30
0
41
1
10
58.4921874999999
20
-10.1050049913101
30
0
41
1
10
56.7343749999999
20
-9.66453370009
30
0
41
1
10
54.9765625
20
-9.14321120024568
30
0
41
1
10
53.21875
20
-8.54542711266057
30
0
41
0.999999999999999
10
51.4609374999999
20
-7.87669190291885
30
0
41
1
10
49.9960937500001
20
-7.26516551084151
30
0
41
1
10
48.82421875
20
-6.74603354812069
30
0
41
0.999999999999999
10
48.0429687500001
20
-6.3873383466331
30
0
41
1
10
47.4082031249999
20
-6.08786265239127
30
0
41
1
10
46.919921875
20
-5.85336217851059
30
0
41
0.999999999999999
10
46.5292968749999
20
-5.6630293111148
30
0
41
1
10
46.1875
20
-5.49457306470248
30
0
41
0.999999999999999
10
45.8945312499999
20
-5.34890513795327
30
0
41
1
10
45.6259765625
20
-5.2142395714294
30
0
41
1
10
45.4062499999999
20
-5.10326956591405
30
0
41
1
10
45.265869140625
20
-5.03202051326704
30
0
41
1
10
45.1804199218749
20
-4.98853575776895
30
0
41
1
10
45.1346435546875
20
-4.96520673696767
30
0
41
0.999999999999999
10
45.0995483398437
20
-4.94730194722695
30
0
41
1
10
45.0781860351561
20
-4.93639625763663
30
0
41
1
10
45.0614013671875
20
-4.92782344270651
30
0
41
1
10
45.0476684570312
20
-4.92080683475581
30
0
41
1
10
45.0293579101563
20
-4.91144804729405
30
0
41
1
10
45.0064697265625
20
-4.8997433663553
30
0
41
1
10
44.9698486328125
20
-4.88100270013609
30
0
41
0.999999999999999
10
44.924072265625
20
-4.85755224119433
30
0
41
1
10
44.863037109375
20
-4.82624146833189
30
0
41
1
10
44.78369140625
20
-4.78547193146668
30
0
41
1
10
44.68603515625
20
-4.73517983869973
30
0
41
0.999999999999999
10
44.5151367187501
20
-4.646932079224
30
0
41
1
10
44.2832031249998
20
-4.5265866376971
30
0
41
1
10
43.9414062500001
20
-4.34803721895213
30
0
41
1
10
43.5996093749999
20
-4.16804843037212
30
0
41
1
10
43.2578124999999
20
-3.98670873488299
30
0
41
1
10
42.9892578124999
20
-3.84341570403584
30
0
41
1
10
42.7451171875
20
-3.71253327572748
30
0
41
1
10
42.5498046875
20
-3.60742022795356
30
0
41
1
10
42.37890625
20
-3.51516063287693
30
0
41
1
10
42.232421875
20
-3.4358901889066
30
0
41
1
10
42.0859375
20
-3.35643405128573
30
0
41
1
10
41.95166015625
20
-3.28343370511501
30
0
41
0.999999999999998
10
41.8417968750002
20
-3.22359096176488
30
0
41
1
10
41.7716064453125
20
-3.18530667091537
30
0
41
0.999999999999999
10
41.7304077148437
20
-3.16281909936493
30
0
41
1
10
41.7090454101562
20
-3.15115466004502
30
0
41
1
10
41.6937866210937
20
-3.14282073728833
30
0
41
1
10
41.6838684082031
20
-3.13740280422041
30
0
41
1
10
41.6766204833984
20
-3.13344309446398
30
0
41
1
10
41.6714706420897
20
-3.13062936507094
30
0
41
1
10
41.6680374145507
20
-3.12875343133368
30
0
41
1
10
41.6657485961913
20
-3.12750276828299
30
0
41
1
10
41.6632690429688
20
-3.12614784487772
30
0
41
1
10
41.6598358154296
20
-3.1242717211004
30
0
41
1
10
41.6556396484375
20
-3.12197855100007
30
0
41
0.999999999999999
10
41.6502990722657
20
-3.11905978206664
30
0
41
1
10
41.6441955566406
20
-3.11572377667656
30
0
41
1
10
41.6350402832031
20
-3.11071928424565
30
0
41
1
10
41.6205444335937
20
-3.10279435588737
30
0
41
1
10
41.5991821289062
20
-3.09111251332109
30
0
41
0.999999999999999
10
41.5579833984375
20
-3.06857532618662
30
0
41
1
10
41.5244140624999
20
-3.05019886109661
30
0
41
1
10
41.4999999999999
20
-3.03682747738833
30
0
0
SPLINE
5
10C
100
AcDbEntity
8
1
62
256
6
ByLayer
370
18
48
1
60
0
100
AcDbSpline
70
4
71
3
72
8
73
4
40
0
40
0
40
0
40
0
40
1
40
1
40
1
40
1
41
1
10
74.3593624591135
20
4.01179535343357
30
0
41
1
10
74.6674402216876
20
3.8774973632087
30
0
41
1
10
74.9737447640729
20
3.73978741663464
30
0
41
1
10
75.2780888700428
20
3.59830528005421
30
0
0
SPLINE
5
10D
100
AcDbEntity
8
1
62
256
6
ByLayer
370
18
48
1
60
0
100
AcDbSpline
70
4
71
3
72
24
73
20
40
0
40
0
40
0
40
0
40
0.124999999999999
40
0.124999999999999
40
0.249999999999998
40
0.249999999999998
40
0.374999999999997
40
0.374999999999997
40
0.499999999999996
40
0.499999999999996
40
0.5625
40
0.5625
40
0.625000000000004
40
0.625000000000004
40
0.750000000000003
40
0.750000000000003
40
0.875000000000001
40
0.875000000000001
40
1
40
1
40
1
40
1
41
1
10
71.1827381353363
20
6.75252476442859
30
0
41
1
10
71.2875955278258
20
6.67588934947241
30
0
41
1
10
71.3981920879951
20
6.59164631336526
30
0
41
1
10
71.6284151354947
20
6.41119051689998
30
0
41
1
10
71.7480619241762
20
6.31495084534691
30
0
41
1
10
71.9949212399924
20
6.11244264940152
30
0
41
1
10
72.1221430172346
20
6.00616186342171
30
0
41
1
10
72.3831864643608
20
5.78485172680217
30
0
41
1
10
72.5170125880604
20
5.66981647235568
30
0
41
1
10
72.722209898555
20
5.49135407117359
30
0
41
1
10
72.7910671928057
20
5.43112818081178
30
0
41
1
10
72.9294272335412
20
5.30948265283524
30
0
41
1
10
72.998965227038
20
5.24803230722793
30
0
41
1
10
73.2085860578689
20
5.06191610783938
30
0
41
1
10
73.3496729906511
20
4.93548992123985
30
0
41
1
10
73.6342503307644
20
4.67842388973284
30
0
41
1
10
73.7777417188753
20
4.5477823253687
30
0
41
1
10
74.0669317054249
20
4.28262961951503
30
0
41
1
10
74.2126308925601
20
4.14811744595076
30
0
41
1
10
74.3593624591175
20
4.01179535343729
30
0
0
SPLINE
5
10E
100
AcDbEntity
8
1
62
256
6
ByLayer
370
18
48
1
60
0
100
AcDbSpline
70
4
71
3
72
11
73
7
40
0
40
0
40
0
40
0
40
0.09146583063679
40
0.50814150063668
40
0.92481717063657
40
1
40
1
40
1
40
1
41
1
10
71.1827381352684
20
6.75252476475509
30
0
41
1
10
71.054117090179
20
6.8035965219012
30
0
41
1
10
70.3395585450895
20
7.08384564102792
30
0
41
1
10
69.0390625
20
7.55727925616452
30
0
41
1
10
67.7614639306826
20
7.96038776471136
30
0
41
1
10
67.0698028613651
20
8.15765600487845
30
0
41
1
10
66.9640792920476
20
8.1873150701692
30
0
0
SPLINE
5
10F
100
AcDbEntity
8
1
62
256
6
ByLayer
370
13
48
1
60
0
100
AcDbSpline
70
4
71
3
72
16
73
12
40
0
40
0
40
0
40
0
40
0.0323975581964027
40
0.192517759720787
40
0.312607910864075
40
0.432698062007363
40
0.552788213150651
40
0.672878364293939
40
0.832998565818323
40
0.993118767342707
40
1
40
1
40
1
40
1
41
1
10
77.1304673460933
20
-0.996252130555035
30
0
41
1
10
76.9723948973955
20
-0.89181966782877
30
0
41
1
10
76.0330724486978
20
-0.270550119935933
30
0
41
1
10
74.5078125
20
0.740982611427768
30
0
41
0.999999999999999
10
72.5546875000001
20
2.02590103395605
30
0
41
1
10
70.7968749999999
20
3.16314085758949
30
0
41
1
10
69.0390625000001
20
4.2597037463656
30
0
41
1
10
67.0859375
20
5.42491119580302
30
0
41
1
10
64.9375
20
6.62345255509788
30
0
41
1
10
63.3414254543628
20
7.42542345662679
30
0
41
1
10
62.5266009087257
20
7.80660151499623
30
0
41
1
10
62.4930263630886
20
7.82225956310108
30
0
0
SPLINE
5
110
100
AcDbEntity
8
1
62
256
6
ByLayer
370
18
48
1
60
0
100
AcDbSpline
70
4
71
3
72
17
73
13
40
0
40
0
40
0
40
0
40
0.249999999999996
40
0.499999999999993
40
0.499999999999993
40
0.624999999999992
40
0.624999999999992
40
0.687499999999993
40
0.687499999999993
40
0.749999999999994
40
0.749999999999994
40
1
40
1
40
1
40
1
41
1
10
78.9681307252588
20
-5.77453699013691
30
0
41
1
10
78.9426265767257
20
-5.62989432849906
30
0
41
1
10
78.8950055793751
20
-5.35891302683817
30
0
41
1
10
78.8540923453127
20
-5.12417860455628
30
0
41
1
10
78.8259678562027
20
-4.96196367123872
30
0
41
1
10
78.8170204947056
20
-4.91020194559724
30
0
41
1
10
78.8042532425252
20
-4.83609225604937
30
0
41
1
10
78.8001002842689
20
-4.81194180744529
30
0
41
1
10
78.7920529731348
20
-4.76505453756405
30
0
41
1
10
78.788157988312
20
-4.7423142308902
30
0
41
1
10
78.7693174514606
20
-4.63208032722537
30
0
41
1
10
78.7562704026356
20
-4.55496415501116
30
0
41
1
10
78.7451729941516
20
-4.48850492872251
30
0
0
SPLINE
5
111
100
AcDbEntity
8
1
62
256
6
ByLayer
370
13
48
1
60
0
100
AcDbSpline
70
4
71
3
72
73
73
69
40
0
40
0
40
0
40
0
40
0.002574567516032
40
0.003540030334544
40
0.0043445826833039
40
0.0048273140925599
40
0.0050686797971879
40
0.0053100455018159
40
0.0054709559715679
40
0.0056318664413199
40
0.0057525492936339
40
0.0058330045285099
40
0.0058933459546669
40
0.0059939149982619
40
0.0061950530854519
40
0.0064364187900799
40
0.0067582397295839
40
0.0072409711388399
40
0.0080455234875999
40
0.0090109863061119
40
0.0115855538221438
40
0.0154474050961918
40
0.0205965401282557
40
0.0257456751603197
40
0.0308948101923836
40
0.0360439452244475
40
0.0437676477725434
40
0.0514913503206393
40
0.0617896203847672
40
0.072087890448895
40
0.0875352955450868
40
0.0978335656092147
40
0.108131835673343
40
0.11199368694739
40
0.115855538221439
40
0.11843010573747
40
0.120361031374494
40
0.122291957011518
40
0.12325741983003
40
0.124222882648542
40
0.124705614057798
40
0.125188345467054
40
0.12567107687631
40
0.12647562922507
40
0.127441092043582
40
0.129372017680606
40
0.13130294331763
40
0.136452078349694
40
0.14417578089779
40
0.154474050961918
40
0.164772321026046
40
0.175070591090174
40
0.190517996186365
40
0.205965401282557
40
0.226561941410813
40
0.257456751603197
40
0.28835156179558
40
0.350141182180347
40
0.411930802565115
40
0.473720422949882
40
0.535510043334649
40
0.597299663719416
40
0.659089284104183
40
0.741475444617206
40
0.823861605130229
40
0.906247765643252
40
0.988633926156275
40
1
40
1
40
1
40
1
41
1
10
41.5
20
4.99412003597891
30
0
41
1
10
41.5244140625
20
4.99072921234409
30
0
41
0.999999999999999
10
41.5579833984376
20
4.98604475516374
30
0
41
1
10
41.5991821289063
20
4.98025846046923
30
0
41
1
10
41.6205444335938
20
4.97724852443662
30
0
41
1
10
41.6350402832031
20
4.97520131543874
30
0
41
1
10
41.6441955566407
20
4.97390665353043
30
0
41
0.999999999999999
10
41.6502990722657
20
4.9730427955785
30
0
41
1
10
41.6556396484375
20
4.97228637307515
30
0
41
1
10
41.6598358154297
20
4.97169169744569
30
0
41
1
10
41.6632690429688
20
4.97120489865355
30
0
41
1
10
41.6657485961914
20
4.97085319485145
30
0
41
1
10
41.6680374145507
20
4.9705284631977
30
0
41
1
10
41.6714706420899
20
4.97004122516796
30
0
41
1
10
41.6766204833985
20
4.96930997285605
30
0
41
1
10
41.6838684082032
20
4.96827998713687
30
0
41
1
10
41.6937866210938
20
4.96686911241036
30
0
41
1
10
41.7090454101562
20
4.96469541442582
30
0
41
0.999999999999999
10
41.7304077148439
20
4.96164524741903
30
0
41
1
10
41.7716064453125
20
4.95574425709498
30
0
41
0.999999999999998
10
41.8417968750003
20
4.94562763604842
30
0
41
1
10
41.95166015625
20
4.92961371964645
30
0
41
1
10
42.0859375
20
4.90973533459734
30
0
41
1
10
42.232421875
20
4.88766992080662
30
0
41
1
10
42.3789062500001
20
4.86522600599983
30
0
41
1
10
42.5498046875
20
4.83860151757668
30
0
41
1
10
42.7451171875
20
4.8075474876405
30
0
41
1
10
42.9892578125
20
4.76779644939504
30
0
41
1
10
43.2578125
20
4.72287967204076
30
0
41
1
10
43.5996093749999
20
4.66399584295374
30
0
41
1
10
43.9414062500001
20
4.60298504239555
30
0
41
1
10
44.2832031249999
20
4.53987793296122
30
0
41
0.999999999999999
10
44.5151367187501
20
4.49592910430087
30
0
41
1
10
44.68603515625
20
4.46298153692871
30
0
41
1
10
44.7836914062501
20
4.44397925244968
30
0
41
1
10
44.8630371093751
20
4.42842185661433
30
0
41
0.999999999999999
10
44.9240722656251
20
4.41639125868361
30
0
41
1
10
44.9698486328126
20
4.40732766428749
30
0
41
1
10
45.0064697265625
20
4.40005245699788
30
0
41
1
10
45.0293579101563
20
4.39549532590058
30
0
41
1
10
45.0476684570313
20
4.391843552144
30
0
41
1
10
45.0614013671875
20
4.38910168915442
30
0
41
1
10
45.0781860351562
20
4.38574681884307
30
0
41
0.999999999999999
10
45.0995483398438
20
4.38147070126641
30
0
41
1
10
45.1346435546876
20
4.37443147283028
30
0
41
1
10
45.180419921875
20
4.36521964459428
30
0
41
1
10
45.2658691406251
20
4.34794918181194
30
0
41
1
10
45.4062500000001
20
4.31935077765621
30
0
41
1
10
45.6259765625
20
4.27395049301924
30
0
41
0.999999999999999
10
45.8945312500001
20
4.2173813316085
30
0
41
1
10
46.1875
20
4.15434214739909
30
0
41
0.999999999999999
10
46.529296875
20
4.07927099392794
30
0
41
1
10
46.919921875
20
3.99133050810584
30
0
41
1
10
47.408203125
20
3.87826841097035
30
0
41
0.999999999999999
10
48.0429687500001
20
3.72665999288427
30
0
41
1
10
48.82421875
20
3.53224782622556
30
0
41
1
10
49.9960937500001
20
3.22747193756874
30
0
41
0.999999999999999
10
51.4609375
20
2.82372979924111
30
0
41
1
10
53.21875
20
2.30839568206048
30
0
41
1
10
54.9765625
20
1.76655810461673
30
0
41
1
10
56.734375
20
1.20413253947191
30
0
41
1
10
58.4921875
20
0.627841912886823
30
0
41
1
10
60.4453125
20
-0.0197421346526596
30
0
41
1
10
62.59375
20
-0.731066611752056
30
0
41
1
10
64.9375
20
-1.49373416262992
30
0
41
1
10
67.28125
20
-2.22790219795479
30
0
41
1
10
68.9515320004612
20
-2.71909789791616
30
0
41
1
10
69.8405640009224
20
-2.96761464323859
30
0
41
1
10
69.9483460013836
20
-2.99754939642324
30
0
0
SPLINE
5
112
100
AcDbEntity
8
1
62
256
6
ByLayer
370
18
48
1
60
0
100
AcDbSpline
70
4
71
3
72
33
73
29
40
0
40
0
40
0
40
0
40
0.124999999999978
40
0.124999999999978
40
0.187499999999975
40
0.187499999999975
40
0.218749999999985
40
0.218749999999985
40
0.249999999999994
40
0.249999999999994
40
0.374999999999981
40
0.374999999999981
40
0.437499999999975
40
0.437499999999975
40
0.499999999999969
40
0.562499999999962
40
0.562499999999962
40
0.624999999999956
40
0.624999999999956
40
0.749999999999943
40
0.749999999999943
40
0.812499999999937
40
0.812499999999937
40
0.843749999999954
40
0.843749999999954
40
0.874999999999972
40
0.874999999999972
40
1
40
1
40
1
40
1
41
1
10
69.9483460013836
20
-2.99754939642327
30
0
41
1
10
69.9662418936333
20
-2.93064711187483
30
0
41
1
10
69.9923777489474
20
-2.86768972482142
30
0
41
1
10
70.0426894972989
20
-2.77894196239993
30
0
41
1
10
70.0613305417298
20
-2.750313537837
30
0
41
1
10
70.0920970659463
20
-2.70882520987675
30
0
41
1
10
70.1028499245444
20
-2.69520703187348
30
0
41
1
10
70.1250686350047
20
-2.66873403234808
30
0
41
1
10
70.1365505464299
20
-2.65585317971309
30
0
41
1
10
70.1957687755422
20
-2.59317665906678
30
0
41
1
10
70.2488736988046
20
-2.54852322767095
30
0
41
1
10
70.3368391067431
20
-2.48934753114659
30
0
41
1
10
70.3676966239171
20
-2.47087044873072
30
0
41
1
10
70.4310839388429
20
-2.43713535569981
30
0
41
1
10
70.4963230680435
20
-2.40646170660796
30
0
41
1
10
70.5651611778437
20
-2.38156866782248
30
0
41
1
10
70.6357928434205
20
-2.35945874474444
30
0
41
1
10
70.6720360837483
20
-2.34978882768988
30
0
41
1
10
70.7833212915252
20
-2.32491500607299
30
0
41
1
10
70.859130461215
20
-2.31419956536132
30
0
41
1
10
70.9752032991207
20
-2.30573862550682
30
0
41
1
10
71.0142894208263
20
-2.30419496419958
30
0
41
1
10
71.073518234733
20
-2.3037046790835
30
0
41
1
10
71.0933612072907
20
-2.30384579550562
30
0
41
1
10
71.1332494896747
20
-2.30472602224219
30
0
41
1
10
71.1533013416943
20
-2.3054665627125
30
0
41
1
10
71.2534372754032
20
-2.31059891932577
30
0
41
1
10
71.3336554416538
20
-2.31925740415062
30
0
41
1
10
71.4140438041437
20
-2.33189436051617
30
0
0
SPLINE
5
113
100
AcDbEntity
8
1
62
256
6
ByLayer
370
18
48
1
60
0
100
AcDbSpline
70
4
71
3
72
10
73
6
40
0
40
0
40
0
40
0
40
0.468049650278892
40
0.468049650278892
40
1
40
1
40
1
40
1
41
1
10
73.3012881091454
20
-2.65356847471264
30
0
41
1
10
73.0086461326426
20
-2.5991423861833
30
0
41
1
10
72.7149016615501
20
-2.54699377000642
30
0
41
1
10
72.0854291139921
20
-2.43946052902532
30
0
41
1
10
71.7499418127578
20
-2.38469713378672
30
0
41
1
10
71.4140438041437
20
-2.3318943605162
30
0
0
SPLINE
5
114
100
AcDbEntity
8
1
62
256
6
ByLayer
370
18
48
1
60
0
100
AcDbSpline
70
4
71
3
72
30
73
26
40
0
40
0
40
0
40
0
40
0.125000000000012
40
0.125000000000012
40
0.187500000000019
40
0.187500000000019
40
0.218750000000019
40
0.218750000000019
40
0.25000000000002
40
0.25000000000002
40
0.375000000000022
40
0.375000000000022
40
0.500000000000024
40
0.500000000000024
40
0.625000000000026
40
0.625000000000026
40
0.687500000000027
40
0.687500000000027
40
0.718750000000024
40
0.718750000000024
40
0.750000000000022
40
0.750000000000022
40
0.875000000000011
40
0.875000000000011
40
1
40
1
40
1
40
1
41
1
10
75.2780888700425
20
3.59830528005409
30
0
41
1
10
75.3331249212505
20
3.43021496882207
30
0
41
1
10
75.3921812086035
20
3.25667977500601
30
0
41
1
10
75.4863793391107
20
2.98877396460512
30
0
41
1
10
75.5187168785399
20
2.89820140961686
30
0
41
1
10
75.5685986748304
20
2.7604796601963
30
0
41
1
10
75.5854657488626
20
2.71423335893243
30
0
41
1
10
75.6196097214677
20
2.62124736143085
30
0
41
1
10
75.6368436668959
20
2.57462420935363
30
0
41
1
10
75.723800009178
20
2.34087631059941
30
0
41
1
10
75.7958738950014
20
2.1518618642196
30
0
41
1
10
75.9445921832748
20
1.77016002039639
30
0
41
1
10
76.0212385832924
20
1.5774710176712
30
0
41
1
10
76.1788344176401
20
1.18863501485492
30
0
41
1
10
76.259784868447
20
0.99248719790458
30
0
41
1
10
76.3843343561746
20
0.695755120198839
30
0
41
1
10
76.4263724154636
20
0.596425289723783
30
0
41
1
10
76.4902066079601
20
0.446806049322419
30
0
41
1
10
76.5116120128442
20
0.396834486083435
30
0
41
1
10
76.5545400020703
20
0.297010997567071
30
0
41
1
10
76.5760800036782
20
0.247118154438738
30
0
41
1
10
76.6841547475972
20
-0.0022528733122442
30
0
41
1
10
76.7718112293566
20
-0.201452108043412
30
0
41
1
10
76.949423380349
20
-0.599278824325921
30
0
41
1
10
77.0393793139406
20
-0.797906240157516
30
0
41
1
10
77.1304673471506
20
-0.99625212974999
30
0
0
SPLINE
5
115
100
AcDbEntity
8
1
62
256
6
ByLayer
370
18
48
1
60
0
100
AcDbSpline
70
4
71
3
72
24
73
20
40
0
40
0
40
0
40
0
40
0.25
40
0.25
40
0.374999999999999
40
0.374999999999999
40
0.499999999999999
40
0.499999999999999
40
0.562499999999998
40
0.562499999999998
40
0.624999999999997
40
0.624999999999997
40
0.749999999999997
40
0.749999999999997
40
0.874999999999998
40
0.874999999999998
40
0.937499999999999
40
0.937499999999999
40
1
40
1
40
1
40
1
41
1
10
77.1304673464409
20
-0.996252130040602
30
0
41
1
10
77.1579818023322
20
-1.05616538612651
30
0
41
1
10
77.1849678173071
20
-1.11629987927989
30
0
41
1
10
77.2245543192637
20
-1.2068752816966
30
0
41
1
10
77.2375660537402
20
-1.23705357197051
30
0
41
1
10
77.2630899605242
20
-1.29714971099438
30
0
41
1
10
77.2756171260415
20
-1.32710118961114
30
0
41
1
10
77.2940107571774
20
-1.37186503495954
30
0
41
1
10
77.3000855402726
20
-1.3867840514456
30
0
41
1
10
77.3120121032816
20
-1.41636457941584
30
0
41
1
10
77.3178701950242
20
-1.43104096165416
30
0
41
1
10
77.3351110482695
20
-1.47470913524242
30
0
41
1
10
77.3461627135715
20
-1.50334247142769
30
0
41
1
10
77.3672408660495
20
-1.55949925370066
30
0
41
1
10
77.3772694081405
20
-1.5870249245047
30
0
41
1
10
77.3913664283376
20
-1.62728948551572
30
0
41
1
10
77.3959068895903
20
-1.64053935952785
30
0
41
1
10
77.4046241605421
20
-1.66664540693807
30
0
41
1
10
77.4087879074211
20
-1.67946487268549
30
0
41
1
10
77.4126913685412
20
-1.69189463580329
30
0
0
SPLINE
5
116
100
AcDbEntity
8
1
62
256
6
ByLayer
370
18
48
1
60
0
100
AcDbSpline
70
4
71
3
72
20
73
16
40
0
40
0
40
0
40
0
40
0.0511573097886154
40
0.0511573097886154
40
0.209297758157183
40
0.209297758157183
40
0.288367982341467
40
0.288367982341467
40
0.367438206525751
40
0.367438206525751
40
0.525578654894315
40
0.525578654894315
40
0.683719103262878
40
0.683719103262878
40
1
40
1
40
1
40
1
41
1
10
35.6110905445076
20
-11.9805135111961
30
0
41
1
10
35.604970427457
20
-11.9828960028508
30
0
41
1
10
35.5984005315864
20
-11.9850566063218
30
0
41
1
10
35.5698412386668
20
-11.9929981970239
30
0
41
1
10
35.5443217687583
20
-11.9969004496067
30
0
41
1
10
35.5012169740726
20
-11.9996737904734
30
0
41
1
10
35.4860392617421
20
-12.0000845680007
30
0
41
1
10
35.4541951440948
20
-11.999886616563
30
0
41
1
10
35.4375629167403
20
-11.9992777075609
30
0
41
1
10
35.3857873305101
20
-11.9959576141536
30
0
41
1
10
35.3487456762269
20
-11.9917542138848
30
0
41
1
10
35.2703366390427
20
-11.9795235545159
30
0
41
1
10
35.2289658114739
20
-11.971495845555
30
0
41
1
10
35.0990759666565
20
-11.9418573161722
30
0
41
1
10
35.0048302610363
20
-11.9146988432487
30
0
41
1
10
34.9039691389558
20
-11.8804926801622
30
0
0
SPLINE
5
117
100
AcDbEntity
8
1
62
256
6
ByLayer
370
18
48
1
60
0
100
AcDbSpline
70
4
71
3
72
14
73
10
40
0
40
0
40
0
40
0
40
0.25
40
0.25
40
0.5
40
0.5
40
0.75
40
0.75
40
1
40
1
40
1
40
1
41
1
10
34.9039691389558
20
-11.8804926801622
30
0
41
1
10
34.5681751115935
20
-11.8287308076589
30
0
41
1
10
34.2349432687021
20
-11.7602944859958
30
0
41
1
10
33.5687742161881
20
-11.5914485492657
30
0
41
1
10
33.2358381181022
20
-11.4910372120341
30
0
41
1
10
32.5653199273506
20
-11.2604251819334
30
0
41
1
10
32.2277396301722
20
-11.1302203405474
30
0
41
1
10
31.5428345868673
20
-10.8431000969291
30
0
41
1
10
31.1955109571851
20
-10.6861784385456
30
0
41
1
10
30.8406623589523
20
-10.5179673877988
30
0
0
SPLINE
5
118
100
AcDbEntity
8
1
62
256
6
ByLayer
370
18
48
1
60
0
100
AcDbSpline
70
4
71
3
72
32
73
28
40
0
40
0
40
0
40
0
40
0.125000000000006
40
0.125000000000006
40
0.250000000000012
40
0.250000000000012
40
0.375000000000018
40
0.375000000000018
40
0.406250000000017
40
0.406250000000017
40
0.437500000000016
40
0.437500000000016
40
0.500000000000014
40
0.500000000000014
40
0.625000000000013
40
0.625000000000013
40
0.656250000000013
40
0.656250000000013
40
0.687500000000012
40
0.750000000000012
40
0.812500000000011
40
0.812500000000011
40
0.843750000000009
40
0.843750000000009
40
0.875000000000006
40
0.875000000000006
40
1
40
1
40
1
40
1
41
1
10
30.8406623589523
20
-10.5179673877987
30
0
41
1
10
30.7780373156893
20
-10.4882808556191
30
0
41
1
10
30.7178786241959
20
-10.4572877621865
30
0
41
1
10
30.6033594507649
20
-10.3922024658161
30
0
41
1
10
30.5489917484246
20
-10.3581139824797
30
0
41
1
10
30.4473218466525
20
-10.2861443749912
30
0
41
1
10
30.4000042815484
20
-10.2482711116666
30
0
41
1
10
30.3465180739585
20
-10.1978924542838
30
0
41
1
10
30.3361064204128
20
-10.187663558386
30
0
41
1
10
30.3158978620691
20
-10.1668763814389
30
0
41
1
10
30.3061002223951
20
-10.1563146185746
30
0
41
1
10
30.2779185475229
20
-10.124354287582
30
0
41
1
10
30.260664746311
20
-10.1026028537786
30
0
41
1
10
30.2139660584789
20
-10.0358892245113
30
0
41
1
10
30.1895272854021
20
-9.98948162693785
30
0
41
1
10
30.1695399276653
20
-9.92847601230315
30
0
41
1
10
30.1660931686175
20
-9.91617002816696
30
0
41
1
10
30.1603762511104
20
-9.89152162868348
30
0
41
1
10
30.1535401292356
20
-9.85441617750365
30
0
41
1
10
30.1509802476024
20
-9.79191225546126
30
0
41
1
10
30.1587364882046
20
-9.74120996439291
30
0
41
1
10
30.1684143752693
20
-9.70292377090519
30
0
41
1
10
30.1722843014469
20
-9.69011846447609
30
0
41
1
10
30.1813491283073
20
-9.6644218681426
30
0
41
1
10
30.1865111740472
20
-9.65162814607825
30
0
41
1
10
30.2152994347791
20
-9.5881604875002
30
0
41
1
10
30.2479073635013
20
-9.53874427061933
30
0
41
1
10
30.2892686086395
20
-9.49066827570118
30
0
0
SPLINE
5
119
100
AcDbEntity
8
1
62
256
6
ByLayer
370
18
48
1
60
0
100
AcDbSpline
70
4
71
3
72
51
73
47
40
0
40
0
40
0
40
0
40
0.0312499999999978
40
0.0312499999999978
40
0.0624999999999956
40
0.0624999999999956
40
0.0937499999999934
40
0.0937499999999934
40
0.109374999999994
40
0.109374999999994
40
0.124999999999994
40
0.124999999999994
40
0.156249999999995
40
0.156249999999995
40
0.187499999999995
40
0.187499999999995
40
0.249999999999997
40
0.249999999999997
40
0.281249999999999
40
0.281249999999999
40
0.296874999999998
40
0.296874999999998
40
0.312499999999998
40
0.312499999999998
40
0.374999999999993
40
0.374999999999993
40
0.437499999999988
40
0.437499999999988
40
0.468749999999987
40
0.468749999999987
40
0.499999999999986
40
0.499999999999986
40
0.562499999999988
40
0.562499999999988
40
0.624999999999989
40
0.624999999999989
40
0.65624999999999
40
0.65624999999999
40
0.687499999999991
40
0.687499999999991
40
0.749999999999993
40
0.812499999999995
40
0.812499999999995
40
0.874999999999997
40
0.874999999999997
40
1
40
1
40
1
40
1
41
1
10
30.2892686086395
20
-9.49066827570118
30
0
41
1
10
30.343915200681
20
-9.42715013758647
30
0
41
1
10
30.4040772995659
20
-9.36530833179671
30
0
41
1
10
30.5336812380886
20
-9.24457464787358
30
0
41
1
10
30.6031298703816
20
-9.18568436978453
30
0
41
1
10
30.7500444008625
20
-9.07056951890073
30
0
41
1
10
30.8275142991339
20
-9.01434588902853
30
0
41
1
10
30.949018635564
20
-8.93185405475003
30
0
41
1
10
30.9904054216394
20
-8.90466456412366
30
0
41
1
10
31.0748514928211
20
-8.85088040971462
30
0
41
1
10
31.1179874050253
20
-8.82424155274089
30
0
41
1
10
31.24886893143
20
-8.7457233345024
30
0
41
1
10
31.3382621979515
20
-8.69511154592234
30
0
41
1
10
31.5207051853838
20
-8.5969358079191
30
0
41
1
10
31.613757016045
20
-8.54937330105113
30
0
41
1
10
31.8977098737368
20
-8.41079793507944
30
0
41
1
10
32.0933737536694
20
-8.32387287657056
30
0
41
1
10
32.3945319553829
20
-8.20044249882753
30
0
41
1
10
32.4962051405935
20
-8.16046563951133
30
0
41
1
10
32.6504816950551
20
-8.10214677905952
30
0
41
1
10
32.7022020709435
20
-8.08298184528138
30
0
41
1
10
32.8062094532896
20
-8.04518713712054
30
0
41
1
10
32.85853036593
20
-8.02654567835694
30
0
41
1
10
33.1209896576327
20
-7.93482181966934
30
0
41
1
10
33.3336863723672
20
-7.86615554712111
30
0
41
1
10
33.7637155255091
20
-7.73718354767885
30
0
41
1
10
33.9810525553445
20
-7.67688413971453
30
0
41
1
10
34.3101392296019
20
-7.59222082459988
30
0
41
1
10
34.4203501069305
20
-7.56496659098528
30
0
41
1
10
34.6417535950386
20
-7.51233572185299
30
0
41
1
10
34.7529905762125
20
-7.48694953627202
30
0
41
1
10
35.0878101087017
20
-7.41361026281785
30
0
41
1
10
35.3121491249083
20
-7.3685433194791
30
0
41
1
10
35.7629073482697
20
-7.28569407706243
30
0
41
1
10
35.989327209413
20
-7.24791347038746
30
0
41
1
10
36.3304363299653
20
-7.19655863899425
30
0
41
1
10
36.4443863524363
20
-7.18032751953214
30
0
41
1
10
36.6727713241636
20
-7.1496269392085
30
0
41
1
10
36.7872357490882
20
-7.13515405705121
30
0
41
1
10
37.1311437562998
20
-7.09439336152042
30
0
41
1
10
37.5906002924193
20
-7.0471778882401
30
0
41
1
10
38.0518373068899
20
-7.01410032187499
30
0
41
1
10
38.5139579915365
20
-6.98811767267091
30
0
41
1
10
38.7455432562751
20
-6.9786758773634
30
0
41
1
10
39.439964161788
20
-6.96115679273757
30
0
41
1
10
39.9029664523953
20
-6.96382490615983
30
0
41
1
10
40.3660254037844
20
-6.98124106633145
30
0
0
SPLINE
5
11A
100
AcDbEntity
8
1
62
256
6
ByLayer
370
18
48
1
60
0
100
AcDbSpline
70
4
71
3
72
38
73
34
40
0
40
0
40
0
40
0
40
0.250000000000022
40
0.250000000000022
40
0.375000000000033
40
0.375000000000033
40
0.437500000000038
40
0.437500000000038
40
0.500000000000043
40
0.500000000000043
40
0.562500000000048
40
0.562500000000048
40
0.625000000000054
40
0.625000000000054
40
0.687500000000059
40
0.687500000000059
40
0.718750000000061
40
0.718750000000061
40
0.734375000000059
40
0.734375000000059
40
0.750000000000057
40
0.750000000000057
40
0.78125000000005
40
0.78125000000005
40
0.812500000000043
40
0.812500000000043
40
0.875000000000029
40
0.875000000000029
40
0.906250000000022
40
0.906250000000022
40
0.937500000000014
40
0.937500000000014
40
1
40
1
40
1
40
1
41
1
10
33.3207428438508
20
0.906472149202045
30
0
41
1
10
33.2575326661819
20
0.959062646981295
30
0
41
1
10
33.1957349129174
20
1.0130771661556
30
0
41
1
10
33.1067880566151
20
1.0979026545684
30
0
41
1
10
33.0777729490771
20
1.12682085467651
30
0
41
1
10
33.0356768693646
20
1.17164955342173
30
0
41
1
10
33.0218852661292
20
1.18683707584731
30
0
41
1
10
32.9949239082299
20
1.21784569099049
30
0
41
1
10
32.9817282752859
20
1.2336966776385
30
0
41
1
10
32.9563435781908
20
1.26605538901035
30
0
41
1
10
32.9441446060599
20
1.28256329530598
30
0
41
1
10
32.9211621233636
20
1.31652361665914
30
0
41
1
10
32.9103636569536
20
1.33396599662819
30
0
41
1
10
32.891030209754
20
1.37036396970319
30
0
41
1
10
32.8825342469202
20
1.38916379569906
30
0
41
1
10
32.8732720544774
20
1.4186997136988
30
0
41
1
10
32.8708163177302
20
1.42866164504639
30
0
41
1
10
32.8684694813739
20
1.4437863048104
30
0
41
1
10
32.8679110000053
20
1.44886110873014
30
0
41
1
10
32.8673398054003
20
1.45909193754878
30
0
41
1
10
32.8673292222053
20
1.46428140126818
30
0
41
1
10
32.8683057477034
20
1.47975006432199
30
0
41
1
10
32.8702743375405
20
1.48983249965667
30
0
41
1
10
32.8775908959216
20
1.50929493871129
30
0
41
1
10
32.8827485539303
20
1.51814462870521
30
0
41
1
10
32.9024971069932
20
1.5421819108532
30
0
41
1
10
32.9204425564699
20
1.55364129983923
30
0
41
1
10
32.9487453792054
20
1.5659388569637
30
0
41
1
10
32.9584740294282
20
1.5692741539369
30
0
41
1
10
32.9783476274488
20
1.57486474275839
30
0
41
1
10
32.9885044790149
20
1.57711363092389
30
0
41
1
10
33.0190164472945
20
1.58256382448991
30
0
41
1
10
33.0395760256141
20
1.58454844191093
30
0
41
1
10
33.0602662759376
20
1.58554612471684
30
0
0
SPLINE
5
11B
100
AcDbEntity
8
1
62
256
6
ByLayer
370
18
48
1
60
0
100
AcDbSpline
70
4
71
3
72
20
73
16
40
0
40
0
40
0
40
0
40
0.250000000000001
40
0.250000000000001
40
0.500000000000002
40
0.500000000000002
40
0.625000000000003
40
0.625000000000003
40
0.687500000000005
40
0.687500000000005
40
0.718750000000004
40
0.718750000000004
40
0.750000000000004
40
0.750000000000004
40
1
40
1
40
1
40
1
41
1
10
33.942304207927
20
6.98665735349061
30
0
41
1
10
33.6667301818603
20
7.42451986357941
30
0
41
1
10
33.3922852223684
20
7.83624304701792
30
0
41
1
10
32.8334171425782
20
8.60526460475651
30
0
41
1
10
32.5490662641712
20
8.9625812191411
30
0
41
1
10
32.1060931916893
20
9.45603838357857
30
0
41
1
10
31.9556887779277
20
9.61343473652389
30
0
41
1
10
31.724716095652
20
9.83865082766837
30
0
41
1
10
31.6468297484291
20
9.91190958518382
30
0
41
1
10
31.5284893629948
20
10.0190457835905
30
0
41
1
10
31.4887681648651
20
10.0543186150626
30
0
41
1
10
31.4089098560256
20
10.1238402582446
30
0
41
1
10
31.3687863701932
20
10.1580781240729
30
0
41
1
10
31.0058151269741
20
10.4615353348015
30
0
41
1
10
30.6700276997306
20
10.6979529410914
30
0
41
1
10
30.3142929601324
20
10.9024336197098
30
0
0
SPLINE
5
11C
100
AcDbEntity
8
1
62
256
6
ByLayer
370
18
48
1
60
0
100
AcDbSpline
70
4
71
3
72
18
73
14
40
0
40
0
40
0
40
0
40
0.249999999999993
40
0.249999999999993
40
0.37499999999999
40
0.37499999999999
40
0.499999999999987
40
0.499999999999987
40
0.749999999999994
40
0.749999999999994
40
0.874999999999997
40
0.874999999999997
40
1
40
1
40
1
40
1
41
1
10
30.3142929601324
20
10.9024336197098
30
0
41
1
10
30.2627913892674
20
10.9320373524583
30
0
41
1
10
30.2163222155905
20
10.9622156724874
30
0
41
1
10
30.1558605795525
20
11.0084913038218
30
0
41
1
10
30.1372542601308
20
11.0240853745224
30
0
41
1
10
30.1035398917456
20
11.0556496912219
30
0
41
1
10
30.0883943709249
20
11.0716869693336
30
0
41
1
10
30.0497101675007
20
11.1194190081862
30
0
41
1
10
30.0325604858094
20
11.150988665658
30
0
41
1
10
30.0213064380932
20
11.1979247761161
30
0
41
1
10
30.0199733417275
20
11.2135005673926
30
0
41
1
10
30.0224939344913
20
11.244508348219
30
0
41
1
10
30.0263383886606
20
11.2597374278714
30
0
41
1
10
30.0327323905687
20
11.2746493535078
30
0
0
SPLINE
5
11D
100
AcDbEntity
8
1
62
256
6
ByLayer
370
18
48
1
60
0
100
AcDbSpline
70
4
71
3
72
52
73
48
40
0
40
0
40
0
40
0
40
0.0312500000000007
40
0.0312500000000007
40
0.0625000000000015
40
0.0625000000000015
40
0.0781250000000012
40
0.0781250000000012
40
0.0859375000000009
40
0.0859375000000009
40
0.0937500000000007
40
0.0937500000000007
40
0.125
40
0.125
40
0.156249999999998
40
0.156249999999998
40
0.187499999999997
40
0.187499999999997
40
0.218749999999996
40
0.218749999999996
40
0.249999999999995
40
0.249999999999995
40
0.312499999999995
40
0.312499999999995
40
0.374999999999996
40
0.374999999999996
40
0.406249999999996
40
0.406249999999996
40
0.437499999999996
40
0.437499999999996
40
0.499999999999997
40
0.499999999999997
40
0.562499999999997
40
0.562499999999997
40
0.624999999999998
40
0.624999999999998
40
0.656249999999998
40
0.656249999999998
40
0.687499999999998
40
0.687499999999998
40
0.749999999999998
40
0.749999999999998
40
0.812499999999999
40
0.812499999999999
40
0.874999999999999
40
0.874999999999999
40
1
40
1
40
1
40
1
41
1
10
30.0327323905686
20
11.2746493535078
30
0
41
1
10
30.0517595161266
20
11.3190239229043
30
0
41
1
10
30.0806119481012
20
11.3602585568595
30
0
41
1
10
30.1555997828312
20
11.4372871998388
30
0
41
1
10
30.2017414605291
20
11.4730791274635
30
0
41
1
10
30.282558162568
20
11.5231797571719
30
0
41
1
10
30.3114347469296
20
11.5392809025952
30
0
41
1
10
30.3575139913173
20
11.5625867490456
30
0
41
1
10
30.3732865032083
20
11.5701893807456
30
0
41
1
10
30.4055282993892
20
11.5850382003385
30
0
41
1
10
30.4220115003678
20
11.5922914523583
30
0
41
1
10
30.5061478179362
20
11.6277487268551
30
0
41
1
10
30.5789357593194
20
11.6535388988333
30
0
41
1
10
30.7336003059332
20
11.7009323360112
30
0
41
1
10
30.815484723188
20
11.7225316663064
30
0
41
1
10
30.9870090844505
20
11.7622390199873
30
0
41
1
10
31.076653528419
20
11.7803447728122
30
0
41
1
10
31.2626981314503
20
11.8135939138815
30
0
41
1
10
31.3581550496529
20
11.8285715117745
30
0
41
1
10
31.5531227820495
20
11.8558381772801
30
0
41
1
10
31.6526414186908
20
11.8681258374015
30
0
41
1
10
31.9564369366714
20
11.9016302300386
30
0
41
1
10
32.165910634473
20
11.9195203143962
30
0
41
1
10
32.5956558911432
20
11.9488828125411
30
0
41
1
10
32.8159512691036
20
11.960337064845
30
0
41
1
10
33.1530790965863
20
11.973889407709
30
0
41
1
10
33.2666870335943
20
11.9777997297818
30
0
41
1
10
33.4951803996506
20
11.9845337567353
30
0
41
1
10
33.6101131104392
20
11.9873605477279
30
0
41
1
10
33.9567966191457
20
11.9944424395062
30
0
41
1
10
34.190425004563
20
11.9973072883468
30
0
41
1
10
34.6620115886721
20
12.0002518573081
30
0
41
1
10
34.8999728379273
20
12.00032801452
30
0
41
1
10
35.3797667647147
20
11.9983893435565
30
0
41
1
10
35.6216011543629
20
11.996372450281
30
0
41
1
10
35.987021554169
20
11.9921937620039
30
0
41
1
10
36.1092211889325
20
11.9906082383916
30
0
41
1
10
36.3541545262643
20
11.9871167646658
30
0
41
1
10
36.4769223218077
20
11.9852103998192
30
0
41
1
10
36.8461009177514
20
11.9790944897054
30
0
41
1
10
37.0933852196686
20
11.9744899147062
30
0
41
1
10
37.590179779667
20
11.9646279371802
30
0
41
1
10
37.8396903289645
20
11.9593698966444
30
0
41
1
10
38.3408849677975
20
11.9485514403078
30
0
41
1
10
38.5922729283956
20
11.9429971735348
30
0
41
1
10
39.348603931362
20
11.9263792344106
30
0
41
1
10
39.8557801120057
20
11.9153674733875
30
0
41
1
10
40.3660254037852
20
11.9055412909976
30
0
0
SPLINE
5
11E
100
AcDbEntity
8
1
62
256
6
ByLayer
370
18
48
1
60
0
100
AcDbSpline
70
4
71
3
72
8
73
4
40
0
40
0
40
0
40
0
40
1
40
1
40
1
40
1
41
1
10
78.9999323475762
20
-6.39183339339596
30
0
41
1
10
78.9506596224165
20
-6.10964767036427
30
0
41
1
10
78.9014046243238
20
-5.82636143730784
30
0
41
1
10
78.8521724409878
20
-5.54200713361328
30
0
0
SPLINE
5
11F
100
AcDbEntity
8
1
62
256
6
ByLayer
370
18
48
1
60
0
100
AcDbSpline
70
4
71
3
72
15
73
11
40
0
40
0
40
0
40
0
40
0.125
40
0.25
40
0.375
40
0.5
40
0.625
40
0.75
40
0.875
40
1
40
1
40
1
40
1
41
1
10
41.5
20
2.84736876166946
30
0
41
1
10
41.5
20
2.68019113454903
30
0
41
1
10
41.5
20
2.31364018802591
30
0
41
1
10
41.5
20
1.67901826877429
30
0
41
1
10
41.5
20
0.971392427435887
30
0
41
1
10
41.5
20
0.207772490933451
30
0
41
1
10
41.5
20
-0.59483171381018
30
0
41
1
10
41.5
20
-1.41696517023104
30
0
41
1
10
41.5
20
-2.23917286176513
30
0
41
1
10
41.5
20
-2.77504097109184
30
0
41
1
10
41.5
20
-3.03682747738833
30
0
0
SPLINE
5
120
100
AcDbEntity
8
1
62
256
6
ByLayer
370
18
48
1
60
0
100
AcDbSpline
70
4
71
3
72
69
73
65
40
0
40
0
40
0
40
0
40
0.0624999999999806
40
0.0624999999999806
40
0.093749999999971
40
0.093749999999971
40
0.109374999999969
40
0.109374999999969
40
0.124999999999967
40
0.124999999999967
40
0.156249999999963
40
0.156249999999963
40
0.187499999999958
40
0.187499999999958
40
0.19531249999996
40
0.19531249999996
40
0.203124999999961
40
0.203124999999961
40
0.218749999999964
40
0.249999999999969
40
0.249999999999969
40
0.265624999999974
40
0.265624999999974
40
0.281249999999978
40
0.281249999999978
40
0.312499999999985
40
0.312499999999985
40
0.328124999999987
40
0.328124999999987
40
0.335937499999987
40
0.335937499999987
40
0.343749999999987
40
0.343749999999987
40
0.374999999999987
40
0.374999999999987
40
0.406249999999987
40
0.406249999999987
40
0.421874999999987
40
0.421874999999987
40
0.437499999999987
40
0.437499999999987
40
0.468749999999987
40
0.468749999999987
40
0.499999999999988
40
0.499999999999988
40
0.562499999999988
40
0.562499999999988
40
0.593749999999988
40
0.593749999999988
40
0.609374999999988
40
0.609374999999988
40
0.624999999999988
40
0.624999999999988
40
0.687499999999989
40
0.687499999999989
40
0.749999999999989
40
0.749999999999989
40
0.78124999999999
40
0.78124999999999
40
0.812499999999992
40
0.812499999999992
40
0.874999999999995
40
0.874999999999995
40
1
40
1
40
1
40
1
41
1
10
33.0602662759376
20
1.58554612471687
30
0
41
1
10
33.2160464582107
20
1.59305783708993
30
0
41
1
10
33.3710084669157
20
1.60682203018263
30
0
41
1
10
33.6016782096679
20
1.64100083789177
30
0
41
1
10
33.67826985533
20
1.654669784395
30
0
41
1
10
33.7926031856399
20
1.67939672231549
30
0
41
1
10
33.8306242475064
20
1.6883498024898
30
0
41
1
10
33.9059488312006
20
1.70769782974199
30
0
41
1
10
33.9433130791234
20
1.71810501857317
30
0
41
1
10
34.0544268375851
20
1.7517325217502
30
0
41
1
10
34.12720244533
20
1.77734661656231
30
0
41
1
10
34.2695961135788
20
1.83631755627283
30
0
41
1
10
34.3392167981788
20
1.86966819427809
30
0
41
1
10
34.423802582133
20
1.91732303624326
30
0
41
1
10
34.4405971398283
20
1.92715375077242
30
0
41
1
10
34.4739266887036
20
1.94744928940068
30
0
41
1
10
34.4904917505948
20
1.95793505636902
30
0
41
1
10
34.5393938591009
20
1.99014266756757
30
0
41
1
10
34.6342892213032
20
2.05770133909348
30
0
41
1
10
34.720106884493
20
2.13504564878559
30
0
41
1
10
34.7994027992273
20
2.21937734562818
30
0
41
1
10
34.8247618474278
20
2.24867004539735
30
0
41
1
10
34.8731708327987
20
2.30958764005109
30
0
41
1
10
34.8959005245211
20
2.34080586574271
30
0
41
1
10
34.959890036795
20
2.43660781545824
30
0
41
1
10
34.9969541392683
20
2.5033366734132
30
0
41
1
10
35.0449903779001
20
2.60723382818941
30
0
41
1
10
35.0597415265418
20
2.64250071644514
30
0
41
1
10
35.0800723004034
20
2.6962967273528
30
0
41
1
10
35.0865512450274
20
2.71438652154865
30
0
41
1
10
35.0988395888244
20
2.7505853039653
30
0
41
1
10
35.1046622393409
20
2.76872784945127
30
0
41
1
10
35.1322574287871
20
2.85964036259386
30
0
41
1
10
35.1495010509036
20
2.93300523978991
30
0
41
1
10
35.1761692269088
20
3.08067403989321
30
0
41
1
10
35.1855866423599
20
3.15497922162825
30
0
41
1
10
35.1948375919359
20
3.26696281917523
30
0
41
1
10
35.1971053881816
20
3.30437890709627
30
0
41
1
10
35.2001418818403
20
3.37936344687662
30
0
41
1
10
35.2009049776398
20
3.41684959717719
30
0
41
1
10
35.2011477626865
20
3.5286923573494
30
0
41
1
10
35.1986025976653
20
3.60268205532671
30
0
41
1
10
35.1891003621585
20
3.74964839410268
30
0
41
1
10
35.1821390884119
20
3.82262449845428
30
0
41
1
10
35.1556983462755
20
4.04017279064527
30
0
41
1
10
35.1307186124893
20
4.18337244255406
30
0
41
1
10
35.0849788462661
20
4.39578704639598
30
0
41
1
10
35.0683370480493
20
4.46619222021945
30
0
41
1
10
35.0415097034404
20
4.57123048831934
30
0
41
1
10
35.0322543829928
20
4.60615169045761
30
0
41
1
10
35.0132046853087
20
4.67562467281462
30
0
41
1
10
35.003404368872
20
4.71020031215679
30
0
41
1
10
34.9531056663706
20
4.88230449228055
30
0
41
1
10
34.9087461745386
20
5.01752185449689
30
0
41
1
10
34.8132877687567
20
5.28360090519075
30
0
41
1
10
34.7621787087671
20
5.41445898547391
30
0
41
1
10
34.6811380060041
20
5.60774974109989
30
0
41
1
10
34.6533913690615
20
5.67167931291905
30
0
41
1
10
34.5965121121391
20
5.79857025866963
30
0
41
1
10
34.5673642932371
20
5.86156141659899
30
0
41
1
10
34.4781555125837
20
6.04867142221238
30
0
41
1
10
34.4162812420568
20
6.17105855046654
30
0
41
1
10
34.2240690844602
20
6.53160625905187
30
0
41
1
10
34.0871950781299
20
6.76318110626133
30
0
41
1
10
33.942304207927
20
6.98665735349064
30
0
0
SPLINE
5
121
100
AcDbEntity
8
1
62
256
6
ByLayer
370
18
48
1
60
0
100
AcDbSpline
70
4
71
3
72
8
73
4
40
0
40
0
40
0
40
0
40
1
40
1
40
1
40
1
41
1
10
41.4999591458537
20
12.3922844686017
30
0
41
1
10
41.4999727639017
20
12.3922840085891
30
0
41
1
10
41.4999863819506
20
12.3922835485939
30
0
41
1
10
41.5000000000002
20
12.3922830886163
30
0
0
SPLINE
5
122
100
AcDbEntity
8
1
62
256
6
ByLayer
370
13
48
1
60
0
100
AcDbSpline
70
4
71
3
72
71
73
67
40
0
40
0
40
0
40
0
40
0.0751010341219945
40
0.167590930709795
40
0.260080827297596
40
0.329448249738446
40
0.398815672179296
40
0.468183094620147
40
0.537550517060997
40
0.606917939501848
40
0.676285361942698
40
0.710969073163123
40
0.745652784383548
40
0.768775258530499
40
0.786117114140711
40
0.803458969750924
40
0.815020206824399
40
0.826581443897874
40
0.838142680971349
40
0.846813608776455
40
0.852594227313193
40
0.85476195926447
40
0.856929691215746
40
0.858013557191384
40
0.85891677883775
40
0.859458711825569
40
0.860000644813388
40
0.860542577801207
40
0.861626443776845
40
0.862710309752484
40
0.86487804170376
40
0.867045773655037
40
0.869936082923406
40
0.874271546825959
40
0.878607010728512
40
0.890168247801987
40
0.901729484875462
40
0.919071340485675
40
0.93063257755915
40
0.942193814632625
40
0.950864742437731
40
0.959535670242837
40
0.965316288779575
40
0.971096907316312
40
0.97687752585305
40
0.982658144389787
40
0.986993608292341
40
0.989883917560709
40
0.990967783536348
40
0.991871005182713
40
0.992412938170532
40
0.992774226829078
40
0.993045193322988
40
0.993270998734579
40
0.993383901440375
40
0.993451643063852
40
0.993541965228489
40
0.993677448475443
40
0.993858092804716
40
0.994038737133989
40
0.994309703627899
40
0.994580670121809
40
0.995122603109628
40
0.996025824755993
40
0.997109690731631
40
1
40
1
40
1
40
1
41
1
10
66.8406056928076
20
2.16951740388339
30
0
41
1
10
66.2062371285384
20
2.60667615052671
30
0
41
1
10
64.7906185642691
20
3.57181482860668
30
0
41
1
10
62.59375
20
5.01173143289827
30
0
41
1
10
60.4453125
20
6.3283465809713
30
0
41
1
10
58.4921875
20
7.42904522957443
30
0
41
1
10
56.734375
20
8.33642883261458
30
0
41
1
10
54.9765625
20
9.1516201709116
30
0
41
1
10
53.21875
20
9.86552191488977
30
0
41
0.999999999999999
10
51.4609375
20
10.4694650263753
30
0
41
1
10
49.9960937500001
20
10.8723064587195
30
0
41
1
10
48.82421875
20
11.1325079097064
30
0
41
0.999999999999999
10
48.0429687500002
20
11.2782667647665
30
0
41
1
10
47.408203125
20
11.377788926842
30
0
41
1
10
46.919921875
20
11.4441151651163
30
0
41
0.999999999999999
10
46.529296875
20
11.4901357008026
30
0
41
1
10
46.1875000000001
20
11.5252508372942
30
0
41
0.999999999999999
10
45.89453125
20
11.55180726282
30
0
41
1
10
45.6259765625
20
11.5728953488397
30
0
41
1
10
45.40625
20
11.587812775876
30
0
41
1
10
45.2658691406251
20
11.5962750519844
30
0
41
1
10
45.180419921875
20
11.6010678906624
30
0
41
1
10
45.1346435546876
20
11.6035307887851
30
0
41
0.999999999999999
10
45.0995483398437
20
11.6053587822891
30
0
41
1
10
45.0781860351562
20
11.6064490647267
30
0
41
1
10
45.0614013671876
20
11.6072929073181
30
0
41
1
10
45.0476684570313
20
11.6079754636343
30
0
41
1
10
45.0293579101563
20
11.6088750569767
30
0
41
1
10
45.0064697265625
20
11.6099798929811
30
0
41
1
10
44.9698486328126
20
11.6117056882346
30
0
41
0.999999999999999
10
44.9240722656251
20
11.6137842711519
30
0
41
1
10
44.8630371093751
20
11.6164158044974
30
0
41
1
10
44.7836914062501
20
11.6196244960664
30
0
41
1
10
44.68603515625
20
11.6232001324694
30
0
41
0.999999999999999
10
44.5151367187501
20
11.6286723257263
30
0
41
1
10
44.2832031249999
20
11.634143365021
30
0
41
1
10
43.9414062500001
20
11.6380031174688
30
0
41
1
10
43.5996093749999
20
11.6365953005312
30
0
41
1
10
43.2578124999999
20
11.6298985688268
30
0
41
1
10
42.9892578125
20
11.6213033395288
30
0
41
1
10
42.7451171875
20
11.6108305768227
30
0
41
1
10
42.5498046875
20
11.6006253467196
30
0
41
1
10
42.3789062500001
20
11.5903608088167
30
0
41
1
10
42.232421875
20
11.5806459638962
30
0
41
1
10
42.0859375000001
20
11.5700131778494
30
0
41
1
10
41.95166015625
20
11.5594238416924
30
0
41
0.999999999999998
10
41.8417968750002
20
11.550155763167
30
0
41
1
10
41.7716064453125
20
11.5439585327755
30
0
41
0.999999999999999
10
41.7304077148438
20
11.5402318793802
30
0
41
1
10
41.7090454101562
20
11.5382764219337
30
0
41
1
10
41.6937866210938
20
11.5368676543076
30
0
41
1
10
41.6838684082032
20
11.5359470747121
30
0
41
1
10
41.6766204833985
20
11.535271846617
30
0
41
1
10
41.6714706420898
20
11.5347906852757
30
0
41
1
10
41.6680374145508
20
11.5344692773724
30
0
41
1
10
41.6657485961914
20
11.5342547801238
30
0
41
1
10
41.6632690429688
20
11.534022194523
30
0
41
1
10
41.6598358154297
20
11.5336997304437
30
0
41
1
10
41.6556396484375
20
11.5333048847494
30
0
41
0.999999999999999
10
41.6502990722657
20
11.5328013022842
30
0
41
1
10
41.6441955566407
20
11.5322242771421
30
0
41
1
10
41.6350402832031
20
11.5313560350672
30
0
41
1
10
41.6205444335937
20
11.529974895169
30
0
41
1
10
41.5991821289062
20
11.5279227006639
30
0
41
0.999999999999999
10
41.5579833984376
20
11.5239202564874
30
0
41
1
10
41.5244140625
20
11.5205862392536
30
0
41
1
10
41.5
20
11.5181229841371
30
0
0
SPLINE
5
123
100
AcDbEntity
8
1
62
256
6
ByLayer
370
18
48
1
60
0
100
AcDbSpline
70
4
71
3
72
35
73
31
40
0
40
0
40
0
40
0
40
0.0333662275972161
40
0.0513883111235553
40
0.0694103946498944
40
0.105454561702573
40
0.141498728755251
40
0.177542895807929
40
0.213587062860607
40
0.285675396965964
40
0.303697480492303
40
0.321719564018642
40
0.339741647544981
40
0.35776373107132
40
0.393807898123999
40
0.429852065176677
40
0.465896232229355
40
0.501940399282033
40
0.519962482808373
40
0.537984566334712
40
0.57402873338739
40
0.646117067492747
40
0.718205401598103
40
0.754249568650781
40
0.79029373570346
40
0.862382069808816
40
0.898426236861494
40
0.934470403914173
40
0.970514570966851
40
1
40
1
40
1
40
1
41
1
10
41.3462966154569
20
-6.38281693659999
30
0
41
1
10
41.6230513631585
20
-6.53585830449103
30
0
41
1
10
42.0492742931678
20
-6.76851685597794
30
0
41
1
10
42.6249379820525
20
-7.07590976926136
30
0
41
1
10
43.2227843831294
20
-7.39016387153239
30
0
41
1
10
43.9700459259684
20
-7.77285516015291
30
0
41
1
10
44.8667166254152
20
-8.21527952355473
30
0
41
1
10
45.7633606963598
20
-8.63990393754079
30
0
41
1
10
46.9589065594269
20
-9.18115011209687
30
0
41
1
10
48.0050987877186
20
-9.61996222309364
30
0
41
1
10
48.9018825905646
20
-9.96994120872549
30
0
41
1
10
49.3502916018055
20
-10.1395891945467
30
0
41
1
10
49.7987275034722
20
-10.303703931186
30
0
41
1
10
50.396679507434
20
-10.5150306266987
30
0
41
1
10
51.1441862218555
20
-10.7648303201826
30
0
41
1
10
52.0413082416756
20
-11.0411930959027
30
0
41
1
10
52.9385317767589
20
-11.2936790315264
30
0
41
1
10
53.6863203030694
20
-11.4837252287163
30
0
41
1
10
54.2846261162933
20
-11.6234961722818
30
0
41
1
10
54.8829626971129
20
-11.7546892441634
30
0
41
1
10
55.9301822454923
20
-11.9621394533087
30
0
41
1
10
57.4265116136991
20
-12.1932679798641
30
0
41
1
10
58.9230726516386
20
-12.336012912957
30
0
41
1
10
60.1201892688253
20
-12.3969431857778
30
0
41
1
10
61.317138753763
20
-12.421626735617
30
0
41
1
10
62.5137978376315
20
-12.3921059771309
30
0
41
1
10
63.7101050360659
20
-12.3091332893762
30
0
41
1
10
64.6071860368206
20
-12.2199611264045
30
0
41
1
10
65.4496461818858
20
-12.1113505091616
30
0
41
1
10
65.9930578748817
20
-12.0268654475319
30
0
41
1
10
66.2375393911904
20
-11.9859793980523
30
0
0
SPLINE
5
124
100
AcDbEntity
8
1
62
256
6
ByLayer
370
18
48
1
60
0
100
AcDbSpline
70
4
71
3
72
8
73
4
40
0
40
0
40
0
40
0
40
1
40
1
40
1
40
1
41
1
10
78.854872292392
20
-7.53859186610123
30
0
41
1
10
78.8150524035051
20
-7.70163975922802
30
0
41
1
10
78.7752957274812
20
-7.86347155317884
30
0
41
1
10
78.7356019140103
20
-8.02409380354175
30
0
0
SPLINE
5
125
100
AcDbEntity
8
1
62
256
6
ByLayer
370
18
48
1
60
0
100
AcDbSpline
70
4
71
3
72
8
73
4
40
0
40
0
40
0
40
0
40
1
40
1
40
1
40
1
41
1
10
78.7356019140102
20
-8.02409380354175
30
0
41
1
10
78.4573761375054
20
-8.42525420666024
30
0
41
1
10
78.1817422987381
20
-8.80888911798954
30
0
41
1
10
77.9086562812614
20
-9.1752968326692
30
0
0
SPLINE
5
126
100
AcDbEntity
8
1
62
256
6
ByLayer
370
18
48
1
60
0
100
AcDbSpline
70
4
71
3
72
8
73
4
40
0
40
0
40
0
40
0
40
1
40
1
40
1
40
1
41
1
10
77.9086562812616
20
-9.17529683266923
30
0
41
1
10
77.8574860452087
20
-9.23989800907833
30
0
41
1
10
77.8063512803965
20
-9.30392792840331
30
0
41
1
10
77.7552519789699
20
-9.36738671714522
30
0
0
SPLINE
5
127
100
AcDbEntity
8
1
62
256
6
ByLayer
370
18
48
1
60
0
100
AcDbSpline
70
4
71
3
72
8
73
4
40
0
40
0
40
0
40
0
40
1
40
1
40
1
40
1
41
1
10
41.5000000000001
20
-4.28808638253676
30
0
41
1
10
41.2017347728083
20
-4.14007454940807
30
0
41
1
10
40.904381930517
20
-3.98959763412282
30
0
41
1
10
40.6080333539622
20
-3.83640739297462
30
0
0
SPLINE
5
128
100
AcDbEntity
8
1
62
256
6
ByLayer
370
18
48
1
60
0
100
AcDbSpline
70
4
71
3
72
8
73
4
40
0
40
0
40
0
40
0
40
1
40
1
40
1
40
1
41
1
10
77.509649315439
20
-9.14492139351009
30
0
41
1
10
77.589576926406
20
-9.22411582557672
30
0
41
1
10
77.6714077809555
20
-9.2983662702936
30
0
41
1
10
77.7552519789699
20
-9.36738671714525
30
0
0
SPLINE
5
129
100
AcDbEntity
8
1
62
256
6
ByLayer
370
13
48
1
60
0
100
AcDbSpline
70
4
71
3
72
8
73
4
40
0
40
0
40
0
40
0
40
1
40
1
40
1
40
1
41
1
10
77.5096493141143
20
-9.14492139305824
30
0
41
1
10
77.4451320640009
20
-9.16705910224121
30
0
41
1
10
77.3806148138874
20
-9.18905248420589
30
0
41
1
10
77.316097563774
20
-9.21089559096907
30
0
0
SPLINE
5
12A
100
AcDbEntity
8
1
62
256
6
ByLayer
370
13
48
1
60
0
100
AcDbSpline
70
4
71
3
72
73
73
69
40
0
40
0
40
0
40
0
40
0.0430805560680756
40
0.122823843062403
40
0.20256713005673
40
0.282310417051057
40
0.362053704045384
40
0.421861169291129
40
0.481668634536874
40
0.54147609978262
40
0.601283565028365
40
0.66109103027411
40
0.720898495519855
40
0.750802228142728
40
0.780705960765601
40
0.800641782514182
40
0.815593648825619
40
0.830545515137055
40
0.840513426011346
40
0.850481336885637
40
0.860449247759928
40
0.867925180915646
40
0.872909136352791
40
0.874778119641721
40
0.87664710293065
40
0.877581594575115
40
0.878360337612169
40
0.878827583434401
40
0.879294829256634
40
0.879762075078866
40
0.880696566723331
40
0.881631058367796
40
0.883500041656725
40
0.885369024945655
40
0.887861002664228
40
0.891598969242087
40
0.895336935819946
40
0.905304846694237
40
0.915272757568527
40
0.930224623879964
40
0.940192534754255
40
0.950160445628546
40
0.957636378784264
40
0.965112311939982
40
0.970096267377127
40
0.975080222814273
40
0.980064178251418
40
0.985048133688564
40
0.988786100266423
40
0.991278077984996
40
0.99221256962946
40
0.992991312666514
40
0.993458558488747
40
0.993770055703568
40
0.994003678614684
40
0.994198364373948
40
0.99429570725358
40
0.994354112981359
40
0.994431987285064
40
0.994548798740622
40
0.994704547348033
40
0.994860295955444
40
0.99509391886656
40
0.995327541777676
40
0.995794787599909
40
0.996573530636962
40
0.997508022281427
40
1
40
1
40
1
40
1
41
1
10
70.8911887550703
20
-10.8248642393739
30
0
41
1
10
70.4691258367135
20
-10.8927700628687
30
0
41
1
10
69.2658129183569
20
-11.0642474762716
30
0
41
1
10
67.2812500000001
20
-11.2410467821209
30
0
41
1
10
64.9375000000001
20
-11.2831960426457
30
0
41
1
10
62.59375
20
-11.1577665706512
30
0
41
1
10
60.4453125
20
-10.8915845470686
30
0
41
1
10
58.4921875000001
20
-10.5326937355253
30
0
41
1
10
56.7343750000001
20
-10.1218020116268
30
0
41
1
10
54.9765625000001
20
-9.62624207449269
30
0
41
1
10
53.2187500000001
20
-9.05018504114076
30
0
41
1
10
51.4609375000001
20
-8.39896762003923
30
0
41
1
10
49.9960937500002
20
-7.79841767972312
30
0
41
1
10
48.8242187500001
20
-7.28583808607988
30
0
41
1
10
48.0429687500002
20
-6.93051083445968
30
0
41
1
10
47.4082031250001
20
-6.63308923258484
30
0
41
1
10
46.9199218750001
20
-6.39980008962431
30
0
41
1
10
46.5292968750001
20
-6.21018292795145
30
0
41
1
10
46.1875000000001
20
-6.04216793487976
30
0
41
1
10
45.8945312500001
20
-5.89675130529861
30
0
41
1
10
45.6259765625001
20
-5.76219971639273
30
0
41
1
10
45.40625
20
-5.65123964747613
30
0
41
1
10
45.2658691406252
20
-5.57995892733126
30
0
41
1
10
45.1804199218751
20
-5.53644217131381
30
0
41
1
10
45.1346435546877
20
-5.51309228945496
30
0
41
1
10
45.0995483398439
20
-5.49516936863179
30
0
41
1
10
45.0781860351563
20
-5.4842518476226
30
0
41
1
10
45.0614013671876
20
-5.47566928225015
30
0
41
1
10
45.0476684570314
20
-5.46864441788034
30
0
41
1
10
45.0293579101564
20
-5.45927425015728
30
0
41
1
10
45.0064697265626
20
-5.44755464696917
30
0
41
1
10
44.9698486328126
20
-5.42878861846742
30
0
41
1
10
44.9240722656251
20
-5.40530366930585
30
0
41
1
10
44.8630371093751
20
-5.37394195478359
30
0
41
1
10
44.7836914062501
20
-5.33309868013939
30
0
41
1
10
44.6860351562501
20
-5.28270262493274
30
0
41
1
10
44.5151367187501
20
-5.19424520261259
30
0
41
1
10
44.2832031250001
20
-5.07354625082741
30
0
41
1
10
43.9414062500002
20
-4.89432819367883
30
0
41
1
10
43.5996093750001
20
-4.71348640817484
30
0
41
1
10
43.2578125000001
20
-4.53110979049652
30
0
41
1
10
42.9892578125001
20
-4.38688663302761
30
0
41
1
10
42.7451171875001
20
-4.25506701778554
30
0
41
1
10
42.5498046875001
20
-4.14914149584948
30
0
41
1
10
42.3789062500001
20
-4.05612532451156
30
0
41
1
10
42.2324218750001
20
-3.97617511154539
30
0
41
1
10
42.0859375000002
20
-3.89600796624137
30
0
41
1
10
41.95166015625
20
-3.82232726161024
30
0
41
1
10
41.8417968750003
20
-3.7619074101423
30
0
41
1
10
41.7716064453126
20
-3.72324508705674
30
0
41
1
10
41.7304077148439
20
-3.70053261877126
30
0
41
1
10
41.7090454101563
20
-3.68875078659579
30
0
41
1
10
41.6937866210938
20
-3.68033260682199
30
0
41
1
10
41.6838684082033
20
-3.67485974219025
30
0
41
1
10
41.6766204833985
20
-3.67085980599435
30
0
41
1
10
41.67147064209
20
-3.66801744768563
30
0
41
1
10
41.6680374145508
20
-3.66612240665486
30
0
41
1
10
41.6657485961915
20
-3.66485899781767
30
0
41
1
10
41.6632690429688
20
-3.6634902592817
30
0
41
1
10
41.6598358154297
20
-3.66159499262949
30
0
41
1
10
41.6556396484376
20
-3.65927840132969
30
0
41
1
10
41.6502990722658
20
-3.65632978817675
30
0
41
1
10
41.6441955566407
20
-3.65295962450878
30
0
41
1
10
41.6350402832032
20
-3.64790380358946
30
0
41
1
10
41.6205444335938
20
-3.63989738884197
30
0
41
1
10
41.5991821289063
20
-3.62809489450285
30
0
41
1
10
41.5579833984377
20
-3.60532351968581
30
0
41
1
10
41.5244140625001
20
-3.58675378768248
30
0
41
1
10
41.5000000000001
20
-3.57324055258869
30
0
0
SPLINE
5
12B
100
AcDbEntity
8
1
62
256
6
ByLayer
370
18
48
1
60
0
100
AcDbSpline
70
4
71
3
72
8
73
4
40
0
40
0
40
0
40
0
40
1
40
1
40
1
40
1
41
1
10
77.7552519789699
20
-9.36738671714525
30
0
41
1
10
77.4314262407044
20
-9.49460451426685
30
0
41
1
10
77.1080444930606
20
-9.6180555563258
30
0
41
1
10
76.7845307881858
20
-9.73722619273354
30
0
0
SPLINE
5
12C
100
AcDbEntity
8
1
62
256
6
ByLayer
370
18
48
1
60
0
100
AcDbSpline
70
4
71
3
72
79
73
75
40
0
40
0
40
0
40
0
40
0.010998393279431
40
0.010998393279431
40
0.0280501451194396
40
0.0280501451194396
40
0.0451018969594481
40
0.0451018969594481
40
0.0621536487994567
40
0.0621536487994567
40
0.0792054006394653
40
0.0792054006394653
40
0.113308904319484
40
0.113308904319484
40
0.181515911679524
40
0.181515911679524
40
0.215619415359544
40
0.215619415359544
40
0.249722919039564
40
0.249722919039564
40
0.283826422719584
40
0.283826422719584
40
0.317929926399603
40
0.317929926399603
40
0.334981678239613
40
0.334981678239613
40
0.352033430079623
40
0.352033430079623
40
0.386136933759643
40
0.386136933759643
40
0.420240437439663
40
0.420240437439663
40
0.454343941119683
40
0.454343941119683
40
0.488447444799703
40
0.488447444799703
40
0.522550948479723
40
0.522550948479723
40
0.556654452159743
40
0.556654452159743
40
0.590757955839763
40
0.590757955839763
40
0.624861459519783
40
0.624861459519783
40
0.658964963199803
40
0.658964963199803
40
0.693068466879822
40
0.693068466879822
40
0.701594342799827
40
0.701594342799827
40
0.710120218719832
40
0.727171970559842
40
0.727171970559842
40
0.761275474239861
40
0.761275474239861
40
0.77832722607987
40
0.77832722607987
40
0.79537897791988
40
0.79537897791988
40
0.829482481599899
40
0.829482481599899
40
0.846534233439909
40
0.846534233439909
40
0.863585985279918
40
0.863585985279918
40
0.897689488959938
40
0.897689488959938
40
0.931792992639958
40
0.931792992639958
40
0.948844744479969
40
0.948844744479969
40
0.965896496319979
40
0.965896496319979
40
1
40
1
40
1
40
1
41
1
10
74.7092210381533
20
-10.4409883314993
30
0
41
1
10
74.5866797418749
20
-10.4789330108545
30
0
41
1
10
74.464099374594
20
-10.5162455056649
30
0
41
1
10
74.151365753185
20
-10.6097871154273
30
0
41
1
10
73.9610533992213
20
-10.6651516834983
30
0
41
1
10
73.5808703682577
20
-10.7725974230569
30
0
41
1
10
73.390969112025
20
-10.8246912520246
30
0
41
1
10
73.0115200480959
20
-10.9255872094162
30
0
41
1
10
72.8219730492845
20
-10.9743876997591
30
0
41
1
10
72.4432052805458
20
-11.0686533006974
30
0
41
1
10
72.2539775452051
20
-11.1141319118499
30
0
41
1
10
71.6866193728916
20
-11.2457800679126
30
0
41
1
10
71.3088507474854
20
-11.3270866614365
30
0
41
1
10
70.1765488637072
20
-11.5513460895782
30
0
41
1
10
69.4230347624198
20
-11.6746579715754
30
0
41
1
10
68.2928673087875
20
-11.81894734934
30
0
41
1
10
67.9161519014805
20
-11.8602814308357
30
0
41
1
10
67.1624101202675
20
-11.9289877258328
30
0
41
1
10
66.7854068274999
20
-11.9562381368249
30
0
41
1
10
66.030509936184
20
-11.9973384985567
30
0
41
1
10
65.6526171558932
20
-12.0112236256888
30
0
41
1
10
64.8956530802981
20
-12.0250930354509
30
0
41
1
10
64.5165733671211
20
-12.0251138471914
30
0
41
1
10
63.9467814470452
20
-12.0144692304565
30
0
41
1
10
63.7565576741787
20
-12.0091266316475
30
0
41
1
10
63.3768625813641
20
-11.9948678351694
30
0
41
1
10
63.1872569599828
20
-11.9859625450214
30
0
41
1
10
62.6190291212264
20
-11.9541235808969
30
0
41
1
10
62.2409691724776
20
-11.9261326160302
30
0
41
1
10
61.4861029600436
20
-11.8566598321414
30
0
41
1
10
61.1093064308874
20
-11.815158478786
30
0
41
1
10
60.3567290404156
20
-11.7185510433962
30
0
41
1
10
59.9809562647229
20
-11.6633982153389
30
0
41
1
10
59.2299961899468
20
-11.5399484366385
30
0
41
1
10
58.8547622582319
20
-11.4718268202346
30
0
41
1
10
58.1044877746772
20
-11.3229940314237
30
0
41
1
10
57.7294622396438
20
-11.2422315987872
30
0
41
1
10
56.9793903941853
20
-11.0678109098261
30
0
41
1
10
56.6043405252876
20
-10.9741619283217
30
0
41
1
10
55.853861392662
20
-10.7740742634704
30
0
41
1
10
55.4784389015508
20
-10.6675991296148
30
0
41
1
10
54.726806317701
20
-10.4421178797484
30
0
41
1
10
54.3505915283076
20
-10.3231328303095
30
0
41
1
10
53.5969239949058
20
-10.0731776024892
30
0
41
1
10
53.2194280987151
20
-9.94248922605212
30
0
41
1
10
52.4628330241646
20
-9.66935485655213
30
0
41
1
10
52.0837326437198
20
-9.52691966677341
30
0
41
1
10
51.6086277297846
20
-9.34157548808594
30
0
41
1
10
51.5135110734714
20
-9.30412694684506
30
0
41
1
10
51.3234178518743
20
-9.22860332569925
30
0
41
1
10
51.0384278983692
20
-9.11435505960335
30
0
41
1
10
50.7538735483693
20
-8.99722662283537
30
0
41
1
10
50.1853055589958
20
-8.75914927345553
30
0
41
1
10
49.8070046565929
20
-8.5952706605554
30
0
41
1
10
49.2403358205156
20
-8.34223859858432
30
0
41
1
10
49.0515696339808
20
-8.25671157127823
30
0
41
1
10
48.6741744356932
20
-8.08355003652466
30
0
41
1
10
48.4855472024865
20
-7.99591131737992
30
0
41
1
10
47.9198307864477
20
-7.72986281879289
30
0
41
1
10
47.5429174086494
20
-7.54829627209853
30
0
41
1
10
46.9777914946244
20
-7.26945357038383
30
0
41
1
10
46.7894564942838
20
-7.17542324185956
30
0
41
1
10
46.4128398194288
20
-6.98517739117253
30
0
41
1
10
46.2245551065
20
-6.88897110413279
30
0
41
1
10
45.6596461632294
20
-6.5973693860893
30
0
41
1
10
45.2829523633494
20
-6.3990450192891
30
0
41
1
10
44.5289556847064
20
-5.99523889423278
30
0
41
1
10
44.1516561628741
20
-5.78974921373384
30
0
41
1
10
43.5849947059018
20
-5.4763877910726
30
0
41
1
10
43.3959901981449
20
-5.37107346335605
30
0
41
1
10
43.017708890244
20
-5.15872653891705
30
0
41
1
10
42.8284353508407
20
-5.05167676772635
30
0
41
1
10
42.2600875842078
20
-4.7282412460294
30
0
41
1
10
41.8804875766261
20
-4.50956975335814
30
0
41
1
10
41.5000000000001
20
-4.28808638253673
30
0
0
SPLINE
5
12D
100
AcDbEntity
8
1
62
256
6
ByLayer
370
18
48
1
60
0
100
AcDbSpline
70
4
71
3
72
42
73
38
40
0
40
0
40
0
40
0
40
0.0195357065059664
40
0.046893527628895
40
0.0605724381903593
40
0.0742513487518236
40
0.101609169874752
40
0.128966990997681
40
0.142645901559145
40
0.156324812120609
40
0.170003722682074
40
0.183682633243538
40
0.238398275489395
40
0.265756096612324
40
0.293113917735252
40
0.320471738858181
40
0.347829559981109
40
0.402545202226966
40
0.416224112788431
40
0.429903023349895
40
0.457260844472823
40
0.511976486718681
40
0.539334307841609
40
0.566692128964538
40
0.594049950087466
40
0.621407771210395
40
0.648765592333323
40
0.676123413456252
40
0.730839055702109
40
0.758196876825038
40
0.785554697947966
40
0.840270340193823
40
0.853949250755288
40
0.867628161316752
40
0.89498598243968
40
0.949701624685538
40
1
40
1
40
1
40
1
41
1
10
46.0308923341407
20
12.3924735255984
30
0
41
1
10
46.2443561745501
20
12.3836572214681
30
0
41
1
10
46.7567102154377
20
12.3551194398977
30
0
41
1
10
47.4183737507536
20
12.2955395675506
30
0
41
1
10
48.0159585716493
20
12.2237309723818
30
0
41
1
10
48.6134637699408
20
12.14014989603
30
0
41
1
10
49.3602187017165
20
12.0133073230673
30
0
41
1
10
50.1067765480695
20
11.857304644217
30
0
41
1
10
50.7038753849177
20
11.715507924122
30
0
41
1
10
51.1516341239822
20
11.6005570465347
30
0
41
1
10
51.5993281886003
20
11.4771472805339
30
0
41
1
10
52.4945814167682
20
11.2137582008277
30
0
41
1
10
53.5387510963503
20
10.8579423666576
30
0
41
1
10
54.7318823400055
20
10.3893066258891
30
0
41
1
10
55.6266830490878
20
10.0075683378562
30
0
41
1
10
56.5214786197326
20
9.59673898746192
30
0
41
1
10
57.7146087106951
20
9.01151731484774
30
0
41
1
10
58.7587205427423
20
8.45269016021422
30
0
41
1
10
59.6538404726124
20
7.9439582933114
30
0
41
1
10
60.2506338884275
20
7.59712726776235
30
0
41
1
10
61.2951444569255
20
6.97024392957562
30
0
41
1
10
62.4891001334459
20
6.21189839249072
30
0
41
1
10
63.6832386231415
20
5.41867011052577
30
0
41
1
10
64.5789199762565
20
4.80776185159851
30
0
41
1
10
65.4746512688478
20
4.18281892490708
30
0
41
1
10
66.3704098020707
20
3.54566190103134
30
0
41
1
10
67.2661450838333
20
2.89825210101628
30
0
41
1
10
68.4605530244389
20
2.02359245165894
30
0
41
1
10
69.6555775242219
20
1.13542097924901
30
0
41
1
10
70.8521435988009
20
0.240840754983594
30
0
41
1
10
72.0499773598769
20
-0.655733522302171
30
0
41
1
10
73.1001942570185
20
-1.43955185285097
30
0
41
1
10
74.0024894359159
20
-2.10638089647645
30
0
41
1
10
74.6045835671738
20
-2.5493089627324
30
0
41
1
10
75.6598473514081
20
-3.31932140032819
30
0
41
1
10
77.1236650165371
20
-4.36502593335439
30
0
41
1
10
78.2912311364673
20
-5.16645695715127
30
0
41
1
10
78.8521724298167
20
-5.54200712587297
30
0
0
SPLINE
5
12E
100
AcDbEntity
8
1
62
256
6
ByLayer
370
18
48
1
60
0
100
AcDbSpline
70
4
71
3
72
8
73
4
40
0
40
0
40
0
40
0
40
1
40
1
40
1
40
1
41
1
10
78.8521724411451
20
-5.54200713358466
30
0
41
1
10
78.813263187919
20
-5.29589947009913
30
0
41
1
10
78.7744235779762
20
-5.0494302900193
30
0
41
1
10
78.7356531847061
20
-4.80260180945422
30
0
0
SPLINE
5
12F
100
AcDbEntity
8
1
62
256
6
ByLayer
370
18
48
1
60
0
100
AcDbSpline
70
4
71
3
72
8
73
4
40
0
40
0
40
0
40
0
40
1
40
1
40
1
40
1
41
1
10
78.7356531847064
20
-4.80260180945396
30
0
41
1
10
78.4521778815312
20
-4.19710161814879
30
0
41
1
10
78.1717440213117
20
-3.58426194177122
30
0
41
1
10
77.8942976971073
20
-2.9642128663339
30
0
0
SPLINE
5
130
100
AcDbEntity
8
1
62
256
6
ByLayer
370
18
48
1
60
0
100
AcDbSpline
70
4
71
3
72
8
73
4
40
0
40
0
40
0
40
0
40
1
40
1
40
1
40
1
41
1
10
77.8942976971075
20
-2.96421286633381
30
0
41
1
10
77.8175050557086
20
-2.80328737253058
30
0
41
1
10
77.7408031053145
20
-2.64190271212968
30
0
41
1
10
77.6641918898722
20
-2.48005866262864
30
0
0
SPLINE
5
131
100
AcDbEntity
8
1
62
256
6
ByLayer
370
18
48
1
60
0
100
AcDbSpline
70
4
71
3
72
8
73
4
40
0
40
0
40
0
40
0
40
1
40
1
40
1
40
1
41
1
10
77.4126913709717
20
-1.69189463692959
30
0
41
1
10
77.4940959184877
20
-1.95111280166452
30
0
41
1
10
77.577871431742
20
-2.21375050438354
30
0
41
1
10
77.6641918898727
20
-2.48005866262596
30
0
0
SPLINE
5
132
100
AcDbEntity
8
1
62
256
6
ByLayer
370
13
48
1
60
0
100
AcDbSpline
70
4
71
3
72
14
73
10
40
0
40
0
40
0
40
0
40
0.0616873651584998
40
0.252818849386689
40
0.39616746255783
40
0.539516075728972
40
0.682864688900114
40
0.826213302071256
40
1
40
1
40
1
40
1
41
1
10
77.4126913716248
20
-1.69189463599667
30
0
41
1
10
77.16054424775
20
-1.52249792186137
30
0
41
1
10
76.127147123875
20
-0.825870823550105
30
0
41
1
10
74.5078125000001
20
0.273458379169199
30
0
41
1
10
72.5546875000001
20
1.59578745333818
30
0
41
1
10
70.7968750000001
20
2.77157044022735
30
0
41
1
10
69.0390625000002
20
3.91100661125364
30
0
41
1
10
67.1568343192822
20
5.0840189805933
30
0
41
1
10
65.8605436385643
20
5.84706133078089
30
0
41
1
10
65.1501904578464
20
6.24829680657655
30
0
0
SPLINE
5
133
100
AcDbEntity
8
1
62
256
6
ByLayer
370
18
48
1
60
0
100
AcDbSpline
70
4
71
3
72
68
73
64
40
0
40
0
40
0
40
0
40
0.0400576832411059
40
0.0400576832411059
40
0.0801153664822118
40
0.0801153664822118
40
0.120173049723318
40
0.120173049723318
40
0.160230732964424
40
0.160230732964424
40
0.20028841620553
40
0.20028841620553
40
0.240346099446636
40
0.240346099446636
40
0.280403782687741
40
0.280403782687741
40
0.320461465928847
40
0.320461465928847
40
0.360519149169953
40
0.360519149169953
40
0.400576832411059
40
0.400576832411059
40
0.440634515652165
40
0.440634515652165
40
0.450648936462442
40
0.450648936462442
40
0.460663357272718
40
0.460663357272718
40
0.480692198893271
40
0.480692198893271
40
0.520749882134377
40
0.520749882134377
40
0.560807565375483
40
0.560807565375483
40
0.600865248616589
40
0.600865248616589
40
0.620894090237142
40
0.620894090237142
40
0.640922931857696
40
0.640922931857696
40
0.680980615098803
40
0.680980615098803
40
0.72103829833991
40
0.72103829833991
40
0.761095981581016
40
0.761095981581016
40
0.78112482320157
40
0.78112482320157
40
0.801153664822124
40
0.801153664822124
40
0.841211348063233
40
0.841211348063233
40
0.881269031304342
40
0.881269031304342
40
0.901297872924897
40
0.901297872924897
40
0.921326714545452
40
0.921326714545452
40
0.961384397786559
40
0.961384397786559
40
0.981413239407113
40
0.981413239407113
40
1
40
1
40
1
40
1
41
1
10
77.6641918898544
20
-2.48005866262221
30
0
41
1
10
77.2857069602565
20
-2.21126122923025
30
0
41
1
10
76.9074875330455
20
-1.94075879612504
30
0
41
1
10
76.1506617421916
20
-1.39759684441935
30
0
41
1
10
75.7720847065314
20
-1.12489782397427
30
0
41
1
10
75.0142567500249
20
-0.577702748663455
30
0
41
1
10
74.6350055989946
20
-0.303207204220541
30
0
41
1
10
73.8754064526688
20
0.247049915921963
30
0
41
1
10
73.4970003726939
20
0.521433028912526
30
0
41
1
10
72.7421602091795
20
1.067687159896
30
0
41
1
10
72.3657890148338
20
1.33964755435542
30
0
41
1
10
71.6144815524738
20
1.88028619273109
30
0
41
1
10
71.2395136302176
20
2.14892212160046
30
0
41
1
10
70.4900681861403
20
2.68156700008237
30
0
41
1
10
70.1155704905748
20
2.94555103303816
30
0
41
1
10
69.3664688920202
20
3.46828923948843
30
0
41
1
10
68.9918887696317
20
3.7270619985274
30
0
41
1
10
68.2423011725687
20
4.23887065619877
30
0
41
1
10
67.8672856494551
20
4.49189863202002
30
0
41
1
10
67.1163487976941
20
4.99147167252661
30
0
41
1
10
66.7404429628885
20
5.23800904739616
30
0
41
1
10
65.9870133145547
20
5.72378755657874
30
0
41
1
10
65.6094946035184
20
5.96303934398387
30
0
41
1
10
65.136256635507
20
6.25700391668133
30
0
41
1
10
65.041541425099
20
6.31554161067976
30
0
41
1
10
64.8519654019046
20
6.43209217568418
30
0
41
1
10
64.7570761670072
20
6.49012232305748
30
0
41
1
10
64.4723608891456
20
6.66329034702568
30
0
41
1
10
64.282880993825
20
6.77726754932724
30
0
41
1
10
63.7153398079385
20
7.11466637839661
30
0
41
1
10
63.3382199755896
20
7.33351319259768
30
0
41
1
10
62.5855640927063
20
7.75866181771045
30
0
41
1
10
62.2099829414999
20
7.96502362174277
30
0
41
1
10
61.4597638973265
20
8.36468052716242
30
0
41
1
10
61.0851305399165
20
8.55796946416669
30
0
41
1
10
60.5234840104335
20
8.83750125194231
30
0
41
1
10
60.3363183244144
20
8.92894394942664
30
0
41
1
10
59.9620182393816
20
9.1082532250999
30
0
41
1
10
59.774888890034
20
9.19611268132445
30
0
41
1
10
59.2133106407554
20
9.45453475024672
30
0
41
1
10
58.8387197420242
20
9.61988087953515
30
0
41
1
10
58.0888104997931
20
9.93603472835227
30
0
41
1
10
57.7134875467951
20
10.0868559628935
30
0
41
1
10
56.9616463856421
20
10.3732056801189
30
0
41
1
10
56.5851244717968
20
10.5087290407099
30
0
41
1
10
56.0189610459564
20
10.7000433085428
30
0
41
1
10
55.8300076649078
20
10.7618247306572
30
0
41
1
10
55.451545659807
20
10.88135558054
30
0
41
1
10
55.2620017330303
20
10.9391163555298
30
0
41
1
10
54.6926277470393
20
11.1061412408935
30
0
41
1
10
54.3143559857658
20
11.2084400818645
30
0
41
1
10
53.5595893043922
20
11.3952012339027
30
0
41
1
10
53.1830715574489
20
11.4797145214864
30
0
41
1
10
52.61924895414
20
11.5928496353012
30
0
41
1
10
52.4314693926166
20
11.62828771145
30
0
41
1
10
52.0561819742996
20
11.6945483200646
30
0
41
1
10
51.8686818390348
20
11.725348574272
30
0
41
1
10
51.3064146673781
20
11.8109696157707
30
0
41
1
10
50.9318565072215
20
11.8590857720454
30
0
41
1
10
50.3701397427465
20
11.9174270910651
30
0
41
1
10
50.1829039499374
20
11.934625592185
30
0
41
1
10
49.8218382377678
20
11.9635325976752
30
0
41
1
10
49.6480200858228
20
11.9755275710116
30
0
41
1
10
49.4741614358099
20
11.9855591853969
30
0
0
SPLINE
5
134
100
AcDbEntity
8
1
62
256
6
ByLayer
370
18
48
1
60
0
100
AcDbSpline
70
4
71
3
72
38
73
34
40
0
40
0
40
0
40
0
40
0.125274034269614
40
0.125274034269614
40
0.187911051404421
40
0.187911051404421
40
0.219229559971824
40
0.219229559971824
40
0.250548068539227
40
0.250548068539227
40
0.375822102808841
40
0.375822102808841
40
0.501096137078455
40
0.501096137078455
40
0.532414645645858
40
0.532414645645858
40
0.56373315421326
40
0.56373315421326
40
0.626370171348065
40
0.626370171348065
40
0.68900718848287
40
0.68900718848287
40
0.751644205617675
40
0.751644205617675
40
0.81428122275248
40
0.81428122275248
40
0.829940477036181
40
0.829940477036181
40
0.845599731319882
40
0.845599731319882
40
0.876918239887286
40
0.876918239887286
40
1
40
1
40
1
40
1
41
1
10
41.5000000000001
20
-7.41336219484944
30
0
41
1
10
42.272800954516
20
-7.81746744546538
30
0
41
1
10
43.0442656937459
20
-8.20297398062485
30
0
41
1
10
44.2019380396253
20
-8.75053531787253
30
0
41
1
10
44.5879077968118
20
-8.92795012215547
30
0
41
1
10
45.1673055307674
20
-9.18601490003843
30
0
41
1
10
45.3605024357768
20
-9.27068763933249
30
0
41
1
10
45.7465295132224
20
-9.43704017053747
30
0
41
1
10
45.9394306844262
20
-9.51875087716124
30
0
41
1
10
46.9035102641596
20
-9.91987248270482
30
0
41
1
10
47.6734203852637
20
-10.2170044356349
30
0
41
1
10
49.2138398334514
20
-10.7611534490582
30
0
41
1
10
49.9843582719101
20
-11.0080077017292
30
0
41
1
10
50.9498843953982
20
-11.2833264047449
30
0
41
1
10
51.1431741535214
20
-11.3367477836664
30
0
41
1
10
51.5293817546482
20
-11.4400648803442
30
0
41
1
10
51.7223644383232
20
-11.4899801426581
30
0
41
1
10
52.3010180860238
20
-11.6344748928696
30
0
41
1
10
52.6863909775233
20
-11.7238078343308
30
0
41
1
10
53.4567635299275
20
-11.8882551524207
30
0
41
1
10
53.8417608557579
20
-11.963406356536
30
0
41
1
10
54.6118316716912
20
-12.0992046498586
30
0
41
1
10
54.9969123543456
20
-12.1598100255683
30
0
41
1
10
55.7675790972081
20
-12.2664588188884
30
0
41
1
10
56.153171047433
20
-12.3124432196943
30
0
41
1
10
56.6357481822799
20
-12.3606599806857
30
0
41
1
10
56.7322929170465
20
-12.3698402873788
30
0
41
1
10
56.92544747795
20
-12.3872724635937
30
0
41
1
10
57.0220620693788
20
-12.3955244663237
30
0
41
1
10
57.3117513666711
20
-12.4188643303993
30
0
41
1
10
57.5047580677682
20
-12.4325442984246
30
0
41
1
10
58.4558178152925
20
-12.490735325368
30
0
41
1
10
59.2125141980081
20
-12.5081636490316
30
0
41
1
10
59.9692808242867
20
-12.496576564125
30
0
0
SPLINE
5
135
100
AcDbEntity
8
1
62
256
6
ByLayer
370
18
48
1
60
0
100
AcDbSpline
70
4
71
3
72
8
73
4
40
0
40
0
40
0
40
0
40
1
40
1
40
1
40
1
41
1
10
61.6672239385607
20
-12.4220029624124
30
0
41
1
10
61.769596057776
20
-12.414584752803
30
0
41
1
10
61.8719891749432
20
-12.4066380674499
30
0
41
1
10
61.9744068991438
20
-12.398163051603
30
0
0
SPLINE
5
136
100
AcDbEntity
8
1
62
256
6
ByLayer
370
18
48
1
60
0
100
AcDbSpline
70
4
71
3
72
31
73
27
40
0
40
0
40
0
40
0
40
0.0328184792380502
40
0.0544799153726831
40
0.0761413515073159
40
0.119464223776582
40
0.162787096045847
40
0.206109968315113
40
0.249432840584379
40
0.33607858512291
40
0.357740021257543
40
0.379401457392176
40
0.401062893526808
40
0.422724329661441
40
0.466047201930707
40
0.509370074199972
40
0.552692946469238
40
0.596015818738504
40
0.617677254873137
40
0.639338691007769
40
0.682661563277035
40
0.769307307815566
40
0.855953052354098
40
0.899275924623363
40
0.942598796892629
40
1
40
1
40
1
40
1
41
1
10
41.4971902837011
20
-7.30585249243742
30
0
41
1
10
41.7236641146381
20
-7.42517140584368
30
0
41
1
10
42.0996082037049
20
-7.62072093315774
30
0
41
1
10
42.6249981664291
20
-7.88783695084962
30
0
41
1
10
43.2228428220518
20
-8.18616465336595
30
0
41
1
10
43.9701048614312
20
-8.54796404620973
30
0
41
1
10
44.8667790495354
20
-8.96361599093763
30
0
41
1
10
45.7634333019328
20
-9.35980017354686
30
0
41
1
10
46.9589812066787
20
-9.86093294489555
30
0
41
1
10
48.0051426731296
20
-10.2624438685275
30
0
41
1
10
48.9019358411394
20
-10.5784727075581
30
0
41
1
10
49.3503524795178
20
-10.730743658078
30
0
41
1
10
49.7987934568974
20
-10.8771484882104
30
0
41
1
10
50.3967474662269
20
-11.0644905851421
30
0
41
1
10
51.1442530472274
20
-11.2836724058842
30
0
41
1
10
52.0413713895993
20
-11.5222551348989
30
0
41
1
10
52.9385986954612
20
-11.7359233021051
30
0
41
1
10
53.6863892749906
20
-11.8927811863559
30
0
41
1
10
54.284689084667
20
-12.0054127648232
30
0
41
1
10
54.8830219710492
20
-12.1092020202061
30
0
41
1
10
55.9302274123565
20
-12.2679603731441
30
0
41
1
10
57.4265816584436
20
-12.4280810184947
30
0
41
1
10
58.9231507378845
20
-12.4983617138916
30
0
41
1
10
60.1202551665067
20
-12.5002146230627
30
0
41
1
10
61.115196369532
20
-12.4715271298402
30
0
41
1
10
61.8107809453653
20
-12.4270353649756
30
0
41
1
10
62.2071389021047
20
-12.3938070821042
30
0
0
SPLINE
5
137
100
AcDbEntity
8
1
62
256
6
ByLayer
370
18
48
1
60
0
100
AcDbSpline
70
4
71
3
72
8
73
4
40
0
40
0
40
0
40
0
40
1
40
1
40
1
40
1
41
1
10
40.8660254037844
20
-7.10442749167368
30
0
41
1
10
41.0772685475486
20
-7.2074982425697
30
0
41
1
10
41.2885958801161
20
-7.31047135251592
30
0
41
1
10
41.5000000000001
20
-7.41335540564921
30
0
0
SPLINE
5
138
100
AcDbEntity
8
1
62
256
6
ByLayer
370
18
48
1
60
0
100
AcDbSpline
70
4
71
3
72
8
73
4
40
0
40
0
40
0
40
0
40
1
40
1
40
1
40
1
41
1
10
41.4999999999999
20
-7.41293725968711
30
0
41
1
10
41.4986840060093
20
-7.37725513469002
30
0
41
1
10
41.4977428599238
20
-7.34155882906396
30
0
41
1
10
41.497190283701
20
-7.30585249243731
30
0
0
SPLINE
5
139
100
AcDbEntity
8
1
62
256
6
ByLayer
370
18
48
1
60
0
100
AcDbSpline
70
4
71
3
72
10
73
6
40
0
40
0
40
0
40
0
40
0.5
40
0.5
40
1
40
1
40
1
40
1
41
1
10
41.3462966154569
20
-6.38281693659999
30
0
41
1
10
41.3616374976535
20
-6.53853258275612
30
0
41
1
10
41.3823952207548
20
-6.69351230684083
30
0
41
1
10
41.4331752127893
20
-7.00135606657921
30
0
41
1
10
41.4631989770766
20
-7.15423067661209
30
0
41
1
10
41.4971902837015
20
-7.30585249243742
30
0
0
SPLINE
5
13A
100
AcDbEntity
8
1
62
256
6
ByLayer
370
18
48
1
60
0
100
AcDbSpline
70
4
71
3
72
14
73
10
40
0
40
0
40
0
40
0
40
0.499999999999905
40
0.499999999999905
40
0.749999999999905
40
0.749999999999905
40
0.874999999999952
40
0.874999999999952
40
1
40
1
40
1
40
1
41
1
10
40.3660254037844
20
-6.98124106633142
30
0
41
1
10
40.4365707697012
20
-6.98389435569877
30
0
41
1
10
40.5057698588076
20
-6.99196914706374
30
0
41
1
10
40.6075918568345
20
-7.01236199425452
30
0
41
1
10
40.6412004080151
20
-7.02055073573567
30
0
41
1
10
40.6910962196062
20
-7.03504178288719
30
0
41
1
10
40.7076380049513
20
-7.04024180166414
30
0
41
1
10
40.7402911219943
20
-7.05131471555509
30
0
41
1
10
40.7564347940268
20
-7.05719654243146
30
0
41
1
10
40.7723952882578
20
-7.06342830061772
30
0
0
SPLINE
5
13B
100
AcDbEntity
8
1
62
256
6
ByLayer
370
18
48
1
60
0
100
AcDbSpline
70
4
71
3
72
8
73
4
40
0
40
0
40
0
40
0
40
1
40
1
40
1
40
1
41
1
10
40.7723952882578
20
-7.06342830061772
30
0
41
1
10
40.8044049326254
20
-7.07592643259528
30
0
41
1
10
40.8356166846761
20
-7.08959032604173
30
0
41
1
10
40.8660254037853
20
-7.1044274916724
30
0
0
SPLINE
5
13C
100
AcDbEntity
8
1
62
256
6
ByLayer
370
18
48
1
60
0
100
AcDbSpline
70
4
71
3
72
12
73
8
40
0
40
0
40
0
40
0
40
0.49999999999994
40
0.49999999999994
40
0.74999999999997
40
0.74999999999997
40
1
40
1
40
1
40
1
41
1
10
40.608033353963
20
-3.83640739297368
30
0
41
1
10
40.570021043448
20
-3.80751035633185
30
0
41
1
10
40.5308493568192
20
-3.77988199741435
30
0
41
1
10
40.4701042767217
20
-3.74061438793044
30
0
41
1
10
40.449556866701
20
-3.72791387022326
30
0
41
1
10
40.4081159808391
20
-3.70351377441153
30
0
41
1
10
40.3871835541087
20
-3.69178849908008
30
0
41
1
10
40.3660254037845
20
-3.6805687688518
30
0
0
SPLINE
5
13D
100
AcDbEntity
8
1
62
256
6
ByLayer
370
18
48
1
60
0
100
AcDbSpline
70
4
71
3
72
8
73
4
40
0
40
0
40
0
40
0
40
1
40
1
40
1
40
1
41
1
10
78.7974331446944
20
-6.38179749717537
30
0
41
1
10
78.8649367161875
20
-6.38501988753524
30
0
41
1
10
78.9324590258232
20
-6.38836123899998
30
0
41
1
10
79
20
-6.39182108734605
30
0
0
SPLINE
5
13E
100
AcDbEntity
8
1
62
256
6
ByLayer
370
18
48
1
60
0
100
AcDbSpline
70
4
71
3
72
8
73
4
40
0
40
0
40
0
40
0
40
1
40
1
40
1
40
1
41
1
10
78.5968155421758
20
-6.36448685286067
30
0
41
1
10
78.6636861488307
20
-6.37014530479948
30
0
41
1
10
78.730558681692
20
-6.37591544121619
30
0
41
1
10
78.797433144799
20
-6.38179749631448
30
0
0
SPLINE
5
13F
100
AcDbEntity
8
1
62
256
6
ByLayer
370
18
48
1
60
0
100
AcDbSpline
70
4
71
3
72
42
73
38
40
0
40
0
40
0
40
0
40
0.0482193974912712
40
0.0748212792589894
40
0.0881222201428486
40
0.101423161026708
40
0.128025042794426
40
0.154626924562144
40
0.167927865446003
40
0.181228806329862
40
0.194529747213722
40
0.207830688097581
40
0.261034451633017
40
0.287636333400735
40
0.314238215168453
40
0.340840096936172
40
0.36744197870389
40
0.420645742239326
40
0.433946683123186
40
0.447247624007045
40
0.473849505774763
40
0.527053269310199
40
0.553655151077917
40
0.580257032845636
40
0.606858914613354
40
0.633460796381072
40
0.66006267814879
40
0.686664559916509
40
0.739868323451945
40
0.766470205219663
40
0.793072086987382
40
0.846275850522818
40
0.859576791406677
40
0.872877732290536
40
0.899479614058254
40
0.952683377593691
40
1
40
1
40
1
40
1
41
1
10
45.0456636108165
20
12.4660498343032
30
0
41
1
10
45.5876581570335
20
12.4366503006633
30
0
41
1
10
46.428490495068
20
12.3600337628198
30
0
41
1
10
47.4184629389609
20
12.2140366749023
30
0
41
1
10
48.0160516464736
20
12.1080115140437
30
0
41
1
10
48.6135590437301
20
11.9903170768403
30
0
41
1
10
49.360303723696
20
11.8212272825082
30
0
41
1
10
50.1068515129698
20
11.6234679547907
30
0
41
1
10
50.7039554948071
20
11.4485057801486
30
0
41
1
10
51.1517193800179
20
11.3088759776831
30
0
41
1
10
51.599415329463
20
11.1610117491119
30
0
41
1
10
52.4946750272387
20
10.8491765339811
30
0
41
1
10
53.5388417649354
20
10.4386250603556
30
0
41
1
10
54.731969733405
20
9.90964748348861
30
0
41
1
10
55.6267660357268
20
9.48406461422081
30
0
41
1
10
56.5215641882629
20
9.0308643046593
30
0
41
1
10
57.7146930603984
20
8.39149019945398
30
0
41
1
10
58.7588132672324
20
7.78847823960953
30
0
41
1
10
59.6539332076864
20
7.24416613104211
30
0
41
1
10
60.2507236499367
20
6.87422294478264
30
0
41
1
10
61.2952258311149
20
6.20891342520059
30
0
41
1
10
62.4891879829316
20
5.41115097032716
30
0
41
1
10
63.6833301843693
20
4.58296000111108
30
0
41
1
10
64.5790070030221
20
3.94837238110071
30
0
41
1
10
65.4747354385067
20
3.30224970688343
30
0
41
1
10
66.3704969208432
20
2.6464817428004
30
0
41
1
10
67.2662316639506
20
1.98302010211677
30
0
41
1
10
68.4606399531917
20
1.09059924310395
30
0
41
1
10
69.655676537015
20
0.190063925268959
30
0
41
1
10
70.8522243278092
20
-0.711395845359419
30
0
41
1
10
72.0500645964325
20
-1.61108464577632
30
0
41
1
10
73.1003015414127
20
-2.39276385514287
30
0
41
1
10
74.0025661881886
20
-3.05421607756966
30
0
41
1
10
74.6046534534137
20
-3.49260972880782
30
0
41
1
10
75.6599278677942
20
-4.25221689163561
30
0
41
1
10
77.1056975910307
20
-5.26413631840302
30
0
41
1
10
78.2549300971481
20
-6.03036193735932
30
0
41
1
10
78.7974331445897
20
-6.38179749803484
30
0
0
SPLINE
5
140
100
AcDbEntity
8
1
62
256
6
ByLayer
370
18
48
1
60
0
100
AcDbSpline
70
4
71
3
72
75
73
71
40
0
40
0
40
0
40
0
40
0.0312499999999998
40
0.0312499999999998
40
0.0624999999999997
40
0.0624999999999997
40
0.0937499999999995
40
0.0937499999999995
40
0.124999999999999
40
0.124999999999999
40
0.156249999999999
40
0.156249999999999
40
0.187499999999999
40
0.187499999999999
40
0.203124999999999
40
0.210937499999999
40
0.210937499999999
40
0.218749999999999
40
0.218749999999999
40
0.25
40
0.25
40
0.281250000000002
40
0.281250000000002
40
0.312500000000003
40
0.312500000000003
40
0.328125000000004
40
0.335937500000004
40
0.335937500000004
40
0.343750000000005
40
0.343750000000005
40
0.375000000000006
40
0.375000000000006
40
0.437500000000008
40
0.437500000000008
40
0.453125000000008
40
0.460937500000009
40
0.460937500000009
40
0.468750000000009
40
0.468750000000009
40
0.500000000000009
40
0.500000000000009
40
0.562500000000008
40
0.562500000000008
40
0.578125000000008
40
0.578125000000008
40
0.585937500000008
40
0.585937500000008
40
0.593750000000008
40
0.593750000000008
40
0.625000000000007
40
0.625000000000007
40
0.687500000000006
40
0.687500000000006
40
0.703125000000006
40
0.703125000000006
40
0.718750000000006
40
0.718750000000006
40
0.750000000000005
40
0.750000000000005
40
0.812500000000004
40
0.812500000000004
40
0.828125000000003
40
0.828125000000003
40
0.843750000000002
40
0.843750000000002
40
0.875000000000003
40
0.875000000000003
40
0.937500000000001
40
0.937500000000001
40
1
40
1
40
1
40
1
41
1
10
41.5000000000002
20
12.3922830886163
30
0
41
1
10
41.8874441172489
20
12.4305067802435
30
0
41
1
10
42.2743677465923
20
12.4585439724848
30
0
41
1
10
43.0478316456835
20
12.4943317226104
30
0
41
1
10
43.4343714862842
20
12.5020754951931
30
0
41
1
10
44.2077706414786
20
12.4971172005888
30
0
41
1
10
44.5946764818926
20
12.4843965452586
30
0
41
1
10
45.3693518966069
20
12.4384839029486
30
0
41
1
10
45.7560171250084
20
12.4053638929819
30
0
41
1
10
46.5287250245959
20
12.3191111915117
30
0
41
1
10
46.9147665523776
20
12.2659855297795
30
0
41
1
10
47.686941888876
20
12.1398544805003
30
0
41
1
10
48.0730791994241
20
12.0668338729576
30
0
41
1
10
48.6528571045154
20
11.9426627876346
30
0
41
1
10
48.9428923764286
20
11.8768852831867
30
0
41
1
10
49.2332394302096
20
11.8056045476465
30
0
41
1
10
49.4268833660124
20
11.7568638197897
30
0
41
1
10
49.5237695614382
20
11.7318767851268
30
0
41
1
10
50.0081191490222
20
11.6039810361309
30
0
41
1
10
50.3949526662556
20
11.4923490140556
30
0
41
1
10
51.167966152528
20
11.250643212555
30
0
41
1
10
51.5541449823943
20
11.120570022741
30
0
41
1
10
52.3264448207745
20
10.8426558671668
30
0
41
1
10
52.7125773277916
20
10.6947291295031
30
0
41
1
10
53.2922812557413
20
10.4597254408311
30
0
41
1
10
53.5822604535396
20
10.3389454759853
30
0
41
1
10
53.8725315177441
20
10.2133039920866
30
0
41
1
10
54.0661218030812
20
10.1284682001011
30
0
41
1
10
54.1629829218625
20
10.0855003183256
30
0
41
1
10
54.6470504850012
20
9.86819445056696
30
0
41
1
10
55.0336484010684
20
9.68641439331023
30
0
41
1
10
56.1925658455963
20
9.11831271896168
30
0
41
1
10
56.9640283054715
20
8.70925007773312
30
0
41
1
10
57.9304369152604
20
8.16341672375663
30
0
41
1
10
58.2205138138047
20
7.99707574983029
30
0
41
1
10
58.5109166390437
20
7.82693060398665
30
0
41
1
10
58.704601353014
20
7.71266339747845
30
0
41
1
10
58.8015016423888
20
7.65510120234913
30
0
41
1
10
59.2856887361119
20
7.36554704112777
30
0
41
1
10
59.6724299972287
20
7.12809697799739
30
0
41
1
10
60.8317579201471
20
6.39942882707024
30
0
41
1
10
61.6033961785826
20
5.89186461080854
30
0
41
1
10
62.5697296026143
20
5.23404992590127
30
0
41
1
10
62.7630875639472
20
5.10131796881433
30
0
41
1
10
63.0533298937879
20
4.9005385489987
30
0
41
1
10
63.1501115513256
20
4.83333194143484
30
0
41
1
10
63.3437547414808
20
4.69837102564964
30
0
41
1
10
63.440606101992
20
4.63062364161399
30
0
41
1
10
63.9245289136094
20
4.29094592729734
30
0
41
1
10
64.3110398806255
20
4.01588714595474
30
0
41
1
10
65.4697840762602
20
3.18221153301891
30
0
41
1
10
66.2412335202074
20
2.61511086735825
30
0
41
1
10
67.2077900345779
20
1.89664163947765
30
0
41
1
10
67.4012129312903
20
1.75246706627414
30
0
41
1
10
67.7883665619012
20
1.463265410785
30
0
41
1
10
67.9821965590244
20
1.3181637311032
30
0
41
1
10
68.5630608342256
20
0.882647061998057
30
0
41
1
10
68.9497305927909
20
0.591830109988365
30
0
41
1
10
70.1089533411935
20
-0.280798292698705
30
0
41
1
10
70.8806729723584
20
-0.862848016994406
30
0
41
1
10
71.8472613072971
20
-1.5863792414905
30
0
41
1
10
72.0406772577056
20
-1.7308821312173
30
0
41
1
10
72.427794845473
20
-2.01936218463933
30
0
41
1
10
72.6215820462908
20
-2.16340217396828
30
0
41
1
10
73.2019346772898
20
-2.59338463096049
30
0
41
1
10
73.5879547500164
20
-2.8775326082432
30
0
41
1
10
74.7444647906585
20
-3.72111404417888
30
0
41
1
10
75.5134157458269
20
-4.27171677711073
30
0
41
1
10
77.0527437962086
20
-5.34257956604108
30
0
41
1
10
77.8231168540834
20
-5.86284801970999
30
0
41
1
10
78.5968155421746
20
-6.36448685287147
30
0
0
SPLINE
5
141
100
AcDbEntity
8
1
62
256
6
ByLayer
370
18
48
1
60
0
100
AcDbSpline
70
4
71
3
72
12
73
8
40
0
40
0
40
0
40
0
40
0.250000000000003
40
0.250000000000003
40
0.500000000000005
40
0.500000000000005
40
1
40
1
40
1
40
1
41
1
10
40.6080333539674
20
-3.83640739297326
30
0
41
1
10
40.6319102118366
20
-3.91852040819373
30
0
41
1
10
40.6548134216432
20
-4.00081625084528
30
0
41
1
10
40.699508092088
20
-4.16556376162484
30
0
41
1
10
40.7212799514635
20
-4.24802043798067
30
0
41
1
10
40.7853306614439
20
-4.49552748553378
30
0
41
1
10
40.8263675665082
20
-4.66070863415544
30
0
41
1
10
40.8660254037846
20
-4.82601378426511
30
0
0
SPLINE
5
142
100
AcDbEntity
8
1
62
256
6
ByLayer
370
18
48
1
60
0
100
AcDbSpline
70
4
71
3
72
10
73
6
40
0
40
0
40
0
40
0
40
0.5
40
0.5
40
1
40
1
40
1
40
1
41
1
10
40.8660254037844
20
-4.8260137842652
30
0
41
1
10
40.9299345044683
20
-5.09240510077282
30
0
41
1
10
41.0031577706535
20
-5.35508931173823
30
0
41
1
10
41.1643397993572
20
-5.87380678397955
30
0
41
1
10
41.2523148086407
20
-6.12983756499625
30
0
41
1
10
41.3462966154569
20
-6.38281693659999
30
0
0
SPLINE
5
143
100
AcDbEntity
8
SK1
62
256
6
ByLayer
370
18
48
1
60
0
100
AcDbSpline
70
4
71
3
72
14
73
10
40
0
40
0
40
0
40
0
40
0.125
40
0.125
40
0.25
40
0.25
40
0.5
40
0.5
40
1
40
1
40
1
40
1
41
1
10
-55
20
10.5000000000002
30
0
41
1
10
-55.0461557170484
20
10.5000000000002
30
0
41
1
10
-55.091865025733
20
10.5000000000002
30
0
41
1
10
-55.1823401362854
20
10.5000000000002
30
0
41
1
10
-55.2271265263376
20
10.5000000000002
30
0
41
1
10
-55.3597647727655
20
10.5000000000002
30
0
41
1
10
-55.4459345770991
20
10.5000000000002
30
0
41
1
10
-55.6970038587679
20
10.5000000000002
30
0
41
1
10
-55.854487966443
20
10.5000000000002
30
0
41
1
10
-56
20
10.5000000000002
30
0
0
SPLINE
5
144
100
AcDbEntity
8
1
62
256
6
ByLayer
370
18
48
1
60
0
100
AcDbSpline
70
4
71
3
72
9
73
5
40
0
40
0
40
0
40
0
40
0.555372640330903
40
1
40
1
40
1
40
1
41
1
10
41.5
20
-9.68600626464865
30
0
41
1
10
42.1071249602186
20
-9.56787323840584
30
0
41
1
10
43.1934673035138
20
-9.34381929554542
30
0
41
1
10
44.2627178424182
20
-9.1008412284078
30
0
41
1
10
44.7372938624604
20
-8.98826638908372
30
0
0
SPLINE
5
145
100
AcDbEntity
8
1
62
256
6
ByLayer
370
18
48
1
60
0
100
AcDbSpline
70
4
71
2
72
6
73
3
40
0
40
0
40
0
40
1
40
1
40
1
41
1
10
71.0458380185609
20
6.80805000536111
30
0
41
1
10
70.8246688483417
20
6.89405267527471
30
0
41
1
10
70.6003122923611
20
6.97942162929562
30
0
0
SPLINE
5
146
100
AcDbEntity
8
1
62
256
6
ByLayer
370
18
48
1
60
0
100
AcDbSpline
70
4
71
3
72
18
73
14
40
0
40
0
40
0
40
0
40
0.0882980651106369
40
0.163049684214302
40
0.228824235787291
40
0.292520721526471
40
0.354422101468884
40
0.416232000259699
40
0.493880814418756
40
0.591659848930902
40
0.709610697877882
40
0.847764151580625
40
1
40
1
40
1
40
1
41
1
10
66.9614657249131
20
-10.9886286994359
30
0
41
1
10
67.2333810232722
20
-10.9828469459257
30
0
41
1
10
67.7329591749771
20
-10.9690999696397
30
0
41
1
10
68.4319566627852
20
-10.9390012628412
30
0
41
1
10
69.0432639828285
20
-10.9107979509896
30
0
41
1
10
69.6102375820984
20
-10.8814039126945
30
0
41
1
10
70.1571554178818
20
-10.8507698858417
30
0
41
1
10
70.7293552425102
20
-10.8163301127395
30
0
41
1
10
71.4156019981309
20
-10.7668510961379
30
0
41
1
10
72.2708046836234
20
-10.6951911505341
30
0
41
1
10
73.3081230715173
20
-10.5941385735052
30
0
41
1
10
74.5094662293596
20
-10.4589852850088
30
0
41
1
10
75.3655843561688
20
-10.3478197343509
30
0
41
1
10
75.8150493700284
20
-10.2854130018319
30
0
0
SPLINE
5
147
100
AcDbEntity
8
1
62
256
6
ByLayer
370
18
48
1
60
0
100
AcDbSpline
70
4
71
3
72
25
73
21
40
0
40
0
40
0
40
0
40
0.045239738083265
40
0.0942557687228692
40
0.151101063257108
40
0.205615035901306
40
0.252486352322494
40
0.292328786269625
40
0.341646626964037
40
0.396325107600618
40
0.463856457409143
40
0.52149397640619
40
0.568871087749036
40
0.617307049969224
40
0.673278944076039
40
0.729215581095299
40
0.78034210068142
40
0.863343581927921
40
0.950605973383033
40
1
40
1
40
1
40
1
41
1
10
66.9990640720764
20
8.17748261108943
30
0
41
1
10
66.8444422869369
20
8.22038126306691
30
0
41
1
10
66.5228220561405
20
8.30930785000686
30
0
41
1
10
65.99803253751
20
8.45250814509589
30
0
41
1
10
65.4682936237539
20
8.59776960348347
30
0
41
1
10
64.9443889895603
20
8.73690160951253
30
0
41
1
10
64.469794874781
20
8.85982616072931
30
0
41
1
10
64.0045367099347
20
8.97804860275923
30
0
41
1
10
63.5132068263866
20
9.10028150995561
30
0
41
1
10
62.9282765895373
20
9.24202260825666
30
0
41
1
10
62.3149618501587
20
9.38575556874213
30
0
41
1
10
61.7265620169749
20
9.51856324212224
30
0
41
1
10
61.2030490361715
20
9.63275909880682
30
0
41
1
10
60.6852416999326
20
9.74200512047921
30
0
41
1
10
60.1383640482329
20
9.8529684349578
30
0
41
1
10
59.58221302101
20
9.96083905771252
30
0
41
1
10
58.9335655930201
20
10.0810586822464
30
0
41
1
10
58.1780839620941
20
10.2128238286398
30
0
41
1
10
57.4287527454951
20
10.3329062335324
30
0
41
1
10
56.9624020824449
20
10.4022078836264
30
0
41
1
10
56.7938491037298
20
10.4265348120062
30
0
0
LINE
5
79
100
AcDbEntity
8
80
62
256
6
ByLayer
370
18
48
1
60
0
100
AcDbLine
10
0
20
0
30
0
11
-5
21
0
31
0
39
0
210
0
220
0
230
1
0
LINE
5
7A
100
AcDbEntity
8
4
62
256
6
ByLayer
370
18
48
0.05
60
0
100
AcDbLine
10
0
20
0
30
0
11
79
21
0
31
0
39
0
210
0
220
0
230
1
0
LINE
5
7C
100
AcDbEntity
8
81
62
256
6
ByLayer
370
18
48
1
60
0
100
AcDbLine
10
79
20
0
30
0
11
84
21
0
31
0
39
0
210
0
220
0
230
1
0
LINE
5
7D
100
AcDbEntity
8
SK4
62
256
6
ByLayer
370
18
48
0.05
60
0
100
AcDbLine
10
-56
20
0
30
0
11
79
21
0
31
0
39
0
210
0
220
0
230
1
0
LINE
5
7F
100
AcDbEntity
8
1
62
256
6
ByLayer
370
18
48
1
60
0
100
AcDbLine
10
0
20
12.5
30
0
11
0
21
0
31
0
39
0
210
0
220
0
230
1
0
LINE
5
80
100
AcDbEntity
8
1
62
256
6
ByLayer
370
18
48
1
60
0
100
AcDbLine
10
0
20
0
30
0
11
0
21
-12.5
31
0
39
0
210
0
220
0
230
1
0
LINE
5
81
100
AcDbEntity
8
1
62
256
6
ByLayer
370
18
48
1
60
0
100
AcDbLine
10
78.992829
20
-6.39147
30
0
11
78.99993
21
-6.83427
31
0
39
0
210
0
220
0
230
1
0
LINE
5
82
100
AcDbEntity
8
1
62
256
6
ByLayer
370
18
48
1
60
0
100
AcDbLine
10
78.735602
20
-8.024094
30
0
11
78.730283
21
-7.686276
31
0
39
0
210
0
220
0
230
1
0
LINE
5
83
100
AcDbEntity
8
1
62
256
6
ByLayer
370
18
48
1
60
0
100
AcDbLine
10
78.730283
20
-7.686276
30
0
11
78.975494
21
-6.39061
31
0
39
0
210
0
220
0
230
1
0
LINE
5
84
100
AcDbEntity
8
1
62
256
6
ByLayer
370
18
48
1
60
0
100
AcDbLine
10
77.908656
20
-9.175297
30
0
11
78.730283
21
-7.686276
31
0
39
0
210
0
220
0
230
1
0
LINE
5
85
100
AcDbEntity
8
1
62
256
6
ByLayer
370
18
48
1
60
0
100
AcDbLine
10
78.730283
20
-7.686276
30
0
11
78.512813
21
-6.308584
31
0
39
0
210
0
220
0
230
1
0
LINE
5
86
100
AcDbEntity
8
1
62
256
6
ByLayer
370
18
48
1
60
0
100
AcDbLine
10
75.552879
20
-10.271818
30
0
11
76.088583
21
-9.723097
31
0
39
0
210
0
220
0
230
1
0
LINE
5
87
100
AcDbEntity
8
1
62
256
6
ByLayer
370
18
48
1
60
0
100
AcDbLine
10
78.967426
20
11.255566
30
0
11
78.991463
21
11.525671
31
0
39
0
210
0
220
0
230
1
0
LINE
5
88
100
AcDbEntity
8
1
62
256
6
ByLayer
370
18
48
1
60
0
100
AcDbLine
10
78.991463
20
11.525671
30
0
11
78.99993
21
12.47934
31
0
39
0
210
0
220
0
230
1
0
LINE
5
89
100
AcDbEntity
8
1
62
256
6
ByLayer
370
18
48
1
60
0
100
AcDbLine
10
77.483611
20
0.104381
30
0
11
77.967074
21
0.01422
31
0
39
0
210
0
220
0
230
1
0
LINE
5
8A
100
AcDbEntity
8
1
62
256
6
ByLayer
370
18
48
1
60
0
100
AcDbLine
10
77.967074
20
0.01422
30
0
11
78.749401
21
8.805536
31
0
39
0
210
0
220
0
230
1
0
LINE
5
8B
100
AcDbEntity
8
1
62
256
6
ByLayer
370
18
48
1
60
0
100
AcDbLine
10
41.5
20
-9.686024
30
0
11
41.5
21
-9.310808
31
0
39
0
210
0
220
0
230
1
0
LINE
5
8C
100
AcDbEntity
8
1
62
256
6
ByLayer
370
18
48
1
60
0
100
AcDbLine
10
76.088583
20
-9.723097
30
0
11
74.506337
21
-10.38324
31
0
39
0
210
0
220
0
230
1
0
LINE
5
8D
100
AcDbEntity
8
1
62
256
6
ByLayer
370
18
48
1
60
0
100
AcDbLine
10
76.088583
20
-9.723097
30
0
11
77.376739
21
-5.73054
31
0
39
0
210
0
220
0
230
1
0
LINE
5
8E
100
AcDbEntity
8
1
62
256
6
ByLayer
370
18
48
1
60
0
100
AcDbLine
10
77.376739
20
-5.73054
30
0
11
77.452945
21
-5.603528
31
0
39
0
210
0
220
0
230
1
0
LINE
5
8F
100
AcDbEntity
8
1
62
256
6
ByLayer
370
18
48
1
60
0
100
AcDbLine
10
71.180176
20
-6.758374
30
0
11
77.376739
21
-5.73054
31
0
39
0
210
0
220
0
230
1
0
LINE
5
90
100
AcDbEntity
8
1
62
256
6
ByLayer
370
13
48
1
60
0
100
AcDbLine
10
40.698631
20
11.957026
30
0
11
41.5
21
11.518123
31
0
39
0
210
0
220
0
230
1
0
LINE
5
91
100
AcDbEntity
8
1
62
256
6
ByLayer
370
13
48
1
60
0
100
AcDbLine
10
30.032732
20
11.274649
30
0
11
41.5
21
4.99412
31
0
39
0
210
0
220
0
230
1
0
LINE
5
92
100
AcDbEntity
8
1
62
256
6
ByLayer
370
13
48
1
60
0
100
AcDbLine
10
72.469341
20
-2.506308
30
0
11
70.025108
21
-3.764148
31
0
39
0
210
0
220
0
230
1
0
LINE
5
93
100
AcDbEntity
8
1
62
256
6
ByLayer
370
18
48
1
60
0
100
AcDbLine
10
34.903969
20
-11.880493
30
0
11
41.5
21
-9.310808
31
0
39
0
210
0
220
0
230
1
0
LINE
5
94
100
AcDbEntity
8
1
62
256
6
ByLayer
370
18
48
1
60
0
100
AcDbLine
10
41.5
20
-9.310808
30
0
11
41.5
21
-7.422301
31
0
39
0
210
0
220
0
230
1
0
LINE
5
95
100
AcDbEntity
8
1
62
256
6
ByLayer
370
18
48
1
60
0
100
AcDbLine
10
41.5
20
4.776113
30
0
11
41.5
21
4.99412
31
0
39
0
210
0
220
0
230
1
0
LINE
5
96
100
AcDbEntity
8
1
62
256
6
ByLayer
370
13
48
1
60
0
100
AcDbLine
10
30.840662
20
-10.517967
30
0
11
39.915922
21
-6.982424
31
0
39
0
210
0
220
0
230
1
0
LINE
5
97
100
AcDbEntity
8
1
62
256
6
ByLayer
370
13
48
1
60
0
100
AcDbLine
10
30.314293
20
10.902434
30
0
11
41.5
21
4.776113
31
0
39
0
210
0
220
0
230
1
0
LINE
5
98
100
AcDbEntity
8
1
62
256
6
ByLayer
370
13
48
1
60
0
100
AcDbLine
10
30.289269
20
-9.490668
30
0
11
36.061044
21
-7.242098
31
0
39
0
210
0
220
0
230
1
0
LINE
5
99
100
AcDbEntity
8
1
62
256
6
ByLayer
370
18
48
1
60
0
100
AcDbLine
10
78.968131
20
-5.774537
30
0
11
78.991463
21
-5.909117
31
0
39
0
210
0
220
0
230
1
0
LINE
5
9A
100
AcDbEntity
8
1
62
256
6
ByLayer
370
18
48
1
60
0
100
AcDbLine
10
78.398226
20
-2.487295
30
0
11
78.745173
21
-4.488505
31
0
39
0
210
0
220
0
230
1
0
LINE
5
9B
100
AcDbEntity
8
1
62
256
6
ByLayer
370
18
48
1
60
0
100
AcDbLine
10
78.168473
20
-1.247951
30
0
11
78.398226
21
-2.487295
31
0
39
0
210
0
220
0
230
1
0
LINE
5
9C
100
AcDbEntity
8
1
62
256
6
ByLayer
370
18
48
1
60
0
100
AcDbLine
10
78.991463
20
-5.909117
30
0
11
78.99993
21
-6.391815
31
0
39
0
210
0
220
0
230
1
0
LINE
5
9D
100
AcDbEntity
8
1
62
256
6
ByLayer
370
18
48
1
60
0
100
AcDbLine
10
78.730283
20
-4.491746
30
0
11
78.991463
21
-5.909117
31
0
39
0
210
0
220
0
230
1
0
LINE
5
9E
100
AcDbEntity
8
1
62
256
6
ByLayer
370
18
48
1
60
0
100
AcDbLine
10
41.5
20
4.99412
30
0
11
41.5
21
11.518123
31
0
39
0
210
0
220
0
230
1
0
LINE
5
9F
100
AcDbEntity
8
1
62
256
6
ByLayer
370
18
48
1
60
0
100
AcDbLine
10
78.735653
20
-4.802602
30
0
11
78.730283
21
-4.491746
31
0
39
0
210
0
220
0
230
1
0
LINE
5
A0
100
AcDbEntity
8
1
62
256
6
ByLayer
370
18
48
1
60
0
100
AcDbLine
10
77.894298
20
-2.964213
30
0
11
78.730283
21
-4.491746
31
0
39
0
210
0
220
0
230
1
0
LINE
5
A1
100
AcDbEntity
8
1
62
256
6
ByLayer
370
18
48
1
60
0
100
AcDbLine
10
78.730283
20
-4.491746
30
0
11
78.168473
21
-1.247951
31
0
39
0
210
0
220
0
230
1
0
LINE
5
A2
100
AcDbEntity
8
1
62
256
6
ByLayer
370
18
48
1
60
0
100
AcDbLine
10
77.44148
20
0.187613
30
0
11
78.168473
21
-1.247951
31
0
39
0
210
0
220
0
230
1
0
LINE
5
A3
100
AcDbEntity
8
1
62
256
6
ByLayer
370
18
48
1
60
0
100
AcDbLine
10
75.67094
20
2.697537
30
0
11
77.44148
21
0.187613
31
0
39
0
210
0
220
0
230
1
0
LINE
5
A4
100
AcDbEntity
8
1
62
256
6
ByLayer
370
18
48
1
60
0
100
AcDbLine
10
75.278089
20
3.598305
30
0
11
75.67094
21
2.697537
31
0
39
0
210
0
220
0
230
1
0
LINE
5
A5
100
AcDbEntity
8
1
62
256
6
ByLayer
370
18
48
1
60
0
100
AcDbLine
10
41.5
20
-3.573241
30
0
11
41.5
21
-3.036827
31
0
39
0
210
0
220
0
230
1
0
LINE
5
A6
100
AcDbEntity
8
1
62
256
6
ByLayer
370
13
48
1
60
0
100
AcDbLine
10
40.366025
20
-6.981241
30
0
11
40.366025
21
-3.680569
31
0
39
0
210
0
220
0
230
1
0
LINE
5
A7
100
AcDbEntity
8
1
62
256
6
ByLayer
370
13
48
1
60
0
100
AcDbLine
10
33.320743
20
0.906472
30
0
11
41.5
21
-3.573241
31
0
39
0
210
0
220
0
230
1
0
LINE
5
A8
100
AcDbEntity
8
1
62
256
6
ByLayer
370
13
48
1
60
0
100
AcDbLine
10
33.060266
20
1.585546
30
0
11
41.5
21
-3.036827
31
0
39
0
210
0
220
0
230
1
0
LINE
5
A9
100
AcDbEntity
8
1
62
256
6
ByLayer
370
18
48
1
60
0
100
AcDbLine
10
33.942304
20
6.986657
30
0
11
41.5
21
2.847369
31
0
39
0
210
0
220
0
230
1
0
LINE
5
AA
100
AcDbEntity
8
1
62
256
6
ByLayer
370
18
48
1
60
0
100
AcDbLine
10
41.5
20
12.392283
30
0
11
41.5
21
11.518123
31
0
39
0
210
0
220
0
230
1
0
LINE
5
AB
100
AcDbEntity
8
1
62
256
6
ByLayer
370
18
48
1
60
0
100
AcDbLine
10
41.5
20
-3.573241
30
0
11
41.5
21
-4.288086
31
0
39
0
210
0
220
0
230
1
0
LINE
5
AC
100
AcDbEntity
8
1
62
256
6
ByLayer
370
18
48
1
60
0
100
AcDbLine
10
41.5
20
-7.413355
30
0
11
41.5
21
-7.412937
31
0
39
0
210
0
220
0
230
1
0
LINE
5
AD
100
AcDbEntity
8
1
62
256
6
ByLayer
370
13
48
1
60
0
100
AcDbLine
10
40.866025
20
-4.826014
30
0
11
40.866025
21
-7.104427
31
0
39
0
210
0
220
0
230
1
0
LINE
5
AE
100
AcDbEntity
8
1
62
256
6
ByLayer
370
13
48
1
60
0
100
AcDbLine
10
3.997679
20
-12
30
0
11
3.997679
21
0
31
0
39
0
210
0
220
0
230
1
0
LINE
5
AF
100
AcDbEntity
8
1
62
256
6
ByLayer
370
13
48
1
60
0
100
AcDbLine
10
3.997679
20
0
30
0
11
3.997679
21
12
31
0
39
0
210
0
220
0
230
1
0
LINE
5
B0
100
AcDbEntity
8
1
62
256
6
ByLayer
370
13
48
1
60
0
100
AcDbLine
10
3.497679
20
12.133975
30
0
11
3.497679
21
0
31
0
39
0
210
0
220
0
230
1
0
LINE
5
B1
100
AcDbEntity
8
1
62
256
6
ByLayer
370
13
48
1
60
0
100
AcDbLine
10
3.497679
20
0
30
0
11
3.497679
21
-12.133975
31
0
39
0
210
0
220
0
230
1
0
LINE
5
B2
100
AcDbEntity
8
1
62
256
6
ByLayer
370
18
48
1
60
0
100
AcDbLine
10
2.863704
20
12.5
30
0
11
2.863704
21
0
31
0
39
0
210
0
220
0
230
1
0
LINE
5
B3
100
AcDbEntity
8
1
62
256
6
ByLayer
370
18
48
1
60
0
100
AcDbLine
10
2.863704
20
0
30
0
11
2.863704
21
-12.5
31
0
39
0
210
0
220
0
230
1
0
LINE
5
B4
100
AcDbEntity
8
SK1
62
256
6
ByLayer
370
18
48
1
60
0
100
AcDbLine
10
0
20
12.5
30
0
11
0
21
0
31
0
39
0
210
0
220
0
230
1
0
LINE
5
B6
100
AcDbEntity
8
SK1
62
256
6
ByLayer
370
18
48
1
60
0
100
AcDbLine
10
0
20
0
30
0
11
0
21
-12.5
31
0
39
0
210
0
220
0
230
1
0
LINE
5
B7
100
AcDbEntity
8
SK1
62
256
6
ByLayer
370
18
48
1
60
0
100
AcDbLine
10
-30
20
10.5
30
0
11
-32
21
12.5
31
0
39
0
210
0
220
0
230
1
0
LINE
5
B8
100
AcDbEntity
8
SK1
62
256
6
ByLayer
370
18
48
1
60
0
100
AcDbLine
10
-18
20
10.5
30
0
11
-16
21
12.5
31
0
39
0
210
0
220
0
230
1
0
LINE
5
B9
100
AcDbEntity
8
SK1
62
256
6
ByLayer
370
18
48
1
60
0
100
AcDbLine
10
-30
20
10.5
30
0
11
-18
21
10.5
31
0
39
0
210
0
220
0
230
1
0
LINE
5
BA
100
AcDbEntity
8
SK1
62
256
6
ByLayer
370
18
48
1
60
0
100
AcDbLine
10
-39
20
10.5
30
0
11
-37
21
12.5
31
0
39
0
210
0
220
0
230
1
0
LINE
5
BB
100
AcDbEntity
8
SK1
62
256
6
ByLayer
370
18
48
1
60
0
100
AcDbLine
10
-55
20
10.5
30
0
11
-39
21
10.5
31
0
39
0
210
0
220
0
230
1
0
LINE
5
BC
100
AcDbEntity
8
SK1
62
256
6
ByLayer
370
18
48
1
60
0
100
AcDbLine
10
-55
20
10.5
30
0
11
-55
21
-12.5
31
0
39
0
210
0
220
0
230
1
0
LINE
5
BD
100
AcDbEntity
8
SK1
62
256
6
ByLayer
370
18
48
1
60
0
100
AcDbLine
10
-56
20
-11.5
30
0
11
-56
21
10.5
31
0
39
0
210
0
220
0
230
1
0
LINE
5
BE
100
AcDbEntity
8
1
62
256
6
ByLayer
370
18
48
1
60
0
100
AcDbLine
10
2.863704
20
12.5
30
0
11
0
21
12.5
31
0
39
0
210
0
220
0
230
1
0
LINE
5
BF
100
AcDbEntity
8
1
62
256
6
ByLayer
370
18
48
1
60
0
100
AcDbLine
10
0
20
-12.5
30
0
11
2.863704
21
-12.5
31
0
39
0
210
0
220
0
230
1
0
LINE
5
C0
100
AcDbEntity
8
1
62
256
6
ByLayer
370
18
48
1
60
0
100
AcDbLine
10
35.610907
20
-11.980582
30
0
11
41.507749
21
-9.683288
31
0
39
0
210
0
220
0
230
1
0
LINE
5
C1
100
AcDbEntity
8
1
62
256
6
ByLayer
370
18
48
1
60
0
100
AcDbLine
10
34.853849
20
12
30
0
11
3.997679
21
12
31
0
39
0
210
0
220
0
230
1
0
LINE
5
C2
100
AcDbEntity
8
1
62
256
6
ByLayer
370
18
48
1
60
0
100
AcDbLine
10
3.997679
20
-12
30
0
11
35.473104
21
-12
31
0
39
0
210
0
220
0
230
1
0
LINE
5
C3
100
AcDbEntity
8
1
62
256
6
ByLayer
370
18
48
1
60
0
100
AcDbLine
10
3.497679
20
12.133975
30
0
11
2.863704
21
12.5
31
0
39
0
210
0
220
0
230
1
0
LINE
5
C4
100
AcDbEntity
8
1
62
256
6
ByLayer
370
18
48
1
60
0
100
AcDbLine
10
2.863704
20
-12.5
30
0
11
3.497679
21
-12.133975
31
0
39
0
210
0
220
0
230
1
0
LINE
5
C5
100
AcDbEntity
8
SK1
62
256
6
ByLayer
370
18
48
1
60
0
100
AcDbLine
10
0
20
12.5
30
0
11
-16
21
12.5
31
0
39
0
210
0
220
0
230
1
0
LINE
5
C6
100
AcDbEntity
8
SK1
62
256
6
ByLayer
370
18
48
1
60
0
100
AcDbLine
10
-32
20
12.5
30
0
11
-37
21
12.5
31
0
39
0
210
0
220
0
230
1
0
LINE
5
C7
100
AcDbEntity
8
SK1
62
256
6
ByLayer
370
18
48
1
60
0
100
AcDbLine
10
-55
20
-12.5
30
0
11
0
21
-12.5
31
0
39
0
210
0
220
0
230
1
0
LINE
5
C8
100
AcDbEntity
8
SK1
62
256
6
ByLayer
370
18
48
1
60
0
100
AcDbLine
10
-56
20
-11.5
30
0
11
-55
21
-12.5
31
0
39
0
210
0
220
0
230
1
0
LINE
5
C9
100
AcDbEntity
8
SK2
62
256
6
ByLayer
370
18
48
1
60
0
100
AcDbLine
10
-63.25
20
12.5
30
0
11
-63.25
21
-31.430932
31
0
39
0
210
0
220
0
230
1
0
LINE
5
CB
100
AcDbEntity
8
SK2
62
256
6
ByLayer
370
18
48
1
60
0
100
AcDbLine
10
-38.5875
20
12.5
30
0
11
-65.25
21
12.5
31
0
39
0
210
0
220
0
230
1
0
LINE
5
CC
100
AcDbEntity
8
SK2
62
256
6
ByLayer
370
18
48
1
60
0
100
AcDbLine
10
-56.5875
20
-12.5
30
0
11
-65.25
21
-12.5
31
0
39
0
210
0
220
0
230
1
0
LINE
5
CD
100
AcDbEntity
8
1
62
256
6
ByLayer
370
18
48
1
60
1
100
AcDbLine
10
-63.25
20
12.5
30
0
11
-62.789216
21
9.000002
31
0
39
0
210
0
220
0
230
1
0
LINE
5
CE
100
AcDbEntity
8
1
62
256
6
ByLayer
370
18
48
1
60
1
100
AcDbLine
10
-62.789216
20
9.000002
30
0
11
-63.710784
21
8.999998
31
0
39
0
210
0
220
0
230
1
0
LINE
5
CF
100
AcDbEntity
8
1
62
256
6
ByLayer
370
18
48
1
60
1
100
AcDbLine
10
-63.710784
20
8.999998
30
0
11
-63.25
21
12.5
31
0
39
0
210
0
220
0
230
1
0
LINE
5
D0
100
AcDbEntity
8
1
62
256
6
ByLayer
370
18
48
1
60
1
100
AcDbLine
10
-63.25
20
-12.5
30
0
11
-63.710784
21
-9.000002
31
0
39
0
210
0
220
0
230
1
0
LINE
5
D1
100
AcDbEntity
8
1
62
256
6
ByLayer
370
18
48
1
60
1
100
AcDbLine
10
-63.710784
20
-9.000002
30
0
11
-62.789216
21
-8.999998
31
0
39
0
210
0
220
0
230
1
0
LINE
5
D2
100
AcDbEntity
8
1
62
256
6
ByLayer
370
18
48
1
60
1
100
AcDbLine
10
-62.789216
20
-8.999998
30
0
11
-63.25
21
-12.5
31
0
39
0
210
0
220
0
230
1
0
LINE
5
D3
100
AcDbEntity
8
SK2
62
256
6
ByLayer
370
13
48
1
60
0
100
AcDbLine
10
23.631852
20
-12
30
0
11
23.631852
21
35.299466
31
0
39
0
210
0
220
0
230
1
0
LINE
5
D4
100
AcDbEntity
8
SK2
62
256
6
ByLayer
370
13
48
1
60
0
100
AcDbLine
10
38.778525
20
12
30
0
11
21.631852
21
12
31
0
39
0
210
0
220
0
230
1
0
LINE
5
D5
100
AcDbEntity
8
SK2
62
256
6
ByLayer
370
13
48
1
60
0
100
AcDbLine
10
38.778525
20
-12
30
0
11
21.631852
21
-12
31
0
39
0
210
0
220
0
230
1
0
LINE
5
D6
100
AcDbEntity
8
1
62
256
6
ByLayer
370
18
48
1
60
1
100
AcDbLine
10
23.631852
20
12
30
0
11
24.092636
21
8.500002
31
0
39
0
210
0
220
0
230
1
0
LINE
5
D7
100
AcDbEntity
8
1
62
256
6
ByLayer
370
18
48
1
60
1
100
AcDbLine
10
24.092636
20
8.500002
30
0
11
23.171068
21
8.499998
31
0
39
0
210
0
220
0
230
1
0
LINE
5
D8
100
AcDbEntity
8
1
62
256
6
ByLayer
370
18
48
1
60
1
100
AcDbLine
10
23.171068
20
8.499998
30
0
11
23.631852
21
12
31
0
39
0
210
0
220
0
230
1
0
LINE
5
D9
100
AcDbEntity
8
1
62
256
6
ByLayer
370
18
48
1
60
1
100
AcDbLine
10
23.631852
20
-12
30
0
11
23.171068
21
-8.500002
31
0
39
0
210
0
220
0
230
1
0
LINE
5
DA
100
AcDbEntity
8
1
62
256
6
ByLayer
370
18
48
1
60
1
100
AcDbLine
10
23.171068
20
-8.500002
30
0
11
24.092636
21
-8.499998
31
0
39
0
210
0
220
0
230
1
0
LINE
5
DB
100
AcDbEntity
8
1
62
256
6
ByLayer
370
18
48
1
60
1
100
AcDbLine
10
24.092636
20
-8.499998
30
0
11
23.631852
21
-12
31
0
39
0
210
0
220
0
230
1
0
LINE
5
DC
100
AcDbEntity
8
2
62
256
6
ByLayer
370
18
48
1
60
0
100
AcDbLine
10
91
20
-12.5
30
0
11
91
21
31.430932
31
0
39
0
210
0
220
0
230
1
0
LINE
5
DE
100
AcDbEntity
8
2
62
256
6
ByLayer
370
18
48
1
60
0
100
AcDbLine
10
80.5875
20
12.5
30
0
11
93
21
12.5
31
0
39
0
210
0
220
0
230
1
0
LINE
5
DF
100
AcDbEntity
8
2
62
256
6
ByLayer
370
18
48
1
60
0
100
AcDbLine
10
80.5875
20
-12.5
30
0
11
93
21
-12.5
31
0
39
0
210
0
220
0
230
1
0
LINE
5
E0
100
AcDbEntity
8
1
62
256
6
ByLayer
370
18
48
1
60
1
100
AcDbLine
10
91
20
12.5
30
0
11
91.460784
21
9.000002
31
0
39
0
210
0
220
0
230
1
0
LINE
5
E1
100
AcDbEntity
8
1
62
256
6
ByLayer
370
18
48
1
60
1
100
AcDbLine
10
91.460784
20
9.000002
30
0
11
90.539216
21
8.999998
31
0
39
0
210
0
220
0
230
1
0
LINE
5
E2
100
AcDbEntity
8
1
62
256
6
ByLayer
370
18
48
1
60
1
100
AcDbLine
10
90.539216
20
8.999998
30
0
11
91
21
12.5
31
0
39
0
210
0
220
0
230
1
0
LINE
5
E3
100
AcDbEntity
8
1
62
256
6
ByLayer
370
18
48
1
60
1
100
AcDbLine
10
91
20
-12.5
30
0
11
90.539216
21
-9.000002
31
0
39
0
210
0
220
0
230
1
0
LINE
5
E4
100
AcDbEntity
8
1
62
256
6
ByLayer
370
18
48
1
60
1
100
AcDbLine
10
90.539216
20
-9.000002
30
0
11
91.460784
21
-8.999998
31
0
39
0
210
0
220
0
230
1
0
LINE
5
E5
100
AcDbEntity
8
1
62
256
6
ByLayer
370
18
48
1
60
1
100
AcDbLine
10
91.460784
20
-8.999998
30
0
11
91
21
-12.5
31
0
39
0
210
0
220
0
230
1
0
LINE
5
E6
100
AcDbEntity
8
SK2
62
256
6
ByLayer
370
18
48
1
60
0
100
AcDbLine
10
79
20
-60.535422
30
0
11
-56
21
-60.535422
31
0
39
0
210
0
220
0
230
1
0
LINE
5
E7
100
AcDbEntity
8
SK2
62
256
6
ByLayer
370
18
48
1
60
0
100
AcDbLine
10
-56
20
-13.0875
30
0
11
-56
21
-62.535422
31
0
39
0
210
0
220
0
230
1
0
LINE
5
E8
100
AcDbEntity
8
SK2
62
256
6
ByLayer
370
18
48
1
60
0
100
AcDbLine
10
79
20
-14.0875
30
0
11
79
21
-62.535422
31
0
39
0
210
0
220
0
230
1
0
LINE
5
E9
100
AcDbEntity
8
1
62
256
6
ByLayer
370
18
48
1
60
1
100
AcDbLine
10
-56
20
-60.535422
30
0
11
-52.500002
21
-60.074638
31
0
39
0
210
0
220
0
230
1
0
LINE
5
EA
100
AcDbEntity
8
1
62
256
6
ByLayer
370
18
48
1
60
1
100
AcDbLine
10
-52.500002
20
-60.074638
30
0
11
-52.499998
21
-60.996206
31
0
39
0
210
0
220
0
230
1
0
LINE
5
EB
100
AcDbEntity
8
1
62
256
6
ByLayer
370
18
48
1
60
1
100
AcDbLine
10
-52.499998
20
-60.996206
30
0
11
-56
21
-60.535422
31
0
39
0
210
0
220
0
230
1
0
LINE
5
EC
100
AcDbEntity
8
1
62
256
6
ByLayer
370
18
48
1
60
1
100
AcDbLine
10
79
20
-60.535422
30
0
11
75.500002
21
-60.996206
31
0
39
0
210
0
220
0
230
1
0
LINE
5
ED
100
AcDbEntity
8
1
62
256
6
ByLayer
370
18
48
1
60
1
100
AcDbLine
10
75.500002
20
-60.996206
30
0
11
75.499998
21
-60.074638
31
0
39
0
210
0
220
0
230
1
0
LINE
5
EE
100
AcDbEntity
8
1
62
256
6
ByLayer
370
18
48
1
60
1
100
AcDbLine
10
75.499998
20
-60.074638
30
0
11
79
21
-60.535422
31
0
39
0
210
0
220
0
230
1
0
LINE
5
14C
100
AcDbEntity
8
1
62
256
6
ByLayer
370
18
48
1
60
1
100
AcDbLine
10
-63.25
20
12.5
30
0
11
-62.789216
21
9.000002
31
0
39
0
210
0
220
0
230
1
0
LINE
5
14D
100
AcDbEntity
8
1
62
256
6
ByLayer
370
18
48
1
60
1
100
AcDbLine
10
-62.789216
20
9.000002
30
0
11
-63.710784
21
8.999998
31
0
39
0
210
0
220
0
230
1
0
LINE
5
14E
100
AcDbEntity
8
1
62
256
6
ByLayer
370
18
48
1
60
1
100
AcDbLine
10
-63.710784
20
8.999998
30
0
11
-63.25
21
12.5
31
0
39
0
210
0
220
0
230
1
0
LINE
5
150
100
AcDbEntity
8
1
62
256
6
ByLayer
370
18
48
1
60
1
100
AcDbLine
10
-63.25
20
-12.5
30
0
11
-63.710784
21
-9.000002
31
0
39
0
210
0
220
0
230
1
0
LINE
5
151
100
AcDbEntity
8
1
62
256
6
ByLayer
370
18
48
1
60
1
100
AcDbLine
10
-63.710784
20
-9.000002
30
0
11
-62.789216
21
-8.999998
31
0
39
0
210
0
220
0
230
1
0
LINE
5
152
100
AcDbEntity
8
1
62
256
6
ByLayer
370
18
48
1
60
1
100
AcDbLine
10
-62.789216
20
-8.999998
30
0
11
-63.25
21
-12.5
31
0
39
0
210
0
220
0
230
1
0
LINE
5
156
100
AcDbEntity
8
1
62
256
6
ByLayer
370
18
48
1
60
1
100
AcDbLine
10
23.631852
20
12
30
0
11
24.092636
21
8.500002
31
0
39
0
210
0
220
0
230
1
0
LINE
5
157
100
AcDbEntity
8
1
62
256
6
ByLayer
370
18
48
1
60
1
100
AcDbLine
10
24.092636
20
8.500002
30
0
11
23.171068
21
8.499998
31
0
39
0
210
0
220
0
230
1
0
LINE
5
158
100
AcDbEntity
8
1
62
256
6
ByLayer
370
18
48
1
60
1
100
AcDbLine
10
23.171068
20
8.499998
30
0
11
23.631852
21
12
31
0
39
0
210
0
220
0
230
1
0
LINE
5
15A
100
AcDbEntity
8
1
62
256
6
ByLayer
370
18
48
1
60
1
100
AcDbLine
10
23.631852
20
-12
30
0
11
23.171068
21
-8.500002
31
0
39
0
210
0
220
0
230
1
0
LINE
5
15B
100
AcDbEntity
8
1
62
256
6
ByLayer
370
18
48
1
60
1
100
AcDbLine
10
23.171068
20
-8.500002
30
0
11
24.092636
21
-8.499998
31
0
39
0
210
0
220
0
230
1
0
LINE
5
15C
100
AcDbEntity
8
1
62
256
6
ByLayer
370
18
48
1
60
1
100
AcDbLine
10
24.092636
20
-8.499998
30
0
11
23.631852
21
-12
31
0
39
0
210
0
220
0
230
1
0
LINE
5
160
100
AcDbEntity
8
1
62
256
6
ByLayer
370
18
48
1
60
1
100
AcDbLine
10
91
20
12.5
30
0
11
91.460784
21
9.000002
31
0
39
0
210
0
220
0
230
1
0
LINE
5
161
100
AcDbEntity
8
1
62
256
6
ByLayer
370
18
48
1
60
1
100
AcDbLine
10
91.460784
20
9.000002
30
0
11
90.539216
21
8.999998
31
0
39
0
210
0
220
0
230
1
0
LINE
5
162
100
AcDbEntity
8
1
62
256
6
ByLayer
370
18
48
1
60
1
100
AcDbLine
10
90.539216
20
8.999998
30
0
11
91
21
12.5
31
0
39
0
210
0
220
0
230
1
0
LINE
5
164
100
AcDbEntity
8
1
62
256
6
ByLayer
370
18
48
1
60
1
100
AcDbLine
10
91
20
-12.5
30
0
11
90.539216
21
-9.000002
31
0
39
0
210
0
220
0
230
1
0
LINE
5
165
100
AcDbEntity
8
1
62
256
6
ByLayer
370
18
48
1
60
1
100
AcDbLine
10
90.539216
20
-9.000002
30
0
11
91.460784
21
-8.999998
31
0
39
0
210
0
220
0
230
1
0
LINE
5
166
100
AcDbEntity
8
1
62
256
6
ByLayer
370
18
48
1
60
1
100
AcDbLine
10
91.460784
20
-8.999998
30
0
11
91
21
-12.5
31
0
39
0
210
0
220
0
230
1
0
LINE
5
169
100
AcDbEntity
8
1
62
256
6
ByLayer
370
18
48
1
60
1
100
AcDbLine
10
-56
20
-60.535422
30
0
11
-52.500002
21
-60.074638
31
0
39
0
210
0
220
0
230
1
0
LINE
5
16A
100
AcDbEntity
8
1
62
256
6
ByLayer
370
18
48
1
60
1
100
AcDbLine
10
-52.500002
20
-60.074638
30
0
11
-52.499998
21
-60.996206
31
0
39
0
210
0
220
0
230
1
0
LINE
5
16B
100
AcDbEntity
8
1
62
256
6
ByLayer
370
18
48
1
60
1
100
AcDbLine
10
-52.499998
20
-60.996206
30
0
11
-56
21
-60.535422
31
0
39
0
210
0
220
0
230
1
0
LINE
5
16D
100
AcDbEntity
8
1
62
256
6
ByLayer
370
18
48
1
60
1
100
AcDbLine
10
79
20
-60.535422
30
0
11
75.500002
21
-60.996206
31
0
39
0
210
0
220
0
230
1
0
LINE
5
16E
100
AcDbEntity
8
1
62
256
6
ByLayer
370
18
48
1
60
1
100
AcDbLine
10
75.500002
20
-60.996206
30
0
11
75.499998
21
-60.074638
31
0
39
0
210
0
220
0
230
1
0
LINE
5
16F
100
AcDbEntity
8
1
62
256
6
ByLayer
370
18
48
1
60
1
100
AcDbLine
10
75.499998
20
-60.074638
30
0
11
79
21
-60.535422
31
0
39
0
210
0
220
0
230
1
0
MTEXT
5
148
100
AcDbEntity
8
SK2
62
256
6
ByLayer
370
18
48
1
60
0
100
AcDbMText
10
-64.814634
20
-29.496089
30
0
210
0
220
0
230
1
1
%%c
40
3.5
41
0
44
1.084337
50
90
71
7
72
5
7
iso_b_vert
0
MTEXT
5
14B
100
AcDbEntity
8
SK2
62
256
6
ByLayer
370
18
48
1
60
0
100
AcDbMText
10
-64.814634
20
-22.523432
30
0
210
0
220
0
230
1
1
\W0.6740;25
40
3.5
41
0
44
1.084337
50
90
71
7
72
5
7
iso_b_vert
0
MTEXT
5
154
100
AcDbEntity
8
SK2
62
256
6
ByLayer
370
18
48
1
60
0
100
AcDbMText
10
22.067219
20
23.934844
30
0
210
0
220
0
230
1
1
%%c
40
3.5
41
0
44
1.084337
50
90
71
7
72
5
7
iso_b_vert
0
MTEXT
5
155
100
AcDbEntity
8
SK2
62
256
6
ByLayer
370
18
48
1
60
0
100
AcDbMText
10
22.067219
20
30.9075
30
0
210
0
220
0
230
1
1
\W0.7167;24
40
3.5
41
0
44
1.084337
50
90
71
7
72
5
7
iso_b_vert
0
MTEXT
5
15E
100
AcDbEntity
8
2
62
256
6
ByLayer
370
18
48
1
60
0
100
AcDbMText
10
89.435366
20
20.434844
30
0
210
0
220
0
230
1
1
%%c
40
3.5
41
0
44
1.084337
50
90
71
7
72
5
7
iso_b_vert
0
MTEXT
5
15F
100
AcDbEntity
8
2
62
256
6
ByLayer
370
18
48
1
60
0
100
AcDbMText
10
89.435366
20
27.4075
30
0
210
0
220
0
230
1
1
\W0.6740;25
40
3.5
41
0
44
1.084337
50
90
71
7
72
5
7
iso_b_vert
0
MTEXT
5
168
100
AcDbEntity
8
SK2
62
256
6
ByLayer
370
18
48
1
60
0
100
AcDbMText
10
8.724734
20
-59.502789
30
0
210
0
220
0
230
1
1
\W0.6217;135
40
3.5
41
0
44
1.084337
50
0
71
7
72
5
7
iso_b_vert
0
MTEXT
5
171
100
AcDbEntity
8
SK6
62
256
6
ByLayer
370
18
48
1
60
0
100
AcDbMText
10
-13.047666
20
-62.403773
30
0
210
0
220
0
230
1
1
\W0.6902;1K223-2500-NH       H10F
40
3
41
0
44
1.084337
50
0
71
7
72
5
7
iso_b_vert
0
HATCH
5
14F
100
AcDbEntity
8
SK2
62
256
6
ByLayer
370
13
48
1
60
0
100
AcDbHatch
10
0
20
0
30
0
210
0
220
0
230
1
2
ANSI31
70
0
71
0
91
1
92
5
93
3
72
1
10
-63.25
20
12.5
11
-62.7892162584472
21
9.00000169255316
72
1
10
-62.7892162584472
20
9.00000169255316
11
-63.7107837415528
21
8.99999830744679
72
1
10
-63.7107837415528
20
8.99999830744679
11
-63.25
21
12.5
97
0
75
0
76
1
52
0
41
0.0062
77
0
78
1
53
45
43
0
44
0
45
-0.0139193969876572
46
0.0139193969876572
79
0
47
0
98
1
10
0
20
0
0
HATCH
5
153
100
AcDbEntity
8
SK2
62
256
6
ByLayer
370
13
48
1
60
0
100
AcDbHatch
10
0
20
0
30
0
210
0
220
0
230
1
2
ANSI31
70
0
71
0
91
1
92
5
93
3
72
1
10
-63.25
20
-12.5
11
-63.7107837415528
21
-9.00000169255321
72
1
10
-63.7107837415528
20
-9.00000169255321
11
-62.7892162584472
21
-8.99999830744684
72
1
10
-62.7892162584472
20
-8.99999830744684
11
-63.25
21
-12.5
97
0
75
0
76
1
52
0
41
0.0062
77
0
78
1
53
45
43
0
44
0
45
-0.0139193969876572
46
0.0139193969876572
79
0
47
0
98
1
10
0
20
0
0
HATCH
5
159
100
AcDbEntity
8
SK2
62
256
6
ByLayer
370
13
48
1
60
0
100
AcDbHatch
10
0
20
0
30
0
210
0
220
0
230
1
2
ANSI31
70
0
71
0
91
1
92
5
93
3
72
1
10
23.6318521629726
20
11.9999999999999
11
24.0926359045254
21
8.50000169255304
72
1
10
24.0926359045254
20
8.50000169255304
11
23.1710684214199
21
8.49999830744667
72
1
10
23.1710684214199
20
8.49999830744667
11
23.6318521629726
21
11.9999999999999
97
0
75
0
76
1
52
0
41
0.0062
77
0
78
1
53
45
43
0
44
0
45
-0.0139193969876572
46
0.0139193969876572
79
0
47
0
98
1
10
0
20
0
0
HATCH
5
15D
100
AcDbEntity
8
SK2
62
256
6
ByLayer
370
13
48
1
60
0
100
AcDbHatch
10
0
20
0
30
0
210
0
220
0
230
1
2
ANSI31
70
0
71
0
91
1
92
5
93
3
72
1
10
23.6318521629726
20
-12.0000000000001
11
23.1710684214199
21
-8.50000169255333
72
1
10
23.1710684214199
20
-8.50000169255333
11
24.0926359045254
21
-8.49999830744696
72
1
10
24.0926359045254
20
-8.49999830744696
11
23.6318521629726
21
-12.0000000000001
97
0
75
0
76
1
52
0
41
0.0062
77
0
78
1
53
45
43
0
44
0
45
-0.0139193969876572
46
0.0139193969876572
79
0
47
0
98
1
10
0
20
0
0
HATCH
5
163
100
AcDbEntity
8
2
62
256
6
ByLayer
370
13
48
1
60
0
100
AcDbHatch
10
0
20
0
30
0
210
0
220
0
230
1
2
ANSI31
70
0
71
0
91
1
92
5
93
3
72
1
10
91
20
12.4999999999997
11
91.4607837415528
21
9.00000169255287
72
1
10
91.4607837415528
20
9.00000169255287
11
90.5392162584472
21
8.9999983074465
72
1
10
90.5392162584472
20
8.9999983074465
11
91
21
12.4999999999997
97
0
75
0
76
1
52
0
41
0.0062
77
0
78
1
53
45
43
0
44
0
45
-0.0139193969876572
46
0.0139193969876572
79
0
47
0
98
1
10
0
20
0
0
HATCH
5
167
100
AcDbEntity
8
2
62
256
6
ByLayer
370
13
48
1
60
0
100
AcDbHatch
10
0
20
0
30
0
210
0
220
0
230
1
2
ANSI31
70
0
71
0
91
1
92
5
93
3
72
1
10
91
20
-12.5000000000003
11
90.5392162584472
21
-9.0000016925535
72
1
10
90.5392162584472
20
-9.0000016925535
11
91.4607837415528
21
-8.99999830744713
72
1
10
91.4607837415528
20
-8.99999830744713
11
91
21
-12.5000000000003
97
0
75
0
76
1
52
0
41
0.0062
77
0
78
1
53
45
43
0
44
0
45
-0.0139193969876572
46
0.0139193969876572
79
0
47
0
98
1
10
0
20
0
0
HATCH
5
16C
100
AcDbEntity
8
SK2
62
256
6
ByLayer
370
13
48
1
60
0
100
AcDbHatch
10
0
20
0
30
0
210
0
220
0
230
1
2
ANSI31
70
0
71
0
91
1
92
5
93
3
72
1
10
-56
20
-60.535422198291
11
-52.5000016925532
21
-60.0746384567382
72
1
10
-52.5000016925532
20
-60.0746384567382
11
-52.4999983074468
21
-60.9962059398437
72
1
10
-52.4999983074468
20
-60.9962059398437
11
-56
21
-60.535422198291
97
0
75
0
76
1
52
0
41
0.0062
77
0
78
1
53
45
43
0
44
0
45
-0.0139193969876572
46
0.0139193969876572
79
0
47
0
98
1
10
0
20
0
0
HATCH
5
170
100
AcDbEntity
8
SK2
62
256
6
ByLayer
370
13
48
1
60
0
100
AcDbHatch
10
0
20
0
30
0
210
0
220
0
230
1
2
ANSI31
70
0
71
0
91
1
92
5
93
3
72
1
10
79
20
-60.535422198291
11
75.5000016925532
21
-60.9962059398437
72
1
10
75.5000016925532
20
-60.9962059398437
11
75.4999983074468
21
-60.0746384567382
72
1
10
75.4999983074468
20
-60.0746384567382
11
79
21
-60.535422198291
97
0
75
0
76
1
52
0
41
0.0062
77
0
78
1
53
45
43
0
44
0
45
-0.0139193969876572
46
0.0139193969876572
79
0
47
0
98
1
10
0
20
0
0
DIMENSION
5
174
100
AcDbEntity
8
2
62
256
6
ByLayer
370
18
48
1
60
0
100
AcDbDimension
2
_U0
10
41.5
20
-28.535422
30
0
11
60.25
21
-28.535422
31
0
70
32
71
1
72
1
41
1
210
0
220
0
230
1
3
Standard
100
AcDbAlignedDimension
13
79
23
-12.5
33
0
14
41.5
24
-12.5
34
0
50
0
100
AcDbRotatedDimension
1001
ACAD
1000
DSTYLE
1002
{
1070
   371
1070
    13
1070
   372
1070
    13
1070
   170
1070
     0
1070
   144
1040
1.0
1070
   277
1070
     2
1070
   284
1070
     8
1070
   278
1070
    46
1070
   146
1040
1.0
1070
   345
1005
16
1070
   347
1005
16
1070
   346
1005
16
1070
   344
1005
0
1070
   343
1005
0
1070
   172
1070
     1
1070
    76
1070
     0
1070
    75
1070
     0
1070
   282
1070
     0
1070
   281
1070
     0
1070
    71
1070
     0
1070
    74
1070
     0
1070
   279
1070
     0
1070
   173
1070
     1
1070
   340
1005
149
1070
   271
1070
     2
1070
   272
1070
     2
1070
    77
1070
     1
1070
    73
1070
     1
1070
   171
1070
     3
1070
   274
1070
     4
1070
   177
1070
     2
1070
   176
1070
     2
1070
   178
1070
     2
1070
    78
1070
     8
1070
    48
1040
-0.1
1070
    41
1040
3.5
1070
   147
1040
1.75
1070
    42
1040
1.5875
1070
    44
1040
2.0
1070
   140
1040
3.5
1002
}
1001
ACAD_DSTYLE_DIM_LINETYPE
1070
   380
1005
16
1001
ACAD_DSTYLE_DIM_EXT1_LINETYPE
1070
   381
1005
16
1001
ACAD_DSTYLE_DIM_EXT2_LINETYPE
1070
   382
1005
16
0
DIMENSION
5
18D
100
AcDbEntity
8
SK2
62
256
6
ByLayer
370
18
48
1
60
0
100
AcDbDimension
2
_U1
10
3.997679
20
-43.535422
30
0
11
41.498839
21
-43.535422
31
0
70
32
71
1
72
1
41
1
210
0
220
0
230
1
3
Standard
100
AcDbAlignedDimension
13
79
23
-12.5
33
0
14
3.997679
24
-12
34
0
50
0
100
AcDbRotatedDimension
1001
ACAD
1000
DSTYLE
1002
{
1070
   371
1070
    13
1070
   372
1070
    13
1070
   170
1070
     0
1070
   144
1040
1.0
1070
   277
1070
     2
1070
   284
1070
     8
1070
   278
1070
    46
1070
   146
1040
1.0
1070
   345
1005
16
1070
   347
1005
16
1070
   346
1005
16
1070
   344
1005
0
1070
   343
1005
0
1070
   172
1070
     1
1070
    76
1070
     0
1070
    75
1070
     0
1070
   282
1070
     0
1070
   281
1070
     0
1070
    71
1070
     0
1070
    74
1070
     0
1070
   279
1070
     0
1070
   173
1070
     1
1070
   340
1005
149
1070
   271
1070
     2
1070
   272
1070
     2
1070
    77
1070
     1
1070
    73
1070
     1
1070
   171
1070
     3
1070
   274
1070
     4
1070
   177
1070
     2
1070
   176
1070
     2
1070
   178
1070
     2
1070
    78
1070
     8
1070
    48
1040
-0.1
1070
    41
1040
3.5
1070
   147
1040
1.75
1070
    42
1040
1.5875
1070
    44
1040
2.0
1070
   140
1040
3.5
1002
}
1001
ACAD_DSTYLE_DIM_LINETYPE
1070
   380
1005
16
1001
ACAD_DSTYLE_DIM_EXT1_LINETYPE
1070
   381
1005
16
1001
ACAD_DSTYLE_DIM_EXT2_LINETYPE
1070
   382
1005
16
0
ENDSEC
0
SECTION
2
OBJECTS
0
DICTIONARY
5
215
330
0
100
AcDbDictionary
280
0
281
1
3
ACAD_GROUP
350
216
3
ACAD_MLINESTYLE
350
217
0
DICTIONARY
5
216
330
0
100
AcDbDictionary
280
0
281
1
0
DICTIONARY
5
217
330
0
100
AcDbDictionary
280
0
281
1
3
Standard
350
18
0
MLINESTYLE
5
18
330
217
100
AcDbMlineStyle
2
Standard
70
0
3

62
256
51
90
52
90
71
2
49
-0.5
62
256
6
ByLayer
49
0.5
62
256
6
ByLayer
0
RASTERVARIABLES
5
203
330

100
AcDbRasterVariables
90
0
70
1
71
1
72
1
0
ENDSEC
0
EOF
