0
SECTION
2
HEADER
9
$ACADVER
1
AC1015
9
$DWGCODEPAGE
3
ANSI_1252
9
$HANDSEED
5
220
9
$ANGBASE
50
0
9
$ANGDIR
70
0
9
$ATTMODE
70
1
9
$AUNITS
70
0
9
$AUPREC
70
0
9
$CECOLOR
62
256
9
$CELTSCALE
40
1
9
$CELTYPE
6
ByLayer
9
$CELWEIGHT
370
18
9
$CLAYER
8
0
9
$CMLJUST
70
0
9
$CMLSCALE
40
1
9
$CMLSTYLE
2
Standard
9
$DIMSTYLE
2
Standard
9
$TEXTSIZE
40
0.2
9
$TEXTSTYLE
7
Standard
9
$LUNITS
70
2
9
$LUPREC
70
4
9
$EXTNAMES
290
1
9
$INSUNITS
70
4
9
$LTSCALE
40
1
9
$LWDISPLAY
290
1
9
$PDMODE
70
0
9
$PDSIZE
40
0
9
$PLINEGEN
70
0
0
ENDSEC
0
SECTION
2
CLASSES
0
CLASS
1
RASTERVARIABLES
2
AcDbRasterVariables
3
ISM
90
0
280
0
281
0
0
ENDSEC
0
SECTION
2
TABLES
0
TABLE
2
VPORT
5
216
100
AcDbSymbolTable
0
VPORT
5
1
100
AcDbSymbolTableRecord
100
AcDbViewportTableRecord
2
*Active
70
0
10
0
20
0
11
1
21
1
12
-1
22
1
13
0
23
0
14
0.5
24
0.5
15
10
25
10
16
0
26
0
36
1
17
0
27
0
37
0
0
ENDTAB
0
TABLE
2
LTYPE
5
217
100
AcDbSymbolTable
0
LTYPE
5
14
100
AcDbSymbolTableRecord
100
AcDbLinetypeTableRecord
70
0
2
ByBlock
3

72
65
73
0
40
0
0
LTYPE
5
15
100
AcDbSymbolTableRecord
100
AcDbLinetypeTableRecord
70
0
2
ByLayer
3

72
65
73
0
40
0
0
LTYPE
5
16
100
AcDbSymbolTableRecord
100
AcDbLinetypeTableRecord
70
0
2
Continuous
3
Solid line
72
65
73
0
40
0
0
LTYPE
5
6E
100
AcDbSymbolTableRecord
100
AcDbLinetypeTableRecord
70
0
2
CENTER
3
____ _ ____ _ ____ _ ____
72
65
73
4
40
47.5
49
22
74
0
49
-8.5
74
0
49
8.5
74
0
49
-8.5
74
0
0
LTYPE
5
6F
100
AcDbSymbolTableRecord
100
AcDbLinetypeTableRecord
70
0
2
DASHED
3
__ __ __ __ __ __ __ __ __
72
65
73
2
40
25.72
49
12.86
74
0
49
-12.86
74
0
0
ENDTAB
0
TABLE
2
LAYER
5
218
100
AcDbSymbolTable
0
LAYER
5
10
100
AcDbSymbolTableRecord
100
AcDbLayerTableRecord
2
0
70
0
62
7
6
Continuous
290
1
370
-3
390
0
0
LAYER
5
71
100
AcDbSymbolTableRecord
100
AcDbLayerTableRecord
2
80
70
0
62
-6
6
Continuous
290
1
370
-3
390
0
0
LAYER
5
73
100
AcDbSymbolTableRecord
100
AcDbLayerTableRecord
2
81
70
0
62
-3
6
Continuous
290
1
370
-3
390
0
0
LAYER
5
75
100
AcDbSymbolTableRecord
100
AcDbLayerTableRecord
2
1
70
0
62
4
6
Continuous
290
1
370
-3
390
0
0
LAYER
5
7B
100
AcDbSymbolTableRecord
100
AcDbLayerTableRecord
2
4
70
0
62
-2
6
CENTER
290
1
370
-3
390
0
0
LAYER
5
DC
100
AcDbSymbolTableRecord
100
AcDbLayerTableRecord
2
2
70
0
62
7
6
Continuous
290
1
370
-3
390
0
0
LAYER
5
174
100
AcDbSymbolTableRecord
100
AcDbLayerTableRecord
2
Defpoints
70
0
62
7
6
Continuous
290
0
370
-3
390
0
0
LAYER
5
202
100
AcDbSymbolTableRecord
100
AcDbLayerTableRecord
2
SK4
70
0
62
2
6
CENTER
290
1
370
-3
390
0
0
LAYER
5
203
100
AcDbSymbolTableRecord
100
AcDbLayerTableRecord
2
SK1
70
0
62
4
6
Continuous
290
1
370
-3
390
0
0
LAYER
5
204
100
AcDbSymbolTableRecord
100
AcDbLayerTableRecord
2
SK2
70
0
62
7
6
Continuous
290
1
370
-3
390
0
0
LAYER
5
205
100
AcDbSymbolTableRecord
100
AcDbLayerTableRecord
2
SK6
70
0
62
5
6
Continuous
290
1
370
-3
390
0
0
ENDTAB
0
TABLE
2
STYLE
5
219
100
AcDbSymbolTable
0
STYLE
5
11
100
AcDbSymbolTableRecord
100
AcDbTextStyleTableRecord
2
Standard
3
txt
70
0
71
0
40
0
41
1
42
0
50
0
0
STYLE
5
146
100
AcDbSymbolTableRecord
100
AcDbTextStyleTableRecord
2
iso_b_vert
3
simplex.shx
70
0
71
0
40
0
41
1
42
0
50
0
0
STYLE
5
147
100
AcDbSymbolTableRecord
100
AcDbTextStyleTableRecord
2
DWGDirectTextStyle
3
simplex
70
0
71
0
40
0
41
1
42
0
50
0
0
ENDTAB
0
TABLE
2
DIMSTYLE
5
21a
100
AcDbSymbolTable
100
AcDbDimStyleTable
0
DIMSTYLE
105
27
100
AcDbSymbolTableRecord
100
AcDbDimStyleTableRecord
2
Standard
70
0
3
<>
41
0.18
42
0.0625
44
0.18
140
0.18
147
0.09
73
0
74
0
77
1
271
2
275
0
278
52
280
0
340
11
0
ENDTAB
0
TABLE
2
VIEW
5
21b
100
AcDbSymbolTable
0
ENDTAB
0
TABLE
2
UCS
5
21c
100
AcDbSymbolTable
0
ENDTAB
0
TABLE
2
APPID
5
21d
100
AcDbSymbolTable
0
APPID
5
12
100
AcDbSymbolTableRecord
100
AcDbRegAppTableRecord
2
ACAD
70
0
0
APPID
5
170
100
AcDbSymbolTableRecord
100
AcDbRegAppTableRecord
2
ACAD_DSTYLE_DIMBREAK
70
0
0
APPID
5
1C1
100
AcDbSymbolTableRecord
100
AcDbRegAppTableRecord
2
ACAD_DSTYLE_DIM_LINETYPE
70
0
0
APPID
5
1C2
100
AcDbSymbolTableRecord
100
AcDbRegAppTableRecord
2
ACAD_DSTYLE_DIM_EXT1_LINETYPE
70
0
0
APPID
5
1C3
100
AcDbSymbolTableRecord
100
AcDbRegAppTableRecord
2
ACAD_DSTYLE_DIM_EXT2_LINETYPE
70
0
0
APPID
5
1FE
100
AcDbSymbolTableRecord
100
AcDbRegAppTableRecord
2
ACAD_MLEADERVER
70
0
0
ENDTAB
0
TABLE
2
BLOCK_RECORD
5
21e
100
AcDbSymbolTable
0
BLOCK_RECORD
5
1F
100
AcDbSymbolTableRecord
100
AcDbBlockTableRecord
2
*Model_Space
340
0
70
0
0
BLOCK_RECORD
5
1B
100
AcDbSymbolTableRecord
100
AcDbBlockTableRecord
2
*Paper_Space
340
0
70
0
0
BLOCK_RECORD
5
23
100
AcDbSymbolTableRecord
100
AcDbBlockTableRecord
2
*Paper_Space0
340
0
70
0
0
BLOCK_RECORD
5
175
100
AcDbSymbolTableRecord
100
AcDbBlockTableRecord
2
*D1
340
0
70
0
0
BLOCK_RECORD
5
182
100
AcDbSymbolTableRecord
100
AcDbBlockTableRecord
2
_U0
340
0
70
0
0
BLOCK_RECORD
5
18E
100
AcDbSymbolTableRecord
100
AcDbBlockTableRecord
2
*D3
340
0
70
0
0
BLOCK_RECORD
5
19A
100
AcDbSymbolTableRecord
100
AcDbBlockTableRecord
2
_U1
340
0
70
0
0
ENDTAB
0
ENDSEC
0
SECTION
2
BLOCKS
0
BLOCK
5
20
100
AcDbEntity
8
0
100
AcDbBlockBegin
2
*Model_Space
70
0
10
0
20
0
30
0
3
*Model_Space
0
ENDBLK
5
21
100
AcDbEntity
8
0
100
AcDbBlockEnd
0
BLOCK
5
1C
100
AcDbEntity
8
0
100
AcDbBlockBegin
2
*Paper_Space
70
0
10
0
20
0
30
0
3
*Paper_Space
0
ENDBLK
5
1D
100
AcDbEntity
8
0
100
AcDbBlockEnd
0
BLOCK
5
24
100
AcDbEntity
8
0
100
AcDbBlockBegin
2
*Paper_Space0
70
0
10
0
20
0
30
0
3
*Paper_Space0
0
ENDBLK
5
25
100
AcDbEntity
8
0
100
AcDbBlockEnd
0
BLOCK
5
176
100
AcDbEntity
8
0
100
AcDbBlockBegin
2
*D1
70
1
10
0
20
0
30
0
3
*D1
0
LINE
5
178
100
AcDbEntity
8
0
62
256
6
ByLayer
370
-2
48
1
60
0
100
AcDbLine
10
32
20
-6.5875
30
0
11
32
21
-21.87335
31
0
39
0
210
0
220
0
230
1
0
LINE
5
179
100
AcDbEntity
8
0
62
256
6
ByLayer
370
-2
48
1
60
0
100
AcDbLine
10
17
20
-6.5875
30
0
11
17
21
-21.87335
31
0
39
0
210
0
220
0
230
1
0
LINE
5
17A
100
AcDbEntity
8
0
62
256
6
ByLayer
370
-2
48
1
60
0
100
AcDbLine
10
35.5
20
-19.87335
30
0
11
39
21
-19.87335
31
0
39
0
210
0
220
0
230
1
0
LINE
5
17B
100
AcDbEntity
8
0
62
256
6
ByLayer
370
-2
48
1
60
0
100
AcDbLine
10
13.5
20
-19.87335
30
0
11
10
21
-19.87335
31
0
39
0
210
0
220
0
230
1
0
SOLID
5
17C
100
AcDbEntity
8
0
62
256
6
ByLayer
370
-1
48
1
60
0
100
AcDbTrace
10
35.5
20
-19.290017
30
0
11
35.5
21
-20.456683
31
0
12
32
22
-19.87335
32
0
13
32
23
-19.87335
33
0
39
0
210
0
220
0
230
1
0
SOLID
5
17D
100
AcDbEntity
8
0
62
256
6
ByLayer
370
-1
48
1
60
0
100
AcDbTrace
10
13.5
20
-20.456683
30
0
11
13.5
21
-19.290017
31
0
12
17
22
-19.87335
32
0
13
17
23
-19.87335
33
0
39
0
210
0
220
0
230
1
0
MTEXT
5
17E
100
AcDbEntity
8
0
62
256
6
ByLayer
370
18
48
1
60
0
100
AcDbMText
10
24.5
20
-12.87335
30
0
210
0
220
0
230
1
1
\A1;15
40
3.5
41
0
44
1
50
0
71
5
72
5
7
iso_b_vert
0
POINT
5
17F
100
AcDbEntity
8
Defpoints
62
0
6
ByLayer
370
-1
48
1
60
0
100
AcDbPoint
10
32
20
-5
30
0
39
0
210
0
220
0
230
1
50
360
0
POINT
5
180
100
AcDbEntity
8
Defpoints
62
0
6
ByLayer
370
-1
48
1
60
0
100
AcDbPoint
10
17
20
-5
30
0
39
0
210
0
220
0
230
1
50
360
0
POINT
5
181
100
AcDbEntity
8
Defpoints
62
0
6
ByLayer
370
-1
48
1
60
0
100
AcDbPoint
10
17
20
-19.87335
30
0
39
0
210
0
220
0
230
1
50
360
0
ENDBLK
5
177
100
AcDbEntity
8
0
100
AcDbBlockEnd
0
BLOCK
5
189
100
AcDbEntity
8
0
100
AcDbBlockBegin
2
_U0
70
0
10
0
20
0
30
0
3
_U0
0
MTEXT
5
183
100
AcDbEntity
8
2
62
256
6
ByLayer
370
18
48
1
60
0
100
AcDbMText
10
23.032467
20
-18.840717
30
0
210
0
220
0
230
1
1
\W0.5321;15
40
3.5
41
0
44
1.084337
50
0
71
7
72
5
7
iso_b_vert
0
LINE
5
184
100
AcDbEntity
8
2
62
256
6
ByLayer
370
13
48
1
60
0
100
AcDbLine
10
32
20
-6.5875
30
0
11
32
21
-21.87335
31
0
39
0
210
0
220
0
230
1
0
LINE
5
185
100
AcDbEntity
8
2
62
256
6
ByLayer
370
13
48
1
60
0
100
AcDbLine
10
17
20
-6.5875
30
0
11
17
21
-21.87335
31
0
39
0
210
0
220
0
230
1
0
LINE
5
186
100
AcDbEntity
8
2
62
256
6
ByLayer
370
13
48
1
60
0
100
AcDbLine
10
32
20
-19.87335
30
0
11
17
21
-19.87335
31
0
39
0
210
0
220
0
230
1
0
SOLID
5
187
100
AcDbEntity
8
2
62
256
6
ByLayer
370
18
48
1
60
0
100
AcDbTrace
10
32
20
-19.87335
30
0
11
28.500002
21
-20.334134
31
0
12
28.499998
22
-19.412566
32
0
13
28.499998
23
-19.412566
33
0
39
0
210
0
220
0
230
1
0
SOLID
5
188
100
AcDbEntity
8
2
62
256
6
ByLayer
370
18
48
1
60
0
100
AcDbTrace
10
17
20
-19.87335
30
0
11
20.499998
21
-19.412566
31
0
12
20.500002
22
-20.334134
32
0
13
20.500002
23
-20.334134
33
0
39
0
210
0
220
0
230
1
0
ENDBLK
5
18A
100
AcDbEntity
8
0
100
AcDbBlockEnd
0
BLOCK
5
18F
100
AcDbEntity
8
0
100
AcDbBlockBegin
2
*D3
70
1
10
0
20
0
30
0
3
*D3
0
LINE
5
191
100
AcDbEntity
8
0
62
256
6
ByLayer
370
-2
48
1
60
0
100
AcDbLine
10
32
20
-6.5875
30
0
11
32
21
-36.87335
31
0
39
0
210
0
220
0
230
1
0
LINE
5
192
100
AcDbEntity
8
0
62
256
6
ByLayer
370
-2
48
1
60
0
100
AcDbLine
10
1.997679
20
-6.3875
30
0
11
1.997679
21
-36.87335
31
0
39
0
210
0
220
0
230
1
0
LINE
5
193
100
AcDbEntity
8
0
62
256
6
ByLayer
370
-2
48
1
60
0
100
AcDbLine
10
28.5
20
-34.87335
30
0
11
5.497679
21
-34.87335
31
0
39
0
210
0
220
0
230
1
0
SOLID
5
194
100
AcDbEntity
8
0
62
256
6
ByLayer
370
-1
48
1
60
0
100
AcDbTrace
10
28.5
20
-35.456683
30
0
11
28.5
21
-34.290017
31
0
12
32
22
-34.87335
32
0
13
32
23
-34.87335
33
0
39
0
210
0
220
0
230
1
0
SOLID
5
195
100
AcDbEntity
8
0
62
256
6
ByLayer
370
-1
48
1
60
0
100
AcDbTrace
10
5.497679
20
-34.290017
30
0
11
5.497679
21
-35.456683
31
0
12
1.997679
22
-34.87335
32
0
13
1.997679
23
-34.87335
33
0
39
0
210
0
220
0
230
1
0
MTEXT
5
196
100
AcDbEntity
8
0
62
256
6
ByLayer
370
18
48
1
60
0
100
AcDbMText
10
16.998839
20
-27.87335
30
0
210
0
220
0
230
1
1
\A1;30
40
3.5
41
0
44
1
50
0
71
5
72
5
7
iso_b_vert
0
POINT
5
197
100
AcDbEntity
8
Defpoints
62
0
6
ByLayer
370
-1
48
1
60
0
100
AcDbPoint
10
32
20
-5
30
0
39
0
210
0
220
0
230
1
50
360
0
POINT
5
198
100
AcDbEntity
8
Defpoints
62
0
6
ByLayer
370
-1
48
1
60
0
100
AcDbPoint
10
1.997679
20
-4.8
30
0
39
0
210
0
220
0
230
1
50
360
0
POINT
5
199
100
AcDbEntity
8
Defpoints
62
0
6
ByLayer
370
-1
48
1
60
0
100
AcDbPoint
10
1.997679
20
-34.87335
30
0
39
0
210
0
220
0
230
1
50
360
0
ENDBLK
5
190
100
AcDbEntity
8
0
100
AcDbBlockEnd
0
BLOCK
5
1A1
100
AcDbEntity
8
0
100
AcDbBlockBegin
2
_U1
70
0
10
0
20
0
30
0
3
_U1
0
MTEXT
5
19B
100
AcDbEntity
8
SK2
62
256
6
ByLayer
370
18
48
1
60
0
100
AcDbMText
10
15.093873
20
-33.840717
30
0
210
0
220
0
230
1
1
\W0.6740;30
40
3.5
41
0
44
1.084337
50
0
71
7
72
5
7
iso_b_vert
0
LINE
5
19C
100
AcDbEntity
8
SK2
62
256
6
ByLayer
370
13
48
1
60
0
100
AcDbLine
10
32
20
-6.5875
30
0
11
32
21
-36.87335
31
0
39
0
210
0
220
0
230
1
0
LINE
5
19D
100
AcDbEntity
8
SK2
62
256
6
ByLayer
370
13
48
1
60
0
100
AcDbLine
10
1.997679
20
-6.3875
30
0
11
1.997679
21
-36.87335
31
0
39
0
210
0
220
0
230
1
0
LINE
5
19E
100
AcDbEntity
8
SK2
62
256
6
ByLayer
370
13
48
1
60
0
100
AcDbLine
10
32
20
-34.87335
30
0
11
1.997679
21
-34.87335
31
0
39
0
210
0
220
0
230
1
0
SOLID
5
19F
100
AcDbEntity
8
SK2
62
256
6
ByLayer
370
18
48
1
60
0
100
AcDbTrace
10
32
20
-34.87335
30
0
11
28.500002
21
-35.334134
31
0
12
28.499998
22
-34.412566
32
0
13
28.499998
23
-34.412566
33
0
39
0
210
0
220
0
230
1
0
SOLID
5
1A0
100
AcDbEntity
8
SK2
62
256
6
ByLayer
370
18
48
1
60
0
100
AcDbTrace
10
1.997679
20
-34.87335
30
0
11
5.497677
21
-34.412566
31
0
12
5.497681
22
-35.334134
32
0
13
5.497681
23
-35.334134
33
0
39
0
210
0
220
0
230
1
0
ENDBLK
5
1A2
100
AcDbEntity
8
0
100
AcDbBlockEnd
0
ENDSEC
0
SECTION
2
ENTITIES
0
ARC
5
EE
100
AcDbEntity
8
1
62
256
6
ByLayer
370
18
48
1
60
0
100
AcDbCircle
39
0
10
1.997679
20
5.8
30
0
40
1
210
0
220
0
230
1
100
AcDbArc
50
240
51
270
0
ARC
5
EF
100
AcDbEntity
8
1
62
256
6
ByLayer
370
18
48
1
60
0
100
AcDbCircle
39
0
10
1.997679
20
-5.8
30
0
40
1
210
0
220
0
230
1
100
AcDbArc
50
90
51
120
0
ELLIPSE
5
F0
100
AcDbEntity
8
1
62
256
6
ByLayer
370
18
48
1
60
0
100
AcDbEllipse
10
22.417775
20
0
30
0
11
10.3424042718017
21
-3.32974366306528
31
0
210
0
220
0
230
1
40
0.334282
41
-2.4504289129252
42
-2.0821854613406
0
POINT
5
70
100
AcDbEntity
8
80
62
256
6
ByLayer
370
18
48
1
60
0
100
AcDbPoint
10
0
20
0
30
0
39
0
210
0
220
0
230
1
50
360
0
POINT
5
72
100
AcDbEntity
8
81
62
256
6
ByLayer
370
18
48
1
60
0
100
AcDbPoint
10
32
20
0
30
0
39
0
210
0
220
0
230
1
50
360
0
POINT
5
74
100
AcDbEntity
8
1
62
256
6
ByLayer
370
18
48
1
60
1
100
AcDbPoint
10
32
20
-5
30
0
39
0
210
0
220
0
230
1
50
360
0
POINT
5
76
100
AcDbEntity
8
1
62
256
6
ByLayer
370
18
48
1
60
1
100
AcDbPoint
10
17
20
-5
30
0
39
0
210
0
220
0
230
1
50
360
0
POINT
5
77
100
AcDbEntity
8
1
62
256
6
ByLayer
370
18
48
1
60
1
100
AcDbPoint
10
32
20
-5
30
0
39
0
210
0
220
0
230
1
50
360
0
POINT
5
78
100
AcDbEntity
8
1
62
256
6
ByLayer
370
18
48
1
60
1
100
AcDbPoint
10
1.997679
20
-4.8
30
0
39
0
210
0
220
0
230
1
50
360
0
SPLINE
5
F1
100
AcDbEntity
8
1
62
256
6
ByLayer
370
18
48
1
60
0
100
AcDbSpline
70
4
71
3
72
10
73
6
40
0
40
0
40
0
40
0
40
0.5
40
0.5
40
1
40
1
40
1
40
1
41
1
10
16.6539627582446
20
4.7973658137839
30
0
41
1
10
16.6941407207146
20
4.80801574158124
30
0
41
1
10
16.7340887093351
20
4.82138301883941
30
0
41
1
10
16.8114713152555
20
4.85297422245236
30
0
41
1
10
16.8490977053696
20
4.87122703348575
30
0
41
1
10
16.8856406460561
20
4.89197982556456
30
0
0
SPLINE
5
F2
100
AcDbEntity
8
1
62
256
6
ByLayer
370
18
48
1
60
0
100
AcDbSpline
70
4
71
3
72
8
73
4
40
0
40
0
40
0
40
0
40
1
40
1
40
1
40
1
41
1
10
16.8856406460551
20
4.89197982556686
30
0
41
1
10
16.9237602042996
20
4.91362798117564
30
0
41
1
10
16.9618799919079
20
4.9352757235136
30
0
41
1
10
17.0000000000002
20
4.95692306855094
30
0
0
SPLINE
5
F3
100
AcDbEntity
8
1
62
256
6
ByLayer
370
18
48
1
60
0
100
AcDbSpline
70
4
71
3
72
8
73
4
40
0
40
0
40
0
40
0
40
1
40
1
40
1
40
1
41
1
10
31.7779662888538
20
4.99765617510056
30
0
41
1
10
31.8228303842152
20
4.99732031617509
30
0
41
1
10
31.8676960873135
20
4.9971924844225
30
0
41
1
10
31.9125634024317
20
4.99727323381902
30
0
0
SPLINE
5
F4
100
AcDbEntity
8
1
62
256
6
ByLayer
370
18
48
1
60
0
100
AcDbSpline
70
4
71
3
72
8
73
4
40
0
40
0
40
0
40
0
40
1
40
1
40
1
40
1
41
1
10
31.9125634029151
20
4.99727323375782
30
0
41
1
10
31.9417024469235
20
4.99520193477389
30
0
41
1
10
31.9708479892901
20
4.99322063790777
30
0
41
1
10
32.0000000000001
20
4.99132891372389
30
0
0
SPLINE
5
F5
100
AcDbEntity
8
1
62
256
6
ByLayer
370
18
48
1
60
0
100
AcDbSpline
70
4
71
3
72
24
73
20
40
0
40
0
40
0
40
0
40
0.0663723967653988
40
0.0663723967653988
40
0.151247633423092
40
0.151247633423092
40
0.32099810673848
40
0.32099810673848
40
0.405873343396174
40
0.405873343396174
40
0.448310961725021
40
0.448310961725021
40
0.490748580053868
40
0.490748580053868
40
0.660499053369245
40
0.660499053369245
40
0.830249526684622
40
0.830249526684622
40
1
40
1
40
1
40
1
41
1
10
26.3435346630575
20
3.51177236116661
30
0
41
1
10
26.4639948455197
20
3.57184055011632
30
0
41
1
10
26.5845489425389
20
3.63044864069153
30
0
41
1
10
26.8596010838729
20
3.76053596318897
30
0
41
1
10
27.0138056278346
20
3.83086387939392
30
0
41
1
10
27.4759101274697
20
4.03342224273666
30
0
41
1
10
27.78347877796
20
4.1573391398035
30
0
41
1
10
28.2452781424638
20
4.32558264294934
30
0
41
1
10
28.3992824176957
20
4.37872279627445
30
0
41
1
10
28.630548343036
20
4.45387061357124
30
0
41
1
10
28.7076806228654
20
4.47815855410744
30
0
41
1
10
28.8620592031325
20
4.52518950646493
30
0
41
1
10
28.9391923504777
20
4.54789789639432
30
0
41
1
10
29.3243619352741
20
4.65730884362216
30
0
41
1
10
29.6312051308651
20
4.73171260219689
30
0
41
1
10
30.2440541054641
20
4.85398433991404
30
0
41
1
10
30.5500590879315
20
4.90184631775628
30
0
41
1
10
31.1629415315203
20
4.97036713260431
30
0
41
1
10
31.4698204741579
20
4.99102379995017
30
0
41
1
10
31.7779662888527
20
4.99765617510107
30
0
0
SPLINE
5
F6
100
AcDbEntity
8
1
62
256
6
ByLayer
370
18
48
1
60
0
100
AcDbSpline
70
4
71
3
72
8
73
4
40
0
40
0
40
0
40
0
40
1
40
1
40
1
40
1
41
1
10
31.7779662888369
20
4.99765617509445
30
0
41
1
10
31.8153078302574
20
4.88203141585402
30
0
41
1
10
31.8554086367117
20
4.76739702637755
30
0
41
1
10
31.898877676509
20
4.65397158119819
30
0
0
SPLINE
5
F7
100
AcDbEntity
8
1
62
256
6
ByLayer
370
18
48
1
60
0
100
AcDbSpline
70
4
71
3
72
8
73
4
40
0
40
0
40
0
40
0
40
1
40
1
40
1
40
1
41
1
10
18.2301719849183
20
-3.56971558521937
30
0
41
1
10
17.8201146566123
20
-3.63943388702467
30
0
41
1
10
17.4100573283062
20
-3.69146162912461
30
0
41
1
10
17
20
-3.72436337829919
30
0
0
SPLINE
5
F8
100
AcDbEntity
8
1
62
256
6
ByLayer
370
18
48
1
60
0
100
AcDbSpline
70
4
71
3
72
14
73
10
40
0
40
0
40
0
40
0
40
0.499999999999999
40
0.499999999999999
40
0.625
40
0.625
40
0.750000000000001
40
0.750000000000001
40
1
40
1
40
1
40
1
41
1
10
31.9782429733144
20
4.40319979311113
30
0
41
1
10
31.9611869109439
20
4.25901317369065
30
0
41
1
10
31.9461305245899
20
4.11381891692156
30
0
41
1
10
31.929841957517
20
3.931050262789
30
0
41
1
10
31.9267116582665
20
3.89443232792678
30
0
41
1
10
31.9207100815097
20
3.82106593706712
30
0
41
1
10
31.9178331104452
20
3.78423453272833
30
0
41
1
10
31.9096768864179
20
3.67462216359243
30
0
41
1
10
31.9048478849588
20
3.6024639556851
30
0
41
1
10
31.9006051218157
20
3.53118894266481
30
0
0
SPLINE
5
F9
100
AcDbEntity
8
1
62
256
6
ByLayer
370
18
48
1
60
0
100
AcDbSpline
70
4
71
3
72
8
73
4
40
0
40
0
40
0
40
0
40
1
40
1
40
1
40
1
41
1
10
31.8988776696591
20
4.65397157877436
30
0
41
1
10
31.9303466499859
20
4.5718581259963
30
0
41
1
10
31.957261979256
20
4.48840311899474
30
0
41
1
10
31.9782429733142
20
4.40319979311107
30
0
0
SPLINE
5
FA
100
AcDbEntity
8
1
62
256
6
ByLayer
370
13
48
1
60
0
100
AcDbSpline
70
4
71
3
72
11
73
7
40
0
40
0
40
0
40
0
40
0.162274858278582
40
0.435116933647533
40
0.707959009016484
40
1
40
1
40
1
40
1
41
1
10
31.8988776706568
20
4.65397157869353
30
0
41
1
10
31.6200851137712
20
4.64894649217422
30
0
41
1
10
30.8725425568856
20
4.60634855675684
30
0
41
1
10
29.65625
20
4.41422454898551
30
0
41
1
10
28.2170157482781
20
4.01474278280296
30
0
41
1
10
27.246531496556
20
3.63189693743141
30
0
41
1
10
26.744797244834
20
3.40897896954948
30
0
0
SPLINE
5
FB
100
AcDbEntity
8
1
62
256
6
ByLayer
370
18
48
1
60
0
100
AcDbSpline
70
4
71
3
72
33
73
29
40
0
40
0
40
0
40
0
40
0.0175985057567469
40
0.0175985057567469
40
0.0351970115134938
40
0.0351970115134938
40
0.0703940230269876
40
0.105591034540481
40
0.105591034540481
40
0.140788046053975
40
0.140788046053975
40
0.211182069080963
40
0.211182069080963
40
0.28157609210795
40
0.28157609210795
40
0.351970115134938
40
0.351970115134938
40
0.422364138161926
40
0.422364138161926
40
0.563152184215901
40
0.563152184215901
40
0.703940230269877
40
0.703940230269877
40
0.844728276323852
40
0.844728276323852
40
0.985516322377827
40
0.985516322377827
40
1
40
1
40
1
40
1
41
1
10
31.9006051218092
20
3.5311889426664
30
0
41
1
10
31.8923866676037
20
3.51591387710607
30
0
41
1
10
31.8837630724374
20
3.50080154815453
30
0
41
1
10
31.8657082520477
20
3.47090129827063
30
0
41
1
10
31.8563041985154
20
3.45616191724522
30
0
41
1
10
31.8271975336982
20
3.41284429944344
30
0
41
1
10
31.7858581224541
20
3.35723971733842
30
0
41
1
10
31.7399365289424
20
3.30553233606352
30
0
41
1
10
31.6919338122321
20
3.25559497496377
30
0
41
1
10
31.6668577042359
20
3.23148110083363
30
0
41
1
10
31.5890007224931
20
3.16175065286077
30
0
41
1
10
31.5344638701046
20
3.11945032193614
30
0
41
1
10
31.4214581845053
20
3.04110366028058
30
0
41
1
10
31.3629809045596
20
3.00507076447812
30
0
41
1
10
31.2429617510017
20
2.93787935305198
30
0
41
1
10
31.1813869512785
20
2.90671433849965
30
0
41
1
10
31.0559011424841
20
2.84833978612068
30
0
41
1
10
30.9925813439069
20
2.8213997303005
30
0
41
1
10
30.801284232326
20
2.74579047050554
30
0
41
1
10
30.6719894968684
20
2.70225312376905
30
0
41
1
10
30.4111118062768
20
2.62409190878913
30
0
41
1
10
30.2795143344713
20
2.5895245884553
30
0
41
1
10
30.0146920750343
20
2.52672895656613
30
0
41
1
10
29.8814615555176
20
2.49852297286535
30
0
41
1
10
29.6137880482948
20
2.44683402626498
30
0
41
1
10
29.4793426634585
20
2.4233604010916
30
0
41
1
10
29.3305492782183
20
2.39948515224785
30
0
41
1
10
29.3166657817222
20
2.39727760947471
30
0
41
1
10
29.3027785055085
20
2.39508920932622
30
0
0
SPLINE
5
FC
100
AcDbEntity
8
1
62
256
6
ByLayer
370
18
48
1
60
0
100
AcDbSpline
70
4
71
3
72
10
73
6
40
0
40
0
40
0
40
0
40
0.5
40
0.5
40
1
40
1
40
1
40
1
41
1
10
16.3856406460551
20
4.76545339139776
30
0
41
1
10
16.4309619155669
20
4.76452554051622
30
0
41
1
10
16.475958646118
20
4.76670179226321
30
0
41
1
10
16.5653785330098
20
4.7772698251849
30
0
41
1
10
16.609801439185
20
4.78566002208851
30
0
41
1
10
16.6539627582446
20
4.79736581378393
30
0
0
SPLINE
5
FD
100
AcDbEntity
8
1
62
256
6
ByLayer
370
18
48
1
60
0
100
AcDbSpline
70
4
71
3
72
14
73
10
40
0
40
0
40
0
40
0
40
0.25
40
0.25
40
0.5
40
0.5
40
0.75
40
0.75
40
1
40
1
40
1
40
1
41
1
10
28.4117635845596
20
-1.52712147940414
30
0
41
1
10
28.4233430962943
20
-1.54979955883857
30
0
41
1
10
28.4344705914585
20
-1.57287179003225
30
0
41
1
10
28.4556426140621
20
-1.61996058425021
30
0
41
1
10
28.4656710358433
20
-1.64395185765571
30
0
41
1
10
28.4841943979193
20
-1.69250958783681
30
0
41
1
10
28.4927178593363
20
-1.71713352045768
30
0
41
1
10
28.5079699022533
20
-1.76722037014628
30
0
41
1
10
28.514701619425
20
-1.79268182153859
30
0
41
1
10
28.5202983617236
20
-1.81867379655452
30
0
0
SPLINE
5
FE
100
AcDbEntity
8
1
62
256
6
ByLayer
370
18
48
1
60
0
100
AcDbSpline
70
4
71
3
72
18
73
14
40
0
40
0
40
0
40
0
40
0.249999999999999
40
0.249999999999999
40
0.375
40
0.375
40
0.5
40
0.5
40
0.75
40
0.75
40
0.875
40
0.875
40
1
40
1
40
1
40
1
41
1
10
28.4117635845569
20
-1.52712147940591
30
0
41
1
10
28.3983329581319
20
-1.50081805488313
30
0
41
1
10
28.3882344328756
20
-1.47363772731575
30
0
41
1
10
28.3773672031655
20
-1.43203132239176
30
0
41
1
10
28.3744631896272
20
-1.41802143900588
30
0
41
1
10
28.3700304413276
20
-1.38978113937679
30
0
41
1
10
28.3685067383924
20
-1.37551606746447
30
0
41
1
10
28.3659756876234
20
-1.33336105983258
30
0
41
1
10
28.3669242261919
20
-1.30582180917025
30
0
41
1
10
28.3718459774971
20
-1.26555056524984
30
0
41
1
10
28.374082956693
20
-1.25226737119695
30
0
41
1
10
28.379691803706
20
-1.22623445446931
30
0
41
1
10
28.383049717275
20
-1.21353336474516
30
0
41
1
10
28.3869448652634
20
-1.20115563931662
30
0
0
SPLINE
5
FF
100
AcDbEntity
8
1
62
256
6
ByLayer
370
18
48
1
60
0
100
AcDbSpline
70
4
71
3
72
12
73
8
40
0
40
0
40
0
40
0
40
0.281674525127831
40
0.281674525127831
40
0.640837262563915
40
0.640837262563915
40
1
40
1
40
1
40
1
41
1
10
28.8822842685932
20
2.69924028036647
30
0
41
1
10
28.8881417017923
20
2.69750059991881
30
0
41
1
10
28.8943388069649
20
2.69540229054107
30
0
41
1
10
28.9092091992222
20
2.68981401230729
30
0
41
1
10
28.9180965116111
20
2.68609710919173
30
0
41
1
10
28.936806302627
20
2.67758219881634
30
0
41
1
10
28.9466457162999
20
2.67277831268095
30
0
41
1
10
28.9569534717179
20
2.66744623906769
30
0
0
SPLINE
5
100
100
AcDbEntity
8
1
62
256
6
ByLayer
370
18
48
1
60
0
100
AcDbSpline
70
4
71
3
72
16
73
12
40
0
40
0
40
0
40
0
40
0.125000000000001
40
0.125000000000001
40
0.250000000000003
40
0.499999999999999
40
0.499999999999999
40
0.625
40
0.625
40
0.75
40
1
40
1
40
1
40
1
41
1
10
28.9046291423463
20
-2.7248678817455
30
0
41
1
10
28.8988488207975
20
-2.7533506456769
30
0
41
1
10
28.8935259379869
20
-2.7818925861516
30
0
41
1
10
28.8838752994393
20
-2.83881686612122
30
0
41
1
10
28.8708845109922
20
-2.92398720083193
30
0
41
1
10
28.8624332144391
20
-3.00849706056289
30
0
41
1
10
28.8571639474881
20
-3.09254394977066
30
0
41
1
10
28.8559421341689
20
-3.1204539831061
30
0
41
1
10
28.8545891797474
20
-3.17575404015128
30
0
41
1
10
28.8541874665695
20
-3.25805323730086
30
0
41
1
10
28.858678308288
20
-3.33839601050988
30
0
41
1
10
28.8638777187847
20
-3.39107592250116
30
0
0
SPLINE
5
101
100
AcDbEntity
8
1
62
256
6
ByLayer
370
18
48
1
60
0
100
AcDbSpline
70
4
71
3
72
19
73
15
40
0
40
0
40
0
40
0
40
0.24999999999999
40
0.24999999999999
40
0.374999999999992
40
0.374999999999992
40
0.499999999999993
40
0.499999999999993
40
0.624999999999995
40
0.624999999999995
40
0.749999999999997
40
0.874999999999998
40
0.874999999999998
40
1
40
1
40
1
40
1
41
1
10
28.5202983619446
20
-1.81867379642713
30
0
41
1
10
28.5381448666848
20
-1.90154261325287
30
0
41
1
10
28.5601134900088
20
-1.98291945938504
30
0
41
1
10
28.598842982418
20
-2.10289394586817
30
0
41
1
10
28.612731612219
20
-2.14256259485961
30
0
41
1
10
28.6421676582343
20
-2.22066504587374
30
0
41
1
10
28.657736282094
20
-2.25917033279896
30
0
41
1
10
28.6904923176775
20
-2.33514192491233
30
0
41
1
10
28.7077007017671
20
-2.37265053590687
30
0
41
1
10
28.7435692278515
20
-2.44647063262769
30
0
41
1
10
28.7808286492154
20
-2.51898045720654
30
0
41
1
10
28.8207035692396
20
-2.58902639030291
30
0
41
1
10
28.8618165936864
20
-2.65790598560395
30
0
41
1
10
28.8829755417291
20
-2.6917303445544
30
0
41
1
10
28.9046291423464
20
-2.7248678817455
30
0
0
SPLINE
5
102
100
AcDbEntity
8
1
62
256
6
ByLayer
370
13
48
1
60
0
100
AcDbSpline
70
4
71
3
72
49
73
45
40
0
40
0
40
0
40
0
40
0.0234627918048604
40
0.186218993170717
40
0.30828614419511
40
0.430353295219502
40
0.51173139590243
40
0.593109496585359
40
0.674487597268287
40
0.735521172780483
40
0.786382485707313
40
0.816899273463411
40
0.837243798634143
40
0.852502192512193
40
0.8652175207439
40
0.872846717682925
40
0.877932848975608
40
0.883018980268291
40
0.890648177207315
40
0.903363505439023
40
0.918621899317072
40
0.938966424487804
40
0.954224818365853
40
0.96694014659756
40
0.974569343536585
40
0.979655474829268
40
0.98347007329878
40
0.986013138945122
40
0.987920438179878
40
0.989191971003049
40
0.991099270237805
40
0.992052919855183
40
0.992847627869665
40
0.993244981876905
40
0.993403923479802
40
0.993523129681974
40
0.993602600483422
40
0.993721806685594
40
0.993960219089939
40
0.994437043898628
40
0.99523175191311
40
0.996185401530488
40
0.997456934353658
40
1
40
1
40
1
40
1
41
1
10
28.5202983619975
20
-1.81867379641645
30
0
41
1
10
28.4301989079983
20
-1.79384247477955
30
0
41
1
10
27.7150994539992
20
-1.59289019588158
30
0
41
1
10
26.5312500000001
20
-1.21114468008764
30
0
41
1
10
24.96875
20
-0.652154578421147
30
0
41
1
10
23.7187500000001
20
-0.184133217250377
30
0
41
1
10
22.6250000000001
20
0.223903209060495
30
0
41
1
10
21.6875000000001
20
0.564417914400877
30
0
41
1
10
20.8281250000001
20
0.862227202800653
30
0
41
1
10
20.0859375000001
20
1.10508003723248
30
0
41
1
10
19.5390625000001
20
1.27357922366628
30
0
41
1
10
19.1484375000001
20
1.38767242545066
30
0
41
1
10
18.8945312500001
20
1.45910686797492
30
0
41
1
10
18.7089843750001
20
1.5098572443616
30
0
41
1
10
18.572265625
20
1.54638845582031
30
0
41
1
10
18.4746093750001
20
1.57202388246378
30
0
41
1
10
18.4062500000001
20
1.58976576126264
30
0
41
1
10
18.3378906250001
20
1.60734404519272
30
0
41
1
10
18.2402343750001
20
1.632161538623
30
0
41
1
10
18.1035156250001
20
1.66623945904618
30
0
41
1
10
17.9179687500001
20
1.7112225470033
30
0
41
1
10
17.7226562500001
20
1.75684470007272
30
0
41
1
10
17.5371093750001
20
1.79850487339064
30
0
41
1
10
17.400390625
20
1.82821237149545
30
0
41
1
10
17.3027343750001
20
1.84891104974355
30
0
41
1
10
17.2392578125001
20
1.862152042171
30
0
41
1
10
17.1953125000001
20
1.87121512802432
30
0
41
1
10
17.1635742187501
20
1.87770699557285
30
0
41
1
10
17.1416015625
20
1.8821752910805
30
0
41
1
10
17.1220703125003
20
1.88613052936915
30
0
41
1
10
17.1062011718752
20
1.88933067604444
30
0
41
1
10
17.0921630859376
20
1.89215082380386
30
0
41
1
10
17.0839233398433
20
1.89380226876247
30
0
41
1
10
17.0787353515627
20
1.894840409755
30
0
41
1
10
17.0761413574218
20
1.89535909334515
30
0
41
1
10
17.0747680664064
20
1.89563358811165
30
0
41
1
10
17.0735473632813
20
1.89587751842015
30
0
41
1
10
17.0718688964846
20
1.89621283315987
30
0
41
1
10
17.0686645507812
20
1.89685267212485
30
0
41
1
10
17.0628662109376
20
1.89800936343593
30
0
41
1
10
17.0543212890625
20
1.89971104544782
30
0
41
1
10
17.0427246093751
20
1.9020150269927
30
0
41
1
10
17.0244140625001
20
1.90564194492421
30
0
41
1
10
17.0097656250001
20
1.90852845193206
30
0
41
1
10
17.0000000000001
20
1.91044609894533
30
0
0
SPLINE
5
103
100
AcDbEntity
8
1
62
256
6
ByLayer
370
18
48
1
60
0
100
AcDbSpline
70
4
71
3
72
11
73
7
40
0
40
0
40
0
40
0
40
0.25
40
0.5
40
0.75
40
1
40
1
40
1
40
1
41
1
10
17.0000000000001
20
1.91044609894533
30
0
41
1
10
17.0000000000001
20
1.90675511582577
30
0
41
1
10
17.0000000000001
20
1.86763657065225
30
0
41
1
10
17.0000000000001
20
1.71606347811868
30
0
41
1
10
17.0000000000001
20
1.4739095728419
30
0
41
1
10
17.0000000000001
20
1.25839075819218
30
0
41
1
10
17.0000000000001
20
1.1386867140919
30
0
0
SPLINE
5
104
100
AcDbEntity
8
1
62
256
6
ByLayer
370
18
48
1
60
0
100
AcDbSpline
70
4
71
3
72
8
73
4
40
0
40
0
40
0
40
0
40
1
40
1
40
1
40
1
41
1
10
32
20
-2.75687063984472
30
0
41
1
10
31.9822783389576
20
-2.84331181446436
30
0
41
1
10
31.9645598927524
20
-2.92928286231231
30
0
41
1
10
31.9468457980058
20
-3.01477925800725
30
0
0
SPLINE
5
105
100
AcDbEntity
8
1
62
256
6
ByLayer
370
18
48
1
60
0
100
AcDbSpline
70
4
71
3
72
20
73
16
40
0
40
0
40
0
40
0
40
0.25
40
0.25
40
0.375
40
0.375
40
0.5
40
0.5
40
0.625
40
0.625
40
0.75
40
0.75
40
0.875
40
0.875
40
1
40
1
40
1
40
1
41
1
10
31.3057988040206
20
-3.70982257511167
30
0
41
1
10
31.3164869459645
20
-3.69787761937772
30
0
41
1
10
31.3269684524117
20
-3.6873564050461
30
0
41
1
10
31.3423494211468
20
-3.67392606741493
30
0
41
1
10
31.3474232918483
20
-3.66984272407987
30
0
41
1
10
31.3573629277423
20
-3.66260208882969
30
0
41
1
10
31.3622386129768
20
-3.65943502837956
30
0
41
1
10
31.3717814520971
20
-3.6541050040116
30
0
41
1
10
31.3764543458422
20
-3.65194323156976
30
0
41
1
10
31.3854319663157
20
-3.64881011508609
30
0
41
1
10
31.3897529903222
20
-3.64782733633638
30
0
41
1
10
31.3980126763917
20
-3.64719213270621
30
0
41
1
10
31.4019519710925
20
-3.64753750668606
30
0
41
1
10
31.4093698860364
20
-3.64983108165063
30
0
41
1
10
31.4128371514853
20
-3.65178571306242
30
0
41
1
10
31.4159430352213
20
-3.65468119429744
30
0
0
SPLINE
5
106
100
AcDbEntity
8
1
62
256
6
ByLayer
370
18
48
1
60
0
100
AcDbSpline
70
4
71
3
72
19
73
15
40
0
40
0
40
0
40
0
40
0.0624999999999976
40
0.0624999999999976
40
0.124999999999995
40
0.124999999999995
40
0.24999999999999
40
0.499999999999989
40
0.499999999999989
40
0.624999999999989
40
0.624999999999989
40
0.749999999999989
40
0.749999999999989
40
1
40
1
40
1
40
1
41
1
10
30.7301790887125
20
-4.11353050567828
30
0
41
1
10
30.7405442293871
20
-4.11213861025598
30
0
41
1
10
30.7510638833474
20
-4.11025029799524
30
0
41
1
10
30.7724081698649
20
-4.10549384503869
30
0
41
1
10
30.7832487555297
20
-4.10262054208292
30
0
41
1
10
30.8160972952246
20
-4.09258335636088
30
0
41
1
10
30.8830041926154
20
-4.06689735363065
30
0
41
1
10
30.9533467627402
20
-4.02527529391963
30
0
41
1
10
31.0258164291218
20
-3.97378689076516
30
0
41
1
10
31.0503278451175
20
-3.95497810124283
30
0
41
1
10
31.1000473532812
20
-3.91412905283622
30
0
41
1
10
31.1253017094833
20
-3.89204360731989
30
0
41
1
10
31.2016260085029
20
-3.82140906841485
30
0
41
1
10
31.2533171060956
20
-3.76847451077447
30
0
41
1
10
31.3057988062296
20
-3.70982257531307
30
0
0
SPLINE
5
107
100
AcDbEntity
8
1
62
256
6
ByLayer
370
18
48
1
60
0
100
AcDbSpline
70
4
71
3
72
32
73
28
40
0
40
0
40
0
40
0
40
0.0625000000000075
40
0.0625000000000075
40
0.125000000000015
40
0.125000000000015
40
0.156250000000019
40
0.156250000000019
40
0.187500000000023
40
0.187500000000023
40
0.25000000000003
40
0.25000000000003
40
0.375000000000038
40
0.375000000000038
40
0.437500000000038
40
0.437500000000038
40
0.468750000000034
40
0.468750000000034
40
0.50000000000003
40
0.50000000000003
40
0.625000000000023
40
0.625000000000023
40
0.750000000000015
40
0.750000000000015
40
0.875000000000008
40
0.875000000000008
40
1
40
1
40
1
40
1
41
1
10
28.8638777198463
20
-3.39107592263107
30
0
41
1
10
28.885678005526
20
-3.43807394812387
30
0
41
1
10
28.90989980267
20
-3.48176345901251
30
0
41
1
10
28.9623525764241
20
-3.56366473442247
30
0
41
1
10
28.9905891890382
20
-3.60186879810439
30
0
41
1
10
29.0355555770941
20
-3.65560683997222
30
0
41
1
10
29.0509813905495
20
-3.67292242310611
30
0
41
1
10
29.0826571303967
20
-3.70642760280336
30
0
41
1
10
29.0989278538675
20
-3.72263646360773
30
0
41
1
10
29.1487768506428
20
-3.76953036169178
30
0
41
1
10
29.1831350855655
20
-3.79826490869644
30
0
41
1
10
29.2890977291646
20
-3.87798218627603
30
0
41
1
10
29.3635720476776
20
-3.92251904686796
30
0
41
1
10
29.4798042972619
20
-3.97917060157573
30
0
41
1
10
29.5193086311783
20
-3.99634691611934
30
0
41
1
10
29.579607475167
20
-4.01977026623638
30
0
41
1
10
29.5998811379767
20
-4.02718713428769
30
0
41
1
10
29.6407635900378
20
-4.04126817027287
30
0
41
1
10
29.6613973498255
20
-4.04793966335959
30
0
41
1
10
29.7650414660476
20
-4.07937868214748
30
0
41
1
10
29.8492969549574
20
-4.09840559612346
30
0
41
1
10
30.0200433491173
20
-4.12624422917682
30
0
41
1
10
30.1065378731887
20
-4.13503941130523
30
0
41
1
10
30.2815062709882
20
-4.14358473005927
30
0
41
1
10
30.3699826970592
20
-4.14332320322816
30
0
41
1
10
30.5487462322837
20
-4.13452586067746
30
0
41
1
10
30.6390340508408
20
-4.12598680319155
30
0
41
1
10
30.730179088712
20
-4.11353050567831
30
0
0
SPLINE
5
108
100
AcDbEntity
8
1
62
256
6
ByLayer
370
18
48
1
60
0
100
AcDbSpline
70
4
71
3
72
49
73
45
40
0
40
0
40
0
40
0
40
0.0517434293705105
40
0.209786191142092
40
0.328318262470778
40
0.446850333799464
40
0.525871714685255
40
0.604893095571046
40
0.683914476456837
40
0.74318051212118
40
0.792568875174799
40
0.822201893006971
40
0.841957238228418
40
0.856773747144504
40
0.869120837907909
40
0.876529092365952
40
0.881467928671314
40
0.886406764976676
40
0.893815019434719
40
0.906162110198123
40
0.920978619114209
40
0.940733964335657
40
0.955550473251743
40
0.967897564015147
40
0.97530581847319
40
0.980244654778552
40
0.983948782007574
40
0.986418200160255
40
0.988270263774765
40
0.989504972851106
40
0.991357036465617
40
0.992283068272872
40
0.993054761445585
40
0.993440608031941
40
0.993594946666484
40
0.993710700642391
40
0.993787869959662
40
0.993903623935569
40
0.994135131887383
40
0.99459814779101
40
0.995369840963723
40
0.996295872770979
40
0.997530581847319
40
1
40
1
40
1
40
1
41
1
10
28.8638777188033
20
-3.39107592250417
30
0
41
1
10
28.6592518125355
20
-3.3581243155358
30
0
41
1
10
27.8296259062678
20
-3.20996713049826
30
0
41
1
10
26.5312500000001
20
-2.88756672999548
30
0
41
1
10
24.96875
20
-2.37850762269863
30
0
41
1
10
23.7187500000001
20
-1.89972521553034
30
0
41
1
10
22.6250000000001
20
-1.4417416203795
30
0
41
1
10
21.6875000000001
20
-1.0280576808259
30
0
41
1
10
20.8281250000001
20
-0.634875167003656
30
0
41
1
10
20.0859375000001
20
-0.288570214914842
30
0
41
1
10
19.5390625
20
-0.0324318441470268
30
0
41
1
10
19.1484375000001
20
0.151195566619094
30
0
41
1
10
18.8945312500001
20
0.269561511032038
30
0
41
1
10
18.7089843750001
20
0.357493570200631
30
0
41
1
10
18.572265625
20
0.419541393409077
30
0
41
1
10
18.4746093750001
20
0.466492311089041
30
0
41
1
10
18.40625
20
0.496038254971722
30
0
41
1
10
18.3378906250001
20
0.52848876501227
30
0
41
1
10
18.240234375
20
0.573554409111097
30
0
41
1
10
18.1035156250001
20
0.6367890633272
30
0
41
1
10
17.91796875
20
0.722689461928582
30
0
41
1
10
17.7226562500001
20
0.812402812822427
30
0
41
1
10
17.537109375
20
0.899470920445765
30
0
41
1
10
17.4003906250001
20
0.959418030503997
30
0
41
1
10
17.302734375
20
1.00495060415781
30
0
41
1
10
17.2392578125001
20
1.03206515311919
30
0
41
1
10
17.1953125
20
1.05393104305702
30
0
41
1
10
17.1635742187501
20
1.06583788790908
30
0
41
1
10
17.1416015625
20
1.07875350484704
30
0
41
1
10
17.1220703125003
20
1.06956829266471
30
0
41
1
10
17.1062011718751
20
1.1178117928379
30
0
41
1
10
17.0921630859376
20
1.06082205376984
30
0
41
1
10
17.0839233398433
20
1.13499627213523
30
0
41
1
10
17.0787353515627
20
1.08834911530673
30
0
41
1
10
17.0761413574218
20
1.11350811560069
30
0
41
1
10
17.0747680664064
20
1.103728180118
30
0
41
1
10
17.0735473632813
20
1.10740286725604
30
0
41
1
10
17.0718688964846
20
1.1023957895095
30
0
41
1
10
17.0686645507812
20
1.11134019478379
30
0
41
1
10
17.0628662109376
20
1.10638601530849
30
0
41
1
10
17.0543212890625
20
1.11915499382712
30
0
41
1
10
17.0427246093752
20
1.11780922765243
30
0
41
1
10
17.0244140625001
20
1.12918761912849
30
0
41
1
10
17.0097656250001
20
1.13365362362632
30
0
41
1
10
17.0000000000001
20
1.1386867140919
30
0
0
SPLINE
5
109
100
AcDbEntity
8
1
62
256
6
ByLayer
370
13
48
1
60
0
100
AcDbSpline
70
4
71
3
72
48
73
44
40
0
40
0
40
0
40
0
40
0.0797359535450518
40
0.217775560513294
40
0.355815167481536
40
0.447841572127031
40
0.539867976772526
40
0.631894381418021
40
0.700914184902142
40
0.758430687805576
40
0.792940589547637
40
0.81594719070901
40
0.833202141580041
40
0.847581267305899
40
0.856208742741414
40
0.861960393031758
40
0.867712043322101
40
0.876339518757616
40
0.890718644483475
40
0.907973595354505
40
0.930980196515879
40
0.948235147386909
40
0.962614273112768
40
0.971241748548283
40
0.976993398838626
40
0.981307136556384
40
0.984182961701556
40
0.986339830560434
40
0.98777774313302
40
0.989934611991899
40
0.991013046421338
40
0.991911741779205
40
0.992361089458138
40
0.992540828529711
40
0.992675632833391
40
0.992765502369177
40
0.992900306672857
40
0.993169915280217
40
0.993709132494937
40
0.994607827852803
40
0.995686262282242
40
0.997124174854828
40
1
40
1
40
1
40
1
41
1
10
27.1872935665742
20
-4.39542056090119
30
0
41
1
10
26.9165290443828
20
-4.40039721361723
30
0
41
1
10
26.1770145221915
20
-4.39176183691393
30
0
41
1
10
24.96875
20
-4.27808185697151
30
0
41
0.999999999999999
10
23.71875
20
-4.03423896856498
30
0
41
1
10
22.625
20
-3.73446217947253
30
0
41
1
10
21.6875
20
-3.4220329133253
30
0
41
1
10
20.8281250000001
20
-3.08952417242023
30
0
41
0.999999999999999
10
20.0859375
20
-2.77101777599637
30
0
41
1
10
19.5390625
20
-2.51979960338894
30
0
41
0.999999999999999
10
19.1484375000001
20
-2.33262595894928
30
0
41
1
10
18.89453125
20
-2.20804817483426
30
0
41
0.999999999999998
10
18.708984375
20
-2.11560024997479
30
0
41
1
10
18.572265625
20
-2.04670023586766
30
0
41
0.999999999999999
10
18.474609375
20
-1.99709638414655
30
0
41
1
10
18.40625
20
-1.9622074785058
30
0
41
0.999999999999999
10
18.337890625
20
-1.92718787038723
30
0
41
1
10
18.240234375
20
-1.87693052609788
30
0
41
0.999999999999999
10
18.1035156250001
20
-1.80607025150266
30
0
41
1
10
17.91796875
20
-1.70901294169772
30
0
41
1
10
17.7226562500001
20
-1.60572368621723
30
0
41
0.999999999999999
10
17.537109375
20
-1.50662492838129
30
0
41
1
10
17.400390625
20
-1.43306948279076
30
0
41
1
10
17.302734375
20
-1.3802448526568
30
0
41
1
10
17.2392578125
20
-1.3457922756223
30
0
41
0.999999999999999
10
17.1953125000001
20
-1.32188379250258
30
0
41
1
10
17.16357421875
20
-1.30458725177831
30
0
41
0.999999999999999
10
17.1416015625
20
-1.2925985108372
30
0
41
1
10
17.1220703125002
20
-1.28193282425917
30
0
41
0.999999999999992
10
17.1062011718751
20
-1.27325961721645
30
0
41
1.00000000000002
10
17.0921630859377
20
-1.26558132287046
30
0
41
0.999999999999985
10
17.0839233398438
20
-1.26107240244877
30
0
41
1.00000000000001
10
17.0787353515628
20
-1.25823255300712
30
0
41
0.999999999999996
10
17.0761413574217
20
-1.25681241839883
30
0
41
1
10
17.0747680664063
20
-1.25606052687175
30
0
41
0.999999999999997
10
17.0735473632812
20
-1.25539214357335
30
0
41
1.00000000000001
10
17.0718688964845
20
-1.25447306803607
30
0
41
0.999999999999995
10
17.0686645507813
20
-1.25271830261486
30
0
41
1.00000000000001
10
17.0628662109376
20
-1.24954240963998
30
0
41
0.999999999999994
10
17.0543212890624
20
-1.2448605661823
30
0
41
1
10
17.0427246093751
20
-1.23850368751837
30
0
41
0.999999999999998
10
17.0244140625
20
-1.22846058711511
30
0
41
1
10
17.009765625
20
-1.2204179857155
30
0
41
1
10
17
20
-1.21505264524222
30
0
0
SPLINE
5
10A
100
AcDbEntity
8
1
62
256
6
ByLayer
370
18
48
1
60
0
100
AcDbSpline
70
4
71
3
72
22
73
18
40
0
40
0
40
0
40
0
40
0.124999999999988
40
0.124999999999988
40
0.249999999999976
40
0.249999999999976
40
0.374999999999964
40
0.374999999999964
40
0.437499999999963
40
0.437499999999963
40
0.499999999999963
40
0.499999999999963
40
0.624999999999972
40
0.624999999999972
40
0.749999999999981
40
0.749999999999981
40
1
40
1
40
1
40
1
41
1
10
28.9569534711737
20
2.66744623941835
30
0
41
1
10
29.0106025534098
20
2.62861675794341
30
0
41
1
10
29.067347870363
20
2.58551407892969
30
0
41
1
10
29.1855569611713
20
2.49279664939542
30
0
41
1
10
29.247036391467
20
2.44316029131363
30
0
41
1
10
29.3739088859367
20
2.33848626244719
30
0
41
1
10
29.4393083686826
20
2.28343973321853
30
0
41
1
10
29.5399696458561
20
2.19733398017982
30
0
41
1
10
29.5740103915037
20
2.167989122861
30
0
41
1
10
29.6423984923153
20
2.10861915742061
30
0
41
1
10
29.6767913661253
20
2.07855584409106
30
0
41
1
10
29.7805214013319
20
1.98731664779834
30
0
41
1
10
29.8504079143495
20
1.92509543249875
30
0
41
1
10
29.9914724137664
20
1.79819552505637
30
0
41
1
10
30.0626512613976
20
1.73351519412074
30
0
41
1
10
30.2779523722933
20
1.53611649757414
30
0
41
1
10
30.4238270881568
20
1.40006348198756
30
0
41
1
10
30.5717857681636
20
1.26004500052522
30
0
0
SPLINE
5
10B
100
AcDbEntity
8
1
62
256
6
ByLayer
370
18
48
1
60
0
100
AcDbSpline
70
4
71
3
72
9
73
5
40
0
40
0
40
0
40
0
40
0.388380659005625
40
1
40
1
40
1
40
1
41
1
10
28.9569534712723
20
2.66744623922756
30
0
41
1
10
28.7213023141816
20
2.7618381810706
30
0
41
1
10
28.1145492444121
20
2.99193835974381
30
0
41
1
10
27.5077961746427
20
3.18548702439281
30
0
41
1
10
27.136694261964
20
3.28859929578977
30
0
0
SPLINE
5
10C
100
AcDbEntity
8
1
62
256
6
ByLayer
370
13
48
1
60
0
100
AcDbSpline
70
4
71
3
72
12
73
8
40
0
40
0
40
0
40
0
40
0.0347241890683343
40
0.27681062737205
40
0.518897065675766
40
0.841678983414054
40
1
40
1
40
1
40
1
41
1
10
31.2642084939557
20
-0.407782357806951
30
0
41
1
10
31.1969723293038
20
-0.363013834456353
30
0
41
1
10
30.6609861646519
20
-0.0054124440653993
30
0
41
1
10
29.65625
20
0.66232175008659
30
0
41
1
10
28.09375
20
1.66767900509851
30
0
41
1
10
26.6934443042549
20
2.48998183614927
30
0
41
1
10
25.7618886085097
20
2.95798152921216
30
0
41
1
10
25.4553329127646
20
3.10205175294624
30
0
0
SPLINE
5
10D
100
AcDbEntity
8
1
62
256
6
ByLayer
370
18
48
1
60
0
100
AcDbSpline
70
4
71
3
72
22
73
18
40
0
40
0
40
0
40
0
40
0.0624999999999942
40
0.0624999999999942
40
0.124999999999988
40
0.124999999999988
40
0.249999999999983
40
0.249999999999983
40
0.49999999999998
40
0.49999999999998
40
0.624999999999983
40
0.624999999999983
40
0.687499999999985
40
0.687499999999985
40
0.749999999999986
40
0.749999999999986
40
1
40
1
40
1
40
1
41
1
10
30.5717857681634
20
1.26004500052522
30
0
41
1
10
30.5831325582354
20
1.22823737316267
30
0
41
1
10
30.5947760972073
20
1.19602248468985
30
0
41
1
10
30.6186432903112
20
1.13079655198899
30
0
41
1
10
30.6308783557916
20
1.09775508195477
30
0
41
1
10
30.6683669299375
20
0.997649829921698
30
0
41
1
10
30.6941585360973
20
0.930253568328197
30
0
41
1
10
30.7737195714231
20
0.72626096972607
30
0
41
1
10
30.8296589622877
20
0.587874230767397
30
0
41
1
10
30.9174746936297
20
0.377070809719612
30
0
41
1
10
30.9474023287652
20
0.306261974370841
30
0
41
1
10
30.9932575407432
20
0.199253538425239
30
0
41
1
10
31.0087251855135
20
0.163401649452339
30
0
41
1
10
31.0398273192453
20
0.0917864120754075
30
0
41
1
10
31.0554702037867
20
0.0560027302993547
30
0
41
1
10
31.1341330511499
20
-0.12279877405615
30
0
41
1
10
31.1984890301043
20
-0.265468296579144
30
0
41
1
10
31.2642084937028
20
-0.407782358000475
30
0
0
SPLINE
5
10E
100
AcDbEntity
8
1
62
256
6
ByLayer
370
18
48
1
60
0
100
AcDbSpline
70
4
71
3
72
18
73
14
40
0
40
0
40
0
40
0
40
0.250000000000001
40
0.250000000000001
40
0.500000000000002
40
0.500000000000002
40
0.625000000000001
40
0.625000000000001
40
0.750000000000001
40
0.750000000000001
40
0.875
40
0.875
40
1
40
1
40
1
40
1
41
1
10
31.2642084938717
20
-0.407782357930387
30
0
41
1
10
31.2753578187139
20
-0.431926021180658
30
0
41
1
10
31.2862588835567
20
-0.45605274280561
30
0
41
1
10
31.3075196585108
20
-0.504269242868958
30
0
41
1
10
31.3178814163483
20
-0.528359161131277
30
0
41
1
10
31.3329177506032
20
-0.564459487531821
30
0
41
1
10
31.3378388965623
20
-0.576475443058428
30
0
41
1
10
31.3473396497635
20
-0.600143212823554
30
0
41
1
10
31.3519363544083
20
-0.611835127986183
30
0
41
1
10
31.3607637736634
20
-0.634880838695551
30
0
41
1
10
31.3649604681687
20
-0.646147053906589
30
0
41
1
10
31.3727776332355
20
-0.667906409262685
30
0
41
1
10
31.3764086743531
20
-0.678425087728328
30
0
41
1
10
31.3796867754434
20
-0.688484695052011
30
0
0
SPLINE
5
10F
100
AcDbEntity
8
1
62
256
6
ByLayer
370
18
48
1
60
0
100
AcDbSpline
70
4
71
3
72
15
73
11
40
0
40
0
40
0
40
0
40
0.499999999999993
40
0.499999999999993
40
0.624999999999991
40
0.624999999999991
40
0.687499999999991
40
0.687499999999991
40
0.749999999999992
40
1
40
1
40
1
40
1
41
1
10
31.9787574814818
20
-2.24576338943194
30
0
41
1
10
31.9609911309114
20
-2.14684727400046
30
0
41
1
10
31.9453661012874
20
-2.05965363148223
30
0
41
1
10
31.9285538677982
20
-1.96554679744838
30
0
41
1
10
31.9253283157856
20
-1.94747484853889
30
0
41
1
10
31.9206990600717
20
-1.92151147309173
30
0
41
1
10
31.9191887938424
20
-1.91303638794992
30
0
41
1
10
31.9162512635526
20
-1.89654238151584
30
0
41
1
10
31.9091140579025
20
-1.85644286166598
30
0
41
1
10
31.9029935676163
20
-1.82193077795145
30
0
41
1
10
31.8987246308905
20
-1.79776934012415
30
0
0
SPLINE
5
110
100
AcDbEntity
8
1
62
256
6
ByLayer
370
13
48
1
60
0
100
AcDbSpline
70
4
71
3
72
49
73
45
40
0
40
0
40
0
40
0
40
0.0025728477082007
40
0.003859271562301
40
0.0048240894528762
40
0.0056281043616889
40
0.0061105133069766
40
0.0063517177796204
40
0.0064723200159423
40
0.0065527215068236
40
0.0066733237431455
40
0.006834126724908
40
0.0072361341793144
40
0.0080401490881271
40
0.0090049669787023
40
0.0109346027598528
40
0.0122210266139531
40
0.0141506623951036
40
0.0167235101033043
40
0.0205827816656053
40
0.0257284770820066
40
0.0334470202066086
40
0.0463112587476118
40
0.0617483449968158
40
0.0823311266624211
40
0.097768212911625
40
0.110632451452628
40
0.11835099457723
40
0.123496689993632
40
0.128642385410033
40
0.136360928534635
40
0.149225167075638
40
0.164662253324842
40
0.185245034990447
40
0.216119207488855
40
0.267576161652869
40
0.329324506649684
40
0.411655633312105
40
0.493986759974526
40
0.576317886636948
40
0.699814576630579
40
0.823311266624211
40
0.987973519949053
40
1
40
1
40
1
40
1
41
1
10
17.0000000000001
20
1.99764801439156
30
0
41
1
10
17.0097656250001
20
1.99629168528585
30
0
41
0.999999999999998
10
17.0244140625001
20
1.99424755842219
30
0
41
1
10
17.0427246093751
20
1.99167436936363
30
0
41
0.999999999999994
10
17.0543212890625
20
1.99003802742241
30
0
41
1.00000000000001
10
17.0628662109376
20
1.98882845108774
30
0
41
0.999999999999995
10
17.0686645507812
20
1.9880057678361
30
0
41
1.00000000000001
10
17.0718688964846
20
1.98755053687414
30
0
41
0.999999999999997
10
17.0735473632813
20
1.98731192800523
30
0
41
1
10
17.0747680664064
20
1.98713833184078
30
0
41
0.999999999999996
10
17.0761413574218
20
1.98694296591288
30
0
41
1.00000000000001
10
17.0787353515627
20
1.98657375564404
30
0
41
0.999999999999985
10
17.0839233398434
20
1.98583459223417
30
0
41
1.00000000000002
10
17.0921630859375
20
1.98465809924656
30
0
41
0.999999999999992
10
17.1062011718752
20
1.9826473914337
30
0
41
1
10
17.1220703125002
20
1.98036274846609
30
0
41
0.999999999999999
10
17.1416015625
20
1.97753494380635
30
0
41
1
10
17.1635742187501
20
1.97433575101832
30
0
41
0.999999999999999
10
17.1953125000001
20
1.96967852003144
30
0
41
1
10
17.2392578125001
20
1.96315862031076
30
0
41
1
10
17.3027343750001
20
1.95359694108231
30
0
41
1
10
17.4003906250001
20
1.93857124738574
30
0
41
0.999999999999999
10
17.5371093750001
20
1.91683273817267
30
0
41
1
10
17.7226562500001
20
1.88603239052432
30
0
41
1
10
17.9179687500001
20
1.85189380391049
30
0
41
0.999999999999999
10
18.1035156250001
20
1.81786092940829
30
0
41
1
10
18.2402343750001
20
1.79187125832013
30
0
41
0.999999999999999
10
18.3378906250001
20
1.77283957396074
30
0
41
1
10
18.40625
20
1.75931460704498
30
0
41
0.999999999999999
10
18.4746093750001
20
1.74562839632142
30
0
41
1
10
18.572265625
20
1.72579052982635
30
0
41
0.999999999999998
10
18.7089843750001
20
1.69738276969852
30
0
41
1
10
18.8945312500001
20
1.65766502353202
30
0
41
0.999999999999999
10
19.1484375000001
20
1.60133115498007
30
0
41
1
10
19.5390625000001
20
1.51044445439979
30
0
41
0.999999999999999
10
20.0859375000001
20
1.37426121516521
30
0
41
1
10
20.8281250000001
20
1.17453540952667
30
0
41
1
10
21.6875000000001
20
0.924727764446431
30
0
41
1
10
22.6250000000001
20
0.633392003440633
30
0
41
0.999999999999999
10
23.7187500000001
20
0.278102047683035
30
0
41
1
10
24.96875
20
-0.138399232585556
30
0
41
1
10
26.5312500000001
20
-0.651094990732247
30
0
41
1
10
27.6706482884211
20
-1.00095946820551
30
0
41
1
10
28.3412965768422
20
-1.1884793748163
30
0
41
1
10
28.3869448652633
20
-1.20115563931662
30
0
0
SPLINE
5
111
100
AcDbEntity
8
1
62
256
6
ByLayer
370
18
48
1
60
0
100
AcDbSpline
70
4
71
3
72
28
73
24
40
0
40
0
40
0
40
0
40
0.124999999999995
40
0.124999999999995
40
0.187499999999992
40
0.187499999999992
40
0.249999999999989
40
0.249999999999989
40
0.374999999999983
40
0.374999999999983
40
0.4375
40
0.4375
40
0.500000000000017
40
0.500000000000017
40
0.625000000000051
40
0.625000000000051
40
0.687500000000043
40
0.687500000000043
40
0.750000000000034
40
0.750000000000034
40
0.875000000000017
40
0.875000000000017
40
1
40
1
40
1
40
1
41
1
10
28.3869448652634
20
-1.20115563931662
30
0
41
1
10
28.3950716846167
20
-1.17533152853113
30
0
41
1
10
28.4062651341743
20
-1.15110918465734
30
0
41
1
10
28.4271991833631
20
-1.11706292435144
30
0
41
1
10
28.4348746736183
20
-1.10609782318215
30
0
41
1
10
28.4516182788168
20
-1.08494277210176
30
0
41
1
10
28.4607042040371
20
-1.07474958854857
30
0
41
1
10
28.489425583307
20
-1.04597482261991
30
0
41
1
10
28.5106858872401
20
-1.0289418338285
30
0
41
1
10
28.545619788398
20
-1.0064218590565
30
0
41
1
10
28.5578364942419
20
-0.999393785268438
30
0
41
1
10
28.5829833168748
20
-0.986516894887473
30
0
41
1
10
28.5958892432255
20
-0.980671225687445
30
0
41
1
10
28.6355714085585
20
-0.96480389098457
30
0
41
1
10
28.663305610527
20
-0.956442747783058
30
0
41
1
10
28.7068312550278
20
-0.947000954452875
30
0
41
1
10
28.7216319338577
20
-0.944385000493895
30
0
41
1
10
28.7513707087459
20
-0.940222832436888
30
0
41
1
10
28.766369311186
20
-0.938662697426025
30
0
41
1
10
28.8117491651892
20
-0.935439691019354
30
0
41
1
10
28.8425127908265
20
-0.935227153768182
30
0
41
1
10
28.9050876121655
20
-0.938321451055145
30
0
41
1
10
28.9364700778186
20
-0.941610931484632
30
0
41
1
10
28.9678304398175
20
-0.946408614664364
30
0
0
SPLINE
5
112
100
AcDbEntity
8
1
62
256
6
ByLayer
370
18
48
1
60
0
100
AcDbSpline
70
4
71
3
72
26
73
22
40
0
40
0
40
0
40
0
40
0.0173801168678902
40
0.0173801168678902
40
0.0992651071288697
40
0.0992651071288697
40
0.181150097389849
40
0.181150097389849
40
0.222092592520346
40
0.222092592520346
40
0.263035087650844
40
0.263035087650844
40
0.344920077911854
40
0.344920077911854
40
0.508690058433891
40
0.508690058433891
40
0.672460038955927
40
0.672460038955927
40
0.836230019477963
40
0.836230019477963
40
1
40
1
40
1
40
1
41
1
10
31.3518209550392
20
-1.48027166265246
30
0
41
1
10
31.3393904198051
20
-1.47546092926356
30
0
41
1
10
31.3268921863728
20
-1.47070586712576
30
0
41
1
10
31.255146600446
20
-1.44384619456059
30
0
41
1
10
31.1945474797422
20
-1.42285320348631
30
0
41
1
10
31.071113371194
20
-1.38270587471578
30
0
41
1
10
31.0082758655595
20
-1.36355360751071
30
0
41
1
10
30.9126589076113
20
-1.33594417065228
30
0
41
1
10
30.8805374219902
20
-1.32692318538145
30
0
41
1
10
30.8162315212568
20
-1.30931450837295
30
0
41
1
10
30.7840036670304
20
-1.30071394519689
30
0
41
1
10
30.6871199331482
20
-1.27545681976585
30
0
41
1
10
30.6222648494943
20
-1.25934219033394
30
0
41
1
10
30.4270542583405
20
-1.21275394467401
30
0
41
1
10
30.2960611982879
20
-1.18401478487397
30
0
41
1
10
30.0328917553642
20
-1.12975568517936
30
0
41
1
10
29.9007106382743
20
-1.1042486246877
30
0
41
1
10
29.6354686043109
20
-1.05562799171324
30
0
41
1
10
29.5024055786803
20
-1.03252015608663
30
0
41
1
10
29.2355972432702
20
-0.98816063319677
30
0
41
1
10
29.1018508808578
20
-0.966911809613066
30
0
41
1
10
28.9678304398164
20
-0.946408614664477
30
0
0
SPLINE
5
113
100
AcDbEntity
8
1
62
256
6
ByLayer
370
18
48
1
60
0
100
AcDbSpline
70
4
71
3
72
16
73
12
40
0
40
0
40
0
40
0
40
0.0421104125324546
40
0.0421104125324546
40
0.201758677110381
40
0.201758677110381
40
0.361406941688307
40
0.361406941688307
40
0.680703470844153
40
0.680703470844153
40
1
40
1
40
1
40
1
41
1
10
14.6381600483783
20
-4.79273605398438
30
0
41
1
10
14.6361099317321
20
-4.79348627243709
30
0
41
1
10
14.6339415912134
20
-4.79417753020832
30
0
41
1
10
14.6230271100453
20
-4.79720946635865
30
0
41
1
10
14.6128073955656
20
-4.79876827899497
30
0
41
1
10
14.5897834840907
20
-4.80024106481508
30
0
41
1
10
14.5769507962558
20
-4.80015115958591
30
0
41
1
10
14.5354617789365
20
-4.79748043042432
30
0
41
1
10
14.5038001775867
20
-4.79252072082423
30
0
41
1
10
14.4343918218061
20
-4.77668547901729
30
0
41
1
10
14.3966180744872
20
-4.76580621099734
30
0
41
1
10
14.3561913958013
20
-4.75210630009829
30
0
0
SPLINE
5
114
100
AcDbEntity
8
1
62
256
6
ByLayer
370
18
48
1
60
0
100
AcDbSpline
70
4
71
3
72
13
73
9
40
0
40
0
40
0
40
0
40
0.25
40
0.5
40
0.5
40
0.75
40
0.75
40
1
40
1
40
1
40
1
41
1
10
14.3561913958013
20
-4.75210630009829
30
0
41
1
10
14.221620100042
20
-4.73138391473699
30
0
41
1
10
13.9545275258291
20
-4.67660222972413
30
0
41
1
10
13.6876739570468
20
-4.59624368952811
30
0
41
1
10
13.4189632121593
20
-4.50397255256456
30
0
41
1
10
13.2836799504899
20
-4.45187903737036
30
0
41
1
10
13.0092175696923
20
-4.33701320197815
30
0
41
1
10
12.8700388754967
20
-4.27423839939985
30
0
41
1
10
12.7278520556296
20
-4.2069519810272
30
0
0
SPLINE
5
115
100
AcDbEntity
8
1
62
256
6
ByLayer
370
18
48
1
60
0
100
AcDbSpline
70
4
71
3
72
27
73
23
40
0
40
0
40
0
40
0
40
0.124999999999999
40
0.124999999999999
40
0.249999999999999
40
0.249999999999999
40
0.374999999999998
40
0.374999999999998
40
0.437499999999997
40
0.437499999999997
40
0.499999999999996
40
0.499999999999996
40
0.624999999999993
40
0.624999999999993
40
0.687499999999994
40
0.687499999999994
40
0.749999999999996
40
0.812499999999997
40
0.812499999999997
40
0.874999999999998
40
0.874999999999998
40
1
40
1
40
1
40
1
41
1
10
12.7278520556296
20
-4.2069519810272
30
0
41
1
10
12.7027656135787
20
-4.1950804388062
30
0
41
1
10
12.6786649782521
20
-4.18268598674146
30
0
41
1
10
12.6327820789997
20
-4.1566563580358
30
0
41
1
10
12.6109969148417
20
-4.14302267763071
30
0
41
1
10
12.570252863412
20
-4.11423632014558
30
0
41
1
10
12.5512877979429
20
-4.09908680844765
30
0
41
1
10
12.5255589327898
20
-4.07490207602973
30
0
41
1
10
12.5174098990274
20
-4.06656114064452
30
0
41
1
10
12.5023434642002
20
-4.04951022398134
30
0
41
1
10
12.4954247927061
20
-4.04080647728745
30
0
41
1
10
12.4766976653467
20
-4.01410976947304
30
0
41
1
10
12.4668952762973
20
-3.99553696651552
30
0
41
1
10
12.4572744552644
20
-3.96623419061615
30
0
41
1
10
12.4549664042729
20
-3.9563457220778
30
0
41
1
10
12.4522557982155
20
-3.93647293791108
30
0
41
1
10
12.4514348969069
20
-3.91645802751572
30
0
41
1
10
12.4545479769877
20
-3.89616130328577
30
0
41
1
10
12.4597272714252
20
-3.87572503307547
30
0
41
1
10
12.4633848254095
20
-3.86538171908418
30
0
41
1
10
12.477242606554
20
-3.83490638433429
30
0
41
1
10
12.4903204417614
20
-3.81513487029028
30
0
41
1
10
12.5069056900042
20
-3.79590126723281
30
0
0
SPLINE
5
116
100
AcDbEntity
8
1
62
256
6
ByLayer
370
18
48
1
60
0
100
AcDbSpline
70
4
71
3
72
42
73
38
40
0
40
0
40
0
40
0
40
0.0312500000000056
40
0.0312500000000056
40
0.0625000000000111
40
0.0625000000000111
40
0.0937500000000167
40
0.0937500000000167
40
0.109375000000019
40
0.109375000000019
40
0.125000000000022
40
0.125000000000022
40
0.187500000000023
40
0.187500000000023
40
0.250000000000023
40
0.250000000000023
40
0.312500000000023
40
0.312500000000023
40
0.343750000000023
40
0.343750000000023
40
0.375000000000023
40
0.375000000000023
40
0.437500000000024
40
0.437500000000024
40
0.500000000000024
40
0.500000000000024
40
0.531250000000022
40
0.531250000000022
40
0.56250000000002
40
0.625000000000016
40
0.687500000000012
40
0.687500000000012
40
0.750000000000007
40
0.750000000000007
40
0.875000000000004
40
0.875000000000004
40
1
40
1
40
1
40
1
41
1
10
12.5069056900042
20
-3.79590126723281
30
0
41
1
10
12.528064467959
20
-3.77136382706877
30
0
41
1
10
12.5512823765649
20
-3.74745500189306
30
0
41
1
10
12.6011995951359
20
-3.70074700897916
30
0
41
1
10
12.6279012495104
20
-3.67794839714858
30
0
41
1
10
12.6843224113174
20
-3.63335552518078
30
0
41
1
10
12.7140433188568
20
-3.61156159731797
30
0
41
1
10
12.7606241876865
20
-3.57956572977997
30
0
41
1
10
12.7764851488022
20
-3.56901646573513
30
0
41
1
10
12.8088385981287
20
-3.54814216794213
30
0
41
1
10
12.8253551669362
20
-3.53780259704934
30
0
41
1
10
12.9091546469039
20
-3.48681888115362
30
0
41
1
10
12.9794247803045
20
-3.44865190319649
30
0
41
1
10
13.1247940580216
20
-3.37645442397843
30
0
41
1
10
13.1999090515087
20
-3.34243480931986
30
0
41
1
10
13.3540418285293
20
-3.27792161823498
30
0
41
1
10
13.4330663740549
20
-3.24743269200221
30
0
41
1
10
13.5540866647465
20
-3.2040645149531
30
0
41
1
10
13.5947901799405
20
-3.1900240930712
30
0
41
1
10
13.6765952442176
20
-3.16281837801148
30
0
41
1
10
13.717738605638
20
-3.14963808168326
30
0
41
1
10
13.8418372594992
20
-3.1112949431749
30
0
41
1
10
13.9254586214534
20
-3.08732626249898
30
0
41
1
10
14.0942674999681
20
-3.04231080026875
30
0
41
1
10
14.1794559604853
20
-3.02126532311951
30
0
41
1
10
14.3083085667134
20
-2.99176777729409
30
0
41
1
10
14.3514507833164
20
-2.98227876512087
30
0
41
1
10
14.4378979533784
20
-2.96401573276628
30
0
41
1
10
14.5678769038698
20
-2.93767923261547
30
0
41
1
10
14.7859868246346
20
-2.89893792830716
30
0
41
1
10
14.9619604013193
20
-2.87326159591063
30
0
41
1
10
15.1386489788996
20
-2.85020174244016
30
0
41
1
10
15.2273519142522
20
-2.83998350516194
30
0
41
1
10
15.4935203839245
20
-2.81332817694638
30
0
41
1
10
15.6713779151897
20
-2.80083067037694
30
0
41
1
10
16.0278985431309
20
-2.78636638250868
30
0
41
1
10
16.206562001972
20
-2.78440406192522
30
0
41
1
10
16.3856406460551
20
-2.78788621081344
30
0
0
SPLINE
5
117
100
AcDbEntity
8
1
62
256
6
ByLayer
370
18
48
1
60
0
100
AcDbSpline
70
4
71
3
72
18
73
14
40
0
40
0
40
0
40
0
40
0.250000000000021
40
0.250000000000021
40
0.375000000000018
40
0.375000000000018
40
0.500000000000015
40
0.500000000000015
40
0.750000000000009
40
0.750000000000009
40
0.875000000000004
40
0.875000000000004
40
1
40
1
40
1
40
1
41
1
10
12.5399873905245
20
4.36082548222996
30
0
41
1
10
12.5194383943895
20
4.37267596509315
30
0
41
1
10
12.5009028101359
20
4.38475430142313
30
0
41
1
10
12.4767923740156
20
4.4032708706107
30
0
41
1
10
12.4693739086264
20
4.40950989986209
30
0
41
1
10
12.4559336564164
20
4.42213671593544
30
0
41
1
10
12.4498959661319
20
4.4285521980093
30
0
41
1
10
12.4344747520843
20
4.44764714365638
30
0
41
1
10
12.4276414561483
20
4.46027327595371
30
0
41
1
10
12.4231560461591
20
4.4790401201937
30
0
41
1
10
12.4226242284898
20
4.4852670679324
30
0
41
1
10
12.4236248085359
20
4.49766169995473
30
0
41
1
10
12.4251550733494
20
4.50375513089929
30
0
41
1
10
12.4277008188344
20
4.50971886009597
30
0
0
SPLINE
5
118
100
AcDbEntity
8
1
62
256
6
ByLayer
370
18
48
1
60
0
100
AcDbSpline
70
4
71
3
72
42
73
38
40
0
40
0
40
0
40
0
40
0.0312500000000059
40
0.0312500000000059
40
0.0625000000000118
40
0.0625000000000118
40
0.0781250000000147
40
0.0781250000000147
40
0.0937500000000176
40
0.0937500000000176
40
0.125000000000024
40
0.125000000000024
40
0.187500000000035
40
0.187500000000035
40
0.203125000000037
40
0.203125000000037
40
0.21875000000004
40
0.250000000000041
40
0.250000000000041
40
0.31250000000004
40
0.31250000000004
40
0.375000000000039
40
0.375000000000039
40
0.437500000000038
40
0.437500000000038
40
0.500000000000037
40
0.500000000000037
40
0.625000000000031
40
0.625000000000031
40
0.687500000000026
40
0.687500000000026
40
0.75000000000002
40
0.812500000000015
40
0.812500000000015
40
0.87500000000001
40
0.87500000000001
40
1
40
1
40
1
40
1
41
1
10
12.4277008188343
20
4.50971886009597
30
0
41
1
10
12.4350107291235
20
4.52684324494632
30
0
41
1
10
12.4459671043002
20
4.54280111488293
30
0
41
1
10
12.4743260837866
20
4.57268435553107
30
0
41
1
10
12.4917307843443
20
4.58660903042178
30
0
41
1
10
12.5221820645483
20
4.60614987627011
30
0
41
1
10
12.5330578023421
20
4.6124387163072
30
0
41
1
10
12.5561910591059
20
4.62459237040557
30
0
41
1
10
12.5684292021079
20
4.63044333803663
30
0
41
1
10
12.6066057320397
20
4.64719935870554
30
0
41
1
10
12.6341406938176
20
4.65738808055289
30
0
41
1
10
12.7219493864472
20
4.68554889286784
30
0
41
1
10
12.7873736102436
20
4.70114228553356
30
0
41
1
10
12.8755497660533
20
4.71781677982918
30
0
41
1
10
12.8935282959903
20
4.72101113253132
30
0
41
1
10
12.9298673500772
20
4.72709825829062
30
0
41
1
10
12.9850243047509
20
4.7357911298212
30
0
41
1
10
13.0419617227194
20
4.74329830611003
30
0
41
1
10
13.1578735932469
20
4.75699533394558
30
0
41
1
10
13.2378476442372
20
4.76438264877345
30
0
41
1
10
13.40199000653
20
4.77662983571818
30
0
41
1
10
13.4861675233517
20
4.78148269387512
30
0
41
1
10
13.6579784037561
20
4.78927389441208
30
0
41
1
10
13.7457589180454
20
4.79221045328418
30
0
41
1
10
13.9230313972173
20
4.79658143734889
30
0
41
1
10
14.0126443054033
20
4.79802233526217
30
0
41
1
10
14.284003869139
20
4.80065613237207
30
0
41
1
10
14.46824668481
20
4.80018400438414
30
0
41
1
10
14.7486712872251
20
4.797593784121
30
0
41
1
10
14.8428666248307
20
4.79640842042724
30
0
41
1
10
15.03204973778
20
4.79358167137977
30
0
41
1
10
15.2221393998106
20
4.79029761828693
30
0
41
1
10
15.4139494431434
20
4.78640756844877
30
0
41
1
10
15.6065932706154
20
4.78234799783931
30
0
41
1
10
15.7033002648227
20
4.78023408256701
30
0
41
1
10
15.9942069174889
20
4.77382812201091
30
0
41
1
10
16.1893227007635
20
4.76947255901072
30
0
41
1
10
16.3856406460551
20
4.76545339139776
30
0
0
SPLINE
5
119
100
AcDbEntity
8
1
62
256
6
ByLayer
370
18
48
1
60
0
100
AcDbSpline
70
4
71
3
72
8
73
4
40
0
40
0
40
0
40
0
40
1
40
1
40
1
40
1
41
1
10
32
20
-2.53310726194221
30
0
41
1
10
31.9819482806055
20
-2.42975167577833
30
0
41
1
10
31.9639001503376
20
-2.32602999548837
30
0
41
1
10
31.945857164998
20
-2.22195171152967
30
0
0
SPLINE
5
11A
100
AcDbEntity
8
1
62
256
6
ByLayer
370
18
48
1
60
0
100
AcDbSpline
70
4
71
3
72
11
73
7
40
0
40
0
40
0
40
0
40
0.25
40
0.5
40
0.75
40
1
40
1
40
1
40
1
41
1
10
17.0000000000001
20
1.1386867140919
30
0
41
1
10
17.0000000000001
20
1.00493170035273
30
0
41
1
10
17.0000000000001
20
0.685911210203585
30
0
41
1
10
17
20
0.0905857835377049
30
0
41
1
10
17.0000000000001
20
-0.567100503552723
30
0
41
1
10
17.0000000000001
20
-1.00562747818998
30
0
41
1
10
17.0000000000001
20
-1.21505264524222
30
0
0
SPLINE
5
11B
100
AcDbEntity
8
1
62
256
6
ByLayer
370
18
48
1
60
0
100
AcDbSpline
70
4
71
3
72
48
73
44
40
0
40
0
40
0
40
0
40
0.0751231516375597
40
0.213854678891926
40
0.352586206146292
40
0.445073890982536
40
0.53756157581878
40
0.630049260655024
40
0.699415024282207
40
0.757219827304859
40
0.791902709118451
40
0.815024630327512
40
0.832366071234308
40
0.846817271989971
40
0.855487992443369
40
0.861268472745634
40
0.867048953047899
40
0.875719673501297
40
0.89017087425696
40
0.907512315163756
40
0.930634236372817
40
0.947975677279613
40
0.962426878035276
40
0.971097598488674
40
0.976878078790939
40
0.981213439017638
40
0.984103679168771
40
0.98627135928212
40
0.987716479357686
40
0.989884159471036
40
0.990967999527711
40
0.99187119957494
40
0.992322799598554
40
0.992503439608
40
0.992638919615084
40
0.992729239619807
40
0.992864719626891
40
0.99313567964106
40
0.993677599669397
40
0.994580799716626
40
0.995664639773301
40
0.997109759848867
40
1
40
1
40
1
40
1
41
1
10
27.1364846753372
20
0.867571484950702
30
0
41
1
10
26.8826564502248
20
1.04249194314767
30
0
41
1
10
26.1600782251124
20
1.53518754159566
30
0
41
1
10
24.96875
20
2.30786621028687
30
0
41
0.999999999999999
10
23.7187500000001
20
3.02425952274254
30
0
41
1
10
22.625
20
3.56135550877045
30
0
41
1
10
21.6875000000001
20
3.95195528117844
30
0
41
1
10
20.8281250000001
20
4.23808107795628
30
0
41
0.999999999999999
10
20.0859375000001
20
4.42476072543469
30
0
41
1
10
19.5390625
20
4.52682205546975
30
0
41
0.999999999999999
10
19.1484375000001
20
4.58106363684365
30
0
41
1
10
18.89453125
20
4.60868412988517
30
0
41
0.999999999999998
10
18.708984375
20
4.62494234698088
30
0
41
1
10
18.572265625
20
4.63464047351931
30
0
41
0.999999999999999
10
18.4746093750001
20
4.64037864130592
30
0
41
1
10
18.40625
20
4.64387413096514
30
0
41
0.999999999999999
10
18.337890625
20
4.64695209542075
30
0
41
1
10
18.240234375
20
4.65060263230367
30
0
41
0.999999999999999
10
18.1035156250001
20
4.65403780561005
30
0
41
1
10
17.9179687500001
20
4.65556272128037
30
0
41
1
10
17.7226562500001
20
4.65294818744198
30
0
41
0.999999999999999
10
17.5371093750001
20
4.64643388270707
30
0
41
1
10
17.400390625
20
4.63929081099474
30
0
41
1
10
17.3027343750001
20
4.63296723781846
30
0
41
1
10
17.2392578125
20
4.6283596971995
30
0
41
0.999999999999999
10
17.1953125000001
20
4.62492856688957
30
0
41
1
10
17.16357421875
20
4.62232592104982
30
0
41
0.999999999999999
10
17.1416015625
20
4.62046366063857
30
0
41
1
10
17.1220703125002
20
4.6187699305808
30
0
41
0.999999999999992
10
17.1062011718751
20
4.61736257421587
30
0
41
1.00000000000002
10
17.0921630859378
20
4.61609275157461
30
0
41
0.999999999999985
10
17.0839233398438
20
4.61533850370064
30
0
41
1.00000000000001
10
17.0787353515628
20
4.61485977796827
30
0
41
0.999999999999996
10
17.0761413574218
20
4.61461952158927
30
0
41
1
10
17.0747680664063
20
4.61449209050726
30
0
41
0.999999999999997
10
17.0735473632813
20
4.61437866825265
30
0
41
1.00000000000001
10
17.0718688964845
20
4.6142225061483
30
0
41
0.999999999999995
10
17.0686645507813
20
4.61392366884734
30
0
41
1.00000000000001
10
17.0628662109376
20
4.61338034722115
30
0
41
0.999999999999994
10
17.0543212890624
20
4.61257293289173
30
0
41
1
10
17.0427246093751
20
4.61146459522083
30
0
41
0.999999999999998
10
17.0244140625
20
4.6096893394074
30
0
41
1
10
17.0097656250001
20
4.60823449545105
30
0
41
1
10
17
20
4.60724919365484
30
0
0
SPLINE
5
11C
100
AcDbEntity
8
1
62
256
6
ByLayer
370
18
48
1
60
0
100
AcDbSpline
70
4
71
3
72
8
73
4
40
0
40
0
40
0
40
0
40
1
40
1
40
1
40
1
41
1
10
31.4159430412666
20
-3.65468118754325
30
0
41
1
10
31.4495848027466
20
-3.68601711900808
30
0
41
1
10
31.4840197229349
20
-3.71524943689011
30
0
41
1
10
31.5192952866152
20
-3.74225222267566
30
0
0
SPLINE
5
11D
100
AcDbEntity
8
1
62
256
6
ByLayer
370
13
48
1
60
0
100
AcDbSpline
70
4
71
3
72
8
73
4
40
0
40
0
40
0
40
0
40
1
40
1
40
1
40
1
41
1
10
31.4159430446002
20
-3.65468118866079
30
0
41
1
10
31.3905649161573
20
-3.66336384933922
30
0
41
1
10
31.3651867877144
20
-3.6719855652014
30
0
41
1
10
31.3398086592715
20
-3.68054606446122
30
0
0
SPLINE
5
11E
100
AcDbEntity
8
1
62
256
6
ByLayer
370
13
48
1
60
0
100
AcDbSpline
70
4
71
3
72
49
73
45
40
0
40
0
40
0
40
0
40
0.0332035732213205
40
0.194336311017767
40
0.315185864365102
40
0.436035417712437
40
0.51660178661066
40
0.597168155508884
40
0.677734524407107
40
0.738159301080774
40
0.788513281642164
40
0.818725669978998
40
0.838867262203553
40
0.85397345637197
40
0.866561951512318
40
0.874115048596526
40
0.879150446652665
40
0.884185844708804
40
0.891738941793012
40
0.90432743693336
40
0.919433631101777
40
0.939575223326333
40
0.954681417494749
40
0.967269912635097
40
0.974823009719305
40
0.979858407775444
40
0.983634956317548
40
0.986152655345618
40
0.98804092961667
40
0.989299779130705
40
0.991188053401757
40
0.992132190537283
40
0.992918971483555
40
0.99331236195669
40
0.993469718145945
40
0.993587735287885
40
0.993666413382513
40
0.993784430524454
40
0.994020464808335
40
0.994492533376098
40
0.99527931432237
40
0.996223451457896
40
0.997482300971931
40
1
40
1
40
1
40
1
41
1
10
28.6363690311564
20
-4.34873719734716
30
0
41
1
10
28.5075793541044
20
-4.36837859812297
30
0
41
1
10
27.7537896770523
20
-4.4726550837681
30
0
41
1
10
26.5312500000001
20
-4.53840260866122
30
0
41
1
10
24.9687500000001
20
-4.42694494453664
30
0
41
1
10
23.7187500000001
20
-4.20714473827189
30
0
41
1
10
22.6250000000001
20
-3.92461345948843
30
0
41
1
10
21.6875000000002
20
-3.62414587451809
30
0
41
1
10
20.8281250000002
20
-3.29985980262302
30
0
41
1
10
20.0859375000001
20
-2.98629454788423
30
0
41
1
10
19.5390625000001
20
-2.73743651160922
30
0
41
1
10
19.1484375000002
20
-2.55127537328977
30
0
41
1
10
18.8945312500001
20
-2.42708111719838
30
0
41
1
10
18.7089843750001
20
-2.33477280796473
30
0
41
1
10
18.5722656250001
20
-2.26589420964251
30
0
41
1
10
18.4746093750001
20
-2.21626334548046
30
0
41
1
10
18.4062500000001
20
-2.18133702582713
30
0
41
1
10
18.3378906250001
20
-2.14626520313894
30
0
41
1
10
18.2402343750001
20
-2.09590684498991
30
0
41
1
10
18.1035156250002
20
-2.02484599885165
30
0
41
1
10
17.9179687500001
20
-1.92740623170235
30
0
41
1
10
17.7226562500002
20
-1.82356694719542
30
0
41
1
10
17.5371093750001
20
-1.72380601431539
30
0
41
1
10
17.4003906250002
20
-1.64968200921999
30
0
41
1
10
17.3027343750002
20
-1.59640948458505
30
0
41
1
10
17.2392578125001
20
-1.56164883697568
30
0
41
1
10
17.1953125000001
20
-1.53751887786902
30
0
41
1
10
17.1635742187502
20
-1.52005815935942
30
0
41
1
10
17.1416015625001
20
-1.50795371225118
30
0
41
1
10
17.1220703125003
20
-1.49718387849859
30
0
41
1
10
17.1062011718752
20
-1.4884249983794
30
0
41
1
10
17.0921630859382
20
-1.48067007820651
30
0
41
1
10
17.0839233398433
20
-1.47611588124914
30
0
41
1
10
17.078735351563
20
-1.4732473953971
30
0
41
1
10
17.076141357422
20
-1.47181291249743
30
0
41
1
10
17.0747680664064
20
-1.47105341685267
30
0
41
1
10
17.0735473632814
20
-1.47037826928263
30
0
41
1
10
17.0718688964847
20
-1.46944988592031
30
0
41
1
10
17.0686645507814
20
-1.46767732712777
30
0
41
1
10
17.0628662109378
20
-1.46446915018461
30
0
41
1
10
17.0543212890626
20
-1.45973950393812
30
0
41
1
10
17.0427246093753
20
-1.45331732770364
30
0
41
1
10
17.0244140625001
20
-1.44317027747945
30
0
41
1
10
17.0097656250002
20
-1.4350433533892
30
0
41
1
10
17.0000000000001
20
-1.42962128159553
30
0
0
SPLINE
5
11F
100
AcDbEntity
8
1
62
256
6
ByLayer
370
18
48
1
60
0
100
AcDbSpline
70
4
71
3
72
8
73
4
40
0
40
0
40
0
40
0
40
1
40
1
40
1
40
1
41
1
10
31.9468457984026
20
-3.0147792577315
30
0
41
1
10
31.9292997699618
20
-3.08637192622578
30
0
41
1
10
31.9117823332444
20
-3.15737504317812
30
0
41
1
10
31.8942933150807
20
-3.22779219505483
30
0
0
SPLINE
5
120
100
AcDbEntity
8
1
62
256
6
ByLayer
370
18
48
1
60
0
100
AcDbSpline
70
4
71
3
72
8
73
4
40
0
40
0
40
0
40
0
40
1
40
1
40
1
40
1
41
1
10
31.8942933150807
20
-3.22779219505483
30
0
41
1
10
31.775146390093
20
-3.39860286538448
30
0
41
1
10
31.6571116625542
20
-3.56138113360652
30
0
41
1
10
31.5401693575786
20
-3.7162698159396
30
0
0
SPLINE
5
121
100
AcDbEntity
8
1
62
256
6
ByLayer
370
18
48
1
60
0
100
AcDbSpline
70
4
71
3
72
8
73
4
40
0
40
0
40
0
40
0
40
1
40
1
40
1
40
1
41
1
10
31.5401693575788
20
-3.71626981593963
30
0
41
1
10
31.5332099336964
20
-3.72495708947736
30
0
41
1
10
31.5262519100783
20
-3.73361789103464
30
0
41
1
10
31.5192952866149
20
-3.74225222268098
30
0
0
SPLINE
5
122
100
AcDbEntity
8
1
62
256
6
ByLayer
370
18
48
1
60
0
100
AcDbSpline
70
4
71
3
72
8
73
4
40
0
40
0
40
0
40
0
40
1
40
1
40
1
40
1
41
1
10
31.5192952866024
20
-3.74225222268353
30
0
41
1
10
31.3951174557994
20
-3.79101830708365
30
0
41
1
10
31.2709729197569
20
-3.83829924074172
30
0
41
1
10
31.1468296128138
20
-3.88406605489246
30
0
0
SPLINE
5
123
100
AcDbEntity
8
1
62
256
6
ByLayer
370
18
48
1
60
0
100
AcDbSpline
70
4
71
3
72
58
73
54
40
0
40
0
40
0
40
0
40
0.007868603213127
40
0.007868603213127
40
0.0249743169508297
40
0.0249743169508297
40
0.0420800306885324
40
0.0762914581639399
40
0.0762914581639399
40
0.110502885639348
40
0.110502885639348
40
0.178925740590163
40
0.178925740590163
40
0.247348595540977
40
0.247348595540977
40
0.281560023016385
40
0.281560023016385
40
0.315771450491793
40
0.315771450491793
40
0.332877164229496
40
0.332877164229496
40
0.3499828779672
40
0.38419430544261
40
0.38419430544261
40
0.41840573291802
40
0.41840573291802
40
0.452617160393429
40
0.452617160393429
40
0.521040015344249
40
0.521040015344249
40
0.589462870295068
40
0.589462870295068
40
0.623674297770478
40
0.623674297770478
40
0.657885725245888
40
0.657885725245888
40
0.692097152721298
40
0.692097152721298
40
0.709202866459003
40
0.709202866459003
40
0.726308580196708
40
0.726308580196708
40
0.760520007672119
40
0.760520007672119
40
0.79473143514753
40
0.79473143514753
40
0.863154290098353
40
0.863154290098353
40
0.931577145049176
40
0.931577145049176
40
0.965788572524588
40
0.965788572524588
40
1
40
1
40
1
40
1
41
1
10
30.256131515412
20
-4.18590763432965
30
0
41
1
10
30.2211320005645
20
-4.19670292937977
30
0
41
1
10
30.1861262087678
20
-4.20737163742214
30
0
41
1
10
30.0749981894715
20
-4.24082858295694
30
0
41
1
10
29.9988107421943
20
-4.26315246795042
30
0
41
1
10
29.8465533877137
20
-4.30651636526827
30
0
41
1
10
29.6184122809681
20
-4.36961993140648
30
0
41
1
10
29.3909382866265
20
-4.42683797613671
30
0
41
1
10
29.0881229008639
20
-4.49772121414245
30
0
41
1
10
28.9369601759829
20
-4.53044549148566
30
0
41
1
10
28.4838486393586
20
-4.62064836703973
30
0
41
1
10
28.1822296658646
20
-4.67025740181219
30
0
41
1
10
27.5788245178363
20
-4.74803363682923
30
0
41
1
10
27.2770623156408
20
-4.77623431840382
30
0
41
1
10
26.8236345064934
20
-4.80160285276619
30
0
41
1
10
26.6723569071182
20
-4.80723457964817
30
0
41
1
10
26.3693412096106
20
-4.81296603255601
30
0
41
1
10
26.2176022318809
20
-4.81307750875385
30
0
41
1
10
25.9895349361788
20
-4.80905560264111
30
0
41
1
10
25.913377641787
20
-4.80701390294823
30
0
41
1
10
25.7612027267391
20
-4.80153285931283
30
0
41
1
10
25.5332281999905
20
-4.79122058413395
30
0
41
1
10
25.3060321587135
20
-4.77467406549241
30
0
41
1
10
25.0036536750956
20
-4.7471051329801
30
0
41
1
10
24.8527401734307
20
-4.73055724964567
30
0
41
1
10
24.5513318646268
20
-4.69199250387032
30
0
41
1
10
24.4008296324181
20
-4.67000101620417
30
0
41
1
10
23.9496350605184
20
-4.59637217737716
30
0
41
1
10
23.6492985303435
20
-4.53697420145886
30
0
41
1
10
23.0486359035667
20
-4.39753508256078
30
0
41
1
10
22.7482908709015
20
-4.31757154170208
30
0
41
1
10
22.2969158293808
20
-4.18233925264272
30
0
41
1
10
22.1462983189181
20
-4.13478214948117
30
0
41
1
10
21.844550385348
20
-4.03504640932439
30
0
41
1
10
21.6934248654388
20
-3.98284174237486
30
0
41
1
10
21.3905419004852
20
-3.87373625942291
30
0
41
1
10
21.2387871765423
20
-3.81683265221636
30
0
41
1
10
21.0105929055237
20
-3.72789692197063
30
0
41
1
10
20.9343902582051
20
-3.69763624593941
30
0
41
1
10
20.7822475746394
20
-3.63610305218776
30
0
41
1
10
20.7062593108448
20
-3.60481255823382
30
0
41
1
10
20.4785253045032
20
-3.50937861005966
30
0
41
1
10
20.3270356862054
20
-3.44359810001691
30
0
41
1
10
20.0243657663826
20
-3.30851484194781
30
0
41
1
10
19.8731898709533
20
-3.23920691318418
30
0
41
1
10
19.4200029006252
20
-3.02605933790218
30
0
41
1
10
19.1183235685624
20
-2.87703335928211
30
0
41
1
10
18.5148323044938
20
-2.56605415178015
30
0
41
1
10
18.21302279328
20
-2.40406388506989
30
0
41
1
10
17.7591814849901
20
-2.15278331134132
30
0
41
1
10
17.6077028403078
20
-2.06767402844179
30
0
41
1
10
17.3042207539947
20
-1.89492476118312
30
0
41
1
10
17.1522366495715
20
-1.80724493480449
30
0
41
1
10
17.0000000000001
20
-1.71825394320811
30
0
0
SPLINE
5
124
100
AcDbEntity
8
1
62
256
6
ByLayer
370
18
48
1
60
0
100
AcDbSpline
70
4
71
3
72
8
73
4
40
0
40
0
40
0
40
0
40
1
40
1
40
1
40
1
41
1
10
17.0000000000001
20
-1.71825394320811
30
0
41
1
10
16.85253826635
20
-1.64480027638729
30
0
41
1
10
16.7056403640591
20
-1.56982475648505
30
0
41
1
10
16.5593511371618
20
-1.49320634370653
30
0
0
SPLINE
5
125
100
AcDbEntity
8
1
62
256
6
ByLayer
370
18
48
1
60
0
100
AcDbSpline
70
4
71
3
72
8
73
4
40
0
40
0
40
0
40
0
40
1
40
1
40
1
40
1
41
1
10
31.9458571621062
20
-2.22195171205337
30
0
41
1
10
31.9286446752403
20
-2.11358816649747
30
0
41
1
10
31.9114636135835
20
-2.00504905878202
30
0
41
1
10
31.8943137902351
20
-1.89633540167796
30
0
0
SPLINE
5
126
100
AcDbEntity
8
1
62
256
6
ByLayer
370
18
48
1
60
0
100
AcDbSpline
70
4
71
3
72
8
73
4
40
0
40
0
40
0
40
0
40
1
40
1
40
1
40
1
41
1
10
31.894313790235
20
-1.89633540167796
30
0
41
1
10
31.7729286131987
20
-1.63800823404839
30
0
41
1
10
31.6528373265055
20
-1.37637174762511
30
0
41
1
10
31.5340221024496
20
-1.11147153944179
30
0
0
SPLINE
5
127
100
AcDbEntity
8
1
62
256
6
ByLayer
370
18
48
1
60
0
100
AcDbSpline
70
4
71
3
72
8
73
4
40
0
40
0
40
0
40
0
40
1
40
1
40
1
40
1
41
1
10
31.5340221024495
20
-1.11147153944179
30
0
41
1
10
31.5183095763871
20
-1.07855697284163
30
0
41
1
10
31.5026050959389
20
-1.04559491984753
30
0
41
1
10
31.4869086665553
20
-1.01258534828989
30
0
0
SPLINE
5
128
100
AcDbEntity
8
1
62
256
6
ByLayer
370
18
48
1
60
0
100
AcDbSpline
70
4
71
3
72
8
73
4
40
0
40
0
40
0
40
0
40
1
40
1
40
1
40
1
41
1
10
31.3796867787851
20
-0.688484695894118
30
0
41
1
10
31.4144091428004
20
-0.795044106260491
30
0
41
1
10
31.4501283640372
20
-0.903046667063592
30
0
41
1
10
31.4869086665554
20
-1.01258534828983
30
0
0
SPLINE
5
129
100
AcDbEntity
8
1
62
256
6
ByLayer
370
13
48
1
60
0
100
AcDbSpline
70
4
71
3
72
11
73
7
40
0
40
0
40
0
40
0
40
0.0644881672659857
40
0.35039694720621
40
0.636305727146435
40
1
40
1
40
1
40
1
41
1
10
31.3796867797722
20
-0.688484694491137
30
0
41
1
10
31.2739578531815
20
-0.617021928466045
30
0
41
1
10
30.6994789265908
20
-0.226220655427426
30
0
41
1
10
29.6562500000001
20
0.484588503748398
30
0
41
1
10
28.1224699891667
20
1.50585521158502
30
0
41
1
10
27.0574399783334
20
2.16238509129855
30
0
41
1
10
26.4611599675
20
2.49938037908908
30
0
0
SPLINE
5
12A
100
AcDbEntity
8
1
62
256
6
ByLayer
370
18
48
1
60
0
100
AcDbSpline
70
4
71
3
72
54
73
50
40
0
40
0
40
0
40
0
40
0.0400328271846084
40
0.0400328271846084
40
0.0800656543692167
40
0.0800656543692167
40
0.120098481553825
40
0.120098481553825
40
0.140114895146128
40
0.140114895146128
40
0.160131308738431
40
0.160131308738431
40
0.240196963107648
40
0.240196963107648
40
0.320262617476865
40
0.320262617476865
40
0.360295444661472
40
0.360295444661472
40
0.400328271846079
40
0.440361099030686
40
0.440361099030686
40
0.460377512622991
40
0.460377512622991
40
0.470385719419143
40
0.470385719419143
40
0.480393926215296
40
0.480393926215296
40
0.560459580584517
40
0.560459580584517
40
0.640525234953737
40
0.640525234953737
40
0.680558062138347
40
0.680558062138347
40
0.720590889322956
40
0.720590889322956
40
0.800656543692174
40
0.800656543692174
40
0.810664750488327
40
0.810664750488327
40
0.820672957284479
40
0.840689370876784
40
0.840689370876784
40
0.880722198061393
40
0.880722198061393
40
0.920755025246001
40
0.920755025246001
40
0.96078785243061
40
0.96078785243061
40
1
40
1
40
1
40
1
41
1
10
31.4869086665549
20
-1.01258534828983
30
0
41
1
10
31.3354916392201
20
-0.904647502737504
30
0
41
1
10
31.1845254223468
20
-0.795555205070087
30
0
41
1
10
30.8821831395901
20
-0.576871272476041
30
0
41
1
10
30.7308429109052
20
-0.467233310691341
30
0
41
1
10
30.4277198972081
20
-0.24750668547739
30
0
41
1
10
30.2759407447688
20
-0.137411104262355
30
0
41
1
10
30.0478457421532
20
0.0279521802567331
30
0
41
1
10
29.9717339605741
20
0.0831129975678948
30
0
41
1
10
29.8198618793959
20
0.193092778125788
30
0
41
1
10
29.7440362406543
20
0.247959042331956
30
0
41
1
10
29.3653930438365
20
0.521598680107473
30
0
41
1
10
29.0640416089483
20
0.738314844437838
30
0
41
1
10
28.4627670821446
20
1.16512953470601
30
0
41
1
10
28.1628423733731
20
1.37522891701488
30
0
41
1
10
27.7127747874259
20
1.68356577315575
30
0
41
1
10
27.5627086006253
20
1.78520208061124
30
0
41
1
10
27.2621996629583
20
1.98585193468483
30
0
41
1
10
26.9613228613154
20
2.18388291932661
30
0
41
1
10
26.6592227020936
20
2.37598627300415
30
0
41
1
10
26.4319943039248
20
2.51756222592542
30
0
41
1
10
26.3561422856627
20
2.56433679318491
30
0
41
1
10
26.2421762647886
20
2.63383739207697
30
0
41
1
10
26.2041359746658
20
2.65690632901044
30
0
41
1
10
26.1281377900602
20
2.7027288881375
30
0
41
1
10
26.090170550773
20
2.72548836020872
30
0
41
1
10
25.7487359814416
20
2.92894243231939
30
0
41
1
10
25.4471923817748
20
3.09993152988943
30
0
41
1
10
24.8456664813456
20
3.42092886208081
30
0
41
1
10
24.5457028784469
20
3.57092030706491
30
0
41
1
10
24.0956537527037
20
3.77880899773169
30
0
41
1
10
23.9456288239985
20
3.84525971435289
30
0
41
1
10
23.6453565848479
20
3.97224626051821
30
0
41
1
10
23.4951118677277
20
4.03277169124928
30
0
41
1
10
23.0436419656977
20
4.20524974729787
30
0
41
1
10
22.741669658323
20
4.30823130585796
30
0
41
1
10
22.3997855886488
20
4.40900608061122
30
0
41
1
10
22.3617477338515
20
4.42000098822424
30
0
41
1
10
22.2857547900265
20
4.44153153140249
30
0
41
1
10
22.171860404034
20
4.47314659078279
30
0
41
1
10
22.0582224452352
20
4.50274083907101
30
0
41
1
10
21.8312414619274
20
4.55923447172876
30
0
41
1
10
21.6803210292792
20
4.59329360442231
30
0
41
1
10
21.3791188739709
20
4.653942762226
30
0
41
1
10
21.2288078848308
20
4.68059215352139
30
0
41
1
10
20.9284075086179
20
4.72680604114561
30
0
41
1
10
20.7783453980112
20
4.74629973959142
30
0
41
1
10
20.4813713642178
20
4.77760376034433
30
0
41
1
10
20.3344702159171
20
4.78954137583938
30
0
41
1
10
20.1875041169263
20
4.7979518412387
30
0
0
SPLINE
5
12B
100
AcDbEntity
8
1
62
256
6
ByLayer
370
18
48
1
60
0
100
AcDbSpline
70
4
71
3
72
31
73
27
40
0
40
0
40
0
40
0
40
0.123012582515671
40
0.123012582515671
40
0.184518873773505
40
0.184518873773505
40
0.215272019402423
40
0.215272019402423
40
0.24602516503134
40
0.24602516503134
40
0.492050330062682
40
0.492050330062682
40
0.5228034756916
40
0.5228034756916
40
0.553556621320518
40
0.615062912578356
40
0.615062912578356
40
0.738075495094034
40
0.738075495094034
40
0.799581786351871
40
0.799581786351871
40
0.861088077609707
40
0.861088077609707
40
0.984100660125376
40
0.984100660125376
40
1
40
1
40
1
40
1
41
1
10
17.0000000000001
20
-2.96535790723408
30
0
41
1
10
17.3080602587517
20
-3.12646227690442
30
0
41
1
10
17.6155799049131
20
-3.28017578236441
30
0
41
1
10
18.0770387991778
20
-3.49851607857795
30
0
41
1
10
18.2308888651437
20
-3.5692582363624
30
0
41
1
10
18.4618375944134
20
-3.67216682401812
30
0
41
1
10
18.538861788549
20
-3.70594079264097
30
0
41
1
10
18.6927653812543
20
-3.77230364343356
30
0
41
1
10
18.7696714737773
20
-3.80490463230623
30
0
41
1
10
19.4615105701334
20
-4.09301711571584
30
0
41
1
10
20.0742742021562
20
-4.311538190433
30
0
41
1
10
20.7669506414127
20
-4.50972412616713
30
0
41
1
10
20.8439941277854
20
-4.53109451830906
30
0
41
1
10
20.9979730648159
20
-4.57244489982
30
0
41
1
10
21.2287913644311
20
-4.63239023704938
30
0
41
1
10
21.4592499387597
20
-4.68607115256057
30
0
41
1
10
21.9199346157713
20
-4.78497433556171
30
0
41
1
10
22.2267463937788
20
-4.83962569200668
30
0
41
1
10
22.687525522983
20
-4.90411887112765
30
0
41
1
10
22.8412129462187
20
-4.92270060223044
30
0
41
1
10
23.1489449804427
20
-4.95397630027901
30
0
41
1
10
23.3030601639238
20
-4.96667054068519
30
0
41
1
10
23.7645566112624
20
-4.9957542261601
30
0
41
1
10
24.071600490546
20
-5.00322007161552
30
0
41
1
10
24.418329676294
20
-4.99818450713408
30
0
41
1
10
24.4580147733993
20
-4.9974086958205
30
0
41
1
10
24.497701031259
20
-4.99643347975291
30
0
0
SPLINE
5
12C
100
AcDbEntity
8
1
62
256
6
ByLayer
370
18
48
1
60
0
100
AcDbSpline
70
4
71
3
72
10
73
6
40
0
40
0
40
0
40
0
40
0.594027267740896
40
0.594027267740896
40
1
40
1
40
1
40
1
41
1
10
25.2223999876082
20
-4.95651149289716
30
0
41
1
10
25.2483887197762
20
-4.95428916739385
30
0
41
1
10
25.2743815658238
20
-4.95198175436866
30
0
41
1
10
25.3181461371604
20
-4.94795418626771
30
0
41
1
10
25.335917066568
20
-4.94627916196382
30
0
41
1
10
25.3536908763163
20
-4.94456433198559
30
0
0
SPLINE
5
12D
100
AcDbEntity
8
1
62
256
6
ByLayer
370
18
48
1
60
0
100
AcDbSpline
70
4
71
3
72
22
73
18
40
0
40
0
40
0
40
0
40
0.027013089361328
40
0.0925908612585565
40
0.158168633155785
40
0.223746405053013
40
0.35490194884747
40
0.387690834796085
40
0.420479720744699
40
0.486057492641927
40
0.617213036436384
40
0.682790808333613
40
0.748368580230841
40
0.813946352128069
40
0.879524124025298
40
0.945101895922526
40
1
40
1
40
1
40
1
41
1
10
16.9986303665484
20
-2.89937170205124
30
0
41
1
10
17.0731405149827
20
-2.93878822820565
30
0
41
1
10
17.328527663153
20
-3.07249548861279
30
0
41
1
10
17.7647737755912
20
-3.2923768607711
30
0
41
1
10
18.3074068532836
20
-3.54950081043796
30
0
41
1
10
19.0310212791231
20
-3.86883455663309
30
0
41
1
10
19.6643659734959
20
-4.115433016922
30
0
41
1
10
20.2074385530491
20
-4.30070747413373
30
0
41
1
10
20.5695467205429
20
-4.41710753033266
30
0
41
1
10
21.2033914588131
20
-4.60161327068545
30
0
41
1
10
21.9280754827963
20
-4.76733501715069
30
0
41
1
10
22.6529355606482
20
-4.88530271264369
30
0
41
1
10
23.1966392403118
20
-4.94932644037851
30
0
41
1
10
23.7403672097837
20
-4.98870999888064
30
0
41
1
10
24.2840861609497
20
-5.00327432195144
30
0
41
1
10
24.7981961446841
20
-4.99347601916435
30
0
41
1
10
25.1310996862816
20
-4.97309267438291
30
0
41
1
10
25.2828262328631
20
-4.96091466938486
30
0
0
SPLINE
5
12E
100
AcDbEntity
8
1
62
256
6
ByLayer
370
18
48
1
60
0
100
AcDbSpline
70
4
71
3
72
16
73
12
40
0
40
0
40
0
40
0
40
0.499999999999993
40
0.499999999999993
40
0.624999999999993
40
0.624999999999993
40
0.687499999999993
40
0.687499999999993
40
0.749999999999992
40
0.749999999999992
40
1
40
1
40
1
40
1
41
1
10
13.9867092083429
20
2.7942214128125
30
0
41
1
10
13.7669731275448
20
3.14451764094301
30
0
41
1
10
13.5489789148335
20
3.45302729458942
30
0
41
1
10
13.2545886492831
20
3.78206534527917
30
0
41
1
10
13.1946133130222
20
3.84503914332643
30
0
41
1
10
13.1025062538088
20
3.93515121892119
30
0
41
1
10
13.0714461115431
20
3.96446372446818
30
0
41
1
10
13.0085208178752
20
4.02162188738819
30
0
41
1
10
12.9766470073323
20
4.04947161615664
30
0
41
1
10
12.8158113117816
20
4.18438508593198
30
0
41
1
10
12.6818882955375
20
4.2789920811193
30
0
41
1
10
12.5399873905264
20
4.36082548222817
30
0
0
SPLINE
5
12F
100
AcDbEntity
8
1
62
256
6
ByLayer
370
18
48
1
60
0
100
AcDbSpline
70
4
71
3
72
34
73
30
40
0
40
0
40
0
40
0
40
0.249999999999976
40
0.249999999999976
40
0.374999999999945
40
0.374999999999945
40
0.499999999999914
40
0.499999999999914
40
0.562499999999915
40
0.562499999999915
40
0.624999999999917
40
0.624999999999917
40
0.687499999999918
40
0.687499999999918
40
0.718749999999926
40
0.718749999999926
40
0.749999999999934
40
0.749999999999934
40
0.781249999999942
40
0.781249999999942
40
0.812499999999951
40
0.812499999999951
40
0.843749999999959
40
0.843749999999959
40
0.874999999999967
40
0.874999999999967
40
0.937499999999983
40
0.937499999999983
40
1
40
1
40
1
40
1
41
1
10
13.7393915881408
20
0.361792404637015
30
0
41
1
10
13.7141753467896
20
0.382837601108633
30
0
41
1
10
13.689524364874
20
0.404451398282134
30
0
41
1
10
13.6540478029687
20
0.438390112630998
30
0
41
1
10
13.6424758202742
20
0.449959646442039
30
0
41
1
10
13.620092346122
20
0.473870672961795
30
0
41
1
10
13.6092353194864
20
0.486242553408061
30
0
41
1
10
13.5940581166445
20
0.505648647101793
30
0
41
1
10
13.5891961056297
20
0.512247919722881
30
0
41
1
10
13.5800367667656
20
0.52582140356958
30
0
41
1
10
13.575733538128
20
0.532791674905042
30
0
41
1
10
13.5680283829979
20
0.547331792317749
30
0
41
1
10
13.5646363920439
20
0.55485282187945
30
0
41
1
10
13.5609381246549
20
0.566650040623585
30
0
41
1
10
13.5599547555744
20
0.570634031546689
30
0
41
1
10
13.5586973884869
20
0.578695637446913
30
0
41
1
10
13.5584193204684
20
0.582818165247261
30
0
41
1
10
13.5589204753348
20
0.59104611288447
30
0
41
1
10
13.5596959048203
20
0.595084757244848
30
0
41
1
10
13.5625812369077
20
0.602856727531758
30
0
41
1
10
13.5646210638413
20
0.606400113246565
30
0
41
1
10
13.5698494906883
20
0.612828339520036
30
0
41
1
10
13.5729448673292
20
0.615594928004015
30
0
41
1
10
13.5797453459538
20
0.620348891734665
30
0
41
1
10
13.5833978205892
20
0.622306534652921
30
0
41
1
10
13.594687681882
20
0.627244374439073
30
0
41
1
10
13.6027814716536
20
0.629366557884111
30
0
41
1
10
13.6189822522648
20
0.632273804409579
30
0
41
1
10
13.6271825947567
20
0.633070685303466
30
0
41
1
10
13.6354432450079
20
0.633471390050431
30
0
0
SPLINE
5
130
100
AcDbEntity
8
1
62
256
6
ByLayer
370
18
48
1
60
0
100
AcDbSpline
70
4
71
3
72
56
73
52
40
0
40
0
40
0
40
0
40
0.0624999999999776
40
0.0624999999999776
40
0.0937499999999663
40
0.0937499999999663
40
0.109374999999961
40
0.109374999999961
40
0.124999999999955
40
0.124999999999955
40
0.156249999999951
40
0.156249999999951
40
0.187499999999946
40
0.187499999999946
40
0.203124999999944
40
0.203124999999944
40
0.218749999999942
40
0.249999999999937
40
0.249999999999937
40
0.265624999999937
40
0.265624999999937
40
0.281249999999937
40
0.312499999999937
40
0.312499999999937
40
0.328124999999939
40
0.328124999999939
40
0.343749999999941
40
0.343749999999941
40
0.374999999999944
40
0.374999999999944
40
0.406249999999947
40
0.406249999999947
40
0.43749999999995
40
0.43749999999995
40
0.499999999999956
40
0.499999999999956
40
0.562499999999961
40
0.562499999999961
40
0.593749999999964
40
0.593749999999964
40
0.624999999999967
40
0.624999999999967
40
0.687499999999973
40
0.687499999999973
40
0.749999999999978
40
0.749999999999978
40
0.812499999999984
40
0.812499999999984
40
0.874999999999989
40
0.874999999999989
40
1
40
1
40
1
40
1
41
1
10
13.6354432450079
20
0.633471390050431
30
0
41
1
10
13.6976958488746
20
0.636491117689417
30
0
41
1
10
13.7596181227908
20
0.642024171156777
30
0
41
1
10
13.8517850667045
20
0.655767417038163
30
0
41
1
10
13.8823868664874
20
0.661264084336011
30
0
41
1
10
13.9280655601934
20
0.671208914913962
30
0
41
1
10
13.9432530523713
20
0.674809403438644
30
0
41
1
10
13.973338555057
20
0.682590109052825
30
0
41
1
10
13.9882610142896
20
0.686775316148811
30
0
41
1
10
14.0326332836259
20
0.700298469078859
30
0
41
1
10
14.0616900319204
20
0.710599070071368
30
0
41
1
10
14.1185293254881
20
0.734313569228732
30
0
41
1
10
14.1463129248319
20
0.747724983822764
30
0
41
1
10
14.1868069622056
20
0.770720392049299
30
0
41
1
10
14.2001608609034
20
0.778903618536532
30
0
41
1
10
14.2261425977809
20
0.7961564846687
30
0
41
1
10
14.2639461414022
20
0.823294678159442
30
0
41
1
10
14.2981039759785
20
0.854348984766375
30
0
41
1
10
14.329646884651
20
0.88819489749514
30
0
41
1
10
14.3397388820768
20
0.899959311498378
30
0
41
1
10
14.3589643598565
20
0.924375828772639
30
0
41
1
10
14.386036474554
20
0.96190669308757
30
0
41
1
10
14.4080885649312
20
1.00199454019952
30
0
41
1
10
14.4271303151843
20
1.04359120412562
30
0
41
1
10
14.4329754490047
20
1.05770844594727
30
0
41
1
10
14.4437126842533
20
1.08641635666317
30
0
41
1
10
14.4485745025926
20
1.10093287650341
30
0
41
1
10
14.4616717652139
20
1.14455435258304
30
0
41
1
10
14.4684855489841
20
1.17388502955217
30
0
41
1
10
14.4790098541493
20
1.2329153231216
30
0
41
1
10
14.4827175435737
20
1.26261543641044
30
0
41
1
10
14.4875527611923
20
1.32229073822776
30
0
41
1
10
14.4886743742647
20
1.35237273052687
30
0
41
1
10
14.4887766495817
20
1.44175238743287
30
0
41
1
10
14.4846063941971
20
1.50043316467452
30
0
41
1
10
14.4704900398497
20
1.61633957938298
30
0
41
1
10
14.4605114373754
20
1.67356103902486
30
0
41
1
10
14.4422565735248
20
1.75844062657248
30
0
41
1
10
14.4356171234033
20
1.78657417430114
30
0
41
1
10
14.4213499147319
20
1.84253794903154
30
0
41
1
10
14.4137296998317
20
1.87033314642625
30
0
41
1
10
14.3896575243292
20
1.95288104154912
30
0
41
1
10
14.3719697984439
20
2.00693001004296
30
0
41
1
10
14.3339113352461
20
2.11329079124249
30
0
41
1
10
14.3135365805246
20
2.16560117607111
30
0
41
1
10
14.2704628937793
20
2.26862799990346
30
0
41
1
10
14.2477331786393
20
2.31940271608761
30
0
41
1
10
14.2003186533864
20
2.41914766132643
30
0
41
1
10
14.1756540497538
20
2.46808190887504
30
0
41
1
10
14.0990328699666
20
2.61224654777391
30
0
41
1
10
14.0444701208841
20
2.7048499386448
30
0
41
1
10
13.9867092083429
20
2.7942214128125
30
0
0
SPLINE
5
131
100
AcDbEntity
8
1
62
256
6
ByLayer
370
18
48
1
60
0
100
AcDbSpline
70
4
71
3
72
29
73
25
40
0
40
0
40
0
40
0
40
0.0024812054438695
40
0.0442047165944976
40
0.0859282277451257
40
0.127651738895754
40
0.169375250046382
40
0.190237005621696
40
0.21109876119701
40
0.252822272347638
40
0.294545783498266
40
0.336269294648895
40
0.377992805799523
40
0.419716316950151
40
0.503163339251407
40
0.544886850402035
40
0.586610361552663
40
0.67005738385392
40
0.711780895004548
40
0.753504406155176
40
0.836951428456432
40
0.87867493960706
40
0.920398450757689
40
1
40
1
40
1
40
1
41
1
10
18.7960067218246
20
4.96116512393945
30
0
41
1
10
18.806791696844
20
4.96073999405183
30
0
41
1
10
18.9989350514995
20
4.95281607451795
30
0
41
1
10
19.37243803969
20
4.92530433386372
30
0
41
1
10
19.9164029131924
20
4.85203599282465
30
0
41
1
10
20.460131397675
20
4.74638052411842
30
0
41
1
10
20.9129496178688
20
4.63173357976879
30
0
41
1
10
21.2749583833249
20
4.5246965280885
30
0
41
1
10
21.6367835195822
20
4.40770043761933
30
0
41
1
10
22.0886916952839
20
4.24286850615397
30
0
41
1
10
22.6301523936919
20
4.01727974427746
30
0
41
1
10
23.1706285529128
20
3.76529080461788
30
0
41
1
10
23.7099305706795
20
3.48911917107367
30
0
41
1
10
24.4276389897742
20
3.09082162981952
30
0
41
1
10
25.1445215280334
20
2.65103948512237
30
0
41
1
10
25.8628677166517
20
2.17711523121531
30
0
41
1
10
26.5828876372231
20
1.68271644674496
30
0
41
1
10
27.3066211364019
20
1.16181756842241
30
0
41
1
10
28.0366320682107
20
0.622465577419661
30
0
41
1
10
28.7713261187356
20
0.073658546044669
30
0
41
1
10
29.5141946118243
20
-0.483993382649857
30
0
41
1
10
30.2674781085123
20
-1.04049604495944
30
0
41
1
10
31.010595178889
20
-1.57976293931159
30
0
41
1
10
31.5724977710683
20
-1.97196811508115
30
0
41
1
10
31.9458571576073
20
-2.22195171138787
30
0
0
SPLINE
5
132
100
AcDbEntity
8
1
62
256
6
ByLayer
370
18
48
1
60
0
100
AcDbSpline
70
4
71
1
72
4
73
2
40
0
40
0
40
1
40
1
41
1
10
16.9999998365274
20
-2.96438889448916
30
0
41
1
10
17.0000001634726
20
-2.96535790609323
30
0
0
SPLINE
5
133
100
AcDbEntity
8
1
62
256
6
ByLayer
370
18
48
1
60
0
100
AcDbSpline
70
4
71
3
72
8
73
4
40
0
40
0
40
0
40
0
40
1
40
1
40
1
40
1
41
1
10
16.8856406460551
20
-2.90965717511159
30
0
41
1
10
16.9237540106587
20
-2.92822628713685
30
0
41
1
10
16.961873885619
20
-2.94678784959589
30
0
41
1
10
17.0000000000001
20
-2.96534216225973
30
0
0
SPLINE
5
134
100
AcDbEntity
8
1
62
256
6
ByLayer
370
18
48
1
60
0
100
AcDbSpline
70
4
71
3
72
8
73
4
40
0
40
0
40
0
40
0
40
1
40
1
40
1
40
1
41
1
10
16.9986303665484
20
-2.89937170205124
30
0
41
1
10
16.9987289808342
20
-2.92105205948974
30
0
41
1
10
16.9991919727143
20
-2.94272644502797
30
0
41
1
10
17
20
-2.96438889336508
30
0
0
SPLINE
5
135
100
AcDbEntity
8
1
62
256
6
ByLayer
370
18
48
1
60
0
100
AcDbSpline
70
4
71
3
72
8
73
4
40
0
40
0
40
0
40
0
40
1
40
1
40
1
40
1
41
1
10
16.9441787866601
20
-2.55825329899994
30
0
41
1
10
16.9556077009363
20
-2.67322252152761
30
0
41
1
10
16.974372655759
20
-2.78714886914412
30
0
41
1
10
16.9986303665484
20
-2.89937170205121
30
0
0
SPLINE
5
136
100
AcDbEntity
8
1
62
256
6
ByLayer
370
18
48
1
60
0
100
AcDbSpline
70
4
71
3
72
10
73
6
40
0
40
0
40
0
40
0
40
0.5
40
0.5
40
1
40
1
40
1
40
1
41
1
10
16.3856406460551
20
-2.78788621081341
30
0
41
1
10
16.4374630254254
20
-2.78889388675174
30
0
41
1
10
16.4885952740819
20
-2.79300675219849
30
0
41
1
10
16.5894780010948
20
-2.80787972494008
30
0
41
1
10
16.6392284897196
20
-2.81863783117612
30
0
41
1
10
16.6882401678635
20
-2.833179302357
30
0
0
SPLINE
5
137
100
AcDbEntity
8
1
62
256
6
ByLayer
370
18
48
1
60
0
100
AcDbSpline
70
4
71
3
72
11
73
7
40
0
40
0
40
0
40
0
40
0.250000000000022
40
0.250000000000022
40
0.500000000000045
40
1
40
1
40
1
40
1
41
1
10
16.6882401678636
20
-2.83317930235697
30
0
41
1
10
16.7054137170591
20
-2.83827459148307
30
0
41
1
10
16.7225311589456
20
-2.84373063509867
30
0
41
1
10
16.7562913804675
20
-2.85525188497596
30
0
41
1
10
16.8062937874801
20
-2.87346631031011
30
0
41
1
10
16.8544083033863
20
-2.89444054766548
30
0
41
1
10
16.885640646056
20
-2.90965717511037
30
0
0
SPLINE
5
138
100
AcDbEntity
8
1
62
256
6
ByLayer
370
18
48
1
60
0
100
AcDbSpline
70
4
71
3
72
12
73
8
40
0
40
0
40
0
40
0
40
0.250000000000021
40
0.250000000000021
40
0.500000000000043
40
0.500000000000043
40
1
40
1
40
1
40
1
41
1
10
16.5593511371618
20
-1.49320634370653
30
0
41
1
10
16.5454062577268
20
-1.48346453558091
30
0
41
1
10
16.5313146959898
20
-1.47388516036821
30
0
41
1
10
16.5028219328292
20
-1.45506929845456
30
0
41
1
10
16.48840611945
20
-1.44582433319081
30
0
41
1
10
16.444901031546
20
-1.41878007337954
30
0
41
1
10
16.4154934816212
20
-1.40162621397889
30
0
41
1
10
16.3856406460552
20
-1.38543710873191
30
0
0
SPLINE
5
139
100
AcDbEntity
8
1
62
256
6
ByLayer
370
18
48
1
60
0
100
AcDbSpline
70
4
71
3
72
8
73
4
40
0
40
0
40
0
40
0
40
1
40
1
40
1
40
1
41
1
10
31.9197116648764
20
-2.52901479446314
30
0
41
1
10
31.9464674361757
20
-2.53038559797022
30
0
41
1
10
31.9732302274481
20
-2.53180101642769
30
0
41
1
10
32
20
-2.53326079366727
30
0
0
SPLINE
5
13A
100
AcDbEntity
8
1
62
256
6
ByLayer
370
18
48
1
60
0
100
AcDbSpline
70
4
71
3
72
8
73
4
40
0
40
0
40
0
40
0
40
1
40
1
40
1
40
1
41
1
10
31.7962187150232
20
-2.51818617183358
30
0
41
1
10
31.8373813621672
20
-2.52169374299794
30
0
41
1
10
31.8785456782278
20
-2.52530325799395
30
0
41
1
10
31.9197116645239
20
-2.52901479731895
30
0
0
SPLINE
5
13B
100
AcDbEntity
8
1
62
256
6
ByLayer
370
18
48
1
60
0
100
AcDbSpline
70
4
71
3
72
11
73
7
40
0
40
0
40
0
40
0
40
0.254987586497626
40
0.575655384140487
40
0.896323181783348
40
1
40
1
40
1
40
1
41
1
10
17.5243720394213
20
4.9875450620126
30
0
41
1
10
17.5964112647741
20
4.9912487599191
30
0
41
1
10
17.7590692285065
20
4.99762492267942
30
0
41
1
10
18.0124053438589
20
5.00055651539367
30
0
41
1
10
18.2230240530169
20
4.99649918520021
30
0
41
1
10
18.3430017518888
20
4.99173036880927
30
0
41
1
10
18.3723156532154
20
4.9904187653257
30
0
0
SPLINE
5
13C
100
AcDbEntity
8
1
62
256
6
ByLayer
370
18
48
1
60
0
100
AcDbSpline
70
4
71
3
72
29
73
25
40
0
40
0
40
0
40
0
40
0.0031018289086279
40
0.0448772782831777
40
0.0866527276577274
40
0.128428177032277
40
0.170203626406827
40
0.191091351094102
40
0.211979075781377
40
0.253754525155927
40
0.295529974530476
40
0.337305423905026
40
0.379080873279576
40
0.420856322654126
40
0.504407221403225
40
0.546182670777775
40
0.587958120152325
40
0.671509018901424
40
0.713284468275974
40
0.755059917650524
40
0.838610816399623
40
0.880386265774173
40
0.922161715148723
40
1
40
1
40
1
40
1
41
1
10
18.7880152834609
20
4.96202875372632
30
0
41
1
10
18.801481076169
20
4.96079281891659
30
0
41
1
10
18.9963046791039
20
4.94246771446961
30
0
41
1
10
19.372493806426
20
4.89470133134336
30
0
41
1
10
19.9164589202156
20
4.79272195761342
30
0
41
1
10
20.4601873281323
20
4.65866287294503
30
0
41
1
10
20.9130008924119
20
4.52093298665281
30
0
41
1
10
21.2750116191744
20
4.39580910648621
30
0
41
1
10
21.6368416309799
20
4.26095133268535
30
0
41
1
10
22.0887463661911
20
4.0745418864592
30
0
41
1
10
22.6302060172707
20
3.82409879793374
30
0
41
1
10
23.1706771860652
20
3.54868979647821
30
0
41
1
10
23.7099915786009
20
3.25045567999811
30
0
41
1
10
24.4276970633856
20
2.82498558464209
30
0
41
1
10
25.1445843664533
20
2.36152238785579
30
0
41
1
10
25.8629130528907
20
1.86762228120352
30
0
41
1
10
26.58294581468
20
1.35602070622613
30
0
41
1
10
27.3067171237101
20
0.822120502597073
30
0
41
1
10
28.0366489944998
20
0.274236012505838
30
0
41
1
10
28.7713736131791
20
-0.279894225356401
30
0
41
1
10
29.5143163095489
20
-0.838059478709312
30
0
41
1
10
30.2674918788049
20
-1.38995829406215
30
0
41
1
10
31.0021896642661
20
-1.91526820090871
30
0
41
1
10
31.5553715673036
20
-2.2922169733522
30
0
41
1
10
31.9197116652274
20
-2.52901479155216
30
0
0
SPLINE
5
13D
100
AcDbEntity
8
1
62
256
6
ByLayer
370
18
48
1
60
0
100
AcDbSpline
70
4
71
3
72
60
73
56
40
0
40
0
40
0
40
0
40
0.0624999999999997
40
0.0624999999999997
40
0.0937499999999991
40
0.0937499999999991
40
0.109374999999999
40
0.109374999999999
40
0.124999999999999
40
0.124999999999999
40
0.187499999999997
40
0.187499999999997
40
0.218749999999997
40
0.218749999999997
40
0.234374999999998
40
0.234374999999998
40
0.249999999999998
40
0.249999999999998
40
0.3125
40
0.3125
40
0.343750000000001
40
0.343750000000001
40
0.375000000000002
40
0.375000000000002
40
0.437500000000003
40
0.437500000000003
40
0.468750000000003
40
0.468750000000003
40
0.500000000000003
40
0.500000000000003
40
0.562500000000001
40
0.562500000000001
40
0.59375
40
0.59375
40
0.624999999999998
40
0.624999999999998
40
0.687499999999996
40
0.687499999999996
40
0.703124999999997
40
0.703124999999997
40
0.718749999999997
40
0.718749999999997
40
0.749999999999998
40
0.749999999999998
40
0.812499999999997
40
0.812499999999997
40
0.828124999999997
40
0.828124999999997
40
0.843749999999996
40
0.843749999999996
40
0.874999999999997
40
0.874999999999997
40
0.937499999999998
40
0.937499999999998
40
1
40
1
40
1
40
1
41
1
10
17.0000000000002
20
4.95692173053536
30
0
41
1
10
17.3090602810082
20
4.98740266726295
30
0
41
1
10
17.6172634014611
20
5.00170667602495
30
0
41
1
10
18.0798928396037
20
4.99889015641037
30
0
41
1
10
18.2341590868975
20
4.99389434517491
30
0
41
1
10
18.4658587124143
20
4.98028608660152
30
0
41
1
10
18.5430845487735
20
4.97473438608975
30
0
41
1
10
18.6973770384336
20
4.96162626412738
30
0
41
1
10
18.7744712095772
20
4.9540682651741
30
0
41
1
10
19.1597715185739
20
4.91128980039315
30
0
41
1
10
19.4674716163293
20
4.86111932163911
30
0
41
1
10
19.9298707305929
20
4.76248296357409
30
0
41
1
10
20.0841440221314
20
4.72570590781038
30
0
41
1
10
20.3159603666282
20
4.66473213102833
30
0
41
1
10
20.393215140864
20
4.6434609814514
30
0
41
1
10
20.5475752981218
20
4.59908467505932
30
0
41
1
10
20.6247036867013
20
4.57597372450948
30
0
41
1
10
21.0101606921026
20
4.45586829875191
30
0
41
1
10
21.3179175788517
20
4.34523027628529
30
0
41
1
10
21.7802546612289
20
4.15840325932126
30
0
41
1
10
21.9344854091746
20
4.09265255809615
30
0
41
1
10
22.243470314788
20
3.95435814832104
30
0
41
1
10
22.39772790701
20
3.88203628892529
30
0
41
1
10
22.8600414257376
20
3.65606016562765
30
0
41
1
10
23.1677282788614
20
3.49336602070642
30
0
41
1
10
23.6301521354032
20
3.2328441146656
30
0
41
1
10
23.7844544739763
20
3.14324271063856
30
0
41
1
10
24.0935665326677
20
2.95880018739774
30
0
41
1
10
24.2478640049401
20
2.86426808026636
30
0
41
1
10
24.7103653499206
20
2.57421833257464
30
0
41
1
10
25.0181677177528
20
2.37224465277043
30
0
41
1
10
25.4805663822017
20
2.05804286355132
30
0
41
1
10
25.6348663138619
20
1.95140669631485
30
0
41
1
10
25.9438089816807
20
1.73485123128955
30
0
41
1
10
26.0980072689637
20
1.62524536362602
30
0
41
1
10
26.5602331435491
20
1.29304039218567
30
0
41
1
10
26.8679011745652
20
1.06707105439895
30
0
41
1
10
27.2532934788681
20
0.780799855459435
30
0
41
1
10
27.3304119915549
20
0.72335447850736
30
0
41
1
10
27.4847632104291
20
0.608124306607948
30
0
41
1
10
27.5620284276962
20
0.550315190038077
30
0
41
1
10
27.7938203745903
20
0.376609917163165
30
0
41
1
10
27.948102914167
20
0.260618406272613
30
0
41
1
10
28.4105819155999
20
-0.0874331405534576
30
0
41
1
10
28.7183835144293
20
-0.319606320447207
30
0
41
1
10
29.1037871732429
20
-0.60826695688894
30
0
41
1
10
29.1809013198834
20
-0.665920124380648
30
0
41
1
10
29.3352319322198
20
-0.781021089557584
30
0
41
1
10
29.4124963558386
20
-0.838504415916844
30
0
41
1
10
29.6441381350171
20
-1.01030623322296
30
0
41
1
10
29.7981972741031
20
-1.12385183203386
30
0
41
1
10
30.2597056292463
20
-1.46099655202181
30
0
41
1
10
30.5664905181755
20
-1.68110837944164
30
0
41
1
10
31.1805035630354
20
-2.1093259793517
30
0
41
1
10
31.4877321564383
20
-2.31743041864826
30
0
41
1
10
31.7962187150233
20
-2.51818617183309
30
0
0
SPLINE
5
13E
100
AcDbEntity
8
1
62
256
6
ByLayer
370
18
48
1
60
0
100
AcDbSpline
70
4
71
3
72
24
73
20
40
0
40
0
40
0
40
0
40
0.027970418765972
40
0.0825906100567657
40
0.137210801347559
40
0.191830992638353
40
0.301071375219941
40
0.328381470865337
40
0.355691566510734
40
0.410311757801528
40
0.519552140383116
40
0.574172331673909
40
0.628792522964703
40
0.683412714255497
40
0.738032905546291
40
0.792653096837084
40
0.847273288127878
40
0.956513670709465
40
1
40
1
40
1
40
1
41
1
10
16.9441787866601
20
-2.55825329899994
30
0
41
1
10
17.0368083940687
20
-2.60949182781133
30
0
41
1
10
17.3103148503969
20
-2.7591503735745
30
0
41
1
10
17.7646814951875
20
-2.99924936272439
30
0
41
1
10
18.3073125133182
20
-3.27109115268152
30
0
41
1
10
19.0309306525717
20
-3.61183621559905
30
0
41
1
10
19.6642656207385
20
-3.87931628600418
30
0
41
1
10
20.2073352285675
20
-4.08405403665682
30
0
41
1
10
20.5694466648108
20
-4.21388240947078
30
0
41
1
10
21.2033032963734
20
-4.42262034965975
30
0
41
1
10
21.9279810693456
20
-4.61767442273256
30
0
41
1
10
22.6528351236794
20
-4.76675709677025
30
0
41
1
10
23.1965436758806
20
-4.85457531081144
30
0
41
1
10
23.7402737085432
20
-4.91821010166052
30
0
41
1
10
24.2839901509477
20
-4.9573498415773
30
0
41
1
10
24.8276106930756
20
-4.97195447935209
30
0
41
1
10
25.5524408014017
20
-4.95812674398599
30
0
41
1
10
26.2409025237514
20
-4.89804943771534
30
0
41
1
10
26.7491548116269
20
-4.82198473454977
30
0
41
1
10
26.8939846840241
20
-4.79774524758341
30
0
0
SPLINE
5
13F
100
AcDbEntity
8
1
62
256
6
ByLayer
370
18
48
1
60
0
100
AcDbSpline
70
4
71
3
72
12
73
8
40
0
40
0
40
0
40
0
40
0.250000000000002
40
0.250000000000002
40
0.500000000000003
40
0.500000000000003
40
1
40
1
40
1
40
1
41
1
10
16.5593511371643
20
-1.49320634370554
30
0
41
1
10
16.5886147360785
20
-1.56834982216063
30
0
41
1
10
16.6169845827567
20
-1.64359982857388
30
0
41
1
10
16.6729076070377
20
-1.79398331722553
30
0
41
1
10
16.700417287621
20
-1.86913193462627
30
0
41
1
10
16.7818265833641
20
-2.09438198419636
30
0
41
1
10
16.8346150233378
20
-2.24428262006822
30
0
41
1
10
16.8856406460551
20
-2.394075120053
30
0
0
SPLINE
5
140
100
AcDbEntity
8
1
62
256
6
ByLayer
370
18
48
1
60
0
100
AcDbSpline
70
4
71
3
72
8
73
4
40
0
40
0
40
0
40
0
40
1
40
1
40
1
40
1
41
1
10
16.8856406460551
20
-2.39407512005272
30
0
41
1
10
16.9044192951195
20
-2.4492023412387
30
0
41
1
10
16.9239589854481
20
-2.5039217443213
30
0
41
1
10
16.94417878666
20
-2.55825329899994
30
0
0
SPLINE
5
141
100
AcDbEntity
8
1
62
256
6
ByLayer
370
18
48
1
60
0
100
AcDbSpline
70
4
71
2
72
6
73
3
40
0
40
0
40
0
40
1
40
1
40
1
41
1
10
17
20
-3.87449914194551
30
0
41
1
10
17.6477585003515
20
-3.74654706615112
30
0
41
1
10
18.3027851005603
20
-3.59484525589772
30
0
0
SPLINE
5
142
100
AcDbEntity
8
1
62
256
6
ByLayer
370
18
48
1
60
0
100
AcDbSpline
70
4
71
1
72
4
73
2
40
0
40
0
40
1
40
1
41
1
10
28.887669016094
20
2.69734828005272
30
0
41
1
10
28.6436014208818
20
2.78995741876034
30
0
0
SPLINE
5
143
100
AcDbEntity
8
1
62
256
6
ByLayer
370
18
48
1
60
0
100
AcDbSpline
70
4
71
3
72
14
73
10
40
0
40
0
40
0
40
0
40
0.167444995012315
40
0.302260049130377
40
0.405015210429
40
0.498796278710884
40
0.671888496432119
40
0.901303350788957
40
1
40
1
40
1
40
1
41
1
10
27.1842557884202
20
-4.39547605380608
30
0
41
1
10
27.3882721263276
20
-4.39138919393267
30
0
41
1
10
27.7541749130509
20
-4.38028508510217
30
0
41
1
10
28.242113559146
20
-4.35472916331676
30
0
41
1
10
28.6327340696359
20
-4.33042175104225
30
0
41
1
10
29.0534070627679
20
-4.30087644723611
30
0
41
1
10
29.6354998070185
20
-4.24747837641257
30
0
41
1
10
30.2239992405611
20
-4.18337509872822
30
0
41
1
10
30.6116401014296
20
-4.12782312124173
30
0
41
1
10
30.7283828641288
20
-4.11018727163528
30
0
0
SPLINE
5
144
100
AcDbEntity
8
1
62
256
6
ByLayer
370
18
48
1
60
0
100
AcDbSpline
70
4
71
3
72
16
73
12
40
0
40
0
40
0
40
0
40
0.169603737626081
40
0.297428938287957
40
0.419154720913956
40
0.524271098024313
40
0.628733951021065
40
0.750786176539749
40
0.883824328136825
40
0.990057639415414
40
1
40
1
40
1
40
1
41
1
10
27.2003258696243
20
3.27076966643841
30
0
41
1
10
26.965534161985
20
3.33719689670687
30
0
41
1
10
26.5558962171662
20
3.44938669244479
30
0
41
1
10
25.9893502395425
20
3.59615897961424
30
0
41
1
10
25.5045368801009
20
3.7139614681933
30
0
41
1
10
25.0511610236598
20
3.81724837112668
30
0
41
1
10
24.5975018312203
20
3.91371051764241
30
0
41
1
10
24.1055126056698
20
4.00964027272778
30
0
41
1
10
23.6109796344335
20
4.09590004549673
30
0
41
1
10
23.2699304239233
20
4.14857641586514
30
0
41
1
10
23.1109705622161
20
4.17152585861552
30
0
41
1
10
23.0973668823521
20
4.1734780636437
30
0
0
LINE
5
79
100
AcDbEntity
8
80
62
256
6
ByLayer
370
18
48
1
60
0
100
AcDbLine
10
0
20
0
30
0
11
-5
21
0
31
0
39
0
210
0
220
0
230
1
0
LINE
5
7A
100
AcDbEntity
8
4
62
256
6
ByLayer
370
18
48
0.05
60
0
100
AcDbLine
10
0
20
0
30
0
11
32
21
0
31
0
39
0
210
0
220
0
230
1
0
LINE
5
7C
100
AcDbEntity
8
81
62
256
6
ByLayer
370
18
48
1
60
0
100
AcDbLine
10
32
20
0
30
0
11
37
21
0
31
0
39
0
210
0
220
0
230
1
0
LINE
5
7D
100
AcDbEntity
8
SK4
62
256
6
ByLayer
370
18
48
0.05
60
0
100
AcDbLine
10
-40
20
0
30
0
11
32
21
0
31
0
39
0
210
0
220
0
230
1
0
LINE
5
7F
100
AcDbEntity
8
1
62
256
6
ByLayer
370
18
48
1
60
0
100
AcDbLine
10
0
20
5
30
0
11
0
21
0
31
0
39
0
210
0
220
0
230
1
0
LINE
5
80
100
AcDbEntity
8
1
62
256
6
ByLayer
370
18
48
1
60
0
100
AcDbLine
10
0
20
0
30
0
11
0
21
-5
31
0
39
0
210
0
220
0
230
1
0
LINE
5
81
100
AcDbEntity
8
1
62
256
6
ByLayer
370
18
48
1
60
0
100
AcDbLine
10
32
20
-2.756871
30
0
11
32
21
-2.755006
31
0
39
0
210
0
220
0
230
1
0
LINE
5
82
100
AcDbEntity
8
1
62
256
6
ByLayer
370
18
48
1
60
0
100
AcDbLine
10
31.996638
20
-2.539799
30
0
11
32
21
-2.755006
31
0
39
0
210
0
220
0
230
1
0
LINE
5
83
100
AcDbEntity
8
1
62
256
6
ByLayer
370
18
48
1
60
0
100
AcDbLine
10
31.894293
20
-3.227792
30
0
11
31.892113
21
-3.085655
31
0
39
0
210
0
220
0
230
1
0
LINE
5
84
100
AcDbEntity
8
1
62
256
6
ByLayer
370
18
48
1
60
0
100
AcDbLine
10
31.892113
20
-3.085655
30
0
11
31.996638
21
-2.539799
31
0
39
0
210
0
220
0
230
1
0
LINE
5
85
100
AcDbEntity
8
1
62
256
6
ByLayer
370
18
48
1
60
0
100
AcDbLine
10
31.995564
20
-2.533026
30
0
11
31.996638
21
-2.539799
31
0
39
0
210
0
220
0
230
1
0
LINE
5
86
100
AcDbEntity
8
1
62
256
6
ByLayer
370
18
48
1
60
0
100
AcDbLine
10
31.540169
20
-3.71627
30
0
11
31.892113
21
-3.085655
31
0
39
0
210
0
220
0
230
1
0
LINE
5
87
100
AcDbEntity
8
1
62
256
6
ByLayer
370
18
48
1
60
0
100
AcDbLine
10
31.892113
20
-3.085655
30
0
11
31.804943
21
-2.518939
31
0
39
0
210
0
220
0
230
1
0
LINE
5
88
100
AcDbEntity
8
1
62
256
6
ByLayer
370
18
48
1
60
0
100
AcDbLine
10
31.978243
20
4.4032
30
0
11
31.996638
21
4.609805
31
0
39
0
210
0
220
0
230
1
0
LINE
5
89
100
AcDbEntity
8
1
62
256
6
ByLayer
370
18
48
1
60
0
100
AcDbLine
10
31.996638
20
4.609805
30
0
11
32
21
4.98828
31
0
39
0
210
0
220
0
230
1
0
LINE
5
8A
100
AcDbEntity
8
1
62
256
6
ByLayer
370
18
48
1
60
0
100
AcDbLine
10
32
20
4.98828
30
0
11
32
21
4.991329
31
0
39
0
210
0
220
0
230
1
0
LINE
5
8B
100
AcDbEntity
8
1
62
256
6
ByLayer
370
18
48
1
60
0
100
AcDbLine
10
31.441345
20
-0.073443
30
0
11
31.577438
21
-0.098554
31
0
39
0
210
0
220
0
230
1
0
LINE
5
8C
100
AcDbEntity
8
1
62
256
6
ByLayer
370
18
48
1
60
0
100
AcDbLine
10
31.577438
20
-0.098554
30
0
11
31.900605
21
3.531189
31
0
39
0
210
0
220
0
230
1
0
LINE
5
8D
100
AcDbEntity
8
1
62
256
6
ByLayer
370
18
48
1
60
0
100
AcDbLine
10
17
20
-3.874619
30
0
11
17
21
-3.724363
31
0
39
0
210
0
220
0
230
1
0
LINE
5
8E
100
AcDbEntity
8
1
62
256
6
ByLayer
370
18
48
1
60
0
100
AcDbLine
10
30.730179
20
-4.113531
30
0
11
31.291628
21
-2.371923
31
0
39
0
210
0
220
0
230
1
0
LINE
5
8F
100
AcDbEntity
8
1
62
256
6
ByLayer
370
18
48
1
60
0
100
AcDbLine
10
31.291628
20
-2.371923
30
0
11
31.376592
21
-2.232275
31
0
39
0
210
0
220
0
230
1
0
LINE
5
90
100
AcDbEntity
8
1
62
256
6
ByLayer
370
18
48
1
60
0
100
AcDbLine
10
28.904629
20
-2.724868
30
0
11
31.291628
21
-2.371923
31
0
39
0
210
0
220
0
230
1
0
LINE
5
91
100
AcDbEntity
8
1
62
256
6
ByLayer
370
13
48
1
60
0
100
AcDbLine
10
16.653963
20
4.797366
30
0
11
17
21
4.607249
31
0
39
0
210
0
220
0
230
1
0
LINE
5
92
100
AcDbEntity
8
1
62
256
6
ByLayer
370
13
48
1
60
0
100
AcDbLine
10
12.427701
20
4.509719
30
0
11
17
21
1.997648
31
0
39
0
210
0
220
0
230
1
0
LINE
5
93
100
AcDbEntity
8
1
62
256
6
ByLayer
370
13
48
1
60
0
100
AcDbLine
10
29.425905
20
-1.024688
30
0
11
28.411764
21
-1.527121
31
0
39
0
210
0
220
0
230
1
0
LINE
5
94
100
AcDbEntity
8
1
62
256
6
ByLayer
370
18
48
1
60
0
100
AcDbLine
10
14.356191
20
-4.752106
30
0
11
17
21
-3.724363
31
0
39
0
210
0
220
0
230
1
0
LINE
5
95
100
AcDbEntity
8
1
62
256
6
ByLayer
370
18
48
1
60
0
100
AcDbLine
10
17
20
-3.724363
30
0
11
17
21
-2.980654
31
0
39
0
210
0
220
0
230
1
0
LINE
5
96
100
AcDbEntity
8
1
62
256
6
ByLayer
370
18
48
1
60
0
100
AcDbLine
10
17
20
1.910446
30
0
11
17
21
1.997648
31
0
39
0
210
0
220
0
230
1
0
LINE
5
97
100
AcDbEntity
8
1
62
256
6
ByLayer
370
13
48
1
60
0
100
AcDbLine
10
12.727852
20
-4.206952
30
0
11
16.377201
21
-2.78832
31
0
39
0
210
0
220
0
230
1
0
LINE
5
98
100
AcDbEntity
8
1
62
256
6
ByLayer
370
13
48
1
60
0
100
AcDbLine
10
12.539987
20
4.360825
30
0
11
17
21
1.910446
31
0
39
0
210
0
220
0
230
1
0
LINE
5
99
100
AcDbEntity
8
1
62
256
6
ByLayer
370
13
48
1
60
0
100
AcDbLine
10
12.506906
20
-3.795901
30
0
11
14.784062
21
-2.910689
31
0
39
0
210
0
220
0
230
1
0
LINE
5
9A
100
AcDbEntity
8
1
62
256
6
ByLayer
370
18
48
1
60
0
100
AcDbLine
10
31.978757
20
-2.245763
30
0
11
31.996638
21
-2.34585
31
0
39
0
210
0
220
0
230
1
0
LINE
5
9B
100
AcDbEntity
8
1
62
256
6
ByLayer
370
18
48
1
60
0
100
AcDbLine
10
31.76163
20
-1.030362
30
0
11
31.898725
21
-1.797769
31
0
39
0
210
0
220
0
230
1
0
LINE
5
9C
100
AcDbEntity
8
1
62
256
6
ByLayer
370
18
48
1
60
0
100
AcDbLine
10
31.669645
20
-0.52704
30
0
11
31.76163
21
-1.030362
31
0
39
0
210
0
220
0
230
1
0
LINE
5
9D
100
AcDbEntity
8
1
62
256
6
ByLayer
370
18
48
1
60
0
100
AcDbLine
10
32
20
-2.533107
30
0
11
32
21
-2.531765
31
0
39
0
210
0
220
0
230
1
0
LINE
5
9E
100
AcDbEntity
8
1
62
256
6
ByLayer
370
18
48
1
60
0
100
AcDbLine
10
31.996638
20
-2.34585
30
0
11
32
21
-2.531765
31
0
39
0
210
0
220
0
230
1
0
LINE
5
9F
100
AcDbEntity
8
1
62
256
6
ByLayer
370
18
48
1
60
0
100
AcDbLine
10
31.892113
20
-1.772763
30
0
11
31.996638
21
-2.34585
31
0
39
0
210
0
220
0
230
1
0
LINE
5
A0
100
AcDbEntity
8
1
62
256
6
ByLayer
370
18
48
1
60
0
100
AcDbLine
10
31.894314
20
-1.896335
30
0
11
31.892113
21
-1.772763
31
0
39
0
210
0
220
0
230
1
0
LINE
5
A1
100
AcDbEntity
8
1
62
256
6
ByLayer
370
18
48
1
60
0
100
AcDbLine
10
31.534022
20
-1.111472
30
0
11
31.892113
21
-1.772763
31
0
39
0
210
0
220
0
230
1
0
LINE
5
A2
100
AcDbEntity
8
1
62
256
6
ByLayer
370
18
48
1
60
0
100
AcDbLine
10
31.892113
20
-1.772763
30
0
11
31.669645
21
-0.52704
31
0
39
0
210
0
220
0
230
1
0
LINE
5
A3
100
AcDbEntity
8
1
62
256
6
ByLayer
370
18
48
1
60
0
100
AcDbLine
10
31.316094
20
0.175435
30
0
11
31.669645
21
-0.52704
31
0
39
0
210
0
220
0
230
1
0
LINE
5
A4
100
AcDbEntity
8
1
62
256
6
ByLayer
370
18
48
1
60
0
100
AcDbLine
10
30.571786
20
1.260045
30
0
11
31.316094
21
0.175435
31
0
39
0
210
0
220
0
230
1
0
LINE
5
A5
100
AcDbEntity
8
1
62
256
6
ByLayer
370
18
48
1
60
0
100
AcDbLine
10
17
20
1.997648
30
0
11
17
21
4.607249
31
0
39
0
210
0
220
0
230
1
0
LINE
5
A6
100
AcDbEntity
8
1
62
256
6
ByLayer
370
18
48
1
60
0
100
AcDbLine
10
17
20
-1.429621
30
0
11
17
21
-1.215053
31
0
39
0
210
0
220
0
230
1
0
LINE
5
A7
100
AcDbEntity
8
1
62
256
6
ByLayer
370
13
48
1
60
0
100
AcDbLine
10
13.739392
20
0.361792
30
0
11
17
21
-1.429621
31
0
39
0
210
0
220
0
230
1
0
LINE
5
A8
100
AcDbEntity
8
1
62
256
6
ByLayer
370
13
48
1
60
0
100
AcDbLine
10
13.635443
20
0.633471
30
0
11
17
21
-1.215053
31
0
39
0
210
0
220
0
230
1
0
LINE
5
A9
100
AcDbEntity
8
1
62
256
6
ByLayer
370
18
48
1
60
0
100
AcDbLine
10
13.986709
20
2.794221
30
0
11
17
21
1.138687
31
0
39
0
210
0
220
0
230
1
0
LINE
5
AA
100
AcDbEntity
8
1
62
256
6
ByLayer
370
18
48
1
60
0
100
AcDbLine
10
17
20
4.956923
30
0
11
17
21
4.607249
31
0
39
0
210
0
220
0
230
1
0
LINE
5
AB
100
AcDbEntity
8
1
62
256
6
ByLayer
370
18
48
1
60
0
100
AcDbLine
10
17
20
-1.429621
30
0
11
17
21
-1.718254
31
0
39
0
210
0
220
0
230
1
0
LINE
5
AC
100
AcDbEntity
8
1
62
256
6
ByLayer
370
13
48
1
60
0
100
AcDbLine
10
16.385641
20
-2.787886
30
0
11
16.385641
21
-1.385437
31
0
39
0
210
0
220
0
230
1
0
LINE
5
AD
100
AcDbEntity
8
1
62
256
6
ByLayer
370
13
48
1
60
0
100
AcDbLine
10
16.885641
20
-2.394075
30
0
11
16.885641
21
-2.909657
31
0
39
0
210
0
220
0
230
1
0
LINE
5
AE
100
AcDbEntity
8
1
62
256
6
ByLayer
370
13
48
1
60
0
100
AcDbLine
10
1.997679
20
-4.8
30
0
11
1.997679
21
0
31
0
39
0
210
0
220
0
230
1
0
LINE
5
AF
100
AcDbEntity
8
1
62
256
6
ByLayer
370
13
48
1
60
0
100
AcDbLine
10
1.997679
20
0
30
0
11
1.997679
21
4.8
31
0
39
0
210
0
220
0
230
1
0
LINE
5
B0
100
AcDbEntity
8
1
62
256
6
ByLayer
370
13
48
1
60
0
100
AcDbLine
10
1.497679
20
4.933975
30
0
11
1.497679
21
0
31
0
39
0
210
0
220
0
230
1
0
LINE
5
B1
100
AcDbEntity
8
1
62
256
6
ByLayer
370
13
48
1
60
0
100
AcDbLine
10
1.497679
20
0
30
0
11
1.497679
21
-4.933975
31
0
39
0
210
0
220
0
230
1
0
LINE
5
B2
100
AcDbEntity
8
1
62
256
6
ByLayer
370
18
48
1
60
0
100
AcDbLine
10
1.38332
20
5
30
0
11
1.38332
21
0
31
0
39
0
210
0
220
0
230
1
0
LINE
5
B3
100
AcDbEntity
8
1
62
256
6
ByLayer
370
18
48
1
60
0
100
AcDbLine
10
1.38332
20
0
30
0
11
1.38332
21
-5
31
0
39
0
210
0
220
0
230
1
0
LINE
5
B4
100
AcDbEntity
8
SK1
62
256
6
ByLayer
370
18
48
1
60
0
100
AcDbLine
10
-40
20
-4.4
30
0
11
-40
21
4.4
31
0
39
0
210
0
220
0
230
1
0
LINE
5
B6
100
AcDbEntity
8
SK1
62
256
6
ByLayer
370
18
48
1
60
0
100
AcDbLine
10
0
20
5
30
0
11
0
21
0
31
0
39
0
210
0
220
0
230
1
0
LINE
5
B7
100
AcDbEntity
8
SK1
62
256
6
ByLayer
370
18
48
1
60
0
100
AcDbLine
10
0
20
0
30
0
11
0
21
-5
31
0
39
0
210
0
220
0
230
1
0
LINE
5
B8
100
AcDbEntity
8
SK1
62
256
6
ByLayer
370
18
48
1
60
0
100
AcDbLine
10
-39.4
20
5
30
0
11
-39.4
21
-5
31
0
39
0
210
0
220
0
230
1
0
LINE
5
B9
100
AcDbEntity
8
SK1
62
256
6
ByLayer
370
18
48
1
60
0
100
AcDbLine
10
-23.5
20
3.5
30
0
11
-25
21
5
31
0
39
0
210
0
220
0
230
1
0
LINE
5
BA
100
AcDbEntity
8
SK1
62
256
6
ByLayer
370
18
48
1
60
0
100
AcDbLine
10
-16.5
20
3.5
30
0
11
-15
21
5
31
0
39
0
210
0
220
0
230
1
0
LINE
5
BB
100
AcDbEntity
8
SK1
62
256
6
ByLayer
370
18
48
1
60
0
100
AcDbLine
10
-23.5
20
3.5
30
0
11
-16.5
21
3.5
31
0
39
0
210
0
220
0
230
1
0
LINE
5
BC
100
AcDbEntity
8
1
62
256
6
ByLayer
370
18
48
1
60
0
100
AcDbLine
10
1.38332
20
5
30
0
11
0
21
5
31
0
39
0
210
0
220
0
230
1
0
LINE
5
BD
100
AcDbEntity
8
1
62
256
6
ByLayer
370
18
48
1
60
0
100
AcDbLine
10
0
20
-5
30
0
11
1.38332
21
-5
31
0
39
0
210
0
220
0
230
1
0
LINE
5
BE
100
AcDbEntity
8
1
62
256
6
ByLayer
370
18
48
1
60
0
100
AcDbLine
10
14.625362
20
-4.797725
30
0
11
17.003669
21
-3.873193
31
0
39
0
210
0
220
0
230
1
0
LINE
5
BF
100
AcDbEntity
8
1
62
256
6
ByLayer
370
18
48
1
60
0
100
AcDbLine
10
14.350254
20
4.8
30
0
11
1.997679
21
4.8
31
0
39
0
210
0
220
0
230
1
0
LINE
5
C0
100
AcDbEntity
8
1
62
256
6
ByLayer
370
18
48
1
60
0
100
AcDbLine
10
1.997679
20
-4.8
30
0
11
14.583794
21
-4.8
31
0
39
0
210
0
220
0
230
1
0
LINE
5
C1
100
AcDbEntity
8
1
62
256
6
ByLayer
370
18
48
1
60
0
100
AcDbLine
10
1.497679
20
4.933975
30
0
11
1.38332
21
5
31
0
39
0
210
0
220
0
230
1
0
LINE
5
C2
100
AcDbEntity
8
1
62
256
6
ByLayer
370
18
48
1
60
0
100
AcDbLine
10
1.38332
20
-5
30
0
11
1.497679
21
-4.933975
31
0
39
0
210
0
220
0
230
1
0
LINE
5
C3
100
AcDbEntity
8
SK1
62
256
6
ByLayer
370
18
48
1
60
0
100
AcDbLine
10
-40
20
-4.4
30
0
11
-39.4
21
-5
31
0
39
0
210
0
220
0
230
1
0
LINE
5
C4
100
AcDbEntity
8
SK1
62
256
6
ByLayer
370
18
48
1
60
0
100
AcDbLine
10
-39.4
20
5
30
0
11
-40
21
4.4
31
0
39
0
210
0
220
0
230
1
0
LINE
5
C5
100
AcDbEntity
8
SK1
62
256
6
ByLayer
370
18
48
1
60
0
100
AcDbLine
10
0
20
5
30
0
11
-15
21
5
31
0
39
0
210
0
220
0
230
1
0
LINE
5
C6
100
AcDbEntity
8
SK1
62
256
6
ByLayer
370
18
48
1
60
0
100
AcDbLine
10
-25
20
5
30
0
11
-39.4
21
5
31
0
39
0
210
0
220
0
230
1
0
LINE
5
C7
100
AcDbEntity
8
SK1
62
256
6
ByLayer
370
18
48
1
60
0
100
AcDbLine
10
-39.4
20
-5
30
0
11
0
21
-5
31
0
39
0
210
0
220
0
230
1
0
LINE
5
C8
100
AcDbEntity
8
SK2
62
256
6
ByLayer
370
18
48
1
60
0
100
AcDbLine
10
-47.65
20
5
30
0
11
-47.65
21
-23.056066
31
0
39
0
210
0
220
0
230
1
0
LINE
5
CA
100
AcDbEntity
8
SK2
62
256
6
ByLayer
370
18
48
1
60
0
100
AcDbLine
10
-40.9875
20
5
30
0
11
-49.65
21
5
31
0
39
0
210
0
220
0
230
1
0
LINE
5
CB
100
AcDbEntity
8
SK2
62
256
6
ByLayer
370
18
48
1
60
0
100
AcDbLine
10
-40.9875
20
-5
30
0
11
-49.65
21
-5
31
0
39
0
210
0
220
0
230
1
0
LINE
5
CC
100
AcDbEntity
8
1
62
256
6
ByLayer
370
18
48
1
60
1
100
AcDbLine
10
-47.65
20
5
30
0
11
-47.189216
21
1.500002
31
0
39
0
210
0
220
0
230
1
0
LINE
5
CD
100
AcDbEntity
8
1
62
256
6
ByLayer
370
18
48
1
60
1
100
AcDbLine
10
-47.189216
20
1.500002
30
0
11
-48.110784
21
1.499998
31
0
39
0
210
0
220
0
230
1
0
LINE
5
CE
100
AcDbEntity
8
1
62
256
6
ByLayer
370
18
48
1
60
1
100
AcDbLine
10
-48.110784
20
1.499998
30
0
11
-47.65
21
5
31
0
39
0
210
0
220
0
230
1
0
LINE
5
CF
100
AcDbEntity
8
1
62
256
6
ByLayer
370
18
48
1
60
1
100
AcDbLine
10
-47.65
20
-5
30
0
11
-48.110784
21
-1.500002
31
0
39
0
210
0
220
0
230
1
0
LINE
5
D0
100
AcDbEntity
8
1
62
256
6
ByLayer
370
18
48
1
60
1
100
AcDbLine
10
-48.110784
20
-1.500002
30
0
11
-47.189216
21
-1.499998
31
0
39
0
210
0
220
0
230
1
0
LINE
5
D1
100
AcDbEntity
8
1
62
256
6
ByLayer
370
18
48
1
60
1
100
AcDbLine
10
-47.189216
20
-1.499998
30
0
11
-47.65
21
-5
31
0
39
0
210
0
220
0
230
1
0
LINE
5
D2
100
AcDbEntity
8
SK2
62
256
6
ByLayer
370
13
48
1
60
0
100
AcDbLine
10
10.64166
20
-4.8
30
0
11
10.64166
21
29.148932
31
0
39
0
210
0
220
0
230
1
0
LINE
5
D3
100
AcDbEntity
8
SK2
62
256
6
ByLayer
370
13
48
1
60
0
100
AcDbLine
10
14.798141
20
4.8
30
0
11
8.64166
21
4.8
31
0
39
0
210
0
220
0
230
1
0
LINE
5
D4
100
AcDbEntity
8
SK2
62
256
6
ByLayer
370
13
48
1
60
0
100
AcDbLine
10
14.798141
20
-4.8
30
0
11
8.64166
21
-4.8
31
0
39
0
210
0
220
0
230
1
0
LINE
5
D5
100
AcDbEntity
8
1
62
256
6
ByLayer
370
18
48
1
60
1
100
AcDbLine
10
10.64166
20
4.8
30
0
11
11.102444
21
1.300002
31
0
39
0
210
0
220
0
230
1
0
LINE
5
D6
100
AcDbEntity
8
1
62
256
6
ByLayer
370
18
48
1
60
1
100
AcDbLine
10
11.102444
20
1.300002
30
0
11
10.180876
21
1.299998
31
0
39
0
210
0
220
0
230
1
0
LINE
5
D7
100
AcDbEntity
8
1
62
256
6
ByLayer
370
18
48
1
60
1
100
AcDbLine
10
10.180876
20
1.299998
30
0
11
10.64166
21
4.8
31
0
39
0
210
0
220
0
230
1
0
LINE
5
D8
100
AcDbEntity
8
1
62
256
6
ByLayer
370
18
48
1
60
1
100
AcDbLine
10
10.64166
20
-4.8
30
0
11
10.180876
21
-1.300002
31
0
39
0
210
0
220
0
230
1
0
LINE
5
D9
100
AcDbEntity
8
1
62
256
6
ByLayer
370
18
48
1
60
1
100
AcDbLine
10
10.180876
20
-1.300002
30
0
11
11.102444
21
-1.299998
31
0
39
0
210
0
220
0
230
1
0
LINE
5
DA
100
AcDbEntity
8
1
62
256
6
ByLayer
370
18
48
1
60
1
100
AcDbLine
10
11.102444
20
-1.299998
30
0
11
10.64166
21
-4.8
31
0
39
0
210
0
220
0
230
1
0
LINE
5
DB
100
AcDbEntity
8
2
62
256
6
ByLayer
370
18
48
1
60
0
100
AcDbLine
10
44
20
-5
30
0
11
44
21
23.056066
31
0
39
0
210
0
220
0
230
1
0
LINE
5
DD
100
AcDbEntity
8
2
62
256
6
ByLayer
370
18
48
1
60
0
100
AcDbLine
10
33.5875
20
5
30
0
11
46
21
5
31
0
39
0
210
0
220
0
230
1
0
LINE
5
DE
100
AcDbEntity
8
2
62
256
6
ByLayer
370
18
48
1
60
0
100
AcDbLine
10
33.5875
20
-5
30
0
11
46
21
-5
31
0
39
0
210
0
220
0
230
1
0
LINE
5
DF
100
AcDbEntity
8
1
62
256
6
ByLayer
370
18
48
1
60
1
100
AcDbLine
10
44
20
5
30
0
11
44.460784
21
1.500002
31
0
39
0
210
0
220
0
230
1
0
LINE
5
E0
100
AcDbEntity
8
1
62
256
6
ByLayer
370
18
48
1
60
1
100
AcDbLine
10
44.460784
20
1.500002
30
0
11
43.539216
21
1.499998
31
0
39
0
210
0
220
0
230
1
0
LINE
5
E1
100
AcDbEntity
8
1
62
256
6
ByLayer
370
18
48
1
60
1
100
AcDbLine
10
43.539216
20
1.499998
30
0
11
44
21
5
31
0
39
0
210
0
220
0
230
1
0
LINE
5
E2
100
AcDbEntity
8
1
62
256
6
ByLayer
370
18
48
1
60
1
100
AcDbLine
10
44
20
-5
30
0
11
43.539216
21
-1.500002
31
0
39
0
210
0
220
0
230
1
0
LINE
5
E3
100
AcDbEntity
8
1
62
256
6
ByLayer
370
18
48
1
60
1
100
AcDbLine
10
43.539216
20
-1.500002
30
0
11
44.460784
21
-1.499998
31
0
39
0
210
0
220
0
230
1
0
LINE
5
E4
100
AcDbEntity
8
1
62
256
6
ByLayer
370
18
48
1
60
1
100
AcDbLine
10
44.460784
20
-1.499998
30
0
11
44
21
-5
31
0
39
0
210
0
220
0
230
1
0
LINE
5
E5
100
AcDbEntity
8
SK2
62
256
6
ByLayer
370
18
48
1
60
0
100
AcDbLine
10
32
20
-51.87335
30
0
11
-40
21
-51.87335
31
0
39
0
210
0
220
0
230
1
0
LINE
5
E6
100
AcDbEntity
8
SK2
62
256
6
ByLayer
370
18
48
1
60
0
100
AcDbLine
10
-40
20
-5.9875
30
0
11
-40
21
-53.87335
31
0
39
0
210
0
220
0
230
1
0
LINE
5
E7
100
AcDbEntity
8
SK2
62
256
6
ByLayer
370
18
48
1
60
0
100
AcDbLine
10
32
20
-6.5875
30
0
11
32
21
-53.87335
31
0
39
0
210
0
220
0
230
1
0
LINE
5
E8
100
AcDbEntity
8
1
62
256
6
ByLayer
370
18
48
1
60
1
100
AcDbLine
10
-40
20
-51.87335
30
0
11
-36.500002
21
-51.412566
31
0
39
0
210
0
220
0
230
1
0
LINE
5
E9
100
AcDbEntity
8
1
62
256
6
ByLayer
370
18
48
1
60
1
100
AcDbLine
10
-36.500002
20
-51.412566
30
0
11
-36.499998
21
-52.334134
31
0
39
0
210
0
220
0
230
1
0
LINE
5
EA
100
AcDbEntity
8
1
62
256
6
ByLayer
370
18
48
1
60
1
100
AcDbLine
10
-36.499998
20
-52.334134
30
0
11
-40
21
-51.87335
31
0
39
0
210
0
220
0
230
1
0
LINE
5
EB
100
AcDbEntity
8
1
62
256
6
ByLayer
370
18
48
1
60
1
100
AcDbLine
10
32
20
-51.87335
30
0
11
28.500002
21
-52.334134
31
0
39
0
210
0
220
0
230
1
0
LINE
5
EC
100
AcDbEntity
8
1
62
256
6
ByLayer
370
18
48
1
60
1
100
AcDbLine
10
28.500002
20
-52.334134
30
0
11
28.499998
21
-51.412566
31
0
39
0
210
0
220
0
230
1
0
LINE
5
ED
100
AcDbEntity
8
1
62
256
6
ByLayer
370
18
48
1
60
1
100
AcDbLine
10
28.499998
20
-51.412566
30
0
11
32
21
-51.87335
31
0
39
0
210
0
220
0
230
1
0
LINE
5
149
100
AcDbEntity
8
1
62
256
6
ByLayer
370
18
48
1
60
1
100
AcDbLine
10
-47.65
20
5
30
0
11
-47.189216
21
1.500002
31
0
39
0
210
0
220
0
230
1
0
LINE
5
14A
100
AcDbEntity
8
1
62
256
6
ByLayer
370
18
48
1
60
1
100
AcDbLine
10
-47.189216
20
1.500002
30
0
11
-48.110784
21
1.499998
31
0
39
0
210
0
220
0
230
1
0
LINE
5
14B
100
AcDbEntity
8
1
62
256
6
ByLayer
370
18
48
1
60
1
100
AcDbLine
10
-48.110784
20
1.499998
30
0
11
-47.65
21
5
31
0
39
0
210
0
220
0
230
1
0
LINE
5
14D
100
AcDbEntity
8
1
62
256
6
ByLayer
370
18
48
1
60
1
100
AcDbLine
10
-47.65
20
-5
30
0
11
-48.110784
21
-1.500002
31
0
39
0
210
0
220
0
230
1
0
LINE
5
14E
100
AcDbEntity
8
1
62
256
6
ByLayer
370
18
48
1
60
1
100
AcDbLine
10
-48.110784
20
-1.500002
30
0
11
-47.189216
21
-1.499998
31
0
39
0
210
0
220
0
230
1
0
LINE
5
14F
100
AcDbEntity
8
1
62
256
6
ByLayer
370
18
48
1
60
1
100
AcDbLine
10
-47.189216
20
-1.499998
30
0
11
-47.65
21
-5
31
0
39
0
210
0
220
0
230
1
0
LINE
5
153
100
AcDbEntity
8
1
62
256
6
ByLayer
370
18
48
1
60
1
100
AcDbLine
10
10.64166
20
4.8
30
0
11
11.102444
21
1.300002
31
0
39
0
210
0
220
0
230
1
0
LINE
5
154
100
AcDbEntity
8
1
62
256
6
ByLayer
370
18
48
1
60
1
100
AcDbLine
10
11.102444
20
1.300002
30
0
11
10.180876
21
1.299998
31
0
39
0
210
0
220
0
230
1
0
LINE
5
155
100
AcDbEntity
8
1
62
256
6
ByLayer
370
18
48
1
60
1
100
AcDbLine
10
10.180876
20
1.299998
30
0
11
10.64166
21
4.8
31
0
39
0
210
0
220
0
230
1
0
LINE
5
157
100
AcDbEntity
8
1
62
256
6
ByLayer
370
18
48
1
60
1
100
AcDbLine
10
10.64166
20
-4.8
30
0
11
10.180876
21
-1.300002
31
0
39
0
210
0
220
0
230
1
0
LINE
5
158
100
AcDbEntity
8
1
62
256
6
ByLayer
370
18
48
1
60
1
100
AcDbLine
10
10.180876
20
-1.300002
30
0
11
11.102444
21
-1.299998
31
0
39
0
210
0
220
0
230
1
0
LINE
5
159
100
AcDbEntity
8
1
62
256
6
ByLayer
370
18
48
1
60
1
100
AcDbLine
10
11.102444
20
-1.299998
30
0
11
10.64166
21
-4.8
31
0
39
0
210
0
220
0
230
1
0
LINE
5
15D
100
AcDbEntity
8
1
62
256
6
ByLayer
370
18
48
1
60
1
100
AcDbLine
10
44
20
5
30
0
11
44.460784
21
1.500002
31
0
39
0
210
0
220
0
230
1
0
LINE
5
15E
100
AcDbEntity
8
1
62
256
6
ByLayer
370
18
48
1
60
1
100
AcDbLine
10
44.460784
20
1.500002
30
0
11
43.539216
21
1.499998
31
0
39
0
210
0
220
0
230
1
0
LINE
5
15F
100
AcDbEntity
8
1
62
256
6
ByLayer
370
18
48
1
60
1
100
AcDbLine
10
43.539216
20
1.499998
30
0
11
44
21
5
31
0
39
0
210
0
220
0
230
1
0
LINE
5
161
100
AcDbEntity
8
1
62
256
6
ByLayer
370
18
48
1
60
1
100
AcDbLine
10
44
20
-5
30
0
11
43.539216
21
-1.500002
31
0
39
0
210
0
220
0
230
1
0
LINE
5
162
100
AcDbEntity
8
1
62
256
6
ByLayer
370
18
48
1
60
1
100
AcDbLine
10
43.539216
20
-1.500002
30
0
11
44.460784
21
-1.499998
31
0
39
0
210
0
220
0
230
1
0
LINE
5
163
100
AcDbEntity
8
1
62
256
6
ByLayer
370
18
48
1
60
1
100
AcDbLine
10
44.460784
20
-1.499998
30
0
11
44
21
-5
31
0
39
0
210
0
220
0
230
1
0
LINE
5
166
100
AcDbEntity
8
1
62
256
6
ByLayer
370
18
48
1
60
1
100
AcDbLine
10
-40
20
-51.87335
30
0
11
-36.500002
21
-51.412566
31
0
39
0
210
0
220
0
230
1
0
LINE
5
167
100
AcDbEntity
8
1
62
256
6
ByLayer
370
18
48
1
60
1
100
AcDbLine
10
-36.500002
20
-51.412566
30
0
11
-36.499998
21
-52.334134
31
0
39
0
210
0
220
0
230
1
0
LINE
5
168
100
AcDbEntity
8
1
62
256
6
ByLayer
370
18
48
1
60
1
100
AcDbLine
10
-36.499998
20
-52.334134
30
0
11
-40
21
-51.87335
31
0
39
0
210
0
220
0
230
1
0
LINE
5
16A
100
AcDbEntity
8
1
62
256
6
ByLayer
370
18
48
1
60
1
100
AcDbLine
10
32
20
-51.87335
30
0
11
28.500002
21
-52.334134
31
0
39
0
210
0
220
0
230
1
0
LINE
5
16B
100
AcDbEntity
8
1
62
256
6
ByLayer
370
18
48
1
60
1
100
AcDbLine
10
28.500002
20
-52.334134
30
0
11
28.499998
21
-51.412566
31
0
39
0
210
0
220
0
230
1
0
LINE
5
16C
100
AcDbEntity
8
1
62
256
6
ByLayer
370
18
48
1
60
1
100
AcDbLine
10
28.499998
20
-51.412566
30
0
11
32
21
-51.87335
31
0
39
0
210
0
220
0
230
1
0
MTEXT
5
145
100
AcDbEntity
8
SK2
62
256
6
ByLayer
370
18
48
1
60
0
100
AcDbMText
10
-49.214634
20
-21.121222
30
0
210
0
220
0
230
1
1
%%c
40
3.5
41
0
44
1.084337
50
90
71
7
72
5
7
iso_b_vert
0
MTEXT
5
148
100
AcDbEntity
8
SK2
62
256
6
ByLayer
370
18
48
1
60
0
100
AcDbMText
10
-49.214634
20
-14.148566
30
0
210
0
220
0
230
1
1
\W0.5321;10
40
3.5
41
0
44
1.084337
50
90
71
7
72
5
7
iso_b_vert
0
MTEXT
5
151
100
AcDbEntity
8
SK2
62
256
6
ByLayer
370
18
48
1
60
0
100
AcDbMText
10
9.077026
20
16.734844
30
0
210
0
220
0
230
1
1
%%c
40
3.5
41
0
44
1.084337
50
90
71
7
72
5
7
iso_b_vert
0
MTEXT
5
152
100
AcDbEntity
8
SK2
62
256
6
ByLayer
370
18
48
1
60
0
100
AcDbMText
10
9.077026
20
23.7075
30
0
210
0
220
0
230
1
1
\W0.7121;9.6
40
3.5
41
0
44
1.084337
50
90
71
7
72
5
7
iso_b_vert
0
MTEXT
5
15B
100
AcDbEntity
8
2
62
256
6
ByLayer
370
18
48
1
60
0
100
AcDbMText
10
42.435366
20
12.934844
30
0
210
0
220
0
230
1
1
%%c
40
3.5
41
0
44
1.084337
50
90
71
7
72
5
7
iso_b_vert
0
MTEXT
5
15C
100
AcDbEntity
8
2
62
256
6
ByLayer
370
18
48
1
60
0
100
AcDbMText
10
42.435366
20
19.9075
30
0
210
0
220
0
230
1
1
\W0.5321;10
40
3.5
41
0
44
1.084337
50
90
71
7
72
5
7
iso_b_vert
0
MTEXT
5
165
100
AcDbEntity
8
SK2
62
256
6
ByLayer
370
18
48
1
60
0
100
AcDbMText
10
-5.904966
20
-50.840717
30
0
210
0
220
0
230
1
1
\W0.6740;72
40
3.5
41
0
44
1.084337
50
0
71
7
72
5
7
iso_b_vert
0
MTEXT
5
16E
100
AcDbEntity
8
SK6
62
256
6
ByLayer
370
18
48
1
60
0
100
AcDbMText
10
-28.251899
20
-62.227986
30
0
210
0
220
0
230
1
1
\W0.6797;1K223-1000-NH       H10F
40
3
41
0
44
1.084337
50
0
71
7
72
5
7
iso_b_vert
0
HATCH
5
14C
100
AcDbEntity
8
SK2
62
256
6
ByLayer
370
13
48
1
60
0
100
AcDbHatch
10
0
20
0
30
0
210
0
220
0
230
1
2
ANSI31
70
0
71
0
91
1
92
5
93
3
72
1
10
-47.65
20
4.99999999999997
11
-47.1892162584472
21
1.50000169255315
72
1
10
-47.1892162584472
20
1.50000169255315
11
-48.1107837415528
21
1.49999830744679
72
1
10
-48.1107837415528
20
1.49999830744679
11
-47.65
21
4.99999999999997
97
0
75
0
76
1
52
0
41
0.0062
77
0
78
1
53
45
43
0
44
0
45
-0.0139193969876572
46
0.0139193969876572
79
0
47
0
98
1
10
0
20
0
0
HATCH
5
150
100
AcDbEntity
8
SK2
62
256
6
ByLayer
370
13
48
1
60
0
100
AcDbHatch
10
0
20
0
30
0
210
0
220
0
230
1
2
ANSI31
70
0
71
0
91
1
92
5
93
3
72
1
10
-47.65
20
-5.00000000000003
11
-48.1107837415528
21
-1.50000169255321
72
1
10
-48.1107837415528
20
-1.50000169255321
11
-47.1892162584472
21
-1.49999830744685
72
1
10
-47.1892162584472
20
-1.49999830744685
11
-47.65
21
-5.00000000000003
97
0
75
0
76
1
52
0
41
0.0062
77
0
78
1
53
45
43
0
44
0
45
-0.0139193969876572
46
0.0139193969876572
79
0
47
0
98
1
10
0
20
0
0
HATCH
5
156
100
AcDbEntity
8
SK2
62
256
6
ByLayer
370
13
48
1
60
0
100
AcDbHatch
10
0
20
0
30
0
210
0
220
0
230
1
2
ANSI31
70
0
71
0
91
1
92
5
93
3
72
1
10
10.641659784108
20
4.79999999999993
11
11.1024435256608
21
1.30000169255311
72
1
10
11.1024435256608
20
1.30000169255311
11
10.1808760425552
21
1.29999830744674
72
1
10
10.1808760425552
20
1.29999830744674
11
10.641659784108
21
4.79999999999993
97
0
75
0
76
1
52
0
41
0.0062
77
0
78
1
53
45
43
0
44
0
45
-0.0139193969876572
46
0.0139193969876572
79
0
47
0
98
1
10
0
20
0
0
HATCH
5
15A
100
AcDbEntity
8
SK2
62
256
6
ByLayer
370
13
48
1
60
0
100
AcDbHatch
10
0
20
0
30
0
210
0
220
0
230
1
2
ANSI31
70
0
71
0
91
1
92
5
93
3
72
1
10
10.641659784108
20
-4.80000000000007
11
10.1808760425552
21
-1.30000169255325
72
1
10
10.1808760425552
20
-1.30000169255325
11
11.1024435256608
21
-1.29999830744688
72
1
10
11.1024435256608
20
-1.29999830744688
11
10.641659784108
21
-4.80000000000007
97
0
75
0
76
1
52
0
41
0.0062
77
0
78
1
53
45
43
0
44
0
45
-0.0139193969876572
46
0.0139193969876572
79
0
47
0
98
1
10
0
20
0
0
HATCH
5
160
100
AcDbEntity
8
2
62
256
6
ByLayer
370
13
48
1
60
0
100
AcDbHatch
10
0
20
0
30
0
210
0
220
0
230
1
2
ANSI31
70
0
71
0
91
1
92
5
93
3
72
1
10
44
20
4.99999999999986
11
44.4607837415528
21
1.50000169255304
72
1
10
44.4607837415528
20
1.50000169255304
11
43.5392162584472
21
1.49999830744667
72
1
10
43.5392162584472
20
1.49999830744667
11
44
21
4.99999999999986
97
0
75
0
76
1
52
0
41
0.0062
77
0
78
1
53
45
43
0
44
0
45
-0.0139193969876572
46
0.0139193969876572
79
0
47
0
98
1
10
0
20
0
0
HATCH
5
164
100
AcDbEntity
8
2
62
256
6
ByLayer
370
13
48
1
60
0
100
AcDbHatch
10
0
20
0
30
0
210
0
220
0
230
1
2
ANSI31
70
0
71
0
91
1
92
5
93
3
72
1
10
44
20
-5.00000000000014
11
43.5392162584472
21
-1.50000169255333
72
1
10
43.5392162584472
20
-1.50000169255333
11
44.4607837415528
21
-1.49999830744696
72
1
10
44.4607837415528
20
-1.49999830744696
11
44
21
-5.00000000000014
97
0
75
0
76
1
52
0
41
0.0062
77
0
78
1
53
45
43
0
44
0
45
-0.0139193969876572
46
0.0139193969876572
79
0
47
0
98
1
10
0
20
0
0
HATCH
5
169
100
AcDbEntity
8
SK2
62
256
6
ByLayer
370
13
48
1
60
0
100
AcDbHatch
10
0
20
0
30
0
210
0
220
0
230
1
2
ANSI31
70
0
71
0
91
1
92
5
93
3
72
1
10
-40
20
-51.8733501286193
11
-36.5000016925532
21
-51.4125663870666
72
1
10
-36.5000016925532
20
-51.4125663870666
11
-36.4999983074468
21
-52.3341338701721
72
1
10
-36.4999983074468
20
-52.3341338701721
11
-40
21
-51.8733501286193
97
0
75
0
76
1
52
0
41
0.0062
77
0
78
1
53
45
43
0
44
0
45
-0.0139193969876572
46
0.0139193969876572
79
0
47
0
98
1
10
0
20
0
0
HATCH
5
16D
100
AcDbEntity
8
SK2
62
256
6
ByLayer
370
13
48
1
60
0
100
AcDbHatch
10
0
20
0
30
0
210
0
220
0
230
1
2
ANSI31
70
0
71
0
91
1
92
5
93
3
72
1
10
32
20
-51.8733501286193
11
28.5000016925532
21
-52.3341338701721
72
1
10
28.5000016925532
20
-52.3341338701721
11
28.4999983074468
21
-51.4125663870666
72
1
10
28.4999983074468
20
-51.4125663870666
11
32
21
-51.8733501286193
97
0
75
0
76
1
52
0
41
0.0062
77
0
78
1
53
45
43
0
44
0
45
-0.0139193969876572
46
0.0139193969876572
79
0
47
0
98
1
10
0
20
0
0
DIMENSION
5
171
100
AcDbEntity
8
2
62
256
6
ByLayer
370
18
48
1
60
0
100
AcDbDimension
2
_U0
10
17
20
-19.87335
30
0
11
24.5
21
-19.87335
31
0
70
32
71
1
72
1
41
1
210
0
220
0
230
1
3
Standard
100
AcDbAlignedDimension
13
32
23
-5
33
0
14
17
24
-5
34
0
50
0
100
AcDbRotatedDimension
1001
ACAD
1000
DSTYLE
1002
{
1070
   371
1070
    13
1070
   372
1070
    13
1070
   170
1070
     0
1070
   144
1040
1.0
1070
   277
1070
     2
1070
   284
1070
     8
1070
   278
1070
    46
1070
   146
1040
1.0
1070
   345
1005
16
1070
   347
1005
16
1070
   346
1005
16
1070
   344
1005
0
1070
   343
1005
0
1070
   172
1070
     1
1070
    76
1070
     0
1070
    75
1070
     0
1070
   282
1070
     0
1070
   281
1070
     0
1070
    71
1070
     0
1070
    74
1070
     0
1070
   279
1070
     0
1070
   173
1070
     1
1070
   340
1005
146
1070
   271
1070
     2
1070
   272
1070
     2
1070
    77
1070
     1
1070
    73
1070
     1
1070
   171
1070
     3
1070
   274
1070
     4
1070
   177
1070
     2
1070
   176
1070
     2
1070
   178
1070
     2
1070
    78
1070
     8
1070
    48
1040
-0.1
1070
    41
1040
3.5
1070
   147
1040
1.75
1070
    42
1040
1.5875
1070
    44
1040
2.0
1070
   140
1040
3.5
1002
}
1001
ACAD_DSTYLE_DIM_LINETYPE
1070
   380
1005
16
1001
ACAD_DSTYLE_DIM_EXT1_LINETYPE
1070
   381
1005
16
1001
ACAD_DSTYLE_DIM_EXT2_LINETYPE
1070
   382
1005
16
0
DIMENSION
5
18B
100
AcDbEntity
8
SK2
62
256
6
ByLayer
370
18
48
1
60
0
100
AcDbDimension
2
_U1
10
1.997679
20
-34.87335
30
0
11
16.998839
21
-34.87335
31
0
70
32
71
1
72
1
41
1
210
0
220
0
230
1
3
Standard
100
AcDbAlignedDimension
13
32
23
-5
33
0
14
1.997679
24
-4.8
34
0
50
0
100
AcDbRotatedDimension
1001
ACAD
1000
DSTYLE
1002
{
1070
   371
1070
    13
1070
   372
1070
    13
1070
   170
1070
     0
1070
   144
1040
1.0
1070
   277
1070
     2
1070
   284
1070
     8
1070
   278
1070
    46
1070
   146
1040
1.0
1070
   345
1005
16
1070
   347
1005
16
1070
   346
1005
16
1070
   344
1005
0
1070
   343
1005
0
1070
   172
1070
     1
1070
    76
1070
     0
1070
    75
1070
     0
1070
   282
1070
     0
1070
   281
1070
     0
1070
    71
1070
     0
1070
    74
1070
     0
1070
   279
1070
     0
1070
   173
1070
     1
1070
   340
1005
146
1070
   271
1070
     2
1070
   272
1070
     2
1070
    77
1070
     1
1070
    73
1070
     1
1070
   171
1070
     3
1070
   274
1070
     4
1070
   177
1070
     2
1070
   176
1070
     2
1070
   178
1070
     2
1070
    78
1070
     8
1070
    48
1040
-0.1
1070
    41
1040
3.5
1070
   147
1040
1.75
1070
    42
1040
1.5875
1070
    44
1040
2.0
1070
   140
1040
3.5
1002
}
1001
ACAD_DSTYLE_DIM_LINETYPE
1070
   380
1005
16
1001
ACAD_DSTYLE_DIM_EXT1_LINETYPE
1070
   381
1005
16
1001
ACAD_DSTYLE_DIM_EXT2_LINETYPE
1070
   382
1005
16
0
ENDSEC
0
SECTION
2
OBJECTS
0
DICTIONARY
5
213
330
0
100
AcDbDictionary
280
0
281
1
3
ACAD_GROUP
350
214
3
ACAD_MLINESTYLE
350
215
0
DICTIONARY
5
214
330
0
100
AcDbDictionary
280
0
281
1
0
DICTIONARY
5
215
330
0
100
AcDbDictionary
280
0
281
1
3
Standard
350
18
0
MLINESTYLE
5
18
330
215
100
AcDbMlineStyle
2
Standard
70
0
3

62
256
51
90
52
90
71
2
49
-0.5
62
256
6
ByLayer
49
0.5
62
256
6
ByLayer
0
RASTERVARIABLES
5
201
330

100
AcDbRasterVariables
90
0
70
1
71
1
72
1
0
ENDSEC
0
EOF
