0
SECTION
2
HEADER
9
$ACADVER
1
AC1015
9
$DWGCODEPAGE
3
ANSI_1252
9
$HANDSEED
5
1f4
9
$ANGBASE
50
0
9
$ANGDIR
70
0
9
$ATTMODE
70
1
9
$AUNITS
70
0
9
$AUPREC
70
0
9
$CECOLOR
62
256
9
$CELTSCALE
40
1
9
$CELTYPE
6
ByLayer
9
$CELWEIGHT
370
18
9
$CLAYER
8
0
9
$CMLJUST
70
0
9
$CMLSCALE
40
1
9
$CMLSTYLE
2
Standard
9
$DIMSTYLE
2
Standard
9
$TEXTSIZE
40
0.2
9
$TEXTSTYLE
7
Standard
9
$LUNITS
70
2
9
$LUPREC
70
4
9
$EXTNAMES
290
1
9
$INSUNITS
70
4
9
$LTSCALE
40
1
9
$LWDISPLAY
290
1
9
$PDMODE
70
0
9
$PDSIZE
40
0
9
$PLINEGEN
70
0
0
ENDSEC
0
SECTION
2
CLASSES
0
CLASS
1
RASTERVARIABLES
2
AcDbRasterVariables
3
ISM
90
0
280
0
281
0
0
ENDSEC
0
SECTION
2
TABLES
0
TABLE
2
VPORT
5
1ea
100
AcDbSymbolTable
0
VPORT
5
1
100
AcDbSymbolTableRecord
100
AcDbViewportTableRecord
2
*Active
70
0
10
0
20
0
11
1
21
1
12
-1
22
1
13
0
23
0
14
0.5
24
0.5
15
10
25
10
16
0
26
0
36
1
17
0
27
0
37
0
0
ENDTAB
0
TABLE
2
LTYPE
5
1eb
100
AcDbSymbolTable
0
LTYPE
5
14
100
AcDbSymbolTableRecord
100
AcDbLinetypeTableRecord
70
0
2
ByBlock
3

72
65
73
0
40
0
0
LTYPE
5
15
100
AcDbSymbolTableRecord
100
AcDbLinetypeTableRecord
70
0
2
ByLayer
3

72
65
73
0
40
0
0
LTYPE
5
16
100
AcDbSymbolTableRecord
100
AcDbLinetypeTableRecord
70
0
2
Continuous
3
Solid line
72
65
73
0
40
0
0
LTYPE
5
6E
100
AcDbSymbolTableRecord
100
AcDbLinetypeTableRecord
70
0
2
CENTER
3
____ _ ____ _ ____ _ ____
72
65
73
4
40
47.5
49
22
74
0
49
-8.5
74
0
49
8.5
74
0
49
-8.5
74
0
0
LTYPE
5
6F
100
AcDbSymbolTableRecord
100
AcDbLinetypeTableRecord
70
0
2
DASHED
3
__ __ __ __ __ __ __ __ __
72
65
73
2
40
25.72
49
12.86
74
0
49
-12.86
74
0
0
ENDTAB
0
TABLE
2
LAYER
5
1ec
100
AcDbSymbolTable
0
LAYER
5
10
100
AcDbSymbolTableRecord
100
AcDbLayerTableRecord
2
0
70
0
62
7
6
Continuous
290
1
370
-3
390
0
0
LAYER
5
71
100
AcDbSymbolTableRecord
100
AcDbLayerTableRecord
2
80
70
0
62
-6
6
Continuous
290
1
370
-3
390
0
0
LAYER
5
73
100
AcDbSymbolTableRecord
100
AcDbLayerTableRecord
2
81
70
0
62
-3
6
Continuous
290
1
370
-3
390
0
0
LAYER
5
75
100
AcDbSymbolTableRecord
100
AcDbLayerTableRecord
2
1
70
0
62
4
6
Continuous
290
1
370
-3
390
0
0
LAYER
5
78
100
AcDbSymbolTableRecord
100
AcDbLayerTableRecord
2
4
70
0
62
-2
6
CENTER
290
1
370
-3
390
0
0
LAYER
5
C3
100
AcDbSymbolTableRecord
100
AcDbLayerTableRecord
2
2
70
0
62
7
6
Continuous
290
1
370
-3
390
0
0
LAYER
5
161
100
AcDbSymbolTableRecord
100
AcDbLayerTableRecord
2
Defpoints
70
0
62
7
6
Continuous
290
0
370
-3
390
0
0
LAYER
5
1d6
100
AcDbSymbolTableRecord
100
AcDbLayerTableRecord
2
SK4
70
0
62
2
6
CENTER
290
1
370
-3
390
0
0
LAYER
5
1d7
100
AcDbSymbolTableRecord
100
AcDbLayerTableRecord
2
SK1
70
0
62
4
6
Continuous
290
1
370
-3
390
0
0
LAYER
5
1d8
100
AcDbSymbolTableRecord
100
AcDbLayerTableRecord
2
SK2
70
0
62
7
6
Continuous
290
1
370
-3
390
0
0
LAYER
5
1d9
100
AcDbSymbolTableRecord
100
AcDbLayerTableRecord
2
SK6
70
0
62
5
6
Continuous
290
1
370
-3
390
0
0
ENDTAB
0
TABLE
2
STYLE
5
1ed
100
AcDbSymbolTable
0
STYLE
5
11
100
AcDbSymbolTableRecord
100
AcDbTextStyleTableRecord
2
Standard
3
txt
70
0
71
0
40
0
41
1
42
0
50
0
0
STYLE
5
13D
100
AcDbSymbolTableRecord
100
AcDbTextStyleTableRecord
2
iso_b_vert
3
simplex.shx
70
0
71
0
40
0
41
1
42
0
50
0
0
STYLE
5
13E
100
AcDbSymbolTableRecord
100
AcDbTextStyleTableRecord
2
DWGDirectTextStyle
3
simplex
70
0
71
0
40
0
41
1
42
0
50
0
0
ENDTAB
0
TABLE
2
DIMSTYLE
5
1ee
100
AcDbSymbolTable
100
AcDbDimStyleTable
0
DIMSTYLE
105
27
100
AcDbSymbolTableRecord
100
AcDbDimStyleTableRecord
2
Standard
70
0
3
<>
41
0.18
42
0.0625
44
0.18
140
0.18
147
0.09
73
0
74
0
77
1
271
2
275
0
278
52
280
0
340
11
0
ENDTAB
0
TABLE
2
VIEW
5
1ef
100
AcDbSymbolTable
0
ENDTAB
0
TABLE
2
UCS
5
1f0
100
AcDbSymbolTable
0
ENDTAB
0
TABLE
2
APPID
5
1f1
100
AcDbSymbolTable
0
APPID
5
12
100
AcDbSymbolTableRecord
100
AcDbRegAppTableRecord
2
ACAD
70
0
0
APPID
5
15D
100
AcDbSymbolTableRecord
100
AcDbRegAppTableRecord
2
ACAD_DSTYLE_DIMBREAK
70
0
0
APPID
5
195
100
AcDbSymbolTableRecord
100
AcDbRegAppTableRecord
2
ACAD_DSTYLE_DIM_LINETYPE
70
0
0
APPID
5
196
100
AcDbSymbolTableRecord
100
AcDbRegAppTableRecord
2
ACAD_DSTYLE_DIM_EXT1_LINETYPE
70
0
0
APPID
5
197
100
AcDbSymbolTableRecord
100
AcDbRegAppTableRecord
2
ACAD_DSTYLE_DIM_EXT2_LINETYPE
70
0
0
APPID
5
1D2
100
AcDbSymbolTableRecord
100
AcDbRegAppTableRecord
2
ACAD_MLEADERVER
70
0
0
ENDTAB
0
TABLE
2
BLOCK_RECORD
5
1f2
100
AcDbSymbolTable
0
BLOCK_RECORD
5
1F
100
AcDbSymbolTableRecord
100
AcDbBlockTableRecord
2
*Model_Space
340
0
70
0
0
BLOCK_RECORD
5
1B
100
AcDbSymbolTableRecord
100
AcDbBlockTableRecord
2
*Paper_Space
340
0
70
0
0
BLOCK_RECORD
5
23
100
AcDbSymbolTableRecord
100
AcDbBlockTableRecord
2
*Paper_Space0
340
0
70
0
0
BLOCK_RECORD
5
162
100
AcDbSymbolTableRecord
100
AcDbBlockTableRecord
2
*D1
340
0
70
0
0
BLOCK_RECORD
5
16E
100
AcDbSymbolTableRecord
100
AcDbBlockTableRecord
2
_U0
340
0
70
0
0
ENDTAB
0
ENDSEC
0
SECTION
2
BLOCKS
0
BLOCK
5
20
100
AcDbEntity
8
0
100
AcDbBlockBegin
2
*Model_Space
70
0
10
0
20
0
30
0
3
*Model_Space
0
ENDBLK
5
21
100
AcDbEntity
8
0
100
AcDbBlockEnd
0
BLOCK
5
1C
100
AcDbEntity
8
0
100
AcDbBlockBegin
2
*Paper_Space
70
0
10
0
20
0
30
0
3
*Paper_Space
0
ENDBLK
5
1D
100
AcDbEntity
8
0
100
AcDbBlockEnd
0
BLOCK
5
24
100
AcDbEntity
8
0
100
AcDbBlockBegin
2
*Paper_Space0
70
0
10
0
20
0
30
0
3
*Paper_Space0
0
ENDBLK
5
25
100
AcDbEntity
8
0
100
AcDbBlockEnd
0
BLOCK
5
163
100
AcDbEntity
8
0
100
AcDbBlockBegin
2
*D1
70
1
10
0
20
0
30
0
3
*D1
0
LINE
5
165
100
AcDbEntity
8
0
62
256
6
ByLayer
370
-2
48
1
60
0
100
AcDbLine
10
38
20
-7.5876
30
0
11
38
21
-23.10012
31
0
39
0
210
0
220
0
230
1
0
LINE
5
166
100
AcDbEntity
8
0
62
256
6
ByLayer
370
-2
48
1
60
0
100
AcDbLine
10
12
20
-7.5876
30
0
11
12
21
-23.10012
31
0
39
0
210
0
220
0
230
1
0
LINE
5
167
100
AcDbEntity
8
0
62
256
6
ByLayer
370
-2
48
1
60
0
100
AcDbLine
10
34.5
20
-21.10012
30
0
11
15.5
21
-21.10012
31
0
39
0
210
0
220
0
230
1
0
SOLID
5
168
100
AcDbEntity
8
0
62
256
6
ByLayer
370
-1
48
1
60
0
100
AcDbTrace
10
34.5
20
-21.683454
30
0
11
34.5
21
-20.516787
31
0
12
38
22
-21.10012
32
0
13
38
23
-21.10012
33
0
39
0
210
0
220
0
230
1
0
SOLID
5
169
100
AcDbEntity
8
0
62
256
6
ByLayer
370
-1
48
1
60
0
100
AcDbTrace
10
15.5
20
-20.516787
30
0
11
15.5
21
-21.683454
31
0
12
12
22
-21.10012
32
0
13
12
23
-21.10012
33
0
39
0
210
0
220
0
230
1
0
MTEXT
5
16A
100
AcDbEntity
8
0
62
256
6
ByLayer
370
18
48
1
60
0
100
AcDbMText
10
25
20
-14.10012
30
0
210
0
220
0
230
1
1
\A1;26
40
3.5
41
0
44
1
50
0
71
5
72
5
7
iso_b_vert
0
POINT
5
16B
100
AcDbEntity
8
Defpoints
62
0
6
ByLayer
370
-1
48
1
60
0
100
AcDbPoint
10
38
20
-6.0001
30
0
39
0
210
0
220
0
230
1
50
360
0
POINT
5
16C
100
AcDbEntity
8
Defpoints
62
0
6
ByLayer
370
-1
48
1
60
0
100
AcDbPoint
10
12
20
-6.0001
30
0
39
0
210
0
220
0
230
1
50
360
0
POINT
5
16D
100
AcDbEntity
8
Defpoints
62
0
6
ByLayer
370
-1
48
1
60
0
100
AcDbPoint
10
12
20
-21.10012
30
0
39
0
210
0
220
0
230
1
50
360
0
ENDBLK
5
164
100
AcDbEntity
8
0
100
AcDbBlockEnd
0
BLOCK
5
175
100
AcDbEntity
8
0
100
AcDbBlockBegin
2
_U0
70
0
10
0
20
0
30
0
3
_U0
0
MTEXT
5
16F
100
AcDbEntity
8
2
62
256
6
ByLayer
370
18
48
1
60
0
100
AcDbMText
10
23.095034
20
-20.067487
30
0
210
0
220
0
230
1
1
\W0.6740;26
40
3.5
41
0
44
1.084337
50
0
71
7
72
5
7
iso_b_vert
0
LINE
5
170
100
AcDbEntity
8
2
62
256
6
ByLayer
370
13
48
1
60
0
100
AcDbLine
10
38
20
-7.5876
30
0
11
38
21
-23.10012
31
0
39
0
210
0
220
0
230
1
0
LINE
5
171
100
AcDbEntity
8
2
62
256
6
ByLayer
370
13
48
1
60
0
100
AcDbLine
10
12
20
-7.5876
30
0
11
12
21
-23.10012
31
0
39
0
210
0
220
0
230
1
0
LINE
5
172
100
AcDbEntity
8
2
62
256
6
ByLayer
370
13
48
1
60
0
100
AcDbLine
10
38
20
-21.10012
30
0
11
12
21
-21.10012
31
0
39
0
210
0
220
0
230
1
0
SOLID
5
173
100
AcDbEntity
8
2
62
256
6
ByLayer
370
18
48
1
60
0
100
AcDbTrace
10
38
20
-21.10012
30
0
11
34.500002
21
-21.560904
31
0
12
34.499998
22
-20.639337
32
0
13
34.499998
23
-20.639337
33
0
39
0
210
0
220
0
230
1
0
SOLID
5
174
100
AcDbEntity
8
2
62
256
6
ByLayer
370
18
48
1
60
0
100
AcDbTrace
10
12
20
-21.10012
30
0
11
15.499998
21
-20.639337
31
0
12
15.500002
22
-21.560904
32
0
13
15.500002
23
-21.560904
33
0
39
0
210
0
220
0
230
1
0
ENDBLK
5
176
100
AcDbEntity
8
0
100
AcDbBlockEnd
0
ENDSEC
0
SECTION
2
ENTITIES
0
ELLIPSE
5
D5
100
AcDbEntity
8
1
62
256
6
ByLayer
370
18
48
1
60
0
100
AcDbEllipse
10
18.521743
20
0
30
0
11
13.0430812054479
21
-5.9958336589384
31
0
210
0
220
0
230
1
40
0.01714
41
-2.64695801602339
42
-2.22361076087481
0
ELLIPSE
5
D6
100
AcDbEntity
8
1
62
256
6
ByLayer
370
18
48
1
60
0
100
AcDbEllipse
10
18.038189
20
0
30
0
11
12.0127576189742
21
2.80337781545576
31
0
210
0
220
0
230
1
40
0.441599
41
-2.75760422148466
42
-2.33781265018414
0
ELLIPSE
5
D7
100
AcDbEntity
8
1
62
256
6
ByLayer
370
18
48
1
60
0
100
AcDbEllipse
10
20.814456
20
4.1E-05
30
0
11
50.761189169892
21
-5.99060194485199
31
0
210
0
220
0
230
1
40
0.006581
41
1.74617465092826
42
1.75953153343625
0
POINT
5
70
100
AcDbEntity
8
80
62
256
6
ByLayer
370
18
48
1
60
0
100
AcDbPoint
10
0
20
0
30
0
39
0
210
0
220
0
230
1
50
360
0
POINT
5
72
100
AcDbEntity
8
81
62
256
6
ByLayer
370
18
48
1
60
0
100
AcDbPoint
10
38
20
0
30
0
39
0
210
0
220
0
230
1
50
360
0
POINT
5
74
100
AcDbEntity
8
1
62
256
6
ByLayer
370
18
48
1
60
1
100
AcDbPoint
10
38
20
-6.0001
30
0
39
0
210
0
220
0
230
1
50
360
0
POINT
5
76
100
AcDbEntity
8
1
62
256
6
ByLayer
370
18
48
1
60
1
100
AcDbPoint
10
12
20
-6.0001
30
0
39
0
210
0
220
0
230
1
50
360
0
SPLINE
5
D8
100
AcDbEntity
8
1
62
256
6
ByLayer
370
18
48
1
60
0
100
AcDbSpline
70
4
71
3
72
8
73
4
40
0
40
0
40
0
40
0
40
1
40
1
40
1
40
1
41
1
10
37.8695823801038
20
5.99670625252523
30
0
41
1
10
37.9130428986911
20
5.99355649880511
30
0
41
1
10
37.9565154665567
20
5.99057300943318
30
0
41
1
10
38
20
5.98775462806947
30
0
0
SPLINE
5
D9
100
AcDbEntity
8
1
62
256
6
ByLayer
370
18
48
1
60
0
100
AcDbSpline
70
4
71
3
72
8
73
4
40
0
40
0
40
0
40
0
40
1
40
1
40
1
40
1
41
1
10
37.7350538519101
20
5.99716532373949
30
0
41
1
10
37.7798953337043
20
5.99683999064183
30
0
41
1
10
37.8247381759464
20
5.99668690704058
30
0
41
1
10
37.8695823800549
20
5.99670625253592
30
0
0
SPLINE
5
DA
100
AcDbEntity
8
1
62
256
6
ByLayer
370
18
48
1
60
0
100
AcDbSpline
70
4
71
3
72
8
73
4
40
0
40
0
40
0
40
0
40
1
40
1
40
1
40
1
41
1
10
37.7350538519192
20
5.99716532374268
30
0
41
1
10
37.7790639218551
20
5.85845710048807
30
0
41
1
10
37.826337538613
20
5.72089952502552
30
0
41
1
10
37.8776033761409
20
5.58474951019093
30
0
0
SPLINE
5
DB
100
AcDbEntity
8
1
62
256
6
ByLayer
370
18
48
1
60
0
100
AcDbSpline
70
4
71
3
72
21
73
17
40
0
40
0
40
0
40
0
40
0.0158690563220783
40
0.0158690563220783
40
0.261901792241554
40
0.261901792241554
40
0.384918160201292
40
0.384918160201292
40
0.415672252191227
40
0.415672252191227
40
0.446426344181161
40
0.50793452816103
40
0.50793452816103
40
0.753967264080515
40
0.753967264080515
40
1
40
1
40
1
40
1
41
1
10
31.2028858607083
20
4.20931704554218
30
0
41
1
10
31.2372276382963
20
4.22645223668425
30
0
41
1
10
31.2715682805014
20
4.24348568947616
30
0
41
1
10
31.838318485161
20
4.5229130163919
30
0
41
1
10
32.3705790829332
20
4.76075610944147
30
0
41
1
10
33.1734028044187
20
5.07556185423636
30
0
41
1
10
33.441752108042
20
5.17351380058994
30
0
41
1
10
33.7786153080581
20
5.28669508941644
30
0
41
1
10
33.8460941897998
20
5.30887914906052
30
0
41
1
10
33.9810449382303
20
5.3522537643469
30
0
41
1
10
34.1832880363976
20
5.41577160167262
30
0
41
1
10
34.3850383611413
20
5.47464392576816
30
0
41
1
10
35.0566836490947
20
5.66049126076496
30
0
41
1
10
35.5912404232723
20
5.77586336578671
30
0
41
1
10
36.6610474771814
20
5.93838477533092
30
0
41
1
10
37.1963030494546
20
5.98554941912738
30
0
41
1
10
37.7350538519107
20
5.99716532373921
30
0
0
SPLINE
5
DC
100
AcDbEntity
8
1
62
256
6
ByLayer
370
18
48
1
60
0
100
AcDbSpline
70
4
71
3
72
15
73
11
40
0
40
0
40
0
40
0
40
0.125331629509146
40
0.250564748910557
40
0.375701282626984
40
0.500743119059177
40
0.625692110591467
40
0.750550073615081
40
0.875318788569347
40
1
40
1
40
1
40
1
41
1
10
10.6636761415869
20
-5.90523796492158
30
0
41
1
10
10.6554352891003
20
-5.90793523009185
30
0
41
1
10
10.6389600614009
20
-5.91332764039387
30
0
41
1
10
10.614359559099
20
-5.92175404694743
30
0
41
1
10
10.5898538041717
20
-5.93042115993242
30
0
41
1
10
10.5654502726007
20
-5.93935203988045
30
0
41
1
10
10.5411464470276
20
-5.9485364778717
30
0
41
1
10
10.5169449060153
20
-5.95798052147703
30
0
41
1
10
10.4928378378968
20
-5.96765844317582
30
0
41
1
10
10.4768429836452
20
-5.97432528637131
30
0
41
1
10
10.4688483619043
20
-5.97765753865164
30
0
0
SPLINE
5
DD
100
AcDbEntity
8
1
62
256
6
ByLayer
370
18
48
1
60
0
100
AcDbSpline
70
4
71
3
72
15
73
11
40
0
40
0
40
0
40
0
40
0.500000000000001
40
0.500000000000001
40
0.625
40
0.687500000000002
40
0.687500000000002
40
0.750000000000003
40
0.750000000000003
40
1
40
1
40
1
40
1
41
1
10
37.9730069111249
20
5.2740463990807
30
0
41
1
10
37.9535139068343
20
5.10771571587085
30
0
41
1
10
37.9362439888766
20
4.94027999078426
30
0
41
1
10
37.9174684133143
20
4.72958764649707
30
0
41
1
10
37.9120478850265
20
4.6662744914247
30
0
41
1
10
37.9069504035181
20
4.60280075769447
30
0
41
1
10
37.903624583987
20
4.56044889649692
30
0
41
1
10
37.9019975114118
20
4.53924802038705
30
0
41
1
10
37.8940851399515
20
4.43369913173379
30
0
41
1
10
37.8884329839392
20
4.35028260361489
30
0
41
1
10
37.8834332451625
20
4.26785044930858
30
0
0
SPLINE
5
DE
100
AcDbEntity
8
1
62
256
6
ByLayer
370
18
48
1
60
0
100
AcDbSpline
70
4
71
3
72
8
73
4
40
0
40
0
40
0
40
0
40
1
40
1
40
1
40
1
41
1
10
37.8776033899229
20
5.58474951496939
30
0
41
1
10
37.9159119610899
20
5.48300998078381
30
0
41
1
10
37.9483253346185
20
5.37961426507982
30
0
41
1
10
37.9730069111246
20
5.27404639908059
30
0
0
SPLINE
5
DF
100
AcDbEntity
8
1
62
256
6
ByLayer
370
13
48
1
60
0
100
AcDbSpline
70
4
71
3
72
11
73
7
40
0
40
0
40
0
40
0
40
0.242746767721729
40
0.505266805090017
40
0.767786842458305
40
1
40
1
40
1
40
1
41
1
10
37.8776033879251
20
5.58474951511698
30
0
41
1
10
37.3767355919501
20
5.57572031654579
30
0
41
1
10
36.3342011293084
20
5.49683446636507
30
0
41
1
10
34.75
20
5.19366881300249
30
0
41
1
10
33.1875332326527
20
4.71384142255573
30
0
41
1
10
32.166733131972
20
4.30167839340029
30
0
41
1
10
31.687599697958
20
4.08888584121348
30
0
0
SPLINE
5
E0
100
AcDbEntity
8
1
62
256
6
ByLayer
370
18
48
1
60
0
100
AcDbSpline
70
4
71
3
72
40
73
36
40
0
40
0
40
0
40
0
40
0.0175251040998465
40
0.0175251040998465
40
0.0350502081996929
40
0.0701004163993865
40
0.10515062459908
40
0.10515062459908
40
0.122675728698927
40
0.122675728698927
40
0.140200832798774
40
0.140200832798774
40
0.210301249198154
40
0.210301249198154
40
0.280401665597534
40
0.280401665597534
40
0.315451873797219
40
0.315451873797219
40
0.350502081996904
40
0.350502081996904
40
0.420602498396263
40
0.420602498396263
40
0.490702914795622
40
0.490702914795622
40
0.560803331194982
40
0.560803331194982
40
0.701004163993711
40
0.701004163993711
40
0.841204996792441
40
0.841204996792441
40
0.9113054131918
40
0.9113054131918
40
0.981405829591159
40
0.981405829591159
40
1
40
1
40
1
40
1
41
1
10
37.8834332451512
20
4.26785044931106
30
0
41
1
10
37.8738341319667
20
4.2492295907694
30
0
41
1
10
37.8637266686538
20
4.23077638118741
30
0
41
1
10
37.8425524548275
20
4.19430628182471
30
0
41
1
10
37.8095546462176
20
4.14059891983646
30
0
41
1
10
37.7486697756976
20
4.05583840844943
30
0
41
1
10
37.6942380799059
20
3.99264883391388
30
0
41
1
10
37.6514530472851
20
3.94683929742234
30
0
41
1
10
37.6368642628355
20
3.93183341168404
30
0
41
1
10
37.6070607857887
20
3.90232671839081
30
0
41
1
10
37.5918171876276
20
3.8878002180945
30
0
41
1
10
37.5145860431377
20
3.81681327649568
30
0
41
1
10
37.4494650412166
20
3.76508317840944
30
0
41
1
10
37.3142136759095
20
3.66922009974977
30
0
41
1
10
37.2440731342739
20
3.62510255534704
30
0
41
1
10
37.1359242267397
20
3.56338210677129
30
0
41
1
10
37.099381574224
20
3.54355632511394
30
0
41
1
10
37.0254165125656
20
3.50523898663513
30
0
41
1
10
36.987929961007
20
3.48671886378716
30
0
41
1
10
36.8750050038561
20
3.43328608462679
30
0
41
1
10
36.7989663414054
20
3.40040121013584
30
0
41
1
10
36.6457206741129
20
3.33886485656495
30
0
41
1
10
36.568511901799
20
3.31021978177895
30
0
41
1
10
36.413159746841
20
3.25631611815012
30
0
41
1
10
36.3350154241243
20
3.23106093558479
30
0
41
1
10
36.0994353989095
20
3.15945165761894
30
0
41
1
10
35.9408654791298
20
3.11720730801866
30
0
41
1
10
35.6215982526433
20
3.04042702556674
30
0
41
1
10
35.4608934737684
20
3.00591816752001
30
0
41
1
10
35.2186485941638
20
2.95845845752865
30
0
41
1
10
35.1377003445961
20
2.94336308013192
30
0
41
1
10
34.975454595177
20
2.9144378058707
30
0
41
1
10
34.8941320434066
20
2.90060439723436
30
0
41
1
10
34.7911827491243
20
2.88382889963421
30
0
41
1
10
34.7695955941065
20
2.88035195783129
30
0
41
1
10
34.7480039757957
20
2.87691383578721
30
0
0
SPLINE
5
E1
100
AcDbEntity
8
1
62
256
6
ByLayer
370
18
48
1
60
0
100
AcDbSpline
70
4
71
3
72
8
73
4
40
0
40
0
40
0
40
0
40
1
40
1
40
1
40
1
41
1
10
10.5616334129604
20
-5.93544477475916
30
0
41
0.999978837416441
10
10.5956004295395
20
-5.92504232110428
30
0
41
0.999978837416441
10
10.6296153922592
20
-5.91497317140258
30
0
41
1
10
10.6636761415863
20
-5.90523796492175
30
0
0
SPLINE
5
E2
100
AcDbEntity
8
1
62
256
6
ByLayer
370
18
48
1
60
0
100
AcDbSpline
70
4
71
3
72
13
73
9
40
0
40
0
40
0
40
0
40
0.0184660507082498
40
0.226933848349804
40
0.435401645991358
40
0.643869443632912
40
0.852337241274466
40
1
40
1
40
1
40
1
41
1
10
10.6636761415856
20
-5.90523796492147
30
0
41
1
10
10.6846061113883
20
-5.90720131128913
30
0
41
1
10
10.9418161428405
20
-5.93067830705175
30
0
41
1
10
11.4352295793477
20
-5.96035078849559
30
0
41
1
10
12.1439548614234
20
-5.96230124643478
30
0
41
1
10
12.852861369736
20
-5.9234067768499
30
0
41
1
10
13.493195355686
20
-5.85171000574445
30
0
41
1
10
13.8973929287818
20
-5.78697516202243
30
0
41
1
10
14.0650503082512
20
-5.75680572009344
30
0
0
SPLINE
5
E3
100
AcDbEntity
8
1
62
256
6
ByLayer
370
18
48
1
60
0
100
AcDbSpline
70
4
71
3
72
25
73
21
40
0
40
0
40
0
40
0
40
0.0553656408245571
40
0.11074962582033
40
0.166152753278715
40
0.221575808157299
40
0.277019562219977
40
0.332484774175299
40
0.38797218981314
40
0.443482542139759
40
0.499016551511219
40
0.554574925765261
40
0.610158360351637
40
0.665767538461016
40
0.721403131152324
40
0.777065797478809
40
0.83275618461268
40
0.888474929073822
40
0.944222661151637
40
1
40
1
40
1
40
1
41
1
10
11.0656735137228
20
-5.58666378761782
30
0
41
1
10
11.0579497223393
20
-5.59182804247155
30
0
41
1
10
11.042499580466
20
-5.60215826323972
30
0
41
1
10
11.019451877622
20
-5.6179824218238
30
0
41
1
10
10.9964928012343
20
-5.63404827304498
30
0
41
1
10
10.9736317694167
20
-5.65037772747007
30
0
41
1
10
10.950866250418
20
-5.66696279900896
30
0
41
1
10
10.9281969165071
20
-5.68380352119024
30
0
41
1
10
10.9056235812987
20
-5.70089778203379
30
0
41
1
10
10.883146289044
20
-5.71824404950527
30
0
41
1
10
10.8607650221961
20
-5.73584064000374
30
0
41
1
10
10.8384797812467
20
-5.75368591746363
30
0
41
1
10
10.8162905579378
20
-5.7717782288081
30
0
41
1
10
10.7941973625177
20
-5.79011596290249
30
0
41
1
10
10.7722001414336
20
-5.8086973791591
30
0
41
1
10
10.7502990794714
20
-5.82752123452045
30
0
41
1
10
10.7284934725623
20
-5.84658444540048
30
0
41
1
10
10.706785936047
20
-5.86589082011136
30
0
41
1
10
10.6851666875371
20
-5.8854184566469
30
0
41
1
10
10.6708409245985
20
-5.89863029303959
30
0
41
1
10
10.6636761415856
20
-5.90523796492147
30
0
0
SPLINE
5
E4
100
AcDbEntity
8
1
62
256
6
ByLayer
370
13
48
1
60
0
100
AcDbSpline
70
4
71
3
72
9
73
5
40
0
40
0
40
0
40
0
40
0.190453079709425
40
1
40
1
40
1
40
1
41
1
10
16.0145912714158
20
-5.21766786558644
30
0
41
1
10
15.7597275142772
20
-5.25964284384992
30
0
41
1
10
14.4215304238053
20
-5.44383364294498
30
0
41
1
10
13.0833333333334
20
-5.43189725776247
30
0
41
1
10
12.0000000000001
20
-5.29189027416055
30
0
0
SPLINE
5
E5
100
AcDbEntity
8
1
62
256
6
ByLayer
370
18
48
1
60
0
100
AcDbSpline
70
4
71
3
72
28
73
24
40
0
40
0
40
0
40
0
40
0.017748201056165
40
0.017748201056165
40
0.0516189527438815
40
0.0516189527438815
40
0.187101959494756
40
0.187101959494756
40
0.322584966245632
40
0.322584966245632
40
0.39032646962107
40
0.39032646962107
40
0.424197221308789
40
0.424197221308789
40
0.458067972996508
40
0.458067972996508
40
0.593550979747381
40
0.593550979747381
40
0.729033986498253
40
0.729033986498253
40
0.864516993249126
40
0.864516993249126
40
1
40
1
40
1
40
1
41
1
10
17.8782997622371
20
-5.00085689264125
30
0
41
1
10
17.8433934577585
20
-5.01258799718099
30
0
41
1
10
17.808483319602
20
-5.02419700057172
30
0
41
1
10
17.7070019508319
20
-5.05758350832622
30
0
41
1
10
17.6404435937752
20
-5.07902965734903
30
0
41
1
10
17.3077851137327
20
-5.18393980894925
30
0
41
1
10
17.0421051267823
20
-5.26041386031568
30
0
41
1
10
16.5110750230539
20
-5.39792677382431
30
0
41
1
10
16.2456686019589
20
-5.45910460417383
30
0
41
1
10
15.847233718808
20
-5.53895944359834
30
0
41
1
10
15.7143683141852
20
-5.56358512846987
30
0
41
1
10
15.5149030221875
20
-5.59753394526857
30
0
41
1
10
15.4483866922121
20
-5.60835222584592
30
0
41
1
10
15.3152840014379
20
-5.62899438295847
30
0
41
1
10
15.2487052311834
20
-5.63881807381085
30
0
41
1
10
14.9161596678569
20
-5.68534088024842
30
0
41
1
10
14.650840658749
20
-5.71423921726179
30
0
41
1
10
14.1208136448448
20
-5.75564521524421
30
0
41
1
10
13.8561532325103
20
-5.76801421245364
30
0
41
1
10
13.326764612974
20
-5.77615902216888
30
0
41
1
10
13.0620346398044
20
-5.771939752696
30
0
41
1
10
12.5317708463231
20
-5.74698162038399
30
0
41
1
10
12.2662424167221
20
-5.72622923753633
30
0
41
1
10
12.0000000000001
20
-5.69704759342923
30
0
0
SPLINE
5
E6
100
AcDbEntity
8
1
62
256
6
ByLayer
370
18
48
1
60
0
100
AcDbSpline
70
4
71
3
72
14
73
10
40
0
40
0
40
0
40
0
40
0.25
40
0.25
40
0.5
40
0.5
40
0.75
40
0.75
40
1
40
1
40
1
40
1
41
1
10
33.6952499969833
20
-1.82162440140914
30
0
41
1
10
33.7098058925249
20
-1.84977769391654
30
0
41
1
10
33.7237856727232
20
-1.87843121851642
30
0
41
1
10
33.7503603348355
20
-1.93694075360054
30
0
41
1
10
33.7629588469251
20
-1.96682114995013
30
0
41
1
10
33.7861715262929
20
-2.02730945538002
30
0
41
1
10
33.7968254899058
20
-2.05799447915581
30
0
41
1
10
33.8158046214011
20
-2.1204425658095
30
0
41
1
10
33.8241342942941
20
-2.1522035432414
30
0
41
1
10
33.8309788979975
20
-2.18465198442746
30
0
0
SPLINE
5
E7
100
AcDbEntity
8
1
62
256
6
ByLayer
370
18
48
1
60
0
100
AcDbSpline
70
4
71
3
72
16
73
12
40
0
40
0
40
0
40
0
40
0.250000000000023
40
0.250000000000023
40
0.375000000000022
40
0.375000000000022
40
0.500000000000022
40
0.500000000000022
40
0.750000000000011
40
0.750000000000011
40
1
40
1
40
1
40
1
41
1
10
33.6952499969811
20
-1.82162440141056
30
0
41
1
10
33.679379106529
20
-1.79092771085143
30
0
41
1
10
33.6672959481216
20
-1.75922470880022
30
0
41
1
10
33.6540666723687
20
-1.71070211104435
30
0
41
1
10
33.6504780738124
20
-1.6943646852622
30
0
41
1
10
33.6448737921957
20
-1.66143404370482
30
0
41
1
10
33.6428587419501
20
-1.64477322223459
30
0
41
1
10
33.6391691995047
20
-1.59546251487527
30
0
41
1
10
33.6397551038643
20
-1.56322901178939
30
0
41
1
10
33.6462904145983
20
-1.50033938711965
30
0
41
1
10
33.6523054097011
20
-1.46955340604274
30
0
41
1
10
33.6607846533055
20
-1.4403775038933
30
0
0
SPLINE
5
E8
100
AcDbEntity
8
1
62
256
6
ByLayer
370
13
48
1
60
0
100
AcDbSpline
70
4
71
3
72
11
73
7
40
0
40
0
40
0
40
0
40
0.0673779234506098
40
0.300533442587957
40
0.533688961725305
40
1
40
1
40
1
40
1
41
1
10
18.9695969712076
20
-3.01475294656936
30
0
41
1
10
18.8130646474717
20
-3.00593838901563
30
0
41
1
10
18.1148656570692
20
-2.96097647590258
30
0
41
1
10
16.875
20
-2.83580330904883
30
0
41
1
10
14.7083333333333
20
-2.50218996564919
30
0
41
1
10
13.0833333333333
20
-2.13525206765712
30
0
41
1
10
12
20
-1.84811363684628
30
0
0
SPLINE
5
E9
100
AcDbEntity
8
1
62
256
6
ByLayer
370
18
48
1
60
0
100
AcDbSpline
70
4
71
3
72
12
73
8
40
0
40
0
40
0
40
0
40
0.141518176270398
40
0.313214541016318
40
0.484910905762239
40
0.656607270508159
40
1
40
1
40
1
40
1
41
1
10
21.4643820933815
20
-4.2854102545754
30
0
41
1
10
21.0179213955876
20
-4.36113533472039
30
0
41
1
10
20.0297940311271
20
-4.4899959389619
30
0
41
1
10
18.5
20
-4.55028827846536
30
0
41
1
10
16.875
20
-4.44923957378487
30
0
41
1
10
14.7083333333333
20
-4.10604458542221
30
0
41
1
10
13.0833333333333
20
-3.62601633237134
30
0
41
1
10
12
20
-3.21913619395622
30
0
0
SPLINE
5
EA
100
AcDbEntity
8
1
62
256
6
ByLayer
370
13
48
1
60
0
100
AcDbSpline
70
4
71
3
72
8
73
4
40
0
40
0
40
0
40
0
40
1
40
1
40
1
40
1
41
1
10
14.395776026213
20
-5.27450804696679
30
0
41
1
10
13.5971840174754
20
-5.29021648034617
30
0
41
1
10
12.7985920087377
20
-5.23729900572838
30
0
41
1
10
11.9999999999999
20
-5.11579416564012
30
0
0
SPLINE
5
EB
100
AcDbEntity
8
1
62
256
6
ByLayer
370
18
48
1
60
0
100
AcDbSpline
70
4
71
3
72
12
73
8
40
0
40
0
40
0
40
0
40
0.281282219436881
40
0.281282219436881
40
0.64064110971844
40
0.64064110971844
40
1
40
1
40
1
40
1
41
1
10
34.2431447519605
20
3.24409125519688
30
0
41
1
10
34.2499356226388
20
3.24216777179782
30
0
41
1
10
34.257135654034
20
3.23981322678304
30
0
41
1
10
34.2744647478411
20
3.23347028176798
30
0
41
1
10
34.2848684497592
20
3.22920074117099
30
0
41
1
10
34.3068255253864
20
3.21934371001879
30
0
41
1
10
34.3183949879023
20
3.21375152641079
30
0
41
1
10
34.3305360591332
20
3.20751736852327
30
0
0
SPLINE
5
EC
100
AcDbEntity
8
1
62
256
6
ByLayer
370
18
48
1
60
0
100
AcDbSpline
70
4
71
3
72
8
73
4
40
0
40
0
40
0
40
0
40
1
40
1
40
1
40
1
41
1
10
10.5927712794863
20
-5.76490190296244
30
0
41
1
10
10.7491580950971
20
-5.69993790134231
30
0
41
1
10
10.9067657590984
20
-5.64056995724215
30
0
41
1
10
11.0656015595232
20
-5.58683147714498
30
0
0
SPLINE
5
ED
100
AcDbEntity
8
1
62
256
6
ByLayer
370
18
48
1
60
0
100
AcDbSpline
70
4
71
3
72
10
73
6
40
0
40
0
40
0
40
0
40
0.5
40
0.5
40
1
40
1
40
1
40
1
41
1
10
12
20
-5.69704759342923
30
0
41
1
10
11.8428910902904
20
-5.68351986912791
30
0
41
1
10
11.686442219101
20
-5.66768339170011
30
0
41
1
10
11.3749684751473
20
-5.63102942328968
30
0
41
1
10
11.2199419432599
20
-5.61021773576493
30
0
41
1
10
11.0657054506117
20
-5.586642564735
30
0
0
SPLINE
5
EE
100
AcDbEntity
8
1
62
256
6
ByLayer
370
18
48
1
60
0
100
AcDbSpline
70
4
71
3
72
13
73
9
40
0
40
0
40
0
40
0
40
0.125
40
0.125
40
0.249999999999999
40
0.499999999999998
40
0.499999999999998
40
1
40
1
40
1
40
1
41
1
10
34.2799839021796
20
-3.25927369576888
30
0
41
1
10
34.272619642601
20
-3.29400562877964
30
0
41
1
10
34.2658132365648
20
-3.32883092156348
30
0
41
1
10
34.2534317847646
20
-3.39826363871569
30
0
41
1
10
34.2367327823453
20
-3.50190743934374
30
0
41
1
10
34.2256852454268
20
-3.60402679918579
30
0
41
1
10
34.2112982444309
20
-3.80618632355001
30
0
41
1
10
34.2119471868901
20
-3.93819710138095
30
0
41
1
10
34.223706461367
20
-4.06721094978343
30
0
0
SPLINE
5
EF
100
AcDbEntity
8
1
62
256
6
ByLayer
370
18
48
1
60
0
100
AcDbSpline
70
4
71
3
72
17
73
13
40
0
40
0
40
0
40
0
40
0.25
40
0.25
40
0.499999999999999
40
0.499999999999999
40
0.624999999999999
40
0.624999999999999
40
0.75
40
0.875
40
0.875
40
1
40
1
40
1
40
1
41
1
10
33.830978903384
20
-2.18465198640635
30
0
41
1
10
33.8517799239712
20
-2.2832501299213
30
0
41
1
10
33.8773360021001
20
-2.37950109243428
30
0
41
1
10
33.9370509911318
20
-2.56775650733059
30
0
41
1
10
33.9712137818022
20
-2.65975904428089
30
0
41
1
10
34.0284622100381
20
-2.79479904930992
30
0
41
1
10
34.0485636416137
20
-2.83935060724886
30
0
41
1
10
34.0906503067478
20
-2.92735160529219
30
0
41
1
10
34.1343931107198
20
-3.01378471258883
30
0
41
1
10
34.1812473657894
20
-3.0972721638376
30
0
41
1
10
34.2295728347838
20
-3.17936679544698
30
0
41
1
10
34.2544850476913
20
-3.21973413404697
30
0
41
1
10
34.2799839021796
20
-3.25927369576888
30
0
0
SPLINE
5
F0
100
AcDbEntity
8
1
62
256
6
ByLayer
370
13
48
1
60
0
100
AcDbSpline
70
4
71
3
72
50
73
46
40
0
40
0
40
0
40
0
40
0.0502868882148406
40
0.166035663192848
40
0.281784438170855
40
0.397533213148863
40
0.484344794382368
40
0.571156375615874
40
0.629030763104877
40
0.686905150593881
40
0.744779538082884
40
0.802653925571888
40
0.846059716188641
40
0.874996909933143
40
0.896699805241519
40
0.91116840211377
40
0.932871297422146
40
0.943722745076334
40
0.954574192730523
40
0.961808491166648
40
0.967234214993742
40
0.972659938820836
40
0.975372800734383
40
0.977181375343415
40
0.977859590821801
40
0.978537806300188
40
0.978876914039382
40
0.979216021778575
40
0.979442093604704
40
0.979668165430833
40
0.97983771930043
40
0.980007273170026
40
0.980092050104825
40
0.980148568061357
40
0.980190956528756
40
0.980289862952688
40
0.980572452735349
40
0.981024596387606
40
0.982154955518251
40
0.983511386475024
40
0.985319961084056
40
0.987128535693087
40
0.988937110302119
40
0.997979983347275
40
1
40
1
40
1
40
1
41
1
10
33.8309789044389
20
-2.1846519861966
30
0
41
1
10
33.5956526029593
20
-2.12001873750833
30
0
41
1
10
32.818659634813
20
-1.89764351839739
30
0
41
1
10
31.5
20
-1.47317005364721
30
0
41
1
10
29.875
20
-0.895723252485254
30
0
41
1
10
28.3854166666667
20
-0.342110729876367
30
0
41
1
10
27.0312500000001
20
0.163904847257015
30
0
41
1
10
25.9479166666667
20
0.560348708070109
30
0
41
1
10
25
20
0.89442377766531
30
0
41
1
10
24.1875
20
1.16937471941415
30
0
41
1
10
23.375
20
1.42959556768571
30
0
41
1
10
22.6302083333333
20
1.65197609125289
30
0
41
1
10
22.0208333333333
20
1.82079832161776
30
0
41
1
10
21.5807291666667
20
1.93548564715277
30
0
41
1
10
21.2760416666666
20
2.01120262649951
30
0
41
1
10
21.0052083333334
20
2.0760778523036
30
0
41
1
10
20.78515625
20
2.12677064211832
30
0
41
1
10
20.58203125
20
2.17183377298673
30
0
41
1
10
20.4466145833333
20
2.20109577589179
30
0
41
1
10
20.3365885416667
20
2.22433572731194
30
0
41
1
10
20.2519531249999
20
2.24192180661333
30
0
41
1
10
20.1884765625
20
2.25492324154538
30
0
41
1
10
20.1419270833334
20
2.26435352683461
30
0
41
1
10
20.1175944010417
20
2.26925267289337
30
0
41
1
10
20.1027832031249
20
2.27222459083041
30
0
41
1
10
20.0948486328126
20
2.27381371551615
30
0
41
1
10
20.0885009765626
20
2.27508322943865
30
0
41
1
10
20.0842692057292
20
2.27592877806481
30
0
41
1
10
20.08056640625
20
2.27666805395253
30
0
41
1
10
20.0776570638021
20
2.27724854944716
30
0
41
1
10
20.0750122070313
20
2.2777759829043
30
0
41
1
10
20.0730285644532
20
2.27817137171499
30
0
41
1
10
20.0715738932291
20
2.27846122103591
30
0
41
1
10
20.0707143147787
20
2.27863246199121
30
0
41
1
10
20.0697886149088
20
2.27881684996427
30
0
41
1
10
20.067804972331
20
2.27921188940272
30
0
41
1
10
20.0639038085929
20
2.27998838795071
30
0
41
1
10
20.0551757812515
20
2.28172386166369
30
0
41
1
10
20.041422526039
20
2.28445251265293
30
0
41
1
10
20.0213216145847
20
2.28842666420059
30
0
41
1
10
19.9980468749997
20
2.29300783421974
30
0
41
1
10
19.9726562500002
20
2.29797989377957
30
0
41
1
10
19.9134114583331
20
2.30952156730066
30
0
41
1
10
19.8531771865883
20
2.32107327489817
30
0
41
1
10
19.8014064565094
20
2.33084028707594
30
0
41
1
10
19.7919534347638
20
2.3326182875561
30
0
0
SPLINE
5
F1
100
AcDbEntity
8
1
62
256
6
ByLayer
370
18
48
1
60
0
100
AcDbSpline
70
4
71
3
72
22
73
18
40
0
40
0
40
0
40
0
40
0.124999999999995
40
0.124999999999995
40
0.249999999999991
40
0.249999999999991
40
0.374999999999986
40
0.374999999999986
40
0.437499999999984
40
0.437499999999984
40
0.499999999999982
40
0.499999999999982
40
0.624999999999986
40
0.624999999999986
40
0.749999999999991
40
0.749999999999991
40
1
40
1
40
1
40
1
41
1
10
34.3305360643687
20
3.20751736540447
30
0
41
1
10
34.3953868227764
20
3.16051646329237
30
0
41
1
10
34.4641601109806
20
3.10814528249367
30
0
41
1
10
34.6076567004246
20
2.99525684981154
30
0
41
1
10
34.6824009294606
20
2.93471094442575
30
0
41
1
10
34.8368198654061
20
2.80686888983709
30
0
41
1
10
34.9165025350046
20
2.73956183903547
30
0
41
1
10
35.0392408846634
20
2.63420055061385
30
0
41
1
10
35.0807392397154
20
2.5983010205355
30
0
41
1
10
35.1640767598179
20
2.52570194938917
30
0
41
1
10
35.2059946981899
20
2.48893538485149
30
0
41
1
10
35.3324378073834
20
2.37734376384071
30
0
41
1
10
35.4176495624437
20
2.30123185895639
30
0
41
1
10
35.5896795886356
20
2.14599699455295
30
0
41
1
10
35.676498963758
20
2.06687196585051
30
0
41
1
10
35.9391442067249
20
1.8253976175553
30
0
41
1
10
36.1171407867858
20
1.65897978399224
30
0
41
1
10
36.2977130793939
20
1.4877343540289
30
0
0
SPLINE
5
F2
100
AcDbEntity
8
1
62
256
6
ByLayer
370
18
48
1
60
0
100
AcDbSpline
70
4
71
3
72
9
73
5
40
0
40
0
40
0
40
0
40
0.564282635047138
40
1
40
1
40
1
40
1
41
1
10
34.3305360562987
20
3.20751736954116
30
0
41
1
10
33.9286907041992
20
3.36776593415593
30
0
41
1
10
33.2165558144449
20
3.62952576822744
30
0
41
1
10
32.5044209246905
20
3.85096799066741
30
0
41
1
10
32.1941313870357
20
3.93844785235771
30
0
0
SPLINE
5
F3
100
AcDbEntity
8
1
62
256
6
ByLayer
370
18
48
1
60
0
100
AcDbSpline
70
4
71
3
72
8
73
4
40
0
40
0
40
0
40
0
40
1
40
1
40
1
40
1
41
1
10
10.5174181991731
20
3.46442604259883
30
0
41
1
10
10.6815548387588
20
3.39083976466608
30
0
41
1
10
10.8473832109607
20
3.31617850785636
30
0
41
1
10
11.0149391131837
20
3.24041952539892
30
0
0
SPLINE
5
F4
100
AcDbEntity
8
1
62
256
6
ByLayer
370
18
48
1
60
0
100
AcDbSpline
70
4
71
3
72
20
73
16
40
0
40
0
40
0
40
0
40
0.25
40
0.25
40
0.375
40
0.375
40
0.5
40
0.5
40
0.625
40
0.625
40
0.75
40
0.75
40
0.875
40
0.875
40
1
40
1
40
1
40
1
41
1
10
37.1680658724885
20
-4.4509677498626
30
0
41
1
10
37.1808780802126
20
-4.43663537342121
30
0
41
1
10
37.1934400684892
20
-4.4240086963442
30
0
41
1
10
37.211869406139
20
-4.40788841331326
30
0
41
1
10
37.2179481124324
20
-4.40298673189355
30
0
41
1
10
37.2298543617675
20
-4.39429442765459
30
0
41
1
10
37.2356937870058
20
-4.39049208083281
30
0
41
1
10
37.2471206387602
20
-4.38409265480618
30
0
41
1
10
37.2527147924018
20
-4.38149707655933
30
0
41
1
10
37.2634593668108
20
-4.37773555740216
30
0
41
1
10
37.2686293541757
20
-4.37655586782097
30
0
41
1
10
37.2785080504007
20
-4.37579504909334
30
0
41
1
10
37.283217527979
20
-4.3762112559541
30
0
41
1
10
37.2920803337562
20
-4.37897100508374
30
0
41
1
10
37.2962187740031
20
-4.38132170935697
30
0
41
1
10
37.2999217475017
20
-4.38480366518772
30
0
0
SPLINE
5
F5
100
AcDbEntity
8
1
62
256
6
ByLayer
370
13
48
1
60
0
100
AcDbSpline
70
4
71
3
72
12
73
8
40
0
40
0
40
0
40
0
40
0.106557731167737
40
0.339856568683782
40
0.573155406199828
40
0.806454243715873
40
1
40
1
40
1
40
1
41
1
10
37.1172082123991
20
-0.488018806687279
30
0
41
1
10
36.8698054749327
20
-0.324979245844219
30
0
41
1
10
36.0807360707997
20
0.197105591953544
30
0
41
1
10
34.7499999999999
20
1.082647807201
30
0
41
1
10
33.125
20
2.10706389129729
30
0
41
1
10
31.5922975837766
20
3.00641572531254
30
0
41
1
10
30.6012618342199
20
3.50932987228106
30
0
41
1
10
30.1518927513298
20
3.7197833379617
30
0
0
SPLINE
5
F6
100
AcDbEntity
8
1
62
256
6
ByLayer
370
18
48
1
60
0
100
AcDbSpline
70
4
71
3
72
8
73
4
40
0
40
0
40
0
40
0
40
1
40
1
40
1
40
1
41
1
10
10.5147161132755
20
2.76080882551031
30
0
41
0.999976742843708
10
10.5512398031435
20
2.73410657360713
30
0
41
0.999976742843708
10
10.5878162325454
20
2.70745370996481
30
0
41
1
10
10.6244428494902
20
2.68085209419272
30
0
0
SPLINE
5
F7
100
AcDbEntity
8
1
62
256
6
ByLayer
370
18
48
1
60
0
100
AcDbSpline
70
4
71
3
72
8
73
4
40
0
40
0
40
0
40
0
40
1
40
1
40
1
40
1
41
1
10
10.4317893615378
20
2.41409496290123
30
0
41
0.999999986742529
10
10.4326524351422
20
2.41346802083343
30
0
41
0.999999986742529
10
10.433515536317
20
2.41284110808476
30
0
41
1
10
10.4343786650279
20
2.4122142246801
30
0
0
SPLINE
5
F8
100
AcDbEntity
8
1
62
256
6
ByLayer
370
18
48
1
60
0
100
AcDbSpline
70
4
71
3
72
14
73
10
40
0
40
0
40
0
40
0
40
0.500000000000006
40
0.500000000000006
40
0.625000000000006
40
0.625000000000006
40
0.750000000000005
40
0.750000000000005
40
1
40
1
40
1
40
1
41
1
10
37.9736703772355
20
-2.68890160314243
30
0
41
1
10
37.9533124855556
20
-2.57507943230479
30
0
41
1
10
37.9353468047499
20
-2.47432013086916
30
0
41
1
10
37.9159231996731
20
-2.36493566465623
30
0
41
1
10
37.9121911283494
20
-2.3438923279405
30
0
41
1
10
37.90503740368
20
-2.30350071807859
30
0
41
1
10
37.9016107407746
20
-2.28412392518152
30
0
41
1
10
37.8919036060159
20
-2.22914224835367
30
0
41
1
10
37.8861600407079
20
-2.19648367425893
30
0
41
1
10
37.8811176683332
20
-2.16767458910769
30
0
0
SPLINE
5
F9
100
AcDbEntity
8
1
62
256
6
ByLayer
370
13
48
1
60
0
100
AcDbSpline
70
4
71
3
72
51
73
47
40
0
40
0
40
0
40
0
40
0.0335874065488545
40
0.0475654889377074
40
0.0563017904307404
40
0.058049050729347
40
0.0597963110279536
40
0.0615435713265603
40
0.0628540165505152
40
0.0639460542371443
40
0.064382869311796
40
0.0646558787334532
40
0.0647514320310333
40
0.0647923834442819
40
0.0648469853286134
40
0.0649288881551105
40
0.0650926938081049
40
0.0652564994610993
40
0.0654749069984251
40
0.065693314535751
40
0.0660209258417397
40
0.0663485371477284
40
0.0670037597597059
40
0.0676589823716834
40
0.06940624267029
40
0.0720271331181999
40
0.0772689140140198
40
0.0825106949098396
40
0.0894997361042661
40
0.0999832978959057
40
0.110466859687545
40
0.131433983270825
40
0.145412065659678
40
0.166379189242957
40
0.194335354020663
40
0.236269601187222
40
0.292181930742633
40
0.348094260298045
40
0.404006589853456
40
0.459918919408868
40
0.543787413741985
40
0.627655908075103
40
0.739480567185926
40
0.851305226296749
40
0.963129885407572
40
1
40
1
40
1
40
1
41
0.999999999999993
10
19.1291061047544
20
2.50360463407966
30
0
41
0.999999999999987
10
19.2917999031692
20
2.48649765595002
30
0
41
0.999999999999974
10
19.5222020349145
20
2.46005088808804
30
0
41
1.00000000000001
10
19.7949218750014
20
2.42510064150393
30
0
41
0.999999999999995
10
19.913411458333
20
2.40916689221463
30
0
41
1
10
19.9726562500002
20
2.40102839820042
30
0
41
0.999999999999991
10
19.9980468749997
20
2.39751598979011
30
0
41
1.00000000000002
10
20.0213216145847
20
2.39427387181369
30
0
41
0.999999999999968
10
20.041422526039
20
2.39145695022764
30
0
41
1.00000000000003
10
20.0551757812515
20
2.38952050172234
30
0
41
0.999999999999983
10
20.0639038085929
20
2.38828793770732
30
0
41
1
10
20.067804972331
20
2.38773625886463
30
0
41
0.999999999999999
10
20.0697886149088
20
2.38745554357249
30
0
41
1
10
20.0707143147788
20
2.38732450842951
30
0
41
0.999999999999998
10
20.0715738932291
20
2.38720281040273
30
0
41
1
10
20.0730285644532
20
2.38699680541359
30
0
41
0.999999999999999
10
20.0750122070313
20
2.38671575579949
30
0
41
1
10
20.0776570638021
20
2.38634078528966
30
0
41
1
10
20.08056640625
20
2.3859280127345
30
0
41
1
10
20.0842692057292
20
2.38540222230051
30
0
41
1
10
20.0885009765625
20
2.38480068542896
30
0
41
1
10
20.0948486328126
20
2.38389724010773
30
0
41
1
10
20.1027832031249
20
2.38276579652995
30
0
41
0.999999999999999
10
20.1175944010417
20
2.38064845294085
30
0
41
1
10
20.1419270833334
20
2.37715395893633
30
0
41
1
10
20.1884765625
20
2.37041326896025
30
0
41
1
10
20.251953125
20
2.36108533197003
30
0
41
1
10
20.3365885416667
20
2.34840729464398
30
0
41
0.999999999999999
10
20.4466145833333
20
2.33156244172977
30
0
41
1
10
20.58203125
20
2.31019568467042
30
0
41
1
10
20.78515625
20
2.27701546020916
30
0
41
1
10
21.0052083333334
20
2.23925464093455
30
0
41
1
10
21.2760416666666
20
2.19035854879209
30
0
41
1
10
21.5807291666667
20
2.13267558433739
30
0
41
1
10
22.0208333333333
20
2.04411009292602
30
0
41
1
10
22.6302083333333
20
1.91150461361096
30
0
41
1
10
23.375
20
1.7332910431241
30
0
41
0.999999999999999
10
24.1875
20
1.5207138279464
30
0
41
1
10
25
20
1.29231424782986
30
0
41
1
10
25.9479166666667
20
1.01045015173801
30
0
41
1
10
27.0312500000001
20
0.669895626780032
30
0
41
0.999999999999999
10
28.3854166666667
20
0.226496667767293
30
0
41
1
10
29.875
20
-0.269578202846645
30
0
41
1
10
31.5
20
-0.800394284338239
30
0
41
1
10
32.7619282177685
20
-1.18618902881593
30
0
41
1
10
33.4821897688703
20
-1.39073854174279
30
0
41
1
10
33.6607846533055
20
-1.44037750389327
30
0
0
SPLINE
5
FA
100
AcDbEntity
8
1
62
256
6
ByLayer
370
18
48
1
60
0
100
AcDbSpline
70
4
71
3
72
31
73
27
40
0
40
0
40
0
40
0
40
0.124999999999958
40
0.124999999999958
40
0.187499999999947
40
0.187499999999947
40
0.218749999999953
40
0.218749999999953
40
0.24999999999996
40
0.24999999999996
40
0.374999999999982
40
0.374999999999982
40
0.437499999999977
40
0.437499999999977
40
0.499999999999971
40
0.499999999999971
40
0.624999999999998
40
0.624999999999998
40
0.687499999999991
40
0.687499999999991
40
0.749999999999984
40
0.812499999999977
40
0.812499999999977
40
0.87499999999997
40
0.87499999999997
40
1
40
1
40
1
40
1
41
1
10
33.6607846533064
20
-1.44037750389339
30
0
41
1
10
33.6699268469019
20
-1.40891155914963
30
0
41
1
10
33.6828694705489
20
-1.37934490831776
30
0
41
1
10
33.7074186846124
20
-1.33772250089251
30
0
41
1
10
33.7164662158327
20
-1.32430585895543
30
0
41
1
10
33.7313333310236
20
-1.30487633233787
30
0
41
1
10
33.736520923147
20
-1.29849879320787
30
0
41
1
10
33.7472368999133
20
-1.2860889211552
30
0
41
1
10
33.7527662436521
20
-1.28005257250933
30
0
41
1
10
33.7812446804283
20
-1.25068919197727
30
0
41
1
10
33.8066632867138
20
-1.22979821180098
30
0
41
1
10
33.8486003397784
20
-1.20214213253962
30
0
41
1
10
33.863295240047
20
-1.19350479823271
30
0
41
1
10
33.8935047047539
20
-1.17771076619272
30
0
41
1
10
33.9090300412662
20
-1.17053515169886
30
0
41
1
10
33.9568285258605
20
-1.15104521858589
30
0
41
1
10
33.9903156944531
20
-1.14075643357074
30
0
41
1
10
34.0430004143267
20
-1.12912768265485
30
0
41
1
10
34.0608384004504
20
-1.12592188281098
30
0
41
1
10
34.0967681594127
20
-1.12080476949177
30
0
41
1
10
34.1330420613425
20
-1.11696226861128
30
0
41
1
10
34.1699990472134
20
-1.11550388397399
30
0
41
1
10
34.2073004913039
20
-1.11517790810845
30
0
41
1
10
34.2261546444551
20
-1.11558280867348
30
0
41
1
10
34.2830396107088
20
-1.1184230295265
30
0
41
1
10
34.3209895551709
20
-1.122445393937
30
0
41
1
10
34.3589947366823
20
-1.12832169525592
30
0
0
SPLINE
5
FB
100
AcDbEntity
8
1
62
256
6
ByLayer
370
18
48
1
60
0
100
AcDbSpline
70
4
71
3
72
10
73
6
40
0
40
0
40
0
40
0
40
0.475134219663629
40
0.475134219663629
40
1
40
1
40
1
40
1
41
1
10
35.2815306220389
20
-1.2832252611185
30
0
41
1
10
35.1363859464518
20
-1.25658392333429
30
0
41
1
10
34.9907075507409
20
-1.23110874426391
30
0
41
1
10
34.6832184070073
20
-1.17942436571465
30
0
41
1
10
34.5213142408557
20
-1.15341928138921
30
0
41
1
10
34.3589947366865
20
-1.12832169525743
30
0
0
SPLINE
5
FC
100
AcDbEntity
8
1
62
256
6
ByLayer
370
13
48
1
60
0
100
AcDbSpline
70
4
71
3
72
10
73
6
40
0
40
0
40
0
40
0
40
0.598279520665281
40
0.897419280997922
40
1
40
1
40
1
40
1
41
1
10
12
20
-0.861981637037445
30
0
41
1
10
13.0833333333333
20
-1.15419985910916
30
0
41
1
10
14.7083333333333
20
-1.56507897224466
30
0
41
1
10
16.5190811458753
20
-1.93823156912501
30
0
41
1
10
17.2464956250839
20
-2.06921384525677
30
0
41
1
10
17.432243437626
20
-2.101370488067
30
0
0
SPLINE
5
FD
100
AcDbEntity
8
1
62
256
6
ByLayer
370
18
48
1
60
0
100
AcDbSpline
70
4
71
3
72
23
73
19
40
0
40
0
40
0
40
0
40
0.0624999999999972
40
0.0937499999999961
40
0.0937499999999961
40
0.124999999999995
40
0.124999999999995
40
0.249999999999991
40
0.249999999999991
40
0.499999999999982
40
0.499999999999982
40
0.624999999999981
40
0.624999999999981
40
0.687499999999984
40
0.687499999999984
40
0.749999999999987
40
0.749999999999987
40
1
40
1
40
1
40
1
41
1
10
36.2977130793938
20
1.4877343540289
30
0
41
1
10
36.3112107311305
20
1.44991559971973
30
0
41
1
10
36.3319763492384
20
1.39247718518243
30
0
41
1
10
36.3535042777208
20
1.33399578487772
30
0
41
1
10
36.368024352588
20
1.29477816101493
30
0
41
1
10
36.3753756294572
20
1.27503528420249
30
0
41
1
10
36.4123998968581
20
1.17614761208102
30
0
41
1
10
36.4429508577188
20
1.09627379099459
30
0
41
1
10
36.5371608378548
20
0.854556015844196
30
0
41
1
10
36.6033584190492
20
0.690630945426875
30
0
41
1
10
36.7072464147504
20
0.440979120565487
30
0
41
1
10
36.7426462519221
20
0.357130184391025
30
0
41
1
10
36.7968802760989
20
0.230426905408308
30
0
41
1
10
36.8151708908785
20
0.187984046791144
30
0
41
1
10
36.8519388955525
20
0.103227069657237
30
0
41
1
10
36.870431438939
20
0.0608768115043858
30
0
41
1
10
36.9634247276571
20
-0.15073648297863
30
0
41
1
10
37.0395070913635
20
-0.319588156541187
30
0
41
1
10
37.1172082098781
20
-0.48801880862078
30
0
0
SPLINE
5
FE
100
AcDbEntity
8
1
62
256
6
ByLayer
370
18
48
1
60
0
100
AcDbSpline
70
4
71
3
72
18
73
14
40
0
40
0
40
0
40
0
40
0.24999999999998
40
0.24999999999998
40
0.499999999999959
40
0.499999999999959
40
0.624999999999969
40
0.624999999999969
40
0.74999999999998
40
0.74999999999998
40
0.87499999999999
40
0.87499999999999
40
1
40
1
40
1
40
1
41
1
10
37.1172082115681
20
-0.488018807920753
30
0
41
1
10
37.1305155637605
20
-0.516864791113449
30
0
41
1
10
37.1435194911127
20
-0.54568615991974
30
0
41
1
10
37.1688665149437
20
-0.603275286140246
30
0
41
1
10
37.1812120913239
20
-0.632043245588989
30
0
41
1
10
37.1991132076869
20
-0.675145110705614
30
0
41
1
10
37.2049762443882
20
-0.689506524389031
30
0
41
1
10
37.2162853526738
20
-0.717780345451303
30
0
41
1
10
37.2217527934022
20
-0.731742894416271
30
0
41
1
10
37.2322429532467
20
-0.759253578675811
30
0
41
1
10
37.2372307053836
20
-0.772711898990991
30
0
41
1
10
37.2465060608382
20
-0.79868228243879
30
0
41
1
10
37.2508085229197
20
-0.811230805093658
30
0
41
1
10
37.2546859018202
20
-0.823225592475723
30
0
0
SPLINE
5
FF
100
AcDbEntity
8
1
62
256
6
ByLayer
370
18
48
1
60
0
100
AcDbSpline
70
4
71
3
72
20
73
16
40
0
40
0
40
0
40
0
40
0.0624999999999957
40
0.0624999999999957
40
0.124999999999991
40
0.124999999999991
40
0.249999999999991
40
0.249999999999991
40
0.499999999999991
40
0.499999999999991
40
0.624999999999991
40
0.624999999999991
40
0.749999999999991
40
0.749999999999991
40
1
40
1
40
1
40
1
41
1
10
36.4884296754675
20
-4.93441940707794
30
0
41
1
10
36.5007228686122
20
-4.93245609578764
30
0
41
1
10
36.5131954959091
20
-4.92991827849457
30
0
41
1
10
36.5384953664816
20
-4.92370724685196
30
0
41
1
10
36.5513373243957
20
-4.92002810148253
30
0
41
1
10
36.5901724868303
20
-4.90737776624351
30
0
41
1
10
36.6165305393382
20
-4.89678746458202
30
0
41
1
10
36.6969363633381
20
-4.85887893745075
30
0
41
1
10
36.7523169168811
20
-4.82541794817513
30
0
41
1
10
36.8378648478343
20
-4.7638095606992
30
0
41
1
10
36.8667942253611
20
-4.74136807733265
30
0
41
1
10
36.9254652444064
20
-4.69274140333292
30
0
41
1
10
36.9552562858406
20
-4.66650689965272
30
0
41
1
10
37.0452521732448
20
-4.58276903577203
30
0
41
1
10
37.1061959069226
20
-4.52017862850866
30
0
41
1
10
37.1680658728614
20
-4.45096774944537
30
0
0
SPLINE
5
100
100
AcDbEntity
8
1
62
256
6
ByLayer
370
18
48
1
60
0
100
AcDbSpline
70
4
71
3
72
32
73
28
40
0
40
0
40
0
40
0
40
0.0624999999999929
40
0.0624999999999929
40
0.124999999999986
40
0.124999999999986
40
0.156249999999982
40
0.156249999999982
40
0.187499999999979
40
0.187499999999979
40
0.249999999999972
40
0.249999999999972
40
0.374999999999959
40
0.374999999999959
40
0.437499999999948
40
0.437499999999948
40
0.468749999999947
40
0.468749999999947
40
0.499999999999945
40
0.499999999999945
40
0.624999999999959
40
0.624999999999959
40
0.749999999999973
40
0.749999999999973
40
0.874999999999986
40
0.874999999999986
40
1
40
1
40
1
40
1
41
1
10
34.2237064754493
20
-4.06721095136731
30
0
41
1
10
34.2498275267203
20
-4.12446821671821
30
0
41
1
10
34.2789608148204
20
-4.1776465130865
30
0
41
1
10
34.3421991824061
20
-4.27727065689962
30
0
41
1
10
34.3763115147786
20
-4.32370667823145
30
0
41
1
10
34.4307120851653
20
-4.38898406054139
30
0
41
1
10
34.4493865347586
20
-4.41001070296252
30
0
41
1
10
34.4877546881652
20
-4.45068378374364
30
0
41
1
10
34.5074882752646
20
-4.47036684717747
30
0
41
1
10
34.5678415549075
20
-4.52717388438052
30
0
41
1
10
34.6094683303965
20
-4.56195680829788
30
0
41
1
10
34.7379128935628
20
-4.65839336781855
30
0
41
1
10
34.8282708608337
20
-4.71218819530932
30
0
41
1
10
34.9693823391244
20
-4.780505600787
30
0
41
1
10
35.0173577175833
20
-4.80119532654928
30
0
41
1
10
35.0906095590567
20
-4.82936897957919
30
0
41
1
10
35.1152420382851
20
-4.83828247980179
30
0
41
1
10
35.1649218190914
20
-4.85518862039825
30
0
41
1
10
35.1899877572965
20
-4.8631856499762
30
0
41
1
10
35.3157027266235
20
-4.90076913214273
30
0
41
1
10
35.4179440220111
20
-4.92337112548034
30
0
41
1
10
35.6252241686435
20
-4.9560651232886
30
0
41
1
10
35.7302675092047
20
-4.96613705262871
30
0
41
1
10
35.9428418406044
20
-4.97515674476403
30
0
41
1
10
36.050375122599
20
-4.97409426206724
30
0
41
1
10
36.2677213424292
20
-4.96177523062167
30
0
41
1
10
36.3775610591809
20
-4.95050755180162
30
0
41
1
10
36.4884296754675
20
-4.93441940707794
30
0
0
SPLINE
5
101
100
AcDbEntity
8
1
62
256
6
ByLayer
370
18
48
1
60
0
100
AcDbSpline
70
4
71
3
72
56
73
52
40
0
40
0
40
0
40
0
40
0.0552520380675316
40
0.136970463209461
40
0.21868888835139
40
0.30040731349332
40
0.361696132349767
40
0.422984951206214
40
0.463844163777179
40
0.504703376348143
40
0.545562588919108
40
0.586421801490073
40
0.617066210918296
40
0.637495817203778
40
0.65281802191789
40
0.663032825060631
40
0.678355029774743
40
0.686016132131799
40
0.693677234488855
40
0.698784636060226
40
0.702615187238753
40
0.706445738417281
40
0.708361014006545
40
0.709637864399388
40
0.710116683296704
40
0.71059550219402
40
0.710834911642678
40
0.711074321091336
40
0.711233927390441
40
0.711393533689547
40
0.711513238413876
40
0.711632943138205
40
0.711692795500369
40
0.711732697075145
40
0.711762623256228
40
0.711832451012086
40
0.712031958885968
40
0.712351171484179
40
0.713149202979705
40
0.714106840774337
40
0.71538369116718
40
0.716660541560023
40
0.717937391952865
40
0.724321643917078
40
0.73453644705982
40
0.760073454916673
40
0.790717864344896
40
0.831577076915861
40
0.892865895772308
40
0.954154714628755
40
1
40
1
40
1
40
1
41
1
10
34.2237064631238
20
-4.06721094994526
30
0
41
1
10
33.8574709754159
20
-4.00846439652054
30
0
41
1
10
32.9495688210412
20
-3.83960339642374
30
0
41
1
10
31.5
20
-3.47520037958742
30
0
41
1
10
29.875
20
-2.96060057863744
30
0
41
1
10
28.3854166666667
20
-2.40714358925197
30
0
41
1
10
27.0312500000001
20
-1.85194143496017
30
0
41
1
10
25.9479166666667
20
-1.3789191255232
30
0
41
1
10
25
20
-0.948456972741695
30
0
41
1
10
24.1875
20
-0.572601810704384
30
0
41
1
10
23.375
20
-0.192010514040987
30
0
41
1
10
22.6302083333333
20
0.15617015518842
30
0
41
1
10
22.0208333333333
20
0.445367552421146
30
0
41
1
10
21.5807291666667
20
0.645596435425489
30
0
41
1
10
21.2760416666666
20
0.787502856594017
30
0
41
1
10
21.0052083333334
20
0.912771993550365
30
0
41
1
10
20.78515625
20
1.0138863436548
30
0
41
1
10
20.5820312499999
20
1.10783011553389
30
0
41
1
10
20.4466145833333
20
1.16863119819672
30
0
41
1
10
20.3365885416667
20
1.21801705827573
30
0
41
1
10
20.2519531249999
20
1.25628400967921
30
0
41
1
10
20.1884765625
20
1.2849277374178
30
0
41
1
10
20.1419270833334
20
1.30579946980353
30
0
41
1
10
20.1175944010416
20
1.31678754392425
30
0
41
1
10
20.1027832031249
20
1.3233946143539
30
0
41
1
10
20.0948486328125
20
1.32700579023825
30
0
41
1
10
20.0885009765626
20
1.32978293727172
30
0
41
1
10
20.0842692057291
20
1.3317838365036
30
0
41
1
10
20.08056640625
20
1.33325792798453
30
0
41
1
10
20.0776570638021
20
1.33512327263759
30
0
41
1
10
20.0750122070313
20
1.33470674068579
30
0
41
1
10
20.0730285644531
20
1.33814265393417
30
0
41
1
10
20.0715738932291
20
1.33547917146353
30
0
41
1
10
20.0707143147787
20
1.33922567300456
30
0
41
1
10
20.0697886149088
20
1.33297449351412
30
0
41
1
10
20.0678049723309
20
1.35128991042896
30
0
41
1
10
20.0639038085929
20
1.26655609685651
30
0
41
1
10
20.0551757812514
20
1.52252670130599
30
0
41
1
10
20.041422526039
20
1.11908669043964
30
0
41
1
10
20.0213216145847
20
1.44930278191839
30
0
41
1
10
19.9980468749997
20
1.34125695236446
30
0
41
1
10
19.9726562500002
20
1.38703681580421
30
0
41
1
10
19.913411458333
20
1.39294908898205
30
0
41
1
10
19.7949218750014
20
1.53458516751454
30
0
41
1
10
19.5156249999969
20
1.39469578372169
30
0
41
1
10
19.075520833338
20
2.01236872804822
30
0
41
1
10
18.4322916666646
20
1.9495113153011
30
0
41
1
10
17.5520833333336
20
2.44823417959091
30
0
41
1
10
16.4687499999992
20
2.77305192643163
30
0
41
1
10
15.3523667219471
20
3.19072437321285
30
0
41
1
10
14.6422334438946
20
3.4046258232126
30
0
41
1
10
14.3383501658421
20
3.48860289920921
30
0
0
SPLINE
5
102
100
AcDbEntity
8
1
62
256
6
ByLayer
370
18
48
1
60
0
100
AcDbSpline
70
4
71
3
72
11
73
7
40
0
40
0
40
0
40
0
40
0.0991367542327681
40
0.399424502821845
40
0.699712251410923
40
1
40
1
40
1
40
1
41
1
10
12
20
4.07189449455527
30
0
41
1
10
12
20
4.07254503035014
30
0
41
1
10
12
20
4.05868711238915
30
0
41
1
10
12
20
3.91562763260805
30
0
41
1
10
12
20
3.51515314129139
30
0
41
1
10
12
20
3.1311711832918
30
0
41
1
10
12
20
2.91988161165372
30
0
0
SPLINE
5
103
100
AcDbEntity
8
1
62
256
6
ByLayer
370
13
48
1
60
0
100
AcDbSpline
70
4
71
3
72
55
73
51
40
0
40
0
40
0
40
0
40
0.0383848578811233
40
0.118519453057696
40
0.198654048234269
40
0.258754994616699
40
0.318855940999129
40
0.358923238587416
40
0.398990536175702
40
0.439057833763989
40
0.479125131352275
40
0.50917560454349
40
0.529209253337633
40
0.544234489933241
40
0.554251314330312
40
0.56927655092592
40
0.576789169223723
40
0.584301787521527
40
0.589310199720063
40
0.593066508868965
40
0.596822818017867
40
0.598700972592318
40
0.599953075641952
40
0.600422614285564
40
0.600892152929177
40
0.601126922250984
40
0.60136169157279
40
0.601518204453994
40
0.601674717335198
40
0.601792101996102
40
0.601909486657005
40
0.601968178987456
40
0.602007307207757
40
0.602036653372983
40
0.60210512775851
40
0.602300768860015
40
0.602613794622424
40
0.603396359028445
40
0.604335436315671
40
0.605587539365305
40
0.606839642414938
40
0.608091745464572
40
0.614352260712742
40
0.624369085109814
40
0.649411146102493
40
0.679461619293708
40
0.719528916881994
40
0.779629863264424
40
0.839730809646854
40
1
40
1
40
1
40
1
41
1
10
32.278382843507
20
-5.27369135138406
30
0
41
1
10
32.0189218956713
20
-5.27920703742737
30
0
41
1
10
31.217794281169
20
-5.27694403394071
30
0
41
1
10
29.8749999999999
20
-5.17457537417076
30
0
41
0.999999999999999
10
28.3854166666666
20
-4.91411239334906
30
0
41
1
10
27.03125
20
-4.56655416802593
30
0
41
1
10
25.9479166666666
20
-4.21797953341516
30
0
41
1
10
25
20
-3.86629403190437
30
0
41
0.999999999999999
10
24.1875
20
-3.5354580977978
30
0
41
1
10
23.375
20
-3.17739745116691
30
0
41
1
10
22.6302083333332
20
-2.82644194191625
30
0
41
1
10
22.0208333333333
20
-2.5248675407652
30
0
41
1
10
21.5807291666667
20
-2.30040707760548
30
0
41
1
10
21.2760416666666
20
-2.14206070625733
30
0
41
1
10
21.0052083333334
20
-1.99957271046765
30
0
41
1
10
20.7851562499999
20
-1.88246802565976
30
0
41
1
10
20.58203125
20
-1.77336264602584
30
0
41
0.999999999999999
10
20.4466145833333
20
-1.70019985877477
30
0
41
1
10
20.3365885416667
20
-1.64048210799058
30
0
41
1
10
20.2519531249999
20
-1.59440394950784
30
0
41
1
10
20.1884765625
20
-1.55975710880833
30
0
41
1
10
20.1419270833334
20
-1.53430239260049
30
0
41
0.999999999999999
10
20.1175944010416
20
-1.52098307645045
30
0
41
1
10
20.1027832031249
20
-1.51287121499618
30
0
41
1
10
20.0948486328125
20
-1.50852427944491
30
0
41
1
10
20.0885009765625
20
-1.50504595690083
30
0
41
1
10
20.0842692057291
20
-1.5027267318676
30
0
41
1
10
20.08056640625
20
-1.50069716013058
30
0
41
1
10
20.0776570638021
20
-1.49910233980177
30
0
41
0.999999999999999
10
20.0750122070312
20
-1.49765237856718
30
0
41
1
10
20.0730285644531
20
-1.49656482764271
30
0
41
0.999999999999998
10
20.0715738932291
20
-1.49576724634426
30
0
41
1
10
20.0707143147787
20
-1.49529593388277
30
0
41
0.999999999999999
10
20.0697886149088
20
-1.49478835574829
30
0
41
1
10
20.067804972331
20
-1.49370065505732
30
0
41
0.999999999999983
10
20.0639038085929
20
-1.49156133385523
30
0
41
1.00000000000003
10
20.0551757812514
20
-1.48677429670207
30
0
41
0.999999999999968
10
20.0414225260377
20
-1.47922851704754
30
0
41
1.00000000000002
10
20.0213216145837
20
-1.46819420954509
30
0
41
0.999999999999991
10
19.9980468749999
20
-1.45540907959115
30
0
41
1
10
19.97265625
20
-1.44145111002606
30
0
41
0.999999999999995
10
19.9134114583331
20
-1.40885816922347
30
0
41
1.00000000000001
10
19.7949218750008
20
-1.34352791758271
30
0
41
0.999999999999973
10
19.5156249999951
20
-1.18884138636773
30
0
41
1
10
19.0755208333375
20
-0.942974847516297
30
0
41
1
10
18.4322916666651
20
-0.580136885996664
30
0
41
1.00000000000001
10
17.5520833333338
20
-0.0793551335941907
30
0
41
1
10
16.4687499999992
20
0.539695259788003
30
0
41
1
10
14.5729166666667
20
1.61090129449294
30
0
41
0.999999999999998
10
13.083333333333
20
2.40555832512203
30
0
41
1
10
12
20
2.91988161165372
30
0
0
SPLINE
5
104
100
AcDbEntity
8
1
62
256
6
ByLayer
370
18
48
1
60
0
100
AcDbSpline
70
4
71
3
72
32
73
28
40
0
40
0
40
0
40
0
40
0.249999999999939
40
0.249999999999939
40
0.374999999999923
40
0.374999999999923
40
0.437499999999915
40
0.437499999999915
40
0.499999999999907
40
0.499999999999907
40
0.562499999999898
40
0.562499999999898
40
0.593749999999892
40
0.593749999999892
40
0.624999999999885
40
0.624999999999885
40
0.687499999999875
40
0.687499999999875
40
0.71874999999987
40
0.71874999999987
40
0.749999999999865
40
0.749999999999865
40
0.812499999999899
40
0.812499999999899
40
0.874999999999932
40
0.874999999999932
40
1
40
1
40
1
40
1
41
1
10
6.9931912492367
20
5.17106045337866
30
0
41
1
10
6.97003391056273
20
5.18261039510693
30
0
41
1
10
6.94778402283112
20
5.19446846955918
30
0
41
1
10
6.91717990668803
20
5.21330105636014
30
0
41
1
10
6.90747040991107
20
5.21974627162891
30
0
41
1
10
6.89428775197277
20
5.22974163757988
30
0
41
1
10
6.89012108510914
20
5.23313236988145
30
0
41
1
10
6.88242139754044
20
5.24008257543773
30
0
41
1
10
6.87887268645068
20
5.24365384756581
30
0
41
1
10
6.87278817554164
20
5.25100292451677
30
0
41
1
10
6.87028639319414
20
5.25472911629279
30
0
41
1
10
6.86779484615798
20
5.26044657378941
30
0
41
1
10
6.86717712166498
20
5.26237404967566
30
0
41
1
10
6.86650804573071
20
5.26628823554225
30
0
41
1
10
6.86646469057479
20
5.26827550414629
30
0
41
1
10
6.86743688260341
20
5.27411788174982
30
0
41
1
10
6.86965450890446
20
5.27798422608672
30
0
41
1
10
6.87549561152147
20
5.28307647149293
30
0
41
1
10
6.87788883405696
20
5.28469269508196
30
0
41
1
10
6.88328411220144
20
5.28761832124326
30
0
41
1
10
6.88627942844826
20
5.28893590342082
30
0
41
1
10
6.89601149322641
20
5.29252661216941
30
0
41
1
10
6.90323612235574
20
5.29435673692504
30
0
41
1
10
6.91832861468635
20
5.29729247459437
30
0
41
1
10
6.92624322172659
20
5.29839796859707
30
0
41
1
10
6.94999867894271
20
5.30094752302273
30
0
41
1
10
6.96615810639528
20
5.30170597662965
30
0
41
1
10
6.98247731726644
20
5.30200046374432
30
0
0
SPLINE
5
105
100
AcDbEntity
8
1
62
256
6
ByLayer
370
18
48
1
60
0
100
AcDbSpline
70
4
71
3
72
10
73
6
40
0
40
0
40
0
40
0
40
0.5
40
0.5
40
1
40
1
40
1
40
1
41
1
10
10.4663774388562
20
-5.97836439199804
30
0
41
1
10
10.4714319469604
20
-5.97292633850952
30
0
41
1
10
10.4820769253817
20
-5.96654365471144
30
0
41
1
10
10.5141965087425
20
-5.95207010066784
30
0
41
1
10
10.5355580553007
20
-5.9440408993454
30
0
41
1
10
10.5616334129628
20
-5.93544477475842
30
0
0
SPLINE
5
106
100
AcDbEntity
8
1
62
256
6
ByLayer
370
18
48
1
60
0
100
AcDbSpline
70
4
71
3
72
15
73
11
40
0
40
0
40
0
40
0
40
0.249999999999999
40
0.499999999999999
40
0.499999999999999
40
0.624999999999999
40
0.624999999999999
40
0.749999999999999
40
0.749999999999999
40
1
40
1
40
1
40
1
41
1
10
10.5616334129619
20
-5.9354447747582
30
0
41
1
10
10.547555074953
20
-5.92564884877584
30
0
41
1
10
10.5276546856427
20
-5.90380622276314
30
0
41
1
10
10.5242764523855
20
-5.87740941674664
30
0
41
1
10
10.5281020463213
20
-5.85587685700955
30
0
41
1
10
10.5304388227815
20
-5.84841009622863
30
0
41
1
10
10.5372848785623
20
-5.83289248595958
30
0
41
1
10
10.5418148526207
20
-5.8248197307106
30
0
41
1
10
10.5584721529611
20
-5.80009301948155
30
0
41
1
10
10.5736825102408
20
-5.78283453014561
30
0
41
1
10
10.59277127949
20
-5.76490190295897
30
0
0
SPLINE
5
107
100
AcDbEntity
8
1
62
256
6
ByLayer
370
18
48
1
60
0
100
AcDbSpline
70
4
71
3
72
32
73
28
40
0
40
0
40
0
40
0
40
0.249999999999979
40
0.249999999999979
40
0.374999999999966
40
0.374999999999966
40
0.437499999999964
40
0.437499999999964
40
0.499999999999962
40
0.499999999999962
40
0.562499999999959
40
0.562499999999959
40
0.624999999999957
40
0.624999999999957
40
0.656249999999957
40
0.656249999999957
40
0.687499999999958
40
0.687499999999958
40
0.718749999999958
40
0.718749999999958
40
0.749999999999958
40
0.749999999999958
40
0.812499999999955
40
0.812499999999955
40
0.874999999999953
40
0.874999999999953
40
1
40
1
40
1
40
1
41
1
10
7.3639952961118
20
-4.58652758078136
30
0
41
1
10
7.34243328298271
20
-4.57175994332579
30
0
41
1
10
7.32179753856437
20
-4.5564026312893
30
0
41
1
10
7.29358653956433
20
-4.5317111732717
30
0
41
1
10
7.2846311204294
20
-4.52317916033766
30
0
41
1
10
7.27251531190876
20
-4.50987460788261
30
0
41
1
10
7.26869369034807
20
-4.50535010327039
30
0
41
1
10
7.26164249690459
20
-4.49606026902651
30
0
41
1
10
7.25839847608285
20
-4.49127402177925
30
0
41
1
10
7.2528591126615
20
-4.48149435047193
30
0
41
1
10
7.25055160934878
20
-4.47650124015766
30
0
41
1
10
7.24737558539064
20
-4.46620141291149
30
0
41
1
10
7.24652697662483
20
-4.4609222768606
30
0
41
1
10
7.24705596835102
20
-4.45302688272551
30
0
41
1
10
7.24754420037667
20
-4.45036348848382
30
0
41
1
10
7.24923601339682
20
-4.44519697390928
30
0
41
1
10
7.25043401707387
20
-4.44268465333982
30
0
41
1
10
7.25362288332119
20
-4.437821428219
30
0
41
1
10
7.25561778154321
20
-4.43548568726178
30
0
41
1
10
7.26021739920466
20
-4.43120051676513
30
0
41
1
10
7.26284536017309
20
-4.42921718458771
30
0
41
1
10
7.27158786579577
20
-4.42374381081416
30
0
41
1
10
7.27821418794952
20
-4.42090941477386
30
0
41
1
10
7.29248839530584
20
-4.41628864785218
30
0
41
1
10
7.29993128932378
20
-4.41457425250343
30
0
41
1
10
7.32263112074389
20
-4.41057076528372
30
0
41
1
10
7.33839765179823
20
-4.40937622051038
30
0
41
1
10
7.35414389925461
20
-4.40893259375565
30
0
0
SPLINE
5
108
100
AcDbEntity
8
1
62
256
6
ByLayer
370
18
48
1
60
0
100
AcDbSpline
70
4
71
3
72
49
73
45
40
0
40
0
40
0
40
0
40
0.0625000000000213
40
0.0625000000000213
40
0.125000000000043
40
0.125000000000043
40
0.15625000000005
40
0.15625000000005
40
0.187500000000057
40
0.187500000000057
40
0.250000000000065
40
0.250000000000065
40
0.281250000000065
40
0.281250000000065
40
0.296875000000063
40
0.296875000000063
40
0.31250000000006
40
0.375000000000065
40
0.375000000000065
40
0.390625000000065
40
0.390625000000065
40
0.406250000000065
40
0.437500000000061
40
0.468750000000057
40
0.468750000000057
40
0.484375000000054
40
0.484375000000054
40
0.50000000000005
40
0.50000000000005
40
0.562500000000043
40
0.562500000000043
40
0.625000000000036
40
0.625000000000036
40
0.656250000000033
40
0.656250000000033
40
0.687500000000029
40
0.687500000000029
40
0.750000000000023
40
0.750000000000023
40
0.875000000000011
40
0.875000000000011
40
0.937500000000006
40
0.937500000000006
40
1
40
1
40
1
40
1
41
1
10
7.35414389926268
20
-4.40893259375264
30
0
41
1
10
7.41605416911497
20
-4.40718836533733
30
0
41
1
10
7.4777001978407
20
-4.40411336566336
30
0
41
1
10
7.60031480722287
20
-4.39452749759528
30
0
41
1
10
7.66128483678793
20
-4.3880250562386
30
0
41
1
10
7.75206447015742
20
-4.3748017844394
30
0
41
1
10
7.78230306335436
20
-4.3697928339673
30
0
41
1
10
7.84195655071991
20
-4.35850245416378
30
0
41
1
10
7.87137143237504
20
-4.35222590176596
30
0
41
1
10
7.95822747231554
20
-4.33124306630214
30
0
41
1
10
8.01429272177347
20
-4.31440858046713
30
0
41
1
10
8.09483215475504
20
-4.28348657351296
30
0
41
1
10
8.1210827184191
20
-4.2722286555296
30
0
41
1
10
8.15943128205186
20
-4.25367426136293
30
0
41
1
10
8.17207419568609
20
-4.24719361413648
30
0
41
1
10
8.19684612254486
20
-4.23370711116976
30
0
41
1
10
8.25718624868685
20
-4.19885397133342
30
0
41
1
10
8.30949459899102
20
-4.15819643244254
30
0
41
1
10
8.35520821403588
20
-4.11249158193093
30
0
41
1
10
8.36404413674728
20
-4.10307191700758
30
0
41
1
10
8.38094299059563
20
-4.08384568725822
30
0
41
1
10
8.40506604354812
20
-4.05451220275108
30
0
41
1
10
8.43946122539893
20
-4.00322121657624
30
0
41
1
10
8.46136836094112
20
-3.95975017729157
30
0
41
1
10
8.47588523523342
20
-3.92627072878753
30
0
41
1
10
8.48041400266388
20
-3.91493919709066
30
0
41
1
10
8.48881100349001
20
-3.89213056644596
30
0
41
1
10
8.49267861506331
20
-3.88066112912708
30
0
41
1
10
8.5104931668013
20
-3.82299765980767
30
0
41
1
10
8.51991898485085
20
-3.77585859205476
30
0
41
1
10
8.53155387002232
20
-3.67973210194313
30
0
41
1
10
8.53374498466792
20
-3.63074334691078
30
0
41
1
10
8.53273384517732
20
-3.55594459116065
30
0
41
1
10
8.53167510388238
20
-3.53089614931136
30
0
41
1
10
8.52830776530612
20
-3.48078653022395
30
0
41
1
10
8.52599836954766
20
-3.45568849725069
30
0
41
1
10
8.51741638153155
20
-3.38024226951606
30
0
41
1
10
8.50950063542933
20
-3.32974082913142
30
0
41
1
10
8.48044114532263
20
-3.17749996721065
30
0
41
1
10
8.45405907268901
20
-3.07501672183685
30
0
41
1
10
8.40673645495764
20
-2.9195489362225
30
0
41
1
10
8.38962536485712
20
-2.86738168113982
30
0
41
1
10
8.35321265461201
20
-2.76296232383587
30
0
41
1
10
8.33389741530002
20
-2.71066046620623
30
0
41
1
10
8.31357536967352
20
-2.6582509981298
30
0
0
SPLINE
5
109
100
AcDbEntity
8
1
62
256
6
ByLayer
370
18
48
1
60
0
100
AcDbSpline
70
4
71
3
72
12
73
8
40
0
40
0
40
0
40
0
40
0.25
40
0.5
40
0.75
40
0.75
40
1
40
1
40
1
40
1
41
1
10
8.31357536967192
20
-2.65825099813088
30
0
41
1
10
8.16261327715603
20
-2.52449571725864
30
0
41
1
10
7.86111166981195
20
-2.2531009110491
30
0
41
1
10
7.40612629596029
20
-1.83855751086619
30
0
41
1
10
7.09825821919299
20
-1.56022749578344
30
0
41
1
10
6.78673230413855
20
-1.2825150328174
30
0
41
1
10
6.62914014067266
20
-1.14396762197816
30
0
41
1
10
6.46901666240078
20
-1.00658099112391
30
0
0
SPLINE
5
10A
100
AcDbEntity
8
1
62
256
6
ByLayer
370
18
48
1
60
0
100
AcDbSpline
70
4
71
3
72
32
73
28
40
0
40
0
40
0
40
0
40
0.125000000000008
40
0.125000000000008
40
0.250000000000016
40
0.250000000000016
40
0.375000000000025
40
0.375000000000025
40
0.437500000000029
40
0.437500000000029
40
0.468750000000031
40
0.468750000000031
40
0.500000000000033
40
0.500000000000033
40
0.625000000000033
40
0.625000000000033
40
0.656250000000031
40
0.656250000000031
40
0.687500000000029
40
0.750000000000023
40
0.812500000000017
40
0.812500000000017
40
0.875000000000012
40
0.875000000000012
40
0.937500000000006
40
0.937500000000006
40
1
40
1
40
1
40
1
41
1
10
6.46901666240075
20
-1.00658099112391
30
0
41
1
10
6.43117988197366
20
-0.974116871299941
30
0
41
1
10
6.39467136262473
20
-0.940527283616802
30
0
41
1
10
6.32479543772558
20
-0.870682879118164
30
0
41
1
10
6.2914232071505
20
-0.834432145181381
30
0
41
1
10
6.22855454995084
20
-0.75863954060631
30
0
41
1
10
6.19904714653603
20
-0.719106950650115
30
0
41
1
10
6.15859846616058
20
-0.656570336697428
30
0
41
1
10
6.1457554777634
20
-0.635181369637564
30
0
41
1
10
6.12762971541253
20
-0.602131075784627
30
0
41
1
10
6.1217677849591
20
-0.590929845231187
30
0
41
1
10
6.11056088525726
20
-0.568376476746977
30
0
41
1
10
6.10520554065374
20
-0.557007414155237
30
0
41
1
10
6.07974243754379
20
-0.49967311435978
30
0
41
1
10
6.06351741961777
20
-0.452262312256352
30
0
41
1
10
6.05008770202758
20
-0.390451914467604
30
0
41
1
10
6.04775790776264
20
-0.377991571715597
30
0
41
1
10
6.04388584894943
20
-0.353125521383873
30
0
41
1
10
6.03923544010911
20
-0.315800586789066
30
0
41
1
10
6.03742220516762
20
-0.25346036878085
30
0
41
1
10
6.04272121123344
20
-0.203439891472641
30
0
41
1
10
6.05167241476047
20
-0.153340274700469
30
0
41
1
10
6.0578574514343
20
-0.128909258947118
30
0
41
1
10
6.07342929105232
20
-0.0812294631205361
30
0
41
1
10
6.08281715787331
20
-0.0579770966810997
30
0
41
1
10
6.10464237688433
20
-0.0125911765374269
30
0
41
1
10
6.11713645292204
20
0.0096178032046339
30
0
41
1
10
6.13089963754587
20
0.0309951185515445
30
0
0
SPLINE
5
10B
100
AcDbEntity
8
1
62
256
6
ByLayer
370
18
48
1
60
0
100
AcDbSpline
70
4
71
3
72
38
73
34
40
0
40
0
40
0
40
0
40
0.0312500000000017
40
0.0312500000000017
40
0.0625000000000033
40
0.0625000000000033
40
0.125000000000007
40
0.125000000000007
40
0.140625000000006
40
0.140625000000006
40
0.156250000000005
40
0.156250000000005
40
0.187500000000007
40
0.187500000000007
40
0.250000000000007
40
0.250000000000007
40
0.312500000000008
40
0.312500000000008
40
0.375000000000008
40
0.375000000000008
40
0.437500000000008
40
0.437500000000008
40
0.500000000000009
40
0.500000000000009
40
0.562500000000009
40
0.562500000000009
40
0.625000000000009
40
0.625000000000009
40
0.750000000000006
40
0.750000000000006
40
0.875000000000003
40
0.875000000000003
40
1
40
1
40
1
40
1
41
1
10
6.13089963754584
20
0.0309951185515445
30
0
41
1
10
6.16309889660533
20
0.0810077961159266
30
0
41
1
10
6.1977802918563
20
0.128489839736318
30
0
41
1
10
6.27121741871176
20
0.219304989249054
30
0
41
1
10
6.3099774014903
20
0.262633737900273
30
0
41
1
10
6.43144416702364
20
0.387344800522896
30
0
41
1
10
6.51928919912649
20
0.463501654105926
30
0
41
1
10
6.63569035252704
20
0.552009076995631
30
0
41
1
10
6.65930452690526
20
0.569371828471645
30
0
41
1
10
6.70716566236678
20
0.603455919878428
30
0
41
1
10
6.73140965946661
20
0.620172909383427
30
0
41
1
10
6.80455230296906
20
0.669094089895992
30
0
41
1
10
6.85402451126822
20
0.700191591482053
30
0
41
1
10
7.00429127344503
20
0.789547221222023
30
0
41
1
10
7.10692170226673
20
0.843899451461738
30
0
41
1
10
7.31609258214559
20
0.944340051744973
30
0
41
1
10
7.42264084381702
20
0.990411423543833
30
0
41
1
10
7.63905426231255
20
1.07558985296129
30
0
41
1
10
7.74892307985755
20
1.1146889448049
30
0
41
1
10
7.97159773805427
20
1.18676018693046
30
0
41
1
10
8.08388778131686
20
1.21956109300538
30
0
41
1
10
8.30994343974356
20
1.27937478762436
30
0
41
1
10
8.42374919614022
20
1.30639675108947
30
0
41
1
10
8.65279443543702
20
1.35516379100798
30
0
41
1
10
8.76778066023962
20
1.37685097136261
30
0
41
1
10
8.99829155535025
20
1.41517099736214
30
0
41
1
10
9.11387063929024
20
1.43181389517687
30
0
41
1
10
9.46153477534472
20
1.47457609244509
30
0
41
1
10
9.6945610142111
20
1.49357341665746
30
0
41
1
10
10.1629186210692
20
1.51327511853009
30
0
41
1
10
10.3967396642142
20
1.51390418641859
30
0
41
1
10
10.863672962236
20
1.49689703432213
30
0
41
1
10
11.0967848468273
20
1.47925162108038
30
0
41
1
10
11.3295296214032
20
1.45208072871037
30
0
0
SPLINE
5
10C
100
AcDbEntity
8
1
62
256
6
ByLayer
370
18
48
1
60
0
100
AcDbSpline
70
4
71
3
72
8
73
4
40
0
40
0
40
0
40
0
40
1
40
1
40
1
40
1
41
1
10
38
20
-3.30632669659812
30
0
41
1
10
37.9786701987338
20
-3.4103772587334
30
0
41
1
10
37.9573447388649
20
-3.51386354840949
30
0
41
1
10
37.9360249737221
20
-3.61677988476549
30
0
0
SPLINE
5
10D
100
AcDbEntity
8
1
62
256
6
ByLayer
370
18
48
1
60
0
100
AcDbSpline
70
4
71
3
72
15
73
11
40
0
40
0
40
0
40
0
40
0.125356343277198
40
0.25060799490686
40
0.375756428447529
40
0.500803089930085
40
0.625749398355544
40
0.750596746182155
40
0.875346499800859
40
1
40
1
40
1
40
1
41
1
10
10.6244428494907
20
2.68085209419235
30
0
41
1
10
10.6164114456529
20
2.66951518776259
30
0
41
1
10
10.6003553454235
20
2.64685084294732
30
0
41
1
10
10.5763718612034
20
2.6129813173888
30
0
41
1
10
10.5524749753076
20
2.57922309688686
30
0
41
1
10
10.5286712927009
20
2.54558448148694
30
0
41
1
10
10.504958595444
20
2.51206278405684
30
0
41
1
10
10.4813391554155
20
2.47866091932184
30
0
41
1
10
10.4578061037394
20
2.44537031848344
30
0
41
1
10
10.4421858000792
20
2.42326341283223
30
0
41
1
10
10.4343786624593
20
2.41221422591983
30
0
0
SPLINE
5
10E
100
AcDbEntity
8
1
62
256
6
ByLayer
370
18
48
1
60
0
100
AcDbSpline
70
4
71
3
72
8
73
4
40
0
40
0
40
0
40
0
40
1
40
1
40
1
40
1
41
1
10
38
20
-3.03972794575495
30
0
41
1
10
37.9782720657439
20
-2.9153141853638
30
0
41
1
10
37.9565490165808
20
-2.79045977799777
30
0
41
1
10
37.9348327226369
20
-2.6651761634152
30
0
0
SPLINE
5
10F
100
AcDbEntity
8
1
62
256
6
ByLayer
370
18
48
1
60
0
100
AcDbSpline
70
4
71
3
72
8
73
4
40
0
40
0
40
0
40
0
40
1
40
1
40
1
40
1
41
1
10
37.2546859025616
20
-0.823225592665693
30
0
41
1
10
37.2956190277063
20
-0.949855216702872
30
0
41
1
10
37.3377285878482
20
-1.07818830999773
30
0
41
1
10
37.3811003566049
20
-1.20834907051923
30
0
0
SPLINE
5
110
100
AcDbEntity
8
1
62
256
6
ByLayer
370
13
48
1
60
0
100
AcDbSpline
70
4
71
3
72
12
73
8
40
0
40
0
40
0
40
0
40
0.149056251773604
40
0.424400449477719
40
0.699744647181834
40
0.975088844885949
40
1
40
1
40
1
40
1
41
1
10
37.2546859027784
20
-0.823225592355158
30
0
41
1
10
36.961457268519
20
-0.626737747218499
30
0
41
1
10
36.1265619675929
20
-0.0629994151550477
30
0
41
1
10
34.7500000000001
20
0.878466562103398
30
0
41
1
10
33.1250000000001
20
1.94115208306601
30
0
41
1
10
31.9926605773213
20
2.63726805166178
30
0
41
1
10
31.4019878213092
20
2.97340667070566
30
0
41
1
10
31.3529817319637
20
3.00110714344135
30
0
0
SPLINE
5
111
100
AcDbEntity
8
1
62
256
6
ByLayer
370
18
48
1
60
0
100
AcDbSpline
70
4
71
3
72
33
73
29
40
0
40
0
40
0
40
0
40
0.0177640738959354
40
0.0406949023554003
40
0.08655655927433
40
0.109487387733795
40
0.13241821619326
40
0.17827987311219
40
0.201210701571654
40
0.224141530031119
40
0.247072358490584
40
0.270003186950049
40
0.292934015409514
40
0.315864843868979
40
0.361726500787909
40
0.384657329247373
40
0.407588157706838
40
0.453449814625768
40
0.545173128463628
40
0.591034785382557
40
0.636896442301487
40
0.682758099220417
40
0.728619756139346
40
0.774481413058276
40
0.820343069977206
40
0.866204726896136
40
0.912066383815065
40
1
40
1
40
1
40
1
41
1
10
22.1663735203388
20
5.95100647609172
30
0
41
1
10
22.257848066572
20
5.94730069367688
30
0
41
1
10
22.4674438385816
20
5.93611773668798
30
0
41
1
10
22.9134585217011
20
5.89930183484213
30
0
41
1
10
23.3864753735785
20
5.83661144304247
30
0
41
1
10
23.8597610417862
20
5.75082448153108
30
0
41
1
10
24.3331969522423
20
5.64991138345223
30
0
41
1
10
24.8068128122891
20
5.52617759774122
30
0
41
1
10
25.280506729245
20
5.3806315473131
30
0
41
1
10
25.635797393986
20
5.26083250831792
30
0
41
1
10
25.9910783066498
20
5.13047123972856
30
0
41
1
10
26.3463165898495
20
4.98987875306713
30
0
41
1
10
26.7014703780948
20
4.83944022918192
30
0
41
1
10
27.1748554800625
20
4.62618092449617
30
0
41
1
10
27.6479562772461
20
4.39429866212512
30
0
41
1
10
28.1206370171774
20
4.145537327044
30
0
41
1
10
28.5929762103099
20
3.8860823076775
30
0
41
1
10
29.4189494863808
20
3.40479643588509
30
0
41
1
10
30.3634784979066
20
2.79840907141141
30
0
41
1
10
31.3126210835724
20
2.14715000223632
30
0
41
1
10
32.0276949821483
20
1.63907804412341
30
0
41
1
10
32.7470919310935
20
1.11464109331408
30
0
41
1
10
33.4717959320541
20
0.577128190439765
30
0
41
1
10
34.2030345367226
20
0.0299823092556721
30
0
41
1
10
34.9417803042522
20
-0.523105672043954
30
0
41
1
10
35.6893629173088
20
-1.07826244685521
30
0
41
1
10
36.678349820415
20
-1.80022902871741
30
0
41
1
10
37.4311833251355
20
-2.32803097820755
30
0
41
1
10
37.9348327170251
20
-2.66517616664797
30
0
0
SPLINE
5
112
100
AcDbEntity
8
1
62
256
6
ByLayer
370
18
48
1
60
0
100
AcDbSpline
70
4
71
3
72
8
73
4
40
0
40
0
40
0
40
0
40
1
40
1
40
1
40
1
41
1
10
37.9348327184313
20
-2.66517616417829
30
0
41
1
10
37.9142296711744
20
-2.53536181842296
30
0
41
1
10
37.8936645877076
20
-2.40533810405927
30
0
41
1
10
37.8731372388606
20
-2.27510623991432
30
0
0
SPLINE
5
113
100
AcDbEntity
8
1
62
256
6
ByLayer
370
18
48
1
60
0
100
AcDbSpline
70
4
71
3
72
8
73
4
40
0
40
0
40
0
40
0
40
1
40
1
40
1
40
1
41
1
10
37.8731372388606
20
-2.27510623991432
30
0
41
1
10
37.7307671345337
20
-1.97188732775916
30
0
41
1
10
37.5898992523121
20
-1.66486493626795
30
0
41
1
10
37.4505153401558
20
-1.35408527781942
30
0
0
SPLINE
5
114
100
AcDbEntity
8
1
62
256
6
ByLayer
370
18
48
1
60
0
100
AcDbSpline
70
4
71
3
72
8
73
4
40
0
40
0
40
0
40
0
40
1
40
1
40
1
40
1
41
1
10
37.4505153401558
20
-1.35408527781942
30
0
41
1
10
37.427361957345
20
-1.30559284684554
30
0
41
1
10
37.4042236245926
20
-1.25701413918088
30
0
41
1
10
37.3811003566045
20
-1.20834907052176
30
0
0
SPLINE
5
115
100
AcDbEntity
8
1
62
256
6
ByLayer
370
18
48
1
60
0
100
AcDbSpline
70
4
71
3
72
59
73
55
40
0
40
0
40
0
40
0
40
0.0585120408968443
40
0.0585120408968443
40
0.117024081793689
40
0.117024081793689
40
0.131652092017901
40
0.131652092017901
40
0.146280102242113
40
0.175536122690539
40
0.175536122690539
40
0.234048163587393
40
0.234048163587393
40
0.292560204484248
40
0.292560204484248
40
0.321816224932675
40
0.321816224932675
40
0.351072245381102
40
0.351072245381102
40
0.409584286277956
40
0.409584286277956
40
0.438840306726382
40
0.438840306726382
40
0.453468316950595
40
0.453468316950595
40
0.468096327174808
40
0.468096327174808
40
0.526608368071661
40
0.526608368071661
40
0.585120408968513
40
0.585120408968513
40
0.643632449865365
40
0.643632449865365
40
0.702144490762217
40
0.702144490762217
40
0.76065653165907
40
0.76065653165907
40
0.789912552107497
40
0.789912552107497
40
0.80454056233171
40
0.80454056233171
40
0.819168572555924
40
0.819168572555924
40
0.877680613452776
40
0.877680613452776
40
0.906936633901202
40
0.906936633901202
40
0.936192654349628
40
0.936192654349628
40
0.965448674798054
40
0.965448674798054
40
0.99470469524648
40
0.99470469524648
40
1
40
1
40
1
40
1
41
1
10
37.3811003565878
20
-1.20834907051599
30
0
41
1
10
37.1150307038649
20
-1.01986971742002
30
0
41
1
10
36.8491870559082
20
-0.829689925938396
30
0
41
1
10
36.3174161135119
20
-0.446682974417143
30
0
41
1
10
36.0515451752279
20
-0.253778011894923
30
0
41
1
10
35.7185086661986
20
-0.0118588376537616
30
0
41
1
10
35.651839768417
20
0.0365807958206403
30
0
41
1
10
35.5187286454869
20
0.133272066827317
30
0
41
1
10
35.3192942555107
20
0.278104825944524
30
0
41
1
10
35.1204527721374
20
0.422190143524745
30
0
41
1
10
34.7232873644268
20
0.709013943628406
30
0
41
1
10
34.4591121374233
20
0.898319058747916
30
0
41
1
10
33.9315343689286
20
1.27257176560107
30
0
41
1
10
33.66816839158
20
1.45756935838915
30
0
41
1
10
33.2735045948006
20
1.73155847951233
30
0
41
1
10
33.1420193663625
20
1.82230847620909
30
0
41
1
10
32.8791201360185
20
2.00254086722813
30
0
41
1
10
32.7476956649633
20
2.09200919038449
30
0
41
1
10
32.3532096961637
20
2.35807496322823
30
0
41
1
10
32.0899306322774
20
2.53232894626893
30
0
41
1
10
31.693392135079
20
2.78747470341349
30
0
41
1
10
31.560941760944
20
2.87148255470103
30
0
41
1
10
31.3617255585197
20
2.99575551117249
30
0
41
1
10
31.2952322763419
20
3.03689255538993
30
0
41
1
10
31.1620623283094
20
3.11858084842902
30
0
41
1
10
31.09533107355
20
3.15916475727789
30
0
41
1
10
30.7620677949014
20
3.36006666038276
30
0
41
1
10
30.496541240462
20
3.51446142221641
30
0
41
1
10
29.9670612744602
20
3.81039772242207
30
0
41
1
10
29.7031387409304
20
3.95194228860302
30
0
41
1
10
29.176235330386
20
4.22146608348689
30
0
41
1
10
28.913240808262
20
4.34943214227175
30
0
41
1
10
28.3872944378324
20
4.59076348422624
30
0
41
1
10
28.1243446071977
20
4.70407896034411
30
0
41
1
10
27.5973111398203
20
4.91570913178865
30
0
41
1
10
27.3332824971795
20
5.01396095383265
30
0
41
1
10
26.9358512815639
20
5.14885984901858
30
0
41
1
10
26.8031403771121
20
5.19173697489097
30
0
41
1
10
26.6035901839255
20
5.2529653092042
30
0
41
1
10
26.5369543577971
20
5.27286980200057
30
0
41
1
10
26.4036897811206
20
5.31157091918357
30
0
41
1
10
26.3371330774303
20
5.3303474241167
30
0
41
1
10
26.004698763659
20
5.42133567006425
30
0
41
1
10
25.7399004899635
20
5.48479738987342
30
0
41
1
10
25.3437527598451
20
5.56573938541805
30
0
41
1
10
25.2118485691882
20
5.59041026412328
30
0
41
1
10
24.948233055232
20
5.63521654359903
30
0
41
1
10
24.8165324254825
20
5.65532802555279
30
0
41
1
10
24.5532950314007
20
5.69087862601066
30
0
41
1
10
24.4217576058454
20
5.70631953521647
30
0
41
1
10
24.158774390442
20
5.73242478748045
30
0
41
1
10
24.027335891612
20
5.74306299250537
30
0
41
1
10
23.8720533898307
20
5.75291222884891
30
0
41
1
10
23.8482534315165
20
5.75434693778641
30
0
41
1
10
23.8244516532534
20
5.75570648535884
30
0
0
SPLINE
5
116
100
AcDbEntity
8
1
62
256
6
ByLayer
370
13
48
1
60
0
100
AcDbSpline
70
4
71
3
72
55
73
51
40
0
40
0
40
0
40
0
40
0.036747875010719
40
0.126822696617924
40
0.216897518225129
40
0.284453634430533
40
0.352009750635936
40
0.397047161439539
40
0.442084572243142
40
0.487121983046744
40
0.532159393850347
40
0.565937451953048
40
0.58845615735485
40
0.605345186406201
40
0.616604539107101
40
0.633493568158452
40
0.641938082684128
40
0.650382597209803
40
0.656012273560253
40
0.660234530823091
40
0.664456788085929
40
0.666567916717348
40
0.66797533580496
40
0.668503117962815
40
0.66903090012067
40
0.669294791199597
40
0.669558682278524
40
0.669734609664476
40
0.669910537050428
40
0.670042482589891
40
0.670174428129355
40
0.670240400899087
40
0.670284382745575
40
0.670317369130441
40
0.670394337361794
40
0.670614246594234
40
0.670966101366137
40
0.671845738295895
40
0.672901302611604
40
0.674308721699217
40
0.675716140786829
40
0.677123559874442
40
0.684160655312505
40
0.695420008013406
40
0.723568389765657
40
0.757346447868359
40
0.802383858671961
40
0.869939974877365
40
0.937496091082769
40
1
40
1
40
1
40
1
41
1
10
32.1629521527428
20
1.04218590319249
30
0
41
1
10
31.9419681018285
20
1.19452752626307
30
0
41
1
10
31.1793173842476
20
1.71609836153215
30
0
41
1
10
29.875
20
2.57240082919424
30
0
41
0.999999999999999
10
28.3854166666667
20
3.45352145797836
30
0
41
1
10
27.03125
20
4.14645522710432
30
0
41
1
10
25.9479166666666
20
4.61536442143782
30
0
41
1
10
25
20
4.95504660364338
30
0
41
0.999999999999999
10
24.1875
20
5.19391849059074
30
0
41
1
10
23.375
20
5.37891961707686
30
0
41
1
10
22.6302083333333
20
5.49762368433392
30
0
41
1
10
22.0208333333333
20
5.55727210486057
30
0
41
1
10
21.5807291666667
20
5.58051478741808
30
0
41
1
10
21.2760416666666
20
5.58697311287739
30
0
41
1
10
21.0052083333334
20
5.58663854891969
30
0
41
1
10
20.7851562499999
20
5.58144533099053
30
0
41
1
10
20.58203125
20
5.5725850290419
30
0
41
0.999999999999999
10
20.4466145833333
20
5.56487542084995
30
0
41
1
10
20.3365885416667
20
5.55739389517348
30
0
41
1
10
20.251953125
20
5.55098442650689
30
0
41
1
10
20.1884765625
20
5.54575714076946
30
0
41
1
10
20.1419270833334
20
5.54169298768599
30
0
41
0.999999999999999
10
20.1175944010417
20
5.5395015578836
30
0
41
1
10
20.1027832031249
20
5.53814522766342
30
0
41
1
10
20.0948486328125
20
5.53741207295869
30
0
41
1
10
20.0885009765625
20
5.53682162027184
30
0
41
1
10
20.0842692057291
20
5.53642623909573
30
0
41
1
10
20.08056640625
20
5.53607900750359
30
0
41
1
10
20.0776570638021
20
5.53580538251179
30
0
41
0.999999999999999
10
20.0750122070313
20
5.53555599605404
30
0
41
1
10
20.0730285644531
20
5.5353685470705
30
0
41
0.999999999999998
10
20.0715738932291
20
5.53523085946419
30
0
41
1
10
20.0707143147787
20
5.53514942473773
30
0
41
0.999999999999999
10
20.0697886149088
20
5.53506167011699
30
0
41
1
10
20.067804972331
20
5.53487345403986
30
0
41
0.999999999999983
10
20.063903808593
20
5.53450239062643
30
0
41
1.00000000000003
10
20.0551757812515
20
5.53366831504308
30
0
41
0.999999999999968
10
20.0414225260377
20
5.53234077978153
30
0
41
1.00000000000002
10
20.0213216145837
20
5.53037014847734
30
0
41
0.999999999999991
10
19.9980468749999
20
5.52804359729369
30
0
41
1
10
19.9726562500001
20
5.52544975049388
30
0
41
0.999999999999995
10
19.9134114583331
20
5.51926731626426
30
0
41
1.00000000000001
10
19.7949218750008
20
5.50612202057041
30
0
41
0.999999999999973
10
19.5156249999951
20
5.47115912627047
30
0
41
1
10
19.0755208333376
20
5.40261049761722
30
0
41
1
10
18.4322916666651
20
5.27176592443711
30
0
41
1.00000000000001
10
17.5520833333339
20
5.0398112511639
30
0
41
1
10
16.4687499999992
20
4.66653043754054
30
0
41
1
10
15.2803815453891
20
4.15157415721716
30
0
41
1
10
14.4982630907785
20
3.75211330552849
30
0
41
1
10
14.1223946361677
20
3.54832537988693
30
0
0
SPLINE
5
117
100
AcDbEntity
8
1
62
256
6
ByLayer
370
18
48
1
60
0
100
AcDbSpline
70
4
71
3
72
8
73
4
40
0
40
0
40
0
40
0
40
1
40
1
40
1
40
1
41
1
10
37.9360249695827
20
-3.6167798844663
30
0
41
1
10
37.9150197799172
20
-3.70255732891698
30
0
41
1
10
37.8940490494611
20
-3.78763389993466
30
0
41
1
10
37.8731125797849
20
-3.87201346453898
30
0
0
SPLINE
5
118
100
AcDbEntity
8
1
62
256
6
ByLayer
370
18
48
1
60
0
100
AcDbSpline
70
4
71
3
72
8
73
4
40
0
40
0
40
0
40
0
40
1
40
1
40
1
40
1
41
1
10
37.8731125797849
20
-3.87201346453898
30
0
41
1
10
37.7333870029394
20
-4.07252642218046
30
0
41
1
10
37.5949481634784
20
-4.26386514306057
30
0
41
1
10
37.4577764713464
20
-4.44616930121941
30
0
0
SPLINE
5
119
100
AcDbEntity
8
1
62
256
6
ByLayer
370
18
48
1
60
0
100
AcDbSpline
70
4
71
3
72
8
73
4
40
0
40
0
40
0
40
0
40
1
40
1
40
1
40
1
41
1
10
37.4577764713467
20
-4.44616930121947
30
0
41
1
10
37.4460873681396
20
-4.46080790162841
30
0
41
1
10
37.4344016579542
20
-4.47538437511705
30
0
41
1
10
37.4227193409477
20
-4.48989871881014
30
0
0
SPLINE
5
11A
100
AcDbEntity
8
1
62
256
6
ByLayer
370
18
48
1
60
0
100
AcDbSpline
70
4
71
3
72
8
73
4
40
0
40
0
40
0
40
0
40
1
40
1
40
1
40
1
41
1
10
12.0000000000001
20
2.77434049941383
30
0
41
1
10
11.6691574318292
20
2.93041772913193
30
0
41
1
10
11.3406322549512
20
3.08582500880809
30
0
41
1
10
11.0149998102429
20
3.24039600932571
30
0
0
SPLINE
5
11B
100
AcDbEntity
8
1
62
256
6
ByLayer
370
18
48
1
60
0
100
AcDbSpline
70
4
71
3
72
24
73
20
40
0
40
0
40
0
40
0
40
0.0586115387958244
40
0.11724615215718
40
0.175904564126964
40
0.234587487197691
40
0.293295622440371
40
0.352029659631376
40
0.410790277377353
40
0.469578143238059
40
0.528393913847412
40
0.587238235032531
40
0.646111741930919
40
0.705015059105933
40
0.763948800838293
40
0.822913574369135
40
0.881909977782146
40
0.940938595828686
40
1
40
1
40
1
40
1
41
1
10
11.014983539037
20
3.24037278230892
30
0
41
1
10
11.007072163802
20
3.22907803492203
30
0
41
1
10
10.9912462987313
20
3.20648409355979
30
0
41
1
10
10.9676317115944
20
3.17275308897956
30
0
41
1
10
10.9441022698175
20
3.13913087280079
30
0
41
1
10
10.9206672286589
20
3.10562937556585
30
0
41
1
10
10.8973241139816
20
3.07224535673095
30
0
41
1
10
10.8740735962745
20
3.03897962626189
30
0
41
1
10
10.8509155027957
20
3.00583189120243
30
0
41
1
10
10.8278498864289
20
2.9728021369873
30
0
41
1
10
10.8048767405019
20
2.93989025893643
30
0
41
1
10
10.7819960700219
20
2.90709615437927
30
0
41
1
10
10.7592078921297
20
2.87441972317424
30
0
41
1
10
10.7365121629431
20
2.84186077360181
30
0
41
1
10
10.7139090694565
20
2.80941939808341
30
0
41
1
10
10.691397933015
20
2.77709455999207
30
0
41
1
10
10.6689813152504
20
2.74488935533233
30
0
41
1
10
10.6466496746656
20
2.71279137736869
30
0
41
1
10
10.6318464945171
20
2.69150049229526
30
0
41
1
10
10.6244428494897
20
2.68085209419294
30
0
0
SPLINE
5
11C
100
AcDbEntity
8
1
62
256
6
ByLayer
370
18
48
1
60
0
100
AcDbSpline
70
4
71
3
72
8
73
4
40
0
40
0
40
0
40
0
40
1
40
1
40
1
40
1
41
1
10
37.2999217515021
20
-4.3848036626776
30
0
41
1
10
37.3398914199602
20
-4.42237964134631
30
0
41
1
10
37.3808056209982
20
-4.45745975586433
30
0
41
1
10
37.4227193409477
20
-4.48989871881014
30
0
0
SPLINE
5
11D
100
AcDbEntity
8
1
62
256
6
ByLayer
370
13
48
1
60
0
100
AcDbSpline
70
4
71
3
72
8
73
4
40
0
40
0
40
0
40
0
40
1
40
1
40
1
40
1
41
1
10
37.299921753179
20
-4.38480366324177
30
0
41
1
10
37.269350923788
20
-4.39527423546517
30
0
41
1
10
37.2387800943971
20
-4.40567420035558
30
0
41
1
10
37.208209265006
20
-4.41600266666197
30
0
0
SPLINE
5
11E
100
AcDbEntity
8
1
62
256
6
ByLayer
370
13
48
1
60
0
100
AcDbSpline
70
4
71
3
72
56
73
52
40
0
40
0
40
0
40
0
40
0.0420904315836522
40
0.115775783000294
40
0.189461134416936
40
0.263146485833579
40
0.31841049939606
40
0.373674512958542
40
0.410517188666863
40
0.447359864375184
40
0.484202540083505
40
0.521045215791826
40
0.548677222573067
40
0.567098560427228
40
0.580914563817848
40
0.590125232744928
40
0.603941236135549
40
0.610849237830859
40
0.617757239526169
40
0.622362573989709
40
0.625816574837364
40
0.629270575685019
40
0.630997576108847
40
0.632148909724732
40
0.632580659830689
40
0.633012409936646
40
0.633228284989624
40
0.633444160042602
40
0.633588076744588
40
0.633731993446574
40
0.633839930973063
40
0.633947868499552
40
0.634001837262797
40
0.634037816438293
40
0.634064800819915
40
0.634127764377034
40
0.634307660254516
40
0.634595493658487
40
0.635315077168416
40
0.636178577380329
40
0.637329910996215
40
0.638481244612099
40
0.639632578227984
40
0.64538924630741
40
0.65459991523449
40
0.677626587552191
40
0.705258594333432
40
0.742101270041753
40
0.797365283604234
40
0.852629297166716
40
1
40
1
40
1
40
1
41
1
10
34.0532299671302
20
-5.20459022279081
30
0
41
1
10
33.7438199780868
20
-5.25362002562659
30
0
41
1
10
32.8927433223768
20
-5.36458318759506
30
0
41
1
10
31.5000000000001
20
-5.43253565137209
30
0
41
1
10
29.8750000000001
20
-5.34644994941539
30
0
41
1
10
28.3854166666668
20
-5.11578202822551
30
0
41
1
10
27.0312500000002
20
-4.79069820007865
30
0
41
1
10
25.9479166666667
20
-4.456639762745
30
0
41
1
10
25.0000000000001
20
-4.11497313971461
30
0
41
1
10
24.1875000000001
20
-3.79079401166109
30
0
41
1
10
23.3750000000001
20
-3.43741460392465
30
0
41
1
10
22.6302083333334
20
-3.08890725072217
30
0
41
1
10
22.0208333333334
20
-2.7880027058369
30
0
41
1
10
21.5807291666667
20
-2.56333632639513
30
0
41
1
10
21.2760416666667
20
-2.4045134292339
30
0
41
1
10
21.0052083333335
20
-2.26139026341781
30
0
41
1
10
20.7851562500001
20
-2.14359795339792
30
0
41
1
10
20.5820312500001
20
-2.03371594948976
30
0
41
1
10
20.4466145833334
20
-1.95997251908989
30
0
41
1
10
20.3365885416667
20
-1.89974053765022
30
0
41
1
10
20.2519531250001
20
-1.85324400416232
30
0
41
1
10
20.1884765625001
20
-1.81826874142215
30
0
41
1
10
20.1419270833334
20
-1.79256514409576
30
0
41
1
10
20.1175944010417
20
-1.77911339875703
30
0
41
1
10
20.1027832031251
20
-1.77092014791487
30
0
41
1
10
20.0948486328126
20
-1.7665293829439
30
0
41
1
10
20.0885009765626
20
-1.76301586011857
30
0
41
1
10
20.0842692057292
20
-1.76067310746254
30
0
41
1
10
20.0805664062501
20
-1.75862290475024
30
0
41
1
10
20.0776570638022
20
-1.75701184652249
30
0
41
1
10
20.0750122070314
20
-1.75554710141242
30
0
41
1
10
20.0730285644532
20
-1.7544484483434
30
0
41
1
10
20.0715738932292
20
-1.75364271764181
30
0
41
1
10
20.0707143147788
20
-1.75316658705347
30
0
41
1
10
20.0697886149089
20
-1.75265381822919
30
0
41
1
10
20.0678049723311
20
-1.75155498869978
30
0
41
1
10
20.0639038085935
20
-1.74939374928584
30
0
41
1
10
20.0551757812506
20
-1.74455753907566
30
0
41
1
10
20.041422526038
20
-1.73693381411891
30
0
41
1
10
20.0213216145847
20
-1.72578452937148
30
0
41
1
10
19.9980468749997
20
-1.71286471065776
30
0
41
1
10
19.9726562500002
20
-1.69875786768375
30
0
41
1
10
19.9134114583333
20
-1.66581303136363
30
0
41
1
10
19.7949218750012
20
-1.59975186104171
30
0
41
1
10
19.5156249999977
20
-1.44320436961823
30
0
41
1
10
19.0755208333367
20
-1.19393942473735
30
0
41
1
10
18.4322916666655
20
-0.825080807454583
30
0
41
1
10
17.5520833333341
20
-0.314261973683813
30
0
41
1
10
16.4687499999996
20
0.320195317046881
30
0
41
1
10
14.5729166666673
20
1.42431613516592
30
0
41
1
10
13.0833333333331
20
2.25253634685225
30
0
41
1
10
12.0000000000001
20
2.79402814716741
30
0
0
SPLINE
5
11F
100
AcDbEntity
8
1
62
256
6
ByLayer
370
18
48
1
60
0
100
AcDbSpline
70
4
71
3
72
8
73
4
40
0
40
0
40
0
40
0
40
1
40
1
40
1
40
1
41
1
10
37.4227193409477
20
-4.48989871881014
30
0
41
1
10
37.274528508417
20
-4.54816006050714
30
0
41
1
10
37.1264477693803
20
-4.6047025189896
30
0
41
1
10
36.9783770212887
20
-4.65944072618467
30
0
0
SPLINE
5
120
100
AcDbEntity
8
1
62
256
6
ByLayer
370
18
48
1
60
0
100
AcDbSpline
70
4
71
3
72
89
73
85
40
0
40
0
40
0
40
0
40
0.0029413225029424
40
0.0029413225029424
40
0.019558967127892
40
0.019558967127892
40
0.0361766117528417
40
0.0361766117528417
40
0.0694119010027423
40
0.0694119010027423
40
0.102647190252643
40
0.102647190252643
40
0.135882479502544
40
0.135882479502544
40
0.169117768752444
40
0.169117768752444
40
0.202353058002345
40
0.202353058002345
40
0.210661880314821
40
0.210661880314821
40
0.218970702627296
40
0.218970702627296
40
0.235588347252247
40
0.268823636502149
40
0.268823636502149
40
0.302058925752051
40
0.302058925752051
40
0.335294215001952
40
0.335294215001952
40
0.343603037314427
40
0.343603037314427
40
0.351911859626902
40
0.368529504251853
40
0.368529504251853
40
0.401764793501756
40
0.401764793501756
40
0.435000082751659
40
0.435000082751659
40
0.45161772737661
40
0.45161772737661
40
0.468235372001562
40
0.468235372001562
40
0.501470661251465
40
0.501470661251465
40
0.534705950501368
40
0.534705950501368
40
0.567941239751271
40
0.567941239751271
40
0.601176529001174
40
0.601176529001174
40
0.617794173626125
40
0.617794173626125
40
0.634411818251076
40
0.634411818251076
40
0.667647107500978
40
0.667647107500978
40
0.70088239675088
40
0.70088239675088
40
0.709191219063355
40
0.709191219063355
40
0.71750004137583
40
0.71750004137583
40
0.734117686000781
40
0.734117686000781
40
0.767352975250681
40
0.767352975250681
40
0.800588264500582
40
0.800588264500582
40
0.817205909125533
40
0.825514731438008
40
0.825514731438008
40
0.833823553750484
40
0.833823553750484
40
0.867058843000387
40
0.867058843000387
40
0.90029413225029
40
0.90029413225029
40
0.933529421500193
40
0.933529421500193
40
0.966764710750096
40
0.966764710750096
40
0.983382355375048
40
0.983382355375048
40
1
40
1
40
1
40
1
41
1
10
35.8997624079235
20
-5.02484138739172
30
0
41
1
10
35.8762123531982
20
-5.03207216859821
30
0
41
1
10
35.8526590915993
20
-5.03925432895892
30
0
41
1
10
35.6960147154109
20
-5.08668957269791
30
0
41
1
10
35.5627322056269
20
-5.1254641174877
30
0
41
1
10
35.2966770590721
20
-5.19969974877253
30
0
41
1
10
35.1638653632193
20
-5.2351758652307
30
0
41
1
10
34.7660558024404
20
-5.3367051952024
30
0
41
1
10
34.5017594816305
20
-5.39789116009749
30
0
41
1
10
33.9742597234347
20
-5.50664114831437
30
0
41
1
10
33.7110035826774
20
-5.55419864588603
30
0
41
1
10
33.1843283700838
20
-5.63558964872334
30
0
41
1
10
32.9208628794602
20
-5.66939777723601
30
0
41
1
10
32.3932134712439
20
-5.72308173245258
30
0
41
1
10
32.1290622987641
20
-5.74300011878771
30
0
41
1
10
31.5998512758123
20
-5.76883636028961
30
0
41
1
10
31.3348170101535
20
-5.77467543934526
30
0
41
1
10
31.0027096426957
20
-5.77295257487549
30
0
41
1
10
30.9362460570692
20
-5.77216095924044
30
0
41
1
10
30.8032250241797
20
-5.76968835443921
30
0
41
1
10
30.7366411626442
20
-5.76800650194591
30
0
41
1
10
30.5369445346693
20
-5.7616409054728
30
0
41
1
10
30.1379275017311
20
-5.74363380416861
30
0
41
1
10
29.739773257655
20
-5.70982403192664
30
0
41
1
10
29.2091728268011
20
-5.65066201476867
30
0
41
1
10
28.9440085648082
20
-5.61404313635472
30
0
41
1
10
28.4134166538588
20
-5.52658693184455
30
0
41
1
10
28.147997302532
20
-5.47567573705248
30
0
41
1
10
27.8155851781582
20
-5.40364841265719
30
0
41
1
10
27.7490653427706
20
-5.38882422903947
30
0
41
1
10
27.6161190109221
20
-5.35837813829062
30
0
41
1
10
27.4167788703767
20
-5.3114984682081
30
0
41
1
10
27.2176477749371
20
-5.26098195910404
30
0
41
1
10
26.8195804375993
20
-5.15508501663555
30
0
41
1
10
26.5544486542151
20
-5.07803479503701
30
0
41
1
10
26.0240390970552
20
-4.91179023057717
30
0
41
1
10
25.758784257361
20
-4.82252382562885
30
0
41
1
10
25.3604609420067
20
-4.67948762853317
30
0
41
1
10
25.2276072536442
20
-4.63030775090303
30
0
41
1
10
24.9616473666562
20
-4.52909038575157
30
0
41
1
10
24.8284485454748
20
-4.47702723313924
30
0
41
1
10
24.4298147767919
20
-4.3171871978191
30
0
41
1
10
24.164976672812
20
-4.20554487134009
30
0
41
1
10
23.6366813202552
20
-3.97270594554868
30
0
41
1
10
23.3731813302057
20
-3.85162512115795
30
0
41
1
10
22.8470117218989
20
-3.60074950100622
30
0
41
1
10
22.5843736427041
20
-3.47085730597362
30
0
41
1
10
22.0594123802466
20
-3.20301508311812
30
0
41
1
10
21.7970688155991
20
-3.06514001306135
30
0
41
1
10
21.403418374206
20
-2.85269886932252
30
0
41
1
10
21.2721841318569
20
-2.78092494203489
30
0
41
1
10
21.0095685770798
20
-2.63569705378029
30
0
41
1
10
20.8781815680032
20
-2.5622668404711
30
0
41
1
10
20.4836970874417
20
-2.33959924720534
30
0
41
1
10
20.2202829739047
20
-2.18795955726577
30
0
41
1
10
19.692041315521
20
-1.87895375073478
30
0
41
1
10
19.4272117804792
20
-1.72159384527765
30
0
41
1
10
19.0949037677295
20
-1.52182646553058
30
0
41
1
10
19.0283499927633
20
-1.48170246694514
30
0
41
1
10
18.8952493969467
20
-1.4012392985575
30
0
41
1
10
18.8287285097175
20
-1.36091571457749
30
0
41
1
10
18.6292463749521
20
-1.23968068858792
30
0
41
1
10
18.496372910056
20
-1.15849117891958
30
0
41
1
10
18.0979431196541
20
-0.914090175029031
30
0
41
1
10
17.8325018248538
20
-0.750192551847789
30
0
41
1
10
17.3016798185391
20
-0.4209070584171
30
0
41
1
10
17.0362958221845
20
-0.255524901195713
30
0
41
1
10
16.6379274446721
20
-0.0068482220106603
30
0
41
1
10
16.438669408493
20
0.11763997474975
30
0
41
1
10
16.2392292573262
20
0.242245252820453
30
0
41
1
10
16.1062196138965
20
0.32532763733596
30
0
41
1
10
16.0396749604355
20
0.366885243938071
30
0
41
1
10
15.7073065632453
20
0.574345153021653
30
0
41
1
10
15.4421642395087
20
0.739469980008721
30
0
41
1
10
14.9125271235501
20
1.06689614002559
30
0
41
1
10
14.6480333288984
20
1.22920798902322
30
0
41
1
10
14.1192853758303
20
1.55028078793845
30
0
41
1
10
13.8550375077999
20
1.7090438441825
30
0
41
1
10
13.3262683440248
20
2.02212489550365
30
0
41
1
10
13.0617533412264
20
2.17643949507865
30
0
41
1
10
12.6642731194134
20
2.40384935730575
30
0
41
1
10
12.531656372419
20
2.47897508907781
30
0
41
1
10
12.2660862007675
20
2.62777167424937
30
0
41
1
10
12.133137574258
20
2.70144363261503
30
0
41
1
10
12.0000000000001
20
2.7743404994138
30
0
0
SPLINE
5
121
100
AcDbEntity
8
1
62
256
6
ByLayer
370
18
48
1
60
0
100
AcDbSpline
70
4
71
3
72
38
73
34
40
0
40
0
40
0
40
0
40
0.0157817030520551
40
0.093367417619779
40
0.11276384626171
40
0.132160274903641
40
0.151556703545572
40
0.170953132187503
40
0.209745989471365
40
0.248538846755227
40
0.267935275397158
40
0.287331704039089
40
0.30672813268102
40
0.326124561322951
40
0.403710275890675
40
0.423106704532606
40
0.442503133174537
40
0.481295990458399
40
0.520088847742261
40
0.558881705026123
40
0.578278133668054
40
0.597674562309985
40
0.636467419593847
40
0.675260276877709
40
0.714053134161571
40
0.752845991445433
40
0.791638848729295
40
0.830431706013157
40
0.869224563297019
40
0.908017420580881
40
0.946810277864742
40
0.985603135148604
40
1
40
1
40
1
40
1
41
1
10
10.4343786624594
20
2.41221422591977
30
0
41
1
10
10.5314984631007
20
2.35447283883309
30
0
41
1
10
11.1059857162035
20
2.01054268935471
30
0
41
1
10
11.7991883698929
20
1.57986510980931
30
0
41
1
10
12.5139788552993
20
1.12569698603593
30
0
41
1
10
12.8712495957868
20
0.897009565870718
30
0
41
1
10
13.2283991745437
20
0.667060226783263
30
0
41
1
10
13.7044376980338
20
0.359200850100962
30
0
41
1
10
14.2991738773643
20
-0.0270457355984774
30
0
41
1
10
14.8935148860505
20
-0.412900515722356
30
0
41
1
10
15.368743508619
20
-0.71998371391777
30
0
41
1
10
15.7250500136743
20
-0.949115043573215
30
0
41
1
10
16.0812421085359
20
-1.17676676300906
30
0
41
1
10
16.7934267497927
20
-1.62844977983653
30
0
41
1
10
17.5051845277424
20
-2.06944415935593
30
0
41
1
10
18.2167973600013
20
-2.49344819015425
30
0
41
1
10
18.6911839612334
20
-2.77117766100537
30
0
41
1
10
19.2841646738316
20
-3.10828769277921
30
0
41
1
10
19.9958228734358
20
-3.49442151160511
30
0
41
1
10
20.5890103480044
20
-3.7990049050199
30
0
41
1
10
21.0636571055958
20
-4.03128564884085
30
0
41
1
10
21.5383728637004
20
-4.25562777161252
30
0
41
1
10
22.1319079472642
20
-4.52051103822433
30
0
41
1
10
22.8444084772956
20
-4.8116204351374
30
0
41
1
10
23.5571863495999
20
-5.07421463210119
30
0
41
1
10
24.2701819854887
20
-5.30670864734438
30
0
41
1
10
24.9833481577523
20
-5.50764908795384
30
0
41
1
10
25.6966281228009
20
-5.67582249815388
30
0
41
1
10
26.4099779171698
20
-5.81014785061981
30
0
41
1
10
27.1233513374658
20
-5.90990601754245
30
0
41
1
10
27.8366972676573
20
-5.97446921915841
30
0
41
1
10
28.4003653518467
20
-5.99736190607669
30
0
41
1
10
28.7263017859508
20
-5.99936290013861
30
0
41
1
10
28.8145267866347
20
-5.99908290761155
30
0
0
SPLINE
5
122
100
AcDbEntity
8
1
62
256
6
ByLayer
370
18
48
1
60
0
100
AcDbSpline
70
4
71
3
72
41
73
37
40
0
40
0
40
0
40
0
40
0.0047436541825014
40
0.0718910942047293
40
0.0886779542102863
40
0.105464814215843
40
0.1222516742214
40
0.139038534226957
40
0.172612254238071
40
0.206185974249185
40
0.222972834254742
40
0.239759694260299
40
0.256546554265856
40
0.273333414271413
40
0.340480854293641
40
0.357267714299198
40
0.374054574304755
40
0.407628294315869
40
0.441202014326983
40
0.474775734338097
40
0.491562594343654
40
0.508349454349211
40
0.541923174360325
40
0.575496894371439
40
0.609070614382553
40
0.642644334393667
40
0.67621805440478
40
0.709791774415894
40
0.743365494427008
40
0.776939214438122
40
0.810512934449236
40
0.84408665446035
40
0.877660374471464
40
0.944807814493692
40
0.978381534504806
40
1
40
1
40
1
40
1
41
1
10
10.6244428494897
20
2.68085209419294
30
0
41
1
10
10.6581662856242
20
2.66142288955271
30
0
41
1
10
11.1692250996665
20
2.3661650798044
30
0
41
1
10
11.7991117091309
20
1.98732363734311
30
0
41
1
10
12.5138955686923
20
1.54435041270887
30
0
41
1
10
12.8711632542473
20
1.3206558163443
30
0
41
1
10
13.2283152966812
20
1.09507148692407
30
0
41
1
10
13.7043624145342
20
0.792121265802081
30
0
41
1
10
14.2991011707148
20
0.410395542324977
30
0
41
1
10
14.8934428052669
20
0.0269006028533454
30
0
41
1
10
15.3686622079682
20
-0.27961082044007
30
0
41
1
10
15.7249627501822
20
-0.508949479894795
30
0
41
1
10
16.0811544951275
20
-0.737485772263597
30
0
41
1
10
16.793345359877
20
-1.19225056422238
30
0
41
1
10
17.5051066347564
20
-1.63951178627642
30
0
41
1
10
18.2167163628928
20
-2.07295748530299
30
0
41
1
10
18.6911031217888
20
-2.35786554922987
30
0
41
1
10
19.2840911929131
20
-2.70546849774902
30
0
41
1
10
19.9957440560183
20
-3.10653546683221
30
0
41
1
10
20.5889275966682
20
-3.42545622850429
30
0
41
1
10
21.0635733953745
20
-3.67032197369758
30
0
41
1
10
21.5382929273184
20
-3.90802579731184
30
0
41
1
10
22.1318316700019
20
-4.19085353431021
30
0
41
1
10
22.8443274551446
20
-4.50550661107738
30
0
41
1
10
23.5571048674184
20
-4.79340196681525
30
0
41
1
10
24.2701026141198
20
-5.05295712922489
30
0
41
1
10
24.9832701160529
20
-5.28239230699609
30
0
41
1
10
25.6965442601628
20
-5.48053079127655
30
0
41
1
10
26.4098969129325
20
-5.64584600189238
30
0
41
1
10
27.1232737560894
20
-5.77764855171304
30
0
41
1
10
27.8366180063517
20
-5.87496218216506
30
0
41
1
10
28.5497833118988
20
-5.93749041218936
30
0
41
1
10
29.5006346690429
20
-5.97332467864828
30
0
41
1
10
30.4524490899902
20
-5.9381138902979
30
0
41
1
10
31.322213557008
20
-5.84152476125647
30
0
41
1
10
31.7154556776083
20
-5.78191169283792
30
0
41
1
10
31.8696418468346
20
-5.75612764440126
30
0
0
SPLINE
5
123
100
AcDbEntity
8
1
62
256
6
ByLayer
370
18
48
1
60
0
100
AcDbSpline
70
4
71
3
72
9
73
5
40
0
40
0
40
0
40
0
40
0.335601556579792
40
1
40
1
40
1
40
1
41
1
10
10.4688483618919
20
-5.97765753865093
30
0
41
1
10
10.5547475608842
20
-5.9827431775972
30
0
41
1
10
10.8106857757075
20
-5.99521105062874
30
0
41
1
10
11.0665848240957
20
-5.99965903730663
30
0
41
1
10
11.2365983039682
20
-5.99907212456549
30
0
0
SPLINE
5
124
100
AcDbEntity
8
1
62
256
6
ByLayer
370
18
48
1
60
0
100
AcDbSpline
70
4
71
3
72
9
73
5
40
0
40
0
40
0
40
0
40
0.49973443937387
40
1
40
1
40
1
40
1
41
1
10
10.4318121699852
20
-5.98277330444063
30
0
41
1
10
10.4379730181544
20
-5.98188504827766
30
0
41
1
10
10.4503012622852
20
-5.98010759190689
30
0
41
1
10
10.4626638066961
20
-5.97847451219127
30
0
41
1
10
10.4688483619065
20
-5.97765753865178
30
0
0
SPLINE
5
125
100
AcDbEntity
8
1
62
256
6
ByLayer
370
18
48
1
60
0
100
AcDbSpline
70
4
71
3
72
8
73
4
40
0
40
0
40
0
40
0
40
1
40
1
40
1
40
1
41
1
10
10.4663774388556
20
-5.97836439199895
30
0
41
0.999999987297926
10
10.4672010533498
20
-5.97812857619827
30
0
41
0.999999987297926
10
10.4680246943768
20
-5.97789295841298
30
0
41
1
10
10.4688483619055
20
-5.9776575386521
30
0
0
SPLINE
5
126
100
AcDbEntity
8
1
62
256
6
ByLayer
370
18
48
1
60
0
100
AcDbSpline
70
4
71
3
72
10
73
6
40
0
40
0
40
0
40
0
40
0.5
40
0.5
40
1
40
1
40
1
40
1
41
1
10
10.4317893567392
20
2.41409496576105
30
0
41
1
10
10.4340485017179
20
2.47447344974972
30
0
41
1
10
10.4422930719885
20
2.53374084834866
30
0
41
1
10
10.47032188965
20
2.65003217622734
30
0
41
1
10
10.4900069095638
20
2.70649020881044
30
0
41
1
10
10.5147161132781
20
2.76080882550843
30
0
0
SPLINE
5
127
100
AcDbEntity
8
1
62
256
6
ByLayer
370
18
48
1
60
0
100
AcDbSpline
70
4
71
3
72
15
73
11
40
0
40
0
40
0
40
0
40
0.25
40
0.500000000000001
40
0.500000000000001
40
0.625000000000001
40
0.625000000000001
40
0.750000000000001
40
0.750000000000001
40
1
40
1
40
1
40
1
41
1
10
10.5147161132767
20
2.76080882550929
30
0
41
1
10
10.4975203726739
20
2.82118003122253
30
0
41
1
10
10.4717831509085
20
2.94136265307139
30
0
41
1
10
10.4633031524983
20
3.06036035639906
30
0
41
1
10
10.4635680332104
20
3.14914774932433
30
0
41
1
10
10.4647623043686
20
3.17866681322462
30
0
41
1
10
10.4694120984279
20
3.23754970087458
30
0
41
1
10
10.4728858877529
20
3.26697573354218
30
0
41
1
10
10.4865382153195
20
3.3536848245723
30
0
41
1
10
10.4999512579218
20
3.40982542948333
30
0
41
1
10
10.5174181991751
20
3.46442604260514
30
0
0
SPLINE
5
128
100
AcDbEntity
8
1
62
256
6
ByLayer
370
18
48
1
60
0
100
AcDbSpline
70
4
71
3
72
51
73
47
40
0
40
0
40
0
40
0
40
0.0624999999999932
40
0.0624999999999932
40
0.124999999999986
40
0.124999999999986
40
0.156249999999986
40
0.156249999999986
40
0.187499999999985
40
0.187499999999985
40
0.24999999999999
40
0.24999999999999
40
0.265624999999989
40
0.265624999999989
40
0.281249999999987
40
0.312499999999989
40
0.32812499999999
40
0.32812499999999
40
0.34374999999999
40
0.34374999999999
40
0.374999999999992
40
0.406249999999994
40
0.406249999999994
40
0.421874999999993
40
0.421874999999993
40
0.437499999999993
40
0.437499999999993
40
0.499999999999993
40
0.499999999999993
40
0.515624999999994
40
0.515624999999994
40
0.531249999999994
40
0.531249999999994
40
0.562499999999995
40
0.562499999999995
40
0.624999999999996
40
0.624999999999996
40
0.687499999999997
40
0.687499999999997
40
0.749999999999998
40
0.749999999999998
40
0.812499999999999
40
0.812499999999999
40
0.875
40
0.875
40
1
40
1
40
1
40
1
41
1
10
6.98247731726644
20
5.30200046374432
30
0
41
1
10
7.05571059969401
20
5.30332198953448
30
0
41
1
10
7.12863558968715
20
5.30574391499181
30
0
41
1
10
7.27367172617878
20
5.31345132420495
30
0
41
1
10
7.34578539777027
20
5.31873022116099
30
0
41
1
10
7.45311236058413
20
5.32953642158137
30
0
41
1
10
7.48882435203268
20
5.33363574832222
30
0
41
1
10
7.55913058381728
20
5.34286993420633
30
0
41
1
10
7.59379671797046
20
5.34800981996418
30
0
41
1
10
7.6960980964366
20
5.36520155601389
30
0
41
1
10
7.76206624442696
20
5.37900860376675
30
0
41
1
10
7.84060266388511
20
5.40008489149824
30
0
41
1
10
7.85603066238303
20
5.404471942165
30
0
41
1
10
7.88610172435273
20
5.41353766798215
30
0
41
1
10
7.93012384732151
20
5.4275980948666
30
0
41
1
10
7.9843276806094
20
5.44819815029351
30
0
41
1
10
8.02136837299179
20
5.46502282741815
30
0
41
1
10
8.04523114516155
20
5.47654025251643
30
0
41
1
10
8.0567459122737
20
5.48245272760889
30
0
41
1
10
8.08950925824948
20
5.50034239404803
30
0
41
1
10
8.12883473788872
20
5.5247803282455
30
0
41
1
10
8.16005779617834
20
5.55005191657901
30
0
41
1
10
8.18064779987463
20
5.56919803177445
30
0
41
1
10
8.1870553521351
20
5.57563091745106
30
0
41
1
10
8.19883689381382
20
5.58840113230414
30
0
41
1
10
8.20422503019847
20
5.59474860911263
30
0
41
1
10
8.2288637603007
20
5.62627321098356
30
0
41
1
10
8.24129182668668
20
5.6508035943049
30
0
41
1
10
8.25013085669147
20
5.68030926718416
30
0
41
1
10
8.25155908557454
20
5.68615301538557
30
0
41
1
10
8.25377973632888
20
5.69772002217704
30
0
41
1
10
8.25457258970727
20
5.70345317038999
30
0
41
1
10
8.25604907593811
20
5.72036930972615
30
0
41
1
10
8.25584142234555
20
5.73127836693348
30
0
41
1
10
8.25220693124265
20
5.76294330686846
30
0
41
1
10
8.24579787590815
20
5.78263913103572
30
0
41
1
10
8.22696744451073
20
5.81935666328539
30
0
41
1
10
8.21452949147056
20
5.83637727681142
30
0
41
1
10
8.18477758886735
20
5.8678367507232
30
0
41
1
10
8.16740519962809
20
5.88229738859937
30
0
41
1
10
8.12896433983678
20
5.90842524498615
30
0
41
1
10
8.10786294519073
20
5.92013787580379
30
0
41
1
10
8.06247294448852
20
5.94103670579423
30
0
41
1
10
8.03818106370068
20
5.95022220439628
30
0
41
1
10
7.96106410159618
20
5.97418271012609
30
0
41
1
10
7.90403782588348
20
5.98537023115426
30
0
41
1
10
7.84213244766443
20
5.9921347668614
30
0
0
SPLINE
5
129
100
AcDbEntity
8
1
62
256
6
ByLayer
370
18
48
1
60
0
100
AcDbSpline
70
4
71
3
72
8
73
4
40
0
40
0
40
0
40
0
40
1
40
1
40
1
40
1
41
1
10
7.84213244766443
20
5.9921347668614
30
0
41
1
10
7.80748148969451
20
5.99741730152212
30
0
41
1
10
7.77209342995448
20
6.00002149314631
30
0
41
1
10
7.73589393417478
20
6.00000071911282
30
0
0
SPLINE
5
12A
100
AcDbEntity
8
1
62
256
6
ByLayer
370
18
48
1
60
0
100
AcDbSpline
70
4
71
3
72
8
73
4
40
0
40
0
40
0
40
0
40
1
40
1
40
1
40
1
41
1
10
10.4317995368659
20
-5.98277515140811
30
0
41
1
10
10.6218268593244
20
-5.99285142143691
30
0
41
1
10
10.8117660506293
20
-5.9985066860701
30
0
41
1
10
11.0017597250653
20
-5.99974141563178
30
0
0
SPLINE
5
12B
100
AcDbEntity
8
1
62
256
6
ByLayer
370
18
48
1
60
0
100
AcDbSpline
70
4
71
3
72
8
73
4
40
0
40
0
40
0
40
0
40
1
40
1
40
1
40
1
41
1
10
10.4318248686609
20
-5.98277234663334
30
0
41
1
10
10.442775256854
20
-5.98135946183172
30
0
41
1
10
10.4543017991882
20
-5.97988736972292
30
0
41
1
10
10.4663774388579
20
-5.97836439199833
30
0
0
SPLINE
5
12C
100
AcDbEntity
8
1
62
256
6
ByLayer
370
18
48
1
60
0
100
AcDbSpline
70
4
71
3
72
8
73
4
40
0
40
0
40
0
40
0
40
1
40
1
40
1
40
1
41
1
10
10.398980145385
20
2.36255921006031
30
0
41
1
10
10.4093291588963
20
2.38008802906919
30
0
41
1
10
10.4202753893526
20
2.39726008166281
30
0
41
1
10
10.4317893615826
20
2.41409496296052
30
0
0
SPLINE
5
12D
100
AcDbEntity
8
1
62
256
6
ByLayer
370
18
48
1
60
0
100
AcDbSpline
70
4
71
3
72
8
73
4
40
0
40
0
40
0
40
0
40
1
40
1
40
1
40
1
41
1
10
37.8803759698047
20
-3.03347727836234
30
0
41
1
10
37.9202376243581
20
-3.03547490476564
30
0
41
1
10
37.9601123397462
20
-3.03755543529664
30
0
41
1
10
38
20
-3.03971810726929
30
0
0
SPLINE
5
12E
100
AcDbEntity
8
1
62
256
6
ByLayer
370
18
48
1
60
0
100
AcDbSpline
70
4
71
3
72
9
73
5
40
0
40
0
40
0
40
0
40
0.49977880090912
40
1
40
1
40
1
40
1
41
1
10
10.3989606988154
20
2.36253083782597
30
0
41
1
10
10.4048537507225
20
2.3707990361421
30
0
41
1
10
10.4166450709953
20
2.38734275168406
30
0
41
1
10
10.4284657253964
20
2.4039212878119
30
0
41
1
10
10.434378667315
20
2.41221422303295
30
0
0
SPLINE
5
12F
100
AcDbEntity
8
1
62
256
6
ByLayer
370
18
48
1
60
0
100
AcDbSpline
70
4
71
3
72
14
73
10
40
0
40
0
40
0
40
0
40
0.25
40
0.25
40
0.5
40
0.5
40
0.75
40
0.75
40
1
40
1
40
1
40
1
41
1
10
10.3989415926082
20
2.36250402985863
30
0
41
1
10
10.5318894793729
20
2.28228673054113
30
0
41
1
10
10.6646471363528
20
2.20119331056139
30
0
41
1
10
10.9302271483784
20
2.03788879158913
30
0
41
1
10
11.0630517071954
20
1.95568146119089
30
0
41
1
10
11.3290475580669
20
1.79057449548247
30
0
41
1
10
11.462217600972
20
1.70767365704816
30
0
41
1
10
11.7290024938199
20
1.5413458573025
30
0
41
1
10
11.8626173963805
20
1.45791951998834
30
0
41
1
10
11.9964260086924
20
1.3741957252299
30
0
0
SPLINE
5
130
100
AcDbEntity
8
1
62
256
6
ByLayer
370
18
48
1
60
0
100
AcDbSpline
70
4
71
3
72
8
73
4
40
0
40
0
40
0
40
0
40
1
40
1
40
1
40
1
41
1
10
11.9964260086766
20
1.37419572523984
30
0
41
1
10
11.9976173387285
20
1.37405588687204
30
0
41
1
10
11.9988086691697
20
1.37391605391352
30
0
41
1
10
12.0000000000001
20
1.37377622636305
30
0
0
SPLINE
5
131
100
AcDbEntity
8
1
62
256
6
ByLayer
370
18
48
1
60
0
100
AcDbSpline
70
4
71
3
72
53
73
49
40
0
40
0
40
0
40
0
40
0.0478297267629275
40
0.0478297267629275
40
0.095659453525855
40
0.095659453525855
40
0.119574316907319
40
0.119574316907319
40
0.143489180288782
40
0.143489180288782
40
0.191318907051711
40
0.191318907051711
40
0.239148633814639
40
0.239148633814639
40
0.263063497196103
40
0.263063497196103
40
0.286978360577568
40
0.286978360577568
40
0.382637814103425
40
0.382637814103425
40
0.430467540866353
40
0.430467540866353
40
0.454382404247818
40
0.454382404247818
40
0.478297267629283
40
0.478297267629283
40
0.573956721155141
40
0.573956721155141
40
0.597871584536605
40
0.597871584536605
40
0.621786447918069
40
0.621786447918069
40
0.669616174680998
40
0.669616174680998
40
0.765275628206854
40
0.765275628206854
40
0.789190491588317
40
0.789190491588317
40
0.81310535496978
40
0.860935081732708
40
0.860935081732708
40
0.908764808495634
40
0.908764808495634
40
0.932679671877098
40
0.932679671877098
40
0.956594535258561
40
0.956594535258561
40
1
40
1
40
1
40
1
41
1
10
12.0000000000001
20
1.37377622636302
30
0
41
1
10
12.268562169511
20
1.20400166658058
30
0
41
1
10
12.5367849887855
20
1.03268638263256
30
0
41
1
10
13.0731247424861
20
0.687829741375708
30
0
41
1
10
13.341245029192
20
0.514291798194819
30
0
41
1
10
13.7437997006253
20
0.25302054327085
30
0
41
1
10
13.8780662805906
20
0.165757857878646
30
0
41
1
10
14.1462334972283
20
-0.0085948603747568
30
0
41
1
10
14.2802047061585
20
-0.0957305932982422
30
0
41
1
10
14.6819017631677
20
-0.356831413883867
30
0
41
1
10
14.9494101937093
20
-0.530493140537374
30
0
41
1
10
15.4844938870414
20
-0.876010061086106
30
0
41
1
10
15.7520753663126
20
-1.04784890279762
30
0
41
1
10
16.1539859748707
20
-1.30350044292629
30
0
41
1
10
16.2880456000286
20
-1.38836706560025
30
0
41
1
10
16.5564206832018
20
-1.55728208375561
30
0
41
1
10
16.6907745078107
20
-1.64135350249703
30
0
41
1
10
17.3616352336014
20
-2.05831007265493
30
0
41
1
10
17.8967764151212
20
-2.38181736727117
30
0
41
1
10
18.7003575660511
20
-2.8474267950138
30
0
41
1
10
18.9683493068494
20
-2.9993642183901
30
0
41
1
10
19.3709540173841
20
-3.22178066772719
30
0
41
1
10
19.5053109569533
20
-3.29503004257487
30
0
41
1
10
19.7736253635491
20
-3.43922554674717
30
0
41
1
10
19.9076596850072
20
-3.51021489812905
30
0
41
1
10
20.5774128864269
20
-3.85938922708141
30
0
41
1
10
21.1118639300242
20
-4.12029137458907
30
0
41
1
10
21.781511966194
20
-4.41944972996865
30
0
41
1
10
21.9155210687345
20
-4.4779343776309
30
0
41
1
10
22.1837804332202
20
-4.59211448627914
30
0
41
1
10
22.3180914264427
20
-4.64783219761736
30
0
41
1
10
22.7205000993253
20
-4.81026349999476
30
0
41
1
10
22.9883601671893
20
-4.91237860904067
30
0
41
1
10
23.7916375188297
20
-5.19953601567772
30
0
41
1
10
24.3267773451363
20
-5.36539504953493
30
0
41
1
10
24.9979339370473
20
-5.53861489602568
30
0
41
1
10
25.1323434102536
20
-5.57156613826723
30
0
41
1
10
25.4007890514287
20
-5.63385262208206
30
0
41
1
10
25.8030871484984
20
-5.72191537389017
30
0
41
1
10
26.2045810910448
20
-5.7937564371459
30
0
41
1
10
26.7398113290893
20
-5.87489870785231
30
0
41
1
10
27.0073820752631
20
-5.90814633726237
30
0
41
1
10
27.4091544224768
20
-5.94682824610337
30
0
41
1
10
27.5431479619597
20
-5.95785759694394
30
0
41
1
10
27.811356480049
20
-5.97614961623901
30
0
41
1
10
27.9456461099061
20
-5.98341246396114
30
0
41
1
10
28.3231946362851
20
-5.99847538158937
30
0
41
1
10
28.5662548617792
20
-6.00190147626924
30
0
41
1
10
28.8091859470071
20
-5.99909575078127
30
0
0
SPLINE
5
132
100
AcDbEntity
8
1
62
256
6
ByLayer
370
18
48
1
60
0
100
AcDbSpline
70
4
71
3
72
70
73
66
40
0
40
0
40
0
40
0
40
0.0034335570438743
40
0.0034335570438743
40
0.0118080649678747
40
0.0285570808158758
40
0.0285570808158758
40
0.0620551125118777
40
0.0620551125118777
40
0.0955531442078796
40
0.0955531442078796
40
0.129051175903881
40
0.129051175903881
40
0.162549207599883
40
0.162549207599883
40
0.179298223447884
40
0.179298223447884
40
0.187672731371885
40
0.187672731371885
40
0.196047239295885
40
0.196047239295885
40
0.263043302687891
40
0.263043302687891
40
0.330039366079897
40
0.330039366079897
40
0.363537397775901
40
0.363537397775901
40
0.371911905699901
40
0.371911905699901
40
0.380286413623901
40
0.397035429471904
40
0.397035429471904
40
0.464031492863911
40
0.464031492863911
40
0.531027556255918
40
0.531027556255918
40
0.547776572103919
40
0.55615108002792
40
0.55615108002792
40
0.564525587951921
40
0.564525587951921
40
0.598023619647927
40
0.598023619647927
40
0.665019683039937
40
0.665019683039937
40
0.732015746431948
40
0.732015746431948
40
0.740390254355949
40
0.740390254355949
40
0.748764762279951
40
0.748764762279951
40
0.765513778127954
40
0.765513778127954
40
0.799011809823961
40
0.799011809823961
40
0.866007873215975
40
0.866007873215975
40
0.899505904911982
40
0.899505904911982
40
0.916254920759986
40
0.924629428683987
40
0.924629428683987
40
0.933003936607988
40
0.933003936607988
40
1
40
1
40
1
40
1
41
1
10
13.7409267673354
20
3.64722302271753
30
0
41
1
10
13.768643141628
20
3.66380959324218
30
0
41
1
10
13.7963489211066
20
3.68032341934566
30
0
41
1
10
13.8915605226731
20
3.7368420939693
30
0
41
1
10
14.0938968660883
20
3.85574998640644
30
0
41
1
10
14.295584677559
20
3.97057282120062
30
0
41
1
10
14.6982884055397
20
4.1946482345823
30
0
41
1
10
14.9658660216495
20
4.33660800530475
30
0
41
1
10
15.5001726735779
20
4.60510628986989
30
0
41
1
10
15.7668998409829
20
4.73156217479001
30
0
41
1
10
16.3004698337984
20
4.96827490945941
30
0
41
1
10
16.5673069642551
20
5.0785608321612
30
0
41
1
10
17.1021155926215
20
5.28193137630984
30
0
41
1
10
17.3700892024561
20
5.37502463637506
30
0
41
1
10
17.7736453766799
20
5.50119811813749
30
0
41
1
10
17.9084293826971
20
5.54101257170194
30
0
41
1
10
18.1111025139657
20
5.59725609722634
30
0
41
1
10
18.1787945639985
20
5.61543533279882
30
0
41
1
10
18.3139427249037
20
5.65050189960061
30
0
41
1
10
18.3814330335358
20
5.66740086086819
30
0
41
1
10
18.9881630137429
20
5.81382786525091
30
0
41
1
10
19.5226167193831
20
5.90388633970557
30
0
41
1
10
20.5899205186148
20
6.00358520760861
30
0
41
1
10
21.1227857381899
20
6.01330221739582
30
0
41
1
10
21.9267020672822
20
5.9667119158421
30
0
41
1
10
22.1954293627716
20
5.94098655488617
30
0
41
1
10
22.5329182813577
20
5.89588707618648
30
0
41
1
10
22.6005299322987
20
5.88621433217023
30
0
41
1
10
22.7357767540848
20
5.86559068561218
30
0
41
1
10
22.9383865872802
20
5.83278359102235
30
0
41
1
10
23.140292770894
20
5.79442897477853
30
0
41
1
10
23.8120823521803
20
5.65453954265061
30
0
41
1
10
24.3456205914198
20
5.50413916197519
30
0
41
1
10
25.4127090490122
20
5.13187959775877
30
0
41
1
10
25.9461562194692
20
4.90991571911476
30
0
41
1
10
26.6178224616858
20
4.59046677937687
30
0
41
1
10
26.8196898414238
20
4.49147931288843
30
0
41
1
10
27.0222597071573
20
4.38782413516435
30
0
41
1
10
27.1574792208443
20
4.3176910545501
30
0
41
1
10
27.2251236723692
20
4.28213578562918
30
0
41
1
10
27.5626956747031
20
4.1024194018226
30
0
41
1
10
27.831479219633
20
3.95203566127569
30
0
41
1
10
28.6354939184118
20
3.48290725607916
30
0
41
1
10
29.1683452750856
20
3.1461245530551
30
0
41
1
10
30.2356222212098
20
2.4340238684527
30
0
41
1
10
30.7700608678675
20
2.05870910922826
30
0
41
1
10
31.3766877729457
20
1.61969576513789
30
0
41
1
10
31.4441653570827
20
1.57068278623967
30
0
41
1
10
31.5792847295033
20
1.47220526826064
30
0
41
1
10
31.646976131931
20
1.42270417438789
30
0
41
1
10
31.8496886243999
20
1.27401463794033
30
0
41
1
10
31.9844929090489
20
1.17453541016115
30
0
41
1
10
32.3880911517912
20
0.87530289546001
30
0
41
1
10
32.656071467492
20
0.674755901142021
30
0
41
1
10
33.4583061934675
20
0.0720129280671244
30
0
41
1
10
33.9908819480141
20
-0.331249206145117
30
0
41
1
10
34.7922047260985
20
-0.930461997198222
30
0
41
1
10
35.0597071039052
20
-1.12927258936668
30
0
41
1
10
35.4622781995432
20
-1.42511997990684
30
0
41
1
10
35.6638944662977
20
-1.57244976242149
30
0
41
1
10
35.8661529625608
20
-1.71869131213322
30
0
41
1
10
36.0011515762394
20
-1.81592099587047
30
0
41
1
10
36.0687571396435
20
-1.86442243457347
30
0
41
1
10
36.6774664150071
20
-2.2992577115734
30
0
41
1
10
37.216266855358
20
-2.67087137410331
30
0
41
1
10
37.75685112872
20
-3.02269848081926
30
0
0
SPLINE
5
133
100
AcDbEntity
8
1
62
256
6
ByLayer
370
18
48
1
60
0
100
AcDbSpline
70
4
71
3
72
8
73
4
40
0
40
0
40
0
40
0
40
1
40
1
40
1
40
1
41
1
10
37.7568511287215
20
-3.02269848080726
30
0
41
1
10
37.7980246162582
20
-3.02620607456217
30
0
41
1
10
37.8391995636031
20
-3.02979904597373
30
0
41
1
10
37.88037596889
20
-3.03347728582753
30
0
0
SPLINE
5
134
100
AcDbEntity
8
1
62
256
6
ByLayer
370
18
48
1
60
0
100
AcDbSpline
70
4
71
3
72
34
73
30
40
0
40
0
40
0
40
0
40
0.0204126860843543
40
0.0428307773170857
40
0.0652488685498171
40
0.11008505101528
40
0.132503142248011
40
0.154921233480743
40
0.199757415946206
40
0.222175507178937
40
0.244593598411669
40
0.2670116896444
40
0.289429780877132
40
0.311847872109863
40
0.334265963342594
40
0.379102145808057
40
0.401520237040789
40
0.42393832827352
40
0.468774510738983
40
0.558446875669909
40
0.603283058135372
40
0.648119240600835
40
0.692955423066298
40
0.73779160553176
40
0.782627787997223
40
0.827463970462686
40
0.872300152928149
40
0.917136335393612
40
1
40
1
40
1
40
1
41
1
10
21.7643057626634
20
5.98141998917441
30
0
41
1
10
21.8717636667715
20
5.97519812522361
30
0
41
1
10
22.0972852309763
20
5.95871166018026
30
0
41
1
10
22.4410112032896
20
5.9226606829861
30
0
41
1
10
22.9136495227082
20
5.85746326092234
30
0
41
1
10
23.3866645464952
20
5.76885223363811
30
0
41
1
10
23.8599519396677
20
5.65740549910547
30
0
41
1
10
24.3333870595546
20
5.53094655157074
30
0
41
1
10
24.807000935674
20
5.38224909042316
30
0
41
1
10
25.2806974122337
20
5.21229456097191
30
0
41
1
10
25.6359884695155
20
5.07444301104309
30
0
41
1
10
25.991268325949
20
4.92647580759314
30
0
41
1
10
26.3465051646715
20
4.76871752346355
30
0
41
1
10
26.7016609397794
20
4.60153383921406
30
0
41
1
10
27.1750488754673
20
4.36650130790539
30
0
41
1
10
27.6481453284306
20
4.11399558890787
30
0
41
1
10
28.1208260718998
20
3.84569522339896
30
0
41
1
10
28.5931645957577
20
3.56742897831603
30
0
41
1
10
29.4191346758436
20
3.05556580914333
30
0
41
1
10
30.3636988489284
20
2.41966525410336
30
0
41
1
10
31.3128014196651
20
1.74475191829555
30
0
41
1
10
32.0278860758682
20
1.22215145306981
30
0
41
1
10
32.7472712008407
20
0.686479352190759
30
0
41
1
10
33.4720105441618
20
0.141180500699761
30
0
41
1
10
34.2032148372912
20
-0.410176108505908
30
0
41
1
10
34.9419866216538
20
-0.963747323905068
30
0
41
1
10
35.6895059486512
20
-1.51553526427375
30
0
41
1
10
36.6611538874366
20
-2.21531436298838
30
0
41
1
10
37.3957476247808
20
-2.71832768902826
30
0
41
1
10
37.8803759707171
20
-3.03347727080922
30
0
0
SPLINE
5
135
100
AcDbEntity
8
1
62
256
6
ByLayer
370
18
48
1
60
0
100
AcDbSpline
70
4
71
3
72
21
73
17
40
0
40
0
40
0
40
0
40
0.0740999218680898
40
0.143747490485022
40
0.214772678469903
40
0.28575933153051
40
0.356814307082018
40
0.461842060157569
40
0.557053103685392
40
0.645135100370171
40
0.73223633650213
40
0.80997028058983
40
0.848767503638508
40
0.88859262059668
40
0.942056864179421
40
1
40
1
40
1
40
1
41
1
10
14.3934657274118
20
-5.27455329946713
30
0
41
1
10
14.5829640069661
20
-5.267385653107
30
0
41
1
10
14.9419756101268
20
-5.25281093967905
30
0
41
1
10
15.4623049925153
20
-5.22791647763512
30
0
41
1
10
15.9334312869219
20
-5.20385101090056
30
0
41
1
10
16.4304027507531
20
-5.16468407851406
30
0
41
1
10
17.0124438527442
20
-5.10872768161215
30
0
41
1
10
17.6602556950008
20
-5.03292115155921
30
0
41
1
10
18.3584926939242
20
-4.93591042936887
30
0
41
1
10
19.0097381041708
20
-4.832161353316
30
0
41
1
10
19.6193079468638
20
-4.72407904622381
30
0
41
1
10
20.1145523096209
20
-4.62782598089069
30
0
41
1
10
20.4890141961766
20
-4.55121610299909
30
0
41
1
10
20.8007848635229
20
-4.48532063357075
30
0
41
1
10
21.1621492296956
20
-4.4058609695104
30
0
41
1
10
21.4296017154474
20
-4.34468438531775
30
0
41
1
10
21.5688842709048
20
-4.31219910590087
30
0
0
SPLINE
5
136
100
AcDbEntity
8
1
62
256
6
ByLayer
370
18
48
1
60
0
100
AcDbSpline
70
4
71
2
72
6
73
3
40
0
40
0
40
0
40
1
40
1
40
1
41
1
10
34.2500735295799
20
3.24165357112088
30
0
41
1
10
34.067347277595
20
3.30989616924336
30
0
41
1
10
33.8835186510805
20
3.38059122576413
30
0
0
SPLINE
5
137
100
AcDbEntity
8
1
62
256
6
ByLayer
370
18
48
1
60
0
100
AcDbSpline
70
4
71
3
72
33
73
29
40
0
40
0
40
0
40
0
40
0.01410831606238
40
0.0310629295198355
40
0.0484400973889202
40
0.0621637697040345
40
0.0678758886493564
40
0.073221030652478
40
0.0838938763141905
40
0.107095388170243
40
0.12883759012382
40
0.145823452105308
40
0.153556201821036
40
0.16131897648561
40
0.177855797059502
40
0.21563798347452
40
0.252895190554766
40
0.302370704873708
40
0.351439151487677
40
0.397823630369153
40
0.442018332189586
40
0.505673453459347
40
0.558200059885472
40
0.625272052796252
40
0.715179227361711
40
0.829779073241943
40
0.96088539371224
40
1
40
1
40
1
40
1
41
1
10
19.8240264379978
20
2.32656504494861
30
0
41
1
10
19.7932109051971
20
2.3327854213893
30
0
41
1
10
19.7304343876024
20
2.34487034773346
30
0
41
1
10
19.6562919687956
20
2.35671614317846
30
0
41
1
10
19.589094646558
20
2.36535534501996
30
0
41
1
10
19.5231850795176
20
2.37478159468364
30
0
41
1
10
19.4708550677953
20
2.38400718148313
30
0
41
1
10
19.4227765885595
20
2.39367367022936
30
0
41
1
10
19.3387980222118
20
2.41410141526913
30
0
41
1
10
19.2436193713857
20
2.44461844752735
30
0
41
1
10
19.1425656811628
20
2.48009477180125
30
0
41
1
10
19.0512877141411
20
2.50727117369252
30
0
41
1
10
18.9802891596189
20
2.52446233983417
30
0
41
1
10
18.9101138608245
20
2.5392850883182
30
0
41
1
10
18.7804606242574
20
2.56070438836187
30
0
41
1
10
18.6183531537358
20
2.57558868235412
30
0
41
1
10
18.3719777342663
20
2.60137236037869
30
0
41
1
10
18.0646596004536
20
2.66472807814958
30
0
41
1
10
17.7546988860479
20
2.74463661113009
30
0
41
1
10
17.4483270152679
20
2.81481054581917
30
0
41
1
10
17.1144742529181
20
2.88445551716765
30
0
41
1
10
16.7689595354207
20
2.95736057294684
30
0
41
1
10
16.3724134367208
20
3.05124891370605
30
0
41
1
10
15.9174204113488
20
3.15919903207836
30
0
41
1
10
15.3217063000092
20
3.28580331578954
30
0
41
1
10
14.5907603416244
20
3.44284541714279
30
0
41
1
10
13.9706234178842
20
3.59234230180908
30
0
41
1
10
13.5994825916184
20
3.67801008996224
30
0
41
1
10
13.5141743571371
20
3.69754841008509
30
0
0
SPLINE
5
138
100
AcDbEntity
8
1
62
256
6
ByLayer
370
18
48
1
60
0
100
AcDbSpline
70
4
71
3
72
8
73
4
40
0
40
0
40
0
40
0
40
1
40
1
40
1
40
1
41
1
10
13.2396352350595
20
3.75995864969718
30
0
41
1
10
13.0975508500956
20
3.79204671571637
30
0
41
1
10
12.9554058399812
20
3.82386744443423
30
0
41
1
10
12.8132127102921
20
3.85563829918087
30
0
0
SPLINE
5
139
100
AcDbEntity
8
1
62
256
6
ByLayer
370
18
48
1
60
0
100
AcDbSpline
70
4
71
3
72
17
73
13
40
0
40
0
40
0
40
0
40
0.117728563396252
40
0.214000185188994
40
0.291440116333064
40
0.365549814908563
40
0.442509131385859
40
0.522206323258776
40
0.639945326897512
40
0.745602481778068
40
0.866718477370703
40
1
40
1
40
1
40
1
41
1
10
32.2370420595782
20
3.92629277337369
30
0
41
1
10
32.0403778701188
20
3.98181544434971
30
0
41
1
10
31.6848476487492
20
4.08008429821615
30
0
41
1
10
31.1954753626278
20
4.20767996167112
30
0
41
1
10
30.7980680861936
20
4.31111083086449
30
0
41
1
10
30.4342422523755
20
4.40132138038533
30
0
41
1
10
30.0596577159005
20
4.48959838246833
30
0
41
1
10
29.6095004629391
20
4.59082047550388
30
0
41
1
10
29.1109428566662
20
4.69616347235927
30
0
41
1
10
28.5429159957979
20
4.80687977542703
30
0
41
1
10
27.949408341741
20
4.9119444977776
30
0
41
1
10
27.5307674984856
20
4.97714512324794
30
0
41
1
10
27.3113386842534
20
5.00874428103225
30
0
0
SPLINE
5
13A
100
AcDbEntity
8
1
62
256
6
ByLayer
370
18
48
1
60
0
100
AcDbSpline
70
4
71
3
72
10
73
6
40
0
40
0
40
0
40
0
40
0.508825631197846
40
0.754106201125438
40
1
40
1
40
1
40
1
41
1
10
14.4728271985179
20
3.45094119336278
30
0
41
1
10
14.0543117775182
20
3.56163723067942
30
0
41
1
10
13.4335908129228
20
3.72214407393392
30
0
41
1
10
12.5957934311375
20
3.89587028166684
30
0
41
1
10
12.1975473548307
20
4.01057981039443
30
0
41
1
10
12
20
4.07187246688463
30
0
0
SPLINE
5
13B
100
AcDbEntity
8
1
62
256
6
ByLayer
370
18
48
1
60
0
100
AcDbSpline
70
4
71
3
72
19
73
15
40
0
40
0
40
0
40
0
40
0.124132281706042
40
0.236665290403558
40
0.336998729594062
40
0.41344302243863
40
0.464745665916793
40
0.528914347854399
40
0.621113750810935
40
0.711394003922031
40
0.780825899249513
40
0.830731647916411
40
0.914866701193564
40
1
40
1
40
1
40
1
41
1
10
32.2228753591559
20
-5.27477604428847
30
0
41
1
10
32.4039920052753
20
-5.27137768272235
30
0
41
1
10
32.7460748400821
20
-5.2623910952554
30
0
41
1
10
33.2282695210138
20
-5.24223251262725
30
0
41
1
10
33.6292205085632
20
-5.22057141503612
30
0
41
1
10
33.947017405848
20
-5.1995710281505
30
0
41
1
10
34.2227945780384
20
-5.17938681986607
30
0
41
1
10
34.5205425470032
20
-5.15546464273399
30
0
41
1
10
34.8718846902281
20
-5.12398348676672
30
0
41
1
10
35.230969505463
20
-5.08799428840206
30
0
41
1
10
35.5297874017272
20
-5.05528976696391
30
0
41
1
10
35.8198114196202
20
-5.02150752464462
30
0
41
1
10
36.1322342019458
20
-4.98293702548582
30
0
41
1
10
36.3734410421596
20
-4.95010182488841
30
0
41
1
10
36.4947441174526
20
-4.93289384478209
30
0
0
LINE
5
77
100
AcDbEntity
8
4
62
256
6
ByLayer
370
18
48
0.05
60
0
100
AcDbLine
10
0
20
0
30
0
11
38
21
0
31
0
39
0
210
0
220
0
230
1
0
LINE
5
79
100
AcDbEntity
8
81
62
256
6
ByLayer
370
18
48
1
60
0
100
AcDbLine
10
38
20
0
30
0
11
43
21
0
31
0
39
0
210
0
220
0
230
1
0
LINE
5
7A
100
AcDbEntity
8
SK4
62
256
6
ByLayer
370
18
48
0.05
60
0
100
AcDbLine
10
-45
20
0
30
0
11
38
21
0
31
0
39
0
210
0
220
0
230
1
0
LINE
5
7C
100
AcDbEntity
8
80
62
256
6
ByLayer
370
18
48
1
60
0
100
AcDbLine
10
0
20
0
30
0
11
-5
21
0
31
0
39
0
210
0
220
0
230
1
0
LINE
5
7D
100
AcDbEntity
8
1
62
256
6
ByLayer
370
18
48
1
60
0
100
AcDbLine
10
0
20
6
30
0
11
0
21
0
31
0
39
0
210
0
220
0
230
1
0
LINE
5
7E
100
AcDbEntity
8
1
62
256
6
ByLayer
370
18
48
1
60
0
100
AcDbLine
10
0
20
0
30
0
11
0
21
-6
31
0
39
0
210
0
220
0
230
1
0
LINE
5
7F
100
AcDbEntity
8
1
62
256
6
ByLayer
370
18
48
1
60
0
100
AcDbLine
10
37.995948
20
-3.048396
30
0
11
37.999998
21
-3.306335
31
0
39
0
210
0
220
0
230
1
0
LINE
5
80
100
AcDbEntity
8
1
62
256
6
ByLayer
370
18
48
1
60
0
100
AcDbLine
10
37.873113
20
-3.872013
30
0
11
37.870535
21
-3.704884
31
0
39
0
210
0
220
0
230
1
0
LINE
5
81
100
AcDbEntity
8
1
62
256
6
ByLayer
370
18
48
1
60
0
100
AcDbLine
10
37.870535
20
-3.704884
30
0
11
37.995948
21
-3.048396
31
0
39
0
210
0
220
0
230
1
0
LINE
5
82
100
AcDbEntity
8
1
62
256
6
ByLayer
370
18
48
1
60
0
100
AcDbLine
10
37.994519
20
-3.039431
30
0
11
37.995948
21
-3.048396
31
0
39
0
210
0
220
0
230
1
0
LINE
5
83
100
AcDbEntity
8
1
62
256
6
ByLayer
370
18
48
1
60
0
100
AcDbLine
10
37.457776
20
-4.446169
30
0
11
37.870535
21
-3.704884
31
0
39
0
210
0
220
0
230
1
0
LINE
5
84
100
AcDbEntity
8
1
62
256
6
ByLayer
370
18
48
1
60
0
100
AcDbLine
10
37.870535
20
-3.704884
30
0
11
37.765181
21
-3.023411
31
0
39
0
210
0
220
0
230
1
0
LINE
5
85
100
AcDbEntity
8
1
62
256
6
ByLayer
370
18
48
1
60
0
100
AcDbLine
10
37.973007
20
5.274046
30
0
11
37.995948
21
5.531745
31
0
39
0
210
0
220
0
230
1
0
LINE
5
86
100
AcDbEntity
8
1
62
256
6
ByLayer
370
18
48
1
60
0
100
AcDbLine
10
37.995948
20
5.531745
30
0
11
37.999998
21
5.987755
31
0
39
0
210
0
220
0
230
1
0
LINE
5
87
100
AcDbEntity
8
1
62
256
6
ByLayer
370
18
48
1
60
0
100
AcDbLine
10
37.31595
20
-0.050413
30
0
11
37.496048
21
-0.083716
31
0
39
0
210
0
220
0
230
1
0
LINE
5
88
100
AcDbEntity
8
1
62
256
6
ByLayer
370
18
48
1
60
0
100
AcDbLine
10
37.496048
20
-0.083716
30
0
11
37.883433
21
4.26785
31
0
39
0
210
0
220
0
230
1
0
LINE
5
89
100
AcDbEntity
8
1
62
256
6
ByLayer
370
18
48
1
60
0
100
AcDbLine
10
36.48843
20
-4.934419
30
0
11
37.169629
21
-2.821641
31
0
39
0
210
0
220
0
230
1
0
LINE
5
8A
100
AcDbEntity
8
1
62
256
6
ByLayer
370
18
48
1
60
0
100
AcDbLine
10
37.169629
20
-2.821641
30
0
11
37.252482
21
-2.685078
31
0
39
0
210
0
220
0
230
1
0
LINE
5
8B
100
AcDbEntity
8
1
62
256
6
ByLayer
370
18
48
1
60
0
100
AcDbLine
10
34.279984
20
-3.259274
30
0
11
37.169629
21
-2.821641
31
0
39
0
210
0
220
0
230
1
0
LINE
5
8C
100
AcDbEntity
8
1
62
256
6
ByLayer
370
13
48
1
60
0
100
AcDbLine
10
34.897021
20
-1.221631
30
0
11
33.69525
21
-1.821624
31
0
39
0
210
0
220
0
230
1
0
LINE
5
8D
100
AcDbEntity
8
1
62
256
6
ByLayer
370
18
48
1
60
0
100
AcDbLine
10
12
20
-5.29189
30
0
11
12
21
-5.697048
31
0
39
0
210
0
220
0
230
1
0
LINE
5
8E
100
AcDbEntity
8
1
62
256
6
ByLayer
370
13
48
1
60
0
100
AcDbLine
10
7.363995
20
-4.586528
30
0
11
12
21
-5.29189
31
0
39
0
210
0
220
0
230
1
0
LINE
5
8F
100
AcDbEntity
8
1
62
256
6
ByLayer
370
18
48
1
60
0
100
AcDbLine
10
12
20
-5.29189
30
0
11
12
21
-5.115794
31
0
39
0
210
0
220
0
230
1
0
LINE
5
90
100
AcDbEntity
8
1
62
256
6
ByLayer
370
13
48
1
60
0
100
AcDbLine
10
6.982477
20
5.302
30
0
11
12
21
2.919882
31
0
39
0
210
0
220
0
230
1
0
LINE
5
91
100
AcDbEntity
8
1
62
256
6
ByLayer
370
18
48
1
60
0
100
AcDbLine
10
6.993191
20
5.17106
30
0
11
12
21
2.794028
31
0
39
0
210
0
220
0
230
1
0
LINE
5
92
100
AcDbEntity
8
1
62
256
6
ByLayer
370
18
48
1
60
0
100
AcDbLine
10
37.97367
20
-2.688902
30
0
11
37.995948
21
-2.814361
31
0
39
0
210
0
220
0
230
1
0
LINE
5
93
100
AcDbEntity
8
1
62
256
6
ByLayer
370
18
48
1
60
0
100
AcDbLine
10
37.713167
20
-1.221829
30
0
11
37.881118
21
-2.167675
31
0
39
0
210
0
220
0
230
1
0
LINE
5
94
100
AcDbEntity
8
1
62
256
6
ByLayer
370
18
48
1
60
0
100
AcDbLine
10
37.602813
20
-0.619683
30
0
11
37.713167
21
-1.221829
31
0
39
0
210
0
220
0
230
1
0
LINE
5
95
100
AcDbEntity
8
1
62
256
6
ByLayer
370
18
48
1
60
0
100
AcDbLine
10
12
20
2.794028
30
0
11
12
21
2.919882
31
0
39
0
210
0
220
0
230
1
0
LINE
5
96
100
AcDbEntity
8
1
62
256
6
ByLayer
370
18
48
1
60
0
100
AcDbLine
10
37.995948
20
-2.814361
30
0
11
37.999998
21
-3.039718
31
0
39
0
210
0
220
0
230
1
0
LINE
5
97
100
AcDbEntity
8
1
62
256
6
ByLayer
370
18
48
1
60
0
100
AcDbLine
10
37.870535
20
-2.128133
30
0
11
37.995948
21
-2.814361
31
0
39
0
210
0
220
0
230
1
0
LINE
5
98
100
AcDbEntity
8
1
62
256
6
ByLayer
370
13
48
1
60
0
100
AcDbLine
10
7.354144
20
-4.408933
30
0
11
12
21
-5.115794
31
0
39
0
210
0
220
0
230
1
0
LINE
5
99
100
AcDbEntity
8
1
62
256
6
ByLayer
370
18
48
1
60
0
100
AcDbLine
10
12
20
-5.115794
30
0
11
12
21
-3.219136
31
0
39
0
210
0
220
0
230
1
0
LINE
5
9A
100
AcDbEntity
8
1
62
256
6
ByLayer
370
18
48
1
60
0
100
AcDbLine
10
37.873137
20
-2.275106
30
0
11
37.870535
21
-2.128133
31
0
39
0
210
0
220
0
230
1
0
LINE
5
9B
100
AcDbEntity
8
1
62
256
6
ByLayer
370
18
48
1
60
0
100
AcDbLine
10
37.450515
20
-1.354085
30
0
11
37.870535
21
-2.128133
31
0
39
0
210
0
220
0
230
1
0
LINE
5
9C
100
AcDbEntity
8
1
62
256
6
ByLayer
370
18
48
1
60
0
100
AcDbLine
10
37.870535
20
-2.128133
30
0
11
37.602813
21
-0.619683
31
0
39
0
210
0
220
0
230
1
0
LINE
5
9D
100
AcDbEntity
8
1
62
256
6
ByLayer
370
18
48
1
60
0
100
AcDbLine
10
37.199466
20
0.180769
30
0
11
37.602813
21
-0.619683
31
0
39
0
210
0
220
0
230
1
0
LINE
5
9E
100
AcDbEntity
8
1
62
256
6
ByLayer
370
18
48
1
60
0
100
AcDbLine
10
36.297713
20
1.487734
30
0
11
37.199466
21
0.180769
31
0
39
0
210
0
220
0
230
1
0
LINE
5
9F
100
AcDbEntity
8
1
62
256
6
ByLayer
370
18
48
1
60
0
100
AcDbLine
10
8.313575
20
-2.658251
30
0
11
12
21
-3.219136
31
0
39
0
210
0
220
0
230
1
0
LINE
5
A0
100
AcDbEntity
8
1
62
256
6
ByLayer
370
18
48
1
60
0
100
AcDbLine
10
12
20
-3.219136
30
0
11
12
21
-1.848114
31
0
39
0
210
0
220
0
230
1
0
LINE
5
A1
100
AcDbEntity
8
1
62
256
6
ByLayer
370
13
48
1
60
0
100
AcDbLine
10
6.469017
20
-1.006581
30
0
11
12
21
-1.848114
31
0
39
0
210
0
220
0
230
1
0
LINE
5
A2
100
AcDbEntity
8
1
62
256
6
ByLayer
370
18
48
1
60
0
100
AcDbLine
10
12
20
-1.848114
30
0
11
12
21
-0.861982
31
0
39
0
210
0
220
0
230
1
0
LINE
5
A3
100
AcDbEntity
8
1
62
256
6
ByLayer
370
13
48
1
60
0
100
AcDbLine
10
6.1309
20
0.030995
30
0
11
12
21
-0.861982
31
0
39
0
210
0
220
0
230
1
0
LINE
5
A4
100
AcDbEntity
8
1
62
256
6
ByLayer
370
18
48
1
60
0
100
AcDbLine
10
12
20
-0.861982
30
0
11
12
21
1.350069
31
0
39
0
210
0
220
0
230
1
0
LINE
5
A5
100
AcDbEntity
8
1
62
256
6
ByLayer
370
13
48
1
60
0
100
AcDbLine
10
11.32953
20
1.452081
30
0
11
12
21
1.350069
31
0
39
0
210
0
220
0
230
1
0
LINE
5
A6
100
AcDbEntity
8
1
62
256
6
ByLayer
370
18
48
1
60
0
100
AcDbLine
10
12
20
2.794028
30
0
11
12
21
2.77434
31
0
39
0
210
0
220
0
230
1
0
LINE
5
A7
100
AcDbEntity
8
1
62
256
6
ByLayer
370
18
48
1
60
0
100
AcDbLine
10
12
20
1.373776
30
0
11
12
21
1.350069
31
0
39
0
210
0
220
0
230
1
0
LINE
5
A8
100
AcDbEntity
8
SK1
62
256
6
ByLayer
370
18
48
1
60
0
100
AcDbLine
10
0
20
6
30
0
11
0
21
0
31
0
39
0
210
0
220
0
230
1
0
LINE
5
AA
100
AcDbEntity
8
SK1
62
256
6
ByLayer
370
18
48
1
60
0
100
AcDbLine
10
0
20
0
30
0
11
0
21
-6
31
0
39
0
210
0
220
0
230
1
0
LINE
5
AB
100
AcDbEntity
8
SK1
62
256
6
ByLayer
370
18
48
1
60
0
100
AcDbLine
10
-26.5
20
4.4
30
0
11
-28.1
21
6
31
0
39
0
210
0
220
0
230
1
0
LINE
5
AC
100
AcDbEntity
8
SK1
62
256
6
ByLayer
370
18
48
1
60
0
100
AcDbLine
10
-16.9
20
6
30
0
11
-18.5
21
4.4
31
0
39
0
210
0
220
0
230
1
0
LINE
5
AD
100
AcDbEntity
8
SK1
62
256
6
ByLayer
370
18
48
1
60
0
100
AcDbLine
10
-26.5
20
4.4
30
0
11
-18.5
21
4.4
31
0
39
0
210
0
220
0
230
1
0
LINE
5
AE
100
AcDbEntity
8
SK1
62
256
6
ByLayer
370
18
48
1
60
0
100
AcDbLine
10
-44.2
20
6
30
0
11
-44.2
21
-6
31
0
39
0
210
0
220
0
230
1
0
LINE
5
AF
100
AcDbEntity
8
SK1
62
256
6
ByLayer
370
18
48
1
60
0
100
AcDbLine
10
-45
20
-5.2
30
0
11
-45
21
5.2
31
0
39
0
210
0
220
0
230
1
0
LINE
5
B0
100
AcDbEntity
8
1
62
256
6
ByLayer
370
18
48
1
60
0
100
AcDbLine
10
7.732311
20
6
30
0
11
0
21
6
31
0
39
0
210
0
220
0
230
1
0
LINE
5
B1
100
AcDbEntity
8
1
62
256
6
ByLayer
370
18
48
1
60
0
100
AcDbLine
10
0
20
-6
30
0
11
11.08113
21
-6
31
0
39
0
210
0
220
0
230
1
0
LINE
5
B2
100
AcDbEntity
8
1
62
256
6
ByLayer
370
18
48
1
60
0
100
AcDbLine
10
12.009588
20
4.067469
30
0
11
8.086727
21
5.929886
31
0
39
0
210
0
220
0
230
1
0
LINE
5
B3
100
AcDbEntity
8
SK1
62
256
6
ByLayer
370
18
48
1
60
0
100
AcDbLine
10
0
20
6
30
0
11
-16.9
21
6
31
0
39
0
210
0
220
0
230
1
0
LINE
5
B4
100
AcDbEntity
8
SK1
62
256
6
ByLayer
370
18
48
1
60
0
100
AcDbLine
10
-28.1
20
6
30
0
11
-44.2
21
6
31
0
39
0
210
0
220
0
230
1
0
LINE
5
B5
100
AcDbEntity
8
SK1
62
256
6
ByLayer
370
18
48
1
60
0
100
AcDbLine
10
-44.2
20
-6
30
0
11
0
21
-6
31
0
39
0
210
0
220
0
230
1
0
LINE
5
B6
100
AcDbEntity
8
SK1
62
256
6
ByLayer
370
18
48
1
60
0
100
AcDbLine
10
-45
20
-5.2
30
0
11
-44.2
21
-6
31
0
39
0
210
0
220
0
230
1
0
LINE
5
B7
100
AcDbEntity
8
SK1
62
256
6
ByLayer
370
18
48
1
60
0
100
AcDbLine
10
-44.2
20
6
30
0
11
-45
21
5.2
31
0
39
0
210
0
220
0
230
1
0
LINE
5
B8
100
AcDbEntity
8
SK2
62
256
6
ByLayer
370
18
48
1
60
0
100
AcDbLine
10
-52.45
20
6
30
0
11
-52.45
21
-24.056066
31
0
39
0
210
0
220
0
230
1
0
LINE
5
BA
100
AcDbEntity
8
SK2
62
256
6
ByLayer
370
18
48
1
60
0
100
AcDbLine
10
-45.7875
20
6
30
0
11
-54.45
21
6
31
0
39
0
210
0
220
0
230
1
0
LINE
5
BB
100
AcDbEntity
8
SK2
62
256
6
ByLayer
370
18
48
1
60
0
100
AcDbLine
10
-45.7875
20
-6
30
0
11
-54.45
21
-6
31
0
39
0
210
0
220
0
230
1
0
LINE
5
BC
100
AcDbEntity
8
1
62
256
6
ByLayer
370
18
48
1
60
1
100
AcDbLine
10
-52.45
20
6
30
0
11
-51.989216
21
2.500002
31
0
39
0
210
0
220
0
230
1
0
LINE
5
BD
100
AcDbEntity
8
1
62
256
6
ByLayer
370
18
48
1
60
1
100
AcDbLine
10
-51.989216
20
2.500002
30
0
11
-52.910784
21
2.499998
31
0
39
0
210
0
220
0
230
1
0
LINE
5
BE
100
AcDbEntity
8
1
62
256
6
ByLayer
370
18
48
1
60
1
100
AcDbLine
10
-52.910784
20
2.499998
30
0
11
-52.45
21
6
31
0
39
0
210
0
220
0
230
1
0
LINE
5
BF
100
AcDbEntity
8
1
62
256
6
ByLayer
370
18
48
1
60
1
100
AcDbLine
10
-52.45
20
-6
30
0
11
-52.910784
21
-2.500002
31
0
39
0
210
0
220
0
230
1
0
LINE
5
C0
100
AcDbEntity
8
1
62
256
6
ByLayer
370
18
48
1
60
1
100
AcDbLine
10
-52.910784
20
-2.500002
30
0
11
-51.989216
21
-2.499998
31
0
39
0
210
0
220
0
230
1
0
LINE
5
C1
100
AcDbEntity
8
1
62
256
6
ByLayer
370
18
48
1
60
1
100
AcDbLine
10
-51.989216
20
-2.499998
30
0
11
-52.45
21
-6
31
0
39
0
210
0
220
0
230
1
0
LINE
5
C2
100
AcDbEntity
8
2
62
256
6
ByLayer
370
18
48
1
60
0
100
AcDbLine
10
50
20
-6.0001
30
0
11
50
21
24.056166
31
0
39
0
210
0
220
0
230
1
0
LINE
5
C4
100
AcDbEntity
8
2
62
256
6
ByLayer
370
18
48
1
60
0
100
AcDbLine
10
39.5875
20
6.0001
30
0
11
52
21
6.0001
31
0
39
0
210
0
220
0
230
1
0
LINE
5
C5
100
AcDbEntity
8
2
62
256
6
ByLayer
370
18
48
1
60
0
100
AcDbLine
10
39.5875
20
-6.0001
30
0
11
52
21
-6.0001
31
0
39
0
210
0
220
0
230
1
0
LINE
5
C6
100
AcDbEntity
8
1
62
256
6
ByLayer
370
18
48
1
60
1
100
AcDbLine
10
50
20
6.0001
30
0
11
50.460784
21
2.500102
31
0
39
0
210
0
220
0
230
1
0
LINE
5
C7
100
AcDbEntity
8
1
62
256
6
ByLayer
370
18
48
1
60
1
100
AcDbLine
10
50.460784
20
2.500102
30
0
11
49.539216
21
2.500098
31
0
39
0
210
0
220
0
230
1
0
LINE
5
C8
100
AcDbEntity
8
1
62
256
6
ByLayer
370
18
48
1
60
1
100
AcDbLine
10
49.539216
20
2.500098
30
0
11
50
21
6.0001
31
0
39
0
210
0
220
0
230
1
0
LINE
5
C9
100
AcDbEntity
8
1
62
256
6
ByLayer
370
18
48
1
60
1
100
AcDbLine
10
50
20
-6.0001
30
0
11
49.539216
21
-2.500102
31
0
39
0
210
0
220
0
230
1
0
LINE
5
CA
100
AcDbEntity
8
1
62
256
6
ByLayer
370
18
48
1
60
1
100
AcDbLine
10
49.539216
20
-2.500102
30
0
11
50.460784
21
-2.500098
31
0
39
0
210
0
220
0
230
1
0
LINE
5
CB
100
AcDbEntity
8
1
62
256
6
ByLayer
370
18
48
1
60
1
100
AcDbLine
10
50.460784
20
-2.500098
30
0
11
50
21
-6.0001
31
0
39
0
210
0
220
0
230
1
0
LINE
5
CC
100
AcDbEntity
8
SK2
62
256
6
ByLayer
370
18
48
1
60
0
100
AcDbLine
10
38
20
-37.10012
30
0
11
-45
21
-37.10012
31
0
39
0
210
0
220
0
230
1
0
LINE
5
CD
100
AcDbEntity
8
SK2
62
256
6
ByLayer
370
18
48
1
60
0
100
AcDbLine
10
-45
20
-6.7875
30
0
11
-45
21
-39.10012
31
0
39
0
210
0
220
0
230
1
0
LINE
5
CE
100
AcDbEntity
8
SK2
62
256
6
ByLayer
370
18
48
1
60
0
100
AcDbLine
10
38
20
-7.5876
30
0
11
38
21
-39.10012
31
0
39
0
210
0
220
0
230
1
0
LINE
5
CF
100
AcDbEntity
8
1
62
256
6
ByLayer
370
18
48
1
60
1
100
AcDbLine
10
-45
20
-37.10012
30
0
11
-41.500002
21
-36.639337
31
0
39
0
210
0
220
0
230
1
0
LINE
5
D0
100
AcDbEntity
8
1
62
256
6
ByLayer
370
18
48
1
60
1
100
AcDbLine
10
-41.500002
20
-36.639337
30
0
11
-41.499998
21
-37.560904
31
0
39
0
210
0
220
0
230
1
0
LINE
5
D1
100
AcDbEntity
8
1
62
256
6
ByLayer
370
18
48
1
60
1
100
AcDbLine
10
-41.499998
20
-37.560904
30
0
11
-45
21
-37.10012
31
0
39
0
210
0
220
0
230
1
0
LINE
5
D2
100
AcDbEntity
8
1
62
256
6
ByLayer
370
18
48
1
60
1
100
AcDbLine
10
38
20
-37.10012
30
0
11
34.500002
21
-37.560904
31
0
39
0
210
0
220
0
230
1
0
LINE
5
D3
100
AcDbEntity
8
1
62
256
6
ByLayer
370
18
48
1
60
1
100
AcDbLine
10
34.500002
20
-37.560904
30
0
11
34.499998
21
-36.639337
31
0
39
0
210
0
220
0
230
1
0
LINE
5
D4
100
AcDbEntity
8
1
62
256
6
ByLayer
370
18
48
1
60
1
100
AcDbLine
10
34.499998
20
-36.639337
30
0
11
38
21
-37.10012
31
0
39
0
210
0
220
0
230
1
0
LINE
5
140
100
AcDbEntity
8
1
62
256
6
ByLayer
370
18
48
1
60
1
100
AcDbLine
10
-52.45
20
6
30
0
11
-51.989216
21
2.500002
31
0
39
0
210
0
220
0
230
1
0
LINE
5
141
100
AcDbEntity
8
1
62
256
6
ByLayer
370
18
48
1
60
1
100
AcDbLine
10
-51.989216
20
2.500002
30
0
11
-52.910784
21
2.499998
31
0
39
0
210
0
220
0
230
1
0
LINE
5
142
100
AcDbEntity
8
1
62
256
6
ByLayer
370
18
48
1
60
1
100
AcDbLine
10
-52.910784
20
2.499998
30
0
11
-52.45
21
6
31
0
39
0
210
0
220
0
230
1
0
LINE
5
144
100
AcDbEntity
8
1
62
256
6
ByLayer
370
18
48
1
60
1
100
AcDbLine
10
-52.45
20
-6
30
0
11
-52.910784
21
-2.500002
31
0
39
0
210
0
220
0
230
1
0
LINE
5
145
100
AcDbEntity
8
1
62
256
6
ByLayer
370
18
48
1
60
1
100
AcDbLine
10
-52.910784
20
-2.500002
30
0
11
-51.989216
21
-2.499998
31
0
39
0
210
0
220
0
230
1
0
LINE
5
146
100
AcDbEntity
8
1
62
256
6
ByLayer
370
18
48
1
60
1
100
AcDbLine
10
-51.989216
20
-2.499998
30
0
11
-52.45
21
-6
31
0
39
0
210
0
220
0
230
1
0
LINE
5
14A
100
AcDbEntity
8
1
62
256
6
ByLayer
370
18
48
1
60
1
100
AcDbLine
10
50
20
6.0001
30
0
11
50.460784
21
2.500102
31
0
39
0
210
0
220
0
230
1
0
LINE
5
14B
100
AcDbEntity
8
1
62
256
6
ByLayer
370
18
48
1
60
1
100
AcDbLine
10
50.460784
20
2.500102
30
0
11
49.539216
21
2.500098
31
0
39
0
210
0
220
0
230
1
0
LINE
5
14C
100
AcDbEntity
8
1
62
256
6
ByLayer
370
18
48
1
60
1
100
AcDbLine
10
49.539216
20
2.500098
30
0
11
50
21
6.0001
31
0
39
0
210
0
220
0
230
1
0
LINE
5
14E
100
AcDbEntity
8
1
62
256
6
ByLayer
370
18
48
1
60
1
100
AcDbLine
10
50
20
-6.0001
30
0
11
49.539216
21
-2.500102
31
0
39
0
210
0
220
0
230
1
0
LINE
5
14F
100
AcDbEntity
8
1
62
256
6
ByLayer
370
18
48
1
60
1
100
AcDbLine
10
49.539216
20
-2.500102
30
0
11
50.460784
21
-2.500098
31
0
39
0
210
0
220
0
230
1
0
LINE
5
150
100
AcDbEntity
8
1
62
256
6
ByLayer
370
18
48
1
60
1
100
AcDbLine
10
50.460784
20
-2.500098
30
0
11
50
21
-6.0001
31
0
39
0
210
0
220
0
230
1
0
LINE
5
153
100
AcDbEntity
8
1
62
256
6
ByLayer
370
18
48
1
60
1
100
AcDbLine
10
-45
20
-37.10012
30
0
11
-41.500002
21
-36.639337
31
0
39
0
210
0
220
0
230
1
0
LINE
5
154
100
AcDbEntity
8
1
62
256
6
ByLayer
370
18
48
1
60
1
100
AcDbLine
10
-41.500002
20
-36.639337
30
0
11
-41.499998
21
-37.560904
31
0
39
0
210
0
220
0
230
1
0
LINE
5
155
100
AcDbEntity
8
1
62
256
6
ByLayer
370
18
48
1
60
1
100
AcDbLine
10
-41.499998
20
-37.560904
30
0
11
-45
21
-37.10012
31
0
39
0
210
0
220
0
230
1
0
LINE
5
157
100
AcDbEntity
8
1
62
256
6
ByLayer
370
18
48
1
60
1
100
AcDbLine
10
38
20
-37.10012
30
0
11
34.500002
21
-37.560904
31
0
39
0
210
0
220
0
230
1
0
LINE
5
158
100
AcDbEntity
8
1
62
256
6
ByLayer
370
18
48
1
60
1
100
AcDbLine
10
34.500002
20
-37.560904
30
0
11
34.499998
21
-36.639337
31
0
39
0
210
0
220
0
230
1
0
LINE
5
159
100
AcDbEntity
8
1
62
256
6
ByLayer
370
18
48
1
60
1
100
AcDbLine
10
34.499998
20
-36.639337
30
0
11
38
21
-37.10012
31
0
39
0
210
0
220
0
230
1
0
MTEXT
5
13C
100
AcDbEntity
8
SK2
62
256
6
ByLayer
370
18
48
1
60
0
100
AcDbMText
10
-54.014634
20
-22.121222
30
0
210
0
220
0
230
1
1
%%c
40
3.5
41
0
44
1.084337
50
90
71
7
72
5
7
iso_b_vert
0
MTEXT
5
13F
100
AcDbEntity
8
SK2
62
256
6
ByLayer
370
18
48
1
60
0
100
AcDbMText
10
-54.014634
20
-15.148566
30
0
210
0
220
0
230
1
1
\W0.5321;12
40
3.5
41
0
44
1.084337
50
90
71
7
72
5
7
iso_b_vert
0
MTEXT
5
148
100
AcDbEntity
8
2
62
256
6
ByLayer
370
18
48
1
60
0
100
AcDbMText
10
48.435366
20
13.934944
30
0
210
0
220
0
230
1
1
%%c
40
3.5
41
0
44
1.084337
50
90
71
7
72
5
7
iso_b_vert
0
MTEXT
5
149
100
AcDbEntity
8
2
62
256
6
ByLayer
370
18
48
1
60
0
100
AcDbMText
10
48.435366
20
20.9076
30
0
210
0
220
0
230
1
1
\W0.5321;12
40
3.5
41
0
44
1.084337
50
90
71
7
72
5
7
iso_b_vert
0
MTEXT
5
152
100
AcDbEntity
8
SK2
62
256
6
ByLayer
370
18
48
1
60
0
100
AcDbMText
10
-5.404966
20
-36.067487
30
0
210
0
220
0
230
1
1
\W0.6740;83
40
3.5
41
0
44
1.084337
50
0
71
7
72
5
7
iso_b_vert
0
MTEXT
5
15B
100
AcDbEntity
8
SK6
62
256
6
ByLayer
370
18
48
1
60
0
100
AcDbMText
10
-27.747589
20
-62.099038
30
0
210
0
220
0
230
1
1
\W0.6811;1K233-1200-NB       H10F
40
3
41
0
44
1.084337
50
0
71
7
72
5
7
iso_b_vert
0
HATCH
5
143
100
AcDbEntity
8
SK2
62
256
6
ByLayer
370
13
48
1
60
0
100
AcDbHatch
10
0
20
0
30
0
210
0
220
0
230
1
2
ANSI31
70
0
71
0
91
1
92
5
93
3
72
1
10
-52.45
20
5.99999999999994
11
-51.9892162584472
21
2.50000169255313
72
1
10
-51.9892162584472
20
2.50000169255313
11
-52.9107837415528
21
2.49999830744676
72
1
10
-52.9107837415528
20
2.49999830744676
11
-52.45
21
5.99999999999994
97
0
75
0
76
1
52
0
41
0.0062
77
0
78
1
53
45
43
0
44
0
45
-0.0139193969876572
46
0.0139193969876572
79
0
47
0
98
1
10
0
20
0
0
HATCH
5
147
100
AcDbEntity
8
SK2
62
256
6
ByLayer
370
13
48
1
60
0
100
AcDbHatch
10
0
20
0
30
0
210
0
220
0
230
1
2
ANSI31
70
0
71
0
91
1
92
5
93
3
72
1
10
-52.45
20
-6.00000000000006
11
-52.9107837415528
21
-2.50000169255324
72
1
10
-52.9107837415528
20
-2.50000169255324
11
-51.9892162584472
21
-2.49999830744687
72
1
10
-51.9892162584472
20
-2.49999830744687
11
-52.45
21
-6.00000000000006
97
0
75
0
76
1
52
0
41
0.0062
77
0
78
1
53
45
43
0
44
0
45
-0.0139193969876572
46
0.0139193969876572
79
0
47
0
98
1
10
0
20
0
0
HATCH
5
14D
100
AcDbEntity
8
2
62
256
6
ByLayer
370
13
48
1
60
0
100
AcDbHatch
10
0
20
0
30
0
210
0
220
0
230
1
2
ANSI31
70
0
71
0
91
1
92
5
93
3
72
1
10
50
20
6.00009999999986
11
50.4607837415528
21
2.50010169255305
72
1
10
50.4607837415528
20
2.50010169255305
11
49.5392162584472
21
2.50009830744668
72
1
10
49.5392162584472
20
2.50009830744668
11
50
21
6.00009999999986
97
0
75
0
76
1
52
0
41
0.0062
77
0
78
1
53
45
43
0
44
0
45
-0.0139193969876572
46
0.0139193969876572
79
0
47
0
98
1
10
0
20
0
0
HATCH
5
151
100
AcDbEntity
8
2
62
256
6
ByLayer
370
13
48
1
60
0
100
AcDbHatch
10
0
20
0
30
0
210
0
220
0
230
1
2
ANSI31
70
0
71
0
91
1
92
5
93
3
72
1
10
50
20
-6.00010000000015
11
49.5392162584472
21
-2.50010169255333
72
1
10
49.5392162584472
20
-2.50010169255333
11
50.4607837415528
21
-2.50009830744696
72
1
10
50.4607837415528
20
-2.50009830744696
11
50
21
-6.00010000000015
97
0
75
0
76
1
52
0
41
0.0062
77
0
78
1
53
45
43
0
44
0
45
-0.0139193969876572
46
0.0139193969876572
79
0
47
0
98
1
10
0
20
0
0
HATCH
5
156
100
AcDbEntity
8
SK2
62
256
6
ByLayer
370
13
48
1
60
0
100
AcDbHatch
10
0
20
0
30
0
210
0
220
0
230
1
2
ANSI31
70
0
71
0
91
1
92
5
93
3
72
1
10
-45
20
-37.1001203205072
11
-41.5000016925532
21
-36.6393365789544
72
1
10
-41.5000016925532
20
-36.6393365789544
11
-41.4999983074468
21
-37.5609040620599
72
1
10
-41.4999983074468
20
-37.5609040620599
11
-45
21
-37.1001203205072
97
0
75
0
76
1
52
0
41
0.0062
77
0
78
1
53
45
43
0
44
0
45
-0.0139193969876572
46
0.0139193969876572
79
0
47
0
98
1
10
0
20
0
0
HATCH
5
15A
100
AcDbEntity
8
SK2
62
256
6
ByLayer
370
13
48
1
60
0
100
AcDbHatch
10
0
20
0
30
0
210
0
220
0
230
1
2
ANSI31
70
0
71
0
91
1
92
5
93
3
72
1
10
38
20
-37.1001203205072
11
34.5000016925532
21
-37.5609040620599
72
1
10
34.5000016925532
20
-37.5609040620599
11
34.4999983074468
21
-36.6393365789544
72
1
10
34.4999983074468
20
-36.6393365789544
11
38
21
-37.1001203205072
97
0
75
0
76
1
52
0
41
0.0062
77
0
78
1
53
45
43
0
44
0
45
-0.0139193969876572
46
0.0139193969876572
79
0
47
0
98
1
10
0
20
0
0
DIMENSION
5
15E
100
AcDbEntity
8
2
62
256
6
ByLayer
370
18
48
1
60
0
100
AcDbDimension
2
_U0
10
12
20
-21.10012
30
0
11
25
21
-21.10012
31
0
70
32
71
1
72
1
41
1
210
0
220
0
230
1
3
Standard
100
AcDbAlignedDimension
13
38
23
-6.0001
33
0
14
12
24
-6.0001
34
0
50
0
100
AcDbRotatedDimension
1001
ACAD
1000
DSTYLE
1002
{
1070
   371
1070
    13
1070
   372
1070
    13
1070
   170
1070
     0
1070
   144
1040
1.0
1070
   277
1070
     2
1070
   284
1070
     8
1070
   278
1070
    46
1070
   146
1040
1.0
1070
   345
1005
16
1070
   347
1005
16
1070
   346
1005
16
1070
   344
1005
0
1070
   343
1005
0
1070
   172
1070
     1
1070
    76
1070
     0
1070
    75
1070
     0
1070
   282
1070
     0
1070
   281
1070
     0
1070
    71
1070
     0
1070
    74
1070
     0
1070
   279
1070
     0
1070
   173
1070
     1
1070
   340
1005
13D
1070
   271
1070
     2
1070
   272
1070
     2
1070
    77
1070
     1
1070
    73
1070
     1
1070
   171
1070
     3
1070
   274
1070
     4
1070
   177
1070
     2
1070
   176
1070
     2
1070
   178
1070
     2
1070
    78
1070
     8
1070
    48
1040
-0.1
1070
    41
1040
3.5
1070
   147
1040
1.75
1070
    42
1040
1.5875
1070
    44
1040
2.0
1070
   140
1040
3.5
1002
}
1001
ACAD_DSTYLE_DIM_LINETYPE
1070
   380
1005
16
1001
ACAD_DSTYLE_DIM_EXT1_LINETYPE
1070
   381
1005
16
1001
ACAD_DSTYLE_DIM_EXT2_LINETYPE
1070
   382
1005
16
0
ENDSEC
0
SECTION
2
OBJECTS
0
DICTIONARY
5
1e7
330
0
100
AcDbDictionary
280
0
281
1
3
ACAD_GROUP
350
1e8
3
ACAD_MLINESTYLE
350
1e9
0
DICTIONARY
5
1e8
330
0
100
AcDbDictionary
280
0
281
1
0
DICTIONARY
5
1e9
330
0
100
AcDbDictionary
280
0
281
1
3
Standard
350
18
0
MLINESTYLE
5
18
330
1e9
100
AcDbMlineStyle
2
Standard
70
0
3

62
256
51
90
52
90
71
2
49
-0.5
62
256
6
ByLayer
49
0.5
62
256
6
ByLayer
0
RASTERVARIABLES
5
1d5
330

100
AcDbRasterVariables
90
0
70
1
71
1
72
1
0
ENDSEC
0
EOF
