0
SECTION
2
HEADER
9
$ACADVER
1
AC1015
9
$DWGCODEPAGE
3
ANSI_1252
9
$HANDSEED
5
1df
9
$ANGBASE
50
0
9
$ANGDIR
70
0
9
$ATTMODE
70
1
9
$AUNITS
70
0
9
$AUPREC
70
0
9
$CECOLOR
62
256
9
$CELTSCALE
40
1
9
$CELTYPE
6
ByLayer
9
$CELWEIGHT
370
18
9
$CLAYER
8
0
9
$CMLJUST
70
0
9
$CMLSCALE
40
1
9
$CMLSTYLE
2
Standard
9
$DIMSTYLE
2
Standard
9
$TEXTSIZE
40
0.2
9
$TEXTSTYLE
7
Standard
9
$LUNITS
70
2
9
$LUPREC
70
4
9
$EXTNAMES
290
1
9
$INSUNITS
70
4
9
$LTSCALE
40
1
9
$LWDISPLAY
290
1
9
$PDMODE
70
0
9
$PDSIZE
40
0
9
$PLINEGEN
70
0
0
ENDSEC
0
SECTION
2
CLASSES
0
CLASS
1
RASTERVARIABLES
2
AcDbRasterVariables
3
ISM
90
0
280
0
281
0
0
ENDSEC
0
SECTION
2
TABLES
0
TABLE
2
VPORT
5
1d5
100
AcDbSymbolTable
0
VPORT
5
1
100
AcDbSymbolTableRecord
100
AcDbViewportTableRecord
2
*Active
70
0
10
0
20
0
11
1
21
1
12
-1
22
1
13
0
23
0
14
0.5
24
0.5
15
10
25
10
16
0
26
0
36
1
17
0
27
0
37
0
0
ENDTAB
0
TABLE
2
LTYPE
5
1d6
100
AcDbSymbolTable
0
LTYPE
5
14
100
AcDbSymbolTableRecord
100
AcDbLinetypeTableRecord
70
0
2
ByBlock
3

72
65
73
0
40
0
0
LTYPE
5
15
100
AcDbSymbolTableRecord
100
AcDbLinetypeTableRecord
70
0
2
ByLayer
3

72
65
73
0
40
0
0
LTYPE
5
16
100
AcDbSymbolTableRecord
100
AcDbLinetypeTableRecord
70
0
2
Continuous
3
Solid line
72
65
73
0
40
0
0
LTYPE
5
6E
100
AcDbSymbolTableRecord
100
AcDbLinetypeTableRecord
70
0
2
CENTER
3
____ _ ____ _ ____ _ ____
72
65
73
4
40
47.5
49
22
74
0
49
-8.5
74
0
49
8.5
74
0
49
-8.5
74
0
0
LTYPE
5
6F
100
AcDbSymbolTableRecord
100
AcDbLinetypeTableRecord
70
0
2
DASHED
3
__ __ __ __ __ __ __ __ __
72
65
73
2
40
25.72
49
12.86
74
0
49
-12.86
74
0
0
ENDTAB
0
TABLE
2
LAYER
5
1d7
100
AcDbSymbolTable
0
LAYER
5
10
100
AcDbSymbolTableRecord
100
AcDbLayerTableRecord
2
0
70
0
62
7
6
Continuous
290
1
370
-3
390
0
0
LAYER
5
71
100
AcDbSymbolTableRecord
100
AcDbLayerTableRecord
2
80
70
0
62
-6
6
Continuous
290
1
370
-3
390
0
0
LAYER
5
73
100
AcDbSymbolTableRecord
100
AcDbLayerTableRecord
2
81
70
0
62
-3
6
Continuous
290
1
370
-3
390
0
0
LAYER
5
75
100
AcDbSymbolTableRecord
100
AcDbLayerTableRecord
2
1
70
0
62
4
6
Continuous
290
1
370
-3
390
0
0
LAYER
5
78
100
AcDbSymbolTableRecord
100
AcDbLayerTableRecord
2
4
70
0
62
-2
6
CENTER
290
1
370
-3
390
0
0
LAYER
5
C2
100
AcDbSymbolTableRecord
100
AcDbLayerTableRecord
2
2
70
0
62
7
6
Continuous
290
1
370
-3
390
0
0
LAYER
5
14C
100
AcDbSymbolTableRecord
100
AcDbLayerTableRecord
2
Defpoints
70
0
62
7
6
Continuous
290
0
370
-3
390
0
0
LAYER
5
1c1
100
AcDbSymbolTableRecord
100
AcDbLayerTableRecord
2
SK4
70
0
62
2
6
CENTER
290
1
370
-3
390
0
0
LAYER
5
1c2
100
AcDbSymbolTableRecord
100
AcDbLayerTableRecord
2
SK1
70
0
62
4
6
Continuous
290
1
370
-3
390
0
0
LAYER
5
1c3
100
AcDbSymbolTableRecord
100
AcDbLayerTableRecord
2
SK2
70
0
62
7
6
Continuous
290
1
370
-3
390
0
0
LAYER
5
1c4
100
AcDbSymbolTableRecord
100
AcDbLayerTableRecord
2
SK6
70
0
62
5
6
Continuous
290
1
370
-3
390
0
0
ENDTAB
0
TABLE
2
STYLE
5
1d8
100
AcDbSymbolTable
0
STYLE
5
11
100
AcDbSymbolTableRecord
100
AcDbTextStyleTableRecord
2
Standard
3
txt
70
0
71
0
40
0
41
1
42
0
50
0
0
STYLE
5
128
100
AcDbSymbolTableRecord
100
AcDbTextStyleTableRecord
2
iso_b_vert
3
simplex.shx
70
0
71
0
40
0
41
1
42
0
50
0
0
STYLE
5
129
100
AcDbSymbolTableRecord
100
AcDbTextStyleTableRecord
2
DWGDirectTextStyle
3
simplex
70
0
71
0
40
0
41
1
42
0
50
0
0
ENDTAB
0
TABLE
2
DIMSTYLE
5
1d9
100
AcDbSymbolTable
100
AcDbDimStyleTable
0
DIMSTYLE
105
27
100
AcDbSymbolTableRecord
100
AcDbDimStyleTableRecord
2
Standard
70
0
3
<>
41
0.18
42
0.0625
44
0.18
140
0.18
147
0.09
73
0
74
0
77
1
271
2
275
0
278
52
280
0
340
11
0
ENDTAB
0
TABLE
2
VIEW
5
1da
100
AcDbSymbolTable
0
ENDTAB
0
TABLE
2
UCS
5
1db
100
AcDbSymbolTable
0
ENDTAB
0
TABLE
2
APPID
5
1dc
100
AcDbSymbolTable
0
APPID
5
12
100
AcDbSymbolTableRecord
100
AcDbRegAppTableRecord
2
ACAD
70
0
0
APPID
5
148
100
AcDbSymbolTableRecord
100
AcDbRegAppTableRecord
2
ACAD_DSTYLE_DIMBREAK
70
0
0
APPID
5
180
100
AcDbSymbolTableRecord
100
AcDbRegAppTableRecord
2
ACAD_DSTYLE_DIM_LINETYPE
70
0
0
APPID
5
181
100
AcDbSymbolTableRecord
100
AcDbRegAppTableRecord
2
ACAD_DSTYLE_DIM_EXT1_LINETYPE
70
0
0
APPID
5
182
100
AcDbSymbolTableRecord
100
AcDbRegAppTableRecord
2
ACAD_DSTYLE_DIM_EXT2_LINETYPE
70
0
0
APPID
5
1BD
100
AcDbSymbolTableRecord
100
AcDbRegAppTableRecord
2
ACAD_MLEADERVER
70
0
0
ENDTAB
0
TABLE
2
BLOCK_RECORD
5
1dd
100
AcDbSymbolTable
0
BLOCK_RECORD
5
1F
100
AcDbSymbolTableRecord
100
AcDbBlockTableRecord
2
*Model_Space
340
0
70
0
0
BLOCK_RECORD
5
1B
100
AcDbSymbolTableRecord
100
AcDbBlockTableRecord
2
*Paper_Space
340
0
70
0
0
BLOCK_RECORD
5
23
100
AcDbSymbolTableRecord
100
AcDbBlockTableRecord
2
*Paper_Space0
340
0
70
0
0
BLOCK_RECORD
5
14D
100
AcDbSymbolTableRecord
100
AcDbBlockTableRecord
2
*D1
340
0
70
0
0
BLOCK_RECORD
5
159
100
AcDbSymbolTableRecord
100
AcDbBlockTableRecord
2
_U0
340
0
70
0
0
ENDTAB
0
ENDSEC
0
SECTION
2
BLOCKS
0
BLOCK
5
20
100
AcDbEntity
8
0
100
AcDbBlockBegin
2
*Model_Space
70
0
10
0
20
0
30
0
3
*Model_Space
0
ENDBLK
5
21
100
AcDbEntity
8
0
100
AcDbBlockEnd
0
BLOCK
5
1C
100
AcDbEntity
8
0
100
AcDbBlockBegin
2
*Paper_Space
70
0
10
0
20
0
30
0
3
*Paper_Space
0
ENDBLK
5
1D
100
AcDbEntity
8
0
100
AcDbBlockEnd
0
BLOCK
5
24
100
AcDbEntity
8
0
100
AcDbBlockBegin
2
*Paper_Space0
70
0
10
0
20
0
30
0
3
*Paper_Space0
0
ENDBLK
5
25
100
AcDbEntity
8
0
100
AcDbBlockEnd
0
BLOCK
5
14E
100
AcDbEntity
8
0
100
AcDbBlockBegin
2
*D1
70
1
10
0
20
0
30
0
3
*D1
0
LINE
5
150
100
AcDbEntity
8
0
62
256
6
ByLayer
370
-2
48
1
60
0
100
AcDbLine
10
54
20
-11.5876
30
0
11
54
21
-27.660403
31
0
39
0
210
0
220
0
230
1
0
LINE
5
151
100
AcDbEntity
8
0
62
256
6
ByLayer
370
-2
48
1
60
0
100
AcDbLine
10
24
20
-11.5876
30
0
11
24
21
-27.660403
31
0
39
0
210
0
220
0
230
1
0
LINE
5
152
100
AcDbEntity
8
0
62
256
6
ByLayer
370
-2
48
1
60
0
100
AcDbLine
10
50.5
20
-25.660403
30
0
11
27.5
21
-25.660403
31
0
39
0
210
0
220
0
230
1
0
SOLID
5
153
100
AcDbEntity
8
0
62
256
6
ByLayer
370
-1
48
1
60
0
100
AcDbTrace
10
50.5
20
-26.243736
30
0
11
50.5
21
-25.077069
31
0
12
54
22
-25.660403
32
0
13
54
23
-25.660403
33
0
39
0
210
0
220
0
230
1
0
SOLID
5
154
100
AcDbEntity
8
0
62
256
6
ByLayer
370
-1
48
1
60
0
100
AcDbTrace
10
27.5
20
-25.077069
30
0
11
27.5
21
-26.243736
31
0
12
24
22
-25.660403
32
0
13
24
23
-25.660403
33
0
39
0
210
0
220
0
230
1
0
MTEXT
5
155
100
AcDbEntity
8
0
62
256
6
ByLayer
370
18
48
1
60
0
100
AcDbMText
10
39
20
-18.660403
30
0
210
0
220
0
230
1
1
\A1;30
40
3.5
41
0
44
1
50
0
71
5
72
5
7
iso_b_vert
0
POINT
5
156
100
AcDbEntity
8
Defpoints
62
0
6
ByLayer
370
-1
48
1
60
0
100
AcDbPoint
10
54
20
-10.0001
30
0
39
0
210
0
220
0
230
1
50
360
0
POINT
5
157
100
AcDbEntity
8
Defpoints
62
0
6
ByLayer
370
-1
48
1
60
0
100
AcDbPoint
10
24
20
-10.0001
30
0
39
0
210
0
220
0
230
1
50
360
0
POINT
5
158
100
AcDbEntity
8
Defpoints
62
0
6
ByLayer
370
-1
48
1
60
0
100
AcDbPoint
10
24
20
-25.660403
30
0
39
0
210
0
220
0
230
1
50
360
0
ENDBLK
5
14F
100
AcDbEntity
8
0
100
AcDbBlockEnd
0
BLOCK
5
160
100
AcDbEntity
8
0
100
AcDbBlockBegin
2
_U0
70
0
10
0
20
0
30
0
3
_U0
0
MTEXT
5
15A
100
AcDbEntity
8
2
62
256
6
ByLayer
370
18
48
1
60
0
100
AcDbMText
10
37.095034
20
-24.627769
30
0
210
0
220
0
230
1
1
\W0.6740;30
40
3.5
41
0
44
1.084337
50
0
71
7
72
5
7
iso_b_vert
0
LINE
5
15B
100
AcDbEntity
8
2
62
256
6
ByLayer
370
13
48
1
60
0
100
AcDbLine
10
54
20
-11.5876
30
0
11
54
21
-27.660403
31
0
39
0
210
0
220
0
230
1
0
LINE
5
15C
100
AcDbEntity
8
2
62
256
6
ByLayer
370
13
48
1
60
0
100
AcDbLine
10
24
20
-11.5876
30
0
11
24
21
-27.660403
31
0
39
0
210
0
220
0
230
1
0
LINE
5
15D
100
AcDbEntity
8
2
62
256
6
ByLayer
370
13
48
1
60
0
100
AcDbLine
10
54
20
-25.660403
30
0
11
24
21
-25.660403
31
0
39
0
210
0
220
0
230
1
0
SOLID
5
15E
100
AcDbEntity
8
2
62
256
6
ByLayer
370
18
48
1
60
0
100
AcDbTrace
10
54
20
-25.660403
30
0
11
50.500002
21
-26.121186
31
0
12
50.499998
22
-25.199619
32
0
13
50.499998
23
-25.199619
33
0
39
0
210
0
220
0
230
1
0
SOLID
5
15F
100
AcDbEntity
8
2
62
256
6
ByLayer
370
18
48
1
60
0
100
AcDbTrace
10
24
20
-25.660403
30
0
11
27.499998
21
-25.199619
31
0
12
27.500002
22
-26.121186
32
0
13
27.500002
23
-26.121186
33
0
39
0
210
0
220
0
230
1
0
ENDBLK
5
161
100
AcDbEntity
8
0
100
AcDbBlockEnd
0
ENDSEC
0
SECTION
2
ENTITIES
0
ELLIPSE
5
D4
100
AcDbEntity
8
1
62
256
6
ByLayer
370
18
48
1
60
0
100
AcDbEllipse
10
34.863454
20
0
30
0
11
21.603468621841
21
-6.93365020600971
31
0
210
0
220
0
230
1
40
0.333551
41
-2.54668259473466
42
-2.12255399727601
0
ELLIPSE
5
D5
100
AcDbEntity
8
1
62
256
6
ByLayer
370
18
48
1
60
0
100
AcDbEllipse
10
11.00943
20
-5E-06
30
0
11
74.8096715109165
21
0.439428206140335
31
0
210
0
220
0
230
1
40
0.133543
41
1.39547893862577
42
1.41331161128398
0
ELLIPSE
5
D6
100
AcDbEntity
8
1
62
256
6
ByLayer
370
18
48
1
60
0
100
AcDbEllipse
10
46.782507
20
0
30
0
11
131.198678225672
21
-6.92032626512765
31
0
210
0
220
0
230
1
40
0.055021
41
-1.75110862247753
42
-1.74242707594641
0
POINT
5
70
100
AcDbEntity
8
80
62
256
6
ByLayer
370
18
48
1
60
0
100
AcDbPoint
10
0
20
0
30
0
39
0
210
0
220
0
230
1
50
360
0
POINT
5
72
100
AcDbEntity
8
81
62
256
6
ByLayer
370
18
48
1
60
0
100
AcDbPoint
10
54
20
0
30
0
39
0
210
0
220
0
230
1
50
360
0
POINT
5
74
100
AcDbEntity
8
1
62
256
6
ByLayer
370
18
48
1
60
1
100
AcDbPoint
10
54
20
-10.0001
30
0
39
0
210
0
220
0
230
1
50
360
0
POINT
5
76
100
AcDbEntity
8
1
62
256
6
ByLayer
370
18
48
1
60
1
100
AcDbPoint
10
24
20
-10.0001
30
0
39
0
210
0
220
0
230
1
50
360
0
SPLINE
5
D7
100
AcDbEntity
8
1
62
256
6
ByLayer
370
18
48
1
60
0
100
AcDbSpline
70
4
71
3
72
8
73
4
40
0
40
0
40
0
40
0
40
1
40
1
40
1
40
1
41
1
10
53.6104050898964
20
9.99635419669858
30
0
41
1
10
53.6832672324156
20
9.99578958661911
30
0
41
1
10
53.7561314262638
20
9.99549936396917
30
0
41
1
10
53.8289976775171
20
9.99548434149222
30
0
0
SPLINE
5
D8
100
AcDbEntity
8
1
62
256
6
ByLayer
370
18
48
1
60
0
100
AcDbSpline
70
4
71
3
72
8
73
4
40
0
40
0
40
0
40
0
40
1
40
1
40
1
40
1
41
1
10
53.8289976774493
20
9.9954843415093
30
0
41
1
10
53.8859858327992
20
9.99131312740579
30
0
41
1
10
53.942986623207
20
9.98731525392748
30
0
41
1
10
54.0000000000001
20
9.9834900552286
30
0
0
SPLINE
5
D9
100
AcDbEntity
8
1
62
256
6
ByLayer
370
18
48
1
60
0
100
AcDbSpline
70
4
71
3
72
30
73
26
40
0
40
0
40
0
40
0
40
0.0707890179325292
40
0.0707890179325292
40
0.113025880753778
40
0.113025880753778
40
0.155262743575027
40
0.155262743575027
40
0.324210194860024
40
0.324210194860024
40
0.366447057681274
40
0.366447057681274
40
0.408683920502524
40
0.408683920502524
40
0.493157646145023
40
0.493157646145023
40
0.577631371787523
40
0.577631371787523
40
0.619868234608772
40
0.619868234608772
40
0.66210509743002
40
0.66210509743002
40
0.83105254871501
40
0.83105254871501
40
1
40
1
40
1
40
1
41
1
10
42.6602502242802
20
7.01008773057322
30
0
41
1
10
42.9185975191647
20
7.13918223952879
30
0
41
1
10
43.1769760783228
20
7.26483633699897
30
0
41
1
10
43.5897860790426
20
7.45972622449688
30
0
41
1
10
43.7441090164462
20
7.5312787466211
30
0
41
1
10
44.0529275673974
20
7.67177777031941
30
0
41
1
10
44.2073073525404
20
7.7406712767397
30
0
41
1
10
44.9788356564325
20
8.07810851261968
30
0
41
1
10
45.595240846644
20
8.32576148602689
30
0
41
1
10
46.3666870589757
20
8.60577868554333
30
0
41
1
10
46.5210239823203
20
8.6603027395094
30
0
41
1
10
46.8298443855854
20
8.76635209217341
30
0
41
1
10
46.9842896627367
20
8.81786287894565
30
0
41
1
10
47.4472825643451
20
8.9676372763075
30
0
41
1
10
47.7556856922994
20
9.06121602909374
30
0
41
1
10
48.3723920387915
20
9.23561070770128
30
0
41
1
10
48.6806935424303
20
9.31642522637142
30
0
41
1
10
49.1433987161328
20
9.42784134563934
30
0
41
1
10
49.2976763768948
20
9.46334427175944
30
0
41
1
10
49.6063739097251
20
9.53104105935827
30
0
41
1
10
49.7608138188399
20
9.56323856359123
30
0
41
1
10
50.5321300873219
20
9.71563373701818
30
0
41
1
10
51.1474532418278
20
9.81033527205983
30
0
41
1
10
52.3781068142966
20
9.94484919977378
30
0
41
1
10
52.9934332759138
20
9.98464809836889
30
0
41
1
10
53.6104050898954
20
9.99635419669903
30
0
0
SPLINE
5
DA
100
AcDbEntity
8
1
62
256
6
ByLayer
370
18
48
1
60
0
100
AcDbSpline
70
4
71
3
72
8
73
4
40
0
40
0
40
0
40
0
40
1
40
1
40
1
40
1
41
1
10
53.6104050898795
20
9.99635419669275
30
0
41
1
10
53.6813255057639
20
9.76518701959228
30
0
41
1
10
53.7575380761951
20
9.53582117214657
30
0
41
1
10
53.8402463884808
20
9.30866632875893
30
0
0
SPLINE
5
DB
100
AcDbEntity
8
1
62
256
6
ByLayer
370
18
48
1
60
0
100
AcDbSpline
70
4
71
3
72
8
73
4
40
0
40
0
40
0
40
0
40
1
40
1
40
1
40
1
41
1
10
26.4677822028775
20
-7.13780931211857
30
0
41
1
10
25.6451881352517
20
-7.27797054905775
30
0
41
1
10
24.8225940676258
20
-7.38256596511914
30
0
41
1
10
24
20
-7.44867750674541
30
0
0
SPLINE
5
DC
100
AcDbEntity
8
1
62
256
6
ByLayer
370
18
48
1
60
0
100
AcDbSpline
70
4
71
3
72
16
73
12
40
0
40
0
40
0
40
0
40
0.249999999999999
40
0.499999999999998
40
0.499999999999998
40
0.624999999999996
40
0.687499999999996
40
0.687499999999996
40
0.749999999999996
40
0.749999999999996
40
1
40
1
40
1
40
1
41
1
10
53.9652009281705
20
8.90565332345827
30
0
41
1
10
53.947358456182
20
8.75648854765777
30
0
41
1
10
53.9138509723922
20
8.45699944957573
30
0
41
1
10
53.8846665574701
20
8.15520822017612
30
0
41
1
10
53.864423727313
20
7.92798854249872
30
0
41
1
10
53.8547142491614
20
7.81415933798965
30
0
41
1
10
53.8456326208992
20
7.69999578930555
30
0
41
1
10
53.8397192273808
20
7.62381165769585
30
0
41
1
10
53.836833958004
20
7.58569066863788
30
0
41
1
10
53.8228396418725
20
7.39595877614315
30
0
41
1
10
53.8129571747112
20
7.24611228670733
30
0
41
1
10
53.8043367802229
20
7.09812963312899
30
0
0
SPLINE
5
DD
100
AcDbEntity
8
1
62
256
6
ByLayer
370
18
48
1
60
0
100
AcDbSpline
70
4
71
3
72
8
73
4
40
0
40
0
40
0
40
0
40
1
40
1
40
1
40
1
41
1
10
53.8402463803634
20
9.30866632606447
30
0
41
1
10
53.8884554785766
20
9.17626175462181
30
0
41
1
10
53.9305818007342
20
9.04206405433456
30
0
41
1
10
53.9652009281659
20
8.90565332345673
30
0
0
SPLINE
5
DE
100
AcDbEntity
8
1
62
256
6
ByLayer
370
18
48
1
60
0
100
AcDbSpline
70
4
71
3
72
12
73
8
40
0
40
0
40
0
40
0
40
0.164938234304427
40
0.345238389810326
40
0.525538545316224
40
0.795988778575071
40
1
40
1
40
1
40
1
41
1
10
53.8402463815302
20
9.30866632599987
30
0
41
1
10
53.2684975876868
20
9.29949137018511
30
0
41
1
10
52.0717487938433
20
9.23245181202557
30
0
41
1
10
50.25
20
8.98310087100677
30
0
41
1
10
48.0625
20
8.50605572560764
30
0
41
1
10
45.7928069693961
20
7.78830590165526
30
0
41
1
10
44.1481139387921
20
7.11190032818154
30
0
41
1
10
43.4409209081882
20
6.79640329067354
30
0
0
SPLINE
5
DF
100
AcDbEntity
8
1
62
256
6
ByLayer
370
18
48
1
60
0
100
AcDbSpline
70
4
71
3
72
41
73
37
40
0
40
0
40
0
40
0
40
0.0173897922683538
40
0.0173897922683538
40
0.0347795845367077
40
0.0347795845367077
40
0.0695591690734189
40
0.0695591690734189
40
0.139118338146837
40
0.139118338146837
40
0.156508130415187
40
0.156508130415187
40
0.173897922683538
40
0.208677507220239
40
0.208677507220239
40
0.278236676293647
40
0.278236676293647
40
0.347795845367055
40
0.347795845367055
40
0.365185637635404
40
0.365185637635404
40
0.382575429903753
40
0.382575429903753
40
0.417355014440451
40
0.417355014440451
40
0.486914183513846
40
0.486914183513846
40
0.556473352587241
40
0.556473352587241
40
0.695591690734032
40
0.695591690734032
40
0.834710028880822
40
0.834710028880822
40
0.973828367027612
40
0.973828367027612
40
1
40
1
40
1
40
1
41
1
10
53.8043367802229
20
7.09812963312905
30
0
41
1
10
53.7875973385991
20
7.06766716940879
30
0
41
1
10
53.7700749960304
20
7.03755206251927
30
0
41
1
10
53.7334785617989
20
6.97801032746906
30
0
41
1
10
53.714355128663
20
6.9485131004129
30
0
41
1
10
53.6550807254965
20
6.86162217839004
30
0
41
1
10
53.6131131645796
20
6.80591413062729
30
0
41
1
10
53.4806053729206
20
6.64476980479844
30
0
41
1
10
53.3834863922849
20
6.54528948052715
30
0
41
1
10
53.2531226477287
20
6.42905539491065
30
0
41
1
10
53.2265606217609
20
6.40618546137028
30
0
41
1
10
53.1729018772216
20
6.36148612911705
30
0
41
1
10
53.0915312423986
20
6.29592145487393
30
0
41
1
10
53.0077118051206
20
6.23447546889747
30
0
41
1
10
52.8372419500755
20
6.11634497784715
30
0
41
1
10
52.719839628366
20
6.04390818862146
30
0
41
1
10
52.4792298299516
20
5.90879841276526
30
0
41
1
10
52.3560137697277
20
5.84613986292186
30
0
41
1
10
52.1990973575187
20
5.77268808078225
30
0
41
1
10
52.1675683095811
20
5.75824289016432
30
0
41
1
10
52.1042337813051
20
5.72981744593585
30
0
41
1
10
52.0724092709079
20
5.71582934044261
30
0
41
1
10
51.9768332627216
20
5.67465067815431
30
0
41
1
10
51.9128987274161
20
5.6482066143472
30
0
41
1
10
51.7205209301238
20
5.57154021979565
30
0
41
1
10
51.5915066713684
20
5.52396885432785
30
0
41
1
10
51.3322670672533
20
5.43444883215514
30
0
41
1
10
51.2020403849851
20
5.39250638231277
30
0
41
1
10
50.8098777036457
20
5.27356245644791
30
0
41
1
10
50.5464760102652
20
5.20336575574746
30
0
41
1
10
50.0169337635595
20
5.07568805259351
30
0
41
1
10
49.7507833477457
20
5.01825283869204
30
0
41
1
10
49.2164448901581
20
4.91284249186035
30
0
41
1
10
48.9482522534049
20
4.86488869203026
30
0
41
1
10
48.6286712537608
20
4.81225279677244
30
0
41
1
10
48.5780416245521
20
4.80404813036787
30
0
41
1
10
48.5273851616118
20
4.79596804486209
30
0
0
SPLINE
5
E0
100
AcDbEntity
8
1
62
256
6
ByLayer
370
18
48
1
60
0
100
AcDbSpline
70
4
71
3
72
14
73
10
40
0
40
0
40
0
40
0
40
0.25
40
0.25
40
0.5
40
0.5
40
0.75
40
0.75
40
1
40
1
40
1
40
1
41
1
10
46.823318458218
20
-3.01240572075466
30
0
41
1
10
46.848509364804
20
-3.06101870416896
30
0
41
1
10
46.8726616344483
20
-3.11051855708303
30
0
41
1
10
46.9184602904961
20
-3.21165798212169
30
0
41
1
10
46.9401476827148
20
-3.26342139493613
30
0
41
1
10
46.9799206399692
20
-3.368277020797
30
0
41
1
10
46.9980697407252
20
-3.42148244757533
30
0
41
1
10
47.030098659478
20
-3.52980414243416
30
0
41
1
10
47.0439875613551
20
-3.58491634536065
30
0
41
1
10
47.0551328035887
20
-3.64125655212302
30
0
0
SPLINE
5
E1
100
AcDbEntity
8
1
62
256
6
ByLayer
370
18
48
1
60
0
100
AcDbSpline
70
4
71
3
72
20
73
16
40
0
40
0
40
0
40
0
40
0.250000000000001
40
0.250000000000001
40
0.375000000000001
40
0.375000000000001
40
0.4375
40
0.4375
40
0.499999999999999
40
0.499999999999999
40
0.749999999999999
40
0.749999999999999
40
0.874999999999999
40
0.874999999999999
40
1
40
1
40
1
40
1
41
1
10
46.8233184582171
20
-3.01240572075537
30
0
41
1
10
46.7977033570996
20
-2.9629741339435
30
0
41
1
10
46.7779837696165
20
-2.91199663796564
30
0
41
1
10
46.7560523565899
20
-2.83404358690225
30
0
41
1
10
46.7500242313579
20
-2.80780868733609
30
0
41
1
10
46.7428235801577
20
-2.76816305658173
30
0
41
1
10
46.7407307459679
20
-2.75489883450078
30
0
41
1
10
46.737151837133
20
-2.7282846623051
30
0
41
1
10
46.7356694572687
20
-2.71494889892639
30
0
41
1
10
46.7297990511082
20
-2.64875223193013
30
0
41
1
10
46.7299094821024
20
-2.5968119282139
30
0
41
1
10
46.7363869231207
20
-2.52077240052307
30
0
41
1
10
46.7396077911145
20
-2.49573750783836
30
0
41
1
10
46.7481311190731
20
-2.4463517602033
30
0
41
1
10
46.7534334594414
20
-2.42204093942235
30
0
41
1
10
46.7597019042232
20
-2.39835965928069
30
0
0
SPLINE
5
E2
100
AcDbEntity
8
1
62
256
6
ByLayer
370
18
48
1
60
0
100
AcDbSpline
70
4
71
3
72
17
73
13
40
0
40
0
40
0
40
0
40
0.250000000000002
40
0.250000000000002
40
0.375000000000001
40
0.375000000000001
40
0.500000000000001
40
0.625
40
0.625
40
0.749999999999999
40
0.749999999999999
40
1
40
1
40
1
40
1
41
1
10
47.7629969956801
20
-5.40841504681686
30
0
41
1
10
47.7363552509674
20
-5.52368987253882
30
0
41
1
10
47.7134221197336
20
-5.63909839418386
30
0
41
1
10
47.685008434038
20
-5.81242697301067
30
0
41
1
10
47.6765592617049
20
-5.87010882556277
30
0
41
1
10
47.6617903166363
20
-5.98500103338307
30
0
41
1
10
47.6491364778303
20
-6.09950764133325
30
0
41
1
10
47.6408071518932
20
-6.21322585787723
30
0
41
1
10
47.6346956032294
20
-6.3265397568492
30
0
41
1
10
47.6327607051433
20
-6.38278137688138
30
0
41
1
10
47.6303363066723
20
-6.55016428222621
30
0
41
1
10
47.633221654704
20
-6.66000488222903
30
0
41
1
10
47.6406816270262
20
-6.7680691282215
30
0
0
SPLINE
5
E3
100
AcDbEntity
8
1
62
256
6
ByLayer
370
18
48
1
60
0
100
AcDbSpline
70
4
71
3
72
19
73
15
40
0
40
0
40
0
40
0
40
0.250000000000001
40
0.250000000000001
40
0.375000000000001
40
0.375000000000001
40
0.500000000000001
40
0.500000000000001
40
0.625000000000001
40
0.625000000000001
40
0.75
40
0.875
40
0.875
40
1
40
1
40
1
40
1
41
1
10
47.0551328070344
20
-3.64125655019075
30
0
41
1
10
47.0869004042192
20
-3.80178424939569
30
0
41
1
10
47.1264703507245
20
-3.95967483187977
30
0
41
1
10
47.1968426588721
20
-4.19278693790449
30
0
41
1
10
47.2221760278724
20
-4.26995422234367
30
0
41
1
10
47.2760554622345
20
-4.42203963172594
30
0
41
1
10
47.3046333298332
20
-4.49707849448711
30
0
41
1
10
47.3649159857599
20
-4.64524007476049
30
0
41
1
10
47.3966373666074
20
-4.71839830503691
30
0
41
1
10
47.4630142671072
20
-4.86272447371249
30
0
41
1
10
47.5321042680966
20
-5.00459082606716
30
0
41
1
10
47.6063064881271
20
-5.14182221562516
30
0
41
1
10
47.6829326913299
20
-5.27685591534751
30
0
41
1
10
47.7224761790281
20
-5.34329513845705
30
0
41
1
10
47.7629969956801
20
-5.40841504681686
30
0
0
SPLINE
5
E4
100
AcDbEntity
8
1
62
256
6
ByLayer
370
13
48
1
60
0
100
AcDbSpline
70
4
71
3
72
57
73
53
40
0
40
0
40
0
40
0
40
0.024078491001253
40
0.186732075834378
40
0.308722264459221
40
0.430712453084064
40
0.512039245500627
40
0.573034339813048
40
0.63402943412547
40
0.674692830333751
40
0.715356226542032
40
0.745853773698243
40
0.776351320854454
40
0.796683018958594
40
0.817014717062735
40
0.837346415166875
40
0.852595188744981
40
0.865302500060069
40
0.871656155717613
40
0.875468349112139
40
0.879280542506665
40
0.883092735901192
40
0.888175660427227
40
0.893258584953262
40
0.900882971742315
40
0.908507358531367
40
0.918673207583438
40
0.928839056635508
40
0.939004905687578
40
0.949170754739649
40
0.956795141528701
40
0.964419528317754
40
0.972043915106807
40
0.977126839632842
40
0.983480495290386
40
0.987292688684912
40
0.989198785382175
40
0.991104882079438
40
0.99205793042807
40
0.993010978776702
40
0.993487502951018
40
0.993884606429614
40
0.994122868516772
40
0.994241999560351
40
0.99436113060393
40
0.994480261647509
40
0.994678813386807
40
0.995075916865403
40
0.995552441039719
40
0.996505489388351
40
0.997458537736982
40
1
40
1
40
1
40
1
41
1
10
47.0551328078465
20
-3.64125655003727
30
0
41
1
10
46.8700885385643
20
-3.59030994402895
30
0
41
1
10
45.4350442692822
20
-3.18726418771416
30
0
41
1
10
43.0625
20
-2.4225509232538
30
0
41
1
10
39.9375000000001
20
-1.30468354102641
30
0
41
1
10
37.4375
20
-0.368379247619003
30
0
41
1
10
35.40625
20
0.389484898140097
30
0
41
1
10
33.84375
20
0.958968252349706
30
0
41
1
10
32.5937500000001
20
1.40037208456266
30
0
41
1
10
31.5
20
1.77331277558972
30
0
41
1
10
30.6406250000001
20
2.05689744349624
30
0
41
1
10
29.8593750000001
20
2.30585923549393
30
0
41
1
10
29.2343750000001
20
2.4983137217134
30
0
41
1
10
28.6875
20
2.66137227646351
30
0
41
1
10
28.2187500000001
20
2.79728657694858
30
0
41
1
10
27.7890625000001
20
2.91818208398496
30
0
41
1
10
27.4179687500001
20
3.01968674286519
30
0
41
1
10
27.1542968750001
20
3.09014172014994
30
0
41
1
10
26.9785156250001
20
3.13633799008139
30
0
41
1
10
26.8710937500001
20
3.16431434468623
30
0
41
1
10
26.783203125
20
3.18704688298439
30
0
41
1
10
26.6855468750001
20
3.21212958437843
30
0
41
1
10
26.5781250000001
20
3.23949384234513
30
0
41
1
10
26.4414062500001
20
3.27398890600819
30
0
41
1
10
26.2851562500001
20
3.31293392938508
30
0
41
1
10
26.0898437500001
20
3.36089094917096
30
0
41
1
10
25.8750000000001
20
3.4127050040737
30
0
41
1
10
25.640625
20
3.46804436122721
30
0
41
1
10
25.4062500000001
20
3.52218445783683
30
0
41
1
10
25.1914062500001
20
3.57070101240373
30
0
41
1
10
24.99609375
20
3.61391290379766
30
0
41
1
10
24.8203125
20
3.65210848016537
30
0
41
1
10
24.6640625000001
20
3.68543750200956
30
0
41
1
10
24.5175781249999
20
3.71619344141021
30
0
41
1
10
24.4003906250001
20
3.7404436732198
30
0
41
1
10
24.3076171875001
20
3.75939081157097
30
0
41
1
10
24.2490234375001
20
3.77126795424832
30
0
41
1
10
24.2124023437501
20
3.77865382376243
30
0
41
1
10
24.18310546875
20
3.78454007364016
30
0
41
1
10
24.1647949218751
20
3.78820961932857
30
0
41
1
10
24.1507568359375
20
3.79101755076044
30
0
41
1
10
24.1422119140626
20
3.79272472171701
30
0
41
1
10
24.1364135742188
20
3.79388216946526
30
0
41
1
10
24.1327514648438
20
3.79461283742091
30
0
41
1
10
24.1300048828126
20
3.79516066253129
30
0
41
1
10
24.1266479492188
20
3.79583001159648
30
0
41
1
10
24.1211547851564
20
3.7969248410156
30
0
41
1
10
24.1129150390626
20
3.79856576570179
30
0
41
1
10
24.0988769531251
20
3.80135811700836
30
0
41
1
10
24.0805664062501
20
3.80499327179467
30
0
41
1
10
24.0463867187501
20
3.8117613508368
30
0
41
1
10
24.01953125
20
3.81705383508671
30
0
41
1
10
24.0000000000001
20
3.82088950601732
30
0
0
SPLINE
5
E5
100
AcDbEntity
8
1
62
256
6
ByLayer
370
18
48
1
60
0
100
AcDbSpline
70
4
71
3
72
11
73
7
40
0
40
0
40
0
40
0
40
0.25
40
0.5
40
0.75
40
1
40
1
40
1
40
1
41
1
10
24.0000000000001
20
3.82088950601732
30
0
41
1
10
24.0000000000001
20
3.81353658764994
30
0
41
1
10
24.0000000000001
20
3.73604134456502
30
0
41
1
10
24
20
3.43209847947077
30
0
41
1
10
24.0000000000001
20
2.94877980307484
30
0
41
1
10
24.0000000000001
20
2.51740102503135
30
0
41
1
10
24.0000000000001
20
2.27807340047008
30
0
0
SPLINE
5
E6
100
AcDbEntity
8
1
62
256
6
ByLayer
370
18
48
1
60
0
100
AcDbSpline
70
4
71
3
72
22
73
18
40
0
40
0
40
0
40
0
40
0.250000000000026
40
0.250000000000026
40
0.375000000000025
40
0.375000000000025
40
0.500000000000024
40
0.500000000000024
40
0.625000000000023
40
0.625000000000023
40
0.750000000000022
40
0.750000000000022
40
0.875000000000021
40
0.875000000000021
40
0.93750000000001
40
0.93750000000001
40
1
40
1
40
1
40
1
41
1
10
52.6022526011287
20
-7.42088885741782
30
0
41
1
10
52.6235158330659
20
-7.39706176784782
30
0
41
1
10
52.6443506279442
20
-7.3760660085637
30
0
41
1
10
52.6748925925874
20
-7.34926586303513
30
0
41
1
10
52.6849621255275
20
-7.34111791945116
30
0
41
1
10
52.7046750301832
20
-7.32667405024523
30
0
41
1
10
52.7143382159638
20
-7.32035853130262
30
0
41
1
10
52.7332356006914
20
-7.30973943179742
30
0
41
1
10
52.7424792889867
20
-7.30543923883673
30
0
41
1
10
52.7602170746507
20
-7.29922752952436
30
0
41
1
10
52.7687439925214
20
-7.29729303193488
30
0
41
1
10
52.785016731949
20
-7.2960995036641
30
0
41
1
10
52.7927638828688
20
-7.29683591954858
30
0
41
1
10
52.8036768049753
20
-7.30036496514396
30
0
41
1
10
52.8072000687032
20
-7.30195285039574
30
0
41
1
10
52.8139085473468
20
-7.30599664437429
30
0
41
1
10
52.8171027151381
20
-7.30845386539642
30
0
41
1
10
52.8201209225046
20
-7.31138962143103
30
0
0
SPLINE
5
E7
100
AcDbEntity
8
1
62
256
6
ByLayer
370
18
48
1
60
0
100
AcDbSpline
70
4
71
3
72
19
73
15
40
0
40
0
40
0
40
0
40
0.124999999999999
40
0.124999999999999
40
0.187499999999998
40
0.187499999999998
40
0.249999999999998
40
0.5
40
0.5
40
0.750000000000003
40
0.750000000000003
40
0.875000000000002
40
0.875000000000002
40
1
40
1
40
1
40
1
41
1
10
51.5196616450428
20
-8.21654249326488
30
0
41
1
10
51.5591016911069
20
-8.20783724077492
30
0
41
1
10
51.5995610896297
20
-8.19570611222846
30
0
41
1
10
51.6617451522952
20
-8.17248508817815
30
0
41
1
10
51.6827520919194
20
-8.16389262039982
30
0
41
1
10
51.7250806576607
20
-8.14512280936907
30
0
41
1
10
51.8316986179572
20
-8.0942437092757
30
0
41
1
10
51.9421945309381
20
-8.02411192798479
30
0
41
1
10
52.123536658846
20
-7.88931853361805
30
0
41
1
10
52.2164802206425
20
-7.8106396780266
30
0
41
1
10
52.3591922826795
20
-7.67625433406369
30
0
41
1
10
52.4073750757787
20
-7.62865426602428
30
0
41
1
10
52.5043148314334
20
-7.52852020085868
30
0
41
1
10
52.5531181996497
20
-7.47594792909351
30
0
41
1
10
52.6022526036222
20
-7.42088885764681
30
0
0
SPLINE
5
E8
100
AcDbEntity
8
1
62
256
6
ByLayer
370
18
48
1
60
0
100
AcDbSpline
70
4
71
3
72
37
73
33
40
0
40
0
40
0
40
0
40
0.0625000000000041
40
0.0625000000000041
40
0.125000000000008
40
0.125000000000008
40
0.187500000000012
40
0.187500000000012
40
0.218750000000013
40
0.218750000000013
40
0.234375000000011
40
0.234375000000011
40
0.25000000000001
40
0.25000000000001
40
0.312500000000011
40
0.312500000000011
40
0.375000000000012
40
0.375000000000012
40
0.437500000000013
40
0.437500000000013
40
0.500000000000014
40
0.500000000000014
40
0.531250000000012
40
0.531250000000012
40
0.562500000000011
40
0.562500000000011
40
0.625000000000007
40
0.625000000000007
40
0.750000000000005
40
0.875000000000002
40
0.875000000000002
40
1
40
1
40
1
40
1
41
1
10
47.6406816319795
20
-6.76806912883225
30
0
41
1
10
47.6835397914383
20
-6.86825035600356
30
0
41
1
10
47.7318415524866
20
-6.96079806249207
30
0
41
1
10
47.8372479323602
20
-7.13354930196641
30
0
41
1
10
47.8943686911537
20
-7.21373020025649
30
0
41
1
10
48.0161398161141
20
-7.3635332886883
30
0
41
1
10
48.080797714814
20
-7.43314491601916
30
0
41
1
10
48.1827930971244
20
-7.53053892951306
30
0
41
1
10
48.2176290257714
20
-7.56182922617751
30
0
41
1
10
48.2710782046777
20
-7.60708853127426
30
0
41
1
10
48.2891144696304
20
-7.62191137100356
30
0
41
1
10
48.3254358289922
20
-7.65089969489102
30
0
41
1
10
48.3437276131556
20
-7.66507199748312
30
0
41
1
10
48.4358156373023
20
-7.7343890720974
30
0
41
1
10
48.5114932544466
20
-7.78491509407897
30
0
41
1
10
48.6663117626595
20
-7.87746485742011
30
0
41
1
10
48.7454513673486
20
-7.91949175682021
30
0
41
1
10
48.9067840692925
20
-7.99604928150598
30
0
41
1
10
48.9889787724669
20
-8.03057596428545
30
0
41
1
10
49.1561332895037
20
-8.09284102850441
30
0
41
1
10
49.241094042707
20
-8.12057710387742
30
0
41
1
10
49.3704504095762
20
-8.15747934139009
30
0
41
1
10
49.4138889288491
20
-8.16899515455
30
0
41
1
10
49.5013842815272
20
-8.19050882982728
30
0
41
1
10
49.5454916746185
20
-8.20051681518447
30
0
41
1
10
49.6783121703106
20
-8.22824906959733
30
0
41
1
10
49.7674243690106
20
-8.24367504834552
30
0
41
1
10
50.0363106805998
20
-8.2815568214501
30
0
41
1
10
50.3989445215258
20
-8.30975093630769
30
0
41
1
10
50.7687569879495
20
-8.29905216325551
30
0
41
1
10
51.1418180271154
20
-8.27075303264581
30
0
41
1
10
51.3299748486585
20
-8.24779236835548
30
0
41
1
10
51.5196616450427
20
-8.21654249326488
30
0
0
SPLINE
5
E9
100
AcDbEntity
8
1
62
256
6
ByLayer
370
18
48
1
60
0
100
AcDbSpline
70
4
71
3
72
57
73
53
40
0
40
0
40
0
40
0
40
0.048250792639298
40
0.206875660532748
40
0.325844311452836
40
0.444812962372924
40
0.524125396319649
40
0.583609721779693
40
0.643094047239737
40
0.682750264213099
40
0.722406481186462
40
0.752148643916484
40
0.781890806646506
40
0.801718915133187
40
0.821547023619868
40
0.84137513210655
40
0.856246213471561
40
0.868638781275736
40
0.874835065177824
40
0.878552835519077
40
0.88227060586033
40
0.885988376201583
40
0.890945403323253
40
0.895902430444923
40
0.903337971127429
40
0.910773511809934
40
0.920687566053275
40
0.930601620296616
40
0.940515674539956
40
0.950429728783297
40
0.957865269465802
40
0.965300810148308
40
0.972736350830813
40
0.977693377952484
40
0.983889661854572
40
0.987607432195824
40
0.989466317366451
40
0.991325202537077
40
0.99225464512239
40
0.993184087707703
40
0.99364880900036
40
0.99403607674424
40
0.994268437390569
40
0.994384617713733
40
0.994500798036897
40
0.994616978360061
40
0.994810612232001
40
0.995197879975882
40
0.995662601268538
40
0.996592043853852
40
0.997521486439165
40
1
40
1
40
1
40
1
41
1
10
47.6406816270379
20
-6.7680691282234
30
0
41
1
10
47.2604544180252
20
-6.70563084953099
30
0
41
1
10
45.6302272090126
20
-6.41149613624208
30
0
41
1
10
43.0625
20
-5.77523541257611
30
0
41
1
10
39.9375000000001
20
-4.7579824534053
30
0
41
1
10
37.4375
20
-3.79980149371869
30
0
41
1
10
35.40625
20
-2.94857455273274
30
0
41
1
10
33.84375
20
-2.26309812593288
30
0
41
1
10
32.5937500000001
20
-1.69814008909523
30
0
41
1
10
31.5
20
-1.19490227978326
30
0
41
1
10
30.6406250000001
20
-0.795377423756065
30
0
41
1
10
29.859375
20
-0.430068486274649
30
0
41
1
10
29.234375
20
-0.137058542427553
30
0
41
1
10
28.6875
20
0.119550227750608
30
0
41
1
10
28.21875
20
0.339149838653157
30
0
41
1
10
27.7890625000001
20
0.540984155970875
30
0
41
1
10
27.4179687500001
20
0.712604114823733
30
0
41
1
10
27.1542968750001
20
0.837875760755708
30
0
41
1
10
26.9785156250001
20
0.917970897342542
30
0
41
1
10
26.8710937500001
20
0.969236183537646
30
0
41
1
10
26.783203125
20
1.00711685534907
30
0
41
1
10
26.6855468750001
20
1.05416230936785
30
0
41
1
10
26.578125
20
1.10357487006186
30
0
41
1
10
26.44140625
20
1.16680578858632
30
0
41
1
10
26.28515625
20
1.23827468338197
30
0
41
1
10
26.0898437500001
20
1.32962136254184
30
0
41
1
10
25.875
20
1.42734462394276
30
0
41
1
10
25.640625
20
1.53639954333778
30
0
41
1
10
25.4062500000001
20
1.64419332879328
30
0
41
1
10
25.1914062500001
20
1.74353289895041
30
0
41
1
10
24.9960937500001
20
1.83149642886701
30
0
41
1
10
24.8203125
20
1.91151142774225
30
0
41
1
10
24.6640625000001
20
1.98246752252416
30
0
41
1
10
24.517578125
20
2.04777975053483
30
0
41
1
10
24.4003906250001
20
2.1000607126004
30
0
41
1
10
24.3076171875001
20
2.14222734378507
30
0
41
1
10
24.2490234375001
20
2.16790352405675
30
0
41
1
10
24.2124023437501
20
2.18511082449834
30
0
41
1
10
24.18310546875
20
2.19708257002532
30
0
41
1
10
24.1647949218751
20
2.20681706119964
30
0
41
1
10
24.1507568359375
20
2.21099448335403
30
0
41
1
10
24.1422119140626
20
2.21724653398044
30
0
41
1
10
24.1364135742188
20
2.21779034911967
30
0
41
1
10
24.1327514648438
20
2.2217604026946
30
0
41
1
10
24.1300048828126
20
2.219352100908
30
0
41
1
10
24.1266479492188
20
2.22247024246198
30
0
41
1
10
24.1211547851564
20
2.22280551937206
30
0
41
1
10
24.1129150390626
20
2.22935271989397
30
0
41
1
10
24.0988769531251
20
2.23303414796379
30
0
41
1
10
24.0805664062501
20
2.24308351544681
30
0
41
1
10
24.0463867187501
20
2.25666587768384
30
0
41
1
10
24.01953125
20
2.26982909501848
30
0
41
1
10
24.0000000000001
20
2.27807340047008
30
0
0
SPLINE
5
EA
100
AcDbEntity
8
1
62
256
6
ByLayer
370
13
48
1
60
0
100
AcDbSpline
70
4
71
3
72
56
73
52
40
0
40
0
40
0
40
0
40
0.079536247731535
40
0.217605810571805
40
0.355675373412074
40
0.447721748638921
40
0.516756530059056
40
0.585791311479191
40
0.631814499092614
40
0.677837686706037
40
0.712355077416105
40
0.746872468126172
40
0.769884061932884
40
0.792895655739595
40
0.815907249546307
40
0.833165944901341
40
0.847548191030536
40
0.854739314095133
40
0.859053987933891
40
0.86336866177265
40
0.867683335611408
40
0.873436234063086
40
0.879189132514764
40
0.887818480192281
40
0.896447827869798
40
0.907953624773154
40
0.919459421676509
40
0.930965218579865
40
0.942471015483221
40
0.951100363160738
40
0.959729710838255
40
0.968359058515772
40
0.974111956967449
40
0.981303080032047
40
0.985617753870805
40
0.987775090790184
40
0.989932427709564
40
0.991011096169253
40
0.992089764628943
40
0.992629098858788
40
0.993078544050325
40
0.993348211165247
40
0.993483044722709
40
0.99361787828017
40
0.993752711837631
40
0.9939774344334
40
0.994426879624937
40
0.994966213854782
40
0.996044882314471
40
0.997123550774161
40
1
40
1
40
1
40
1
41
1
10
44.3701666185018
20
-8.79081875956922
30
0
41
1
10
43.8301110790012
20
-8.80068126628558
30
0
41
1
10
42.3525555395006
20
-8.78340215939229
30
0
41
1
10
39.9375000000001
20
-8.55586356778505
30
0
41
1
10
37.4374999999999
20
-8.06832435886136
30
0
41
0.999999999999999
10
35.40625
20
-7.51160940859655
30
0
41
1
10
33.84375
20
-7.00235780374512
30
0
41
0.999999999999999
10
32.59375
20
-6.54303826079488
30
0
41
1
10
31.4999999999999
20
-6.10647607912278
30
0
41
1
10
30.640625
20
-5.74284028338283
30
0
41
1
10
29.859375
20
-5.39678368920701
30
0
41
0.999999999999999
10
29.234375
20
-5.10986729918455
30
0
41
1
10
28.6875
20
-4.85189890719533
30
0
41
1
10
28.21875
20
-4.62624836789612
30
0
41
1
10
27.7890625
20
-4.41544387280183
30
0
41
1
10
27.41796875
20
-4.23055095382508
30
0
41
0.999999999999999
10
27.154296875
20
-4.09766489818097
30
0
41
1
10
26.978515625
20
-4.00841184031648
30
0
41
0.999999999999999
10
26.87109375
20
-3.95365674870155
30
0
41
1
10
26.7832031249999
20
-3.90872890972769
30
0
41
1
10
26.685546875
20
-3.85866840905484
30
0
41
1
10
26.5781249999999
20
-3.80342362102794
30
0
41
1
10
26.44140625
20
-3.7328573038433
30
0
41
1
10
26.28515625
20
-3.65185256954928
30
0
41
1
10
26.08984375
20
-3.55007495713196
30
0
41
1
10
25.875
20
-3.43746891041647
30
0
41
1
10
25.6406249999999
20
-3.3138462282696
30
0
41
1
10
25.40625
20
-3.18947552794418
30
0
41
1
10
25.19140625
20
-3.07481255680457
30
0
41
1
10
24.99609375
20
-2.97007456301449
30
0
41
1
10
24.8203124999999
20
-2.87543896746061
30
0
41
1
10
24.6640625000001
20
-2.79100029106527
30
0
41
1
10
24.517578125
20
-2.71159983592759
30
0
41
0.999999999999999
10
24.400390625
20
-2.64791173522383
30
0
41
1
10
24.3076171875
20
-2.59737788873741
30
0
41
1
10
24.2490234375
20
-2.56542207687116
30
0
41
1
10
24.2124023437501
20
-2.5454333277064
30
0
41
1
10
24.18310546875
20
-2.52943261274712
30
0
41
1
10
24.164794921875
20
-2.51942813945578
30
0
41
1
10
24.1507568359375
20
-2.5117557405546
30
0
41
0.999999999999999
10
24.1422119140625
20
-2.50708473045973
30
0
41
1
10
24.1364135742187
20
-2.50391469584792
30
0
41
1
10
24.1327514648437
20
-2.50191241949778
30
0
41
0.999999999999999
10
24.1300048828125
20
-2.5004106376725
30
0
41
1
10
24.1266479492188
20
-2.49857503548293
30
0
41
0.999999999999998
10
24.1211547851563
20
-2.49557112424669
30
0
41
1
10
24.1129150390624
20
-2.49106469957175
30
0
41
0.999999999999999
10
24.0988769531251
20
-2.48338569647572
30
0
41
1
10
24.0805664062501
20
-2.47336664535095
30
0
41
0.999999999999999
10
24.04638671875
20
-2.45465708961945
30
0
41
1
10
24.0195312499999
20
-2.43994622834347
30
0
41
1
10
24
20
-2.42924195061156
30
0
0
SPLINE
5
EB
100
AcDbEntity
8
1
62
256
6
ByLayer
370
18
48
1
60
0
100
AcDbSpline
70
4
71
3
72
27
73
23
40
0
40
0
40
0
40
0
40
0.0624999999999955
40
0.0624999999999955
40
0.124999999999991
40
0.124999999999991
40
0.249999999999986
40
0.249999999999986
40
0.374999999999981
40
0.374999999999981
40
0.40624999999998
40
0.40624999999998
40
0.437499999999979
40
0.499999999999981
40
0.499999999999981
40
0.624999999999986
40
0.624999999999986
40
0.749999999999991
40
0.749999999999991
40
0.874999999999995
40
0.874999999999995
40
1
40
1
40
1
40
1
41
1
10
47.7878278332598
20
5.38600413776371
30
0
41
1
10
47.8429131160731
20
5.34584702479563
30
0
41
1
10
47.8998973849634
20
5.30314776773511
30
0
41
1
10
48.0171008841667
20
5.21341866630121
30
0
41
1
10
48.0773224885459
20
5.1663856419467
30
0
41
1
10
48.2622420748284
20
5.01959077224393
30
0
41
1
10
48.391164771544
20
4.91417336886457
30
0
41
1
10
48.6581987243641
20
4.69103798487063
30
0
41
1
10
48.796325359717
20
4.57329941630263
30
0
41
1
10
48.9739540309145
20
4.41947244152934
30
0
41
1
10
49.0097410607644
20
4.38836224659522
30
0
41
1
10
49.0814807706484
20
4.32577218255455
30
0
41
1
10
49.1894575313775
20
4.2312298634551
30
0
41
1
10
49.2984843894837
20
4.1348080348541
30
0
41
1
10
49.5178268176206
20
3.93965778556006
30
0
41
1
10
49.6657680715174
20
3.8064916746346
30
0
41
1
10
49.9646496313795
20
3.53479162025587
30
0
41
1
10
50.1155921002766
20
3.3962538054945
30
0
41
1
10
50.4202018494069
20
3.1143011913156
30
0
41
1
10
50.5738708900648
20
2.97088324101429
30
0
41
1
10
50.883769066667
20
2.67946517163378
30
0
41
1
10
51.03999884775
20
2.53146389785766
30
0
41
1
10
51.1974578542113
20
2.38126250357072
30
0
0
SPLINE
5
EC
100
AcDbEntity
8
1
62
256
6
ByLayer
370
18
48
1
60
0
100
AcDbSpline
70
4
71
3
72
9
73
5
40
0
40
0
40
0
40
0
40
0.654117521988963
40
1
40
1
40
1
40
1
41
1
10
47.7878278248924
20
5.3860041421932
30
0
41
1
10
47.0460518832616
20
5.68103257500238
30
0
41
1
10
45.9120416837255
20
6.09222615838504
30
0
41
1
10
44.7780314841894
20
6.43554004742341
30
0
41
1
10
44.3857972262841
20
6.54581821839809
30
0
0
SPLINE
5
ED
100
AcDbEntity
8
1
62
256
6
ByLayer
370
18
48
1
60
0
100
AcDbSpline
70
4
71
3
72
9
73
5
40
0
40
0
40
0
40
0
40
0.499755079373273
40
1
40
1
40
1
40
1
41
1
10
21.329471758243
20
-4.45281008645904
30
0
41
1
10
21.3393896462999
20
-4.43895135259083
30
0
41
1
10
21.359235143557
20
-4.41122030104137
30
0
41
1
10
21.3791301853262
20
-4.38360982803906
30
0
41
1
10
21.3890825789169
20
-4.36979782916356
30
0
0
SPLINE
5
EE
100
AcDbEntity
8
1
62
256
6
ByLayer
370
13
48
1
60
0
100
AcDbSpline
70
4
71
3
72
13
73
9
40
0
40
0
40
0
40
0
40
0.033139086463413
40
0.192075968964612
40
0.351012851465811
40
0.589418175217609
40
0.827823498969408
40
1
40
1
40
1
40
1
41
1
10
52.5159463061127
20
-0.804674320708187
30
0
41
1
10
52.3856308707418
20
-0.718715537524417
30
0
41
1
10
51.6303154353709
20
-0.219991016672083
30
0
41
1
10
50.25
20
0.693932495964503
30
0
41
1
10
48.0625
20
2.13820065596471
30
0
41
1
10
45.5625000000001
20
3.71222317277724
30
0
41
1
10
43.010436807048
20
5.17180999684098
30
0
41
1
10
41.3958736140958
20
5.97957914457703
30
0
41
1
10
40.7188104211436
20
6.29351943817363
30
0
0
SPLINE
5
EF
100
AcDbEntity
8
1
62
256
6
ByLayer
370
18
48
1
60
0
100
AcDbSpline
70
4
71
3
72
8
73
4
40
0
40
0
40
0
40
0
40
1
40
1
40
1
40
1
41
1
10
53.9999673011668
20
-5.48661896526923
30
0
41
1
10
53.9626088702811
20
-5.66896643218658
30
0
41
1
10
53.9252609100657
20
-5.8502703855722
30
0
41
1
10
53.887926050988
20
-6.03052040723279
30
0
0
SPLINE
5
F0
100
AcDbEntity
8
1
62
256
6
ByLayer
370
18
48
1
60
0
100
AcDbSpline
70
4
71
3
72
8
73
4
40
0
40
0
40
0
40
0
40
1
40
1
40
1
40
1
41
1
10
21.3844749547934
20
-4.36773493694633
30
0
41
0.999999939925141
10
21.3860107261965
20
-4.36842203723725
30
0
41
0.999999939925141
10
21.3875466022602
20
-4.36910966858379
30
0
41
1
10
21.3890825827077
20
-4.36979783086196
30
0
0
SPLINE
5
F1
100
AcDbEntity
8
1
62
256
6
ByLayer
370
18
48
1
60
0
100
AcDbSpline
70
4
71
3
72
17
73
13
40
0
40
0
40
0
40
0
40
0.100252120635964
40
0.200446242807614
40
0.300583122897082
40
0.400663507426736
40
0.500688133177055
40
0.600657727302345
40
0.700573007443919
40
0.800434681841145
40
0.900243449440086
40
1
40
1
40
1
40
1
41
1
10
21.7072530598918
20
-3.86123295347116
30
0
41
1
10
21.6964987132119
20
-3.87803535979484
30
0
41
1
10
21.6749962415219
20
-3.91163045181227
30
0
41
1
10
21.6428491191272
20
-3.9621691365405
30
0
41
1
10
21.6107920056941
20
-4.01279452838605
30
0
41
1
10
21.5788318718463
20
-4.06351704749551
30
0
41
1
10
21.5469668196224
20
-4.11433232688961
30
0
41
1
10
21.5151974893864
20
-4.16524020575412
30
0
41
1
10
21.4835232295707
20
-4.21623853862562
30
0
41
1
10
21.4519460172776
20
-4.26732897642771
30
0
41
1
10
21.4204586124663
20
-4.31850004126608
30
0
41
1
10
21.3995394377075
20
-4.35270155262376
30
0
41
1
10
21.3890825871197
20
-4.36979783382361
30
0
0
SPLINE
5
F2
100
AcDbEntity
8
1
62
256
6
ByLayer
370
18
48
1
60
0
100
AcDbSpline
70
4
71
3
72
17
73
13
40
0
40
0
40
0
40
0
40
0.25
40
0.500000000000001
40
0.500000000000001
40
0.625
40
0.625
40
0.687500000000001
40
0.687500000000001
40
0.750000000000002
40
0.750000000000002
40
1
40
1
40
1
40
1
41
1
10
53.9660068334013
20
-4.55500223378991
30
0
41
1
10
53.9474936971311
20
-4.4504006787829
30
0
41
1
10
53.9127848051837
20
-4.25376098144241
30
0
41
1
10
53.8826795093893
20
-4.0820791518033
30
0
41
1
10
53.8618564047667
20
-3.96283701201776
30
0
41
1
10
53.8552084442015
20
-3.92467850078816
30
0
41
1
10
53.8456838898261
20
-3.86986618831026
30
0
41
1
10
53.8425816004933
20
-3.85198809175279
30
0
41
1
10
53.8365366293538
20
-3.81710026363786
30
0
41
1
10
53.8336026699806
20
-3.80014091014368
30
0
41
1
10
53.8193695503792
20
-3.71773435697878
30
0
41
1
10
53.8093776213756
20
-3.65944247091497
30
0
41
1
10
53.8007274928598
20
-3.60849511817196
30
0
0
SPLINE
5
F3
100
AcDbEntity
8
1
62
256
6
ByLayer
370
13
48
1
60
0
100
AcDbSpline
70
4
71
3
72
57
73
53
40
0
40
0
40
0
40
0
40
0.0025744515568162
40
0.0035398708906223
40
0.0045052902244283
40
0.0049879998913314
40
0.0053902579470839
40
0.0055913869749602
40
0.0057120643916859
40
0.0058327418084117
40
0.0059534192251375
40
0.006194774058589
40
0.0065970321143415
40
0.0070797417812445
40
0.0080451611150506
40
0.0090105804488567
40
0.0109414191164688
40
0.012872257784081
40
0.0167339351193053
40
0.0231700640113458
40
0.0283189671249782
40
0.0360423217954268
40
0.0437656764658754
40
0.051489031136324
40
0.0617868373635888
40
0.0720846435908536
40
0.0823824498181184
40
0.0926802560453832
40
0.100403610715832
40
0.10812696538628
40
0.113275868499913
40
0.118424771613545
40
0.122286448948769
40
0.126148126283994
40
0.130009803619218
40
0.136445932511259
40
0.149318190295339
40
0.164764899636237
40
0.185360512090766
40
0.205956124545296
40
0.226551736999826
40
0.25744515568162
40
0.288338574363414
40
0.329529799272473
40
0.370721024181533
40
0.432507861545121
40
0.49429469890871
40
0.576677148726829
40
0.700250823454006
40
0.823824498181184
40
0.98858939781742
40
1
40
1
40
1
40
1
41
1
10
24.0000000000001
20
3.99529602878317
30
0
41
1
10
24.01953125
20
3.99258337038881
30
0
41
0.999999999999999
10
24.0463867187501
20
3.98883580451403
30
0
41
1
10
24.0805664062501
20
3.98403532301114
30
0
41
0.999999999999999
10
24.0988769531251
20
3.98145462705421
30
0
41
1
10
24.1129150390626
20
3.97947091643013
30
0
41
0.999999999999998
10
24.1211547851564
20
3.97830470815883
30
0
41
1
10
24.1266479492188
20
3.97752639239669
30
0
41
0.999999999999999
10
24.1300048828126
20
3.97705048007888
30
0
41
1
10
24.1327514648437
20
3.97666092859384
30
0
41
1
10
24.1364135742188
20
3.97614130172613
30
0
41
0.999999999999999
10
24.1422119140626
20
3.97531802512095
30
0
41
1
10
24.1507568359375
20
3.97410337642881
30
0
41
1
10
24.164794921875
20
3.97210472286395
30
0
41
1
10
24.18310546875
20
3.96949104250268
30
0
41
1
10
24.2124023437501
20
3.96529478271822
30
0
41
1
10
24.2490234375001
20
3.96002252971536
30
0
41
1
10
24.3076171875001
20
3.95152955389591
30
0
41
0.999999999999999
10
24.400390625
20
3.93794626730466
30
0
41
1
10
24.517578125
20
3.92048367963252
30
0
41
1
10
24.6640625000001
20
3.89822883918132
30
0
41
1
10
24.8203125
20
3.87398661778451
30
0
41
1
10
24.99609375
20
3.84603799041418
30
0
41
1
10
25.1914062500001
20
3.81423715986128
30
0
41
1
10
25.4062500000001
20
3.77830373914367
30
0
41
1
10
25.640625
20
3.73792625146231
30
0
41
1
10
25.8750000000001
20
3.69638199121036
30
0
41
1
10
26.0898437500001
20
3.65724038966084
30
0
41
1
10
26.28515625
20
3.62082293533476
30
0
41
1
10
26.44140625
20
3.59112150839988
30
0
41
1
10
26.578125
20
3.56472242047314
30
0
41
1
10
26.685546875
20
3.54372383360445
30
0
41
1
10
26.783203125
20
3.52443142251664
30
0
41
0.999999999999999
10
26.87109375
20
3.50691252823561
30
0
41
1
10
26.9785156250001
20
3.48531110056919
30
0
41
0.999999999999999
10
27.1542968750001
20
3.44955193251028
30
0
41
1
10
27.4179687500001
20
3.39476554017727
30
0
41
1
10
27.7890625000001
20
3.31533005244489
30
0
41
1
10
28.2187500000001
20
3.21999577460448
30
0
41
1
10
28.6875
20
3.11194450076255
30
0
41
0.999999999999999
10
29.2343750000001
20
2.9813280271564
30
0
41
1
10
29.859375
20
2.8257979971379
30
0
41
1
10
30.640625
20
2.62261720743547
30
0
41
1
10
31.5
20
2.38870554894712
30
0
41
0.999999999999999
10
32.5937500000001
20
2.07754115192077
30
0
41
1
10
33.84375
20
1.70435594716082
30
0
41
0.999999999999999
10
35.40625
20
1.21602152133093
30
0
41
1
10
37.4375
20
0.556207747505482
30
0
41
1
10
39.9375000000001
20
-0.27680245171814
30
0
41
1
10
43.0625
20
-1.30217440844945
30
0
41
1
10
45.3365673014077
20
-2.00051402671028
30
0
41
1
10
46.6731346028155
20
-2.37430699172827
30
0
41
1
10
46.7597019042232
20
-2.39835965928069
30
0
0
SPLINE
5
F4
100
AcDbEntity
8
1
62
256
6
ByLayer
370
18
48
1
60
0
100
AcDbSpline
70
4
71
3
72
33
73
29
40
0
40
0
40
0
40
0
40
0.125
40
0.125
40
0.1875
40
0.1875
40
0.218750000000001
40
0.218750000000001
40
0.250000000000001
40
0.250000000000001
40
0.375000000000004
40
0.375000000000004
40
0.437499999999996
40
0.437499999999996
40
0.499999999999987
40
0.562499999999979
40
0.562499999999979
40
0.624999999999971
40
0.624999999999971
40
0.749999999999955
40
0.749999999999955
40
0.81249999999996
40
0.81249999999996
40
0.843749999999962
40
0.843749999999962
40
0.874999999999964
40
0.874999999999964
40
1
40
1
40
1
40
1
41
1
10
46.7597019042296
20
-2.39835965928143
30
0
41
1
10
46.773856650328
20
-2.34488364067823
30
0
41
1
10
46.7946012028372
20
-2.29454429990224
30
0
41
1
10
46.8346121870875
20
-2.22356483013337
30
0
41
1
10
46.8494467612168
20
-2.20066475569834
30
0
41
1
10
46.8739453990505
20
-2.16747330067599
30
0
41
1
10
46.8825095845792
20
-2.15657809709052
30
0
41
1
10
46.9002085973197
20
-2.13539856698185
30
0
41
1
10
46.9093567926505
20
-2.12509269195397
30
0
41
1
10
46.9565479864857
20
-2.07494267028326
30
0
41
1
10
46.9988956050468
20
-2.0392038694481
30
0
41
1
10
47.069081120831
20
-1.99183005876085
30
0
41
1
10
47.0937060916245
20
-1.97703682114349
30
0
41
1
10
47.1442943969288
20
-1.9500267873714
30
0
41
1
10
47.1963697661718
20
-1.92546391956904
30
0
41
1
10
47.2513352694572
20
-1.90552247869067
30
0
41
1
10
47.3077411363017
20
-1.88780645038696
30
0
41
1
10
47.3366972869096
20
-1.88005402717323
30
0
41
1
10
47.4255643066237
20
-1.86011673168738
30
0
41
1
10
47.486114730192
20
-1.85151599647474
30
0
41
1
10
47.5788420947776
20
-1.84470252216684
30
0
41
1
10
47.6100697820811
20
-1.84345231976428
30
0
41
1
10
47.6573945997062
20
-1.84303684057147
30
0
41
1
10
47.6732501641444
20
-1.84314192606365
30
0
41
1
10
47.7051243555327
20
-1.8438304068643
30
0
41
1
10
47.7211427814402
20
-1.84441477767987
30
0
41
1
10
47.8011363919508
20
-1.84847918588468
30
0
41
1
10
47.8652249721527
20
-1.85536997845287
30
0
41
1
10
47.9294552911255
20
-1.86544034460104
30
0
0
SPLINE
5
F5
100
AcDbEntity
8
1
62
256
6
ByLayer
370
18
48
1
60
0
100
AcDbSpline
70
4
71
3
72
12
73
8
40
0
40
0
40
0
40
0
40
0.463627052833788
40
0.463627052833788
40
0.731813526416894
40
0.731813526416894
40
1
40
1
40
1
40
1
41
1
10
49.4318780082703
20
-2.12074148438728
30
0
41
1
10
49.2013393818197
20
-2.0780129559401
30
0
41
1
10
48.9699059637638
20
-2.03704100289244
30
0
41
1
10
48.6034707375562
20
-1.97458396478373
30
0
41
1
10
48.4689427793227
20
-1.95216865965364
30
0
41
1
10
48.1994564342658
20
-1.90818302856806
30
0
41
1
10
48.0644671692028
20
-1.8866082146713
30
0
41
1
10
47.9294552911319
20
-1.86544034460203
30
0
0
SPLINE
5
F6
100
AcDbEntity
8
1
62
256
6
ByLayer
370
18
48
1
60
0
100
AcDbSpline
70
4
71
3
72
26
73
22
40
0
40
0
40
0
40
0
40
0.0624999999999966
40
0.0624999999999966
40
0.0937499999999948
40
0.0937499999999948
40
0.124999999999993
40
0.124999999999993
40
0.249999999999989
40
0.249999999999989
40
0.374999999999985
40
0.374999999999985
40
0.499999999999981
40
0.499999999999981
40
0.624999999999977
40
0.624999999999977
40
0.656249999999977
40
0.687499999999977
40
0.749999999999982
40
0.749999999999982
40
1
40
1
40
1
40
1
41
1
10
51.1974578542123
20
2.38126250356998
30
0
41
1
10
51.21947612322
20
2.3196563671934
30
0
41
1
10
51.2420330014831
20
2.25731869046041
30
0
41
1
10
51.2766622557207
20
2.16273384847463
30
0
41
1
10
51.2883497583781
20
2.13099345142283
30
0
41
1
10
51.3118995043266
20
2.06739304419892
30
0
41
1
10
51.3237671385261
20
2.0355179080974
30
0
41
1
10
51.3835579833238
20
1.87577655783144
30
0
41
1
10
51.4328356670861
20
1.74681620065636
30
0
41
1
10
51.5340573513211
20
1.48674163647729
30
0
41
1
10
51.5860021186417
20
1.35562681001383
30
0
41
1
10
51.6924121927574
20
1.09136106606471
30
0
41
1
10
51.7468779359259
20
0.958209796076773
30
0
41
1
10
51.8582421868542
20
0.689942069602864
30
0
41
1
10
51.9151409209966
20
0.554825430245188
30
0
41
1
10
51.9877602433848
20
0.384721239677333
30
0
41
1
10
52.0169783891435
20
0.316510924877804
30
0
41
1
10
52.0757660770348
20
0.180179743667111
30
0
41
1
10
52.1202469937399
20
0.078030421057349
30
0
41
1
10
52.2693651801566
20
-0.26225188722043
30
0
41
1
10
52.3913596239474
20
-0.533792202754995
30
0
41
1
10
52.5159463028721
20
-0.804674323182269
30
0
0
SPLINE
5
F7
100
AcDbEntity
8
1
62
256
6
ByLayer
370
18
48
1
60
0
100
AcDbSpline
70
4
71
3
72
20
73
16
40
0
40
0
40
0
40
0
40
0.25000000000002
40
0.25000000000002
40
0.375000000000017
40
0.375000000000017
40
0.500000000000014
40
0.500000000000014
40
0.62500000000001
40
0.62500000000001
40
0.750000000000007
40
0.750000000000007
40
0.875000000000003
40
0.875000000000003
40
1
40
1
40
1
40
1
41
1
10
52.5159463050468
20
-0.804674322288491
30
0
41
1
10
52.5379689801199
20
-0.85255706331543
30
0
41
1
10
52.5595758675989
20
-0.900616697218226
30
0
41
1
10
52.5912851957099
20
-0.973004383020879
30
0
41
1
10
52.6017108266338
20
-0.99712436673633
30
0
41
1
10
52.6221675834951
20
-1.04515666977335
30
0
41
1
10
52.6322108731313
20
-1.06909623237627
30
0
41
1
10
52.6518805615066
20
-1.11680284999287
30
0
41
1
10
52.6614998640806
20
-1.14055494047551
30
0
41
1
10
52.6800594867831
20
-1.18736765801844
30
0
41
1
10
52.689024092493
20
-1.21048538088178
30
0
41
1
10
52.7062026178448
20
-1.25603341836964
30
0
41
1
10
52.7143494650277
20
-1.27828865158779
30
0
41
1
10
52.7294719538626
20
-1.32123495732938
30
0
41
1
10
52.7364688292594
20
-1.34197806686527
30
0
41
1
10
52.7427497058872
20
-1.36179499125456
30
0
0
SPLINE
5
F8
100
AcDbEntity
8
1
62
256
6
ByLayer
370
18
48
1
60
0
100
AcDbSpline
70
4
71
3
72
8
73
4
40
0
40
0
40
0
40
0
40
1
40
1
40
1
40
1
41
1
10
21.5270590764539
20
-3.78267698451469
30
0
41
0.999912306463213
10
21.5869490963368
20
-3.80805879873276
30
0
41
0.999912306463213
10
21.6470190264667
20
-3.83424641875853
30
0
41
1
10
21.7072530636098
20
-3.8612329551369
30
0
0
SPLINE
5
F9
100
AcDbEntity
8
1
62
256
6
ByLayer
370
18
48
1
60
0
100
AcDbSpline
70
4
71
3
72
10
73
6
40
0
40
0
40
0
40
0
40
0.5
40
0.5
40
1
40
1
40
1
40
1
41
1
10
21.5697131950789
20
-2.50203268952197
30
0
41
1
10
21.6981710675553
20
-2.50652284592016
30
0
41
1
10
21.8282735797022
20
-2.51492153304722
30
0
41
1
10
22.0916221633969
20
-2.53976877951521
30
0
41
1
10
22.2240798829787
20
-2.55614098320254
30
0
41
1
10
22.3573253030351
20
-2.57648330252542
30
0
0
SPLINE
5
FA
100
AcDbEntity
8
1
62
256
6
ByLayer
370
18
48
1
60
0
100
AcDbSpline
70
4
71
3
72
16
73
12
40
0
40
0
40
0
40
0
40
0.249999999999998
40
0.249999999999998
40
0.374999999999997
40
0.374999999999997
40
0.499999999999996
40
0.499999999999996
40
0.749999999999997
40
0.749999999999997
40
1
40
1
40
1
40
1
41
1
10
21.3844749629938
20
-4.3677349416005
30
0
41
1
10
21.386286857705
20
-4.31820129675555
30
0
41
1
10
21.3908645803047
20
-4.26876667788304
30
0
41
1
10
21.4015973248125
20
-4.1947432595625
30
0
41
1
10
21.405820564504
20
-4.17009032891477
30
0
41
1
10
21.4155250202185
20
-4.12082553395894
30
0
41
1
10
21.4210107826411
20
-4.09620013278106
30
0
41
1
10
21.4392379302099
20
-4.02267336540251
30
0
41
1
10
21.4537765980386
20
-3.97398422465929
30
0
41
1
10
21.4872460085935
20
-3.87751850685115
30
0
41
1
10
21.5061390143727
20
-3.82983701121125
30
0
41
1
10
21.5270590700141
20
-3.78267698178547
30
0
0
SPLINE
5
FB
100
AcDbEntity
8
1
62
256
6
ByLayer
370
18
48
1
60
0
100
AcDbSpline
70
4
71
3
72
18
73
14
40
0
40
0
40
0
40
0
40
0.249999999999997
40
0.249999999999997
40
0.499999999999995
40
0.499999999999995
40
0.624999999999993
40
0.624999999999993
40
0.687499999999994
40
0.687499999999994
40
0.749999999999994
40
0.749999999999994
40
1
40
1
40
1
40
1
41
1
10
21.5270590773059
20
-3.78267698576562
30
0
41
1
10
21.5011384774257
20
-3.67887983058316
30
0
41
1
10
21.4833589300334
20
-3.57412313848553
30
0
41
1
10
21.46259897753
20
-3.36273185663589
30
0
41
1
10
21.4596257886093
20
-3.25609704164182
30
0
41
1
10
21.4657385046912
20
-3.09474175162506
30
0
41
1
10
21.4695434420113
20
-3.04072257020533
30
0
41
1
10
21.4778790890443
20
-2.95934129272013
30
0
41
1
10
21.4810959705936
20
-2.93215543516965
30
0
41
1
10
21.4884060578129
20
-2.87766578994135
30
0
41
1
10
21.492488930503
20
-2.85044584596218
30
0
41
1
10
21.5149201296269
20
-2.71491568629887
30
0
41
1
10
21.5393531135342
20
-2.60785099828521
30
0
41
1
10
21.569713195083
20
-2.50203268950753
30
0
0
SPLINE
5
FC
100
AcDbEntity
8
1
62
256
6
ByLayer
370
18
48
1
60
0
100
AcDbSpline
70
4
71
3
72
38
73
34
40
0
40
0
40
0
40
0
40
0.125000000000022
40
0.125000000000022
40
0.250000000000044
40
0.250000000000044
40
0.375000000000065
40
0.375000000000065
40
0.437500000000076
40
0.437500000000076
40
0.500000000000086
40
0.500000000000086
40
0.562500000000097
40
0.562500000000097
40
0.625000000000108
40
0.625000000000108
40
0.656250000000113
40
0.656250000000113
40
0.687500000000119
40
0.687500000000119
40
0.718750000000125
40
0.718750000000125
40
0.75000000000013
40
0.75000000000013
40
0.781250000000136
40
0.781250000000136
40
0.812500000000141
40
0.812500000000141
40
0.875000000000094
40
0.875000000000094
40
0.937500000000047
40
0.937500000000047
40
1
40
1
40
1
40
1
41
1
10
15.6753532010138
20
1.70402768533123
30
0
41
1
10
15.6559903391398
20
1.72274806432148
30
0
41
1
10
15.6370324693758
20
1.74182075390382
30
0
41
1
10
15.6002094019995
20
1.78092052841123
30
0
41
1
10
15.5823376750947
20
1.80094182930284
30
0
41
1
10
15.548189005829
20
1.84238286469892
30
0
41
1
10
15.5319183155059
20
1.8637719096316
30
0
41
1
10
15.5098061479753
20
1.89712180752278
30
0
41
1
10
15.5028124908282
20
1.90846472163392
30
0
41
1
10
15.4898743479269
20
1.93178183530654
30
0
41
1
10
15.4839025365493
20
1.9437992797948
30
0
41
1
10
15.4736458167999
20
1.96857588810636
30
0
41
1
10
15.4693758930951
20
1.9812517422076
30
0
41
1
10
15.4636472682989
20
2.00744740194591
30
0
41
1
10
15.4622471138708
20
2.0206284881296
30
0
41
1
10
15.4637067784353
20
2.04060709305835
30
0
41
1
10
15.464817190276
20
2.04728053626184
30
0
41
1
10
15.4684065859314
20
2.06009344937519
30
0
41
1
10
15.4709186261248
20
2.06635812597671
30
0
41
1
10
15.4773506205525
20
2.07818980206002
30
0
41
1
10
15.4811985891265
20
2.08365669259794
30
0
41
1
10
15.4900410697141
20
2.09377666992094
30
0
41
1
10
15.4950675257303
20
2.09843767557888
30
0
41
1
10
15.5056925399135
20
2.10670405498635
30
0
41
1
10
15.511336334887
20
2.11037015943907
30
0
41
1
10
15.523149139358
20
2.11696222612102
30
0
41
1
10
15.5293417318034
20
2.11989226009655
30
0
41
1
10
15.5481255114866
20
2.12761044381202
30
0
41
1
10
15.5610560866675
20
2.13143967136068
30
0
41
1
10
15.5874256868485
20
2.13745904248842
30
0
41
1
10
15.6009024403379
20
2.13963345964549
30
0
41
1
10
15.6278932010131
20
2.14277403632798
30
0
41
1
10
15.6414492107077
20
2.14374681056475
30
0
41
1
10
15.6550494830549
20
2.14428345061955
30
0
0
SPLINE
5
FD
100
AcDbEntity
8
1
62
256
6
ByLayer
370
18
48
1
60
0
100
AcDbSpline
70
4
71
3
72
20
73
16
40
0
40
0
40
0
40
0
40
0.249999999999997
40
0.249999999999997
40
0.499999999999994
40
0.499999999999994
40
0.624999999999992
40
0.624999999999992
40
0.687499999999991
40
0.687499999999991
40
0.718749999999991
40
0.718749999999991
40
0.749999999999991
40
0.749999999999991
40
1
40
1
40
1
40
1
41
1
10
17.0742153561348
20
6.07381214425948
30
0
41
1
10
16.8784543254991
20
6.4164718509787
30
0
41
1
10
16.6797056110407
20
6.73697909242858
30
0
41
1
10
16.2689596336995
20
7.33403795643147
30
0
41
1
10
16.0570029122084
20
7.61058651329623
30
0
41
1
10
15.723215260228
20
7.99209490010401
30
0
41
1
10
15.6093014642423
20
8.11370586762371
30
0
41
1
10
15.4335867143919
20
8.28769486759819
30
0
41
1
10
15.3742067509934
20
8.34428634436065
30
0
41
1
10
15.2838052327068
20
8.42705292732575
30
0
41
1
10
15.253433174994
20
8.45430248273394
30
0
41
1
10
15.1923052082444
20
8.50802152739394
30
0
41
1
10
15.1615636683107
20
8.53447906528572
30
0
41
1
10
14.8832160741861
20
8.76900408324067
30
0
41
1
10
14.6239618117877
20
8.95192076693633
30
0
41
1
10
14.3481287873185
20
9.11068458280943
30
0
0
SPLINE
5
FE
100
AcDbEntity
8
1
62
256
6
ByLayer
370
18
48
1
60
0
100
AcDbSpline
70
4
71
3
72
18
73
14
40
0
40
0
40
0
40
0
40
0.25000000000001
40
0.25000000000001
40
0.375000000000003
40
0.375000000000003
40
0.499999999999997
40
0.499999999999997
40
0.749999999999998
40
0.749999999999998
40
0.874999999999999
40
0.874999999999999
40
1
40
1
40
1
40
1
41
1
10
14.3481287873185
20
9.11068458280943
30
0
41
1
10
14.3074293045626
20
9.13411036802435
30
0
41
1
10
14.2707960343602
20
9.15799006359339
30
0
41
1
10
14.2232819035643
20
9.19460262550578
30
0
41
1
10
14.2086888104908
20
9.20693962568086
30
0
41
1
10
14.1823096661227
20
9.23190872389191
30
0
41
1
10
14.170492690132
20
9.24459593594261
30
0
41
1
10
14.140424163169
20
9.28235690788071
30
0
41
1
10
14.1272758839651
20
9.30732419078572
30
0
41
1
10
14.1190277438916
20
9.34443336963304
30
0
41
1
10
14.1181956952187
20
9.35674625324302
30
0
41
1
10
14.1206285139642
20
9.38125467461586
30
0
41
1
10
14.1238866422069
20
9.39330582945783
30
0
41
1
10
14.1291529472045
20
9.40510278988472
30
0
0
SPLINE
5
FF
100
AcDbEntity
8
1
62
256
6
ByLayer
370
18
48
1
60
0
100
AcDbSpline
70
4
71
3
72
48
73
44
40
0
40
0
40
0
40
0
40
0.0312499999999996
40
0.0312499999999996
40
0.0624999999999992
40
0.0624999999999992
40
0.078124999999999
40
0.078124999999999
40
0.0937499999999987
40
0.0937499999999987
40
0.124999999999996
40
0.124999999999996
40
0.156249999999993
40
0.156249999999993
40
0.171874999999993
40
0.171874999999993
40
0.187499999999993
40
0.187499999999993
40
0.218749999999996
40
0.218749999999996
40
0.249999999999999
40
0.249999999999999
40
0.312500000000001
40
0.312500000000001
40
0.375000000000004
40
0.375000000000004
40
0.406250000000005
40
0.406250000000005
40
0.437500000000006
40
0.437500000000006
40
0.500000000000005
40
0.500000000000005
40
0.562500000000004
40
0.562500000000004
40
0.625000000000003
40
0.625000000000003
40
0.750000000000001
40
0.750000000000001
40
0.812500000000002
40
0.812500000000002
40
0.875000000000002
40
0.875000000000002
40
1
40
1
40
1
40
1
41
1
10
14.1291529472044
20
9.40510278988475
30
0
41
1
10
14.1453346113165
20
9.44135106096982
30
0
41
1
10
14.1696955781288
20
9.47501566930052
30
0
41
1
10
14.2327616429293
20
9.53788327644318
30
0
41
1
10
14.2714723144987
20
9.5670844562691
30
0
41
1
10
14.3391486379816
20
9.60795270905766
30
0
41
1
10
14.3633133465646
20
9.62108604751401
30
0
41
1
10
14.4146887465336
20
9.64642945604712
30
0
41
1
10
14.4416343015264
20
9.65851029057933
30
0
41
1
10
14.5258636206713
20
9.69317403755886
30
0
41
1
10
14.5865243767311
20
9.71418598085114
30
0
41
1
10
14.7153167825648
20
9.75280718839716
30
0
41
1
10
14.7834549891493
20
9.7704131799581
30
0
41
1
10
14.8904417601897
20
9.79469753988946
30
0
41
1
10
14.9269033547712
20
9.80243685166482
30
0
41
1
10
15.001314260828
20
9.81726271151319
30
0
41
1
10
15.0392982774494
20
9.82435524619626
30
0
41
1
10
15.1551106310071
20
9.84469065752899
30
0
41
1
10
15.234299605554
20
9.85691393225375
30
0
41
1
10
15.395998713605
20
9.87918920529384
30
0
41
1
10
15.4785112928806
20
9.88923935487435
30
0
41
1
10
15.7303347332942
20
9.91667845081096
30
0
41
1
10
15.9038963682428
20
9.93138196102475
30
0
41
1
10
16.2598703829022
20
9.95562118490156
30
0
41
1
10
16.4423021931058
20
9.96514214355906
30
0
41
1
10
16.7214442972419
20
9.97651062142538
30
0
41
1
10
16.8154829270912
20
9.9798119663019
30
0
41
1
10
17.0045260612059
20
9.98554154302869
30
0
41
1
10
17.0996087917497
20
9.98797354050697
30
0
41
1
10
17.3864019141024
20
9.99415158887223
30
0
41
1
10
17.5796509016428
20
9.99678634961728
30
0
41
1
10
17.9697109257088
20
9.99984225710992
30
0
41
1
10
18.1665244177882
20
10.0002605239213
30
0
41
1
10
18.563350685847
20
9.99944885701561
30
0
41
1
10
18.7633931770035
20
9.99821699439113
30
0
41
1
10
19.3677798612791
20
9.9927278150416
30
0
41
1
10
19.7747557547688
20
9.98672070476837
30
0
41
1
10
20.3906928884545
20
9.97632901190809
30
0
41
1
10
20.596941881177
20
9.9726267868507
30
0
41
1
10
21.0111723918162
20
9.96503442809347
30
0
41
1
10
21.2188830602816
20
9.96114912173391
30
0
41
1
10
21.8437943365394
20
9.94961208418454
30
0
41
1
10
22.262762510346
20
9.9420875968776
30
0
41
1
10
22.684214691791
20
9.93562639369418
30
0
0
SPLINE
5
100
100
AcDbEntity
8
1
62
256
6
ByLayer
370
18
48
1
60
0
100
AcDbSpline
70
4
71
3
72
20
73
16
40
0
40
0
40
0
40
0
40
0.0684295382195148
40
0.0684295382195148
40
0.15311776201774
40
0.15311776201774
40
0.322494209614192
40
0.322494209614192
40
0.491870657210644
40
0.491870657210644
40
0.661247104807096
40
0.661247104807096
40
0.830623552403548
40
0.830623552403548
40
1
40
1
40
1
40
1
41
1
10
18.2209923902387
20
-9.99999993874277
30
0
41
1
10
18.2201063144221
20
-9.9999999776978
30
0
41
1
10
18.2184576956567
20
-9.99973759260655
30
0
41
1
10
18.2132517514202
20
-9.99857395217356
30
0
41
1
10
18.2093326217757
20
-9.99753592111304
30
0
41
1
10
18.1948260298959
20
-9.99326257916394
30
0
41
1
10
18.1815069947352
20
-9.98886902217367
30
0
41
1
10
18.1489775573412
20
-9.97709020742712
30
0
41
1
10
18.1297590375059
20
-9.96970456891287
30
0
41
1
10
18.0863357456271
20
-9.95201025671869
30
0
41
1
10
18.062126616314
20
-9.9417013655887
30
0
41
1
10
18.0093332418457
20
-9.91821009331395
30
0
41
1
10
17.9807117744412
20
-9.90501007208104
30
0
41
1
10
17.9198267358354
20
-9.87592808165817
30
0
41
1
10
17.8875380688585
20
-9.86003663431831
30
0
41
1
10
17.8535726232607
20
-9.84283400072769
30
0
0
SPLINE
5
101
100
AcDbEntity
8
1
62
256
6
ByLayer
370
18
48
1
60
0
100
AcDbSpline
70
4
71
3
72
14
73
10
40
0
40
0
40
0
40
0
40
0.25
40
0.25
40
0.5
40
0.5
40
0.75
40
0.75
40
1
40
1
40
1
40
1
41
1
10
17.8535726232607
20
-9.84283400072769
30
0
41
1
10
17.6019499128362
20
-9.79135889607326
30
0
41
1
10
17.3514574190283
20
-9.72752204515427
30
0
41
1
10
16.8491498890633
20
-9.57653534001597
30
0
41
1
10
16.5973366759043
20
-9.48938443455458
30
0
41
1
10
16.088791872072
20
-9.29368906744989
30
0
41
1
10
15.8320622205043
20
-9.18514185598809
30
0
41
1
10
15.3100144576859
20
-8.94913844248134
30
0
41
1
10
15.0446976016856
20
-8.82167820180334
30
0
41
1
10
14.7731888086661
20
-8.68634021760573
30
0
0
SPLINE
5
102
100
AcDbEntity
8
1
62
256
6
ByLayer
370
18
48
1
60
0
100
AcDbSpline
70
4
71
3
72
32
73
28
40
0
40
0
40
0
40
0
40
0.125000000000016
40
0.125000000000016
40
0.250000000000032
40
0.250000000000032
40
0.375000000000049
40
0.375000000000049
40
0.406250000000047
40
0.406250000000047
40
0.437500000000045
40
0.437500000000045
40
0.500000000000041
40
0.500000000000041
40
0.625000000000035
40
0.625000000000035
40
0.656250000000032
40
0.656250000000032
40
0.68750000000003
40
0.750000000000026
40
0.812500000000023
40
0.812500000000023
40
0.84375000000002
40
0.84375000000002
40
0.875000000000016
40
0.875000000000016
40
1
40
1
40
1
40
1
41
1
10
14.7731888086661
20
-8.68634021760573
30
0
41
1
10
14.7240433257576
20
-8.66184285044758
30
0
41
1
10
14.6769420540884
20
-8.63629377582748
30
0
41
1
10
14.5875336725346
20
-8.58270683825285
30
0
41
1
10
14.5452207287801
20
-8.55467189977225
30
0
41
1
10
14.4664214959719
20
-8.49556368458678
30
0
41
1
10
14.4299228392917
20
-8.46449656557965
30
0
41
1
10
14.3889533256665
20
-8.42323638894305
30
0
41
1
10
14.3809941750765
20
-8.41486200891535
30
0
41
1
10
14.3655807350763
20
-8.39785035709068
30
0
41
1
10
14.35811632248
20
-8.3891992485637
30
0
41
1
10
14.3367059541383
20
-8.36303043523017
30
0
41
1
10
14.323689996059
20
-8.34524592554629
30
0
41
1
10
14.2887669967475
20
-8.29078755592394
30
0
41
1
10
14.2709433756824
20
-8.25301820399986
30
0
41
1
10
14.2571465701467
20
-8.20357039887821
30
0
41
1
10
14.2548194856564
20
-8.19357241285658
30
0
41
1
10
14.2511060983252
20
-8.17358464815513
30
0
41
1
10
14.2469210441758
20
-8.14352797853914
30
0
41
1
10
14.246946721823
20
-8.09306433898985
30
0
41
1
10
14.2546574823202
20
-8.05231389256016
30
0
41
1
10
14.263436743757
20
-8.02161489472761
30
0
41
1
10
14.2668628451066
20
-8.0113592106633
30
0
41
1
10
14.274737322189
20
-7.99080362279108
30
0
41
1
10
14.2791775695761
20
-7.98053310550611
30
0
41
1
10
14.3036400792015
20
-7.92969468552326
30
0
41
1
10
14.3305822495287
20
-7.8902159304734
30
0
41
1
10
14.3641960210607
20
-7.8518882836768
30
0
0
SPLINE
5
103
100
AcDbEntity
8
1
62
256
6
ByLayer
370
18
48
1
60
0
100
AcDbSpline
70
4
71
3
72
53
73
49
40
0
40
0
40
0
40
0
40
0.0312500000000066
40
0.0312500000000066
40
0.0625000000000131
40
0.0625000000000131
40
0.0937500000000197
40
0.0937500000000197
40
0.109375000000021
40
0.109375000000021
40
0.125000000000023
40
0.125000000000023
40
0.156250000000023
40
0.156250000000023
40
0.187500000000023
40
0.187500000000023
40
0.250000000000024
40
0.250000000000024
40
0.281250000000022
40
0.281250000000022
40
0.296875000000021
40
0.296875000000021
40
0.31250000000002
40
0.31250000000002
40
0.375000000000016
40
0.375000000000016
40
0.437500000000013
40
0.437500000000013
40
0.468750000000011
40
0.468750000000011
40
0.500000000000009
40
0.500000000000009
40
0.562500000000005
40
0.562500000000005
40
0.625000000000001
40
0.625000000000001
40
0.656250000000001
40
0.656250000000001
40
0.687500000000002
40
0.687500000000002
40
0.750000000000002
40
0.812500000000003
40
0.812500000000003
40
0.843750000000001
40
0.843750000000001
40
0.874999999999999
40
0.874999999999999
40
1
40
1
40
1
40
1
41
1
10
14.3641960210607
20
-7.85188828367677
30
0
41
1
10
14.4112430897828
20
-7.79824350207053
30
0
41
1
10
14.4629619748172
20
-7.74612527078543
30
0
41
1
10
14.5742103435228
20
-7.64455290216188
30
0
41
1
10
14.6337461703583
20
-7.5951004147872
30
0
41
1
10
14.7595368261588
20
-7.49858824785994
30
0
41
1
10
14.8257953246492
20
-7.45152952305205
30
0
41
1
10
14.9296111017592
20
-7.38258871042348
30
0
41
1
10
14.9649562179202
20
-7.35988348961908
30
0
41
1
10
15.0370425398241
20
-7.31500360999874
30
0
41
1
10
15.0738248567617
20
-7.29280721190358
30
0
41
1
10
15.1853059146036
20
-7.22747317481992
30
0
41
1
10
15.2613888535342
20
-7.18542183309879
30
0
41
1
10
15.4165649980401
20
-7.1039616992139
30
0
41
1
10
15.4956599933791
20
-7.06455420262554
30
0
41
1
10
15.736894447494
20
-6.94989601322655
30
0
41
1
10
15.902954663349
20
-6.87818818048251
30
0
41
1
10
16.1583621315438
20
-6.77666161623753
30
0
41
1
10
16.2445591893768
20
-6.74383152182335
30
0
41
1
10
16.3753135251163
20
-6.69601621402742
30
0
41
1
10
16.4191417568736
20
-6.68031633154098
30
0
41
1
10
16.5072664603918
20
-6.64938162349156
30
0
41
1
10
16.5515788577948
20
-6.63414180301783
30
0
41
1
10
16.7737088782978
20
-6.55926445494299
30
0
41
1
10
16.9536343217096
20
-6.50342463468945
30
0
41
1
10
17.3172756936098
20
-6.39897949605341
30
0
41
1
10
17.5009953222256
20
-6.35037957671275
30
0
41
1
10
17.7791080213838
20
-6.28250877325436
30
0
41
1
10
17.8722359249207
20
-6.26072556918129
30
0
41
1
10
18.0593013651007
20
-6.21879512406073
30
0
41
1
10
18.1532935112721
20
-6.19863715093243
30
0
41
1
10
18.435922692621
20
-6.14067162414779
30
0
41
1
10
18.6252436178811
20
-6.10535474516823
30
0
41
1
10
19.0055618134728
20
-6.04108695250295
30
0
41
1
10
19.1965595864539
20
-6.0121374605304
30
0
41
1
10
19.4842568227563
20
-5.97338260102464
30
0
41
1
10
19.5803563402211
20
-5.96124353839591
30
0
41
1
10
19.7729503842839
20
-5.93851675016433
30
0
41
1
10
19.8694780994717
20
-5.92792606429404
30
0
41
1
10
20.1592375287996
20
-5.89851906871795
30
0
41
1
10
20.5462335621321
20
-5.86558501387438
30
0
41
1
10
20.9345068497941
20
-5.84514416227589
30
0
41
1
10
21.2261904172448
20
-5.83453364618165
30
0
41
1
10
21.323530638068
20
-5.83178350053421
30
0
41
1
10
21.5182010672545
20
-5.82787259965949
30
0
41
1
10
21.6155134110565
20
-5.8267115813718
30
0
41
1
10
22.1019604946785
20
-5.82489211190284
30
0
41
1
10
22.4907526462573
20
-5.83616589796463
30
0
41
1
10
22.8791645628763
20
-5.86056205820665
30
0
0
SPLINE
5
104
100
AcDbEntity
8
1
62
256
6
ByLayer
370
18
48
1
60
0
100
AcDbSpline
70
4
71
3
72
14
73
10
40
0
40
0
40
0
40
0
40
0.25
40
0.25
40
0.5
40
0.5
40
0.75
40
0.75
40
1
40
1
40
1
40
1
41
1
10
21.3294527360501
20
-4.45283669600821
30
0
41
1
10
21.5515789752976
20
-4.58254282915078
30
0
41
1
10
21.7737140989252
20
-4.71069001196173
30
0
41
1
10
22.2183322384897
20
-4.96344490851709
30
0
41
1
10
22.4408144500043
20
-5.08805551079482
30
0
41
1
10
22.8861232758498
20
-5.33377390933936
30
0
41
1
10
23.1089530495626
20
-5.45487958386963
30
0
41
1
10
23.5545871876154
20
-5.6940668532319
30
0
41
1
10
23.777304276071
20
-5.81225775311958
30
0
41
1
10
24.0000000000001
20
-5.92891992312457
30
0
0
SPLINE
5
105
100
AcDbEntity
8
1
62
256
6
ByLayer
370
18
48
1
60
0
100
AcDbSpline
70
4
71
3
72
8
73
4
40
0
40
0
40
0
40
0
40
1
40
1
40
1
40
1
41
1
10
21.3294907615269
20
-4.45278350510091
30
0
41
1
10
21.3468178422692
20
-4.42397993844693
30
0
41
1
10
21.3651644568425
20
-4.39563767088558
30
0
41
1
10
21.3844749548237
20
-4.36773493695992
30
0
0
SPLINE
5
106
100
AcDbEntity
8
1
62
256
6
ByLayer
370
18
48
1
60
0
100
AcDbSpline
70
4
71
3
72
8
73
4
40
0
40
0
40
0
40
0
40
1
40
1
40
1
40
1
41
1
10
53.9999672991791
20
-5.09427197080768
30
0
41
1
10
53.9619116693097
20
-4.87633516730438
30
0
41
1
10
53.9238680205482
20
-4.65757809301371
30
0
41
1
10
53.8858400217236
20
-4.43802409843417
30
0
0
SPLINE
5
107
100
AcDbEntity
8
1
62
256
6
ByLayer
370
18
48
1
60
0
100
AcDbSpline
70
4
71
3
72
15
73
11
40
0
40
0
40
0
40
0
40
0.125
40
0.25
40
0.375
40
0.5
40
0.625
40
0.75
40
0.875
40
1
40
1
40
1
40
1
41
1
10
24.0000000000001
20
2.27807340047008
30
0
41
1
10
24.0000000000001
20
2.14433571520209
30
0
41
1
10
24.0000000000001
20
1.8511033385488
30
0
41
1
10
24.0000000000001
20
1.34341670509923
30
0
41
1
10
24
20
0.777324953062674
30
0
41
1
10
24
20
0.16643574003794
30
0
41
1
10
24
20
-0.475643276376047
30
0
41
1
10
24.0000000000001
20
-1.13334813703628
30
0
41
1
10
24
20
-1.79111488279963
30
0
41
1
10
24
20
-2.21981136475807
30
0
41
1
10
24
20
-2.42924195061156
30
0
0
SPLINE
5
108
100
AcDbEntity
8
1
62
256
6
ByLayer
370
18
48
1
60
0
100
AcDbSpline
70
4
71
3
72
59
73
55
40
0
40
0
40
0
40
0
40
0.0624999999999848
40
0.0624999999999848
40
0.124999999999969
40
0.124999999999969
40
0.156249999999962
40
0.156249999999962
40
0.187499999999954
40
0.187499999999954
40
0.218749999999947
40
0.218749999999947
40
0.249999999999939
40
0.249999999999939
40
0.265624999999938
40
0.265624999999938
40
0.281249999999937
40
0.312499999999935
40
0.312499999999935
40
0.328124999999932
40
0.328124999999932
40
0.335937499999933
40
0.335937499999933
40
0.343749999999933
40
0.374999999999935
40
0.406249999999937
40
0.406249999999937
40
0.421874999999938
40
0.421874999999938
40
0.437499999999939
40
0.437499999999939
40
0.468749999999942
40
0.468749999999942
40
0.499999999999946
40
0.499999999999946
40
0.515624999999947
40
0.515624999999947
40
0.531249999999949
40
0.531249999999949
40
0.562499999999951
40
0.562499999999951
40
0.624999999999957
40
0.624999999999957
40
0.687499999999963
40
0.687499999999963
40
0.718749999999967
40
0.718749999999967
40
0.74999999999997
40
0.74999999999997
40
0.812499999999978
40
0.812499999999978
40
0.874999999999985
40
0.874999999999985
40
1
40
1
40
1
40
1
41
1
10
15.6550494830549
20
2.14428345061955
30
0
41
1
10
15.7770695916835
20
2.14909812462818
30
0
41
1
10
15.898565850705
20
2.1577624772066
30
0
41
1
10
16.140174462798
20
2.18524363100894
30
0
41
1
10
16.2602911460078
20
2.20402963432966
30
0
41
1
10
16.4390303742201
20
2.24270787916277
30
0
41
1
10
16.4984817978082
20
2.25740701814002
30
0
41
1
10
16.61547314944
20
2.29064215733712
30
0
41
1
10
16.6731478555512
20
2.30919960183505
30
0
41
1
10
16.7865896916005
20
2.35080703202502
30
0
41
1
10
16.842357558741
20
2.37385539376112
30
0
41
1
10
16.9516517376789
20
2.42521063140617
30
0
41
1
10
17.0051791886795
20
2.45351500745525
30
0
41
1
10
17.0834661586686
20
2.50065165767452
30
0
41
1
10
17.1090390608783
20
2.51703606851501
30
0
41
1
10
17.1589131639004
20
2.55107978650437
30
0
41
1
10
17.2319053255154
20
2.60411103083547
30
0
41
1
10
17.299248579477
20
2.66322448878404
30
0
41
1
10
17.3625581839914
20
2.72664347366398
30
0
41
1
10
17.3829889793124
20
2.74850076258252
30
0
41
1
10
17.4125918192893
20
2.78239485340339
30
0
41
1
10
17.4223020813361
20
2.79389876913689
30
0
41
1
10
17.4412392510604
20
2.81711876047743
30
0
41
1
10
17.487427306809
20
2.87575378789302
30
0
41
1
10
17.5603704933883
20
2.98643713835847
30
0
41
1
10
17.6117425509797
20
3.09147437250667
30
0
41
1
10
17.6455753725417
20
3.17251885512067
30
0
41
1
10
17.6560897088463
20
3.19997948597032
30
0
41
1
10
17.675394013486
20
3.25496967271599
30
0
41
1
10
17.6842152070197
20
3.28256291595352
30
0
41
1
10
17.7083948719082
20
3.36559749232984
30
0
41
1
10
17.721476817413
20
3.42129231401188
30
0
41
1
10
17.7424681846172
20
3.53318648297969
30
0
41
1
10
17.7503752806667
20
3.58938626145257
30
0
41
1
10
17.7588722661652
20
3.67396473391409
30
0
41
1
10
17.7611425601474
20
3.7022042866414
30
0
41
1
10
17.7646305967833
20
3.75876288961425
30
0
41
1
10
17.7658486086473
20
3.7871291068052
30
0
41
1
10
17.7680108845716
20
3.87181466973334
30
0
41
1
10
17.7674827939538
20
3.92781317061656
30
0
41
1
10
17.7609180044508
20
4.09455249426787
30
0
41
1
10
17.7499489729617
20
4.20404329657231
30
0
41
1
10
17.7180533269551
20
4.42010661082637
30
0
41
1
10
17.6970995453096
20
4.52667574887235
30
0
41
1
10
17.6596059619142
20
4.68452496724836
30
0
41
1
10
17.6460890996762
20
4.73680967064402
30
0
41
1
10
17.6171908977285
20
4.84071739778676
30
0
41
1
10
17.6018749331134
20
4.89210683143702
30
0
41
1
10
17.5535779832888
20
5.04469108133154
30
0
41
1
10
17.5182603955169
20
5.14430683033422
30
0
41
1
10
17.4423344018034
20
5.33975005035259
30
0
41
1
10
17.4017206100045
20
5.43557537977225
30
0
41
1
10
17.2728336666789
20
5.71779487097402
30
0
41
1
10
17.1775813087306
20
5.89895883222354
30
0
41
1
10
17.0742153561348
20
6.07381214425948
30
0
0
SPLINE
5
109
100
AcDbEntity
8
1
62
256
6
ByLayer
370
18
48
1
60
0
100
AcDbSpline
70
4
71
3
72
56
73
52
40
0
40
0
40
0
40
0
40
0.0751408749288018
40
0.213869743689482
40
0.352598612450161
40
0.445084524957281
40
0.514448959337621
40
0.583813393717961
40
0.630056349971521
40
0.676299306225081
40
0.710981523415251
40
0.74566374060542
40
0.7687852187322
40
0.79190669685898
40
0.81502817498576
40
0.832369283580845
40
0.846820207410083
40
0.854045669324702
40
0.858380946473473
40
0.862716223622244
40
0.867051500771015
40
0.87283187030271
40
0.878612239834405
40
0.887282794131948
40
0.89595334842949
40
0.90751408749288
40
0.91907482655627
40
0.93063556561966
40
0.94219630468305
40
0.950866858980593
40
0.959537413278135
40
0.968207967575678
40
0.973988337107373
40
0.981213799021991
40
0.985549076170763
40
0.987716714745148
40
0.989884353319534
40
0.990968172606727
40
0.992051991893919
40
0.992593901537516
40
0.993045492907179
40
0.993316447728978
40
0.993451925139877
40
0.993587402550776
40
0.993722879961675
40
0.993948675646507
40
0.99440026701617
40
0.994942176659767
40
0.99602599594696
40
0.997109815234153
40
1
40
1
40
1
40
1
41
1
10
44.273357846317
20
1.7348783304507
30
0
41
1
10
43.7655718975447
20
2.08480948588416
30
0
41
1
10
42.3202859487724
20
3.07028927178888
30
0
41
1
10
39.9375000000001
20
4.6157323231358
30
0
41
1
10
37.4375
20
6.04851945219366
30
0
41
0.999999999999999
10
35.40625
20
7.04598213985472
30
0
41
1
10
33.84375
20
7.71152009792723
30
0
41
0.999999999999999
10
32.5937500000001
20
8.16765386769896
30
0
41
1
10
31.5
20
8.50637703774734
30
0
41
1
10
30.6406250000001
20
8.73252823770261
30
0
41
1
10
29.859375
20
8.9060073315116
30
0
41
0.999999999999999
10
29.2343750000001
20
9.02261324115262
30
0
41
1
10
28.6875
20
9.10835562039577
30
0
41
1
10
28.21875
20
9.17062589009876
30
0
41
1
10
27.7890625
20
9.21736825910662
30
0
41
1
10
27.4179687500001
20
9.24988469372399
30
0
41
0.999999999999999
10
27.154296875
20
9.26858822379371
30
0
41
1
10
26.9785156250001
20
9.27905069543507
30
0
41
0.999999999999999
10
26.87109375
20
9.28478938263139
30
0
41
1
10
26.7832031249999
20
9.28908232056283
30
0
41
1
10
26.685546875
20
9.29340475719872
30
0
41
1
10
26.578125
20
9.29758458982172
30
0
41
1
10
26.44140625
20
9.30206713724005
30
0
41
1
10
26.28515625
20
9.3059924160608
30
0
41
1
10
26.08984375
20
9.30909899661668
30
0
41
1
10
25.875
20
9.31020159462753
30
0
41
1
10
25.640625
20
9.30851090018172
30
0
41
1
10
25.4062500000001
20
9.30391885483965
30
0
41
1
10
25.1914062500001
20
9.29704267153309
30
0
41
1
10
24.99609375
20
9.288664461351
30
0
41
1
10
24.8203125
20
9.2794797541525
30
0
41
1
10
24.6640625000001
20
9.26985092669952
30
0
41
1
10
24.517578125
20
9.2596772704978
30
0
41
0.999999999999999
10
24.400390625
20
9.25071162492876
30
0
41
1
10
24.3076171875001
20
9.24303104363963
30
0
41
1
10
24.2490234375
20
9.23797289398027
30
0
41
1
10
24.2124023437501
20
9.23472514852486
30
0
41
1
10
24.18310546875
20
9.23207508388356
30
0
41
1
10
24.164794921875
20
9.23039717604496
30
0
41
1
10
24.1507568359375
20
9.22909834675506
30
0
41
0.999999999999999
10
24.1422119140626
20
9.22830312946796
30
0
41
1
10
24.1364135742188
20
9.22776123475167
30
0
41
1
10
24.1327514648437
20
9.22741817434342
30
0
41
0.999999999999999
10
24.1300048828125
20
9.22716047346706
30
0
41
1
10
24.1266479492188
20
9.22684501001617
30
0
41
0.999999999999998
10
24.1211547851564
20
9.22632771550524
30
0
41
1
10
24.1129150390624
20
9.2255487315975
30
0
41
0.999999999999999
10
24.0988769531251
20
9.22421397140165
30
0
41
1
10
24.0805664062501
20
9.22245675119223
30
0
41
0.999999999999999
10
24.0463867187501
20
9.21913620492106
30
0
41
1
10
24.01953125
20
9.21646899103384
30
0
41
1
10
24
20
9.21449838730976
30
0
0
SPLINE
5
10A
100
AcDbEntity
8
1
62
256
6
ByLayer
370
18
48
1
60
0
100
AcDbSpline
70
4
71
3
72
32
73
28
40
0
40
0
40
0
40
0
40
0.0476939809556409
40
0.0830052274525314
40
0.100660850700977
40
0.118316473949422
40
0.188938966943203
40
0.224250213440094
40
0.259561459936984
40
0.294872706433875
40
0.330183952930765
40
0.365495199427656
40
0.400806445924547
40
0.471428938918328
40
0.506740185415218
40
0.542051431912109
40
0.577362678408999
40
0.61267392490589
40
0.683296417899671
40
0.718607664396562
40
0.753918910893452
40
0.824541403887233
40
0.859852650384124
40
0.895163896881014
40
0.930475143377905
40
0.965786389874795
40
1
40
1
40
1
40
1
41
1
10
21.7072530681065
20
-3.8612329580217
30
0
41
1
10
22.0587203530147
20
-4.07007908162635
30
0
41
1
10
22.6704365026679
20
-4.42830254579434
30
0
41
1
10
23.4122287708843
20
-4.84989749102891
30
0
41
1
10
23.9326166560796
20
-5.13938312321039
30
0
41
1
10
24.7131360365773
20
-5.56692227597429
30
0
41
1
10
25.6235676675946
20
-6.04546057536447
30
0
41
1
10
26.663791607785
20
-6.56060100338311
30
0
41
1
10
27.4438368767401
20
-6.93008570267224
30
0
41
1
10
28.2237619985818
20
-7.28166042978324
30
0
41
1
10
29.0035409352088
20
-7.61449261923514
30
0
41
1
10
29.7831447916511
20
-7.92789910438242
30
0
41
1
10
30.8224171882937
20
-8.31855905489286
30
0
41
1
10
31.8614588710051
20
-8.66666542796159
30
0
41
1
10
32.9003801094548
20
-8.97026738226003
30
0
41
1
10
33.6795397874036
20
-9.17499265123175
30
0
41
1
10
34.4586909959825
20
-9.35624713995946
30
0
41
1
10
35.4976028394506
20
-9.56586339697589
30
0
41
1
10
36.5365970305849
20
-9.72664571804856
30
0
41
1
10
37.57575855381
20
-9.83784334507902
30
0
41
1
10
38.6150304607419
20
-9.91522350212782
30
0
41
1
10
39.6544283191455
20
-9.94176824528958
30
0
41
1
10
40.6939305258956
20
-9.91770958675167
30
0
41
1
10
41.4736198680364
20
-9.8739562542566
30
0
41
1
10
42.2533486590472
20
-9.80485039678211
30
0
41
1
10
43.0249948961428
20
-9.71184244382437
30
0
41
1
10
43.5367207714989
20
-9.63422586264539
30
0
41
1
10
43.788552410393
20
-9.59212496755765
30
0
0
SPLINE
5
10B
100
AcDbEntity
8
1
62
256
6
ByLayer
370
18
48
1
60
0
100
AcDbSpline
70
4
71
3
72
8
73
4
40
0
40
0
40
0
40
0
40
1
40
1
40
1
40
1
41
1
10
53.887926046194
20
-6.03052040689045
30
0
41
1
10
53.8547272018795
20
-6.16634855471992
30
0
41
1
10
53.8215824492758
20
-6.30111867056078
30
0
41
1
10
53.7884914628875
20
-6.43483693301127
30
0
0
SPLINE
5
10C
100
AcDbEntity
8
1
62
256
6
ByLayer
370
18
48
1
60
0
100
AcDbSpline
70
4
71
3
72
8
73
4
40
0
40
0
40
0
40
0
40
1
40
1
40
1
40
1
41
1
10
53.7884914628875
20
-6.43483693301127
30
0
41
1
10
53.5631890793284
20
-6.75912130441191
30
0
41
1
10
53.3399801402931
20
-7.06902715795519
30
0
41
1
10
53.1188268944579
20
-7.36481378309335
30
0
0
SPLINE
5
10D
100
AcDbEntity
8
1
62
256
6
ByLayer
370
18
48
1
60
0
100
AcDbSpline
70
4
71
3
72
8
73
4
40
0
40
0
40
0
40
0
40
1
40
1
40
1
40
1
41
1
10
53.1188268944579
20
-7.36481378309335
30
0
41
1
10
53.08579092687
20
-7.40640433553753
30
0
41
1
10
53.0527727808282
20
-7.44769709642304
30
0
41
1
10
53.0197724515258
20
-7.48869214606682
30
0
0
SPLINE
5
10E
100
AcDbEntity
8
1
62
256
6
ByLayer
370
18
48
1
60
0
100
AcDbSpline
70
4
71
3
72
10
73
6
40
0
40
0
40
0
40
0
40
0.5
40
0.5
40
1
40
1
40
1
40
1
41
1
10
24.0000000000001
20
-3.4330279342843
30
0
41
1
10
23.7241437791034
20
-3.29591785175211
30
0
41
1
10
23.4493183888643
20
-3.1560226361475
30
0
41
1
10
22.9017225779786
20
-2.87068001871538
30
0
41
1
10
22.6289777813877
20
-2.72516338494924
30
0
41
1
10
22.3574205969492
20
-2.57643802057478
30
0
0
SPLINE
5
10F
100
AcDbEntity
8
1
62
256
6
ByLayer
370
18
48
1
60
0
100
AcDbSpline
70
4
71
3
72
29
73
25
40
0
40
0
40
0
40
0
40
0.0452424648803254
40
0.0905030180513372
40
0.135781996942028
40
0.181079734373871
40
0.226396558617952
40
0.271732793451193
40
0.317088758211785
40
0.362464767853738
40
0.407861133000522
40
0.453278159997979
40
0.49871615096634
40
0.544175403851413
40
0.589656212475018
40
0.635158866584519
40
0.68068365190165
40
0.726230850170535
40
0.771800739204876
40
0.81739359293443
40
0.863009681450714
40
0.908649271051936
40
0.954312624287206
40
1
40
1
40
1
40
1
41
1
10
22.3574037357409
20
-2.57646962284289
30
0
41
1
10
22.3472343320116
20
-2.59555671558039
30
0
41
1
10
22.3268914587459
20
-2.63373853222404
30
0
41
1
10
22.2964992213805
20
-2.69113680589407
30
0
41
1
10
22.266188717226
20
-2.74864006971433
30
0
41
1
10
22.2359691517142
20
-2.8062556852671
30
0
41
1
10
22.2058380611194
20
-2.8639805088205
30
0
41
1
10
22.1757961102279
20
-2.92181422394103
30
0
41
1
10
22.1458431248632
20
-2.97975576678795
30
0
41
1
10
22.1159791556396
20
-3.03780428452348
30
0
41
1
10
22.0862041927483
20
-3.09595887830966
30
0
41
1
10
22.056518242439
20
-3.15421867218856
30
0
41
1
10
22.0269213064887
20
-3.21258279456504
30
0
41
1
10
21.9974133878088
20
-3.27105038319934
30
0
41
1
10
21.9679944885707
20
-3.32962058361062
30
0
41
1
10
21.9386646121039
20
-3.38829255031351
30
0
41
1
10
21.9094237571839
20
-3.44706544331154
30
0
41
1
10
21.8802719390089
20
-3.50593844074072
30
0
41
1
10
21.8512091109593
20
-3.56491069161362
30
0
41
1
10
21.8222354567968
20
-3.62398149216742
30
0
41
1
10
21.7933502993495
20
-3.68314962710752
30
0
41
1
10
21.7645561764833
20
-3.74241582988057
30
0
41
1
10
21.7358436175896
20
-3.80177359357231
30
0
41
1
10
21.7167849218876
20
-3.84140969550674
30
0
41
1
10
21.7072530681065
20
-3.8612329580217
30
0
0
SPLINE
5
110
100
AcDbEntity
8
1
62
256
6
ByLayer
370
18
48
1
60
0
100
AcDbSpline
70
4
71
3
72
8
73
4
40
0
40
0
40
0
40
0
40
1
40
1
40
1
40
1
41
1
10
52.820120921193
20
-7.31138962289688
30
0
41
1
10
52.8850975416276
20
-7.37460153967291
30
0
41
1
10
52.9516183783556
20
-7.43377989046115
30
0
41
1
10
53.0197724515259
20
-7.48869214606682
30
0
0
SPLINE
5
111
100
AcDbEntity
8
1
62
256
6
ByLayer
370
13
48
1
60
0
100
AcDbSpline
70
4
71
3
72
8
73
4
40
0
40
0
40
0
40
0
40
1
40
1
40
1
40
1
41
1
10
52.8201209204764
20
-7.31138962265345
30
0
41
1
10
52.7687850641471
20
-7.32900136487169
30
0
41
1
10
52.7174492078179
20
-7.34649942262979
30
0
41
1
10
52.6661133514886
20
-7.36387962665057
30
0
0
SPLINE
5
112
100
AcDbEntity
8
1
62
256
6
ByLayer
370
13
48
1
60
0
100
AcDbSpline
70
4
71
3
72
57
73
53
40
0
40
0
40
0
40
0
40
0.0410507276634182
40
0.200875606386182
40
0.320744265428255
40
0.440612924470327
40
0.520525363831709
40
0.580459693352746
40
0.640394022873782
40
0.680350242554473
40
0.720306462235164
40
0.750273626995682
40
0.7802407917562
40
0.800218901596546
40
0.820197011436891
40
0.840175121277236
40
0.855158703657495
40
0.867645022307711
40
0.873888181632819
40
0.877634077227884
40
0.881379972822949
40
0.885125868418014
40
0.8901203958781
40
0.895114923338186
40
0.902606714528316
40
0.910098505718445
40
0.920087560638618
40
0.930076615558791
40
0.940065670478964
40
0.950054725399136
40
0.957546516589266
40
0.965038307779395
40
0.972530098969525
40
0.977524626429611
40
0.983767785754719
40
0.987513681349784
40
0.989386629147316
40
0.991259576944849
40
0.992196050843615
40
0.993132524742381
40
0.993600761691764
40
0.993990959149584
40
0.994225077624275
40
0.994342136861621
40
0.994459196098967
40
0.994576255336313
40
0.994771354065222
40
0.995161551523041
40
0.995629788472424
40
0.996566262371191
40
0.997502736269957
40
1
40
1
40
1
40
1
41
1
10
47.4631806385091
20
-8.66796544159271
30
0
41
1
10
47.1421204256728
20
-8.71907797367192
30
0
41
1
10
45.5710602128364
20
-8.9416242923227
30
0
41
1
10
43.0625000000001
20
-9.07694312592207
30
0
41
1
10
39.9375000000002
20
-8.85358290611461
30
0
41
1
10
37.4375000000001
20
-8.41413325599589
30
0
41
1
10
35.4062500000001
20
-7.88945764176046
30
0
41
1
10
33.8437500000001
20
-7.40073914896317
30
0
41
1
10
32.5937500000001
20
-6.95488809851508
30
0
41
1
10
31.5000000000001
20
-6.52787767411519
30
0
41
1
10
30.6406250000001
20
-6.17031711047184
30
0
41
1
10
29.8593750000001
20
-5.82862786934228
30
0
41
1
10
29.2343750000001
20
-5.54440529460274
30
0
41
1
10
28.6875000000001
20
-5.28820632259706
30
0
41
1
10
28.2187500000001
20
-5.06366801319192
30
0
41
1
10
27.7890625000001
20
-4.85351139144345
30
0
41
1
10
27.4179687500001
20
-4.66889672364488
30
0
41
1
10
27.1542968750002
20
-4.53605128057939
30
0
41
1
10
26.9785156250002
20
-4.44675389950743
30
0
41
1
10
26.8710937500001
20
-4.3919484554909
30
0
41
1
10
26.783203125
20
-4.34696514446094
30
0
41
1
10
26.6855468750001
20
-4.29682715042645
30
0
41
1
10
26.5781250000001
20
-4.24147677340159
30
0
41
1
10
26.4414062500001
20
-4.17074648576593
30
0
41
1
10
26.2851562500001
20
-4.08951210999606
30
0
41
1
10
26.0898437500001
20
-3.98738411996683
30
0
41
1
10
25.8750000000002
20
-3.87431145656868
30
0
41
1
10
25.6406250000001
20
-3.75007862834283
30
0
41
1
10
25.4062500000002
20
-3.62499682029474
30
0
41
1
10
25.1914062500001
20
-3.50958960367899
30
0
41
1
10
24.9960937500001
20
-3.40410165806301
30
0
41
1
10
24.8203125000001
20
-3.30873459178645
30
0
41
1
10
24.6640625000002
20
-3.22359556069335
30
0
41
1
10
24.5175781250001
20
-3.14349939868293
30
0
41
1
10
24.4003906250001
20
-3.07922659364536
30
0
41
1
10
24.3076171875002
20
-3.02821008239039
30
0
41
1
10
24.2490234375001
20
-2.99594241068567
30
0
41
1
10
24.2124023437501
20
-2.97575582582263
30
0
41
1
10
24.1831054687501
20
-2.95959508908245
30
0
41
1
10
24.1647949218751
20
-2.94948987182724
30
0
41
1
10
24.1507568359376
20
-2.94173981602651
30
0
41
1
10
24.1422119140626
20
-2.93702138035158
30
0
41
1
10
24.1364135742188
20
-2.93381908703569
30
0
41
1
10
24.1327514648439
20
-2.93179640939192
30
0
41
1
10
24.1300048828126
20
-2.93027931290919
30
0
41
1
10
24.1266479492188
20
-2.92842497607649
30
0
41
1
10
24.1211547851564
20
-2.92539037165426
30
0
41
1
10
24.1129150390626
20
-2.92083780455613
30
0
41
1
10
24.0988769531252
20
-2.91307993198276
30
0
41
1
10
24.0805664062501
20
-2.90295746030114
30
0
41
1
10
24.0463867187501
20
-2.88405349092975
30
0
41
1
10
24.0195312500001
20
-2.86918791467704
30
0
41
1
10
24.0000000000001
20
-2.85837008013544
30
0
0
SPLINE
5
113
100
AcDbEntity
8
1
62
256
6
ByLayer
370
18
48
1
60
0
100
AcDbSpline
70
4
71
3
72
8
73
4
40
0
40
0
40
0
40
0
40
1
40
1
40
1
40
1
41
1
10
53.0197724515259
20
-7.48869214606682
30
0
41
1
10
52.7590969617383
20
-7.59112705582333
30
0
41
1
10
52.4987726998397
20
-7.69052182668207
30
0
41
1
10
52.2383843812647
20
-7.78650123673549
30
0
0
SPLINE
5
114
100
AcDbEntity
8
1
62
256
6
ByLayer
370
18
48
1
60
0
100
AcDbSpline
70
4
71
3
72
65
73
61
40
0
40
0
40
0
40
0
40
0.010458446311632
40
0.010458446311632
40
0.0275195075821218
40
0.0275195075821218
40
0.0445805688526117
40
0.0445805688526117
40
0.0787026913935913
40
0.0787026913935913
40
0.112824813934571
40
0.112824813934571
40
0.18106905901653
40
0.18106905901653
40
0.215191181557509
40
0.215191181557509
40
0.249313304098489
40
0.249313304098489
40
0.283435426639468
40
0.283435426639468
40
0.317557549180447
40
0.317557549180447
40
0.334618610450937
40
0.334618610450937
40
0.351679671721427
40
0.351679671721427
40
0.385801794262407
40
0.385801794262407
40
0.419923916803387
40
0.419923916803387
40
0.454046039344367
40
0.454046039344367
40
0.488168161885348
40
0.488168161885348
40
0.522290284426328
40
0.522290284426328
40
0.590534529508287
40
0.590534529508287
40
0.658778774590247
40
0.658778774590247
40
0.692900897131226
40
0.692900897131226
40
0.70143142776647
40
0.70143142776647
40
0.709961958401714
40
0.727023019672201
40
0.727023019672201
40
0.761145142213176
40
0.761145142213176
40
0.795267264754151
40
0.795267264754151
40
0.829389387295125
40
0.829389387295125
40
0.8635115098361
40
0.8635115098361
40
0.897633632377075
40
0.897633632377075
40
0.93175575491805
40
0.93175575491805
40
1
40
1
40
1
40
1
41
1
10
50.5666964581607
20
-8.35419258195412
30
0
41
1
10
50.4734838144839
20
-8.38310650829607
30
0
41
1
10
50.3802436659018
20
-8.41156329857583
30
0
41
1
10
50.1348209526543
20
-8.48522826184154
30
0
41
1
10
49.9825064280319
20
-8.52968941114167
30
0
41
1
10
49.6781967172163
20
-8.6159768205884
30
0
41
1
10
49.526198799137
20
-8.65780758662595
30
0
41
1
10
49.0706214977987
20
-8.77937456656349
30
0
41
1
10
48.7674551090921
20
-8.85520071865147
30
0
41
1
10
48.1620323980355
20
-8.99613723683086
30
0
41
1
10
47.8597658851966
20
-9.06125858661423
30
0
41
1
10
46.9536344345283
20
-9.24105259220639
30
0
41
1
10
46.3504918552367
20
-9.34006009054983
30
0
41
1
10
45.4457313064721
20
-9.45621322307571
30
0
41
1
10
45.1441374067779
20
-9.48953737277347
30
0
41
1
10
44.5406738293824
20
-9.54516940335606
30
0
41
1
10
44.2388016388738
20
-9.56749093483739
30
0
41
1
10
43.6345245510038
20
-9.60070826548082
30
0
41
1
10
43.3321300617088
20
-9.61152306178002
30
0
41
1
10
42.726316236554
20
-9.62238048092414
30
0
41
1
10
42.422899429779
20
-9.62244190044268
30
0
41
1
10
41.9668162766049
20
-9.61427937760203
30
0
41
1
10
41.8145241422855
20
-9.61017257609478
30
0
41
1
10
41.5104674078153
20
-9.5991533565539
30
0
41
1
10
41.3586322200209
20
-9.59223887450048
30
0
41
1
10
40.9036681017525
20
-9.56725017553427
30
0
41
1
10
40.601097850631
20
-9.54488078397054
30
0
41
1
10
39.9970325723644
20
-9.48908009285788
30
0
41
1
10
39.6954809332622
20
-9.45579780196468
30
0
41
1
10
39.0930330427737
20
-9.37882801656465
30
0
41
1
10
38.7921595753437
20
-9.33508728317025
30
0
41
1
10
38.1909480276466
20
-9.23699487527611
30
0
41
1
10
37.8906122472518
20
-9.18263280038144
30
0
41
1
10
37.2902374542342
20
-9.06331002953348
30
0
41
1
10
36.9901955539372
20
-8.99834813448553
30
0
41
1
10
36.089875470985
20
-8.78866845270903
30
0
41
1
10
35.4894751947107
20
-8.62898740980609
30
0
41
1
10
34.2863613171308
20
-8.2692132022604
30
0
41
1
10
33.6836096466973
20
-8.06917995194522
30
0
41
1
10
32.7756195380637
20
-7.74083615982414
30
0
41
1
10
32.4723195275535
20
-7.62660900398296
30
0
41
1
10
32.0921830982142
20
-7.47813636567426
30
0
41
1
10
32.0160777825243
20
-7.44814693832177
30
0
41
1
10
31.8639063538413
20
-7.38765605199552
30
0
41
1
10
31.6357605545532
20
-7.29617263402173
30
0
41
1
10
31.4079371069893
20
-7.20245550685044
30
0
41
1
10
30.9526903173889
20
-7.01205767360779
30
0
41
1
10
30.6497321994997
20
-6.88116037829568
30
0
41
1
10
30.0446910855146
20
-6.61158890891312
30
0
41
1
10
29.7425925567734
20
-6.472953822552
30
0
41
1
10
29.1388537314831
20
-6.18865126046987
30
0
41
1
10
28.8371982295555
20
-6.04303427439459
30
0
41
1
10
28.2340379104604
20
-5.74522685734829
30
0
41
1
10
27.9325507352541
20
-5.5929795565894
30
0
41
1
10
27.3295063913316
20
-5.28201189685089
30
0
41
1
10
27.0279527327668
20
-5.12327306649763
30
0
41
1
10
26.4244012231953
20
-4.79993234104595
30
0
41
1
10
26.1224008951867
20
-4.63534254481135
30
0
41
1
10
25.2152462431397
20
-4.13350376295955
30
0
41
1
10
24.6089524446542
20
-3.7881798399753
30
0
41
1
10
24.0000000000001
20
-3.4330279342843
30
0
0
SPLINE
5
115
100
AcDbEntity
8
1
62
256
6
ByLayer
370
18
48
1
60
0
100
AcDbSpline
70
4
71
3
72
38
73
34
40
0
40
0
40
0
40
0
40
0.026231034364188
40
0.0558671719251372
40
0.070685240705612
40
0.0855033094860864
40
0.100321378266561
40
0.115139447047036
40
0.174411722168934
40
0.204047859729883
40
0.233683997290832
40
0.263320134851782
40
0.292956272412731
40
0.352228547534629
40
0.367046616315104
40
0.381864685095579
40
0.411500822656528
40
0.470773097778426
40
0.500409235339375
40
0.530045372900325
40
0.559681510461274
40
0.589317648022223
40
0.618953785583172
40
0.648589923144122
40
0.70786219826602
40
0.737498335826969
40
0.767134473387918
40
0.826406748509817
40
0.841224817290291
40
0.856042886070766
40
0.885679023631715
40
0.944951298753614
40
1
40
1
40
1
40
1
41
1
10
27.5394902926814
20
9.92042630804286
30
0
41
1
10
27.76921924378
20
9.91206441083654
30
0
41
1
10
28.2584337846578
20
9.88467422585836
30
0
41
1
10
28.877205097624
20
9.82455513870559
30
0
41
1
10
29.3959010297916
20
9.75753284815855
30
0
41
1
10
29.7848491328228
20
9.69879063465962
30
0
41
1
10
30.1737234569832
20
9.63170098126506
30
0
41
1
10
30.9513202669447
20
9.48115102032321
30
0
41
1
10
31.8581844019473
20
9.25725906999435
30
0
41
1
10
32.8943710217448
20
8.93898496699484
30
0
41
1
10
33.6714624516991
20
8.66959073555321
30
0
41
1
10
34.4485543925455
20
8.37049293979661
30
0
41
1
10
35.4847649112284
20
7.93318937502724
30
0
41
1
10
36.3915952278034
20
7.5021492264992
30
0
41
1
10
37.1690691323295
20
7.10147633132161
30
0
41
1
10
37.6874399184162
20
6.82628011566763
30
0
41
1
10
38.5947298961107
20
6.32357916341709
30
0
41
1
10
39.6318902102135
20
5.70436462753611
30
0
41
1
10
40.6692490379169
20
5.04728214746768
30
0
41
1
10
41.4473511381416
20
4.53690528785492
30
0
41
1
10
42.2255017963244
20
4.01091867495902
30
0
41
1
10
43.0036751305003
20
3.47112723144593
30
0
41
1
10
43.7818106087164
20
2.91951146326358
30
0
41
1
10
44.8194122662322
20
2.17045299534118
30
0
41
1
10
45.8576967513694
20
1.40470279651126
30
0
41
1
10
46.8977358263365
20
0.629367269372921
30
0
41
1
10
47.9392260162811
20
-0.150072896558498
30
0
41
1
10
48.8529589507401
20
-0.834115720935671
30
0
41
1
10
49.638597847259
20
-1.41729970632574
30
0
41
1
10
50.1630086206866
20
-1.8049605744342
30
0
41
1
10
51.0825731551395
20
-2.47952235491323
30
0
41
1
10
52.3645777600203
20
-3.40021481060279
30
0
41
1
10
53.3900222417905
20
-4.10602351417739
30
0
41
1
10
53.8858400218229
20
-4.43802409804664
30
0
0
SPLINE
5
116
100
AcDbEntity
8
1
62
256
6
ByLayer
370
18
48
1
60
0
100
AcDbSpline
70
4
71
3
72
8
73
4
40
0
40
0
40
0
40
0
40
1
40
1
40
1
40
1
41
1
10
53.8858400219968
20
-4.43802409838452
30
0
41
1
10
53.853344606031
20
-4.23273713620549
30
0
41
1
10
53.8209088331399
20
-4.02713487223753
30
0
41
1
10
53.7885323237558
20
-3.82121931585832
30
0
0
SPLINE
5
117
100
AcDbEntity
8
1
62
256
6
ByLayer
370
18
48
1
60
0
100
AcDbSpline
70
4
71
3
72
8
73
4
40
0
40
0
40
0
40
0
40
1
40
1
40
1
40
1
41
1
10
53.7885323237557
20
-3.82121931585832
30
0
41
1
10
53.5590036016214
20
-3.33129726717064
30
0
41
1
10
53.331926077595
20
-2.83537593213328
30
0
41
1
10
53.1072564542586
20
-2.33356128080584
30
0
0
SPLINE
5
118
100
AcDbEntity
8
1
62
256
6
ByLayer
370
18
48
1
60
0
100
AcDbSpline
70
4
71
3
72
8
73
4
40
0
40
0
40
0
40
0
40
1
40
1
40
1
40
1
41
1
10
53.1072564542582
20
-2.33356128080604
30
0
41
1
10
53.0539456385402
20
-2.2218529266411
30
0
41
1
10
53.0006874144868
20
-2.10986866032817
30
0
41
1
10
52.9474818025712
20
-1.99760837445734
30
0
0
SPLINE
5
119
100
AcDbEntity
8
1
62
256
6
ByLayer
370
18
48
1
60
0
100
AcDbSpline
70
4
71
3
72
8
73
4
40
0
40
0
40
0
40
0
40
1
40
1
40
1
40
1
41
1
10
52.7427497064827
20
-1.3617949914084
30
0
41
1
10
52.8090171453932
20
-1.57087970662931
30
0
41
1
10
52.8772136147564
20
-1.78274884788539
30
0
41
1
10
52.9474818025711
20
-1.99760837445825
30
0
0
SPLINE
5
11A
100
AcDbEntity
8
1
62
256
6
ByLayer
370
13
48
1
60
0
100
AcDbSpline
70
4
71
3
72
12
73
8
40
0
40
0
40
0
40
0
40
0.0628948975578072
40
0.253794110702565
40
0.444693323847322
40
0.731042143564458
40
1
40
1
40
1
40
1
41
1
10
52.7427497066554
20
-1.36179499116153
30
0
41
1
10
52.5368331377703
20
-1.22364882769469
30
0
41
1
10
51.7059165688852
20
-0.664468282655349
30
0
41
1
10
50.2500000000001
20
0.322332707503279
30
0
41
1
10
48.0625000000002
20
1.80967358172876
30
0
41
1
10
45.6194376472117
20
3.40667664422304
30
0
41
1
10
43.8013752944233
20
4.50101155582919
30
0
41
1
10
42.9208129416348
20
4.99855629367136
30
0
0
SPLINE
5
11B
100
AcDbEntity
8
1
62
256
6
ByLayer
370
18
48
1
60
0
100
AcDbSpline
70
4
71
3
72
66
73
62
40
0
40
0
40
0
40
0
40
0.0400488591965356
40
0.0400488591965356
40
0.0800977183930711
40
0.0800977183930711
40
0.120146577589607
40
0.120146577589607
40
0.130158792388741
40
0.130158792388741
40
0.140171007187875
40
0.140171007187875
40
0.160195436786141
40
0.160195436786141
40
0.200244295982674
40
0.200244295982674
40
0.240293155179207
40
0.240293155179207
40
0.280342014375741
40
0.280342014375741
40
0.320390873572274
40
0.320390873572274
40
0.400488591965341
40
0.400488591965341
40
0.440537451161874
40
0.440537451161874
40
0.460561880760141
40
0.460561880760141
40
0.480586310358408
40
0.480586310358408
40
0.52063516955494
40
0.52063516955494
40
0.560684028751472
40
0.560684028751472
40
0.600732887948003
40
0.600732887948003
40
0.640781747144535
40
0.640781747144535
40
0.680830606341067
40
0.680830606341067
40
0.700855035939334
40
0.700855035939334
40
0.720879465537601
40
0.720879465537601
40
0.760928324734134
40
0.760928324734134
40
0.7809527543324
40
0.7809527543324
40
0.790964969131534
40
0.790964969131534
40
0.800977183930667
40
0.800977183930667
40
0.8410260431272
40
0.8410260431272
40
0.881074902323734
40
0.881074902323734
40
0.921123761520267
40
0.921123761520267
40
0.9611726207168
40
0.9611726207168
40
1
40
1
40
1
40
1
41
1
10
52.9474818025771
20
-1.99760837445945
30
0
41
1
10
52.6444251515188
20
-1.78254590259456
30
0
41
1
10
52.3415019314539
20
-1.566231739958
30
0
41
1
10
51.7353736488181
20
-1.13185263866052
30
0
41
1
10
51.4321881053318
20
-0.913761382535597
30
0
41
1
10
50.8254492113341
20
-0.475915086750803
30
0
41
1
10
50.5218980351439
20
-0.256156324960472
30
0
41
1
10
50.1421113483219
20
0.0194554536287512
30
0
41
1
10
50.0661784446066
20
0.0745914739094644
30
0
41
1
10
49.9145063647408
20
0.184758877803148
30
0
41
1
10
49.8387434888239
20
0.239807490528108
30
0
41
1
10
49.6116562566788
20
0.404821794000014
30
0
41
1
10
49.4605391400859
20
0.51465970478182
30
0
41
1
10
49.0077663713154
20
0.84338307314502
30
0
41
1
10
48.7066617549193
20
1.06145995443151
30
0
41
1
10
48.1051842177297
20
1.49444302061741
30
0
41
1
10
47.8048072979181
20
1.70934510815695
30
0
41
1
10
47.2045114456638
20
2.13558753458619
30
0
41
1
10
46.9046030174951
20
2.34693270095948
30
0
41
1
10
46.3049123216779
20
2.76557794660979
30
0
41
1
10
46.0050991394036
20
2.97286363770843
30
0
41
1
10
45.1050754358318
20
3.58780238818858
30
0
41
1
10
44.5043536783483
20
3.98861125818689
30
0
41
1
10
43.5998202143479
20
4.57243790121208
30
0
41
1
10
43.2977343944825
20
4.76412578502686
30
0
41
1
10
42.8432797807542
20
5.04678190341846
30
0
41
1
10
42.6915349232696
20
5.14021410986024
30
0
41
1
10
42.3877131255825
20
5.32525922125654
30
0
41
1
10
42.2360642132693
20
5.4166108939898
30
0
41
1
10
41.7818189461782
20
5.6870454568944
30
0
41
1
10
41.4799109530316
20
5.86251723696284
30
0
41
1
10
40.8773818823975
20
6.20332350307552
30
0
41
1
10
40.5767944965841
20
6.36862231518526
30
0
41
1
10
39.9763556533999
20
6.68855902847037
30
0
41
1
10
39.6764361312351
20
6.84325390641658
30
0
41
1
10
39.0767459416624
20
7.14184858946564
30
0
41
1
10
38.7770037218742
20
7.28573387228536
30
0
41
1
10
38.1774311275485
20
7.56215395435868
30
0
41
1
10
37.8776011822926
20
7.69468855028279
30
0
41
1
10
37.4275194581817
20
7.88446549960412
30
0
41
1
10
37.2774360788279
20
7.94621374326073
30
0
41
1
10
36.9770217154423
20
8.06682556204649
30
0
41
1
10
36.8266961013654
20
8.12568023948106
30
0
41
1
10
36.3753160768754
20
8.29773910799614
30
0
41
1
10
36.0738560458354
20
8.40645345187505
30
0
41
1
10
35.6205441748513
20
8.56004906384865
30
0
41
1
10
35.4692527126861
20
8.60966710064307
30
0
41
1
10
35.2419900771401
20
8.68165167821945
30
0
41
1
10
35.1661816396318
20
8.70523912802057
30
0
41
1
10
35.0144479943026
20
8.75158864520975
30
0
41
1
10
34.9384992632677
20
8.77435777385878
30
0
41
1
10
34.5586989505029
20
8.88604085917368
30
0
41
1
10
34.2559542781232
20
8.96807774991487
30
0
41
1
10
33.6520239818992
20
9.11762184142577
30
0
41
1
10
33.3508167867004
20
9.18517345730717
30
0
41
1
10
32.7493597731626
20
9.30581166625228
30
0
41
1
10
32.4491183977013
20
9.35885529173589
30
0
41
1
10
31.8489986445609
20
9.45068812846361
30
0
41
1
10
31.5491325708116
20
9.48950259581133
30
0
41
1
10
30.9586856592853
20
9.55154535215556
30
0
41
1
10
30.6681120667344
20
9.57517061081128
30
0
41
1
10
30.3774345250228
20
9.59175573135835
30
0
0
SPLINE
5
11C
100
AcDbEntity
8
1
62
256
6
ByLayer
370
18
48
1
60
0
100
AcDbSpline
70
4
71
3
72
36
73
32
40
0
40
0
40
0
40
0
40
0.131332701205385
40
0.131332701205385
40
0.196999051808077
40
0.196999051808077
40
0.229832227109424
40
0.229832227109424
40
0.262665402410772
40
0.393998103616161
40
0.393998103616161
40
0.426831278917508
40
0.426831278917508
40
0.459664454218854
40
0.525330804821548
40
0.525330804821548
40
0.590997155424241
40
0.590997155424241
40
0.623830330725587
40
0.623830330725587
40
0.656663506026933
40
0.656663506026933
40
0.787996207232318
40
0.787996207232318
40
0.919328908437703
40
0.919328908437703
40
0.952162083739049
40
0.952162083739049
40
0.984995259040395
40
0.984995259040395
40
1
40
1
40
1
40
1
41
1
10
24.0000000000001
20
-5.9307129147364
30
0
41
1
10
24.6171613503222
20
-6.25340798300641
30
0
41
1
10
25.2332575933227
20
-6.56128599411593
30
0
41
1
10
26.1577714640006
20
-6.99867800029287
30
0
41
1
10
26.4660059310651
20
-7.14039733489179
30
0
41
1
10
26.9287112601859
20
-7.34654493722817
30
0
41
1
10
27.0830024019994
20
-7.41418727025976
30
0
41
1
10
27.3913972617201
20
-7.54713529938599
30
0
41
1
10
28.1621323586283
20
-7.87376090733548
30
0
41
1
10
28.9321526253772
20
-8.17119992014582
30
0
41
1
10
29.7032785516155
20
-8.44371196694919
30
0
41
1
10
29.8576023449737
20
-8.49698038371244
30
0
41
1
10
30.1661288856454
20
-8.6008900387254
30
0
41
1
10
30.6287531351341
20
-8.75282472686203
30
0
41
1
10
31.091060554732
20
-8.89286541258713
30
0
41
1
10
31.7074858892362
20
-9.06884163069353
30
0
41
1
10
32.0157033498277
20
-9.15145920156041
30
0
41
1
10
32.478277485156
20
-9.26715088361749
30
0
41
1
10
32.6325209726201
20
-9.30434438954282
30
0
41
1
10
32.9410897792689
20
-9.37594105770404
30
0
41
1
10
33.0952666735378
20
-9.41030944523496
30
0
41
1
10
33.8657203094195
20
-9.57496879678808
30
0
41
1
10
34.4807052707023
20
-9.68369728672877
30
0
41
1
10
35.7106639609228
20
-9.85438822950513
30
0
41
1
10
36.3256370614875
20
-9.91638831804465
30
0
41
1
10
37.0960239709902
20
-9.96407541346392
30
0
41
1
10
37.2501846877641
20
-9.97212129852872
30
0
41
1
10
37.5587140474617
20
-9.98521323613321
30
0
41
1
10
37.7130001545563
20
-9.99025373401875
30
0
41
1
10
37.9375911026171
20
-9.9954017835754
30
0
41
1
10
38.0080179530491
20
-9.99670246533952
30
0
41
1
10
38.0784287986867
20
-9.99768960835308
30
0
0
SPLINE
5
11D
100
AcDbEntity
8
1
62
256
6
ByLayer
370
18
48
1
60
0
100
AcDbSpline
70
4
71
3
72
28
73
24
40
0
40
0
40
0
40
0
40
0.071498382673443
40
0.112160925451704
40
0.132492196840834
40
0.152823468229965
40
0.234148553786486
40
0.274811096564747
40
0.315473639343007
40
0.356136182121268
40
0.396798724899529
40
0.43746126767779
40
0.47812381045605
40
0.559448896012572
40
0.600111438790833
40
0.640773981569093
40
0.681436524347354
40
0.722099067125615
40
0.803424152682136
40
0.844086695460397
40
0.884749238238658
40
0.966074323795179
40
1
40
1
40
1
40
1
41
1
10
21.3890825871197
20
-4.36979783382361
30
0
41
1
10
21.846615117107
20
-4.63699680326511
30
0
41
1
10
22.5644256358105
20
-5.04711219241662
30
0
41
1
10
23.4123006596867
20
-5.5117255700701
30
0
41
1
10
23.9326837078469
20
-5.78970470636656
30
0
41
1
10
24.7131962520175
20
-6.19918657045554
30
0
41
1
10
25.6236226313296
20
-6.65435484807045
30
0
41
1
10
26.6638594397892
20
-7.13965371677833
30
0
41
1
10
27.4439096028172
20
-7.4852260172795
30
0
41
1
10
28.2238255936441
20
-7.8115389862636
30
0
41
1
10
29.0035961824285
20
-8.11777925865758
30
0
41
1
10
29.7832097905109
20
-8.40319463049619
30
0
41
1
10
30.8224875981089
20
-8.75490256791704
30
0
41
1
10
31.8615260872459
20
-9.06204800519018
30
0
41
1
10
32.9004426424888
20
-9.32252841370985
30
0
41
1
10
33.6795992596559
20
-9.49400479016714
30
0
41
1
10
34.4587552785667
20
-9.64115354546416
30
0
41
1
10
35.4976682408198
20
-9.80441272178257
30
0
41
1
10
36.5366683307734
20
-9.9177270940738
30
0
41
1
10
37.5758231175575
20
-9.9802003860913
30
0
41
1
10
38.6150871910199
20
-10.0085059243217
30
0
41
1
10
39.6114417877653
20
-9.9865429044365
30
0
41
1
10
40.3480162178737
20
-9.93608973414277
30
0
41
1
10
40.5648426606257
20
-9.91827970325355
30
0
0
SPLINE
5
11E
100
AcDbEntity
8
1
62
256
6
ByLayer
370
18
48
1
60
0
100
AcDbSpline
70
4
71
1
72
4
73
2
40
0
40
0
40
1
40
1
41
1
10
23.9999999001255
20
-5.92891992379134
30
0
41
1
10
24.0000000998745
20
-5.93071291405968
30
0
0
SPLINE
5
11F
100
AcDbEntity
8
1
62
256
6
ByLayer
370
18
48
1
60
0
100
AcDbSpline
70
4
71
3
72
8
73
4
40
0
40
0
40
0
40
0
40
1
40
1
40
1
40
1
41
1
10
53.84307716275
20
-5.08631011752627
30
0
41
1
10
53.8953709936872
20
-5.08887376060713
30
0
41
1
10
53.9476786231692
20
-5.09152584909879
30
0
41
1
10
54
20
-5.09426604455911
30
0
0
SPLINE
5
120
100
AcDbEntity
8
1
62
256
6
ByLayer
370
18
48
1
60
0
100
AcDbSpline
70
4
71
3
72
8
73
4
40
0
40
0
40
0
40
0
40
1
40
1
40
1
40
1
41
1
10
53.6424468614265
20
-5.06888433638639
30
0
41
1
10
53.7093213692542
20
-5.0745542030098
30
0
41
1
10
53.7761981342633
20
-5.08036267601756
30
0
41
1
10
53.8430771623977
20
-5.08631012041209
30
0
0
SPLINE
5
121
100
AcDbEntity
8
1
62
256
6
ByLayer
370
18
48
1
60
0
100
AcDbSpline
70
4
71
3
72
40
73
36
40
0
40
0
40
0
40
0
40
0.0073526213085707
40
0.0218209953829426
40
0.0507577435316864
40
0.0796944916804301
40
0.0941628657548022
40
0.108631239829174
40
0.123099613903546
40
0.137567987977918
40
0.195441484275405
40
0.224378232424149
40
0.253314980572893
40
0.282251728721636
40
0.31118847687038
40
0.369061973167868
40
0.38353034724224
40
0.397998721316611
40
0.426935469465355
40
0.484808965762843
40
0.513745713911587
40
0.54268246206033
40
0.571619210209074
40
0.600555958357818
40
0.629492706506562
40
0.658429454655305
40
0.716302950952793
40
0.745239699101536
40
0.77417644725028
40
0.832049943547768
40
0.84651831762214
40
0.860986691696512
40
0.889923439845255
40
0.947796936142743
40
1
40
1
40
1
40
1
41
1
10
26.8628629762855
20
9.97308452555197
30
0
41
1
10
26.9288318576372
20
9.9695342911686
30
0
41
1
10
27.1246050609782
20
9.95790263950076
30
0
41
1
10
27.5799318810155
20
9.92335847965464
30
0
41
1
10
28.2287236408239
20
9.85267843141082
30
0
41
1
10
28.8772920590196
20
9.7538073297257
30
0
41
1
10
29.3959937563569
20
9.65811561465523
30
0
41
1
10
29.7849473445619
20
9.57796425518384
30
0
41
1
10
30.1738236706128
20
9.48958100387503
30
0
41
1
10
30.9514269336911
20
9.29667786387759
30
0
41
1
10
31.8582873322017
20
9.02455115896521
30
0
41
1
10
32.8944713252624
20
8.65251775690535
30
0
41
1
10
33.671558201334
20
8.343799004147
30
0
41
1
10
34.4486526046088
20
8.00644232503893
30
0
41
1
10
35.4848610718705
20
7.5199411181616
30
0
41
1
10
36.3917007435657
20
7.04838347478062
30
0
41
1
10
37.1691754780967
20
6.61479458526148
30
0
41
1
10
37.68754302987
20
6.31812862327229
30
0
41
1
10
38.5948231632713
20
5.77957474967243
30
0
41
1
10
39.6319903415236
20
5.12319935870929
30
0
41
1
10
40.6693535554475
20
4.43271081084214
30
0
41
1
10
41.4474507991869
20
3.89950813731966
30
0
41
1
10
42.2255988078495
20
3.35288168275213
30
0
41
1
10
43.0037750245004
20
2.79471866674007
30
0
41
1
10
43.7819099263166
20
2.2269831083743
30
0
41
1
10
44.8195116792722
20
1.45969577304618
30
0
41
1
10
45.8578089173694
20
0.68055782412921
30
0
41
1
10
46.8978276189422
20
-0.10322219141932
30
0
41
1
10
47.9393264174862
20
-0.88767999996989
30
0
41
1
10
48.8530833810574
20
-1.57168601445571
30
0
41
1
10
49.6386854144785
20
-2.15159820311564
30
0
41
1
10
50.1630871968234
20
-2.53620345880418
30
0
41
1
10
51.0826640866861
20
-3.20314611997057
30
0
41
1
10
52.3506300219638
20
-4.0970937843588
30
0
41
1
10
53.361725122967
20
-4.77407240625652
30
0
41
1
10
53.843077163102
20
-5.0863101146287
30
0
0
SPLINE
5
122
100
AcDbEntity
8
1
62
256
6
ByLayer
370
18
48
1
60
0
100
AcDbSpline
70
4
71
3
72
71
73
67
40
0
40
0
40
0
40
0
40
0.0624999999999952
40
0.0624999999999952
40
0.0937499999999928
40
0.0937499999999928
40
0.12499999999999
40
0.12499999999999
40
0.156249999999988
40
0.156249999999988
40
0.187499999999986
40
0.187499999999986
40
0.203124999999984
40
0.203124999999984
40
0.218749999999983
40
0.218749999999983
40
0.249999999999981
40
0.249999999999981
40
0.312499999999976
40
0.312499999999976
40
0.328124999999975
40
0.335937499999975
40
0.335937499999975
40
0.343749999999975
40
0.343749999999975
40
0.374999999999976
40
0.374999999999976
40
0.43749999999998
40
0.43749999999998
40
0.453124999999981
40
0.453124999999981
40
0.460937499999982
40
0.460937499999982
40
0.468749999999984
40
0.468749999999984
40
0.499999999999987
40
0.499999999999987
40
0.562499999999993
40
0.562499999999993
40
0.578124999999995
40
0.585937499999996
40
0.585937499999996
40
0.593749999999996
40
0.593749999999996
40
0.624999999999999
40
0.624999999999999
40
0.687500000000003
40
0.687500000000003
40
0.703125000000004
40
0.710937500000005
40
0.710937500000005
40
0.718750000000006
40
0.718750000000006
40
0.750000000000005
40
0.750000000000005
40
0.812500000000004
40
0.812500000000004
40
0.828125000000004
40
0.828125000000004
40
0.843750000000004
40
0.843750000000004
40
0.875000000000004
40
0.875000000000004
40
0.937500000000002
40
0.937500000000002
40
1
40
1
40
1
40
1
41
1
10
24.0000000000002
20
9.9139142518606
30
0
41
1
10
24.6191639649078
20
9.97500672329423
30
0
41
1
10
25.2366452145615
20
10.003549757545
30
0
41
1
10
26.1635740943615
20
9.99771074648581
30
0
41
1
10
26.4726709414602
20
9.98763764663653
30
0
41
1
10
27.0917006527768
20
9.95103991694293
30
0
41
1
10
27.4006922060223
20
9.92467567106814
30
0
41
1
10
28.018144334616
20
9.85590405902974
30
0
41
1
10
28.3266168869824
20
9.81350086918289
30
0
41
1
10
28.9436133588767
20
9.71292660842784
30
0
41
1
10
29.2521310162801
20
9.65479936571685
30
0
41
1
10
29.7153755358152
20
9.55571766356366
30
0
41
1
10
29.8698680818433
20
9.52071482520677
30
0
41
1
10
30.179068650632
20
9.44682345709879
30
0
41
1
10
30.3337982416521
20
9.40793676349762
30
0
41
1
10
30.7982645171732
20
9.28549148033076
30
0
41
1
10
31.1073903414336
20
9.19636013577261
30
0
41
1
10
32.0339407080284
20
8.90707175320858
30
0
41
1
10
32.6504955686067
20
8.68502980365369
30
0
41
1
10
33.4224698235429
20
8.3725169054639
30
0
41
1
10
33.6541599749556
20
8.27614128273507
30
0
41
1
10
33.8860783645385
20
8.17587527466728
30
0
41
1
10
34.0407503898846
20
8.10817230059033
30
0
41
1
10
34.1181371745437
20
8.07388186612226
30
0
41
1
10
34.504974991674
20
7.90041543805987
30
0
41
1
10
34.8139122410714
20
7.75530139133508
30
0
41
1
10
35.7399973260069
20
7.30183754253889
30
0
41
1
10
36.3564257093897
20
6.97540871572562
30
0
41
1
10
37.1285712847724
20
6.53976256355961
30
0
41
1
10
37.2830801548325
20
6.451250668348
30
0
41
1
10
37.5150140164991
20
6.31645108064552
30
0
41
1
10
37.5923537702026
20
6.27117910380915
30
0
41
1
10
37.7470986018467
20
6.17996500971068
30
0
41
1
10
37.8245253897928
20
6.13400993752043
30
0
41
1
10
38.2114647366922
20
5.90280664882738
30
0
41
1
10
38.5205212929975
20
5.71320785422657
30
0
41
1
10
39.4469747131861
20
5.1314677401858
30
0
41
1
10
40.06363153864
20
4.72636318675782
30
0
41
1
10
40.8357471648638
20
4.20115096002192
30
0
41
1
10
41.0674832244474
20
4.04217941463739
30
0
41
1
10
41.2994514081334
20
3.88118870962498
30
0
41
1
10
41.4541576627572
20
3.77342314898448
30
0
41
1
10
41.5315538519132
20
3.71931215760387
30
0
41
1
10
41.9182717321953
20
3.44799555222323
30
0
41
1
10
42.2271236085851
20
3.22828374394507
30
0
41
1
10
43.1530168877099
20
2.56235057142999
30
0
41
1
10
43.7694223701466
20
2.10935536403787
30
0
41
1
10
44.5416892566562
20
1.53547871982681
30
0
41
1
10
44.7734995180139
20
1.36274155990043
30
0
41
1
10
45.0055802782118
20
1.18923937231946
30
0
41
1
10
45.1603691542294
20
1.07341158761733
30
0
41
1
10
45.2377915259311
20
1.01542252934081
30
0
41
1
10
45.624645850496
20
0.725440788586212
30
0
41
1
10
45.933661501946
20
0.493075942729803
30
0
41
1
10
46.8600432777461
20
-0.204174538030656
30
0
41
1
10
47.4766950115809
20
-0.669283468193839
30
0
41
1
10
48.2489682135421
20
-1.24751607588851
30
0
41
1
10
48.4034973589589
20
-1.36300270309948
30
0
41
1
10
48.712776651504
20
-1.5935599208205
30
0
41
1
10
48.8676259544797
20
-1.70870372127717
30
0
41
1
10
49.3314705337817
20
-2.05251320946189
30
0
41
1
10
49.6399854460558
20
-2.27971848331737
30
0
41
1
10
50.5642585690819
20
-2.95430732893229
30
0
41
1
10
51.1787526365909
20
-3.39467197191644
30
0
41
1
10
52.4087786861373
20
-4.25126205330531
30
0
41
1
10
53.0243076983195
20
-4.66749210182968
30
0
41
1
10
53.6424468614254
20
-5.06888433639546
30
0
0
SPLINE
5
123
100
AcDbEntity
8
1
62
256
6
ByLayer
370
18
48
1
60
0
100
AcDbSpline
70
4
71
3
72
9
73
5
40
0
40
0
40
0
40
0
40
0.555598787221627
40
1
40
1
40
1
40
1
41
1
10
24
20
-7.74887929456611
30
0
41
1
10
24.4858824474218
20
-7.65430460443827
30
0
41
1
10
25.3549254785632
20
-7.47501779868335
30
0
41
1
10
26.2102876219131
20
-7.28059974023864
30
0
41
1
10
26.5897381897344
20
-7.19058266457586
30
0
0
SPLINE
5
124
100
AcDbEntity
8
1
62
256
6
ByLayer
370
18
48
1
60
0
100
AcDbSpline
70
4
71
2
72
6
73
3
40
0
40
0
40
0
40
1
40
1
40
1
41
1
10
47.6787674118691
20
5.43104722345311
30
0
41
1
10
47.4811934179307
20
5.50729078988087
30
0
41
1
10
47.2809358641427
20
5.58352000164001
30
0
0
SPLINE
5
125
100
AcDbEntity
8
1
62
256
6
ByLayer
370
18
48
1
60
0
100
AcDbSpline
70
4
71
3
72
21
73
17
40
0
40
0
40
0
40
0
40
0.0469243349130604
40
0.098662146764772
40
0.169802120404327
40
0.253002616734744
40
0.345540324553493
40
0.426642295958255
40
0.493359971932231
40
0.537979212480283
40
0.57262668060849
40
0.614895405108403
40
0.682178378814447
40
0.774503117633428
40
0.891885459968562
40
1
40
1
40
1
40
1
41
1
10
44.3691715532697
20
-8.79083691316575
30
0
41
1
10
44.4777404920968
20
-8.78801923417223
30
0
41
1
10
44.7090946126932
20
-8.78081206400719
30
0
41
1
10
45.1272494651386
20
-8.7606651963807
30
0
41
1
10
45.6260976285159
20
-8.73813649951319
30
0
41
1
10
46.2030445174424
20
-8.7141880748122
30
0
41
1
10
46.777288993058
20
-8.68919465411503
30
0
41
1
10
47.3188127873652
20
-8.65740515196941
30
0
41
1
10
47.752701751653
20
-8.62724227807897
30
0
41
1
10
48.0833881570715
20
-8.60147667513493
30
0
41
1
10
48.3589909046297
20
-8.57844866391036
30
0
41
1
10
48.6933560802831
20
-8.54857799717178
30
0
41
1
10
49.1653020816576
20
-8.50325703361429
30
0
41
1
10
49.8150287529469
20
-8.43462172115616
30
0
41
1
10
50.5621786428195
20
-8.34720131841451
30
0
41
1
10
51.0927929893873
20
-8.27675934712678
30
0
41
1
10
51.3473714574054
20
-8.24119315375256
30
0
0
SPLINE
5
126
100
AcDbEntity
8
1
62
256
6
ByLayer
370
18
48
1
60
0
100
AcDbSpline
70
4
71
3
72
20
73
16
40
0
40
0
40
0
40
0
40
0.0320692588837775
40
0.0688668469762254
40
0.137254266808389
40
0.226291961025162
40
0.312292296090474
40
0.396453548255564
40
0.462730394685381
40
0.540501568810442
40
0.628205160059186
40
0.730671238757653
40
0.839951607950514
40
0.953089691126588
40
1
40
1
40
1
40
1
41
1
10
44.398680182104
20
6.54219308113221
30
0
41
1
10
44.3256416305506
20
6.56188702935964
30
0
41
1
10
44.1597691533463
20
6.60617907084341
30
0
41
1
10
43.7686893733539
20
6.70604009992943
30
0
41
1
10
43.2202003134817
20
6.85362404613835
30
0
41
1
10
42.5700125177059
20
7.03313555575954
30
0
41
1
10
41.8794668782712
20
7.21349535666343
30
0
41
1
10
41.245432907629
20
7.37014983205825
30
0
41
1
10
40.6305690613333
20
7.51437597562085
30
0
41
1
10
39.9871257900502
20
7.65892841069038
30
0
41
1
10
39.2339336691619
20
7.81888632575951
30
0
41
1
10
38.4013028661952
20
7.98281290195504
30
0
41
1
10
37.4989294425469
20
8.14518212539593
30
0
41
1
10
36.750777581619
20
8.26572104611449
30
0
41
1
10
36.3058540576317
20
8.33121590300348
30
0
41
1
10
36.1753263750233
20
8.34988490966296
30
0
0
LINE
5
77
100
AcDbEntity
8
4
62
256
6
ByLayer
370
18
48
0.05
60
0
100
AcDbLine
10
0
20
0
30
0
11
54
21
0
31
0
39
0
210
0
220
0
230
1
0
LINE
5
79
100
AcDbEntity
8
81
62
256
6
ByLayer
370
18
48
1
60
0
100
AcDbLine
10
54
20
0
30
0
11
59
21
0
31
0
39
0
210
0
220
0
230
1
0
LINE
5
7A
100
AcDbEntity
8
SK4
62
256
6
ByLayer
370
18
48
0.05
60
0
100
AcDbLine
10
-50
20
0
30
0
11
54
21
0
31
0
39
0
210
0
220
0
230
1
0
LINE
5
7C
100
AcDbEntity
8
80
62
256
6
ByLayer
370
18
48
1
60
0
100
AcDbLine
10
0
20
0
30
0
11
-5
21
0
31
0
39
0
210
0
220
0
230
1
0
LINE
5
7D
100
AcDbEntity
8
1
62
256
6
ByLayer
370
18
48
1
60
0
100
AcDbLine
10
0
20
10
30
0
11
0
21
0
31
0
39
0
210
0
220
0
230
1
0
LINE
5
7E
100
AcDbEntity
8
1
62
256
6
ByLayer
370
18
48
1
60
0
100
AcDbLine
10
0
20
0
30
0
11
0
21
-10
31
0
39
0
210
0
220
0
230
1
0
LINE
5
7F
100
AcDbEntity
8
1
62
256
6
ByLayer
370
18
48
1
60
0
100
AcDbLine
10
53.99371
20
-5.093948
30
0
11
53.999966
21
-5.486625
31
0
39
0
210
0
220
0
230
1
0
LINE
5
80
100
AcDbEntity
8
1
62
256
6
ByLayer
370
18
48
1
60
0
100
AcDbLine
10
53.788491
20
-6.434837
30
0
11
53.784226
21
-6.162205
31
0
39
0
210
0
220
0
230
1
0
LINE
5
81
100
AcDbEntity
8
1
62
256
6
ByLayer
370
18
48
1
60
0
100
AcDbLine
10
53.784226
20
-6.162205
30
0
11
53.987033
21
-5.093611
31
0
39
0
210
0
220
0
230
1
0
LINE
5
82
100
AcDbEntity
8
1
62
256
6
ByLayer
370
18
48
1
60
0
100
AcDbLine
10
53.118827
20
-7.364814
30
0
11
53.784226
21
-6.162205
31
0
39
0
210
0
220
0
230
1
0
LINE
5
83
100
AcDbEntity
8
1
62
256
6
ByLayer
370
18
48
1
60
0
100
AcDbLine
10
53.784226
20
-6.162205
30
0
11
53.609276
21
-5.046763
31
0
39
0
210
0
220
0
230
1
0
LINE
5
84
100
AcDbEntity
8
1
62
256
6
ByLayer
370
18
48
1
60
0
100
AcDbLine
10
53.965201
20
8.905653
30
0
11
53.993188
21
9.220123
31
0
39
0
210
0
220
0
230
1
0
LINE
5
85
100
AcDbEntity
8
1
62
256
6
ByLayer
370
18
48
1
60
0
100
AcDbLine
10
53.993188
20
9.220123
30
0
11
53.999966
21
9.98349
31
0
39
0
210
0
220
0
230
1
0
LINE
5
86
100
AcDbEntity
8
1
62
256
6
ByLayer
370
18
48
1
60
0
100
AcDbLine
10
52.806597
20
0.044035
30
0
11
53.170519
21
-0.02366
31
0
39
0
210
0
220
0
230
1
0
LINE
5
87
100
AcDbEntity
8
1
62
256
6
ByLayer
370
18
48
1
60
0
100
AcDbLine
10
53.170519
20
-0.02366
30
0
11
53.804337
21
7.09813
31
0
39
0
210
0
220
0
230
1
0
LINE
5
88
100
AcDbEntity
8
1
62
256
6
ByLayer
370
18
48
1
60
0
100
AcDbLine
10
24
20
-7.748897
30
0
11
24
21
-7.448678
31
0
39
0
210
0
220
0
230
1
0
LINE
5
89
100
AcDbEntity
8
1
62
256
6
ByLayer
370
18
48
1
60
0
100
AcDbLine
10
51.519662
20
-8.216542
30
0
11
52.681687
21
-4.614095
31
0
39
0
210
0
220
0
230
1
0
LINE
5
8A
100
AcDbEntity
8
1
62
256
6
ByLayer
370
18
48
1
60
0
100
AcDbLine
10
52.681687
20
-4.614095
30
0
11
52.761218
21
-4.481984
31
0
39
0
210
0
220
0
230
1
0
LINE
5
8B
100
AcDbEntity
8
1
62
256
6
ByLayer
370
18
48
1
60
0
100
AcDbLine
10
47.762997
20
-5.408415
30
0
11
52.681687
21
-4.614095
31
0
39
0
210
0
220
0
230
1
0
LINE
5
8C
100
AcDbEntity
8
1
62
256
6
ByLayer
370
13
48
1
60
0
100
AcDbLine
10
22.684215
20
9.935626
30
0
11
24
21
9.214498
31
0
39
0
210
0
220
0
230
1
0
LINE
5
8D
100
AcDbEntity
8
1
62
256
6
ByLayer
370
13
48
1
60
0
100
AcDbLine
10
14.129153
20
9.405103
30
0
11
24
21
3.995296
31
0
39
0
210
0
220
0
230
1
0
LINE
5
8E
100
AcDbEntity
8
1
62
256
6
ByLayer
370
13
48
1
60
0
100
AcDbLine
10
48.791199
20
-2.008872
30
0
11
46.823318
21
-3.012406
31
0
39
0
210
0
220
0
230
1
0
LINE
5
8F
100
AcDbEntity
8
1
62
256
6
ByLayer
370
18
48
1
60
0
100
AcDbLine
10
24
20
3.82089
30
0
11
24
21
3.995296
31
0
39
0
210
0
220
0
230
1
0
LINE
5
90
100
AcDbEntity
8
1
62
256
6
ByLayer
370
18
48
1
60
0
100
AcDbLine
10
17.853573
20
-9.842834
30
0
11
24
21
-7.448678
31
0
39
0
210
0
220
0
230
1
0
LINE
5
91
100
AcDbEntity
8
1
62
256
6
ByLayer
370
18
48
1
60
0
100
AcDbLine
10
24
20
-7.448678
30
0
11
24
21
-5.930713
31
0
39
0
210
0
220
0
230
1
0
LINE
5
92
100
AcDbEntity
8
1
62
256
6
ByLayer
370
13
48
1
60
0
100
AcDbLine
10
14.773189
20
-8.68634
30
0
11
22.067127
21
-5.845205
31
0
39
0
210
0
220
0
230
1
0
LINE
5
93
100
AcDbEntity
8
1
62
256
6
ByLayer
370
13
48
1
60
0
100
AcDbLine
10
14.348129
20
9.110685
30
0
11
24
21
3.82089
31
0
39
0
210
0
220
0
230
1
0
LINE
5
94
100
AcDbEntity
8
1
62
256
6
ByLayer
370
13
48
1
60
0
100
AcDbLine
10
14.364196
20
-7.851888
30
0
11
18.919823
21
-6.07738
31
0
39
0
210
0
220
0
230
1
0
LINE
5
95
100
AcDbEntity
8
1
62
256
6
ByLayer
370
18
48
1
60
0
100
AcDbLine
10
53.966007
20
-4.555002
30
0
11
53.993188
21
-4.71066
31
0
39
0
210
0
220
0
230
1
0
LINE
5
96
100
AcDbEntity
8
1
62
256
6
ByLayer
370
18
48
1
60
0
100
AcDbLine
10
53.51935
20
-1.997127
30
0
11
53.800727
21
-3.608495
31
0
39
0
210
0
220
0
230
1
0
LINE
5
97
100
AcDbEntity
8
1
62
256
6
ByLayer
370
18
48
1
60
0
100
AcDbLine
10
53.33552
20
-1.002001
30
0
11
53.51935
21
-1.997127
31
0
39
0
210
0
220
0
230
1
0
LINE
5
98
100
AcDbEntity
8
1
62
256
6
ByLayer
370
18
48
1
60
0
100
AcDbLine
10
53.993188
20
-4.71066
30
0
11
53.999966
21
-5.094263
31
0
39
0
210
0
220
0
230
1
0
LINE
5
99
100
AcDbEntity
8
1
62
256
6
ByLayer
370
18
48
1
60
0
100
AcDbLine
10
53.784226
20
-3.573786
30
0
11
53.993188
21
-4.71066
31
0
39
0
210
0
220
0
230
1
0
LINE
5
9A
100
AcDbEntity
8
1
62
256
6
ByLayer
370
18
48
1
60
0
100
AcDbLine
10
53.788532
20
-3.821219
30
0
11
53.784226
21
-3.573786
31
0
39
0
210
0
220
0
230
1
0
LINE
5
9B
100
AcDbEntity
8
1
62
256
6
ByLayer
370
18
48
1
60
0
100
AcDbLine
10
24
20
3.995296
30
0
11
24
21
9.214498
31
0
39
0
210
0
220
0
230
1
0
LINE
5
9C
100
AcDbEntity
8
1
62
256
6
ByLayer
370
18
48
1
60
0
100
AcDbLine
10
53.107256
20
-2.333561
30
0
11
53.784226
21
-3.573786
31
0
39
0
210
0
220
0
230
1
0
LINE
5
9D
100
AcDbEntity
8
1
62
256
6
ByLayer
370
18
48
1
60
0
100
AcDbLine
10
53.784226
20
-3.573786
30
0
11
53.33552
21
-1.002001
31
0
39
0
210
0
220
0
230
1
0
LINE
5
9E
100
AcDbEntity
8
1
62
256
6
ByLayer
370
18
48
1
60
0
100
AcDbLine
10
52.733004
20
0.189596
30
0
11
53.33552
21
-1.002001
31
0
39
0
210
0
220
0
230
1
0
LINE
5
9F
100
AcDbEntity
8
1
62
256
6
ByLayer
370
18
48
1
60
0
100
AcDbLine
10
51.197458
20
2.381263
30
0
11
52.733004
21
0.189596
31
0
39
0
210
0
220
0
230
1
0
LINE
5
A0
100
AcDbEntity
8
1
62
256
6
ByLayer
370
18
48
1
60
0
100
AcDbLine
10
24
20
-2.85837
30
0
11
24
21
-2.429242
31
0
39
0
210
0
220
0
230
1
0
LINE
5
A1
100
AcDbEntity
8
1
62
256
6
ByLayer
370
13
48
1
60
0
100
AcDbLine
10
15.675353
20
1.704028
30
0
11
24
21
-2.85837
31
0
39
0
210
0
220
0
230
1
0
LINE
5
A2
100
AcDbEntity
8
1
62
256
6
ByLayer
370
13
48
1
60
0
100
AcDbLine
10
15.655049
20
2.144283
30
0
11
24
21
-2.429242
31
0
39
0
210
0
220
0
230
1
0
LINE
5
A3
100
AcDbEntity
8
1
62
256
6
ByLayer
370
18
48
1
60
0
100
AcDbLine
10
17.074215
20
6.073812
30
0
11
24
21
2.278073
31
0
39
0
210
0
220
0
230
1
0
LINE
5
A4
100
AcDbEntity
8
1
62
256
6
ByLayer
370
18
48
1
60
0
100
AcDbLine
10
24
20
9.913846
30
0
11
24
21
9.913914
31
0
39
0
210
0
220
0
230
1
0
LINE
5
A5
100
AcDbEntity
8
1
62
256
6
ByLayer
370
18
48
1
60
0
100
AcDbLine
10
24
20
9.913846
30
0
11
24
21
9.214498
31
0
39
0
210
0
220
0
230
1
0
LINE
5
A6
100
AcDbEntity
8
1
62
256
6
ByLayer
370
18
48
1
60
0
100
AcDbLine
10
24
20
-2.85837
30
0
11
24
21
-3.433028
31
0
39
0
210
0
220
0
230
1
0
LINE
5
A7
100
AcDbEntity
8
SK1
62
256
6
ByLayer
370
18
48
1
60
0
100
AcDbLine
10
0
20
10
30
0
11
0
21
0
31
0
39
0
210
0
220
0
230
1
0
LINE
5
A9
100
AcDbEntity
8
SK1
62
256
6
ByLayer
370
18
48
1
60
0
100
AcDbLine
10
0
20
0
30
0
11
0
21
-10
31
0
39
0
210
0
220
0
230
1
0
LINE
5
AA
100
AcDbEntity
8
SK1
62
256
6
ByLayer
370
18
48
1
60
0
100
AcDbLine
10
-30.5
20
8.2
30
0
11
-32.3
21
10
31
0
39
0
210
0
220
0
230
1
0
LINE
5
AB
100
AcDbEntity
8
SK1
62
256
6
ByLayer
370
18
48
1
60
0
100
AcDbLine
10
-17.7
20
10
30
0
11
-19.5
21
8.2
31
0
39
0
210
0
220
0
230
1
0
LINE
5
AC
100
AcDbEntity
8
SK1
62
256
6
ByLayer
370
18
48
1
60
0
100
AcDbLine
10
-30.5
20
8.2
30
0
11
-19.5
21
8.2
31
0
39
0
210
0
220
0
230
1
0
LINE
5
AD
100
AcDbEntity
8
SK1
62
256
6
ByLayer
370
18
48
1
60
0
100
AcDbLine
10
-49
20
10
30
0
11
-49
21
-10
31
0
39
0
210
0
220
0
230
1
0
LINE
5
AE
100
AcDbEntity
8
SK1
62
256
6
ByLayer
370
18
48
1
60
0
100
AcDbLine
10
-50
20
-9
30
0
11
-50
21
9
31
0
39
0
210
0
220
0
230
1
0
LINE
5
AF
100
AcDbEntity
8
1
62
256
6
ByLayer
370
18
48
1
60
0
100
AcDbLine
10
18.252673
20
10
30
0
11
0
21
10
31
0
39
0
210
0
220
0
230
1
0
LINE
5
B0
100
AcDbEntity
8
1
62
256
6
ByLayer
370
18
48
1
60
0
100
AcDbLine
10
0
20
-10
30
0
11
18.219724
21
-10
31
0
39
0
210
0
220
0
230
1
0
LINE
5
B1
100
AcDbEntity
8
1
62
256
6
ByLayer
370
18
48
1
60
0
100
AcDbLine
10
18.220572
20
-10.000322
30
0
11
24.010203
21
-7.745145
31
0
39
0
210
0
220
0
230
1
0
LINE
5
B2
100
AcDbEntity
8
SK1
62
256
6
ByLayer
370
18
48
1
60
0
100
AcDbLine
10
0
20
10
30
0
11
-17.7
21
10
31
0
39
0
210
0
220
0
230
1
0
LINE
5
B3
100
AcDbEntity
8
SK1
62
256
6
ByLayer
370
18
48
1
60
0
100
AcDbLine
10
-32.3
20
10
30
0
11
-49
21
10
31
0
39
0
210
0
220
0
230
1
0
LINE
5
B4
100
AcDbEntity
8
SK1
62
256
6
ByLayer
370
18
48
1
60
0
100
AcDbLine
10
-49
20
-10
30
0
11
0
21
-10
31
0
39
0
210
0
220
0
230
1
0
LINE
5
B5
100
AcDbEntity
8
SK1
62
256
6
ByLayer
370
18
48
1
60
0
100
AcDbLine
10
-50
20
-9
30
0
11
-49
21
-10
31
0
39
0
210
0
220
0
230
1
0
LINE
5
B6
100
AcDbEntity
8
SK1
62
256
6
ByLayer
370
18
48
1
60
0
100
AcDbLine
10
-49
20
10
30
0
11
-50
21
9
31
0
39
0
210
0
220
0
230
1
0
LINE
5
B7
100
AcDbEntity
8
SK2
62
256
6
ByLayer
370
18
48
1
60
0
100
AcDbLine
10
-57.25
20
10
30
0
11
-57.25
21
-28.930932
31
0
39
0
210
0
220
0
230
1
0
LINE
5
B9
100
AcDbEntity
8
SK2
62
256
6
ByLayer
370
18
48
1
60
0
100
AcDbLine
10
-50.5875
20
10
30
0
11
-59.25
21
10
31
0
39
0
210
0
220
0
230
1
0
LINE
5
BA
100
AcDbEntity
8
SK2
62
256
6
ByLayer
370
18
48
1
60
0
100
AcDbLine
10
-50.5875
20
-10
30
0
11
-59.25
21
-10
31
0
39
0
210
0
220
0
230
1
0
LINE
5
BB
100
AcDbEntity
8
1
62
256
6
ByLayer
370
18
48
1
60
1
100
AcDbLine
10
-57.25
20
10
30
0
11
-56.789216
21
6.500002
31
0
39
0
210
0
220
0
230
1
0
LINE
5
BC
100
AcDbEntity
8
1
62
256
6
ByLayer
370
18
48
1
60
1
100
AcDbLine
10
-56.789216
20
6.500002
30
0
11
-57.710784
21
6.499998
31
0
39
0
210
0
220
0
230
1
0
LINE
5
BD
100
AcDbEntity
8
1
62
256
6
ByLayer
370
18
48
1
60
1
100
AcDbLine
10
-57.710784
20
6.499998
30
0
11
-57.25
21
10
31
0
39
0
210
0
220
0
230
1
0
LINE
5
BE
100
AcDbEntity
8
1
62
256
6
ByLayer
370
18
48
1
60
1
100
AcDbLine
10
-57.25
20
-10
30
0
11
-57.710784
21
-6.500002
31
0
39
0
210
0
220
0
230
1
0
LINE
5
BF
100
AcDbEntity
8
1
62
256
6
ByLayer
370
18
48
1
60
1
100
AcDbLine
10
-57.710784
20
-6.500002
30
0
11
-56.789216
21
-6.499998
31
0
39
0
210
0
220
0
230
1
0
LINE
5
C0
100
AcDbEntity
8
1
62
256
6
ByLayer
370
18
48
1
60
1
100
AcDbLine
10
-56.789216
20
-6.499998
30
0
11
-57.25
21
-10
31
0
39
0
210
0
220
0
230
1
0
LINE
5
C1
100
AcDbEntity
8
2
62
256
6
ByLayer
370
18
48
1
60
0
100
AcDbLine
10
66
20
-10.0001
30
0
11
66
21
28.931032
31
0
39
0
210
0
220
0
230
1
0
LINE
5
C3
100
AcDbEntity
8
2
62
256
6
ByLayer
370
18
48
1
60
0
100
AcDbLine
10
55.5875
20
10.0001
30
0
11
68
21
10.0001
31
0
39
0
210
0
220
0
230
1
0
LINE
5
C4
100
AcDbEntity
8
2
62
256
6
ByLayer
370
18
48
1
60
0
100
AcDbLine
10
55.5875
20
-10.0001
30
0
11
68
21
-10.0001
31
0
39
0
210
0
220
0
230
1
0
LINE
5
C5
100
AcDbEntity
8
1
62
256
6
ByLayer
370
18
48
1
60
1
100
AcDbLine
10
66
20
10.0001
30
0
11
66.460784
21
6.500102
31
0
39
0
210
0
220
0
230
1
0
LINE
5
C6
100
AcDbEntity
8
1
62
256
6
ByLayer
370
18
48
1
60
1
100
AcDbLine
10
66.460784
20
6.500102
30
0
11
65.539216
21
6.500098
31
0
39
0
210
0
220
0
230
1
0
LINE
5
C7
100
AcDbEntity
8
1
62
256
6
ByLayer
370
18
48
1
60
1
100
AcDbLine
10
65.539216
20
6.500098
30
0
11
66
21
10.0001
31
0
39
0
210
0
220
0
230
1
0
LINE
5
C8
100
AcDbEntity
8
1
62
256
6
ByLayer
370
18
48
1
60
1
100
AcDbLine
10
66
20
-10.0001
30
0
11
65.539216
21
-6.500102
31
0
39
0
210
0
220
0
230
1
0
LINE
5
C9
100
AcDbEntity
8
1
62
256
6
ByLayer
370
18
48
1
60
1
100
AcDbLine
10
65.539216
20
-6.500102
30
0
11
66.460784
21
-6.500098
31
0
39
0
210
0
220
0
230
1
0
LINE
5
CA
100
AcDbEntity
8
1
62
256
6
ByLayer
370
18
48
1
60
1
100
AcDbLine
10
66.460784
20
-6.500098
30
0
11
66
21
-10.0001
31
0
39
0
210
0
220
0
230
1
0
LINE
5
CB
100
AcDbEntity
8
SK2
62
256
6
ByLayer
370
18
48
1
60
0
100
AcDbLine
10
54
20
-41.660403
30
0
11
-50
21
-41.660403
31
0
39
0
210
0
220
0
230
1
0
LINE
5
CC
100
AcDbEntity
8
SK2
62
256
6
ByLayer
370
18
48
1
60
0
100
AcDbLine
10
-50
20
-10.5875
30
0
11
-50
21
-43.660403
31
0
39
0
210
0
220
0
230
1
0
LINE
5
CD
100
AcDbEntity
8
SK2
62
256
6
ByLayer
370
18
48
1
60
0
100
AcDbLine
10
54
20
-11.5876
30
0
11
54
21
-43.660403
31
0
39
0
210
0
220
0
230
1
0
LINE
5
CE
100
AcDbEntity
8
1
62
256
6
ByLayer
370
18
48
1
60
1
100
AcDbLine
10
-50
20
-41.660403
30
0
11
-46.500002
21
-41.199619
31
0
39
0
210
0
220
0
230
1
0
LINE
5
CF
100
AcDbEntity
8
1
62
256
6
ByLayer
370
18
48
1
60
1
100
AcDbLine
10
-46.500002
20
-41.199619
30
0
11
-46.499998
21
-42.121186
31
0
39
0
210
0
220
0
230
1
0
LINE
5
D0
100
AcDbEntity
8
1
62
256
6
ByLayer
370
18
48
1
60
1
100
AcDbLine
10
-46.499998
20
-42.121186
30
0
11
-50
21
-41.660403
31
0
39
0
210
0
220
0
230
1
0
LINE
5
D1
100
AcDbEntity
8
1
62
256
6
ByLayer
370
18
48
1
60
1
100
AcDbLine
10
54
20
-41.660403
30
0
11
50.500002
21
-42.121186
31
0
39
0
210
0
220
0
230
1
0
LINE
5
D2
100
AcDbEntity
8
1
62
256
6
ByLayer
370
18
48
1
60
1
100
AcDbLine
10
50.500002
20
-42.121186
30
0
11
50.499998
21
-41.199619
31
0
39
0
210
0
220
0
230
1
0
LINE
5
D3
100
AcDbEntity
8
1
62
256
6
ByLayer
370
18
48
1
60
1
100
AcDbLine
10
50.499998
20
-41.199619
30
0
11
54
21
-41.660403
31
0
39
0
210
0
220
0
230
1
0
LINE
5
12B
100
AcDbEntity
8
1
62
256
6
ByLayer
370
18
48
1
60
1
100
AcDbLine
10
-57.25
20
10
30
0
11
-56.789216
21
6.500002
31
0
39
0
210
0
220
0
230
1
0
LINE
5
12C
100
AcDbEntity
8
1
62
256
6
ByLayer
370
18
48
1
60
1
100
AcDbLine
10
-56.789216
20
6.500002
30
0
11
-57.710784
21
6.499998
31
0
39
0
210
0
220
0
230
1
0
LINE
5
12D
100
AcDbEntity
8
1
62
256
6
ByLayer
370
18
48
1
60
1
100
AcDbLine
10
-57.710784
20
6.499998
30
0
11
-57.25
21
10
31
0
39
0
210
0
220
0
230
1
0
LINE
5
12F
100
AcDbEntity
8
1
62
256
6
ByLayer
370
18
48
1
60
1
100
AcDbLine
10
-57.25
20
-10
30
0
11
-57.710784
21
-6.500002
31
0
39
0
210
0
220
0
230
1
0
LINE
5
130
100
AcDbEntity
8
1
62
256
6
ByLayer
370
18
48
1
60
1
100
AcDbLine
10
-57.710784
20
-6.500002
30
0
11
-56.789216
21
-6.499998
31
0
39
0
210
0
220
0
230
1
0
LINE
5
131
100
AcDbEntity
8
1
62
256
6
ByLayer
370
18
48
1
60
1
100
AcDbLine
10
-56.789216
20
-6.499998
30
0
11
-57.25
21
-10
31
0
39
0
210
0
220
0
230
1
0
LINE
5
135
100
AcDbEntity
8
1
62
256
6
ByLayer
370
18
48
1
60
1
100
AcDbLine
10
66
20
10.0001
30
0
11
66.460784
21
6.500102
31
0
39
0
210
0
220
0
230
1
0
LINE
5
136
100
AcDbEntity
8
1
62
256
6
ByLayer
370
18
48
1
60
1
100
AcDbLine
10
66.460784
20
6.500102
30
0
11
65.539216
21
6.500098
31
0
39
0
210
0
220
0
230
1
0
LINE
5
137
100
AcDbEntity
8
1
62
256
6
ByLayer
370
18
48
1
60
1
100
AcDbLine
10
65.539216
20
6.500098
30
0
11
66
21
10.0001
31
0
39
0
210
0
220
0
230
1
0
LINE
5
139
100
AcDbEntity
8
1
62
256
6
ByLayer
370
18
48
1
60
1
100
AcDbLine
10
66
20
-10.0001
30
0
11
65.539216
21
-6.500102
31
0
39
0
210
0
220
0
230
1
0
LINE
5
13A
100
AcDbEntity
8
1
62
256
6
ByLayer
370
18
48
1
60
1
100
AcDbLine
10
65.539216
20
-6.500102
30
0
11
66.460784
21
-6.500098
31
0
39
0
210
0
220
0
230
1
0
LINE
5
13B
100
AcDbEntity
8
1
62
256
6
ByLayer
370
18
48
1
60
1
100
AcDbLine
10
66.460784
20
-6.500098
30
0
11
66
21
-10.0001
31
0
39
0
210
0
220
0
230
1
0
LINE
5
13E
100
AcDbEntity
8
1
62
256
6
ByLayer
370
18
48
1
60
1
100
AcDbLine
10
-50
20
-41.660403
30
0
11
-46.500002
21
-41.199619
31
0
39
0
210
0
220
0
230
1
0
LINE
5
13F
100
AcDbEntity
8
1
62
256
6
ByLayer
370
18
48
1
60
1
100
AcDbLine
10
-46.500002
20
-41.199619
30
0
11
-46.499998
21
-42.121186
31
0
39
0
210
0
220
0
230
1
0
LINE
5
140
100
AcDbEntity
8
1
62
256
6
ByLayer
370
18
48
1
60
1
100
AcDbLine
10
-46.499998
20
-42.121186
30
0
11
-50
21
-41.660403
31
0
39
0
210
0
220
0
230
1
0
LINE
5
142
100
AcDbEntity
8
1
62
256
6
ByLayer
370
18
48
1
60
1
100
AcDbLine
10
54
20
-41.660403
30
0
11
50.500002
21
-42.121186
31
0
39
0
210
0
220
0
230
1
0
LINE
5
143
100
AcDbEntity
8
1
62
256
6
ByLayer
370
18
48
1
60
1
100
AcDbLine
10
50.500002
20
-42.121186
30
0
11
50.499998
21
-41.199619
31
0
39
0
210
0
220
0
230
1
0
LINE
5
144
100
AcDbEntity
8
1
62
256
6
ByLayer
370
18
48
1
60
1
100
AcDbLine
10
50.499998
20
-41.199619
30
0
11
54
21
-41.660403
31
0
39
0
210
0
220
0
230
1
0
MTEXT
5
127
100
AcDbEntity
8
SK2
62
256
6
ByLayer
370
18
48
1
60
0
100
AcDbMText
10
-58.814634
20
-26.996089
30
0
210
0
220
0
230
1
1
%%c
40
3.5
41
0
44
1.084337
50
90
71
7
72
5
7
iso_b_vert
0
MTEXT
5
12A
100
AcDbEntity
8
SK2
62
256
6
ByLayer
370
18
48
1
60
0
100
AcDbMText
10
-58.814634
20
-20.023432
30
0
210
0
220
0
230
1
1
\W0.6740;20
40
3.5
41
0
44
1.084337
50
90
71
7
72
5
7
iso_b_vert
0
MTEXT
5
133
100
AcDbEntity
8
2
62
256
6
ByLayer
370
18
48
1
60
0
100
AcDbMText
10
64.435366
20
17.934944
30
0
210
0
220
0
230
1
1
%%c
40
3.5
41
0
44
1.084337
50
90
71
7
72
5
7
iso_b_vert
0
MTEXT
5
134
100
AcDbEntity
8
2
62
256
6
ByLayer
370
18
48
1
60
0
100
AcDbMText
10
64.435366
20
24.9076
30
0
210
0
220
0
230
1
1
\W0.6740;20
40
3.5
41
0
44
1.084337
50
90
71
7
72
5
7
iso_b_vert
0
MTEXT
5
13D
100
AcDbEntity
8
SK2
62
256
6
ByLayer
370
18
48
1
60
0
100
AcDbMText
10
-0.959533
20
-40.627769
30
0
210
0
220
0
230
1
1
\W0.6506;104
40
3.5
41
0
44
1.084337
50
0
71
7
72
5
7
iso_b_vert
0
MTEXT
5
146
100
AcDbEntity
8
SK6
62
256
6
ByLayer
370
18
48
1
60
0
100
AcDbMText
10
-22.584354
20
-62.308558
30
0
210
0
220
0
230
1
1
\W0.6915;1K223-2000-NB       H10F
40
3
41
0
44
1.084337
50
0
71
7
72
5
7
iso_b_vert
0
HATCH
5
12E
100
AcDbEntity
8
SK2
62
256
6
ByLayer
370
13
48
1
60
0
100
AcDbHatch
10
0
20
0
30
0
210
0
220
0
230
1
2
ANSI31
70
0
71
0
91
1
92
5
93
3
72
1
10
-57.2500000000001
20
9.99999999999994
11
-56.7892162584473
21
6.50000169255313
72
1
10
-56.7892162584473
20
6.50000169255313
11
-57.7107837415528
21
6.49999830744676
72
1
10
-57.7107837415528
20
6.49999830744676
11
-57.2500000000001
21
9.99999999999994
97
0
75
0
76
1
52
0
41
0.0062
77
0
78
1
53
45
43
0
44
0
45
-0.0139193969876572
46
0.0139193969876572
79
0
47
0
98
1
10
0
20
0
0
HATCH
5
132
100
AcDbEntity
8
SK2
62
256
6
ByLayer
370
13
48
1
60
0
100
AcDbHatch
10
0
20
0
30
0
210
0
220
0
230
1
2
ANSI31
70
0
71
0
91
1
92
5
93
3
72
1
10
-57.2500000000001
20
-10.0000000000001
11
-57.7107837415528
21
-6.50000169255324
72
1
10
-57.7107837415528
20
-6.50000169255324
11
-56.7892162584473
21
-6.49999830744687
72
1
10
-56.7892162584473
20
-6.49999830744687
11
-57.2500000000001
21
-10.0000000000001
97
0
75
0
76
1
52
0
41
0.0062
77
0
78
1
53
45
43
0
44
0
45
-0.0139193969876572
46
0.0139193969876572
79
0
47
0
98
1
10
0
20
0
0
HATCH
5
138
100
AcDbEntity
8
2
62
256
6
ByLayer
370
13
48
1
60
0
100
AcDbHatch
10
0
20
0
30
0
210
0
220
0
230
1
2
ANSI31
70
0
71
0
91
1
92
5
93
3
72
1
10
66
20
10.0000999999998
11
66.4607837415528
21
6.50010169255302
72
1
10
66.4607837415528
20
6.50010169255302
11
65.5392162584472
21
6.50009830744665
72
1
10
65.5392162584472
20
6.50009830744665
11
66
21
10.0000999999998
97
0
75
0
76
1
52
0
41
0.0062
77
0
78
1
53
45
43
0
44
0
45
-0.0139193969876572
46
0.0139193969876572
79
0
47
0
98
1
10
0
20
0
0
HATCH
5
13C
100
AcDbEntity
8
2
62
256
6
ByLayer
370
13
48
1
60
0
100
AcDbHatch
10
0
20
0
30
0
210
0
220
0
230
1
2
ANSI31
70
0
71
0
91
1
92
5
93
3
72
1
10
66
20
-10.0001000000002
11
65.5392162584472
21
-6.50010169255336
72
1
10
65.5392162584472
20
-6.50010169255336
11
66.4607837415528
21
-6.50009830744699
72
1
10
66.4607837415528
20
-6.50009830744699
11
66
21
-10.0001000000002
97
0
75
0
76
1
52
0
41
0.0062
77
0
78
1
53
45
43
0
44
0
45
-0.0139193969876572
46
0.0139193969876572
79
0
47
0
98
1
10
0
20
0
0
HATCH
5
141
100
AcDbEntity
8
SK2
62
256
6
ByLayer
370
13
48
1
60
0
100
AcDbHatch
10
0
20
0
30
0
210
0
220
0
230
1
2
ANSI31
70
0
71
0
91
1
92
5
93
3
72
1
10
-50
20
-41.6604025242617
11
-46.5000016925532
21
-41.1996187827089
72
1
10
-46.5000016925532
20
-41.1996187827089
11
-46.4999983074468
21
-42.1211862658144
72
1
10
-46.4999983074468
20
-42.1211862658144
11
-50
21
-41.6604025242617
97
0
75
0
76
1
52
0
41
0.0062
77
0
78
1
53
45
43
0
44
0
45
-0.0139193969876572
46
0.0139193969876572
79
0
47
0
98
1
10
0
20
0
0
HATCH
5
145
100
AcDbEntity
8
SK2
62
256
6
ByLayer
370
13
48
1
60
0
100
AcDbHatch
10
0
20
0
30
0
210
0
220
0
230
1
2
ANSI31
70
0
71
0
91
1
92
5
93
3
72
1
10
54
20
-41.6604025242617
11
50.5000016925532
21
-42.1211862658144
72
1
10
50.5000016925532
20
-42.1211862658144
11
50.4999983074468
21
-41.1996187827089
72
1
10
50.4999983074468
20
-41.1996187827089
11
54
21
-41.6604025242617
97
0
75
0
76
1
52
0
41
0.0062
77
0
78
1
53
45
43
0
44
0
45
-0.0139193969876572
46
0.0139193969876572
79
0
47
0
98
1
10
0
20
0
0
DIMENSION
5
149
100
AcDbEntity
8
2
62
256
6
ByLayer
370
18
48
1
60
0
100
AcDbDimension
2
_U0
10
24
20
-25.660403
30
0
11
39
21
-25.660403
31
0
70
32
71
1
72
1
41
1
210
0
220
0
230
1
3
Standard
100
AcDbAlignedDimension
13
54
23
-10.0001
33
0
14
24
24
-10.0001
34
0
50
0
100
AcDbRotatedDimension
1001
ACAD
1000
DSTYLE
1002
{
1070
   371
1070
    13
1070
   372
1070
    13
1070
   170
1070
     0
1070
   144
1040
1.0
1070
   277
1070
     2
1070
   284
1070
     8
1070
   278
1070
    46
1070
   146
1040
1.0
1070
   345
1005
16
1070
   347
1005
16
1070
   346
1005
16
1070
   344
1005
0
1070
   343
1005
0
1070
   172
1070
     1
1070
    76
1070
     0
1070
    75
1070
     0
1070
   282
1070
     0
1070
   281
1070
     0
1070
    71
1070
     0
1070
    74
1070
     0
1070
   279
1070
     0
1070
   173
1070
     1
1070
   340
1005
128
1070
   271
1070
     2
1070
   272
1070
     2
1070
    77
1070
     1
1070
    73
1070
     1
1070
   171
1070
     3
1070
   274
1070
     4
1070
   177
1070
     2
1070
   176
1070
     2
1070
   178
1070
     2
1070
    78
1070
     8
1070
    48
1040
-0.1
1070
    41
1040
3.5
1070
   147
1040
1.75
1070
    42
1040
1.5875
1070
    44
1040
2.0
1070
   140
1040
3.5
1002
}
1001
ACAD_DSTYLE_DIM_LINETYPE
1070
   380
1005
16
1001
ACAD_DSTYLE_DIM_EXT1_LINETYPE
1070
   381
1005
16
1001
ACAD_DSTYLE_DIM_EXT2_LINETYPE
1070
   382
1005
16
0
ENDSEC
0
SECTION
2
OBJECTS
0
DICTIONARY
5
1d2
330
0
100
AcDbDictionary
280
0
281
1
3
ACAD_GROUP
350
1d3
3
ACAD_MLINESTYLE
350
1d4
0
DICTIONARY
5
1d3
330
0
100
AcDbDictionary
280
0
281
1
0
DICTIONARY
5
1d4
330
0
100
AcDbDictionary
280
0
281
1
3
Standard
350
18
0
MLINESTYLE
5
18
330
1d4
100
AcDbMlineStyle
2
Standard
70
0
3

62
256
51
90
52
90
71
2
49
-0.5
62
256
6
ByLayer
49
0.5
62
256
6
ByLayer
0
RASTERVARIABLES
5
1c0
330

100
AcDbRasterVariables
90
0
70
1
71
1
72
1
0
ENDSEC
0
EOF
