0
SECTION
2
HEADER
9
$ACADVER
1
AC1015
9
$DWGCODEPAGE
3
ANSI_1252
9
$HANDSEED
5
25a
9
$ANGBASE
50
0
9
$ANGDIR
70
0
9
$ATTMODE
70
1
9
$AUNITS
70
0
9
$AUPREC
70
0
9
$CECOLOR
62
256
9
$CELTSCALE
40
1
9
$CELTYPE
6
ByLayer
9
$CELWEIGHT
370
18
9
$CLAYER
8
0
9
$CMLJUST
70
0
9
$CMLSCALE
40
1
9
$CMLSTYLE
2
Standard
9
$DIMSTYLE
2
Standard
9
$TEXTSIZE
40
0.2
9
$TEXTSTYLE
7
Standard
9
$LUNITS
70
2
9
$LUPREC
70
4
9
$EXTNAMES
290
1
9
$INSUNITS
70
4
9
$LTSCALE
40
1
9
$LWDISPLAY
290
1
9
$PDMODE
70
0
9
$PDSIZE
40
0
9
$PLINEGEN
70
0
0
ENDSEC
0
SECTION
2
CLASSES
0
CLASS
1
RASTERVARIABLES
2
AcDbRasterVariables
3
ISM
90
0
280
0
281
0
0
ENDSEC
0
SECTION
2
TABLES
0
TABLE
2
VPORT
5
250
100
AcDbSymbolTable
0
VPORT
5
1
100
AcDbSymbolTableRecord
100
AcDbViewportTableRecord
2
*Active
70
0
10
0
20
0
11
1
21
1
12
-1
22
1
13
0
23
0
14
0.5
24
0.5
15
10
25
10
16
0
26
0
36
1
17
0
27
0
37
0
0
ENDTAB
0
TABLE
2
LTYPE
5
251
100
AcDbSymbolTable
0
LTYPE
5
14
100
AcDbSymbolTableRecord
100
AcDbLinetypeTableRecord
70
0
2
ByBlock
3

72
65
73
0
40
0
0
LTYPE
5
15
100
AcDbSymbolTableRecord
100
AcDbLinetypeTableRecord
70
0
2
ByLayer
3

72
65
73
0
40
0
0
LTYPE
5
16
100
AcDbSymbolTableRecord
100
AcDbLinetypeTableRecord
70
0
2
Continuous
3
Solid line
72
65
73
0
40
0
0
LTYPE
5
6E
100
AcDbSymbolTableRecord
100
AcDbLinetypeTableRecord
70
0
2
CENTER
3
____ _ ____ _ ____ _ ____
72
65
73
4
40
47.5
49
22
74
0
49
-8.5
74
0
49
8.5
74
0
49
-8.5
74
0
0
LTYPE
5
6F
100
AcDbSymbolTableRecord
100
AcDbLinetypeTableRecord
70
0
2
DASHED
3
__ __ __ __ __ __ __ __ __
72
65
73
2
40
25.72
49
12.86
74
0
49
-12.86
74
0
0
ENDTAB
0
TABLE
2
LAYER
5
252
100
AcDbSymbolTable
0
LAYER
5
10
100
AcDbSymbolTableRecord
100
AcDbLayerTableRecord
2
0
70
0
62
7
6
Continuous
290
1
370
-3
390
0
0
LAYER
5
71
100
AcDbSymbolTableRecord
100
AcDbLayerTableRecord
2
81
70
0
62
-3
6
Continuous
290
1
370
-3
390
0
0
LAYER
5
73
100
AcDbSymbolTableRecord
100
AcDbLayerTableRecord
2
80
70
0
62
-6
6
Continuous
290
1
370
-3
390
0
0
LAYER
5
75
100
AcDbSymbolTableRecord
100
AcDbLayerTableRecord
2
1
70
0
62
4
6
Continuous
290
1
370
-3
390
0
0
LAYER
5
17F
100
AcDbSymbolTableRecord
100
AcDbLayerTableRecord
2
Defpoints
70
0
62
7
6
Continuous
290
0
370
-3
390
0
0
LAYER
5
18C
100
AcDbSymbolTableRecord
100
AcDbLayerTableRecord
2
2
70
0
62
7
6
Continuous
290
1
370
-3
390
0
0
LAYER
5
23f
100
AcDbSymbolTableRecord
100
AcDbLayerTableRecord
2
SK6
70
0
62
5
6
Continuous
290
1
370
-3
390
0
0
ENDTAB
0
TABLE
2
STYLE
5
253
100
AcDbSymbolTable
0
STYLE
5
11
100
AcDbSymbolTableRecord
100
AcDbTextStyleTableRecord
2
Standard
3
txt
70
0
71
0
40
0
41
1
42
0
50
0
0
STYLE
5
178
100
AcDbSymbolTableRecord
100
AcDbTextStyleTableRecord
2
iso_b_vert
3
simplex.shx
70
0
71
0
40
0
41
1
42
0
50
0
0
STYLE
5
179
100
AcDbSymbolTableRecord
100
AcDbTextStyleTableRecord
2
DWGDirectTextStyle
3
simplex
70
0
71
0
40
0
41
1
42
0
50
0
0
ENDTAB
0
TABLE
2
DIMSTYLE
5
254
100
AcDbSymbolTable
100
AcDbDimStyleTable
0
DIMSTYLE
105
27
100
AcDbSymbolTableRecord
100
AcDbDimStyleTableRecord
2
Standard
70
0
3
<>
41
0.18
42
0.0625
44
0.18
140
0.18
147
0.09
73
0
74
0
77
1
271
2
275
0
278
52
280
0
340
11
0
ENDTAB
0
TABLE
2
VIEW
5
255
100
AcDbSymbolTable
0
ENDTAB
0
TABLE
2
UCS
5
256
100
AcDbSymbolTable
0
ENDTAB
0
TABLE
2
APPID
5
257
100
AcDbSymbolTable
0
APPID
5
12
100
AcDbSymbolTableRecord
100
AcDbRegAppTableRecord
2
ACAD
70
0
0
APPID
5
17B
100
AcDbSymbolTableRecord
100
AcDbRegAppTableRecord
2
ACAD_DSTYLE_DIMBREAK
70
0
0
APPID
5
1FE
100
AcDbSymbolTableRecord
100
AcDbRegAppTableRecord
2
ACAD_DSTYLE_DIM_LINETYPE
70
0
0
APPID
5
1FF
100
AcDbSymbolTableRecord
100
AcDbRegAppTableRecord
2
ACAD_DSTYLE_DIM_EXT1_LINETYPE
70
0
0
APPID
5
200
100
AcDbSymbolTableRecord
100
AcDbRegAppTableRecord
2
ACAD_DSTYLE_DIM_EXT2_LINETYPE
70
0
0
APPID
5
23B
100
AcDbSymbolTableRecord
100
AcDbRegAppTableRecord
2
ACAD_MLEADERVER
70
0
0
ENDTAB
0
TABLE
2
BLOCK_RECORD
5
258
100
AcDbSymbolTable
0
BLOCK_RECORD
5
1F
100
AcDbSymbolTableRecord
100
AcDbBlockTableRecord
2
*Model_Space
340
0
70
0
0
BLOCK_RECORD
5
1B
100
AcDbSymbolTableRecord
100
AcDbBlockTableRecord
2
*Paper_Space
340
0
70
0
0
BLOCK_RECORD
5
23
100
AcDbSymbolTableRecord
100
AcDbBlockTableRecord
2
*Paper_Space0
340
0
70
0
0
BLOCK_RECORD
5
180
100
AcDbSymbolTableRecord
100
AcDbBlockTableRecord
2
*D1
340
0
70
0
0
BLOCK_RECORD
5
18D
100
AcDbSymbolTableRecord
100
AcDbBlockTableRecord
2
_U0
340
0
70
0
0
BLOCK_RECORD
5
199
100
AcDbSymbolTableRecord
100
AcDbBlockTableRecord
2
*D3
340
0
70
0
0
BLOCK_RECORD
5
1A5
100
AcDbSymbolTableRecord
100
AcDbBlockTableRecord
2
_U1
340
0
70
0
0
BLOCK_RECORD
5
1B1
100
AcDbSymbolTableRecord
100
AcDbBlockTableRecord
2
*D5
340
0
70
0
0
BLOCK_RECORD
5
1BE
100
AcDbSymbolTableRecord
100
AcDbBlockTableRecord
2
_U2
340
0
70
0
0
BLOCK_RECORD
5
1CA
100
AcDbSymbolTableRecord
100
AcDbBlockTableRecord
2
*D7
340
0
70
0
0
BLOCK_RECORD
5
1D7
100
AcDbSymbolTableRecord
100
AcDbBlockTableRecord
2
_U3
340
0
70
0
0
ENDTAB
0
ENDSEC
0
SECTION
2
BLOCKS
0
BLOCK
5
20
100
AcDbEntity
8
0
100
AcDbBlockBegin
2
*Model_Space
70
0
10
0
20
0
30
0
3
*Model_Space
0
ENDBLK
5
21
100
AcDbEntity
8
0
100
AcDbBlockEnd
0
BLOCK
5
1C
100
AcDbEntity
8
0
100
AcDbBlockBegin
2
*Paper_Space
70
0
10
0
20
0
30
0
3
*Paper_Space
0
ENDBLK
5
1D
100
AcDbEntity
8
0
100
AcDbBlockEnd
0
BLOCK
5
24
100
AcDbEntity
8
0
100
AcDbBlockBegin
2
*Paper_Space0
70
0
10
0
20
0
30
0
3
*Paper_Space0
0
ENDBLK
5
25
100
AcDbEntity
8
0
100
AcDbBlockEnd
0
BLOCK
5
181
100
AcDbEntity
8
0
100
AcDbBlockBegin
2
*D1
70
1
10
0
20
0
30
0
3
*D1
0
LINE
5
183
100
AcDbEntity
8
0
62
256
6
ByLayer
370
-2
48
1
60
0
100
AcDbLine
10
0
20
1.5875
30
0
11
0
21
18.25
31
0
39
0
210
0
220
0
230
1
0
LINE
5
184
100
AcDbEntity
8
0
62
256
6
ByLayer
370
-2
48
1
60
0
100
AcDbLine
10
37.6
20
-12.4125
30
0
11
37.6
21
18.25
31
0
39
0
210
0
220
0
230
1
0
LINE
5
185
100
AcDbEntity
8
0
62
256
6
ByLayer
370
-2
48
1
60
0
100
AcDbLine
10
3.5
20
16.25
30
0
11
34.1
21
16.25
31
0
39
0
210
0
220
0
230
1
0
SOLID
5
186
100
AcDbEntity
8
0
62
256
6
ByLayer
370
-1
48
1
60
0
100
AcDbTrace
10
3.5
20
16.833333
30
0
11
3.5
21
15.666667
31
0
12
0
22
16.25
32
0
13
0
23
16.25
33
0
39
0
210
0
220
0
230
1
0
SOLID
5
187
100
AcDbEntity
8
0
62
256
6
ByLayer
370
-1
48
1
60
0
100
AcDbTrace
10
34.1
20
15.666667
30
0
11
34.1
21
16.833333
31
0
12
37.6
22
16.25
32
0
13
37.6
23
16.25
33
0
39
0
210
0
220
0
230
1
0
MTEXT
5
188
100
AcDbEntity
8
0
62
256
6
ByLayer
370
18
48
1
60
0
100
AcDbMText
10
18.8
20
23.25
30
0
210
0
220
0
230
1
1
\A1;37.6
40
3.5
41
0
44
1
50
0
71
5
72
5
7
iso_b_vert
0
POINT
5
189
100
AcDbEntity
8
Defpoints
62
0
6
ByLayer
370
-1
48
1
60
0
100
AcDbPoint
10
0
20
0
30
0
39
0
210
0
220
0
230
1
50
360
0
POINT
5
18A
100
AcDbEntity
8
Defpoints
62
0
6
ByLayer
370
-1
48
1
60
0
100
AcDbPoint
10
37.6
20
-14
30
0
39
0
210
0
220
0
230
1
50
360
0
POINT
5
18B
100
AcDbEntity
8
Defpoints
62
0
6
ByLayer
370
-1
48
1
60
0
100
AcDbPoint
10
37.6
20
16.25
30
0
39
0
210
0
220
0
230
1
50
360
0
ENDBLK
5
182
100
AcDbEntity
8
0
100
AcDbBlockEnd
0
BLOCK
5
194
100
AcDbEntity
8
0
100
AcDbBlockBegin
2
_U0
70
0
10
0
20
0
30
0
3
_U0
0
MTEXT
5
18E
100
AcDbEntity
8
2
62
256
6
ByLayer
370
18
48
1
60
0
100
AcDbMText
10
14.878301
20
17.282634
30
0
210
0
220
0
230
1
1
\W0.7346;37.6
40
3.5
41
0
44
1.084337
50
0
71
7
72
5
7
iso_b_vert
0
LINE
5
18F
100
AcDbEntity
8
2
62
256
6
ByLayer
370
13
48
1
60
0
100
AcDbLine
10
0
20
1.5875
30
0
11
0
21
18.25
31
0
39
0
210
0
220
0
230
1
0
LINE
5
190
100
AcDbEntity
8
2
62
256
6
ByLayer
370
13
48
1
60
0
100
AcDbLine
10
37.6
20
-12.4125
30
0
11
37.6
21
18.25
31
0
39
0
210
0
220
0
230
1
0
LINE
5
191
100
AcDbEntity
8
2
62
256
6
ByLayer
370
13
48
1
60
0
100
AcDbLine
10
0
20
16.25
30
0
11
37.6
21
16.25
31
0
39
0
210
0
220
0
230
1
0
SOLID
5
192
100
AcDbEntity
8
2
62
256
6
ByLayer
370
18
48
1
60
0
100
AcDbTrace
10
0
20
16.25
30
0
11
3.499998
21
16.710784
31
0
12
3.500002
22
15.789216
32
0
13
3.500002
23
15.789216
33
0
39
0
210
0
220
0
230
1
0
SOLID
5
193
100
AcDbEntity
8
2
62
256
6
ByLayer
370
18
48
1
60
0
100
AcDbTrace
10
37.6
20
16.25
30
0
11
34.100002
21
15.789216
31
0
12
34.099998
22
16.710784
32
0
13
34.099998
23
16.710784
33
0
39
0
210
0
220
0
230
1
0
ENDBLK
5
195
100
AcDbEntity
8
0
100
AcDbBlockEnd
0
BLOCK
5
19A
100
AcDbEntity
8
0
100
AcDbBlockBegin
2
*D3
70
1
10
0
20
0
30
0
3
*D3
0
LINE
5
19C
100
AcDbEntity
8
0
62
256
6
ByLayer
370
-2
48
1
60
0
100
AcDbLine
10
19.6
20
-9.7375
30
0
11
19.6
21
10.25
31
0
39
0
210
0
220
0
230
1
0
LINE
5
19D
100
AcDbEntity
8
0
62
256
6
ByLayer
370
-2
48
1
60
0
100
AcDbLine
10
37.6
20
-12.4125
30
0
11
37.6
21
10.25
31
0
39
0
210
0
220
0
230
1
0
LINE
5
19E
100
AcDbEntity
8
0
62
256
6
ByLayer
370
-2
48
1
60
0
100
AcDbLine
10
23.1
20
8.25
30
0
11
34.1
21
8.25
31
0
39
0
210
0
220
0
230
1
0
SOLID
5
19F
100
AcDbEntity
8
0
62
256
6
ByLayer
370
-1
48
1
60
0
100
AcDbTrace
10
23.1
20
8.833333
30
0
11
23.1
21
7.666667
31
0
12
19.6
22
8.25
32
0
13
19.6
23
8.25
33
0
39
0
210
0
220
0
230
1
0
SOLID
5
1A0
100
AcDbEntity
8
0
62
256
6
ByLayer
370
-1
48
1
60
0
100
AcDbTrace
10
34.1
20
7.666667
30
0
11
34.1
21
8.833333
31
0
12
37.6
22
8.25
32
0
13
37.6
23
8.25
33
0
39
0
210
0
220
0
230
1
0
MTEXT
5
1A1
100
AcDbEntity
8
0
62
256
6
ByLayer
370
18
48
1
60
0
100
AcDbMText
10
28.6
20
15.25
30
0
210
0
220
0
230
1
1
\A1;18
40
3.5
41
0
44
1
50
0
71
5
72
5
7
iso_b_vert
0
POINT
5
1A2
100
AcDbEntity
8
Defpoints
62
0
6
ByLayer
370
-1
48
1
60
0
100
AcDbPoint
10
19.6
20
-11.325
30
0
39
0
210
0
220
0
230
1
50
360
0
POINT
5
1A3
100
AcDbEntity
8
Defpoints
62
0
6
ByLayer
370
-1
48
1
60
0
100
AcDbPoint
10
37.6
20
-14
30
0
39
0
210
0
220
0
230
1
50
360
0
POINT
5
1A4
100
AcDbEntity
8
Defpoints
62
0
6
ByLayer
370
-1
48
1
60
0
100
AcDbPoint
10
37.6
20
8.25
30
0
39
0
210
0
220
0
230
1
50
360
0
ENDBLK
5
19B
100
AcDbEntity
8
0
100
AcDbBlockEnd
0
BLOCK
5
1AC
100
AcDbEntity
8
0
100
AcDbBlockBegin
2
_U1
70
0
10
0
20
0
30
0
3
_U1
0
MTEXT
5
1A6
100
AcDbEntity
8
2
62
256
6
ByLayer
370
18
48
1
60
0
100
AcDbMText
10
27.132467
20
9.282634
30
0
210
0
220
0
230
1
1
\W0.5321;18
40
3.5
41
0
44
1.084337
50
0
71
7
72
5
7
iso_b_vert
0
LINE
5
1A7
100
AcDbEntity
8
2
62
256
6
ByLayer
370
13
48
1
60
0
100
AcDbLine
10
19.6
20
-9.7375
30
0
11
19.6
21
10.25
31
0
39
0
210
0
220
0
230
1
0
LINE
5
1A8
100
AcDbEntity
8
2
62
256
6
ByLayer
370
13
48
1
60
0
100
AcDbLine
10
37.6
20
-12.4125
30
0
11
37.6
21
10.25
31
0
39
0
210
0
220
0
230
1
0
LINE
5
1A9
100
AcDbEntity
8
2
62
256
6
ByLayer
370
13
48
1
60
0
100
AcDbLine
10
19.6
20
8.25
30
0
11
37.6
21
8.25
31
0
39
0
210
0
220
0
230
1
0
SOLID
5
1AA
100
AcDbEntity
8
2
62
256
6
ByLayer
370
18
48
1
60
0
100
AcDbTrace
10
19.6
20
8.25
30
0
11
23.099998
21
8.710784
31
0
12
23.100002
22
7.789216
32
0
13
23.100002
23
7.789216
33
0
39
0
210
0
220
0
230
1
0
SOLID
5
1AB
100
AcDbEntity
8
2
62
256
6
ByLayer
370
18
48
1
60
0
100
AcDbTrace
10
37.6
20
8.25
30
0
11
34.100002
21
7.789216
31
0
12
34.099998
22
8.710784
32
0
13
34.099998
23
8.710784
33
0
39
0
210
0
220
0
230
1
0
ENDBLK
5
1AD
100
AcDbEntity
8
0
100
AcDbBlockEnd
0
BLOCK
5
1B2
100
AcDbEntity
8
0
100
AcDbBlockBegin
2
*D5
70
1
10
0
20
0
30
0
3
*D5
0
LINE
5
1B4
100
AcDbEntity
8
0
62
256
6
ByLayer
370
-2
48
1
60
0
100
AcDbLine
10
39.1875
20
-14
30
0
11
64.35
21
-14
31
0
39
0
210
0
220
0
230
1
0
LINE
5
1B5
100
AcDbEntity
8
0
62
256
6
ByLayer
370
-2
48
1
60
0
100
AcDbLine
10
1.5875
20
0
30
0
11
64.35
21
0
31
0
39
0
210
0
220
0
230
1
0
LINE
5
1B6
100
AcDbEntity
8
0
62
256
6
ByLayer
370
-2
48
1
60
0
100
AcDbLine
10
62.35
20
-17.5
30
0
11
62.35
21
-21
31
0
39
0
210
0
220
0
230
1
0
LINE
5
1B7
100
AcDbEntity
8
0
62
256
6
ByLayer
370
-2
48
1
60
0
100
AcDbLine
10
62.35
20
3.5
30
0
11
62.35
21
7
31
0
39
0
210
0
220
0
230
1
0
SOLID
5
1B8
100
AcDbEntity
8
0
62
256
6
ByLayer
370
-1
48
1
60
0
100
AcDbTrace
10
62.933333
20
-17.5
30
0
11
61.766667
21
-17.5
31
0
12
62.35
22
-14
32
0
13
62.35
23
-14
33
0
39
0
210
0
220
0
230
1
0
SOLID
5
1B9
100
AcDbEntity
8
0
62
256
6
ByLayer
370
-1
48
1
60
0
100
AcDbTrace
10
61.766667
20
3.5
30
0
11
62.933333
21
3.5
31
0
12
62.35
22
0
32
0
13
62.35
23
0
33
0
39
0
210
0
220
0
230
1
0
MTEXT
5
1BA
100
AcDbEntity
8
0
62
256
6
ByLayer
370
18
48
1
60
0
100
AcDbMText
10
55.35
20
-7
30
0
210
0
220
0
230
1
1
\A1;14
40
3.5
41
0
44
1
50
90
71
5
72
5
7
iso_b_vert
0
POINT
5
1BB
100
AcDbEntity
8
Defpoints
62
0
6
ByLayer
370
-1
48
1
60
0
100
AcDbPoint
10
37.6
20
-14
30
0
39
0
210
0
220
0
230
1
50
360
0
POINT
5
1BC
100
AcDbEntity
8
Defpoints
62
0
6
ByLayer
370
-1
48
1
60
0
100
AcDbPoint
10
0
20
0
30
0
39
0
210
0
220
0
230
1
50
360
0
POINT
5
1BD
100
AcDbEntity
8
Defpoints
62
0
6
ByLayer
370
-1
48
1
60
0
100
AcDbPoint
10
62.35
20
0
30
0
39
0
210
0
220
0
230
1
50
360
0
ENDBLK
5
1B3
100
AcDbEntity
8
0
100
AcDbBlockEnd
0
BLOCK
5
1C5
100
AcDbEntity
8
0
100
AcDbBlockBegin
2
_U2
70
0
10
0
20
0
30
0
3
_U2
0
MTEXT
5
1BF
100
AcDbEntity
8
2
62
256
6
ByLayer
370
18
48
1
60
0
100
AcDbMText
10
61.660366
20
-8.6798
30
0
210
0
220
0
230
1
1
\W0.5785;14
40
3.5
41
0
44
1.084337
50
90
71
7
72
5
7
iso_b_vert
0
LINE
5
1C0
100
AcDbEntity
8
2
62
256
6
ByLayer
370
13
48
1
60
0
100
AcDbLine
10
39.1875
20
-14
30
0
11
64.35
21
-14
31
0
39
0
210
0
220
0
230
1
0
LINE
5
1C1
100
AcDbEntity
8
2
62
256
6
ByLayer
370
13
48
1
60
0
100
AcDbLine
10
1.5875
20
0
30
0
11
64.35
21
0
31
0
39
0
210
0
220
0
230
1
0
LINE
5
1C2
100
AcDbEntity
8
2
62
256
6
ByLayer
370
13
48
1
60
0
100
AcDbLine
10
62.35
20
-14
30
0
11
62.35
21
0
31
0
39
0
210
0
220
0
230
1
0
SOLID
5
1C3
100
AcDbEntity
8
2
62
256
6
ByLayer
370
18
48
1
60
0
100
AcDbTrace
10
62.35
20
-14
30
0
11
61.889216
21
-10.500002
31
0
12
62.810784
22
-10.499998
32
0
13
62.810784
23
-10.499998
33
0
39
0
210
0
220
0
230
1
0
SOLID
5
1C4
100
AcDbEntity
8
2
62
256
6
ByLayer
370
18
48
1
60
0
100
AcDbTrace
10
62.35
20
0
30
0
11
62.810784
21
-3.499998
31
0
12
61.889216
22
-3.500002
32
0
13
61.889216
23
-3.500002
33
0
39
0
210
0
220
0
230
1
0
ENDBLK
5
1C6
100
AcDbEntity
8
0
100
AcDbBlockEnd
0
BLOCK
5
1CB
100
AcDbEntity
8
0
100
AcDbBlockBegin
2
*D7
70
1
10
0
20
0
30
0
3
*D7
0
LINE
5
1CD
100
AcDbEntity
8
0
62
256
6
ByLayer
370
-2
48
1
60
0
100
AcDbLine
10
39.1875
20
-14
30
0
11
51.35
21
-14
31
0
39
0
210
0
220
0
230
1
0
LINE
5
1CE
100
AcDbEntity
8
0
62
256
6
ByLayer
370
-2
48
1
60
0
100
AcDbLine
10
39.1875
20
-11
30
0
11
51.35
21
-11
31
0
39
0
210
0
220
0
230
1
0
LINE
5
1CF
100
AcDbEntity
8
0
62
256
6
ByLayer
370
-2
48
1
60
0
100
AcDbLine
10
49.35
20
-17.5
30
0
11
49.35
21
-21
31
0
39
0
210
0
220
0
230
1
0
LINE
5
1D0
100
AcDbEntity
8
0
62
256
6
ByLayer
370
-2
48
1
60
0
100
AcDbLine
10
49.35
20
-7.5
30
0
11
49.35
21
-4
31
0
39
0
210
0
220
0
230
1
0
SOLID
5
1D1
100
AcDbEntity
8
0
62
256
6
ByLayer
370
-1
48
1
60
0
100
AcDbTrace
10
49.933333
20
-17.5
30
0
11
48.766667
21
-17.5
31
0
12
49.35
22
-14
32
0
13
49.35
23
-14
33
0
39
0
210
0
220
0
230
1
0
SOLID
5
1D2
100
AcDbEntity
8
0
62
256
6
ByLayer
370
-1
48
1
60
0
100
AcDbTrace
10
48.766667
20
-7.5
30
0
11
49.933333
21
-7.5
31
0
12
49.35
22
-11
32
0
13
49.35
23
-11
33
0
39
0
210
0
220
0
230
1
0
MTEXT
5
1D3
100
AcDbEntity
8
0
62
256
6
ByLayer
370
18
48
1
60
0
100
AcDbMText
10
42.35
20
-12.5
30
0
210
0
220
0
230
1
1
\A1;3
40
3.5
41
0
44
1
50
90
71
5
72
5
7
iso_b_vert
0
POINT
5
1D4
100
AcDbEntity
8
Defpoints
62
0
6
ByLayer
370
-1
48
1
60
0
100
AcDbPoint
10
37.6
20
-14
30
0
39
0
210
0
220
0
230
1
50
360
0
POINT
5
1D5
100
AcDbEntity
8
Defpoints
62
0
6
ByLayer
370
-1
48
1
60
0
100
AcDbPoint
10
37.6
20
-11
30
0
39
0
210
0
220
0
230
1
50
360
0
POINT
5
1D6
100
AcDbEntity
8
Defpoints
62
0
6
ByLayer
370
-1
48
1
60
0
100
AcDbPoint
10
49.35
20
-11
30
0
39
0
210
0
220
0
230
1
50
360
0
ENDBLK
5
1CC
100
AcDbEntity
8
0
100
AcDbBlockEnd
0
BLOCK
5
1DE
100
AcDbEntity
8
0
100
AcDbBlockBegin
2
_U3
70
0
10
0
20
0
30
0
3
_U3
0
MTEXT
5
1D8
100
AcDbEntity
8
2
62
256
6
ByLayer
370
18
48
1
60
0
100
AcDbMText
10
48.660366
20
-13.125233
30
0
210
0
220
0
230
1
1
\W0.5404;3
40
3.5
41
0
44
1.084337
50
90
71
7
72
5
7
iso_b_vert
0
LINE
5
1D9
100
AcDbEntity
8
2
62
256
6
ByLayer
370
13
48
1
60
0
100
AcDbLine
10
39.1875
20
-14
30
0
11
51.35
21
-14
31
0
39
0
210
0
220
0
230
1
0
LINE
5
1DA
100
AcDbEntity
8
2
62
256
6
ByLayer
370
13
48
1
60
0
100
AcDbLine
10
39.1875
20
-11
30
0
11
51.35
21
-11
31
0
39
0
210
0
220
0
230
1
0
LINE
5
1DB
100
AcDbEntity
8
2
62
256
6
ByLayer
370
13
48
1
60
0
100
AcDbLine
10
49.35
20
-22.75
30
0
11
49.35
21
-2.25
31
0
39
0
210
0
220
0
230
1
0
SOLID
5
1DC
100
AcDbEntity
8
2
62
256
6
ByLayer
370
18
48
1
60
0
100
AcDbTrace
10
49.35
20
-14
30
0
11
49.810784
21
-17.499998
31
0
12
48.889216
22
-17.500002
32
0
13
48.889216
23
-17.500002
33
0
39
0
210
0
220
0
230
1
0
SOLID
5
1DD
100
AcDbEntity
8
2
62
256
6
ByLayer
370
18
48
1
60
0
100
AcDbTrace
10
49.35
20
-11
30
0
11
48.889216
21
-7.500002
31
0
12
49.810784
22
-7.499998
32
0
13
49.810784
23
-7.499998
33
0
39
0
210
0
220
0
230
1
0
ENDBLK
5
1DF
100
AcDbEntity
8
0
100
AcDbBlockEnd
0
ENDSEC
0
SECTION
2
ENTITIES
0
ARC
5
102
100
AcDbEntity
8
1
62
256
6
ByLayer
370
18
48
1
60
0
100
AcDbCircle
39
0
10
12.5
20
-6.3
30
0
40
1.416
210
0
220
0
230
1
100
AcDbArc
50
119.809289
51
173.807562
0
ARC
5
103
100
AcDbEntity
8
1
62
256
6
ByLayer
370
18
48
1
60
0
100
AcDbCircle
39
0
10
12.5
20
-6.3
30
0
40
1.416
210
0
220
0
230
1
100
AcDbArc
50
299.809289
51
353.807562
0
ARC
5
104
100
AcDbEntity
8
1
62
256
6
ByLayer
370
18
48
1
60
0
100
AcDbCircle
39
0
10
12.5
20
-6.3
30
0
40
1.416
210
0
220
0
230
1
100
AcDbArc
50
6.192438
51
60.190711
0
ARC
5
105
100
AcDbEntity
8
1
62
256
6
ByLayer
370
18
48
1
60
0
100
AcDbCircle
39
0
10
12.5
20
-6.3
30
0
40
1.416
210
0
220
0
230
1
100
AcDbArc
50
186.192438
51
240.190711
0
ARC
5
106
100
AcDbEntity
8
1
62
256
6
ByLayer
370
18
48
1
60
0
100
AcDbCircle
39
0
10
12.5
20
-6.3
30
0
40
1.416
210
0
220
0
230
1
100
AcDbArc
50
60.190711
51
119.809289
0
ARC
5
107
100
AcDbEntity
8
1
62
256
6
ByLayer
370
18
48
1
60
0
100
AcDbCircle
39
0
10
12.5
20
-6.3
30
0
40
1.416
210
0
220
0
230
1
100
AcDbArc
50
240.190711
51
299.809289
0
ARC
5
10A
100
AcDbEntity
8
1
62
256
6
ByLayer
370
18
48
1
60
0
100
AcDbCircle
39
0
10
12.5
20
-6.3
30
0
40
1.9685
210
0
220
0
230
1
100
AcDbArc
50
90
51
149.618578
0
ARC
5
10B
100
AcDbEntity
8
1
62
256
6
ByLayer
370
18
48
1
60
0
100
AcDbCircle
39
0
10
12.5
20
-6.3
30
0
40
1.9685
210
0
220
0
230
1
100
AcDbArc
50
30.381422
51
90
0
ARC
5
10C
100
AcDbEntity
8
1
62
256
6
ByLayer
370
18
48
1
60
0
100
AcDbCircle
39
0
10
12.5
20
-6.3
30
0
40
1.9685
210
0
220
0
230
1
100
AcDbArc
50
210.381422
51
270
0
ARC
5
10D
100
AcDbEntity
8
1
62
256
6
ByLayer
370
18
48
1
60
0
100
AcDbCircle
39
0
10
12.5
20
-6.3
30
0
40
1.416
210
0
220
0
230
1
100
AcDbArc
50
353.807562
51
6.192438
0
ARC
5
10E
100
AcDbEntity
8
1
62
256
6
ByLayer
370
18
48
1
60
0
100
AcDbCircle
39
0
10
12.5
20
-6.3
30
0
40
1.9685
210
0
220
0
230
1
100
AcDbArc
50
329.618578
51
30.381422
0
ARC
5
10F
100
AcDbEntity
8
1
62
256
6
ByLayer
370
18
48
1
60
0
100
AcDbCircle
39
0
10
12.5
20
-6.3
30
0
40
1.9685
210
0
220
0
230
1
100
AcDbArc
50
270
51
329.618578
0
ARC
5
110
100
AcDbEntity
8
1
62
256
6
ByLayer
370
18
48
1
60
0
100
AcDbCircle
39
0
10
12.5
20
-6.3
30
0
40
1.9685
210
0
220
0
230
1
100
AcDbArc
50
149.618578
51
210.381422
0
ARC
5
111
100
AcDbEntity
8
1
62
256
6
ByLayer
370
18
48
1
60
0
100
AcDbCircle
39
0
10
12.5
20
-6.3
30
0
40
1.416
210
0
220
0
230
1
100
AcDbArc
50
173.807562
51
186.192438
0
ARC
5
112
100
AcDbEntity
8
1
62
256
6
ByLayer
370
18
48
1
60
0
100
AcDbCircle
39
0
10
19.6
20
-9.725
30
0
40
1.6
210
0
220
0
230
1
100
AcDbArc
50
180
51
270
0
CIRCLE
5
108
100
AcDbEntity
8
1
62
256
6
ByLayer
370
18
48
1
60
0
100
AcDbCircle
10
12.5
20
-6.3
30
0
40
4.25
39
0
210
0
220
0
230
1
0
CIRCLE
5
109
100
AcDbEntity
8
1
62
256
6
ByLayer
370
18
48
1
60
0
100
AcDbCircle
10
12.5
20
-6.3
30
0
40
3.75
39
0
210
0
220
0
230
1
0
CIRCLE
5
113
100
AcDbEntity
8
1
62
256
6
ByLayer
370
18
48
1
60
0
100
AcDbCircle
10
12.5
20
-6.3
30
0
40
4.55
39
0
210
0
220
0
230
1
0
ELLIPSE
5
114
100
AcDbEntity
8
1
62
256
6
ByLayer
370
18
48
1
60
0
100
AcDbEllipse
10
33.828061
20
-10.55
30
0
11
0.897993681842857
21
0
31
0
210
0
220
0
230
1
40
0.890875
41
-1.5707963267949
42
-1.29515256586033
0
ELLIPSE
5
115
100
AcDbEntity
8
1
62
256
6
ByLayer
370
18
48
1
60
0
100
AcDbEllipse
10
33.695006
20
-12.066064
30
0
11
1.13425636391733
21
0
31
0
210
0
220
0
230
1
40
0.176327
41
-2.80561677258081
42
-1.98717825108441
0
ELLIPSE
5
116
100
AcDbEntity
8
1
62
256
6
ByLayer
370
18
48
1
60
0
100
AcDbEllipse
10
37.823799
20
-10.419859
30
0
11
11.3425636451939
21
0
31
0
210
0
220
0
230
1
40
0.176327
41
-1.98717825092155
42
-1.91986217707085
0
ELLIPSE
5
117
100
AcDbEntity
8
1
62
256
6
ByLayer
370
18
48
1
60
0
100
AcDbEllipse
10
33.590371
20
-12.5
30
0
11
1.19096918211183
21
0
31
0
210
0
220
0
230
1
40
0.176327
41
0
42
1.22173047639636
0
ELLIPSE
5
118
100
AcDbEntity
8
1
62
256
6
ByLayer
370
18
48
1
60
0
100
AcDbEllipse
10
33.590371
20
-12.5
30
0
11
1.19096918211259
21
0
31
0
210
0
220
0
230
1
40
0.176327
41
-1.22173047639597
42
0
0
ELLIPSE
5
119
100
AcDbEntity
8
1
62
256
6
ByLayer
370
18
48
1
60
0
100
AcDbEllipse
10
37.823799
20
-14.580141
30
0
11
11.3425636351042
21
0
31
0
210
0
220
0
230
1
40
0.176327
41
1.91986217728477
42
1.98717825120205
0
ELLIPSE
5
11A
100
AcDbEntity
8
1
62
256
6
ByLayer
370
18
48
1
60
0
100
AcDbEllipse
10
33.695006
20
-12.933936
30
0
11
1.13425636391642
21
0
31
0
210
0
220
0
230
1
40
0.176327
41
1.98717825108407
42
2.80561677258107
0
ELLIPSE
5
11B
100
AcDbEntity
8
1
62
256
6
ByLayer
370
18
48
1
60
0
100
AcDbEllipse
10
32.223179
20
-13.525438
30
0
11
0.850692272846454
21
0
31
0
210
0
220
0
230
1
40
0.176327
41
2.80561677256266
42
3.14159265358979
0
ELLIPSE
5
11C
100
AcDbEntity
8
1
62
256
6
ByLayer
370
18
48
1
60
0
100
AcDbEllipse
10
33.828061
20
-14.45
30
0
11
0.897993681814869
21
0
31
0
210
0
220
0
230
1
40
0.890875
41
1.29515256585163
42
1.5707963267949
0
ELLIPSE
5
11D
100
AcDbEntity
8
1
62
256
6
ByLayer
370
18
48
1
60
0
100
AcDbEllipse
10
33.171498
20
-11.75
30
0
11
-2.3287088041805E-17
21
-0.126773189709051
31
0
210
0
220
0
230
1
40
0.984808
41
0
42
6.28318530717959
0
ELLIPSE
5
11E
100
AcDbEntity
8
1
62
256
6
ByLayer
370
18
48
1
60
0
100
AcDbEllipse
10
32.223179
20
-11.474562
30
0
11
0.850692273023902
21
0
31
0
210
0
220
0
230
1
40
0.176327
41
3.14159265358979
42
-2.80561677259823
0
POINT
5
70
100
AcDbEntity
8
81
62
256
6
ByLayer
370
18
48
1
60
0
100
AcDbPoint
10
37.6
20
-14
30
0
39
0
210
0
220
0
230
1
50
360
0
POINT
5
72
100
AcDbEntity
8
80
62
256
6
ByLayer
370
18
48
1
60
0
100
AcDbPoint
10
0
20
0
30
0
39
0
210
0
220
0
230
1
50
360
0
POINT
5
74
100
AcDbEntity
8
1
62
256
6
ByLayer
370
18
48
1
60
1
100
AcDbPoint
10
0
20
0
30
0
39
0
210
0
220
0
230
1
50
360
0
POINT
5
76
100
AcDbEntity
8
1
62
256
6
ByLayer
370
18
48
1
60
1
100
AcDbPoint
10
37.6
20
-14
30
0
39
0
210
0
220
0
230
1
50
360
0
POINT
5
77
100
AcDbEntity
8
1
62
256
6
ByLayer
370
18
48
1
60
1
100
AcDbPoint
10
19.6
20
-11.325
30
0
39
0
210
0
220
0
230
1
50
360
0
POINT
5
78
100
AcDbEntity
8
1
62
256
6
ByLayer
370
18
48
1
60
1
100
AcDbPoint
10
37.6
20
-14
30
0
39
0
210
0
220
0
230
1
50
360
0
POINT
5
79
100
AcDbEntity
8
1
62
256
6
ByLayer
370
18
48
1
60
1
100
AcDbPoint
10
37.6
20
-14
30
0
39
0
210
0
220
0
230
1
50
360
0
POINT
5
7A
100
AcDbEntity
8
1
62
256
6
ByLayer
370
18
48
1
60
1
100
AcDbPoint
10
0
20
0
30
0
39
0
210
0
220
0
230
1
50
360
0
POINT
5
7B
100
AcDbEntity
8
1
62
256
6
ByLayer
370
18
48
1
60
1
100
AcDbPoint
10
37.6
20
-14
30
0
39
0
210
0
220
0
230
1
50
360
0
POINT
5
7C
100
AcDbEntity
8
1
62
256
6
ByLayer
370
18
48
1
60
1
100
AcDbPoint
10
37.6
20
-11
30
0
39
0
210
0
220
0
230
1
50
360
0
SPLINE
5
11F
100
AcDbEntity
8
1
62
256
6
ByLayer
370
18
48
1
60
0
100
AcDbSpline
70
4
71
2
72
6
73
3
40
0
40
0
40
0
40
1
40
1
40
1
41
1.03186391735993
10
17.6000100019494
20
-13.8031513524259
30
0
41
0.729637973226922
10
17.6000100019494
20
-14.0031513524259
30
0
41
1.03186391735993
10
17.8000100019494
20
-14.0031513524259
30
0
0
SPLINE
5
120
100
AcDbEntity
8
1
62
256
6
ByLayer
370
18
48
1
60
0
100
AcDbSpline
70
4
71
2
72
6
73
3
40
0
40
0
40
0
40
1
40
1
40
1
41
1.03186391735993
10
17.8000100019494
20
-14.0031513524259
30
0
41
1.03138264657361
10
17.9222210551437
20
-14.0031513524259
30
0
41
1.03186391735993
10
18.0442041600888
20
-13.9956905461133
30
0
0
SPLINE
5
121
100
AcDbEntity
8
1
62
256
6
ByLayer
370
18
48
1
60
0
100
AcDbSpline
70
4
71
2
72
6
73
3
40
0
40
0
40
0
40
1
40
1
40
1
41
1.03186391735993
10
37.3999899980506
20
-14.0031513524258
30
0
41
1.03138264657361
10
37.2777789448563
20
-14.0031513524258
30
0
41
1.03186391735993
10
37.1557958399112
20
-13.9956905461133
30
0
0
SPLINE
5
122
100
AcDbEntity
8
1
62
256
6
ByLayer
370
18
48
1
60
0
100
AcDbSpline
70
4
71
2
72
6
73
3
40
0
40
0
40
0
40
1
40
1
40
1
41
1.03186391735993
10
37.5999899980507
20
-13.8031513524259
30
0
41
0.729637973226922
10
37.5999899980506
20
-14.0031513524258
30
0
41
1.03186391735993
10
37.3999899980506
20
-14.0031513524258
30
0
0
SPLINE
5
123
100
AcDbEntity
8
1
62
256
6
ByLayer
370
18
48
1
60
0
100
AcDbSpline
70
4
71
2
72
6
73
3
40
0
40
0
40
0
40
1
40
1
40
1
41
1.03186391735993
10
37.3999899980506
20
-10.9968486475742
30
0
41
0.729637973226922
10
37.5999899980506
20
-10.9968486475742
30
0
41
1.03186391735993
10
37.5999899980507
20
-11.1968486475742
30
0
0
SPLINE
5
124
100
AcDbEntity
8
1
62
256
6
ByLayer
370
18
48
1
60
0
100
AcDbSpline
70
4
71
2
72
6
73
3
40
0
40
0
40
0
40
1
40
1
40
1
41
1.03186391735993
10
37.1557958399112
20
-11.0043094538867
30
0
41
1.03138264657361
10
37.2777789448563
20
-10.9968486475741
30
0
41
1.03186391735993
10
37.3999899980506
20
-10.9968486475742
30
0
0
SPLINE
5
125
100
AcDbEntity
8
1
62
256
6
ByLayer
370
18
48
1
60
0
100
AcDbSpline
70
4
71
3
72
8
73
4
40
0
40
0
40
0
40
0
40
1
40
1
40
1
40
1
41
1
10
35.0196694163912
20
-11.081125024782
30
0
41
1
10
35.0324648695621
20
-11.0779008471107
30
0
41
1
10
35.0455611420818
20
-11.0759995976199
30
0
41
1
10
35.058733010777
20
-11.0754385382393
30
0
0
SPLINE
5
126
100
AcDbEntity
8
1
62
256
6
ByLayer
370
18
48
1
60
0
100
AcDbSpline
70
4
71
3
72
8
73
4
40
0
40
0
40
0
40
0
40
1
40
1
40
1
40
1
41
1
10
35.058733010784
20
-13.924561461761
30
0
41
1
10
35.0455611270319
20
-13.9240004017391
30
0
41
1
10
35.0324648843562
20
-13.9220991566168
30
0
41
1
10
35.0196694163936
20
-13.9188749752186
30
0
0
SPLINE
5
127
100
AcDbEntity
8
1
62
256
6
ByLayer
370
18
48
1
60
0
100
AcDbSpline
70
4
71
3
72
8
73
4
40
0
40
0
40
0
40
0
40
1
40
1
40
1
40
1
41
1
10
20.141266989223
20
-13.9245614617607
30
0
41
1
10
20.1544387873141
20
-13.9240004053875
30
0
41
1
10
20.1675351982697
20
-13.9220991357971
30
0
41
1
10
20.1803305836088
20
-13.918874975218
30
0
0
SPLINE
5
128
100
AcDbEntity
8
1
62
256
6
ByLayer
370
18
48
1
60
0
100
AcDbSpline
70
4
71
3
72
8
73
4
40
0
40
0
40
0
40
0
40
1
40
1
40
1
40
1
41
1
10
20.1803305836064
20
-11.0811250247814
30
0
41
1
10
20.1675351840278
20
-11.0779008606145
30
0
41
1
10
20.1544388017949
20
-11.0759995952292
30
0
41
1
10
20.141266989216
20
-11.075438538239
30
0
0
SPLINE
5
129
100
AcDbEntity
8
1
62
256
6
ByLayer
370
18
48
1
60
0
100
AcDbSpline
70
4
71
3
72
24
73
20
40
0
40
0
40
0
40
0
40
0.0625000000000002
40
0.0625000000000002
40
0.125
40
0.125
40
0.250000000000012
40
0.250000000000012
40
0.312500000000015
40
0.312500000000015
40
0.375000000000019
40
0.375000000000019
40
0.500000000000015
40
0.500000000000015
40
0.62500000000001
40
0.62500000000001
40
0.750000000000005
40
0.750000000000005
40
1
40
1
40
1
40
1
41
1
10
10.8018189416602
20
-5.30442311040483
30
0
41
1
10
10.8065686621776
20
-5.29632139018685
30
0
41
1
10
10.8117102110135
20
-5.28835019077266
30
0
41
1
10
10.822644678414
20
-5.2729069342991
30
0
41
1
10
10.8283991722251
20
-5.26548230486321
30
0
41
1
10
10.846492943595
20
-5.24406724837235
30
0
41
1
10
10.8596568946641
20
-5.23092976047491
30
0
41
1
10
10.8810396271602
20
-5.21291952202378
30
0
41
1
10
10.8884568790795
20
-5.20719464554415
30
0
41
1
10
10.9035429811598
20
-5.19652908650144
30
0
41
1
10
10.9112458314832
20
-5.19155746548532
30
0
41
1
10
10.9348134384497
20
-5.17768476963977
30
0
41
1
10
10.9511344439336
20
-5.16981928227153
30
0
41
1
10
10.9849623499584
20
-5.15680967244006
30
0
41
1
10
11.002026605104
20
-5.15183493909819
30
0
41
1
10
11.0363970022404
20
-5.14467600751669
30
0
41
1
10
11.053762941252
20
-5.14249069308138
30
0
41
1
10
11.10583055587
20
-5.14006078995394
30
0
41
1
10
11.1393960892915
20
-5.14386070823119
30
0
41
1
10
11.1718476620214
20
-5.15254896641514
30
0
0
SPLINE
5
12A
100
AcDbEntity
8
1
62
256
6
ByLayer
370
18
48
1
60
0
100
AcDbSpline
70
4
71
3
72
26
73
22
40
0
40
0
40
0
40
0
40
0.125000000000006
40
0.125000000000006
40
0.250000000000012
40
0.250000000000012
40
0.312500000000015
40
0.312500000000015
40
0.375000000000018
40
0.375000000000018
40
0.500000000000019
40
0.500000000000019
40
0.562500000000015
40
0.562500000000015
40
0.625000000000011
40
0.625000000000011
40
0.750000000000008
40
0.750000000000008
40
0.875000000000004
40
0.875000000000004
40
1
40
1
40
1
40
1
41
1
10
12.5
20
-4.3315
30
0
41
1
10
12.4812579161203
20
-4.3315
30
0
41
1
10
12.462209975879
20
-4.33313720449542
30
0
41
1
10
12.4253294541457
20
-4.33951471931707
30
0
41
1
10
12.4073531625206
20
-4.3442272083345
30
0
41
1
10
12.3810727694392
20
-4.35353461389684
30
0
41
1
10
12.3723863894371
20
-4.35703247490466
30
0
41
1
10
12.355517452384
20
-4.36466586976397
30
0
41
1
10
12.3473226044842
20
-4.36880090073512
30
0
41
1
10
12.3234267481805
20
-4.38211767058428
30
0
41
1
10
12.3084100630755
20
-4.39220543750665
30
0
41
1
10
12.2872244605916
20
-4.40909529291378
30
0
41
1
10
12.280408081431
20
-4.41500738261556
30
0
41
1
10
12.2674404104893
20
-4.42720262815712
30
0
41
1
10
12.2612596172288
20
-4.43350870321464
30
0
41
1
10
12.2435909177987
20
-4.4530236472242
30
0
41
1
10
12.232971729029
20
-4.46682587233792
30
0
41
1
10
12.2139986190539
20
-4.49595446676008
30
0
41
1
10
12.2058188411954
20
-4.51102270581376
30
0
41
1
10
12.1919779801761
20
-4.5418822523001
30
0
41
1
10
12.1862980163446
20
-4.55770511051188
30
0
41
1
10
12.1818380304532
20
-4.57390455985569
30
0
0
SPLINE
5
12B
100
AcDbEntity
8
1
62
256
6
ByLayer
370
18
48
1
60
0
100
AcDbSpline
70
4
71
3
72
34
73
30
40
0
40
0
40
0
40
0
40
0.125000000000006
40
0.125000000000006
40
0.187500000000008
40
0.187500000000008
40
0.218750000000009
40
0.218750000000009
40
0.250000000000009
40
0.250000000000009
40
0.375000000000012
40
0.375000000000012
40
0.406250000000013
40
0.406250000000013
40
0.437500000000013
40
0.500000000000012
40
0.56250000000001
40
0.56250000000001
40
0.625000000000009
40
0.625000000000009
40
0.687500000000007
40
0.687500000000007
40
0.750000000000005
40
0.750000000000005
40
0.875000000000003
40
0.875000000000003
40
0.937500000000001
40
0.937500000000001
40
1
40
1
40
1
40
1
41
1
10
11.1718476620214
20
-5.15254896641514
30
0
41
1
10
11.2208394593323
20
-5.16566553822128
30
0
41
1
10
11.2709450984191
20
-5.17429781589067
30
0
41
1
10
11.3481023724607
20
-5.18020796039974
30
0
41
1
10
11.3741579501174
20
-5.18099652363569
30
0
41
1
10
11.4138278946093
20
-5.18026949064011
30
0
41
1
10
11.4271798085304
20
-5.1797058008467
30
0
41
1
10
11.4539537358994
20
-5.17791587688788
30
0
41
1
10
11.4673321899401
20
-5.17669409847286
30
0
41
1
10
11.5341945419055
20
-5.16893328405448
30
0
41
1
10
11.5875894364998
20
-5.15751015172043
30
0
41
1
10
11.6544113754504
20
-5.13576735026379
30
0
41
1
10
11.667796193224
20
-5.13103085495371
30
0
41
1
10
11.6941478369934
20
-5.12093535155316
30
0
41
1
10
11.7332059929599
20
-5.10480971466944
30
0
41
1
10
11.7959862068402
20
-5.0730756366417
30
0
41
1
10
11.8437246825773
20
-5.04246919635739
30
0
41
1
10
11.8901697315483
20
-5.00915030755084
30
0
41
1
10
11.9121863952644
20
-4.99153568005107
30
0
41
1
10
11.9539492170246
20
-4.95455398122533
30
0
41
1
10
11.9737029913318
20
-4.93518044967058
30
0
41
1
10
12.0110603053287
20
-4.89471509489789
30
0
41
1
10
12.0287068593985
20
-4.87354047710855
30
0
41
1
10
12.0773730428752
20
-4.80901579412998
30
0
41
1
10
12.1046398483741
20
-4.76422684516902
30
0
41
1
10
12.138792442722
20
-4.69443079497154
30
0
41
1
10
12.1490658739523
20
-4.67064915473739
30
0
41
1
10
12.1672193811967
20
-4.62260884499673
30
0
41
1
10
12.1751020665243
20
-4.59837075977276
30
0
41
1
10
12.1818380304532
20
-4.57390455985569
30
0
0
SPLINE
5
12C
100
AcDbEntity
8
1
62
256
6
ByLayer
370
18
48
1
60
0
100
AcDbSpline
70
4
71
3
72
34
73
30
40
0
40
0
40
0
40
0
40
0.12500000000001
40
0.12500000000001
40
0.187500000000014
40
0.187500000000014
40
0.218750000000016
40
0.218750000000016
40
0.250000000000017
40
0.250000000000017
40
0.375000000000018
40
0.375000000000018
40
0.406250000000018
40
0.406250000000018
40
0.437500000000017
40
0.500000000000016
40
0.562500000000014
40
0.562500000000014
40
0.625000000000012
40
0.625000000000012
40
0.68750000000001
40
0.68750000000001
40
0.750000000000009
40
0.750000000000009
40
0.875000000000005
40
0.875000000000005
40
0.937500000000003
40
0.937500000000003
40
1
40
1
40
1
40
1
41
1
10
12.8181619695468
20
-4.57390455985569
30
0
41
1
10
12.8316243955842
20
-4.62280244741564
30
0
41
1
10
12.8495186520746
20
-4.67039327330426
30
0
41
1
10
12.8834427074956
20
-4.73994421350943
30
0
41
1
10
12.8959401462236
20
-4.76282059910326
30
0
41
1
10
12.9166305781722
20
-4.79667527743027
30
0
41
1
10
12.9238696464604
20
-4.8079085887575
30
0
41
1
10
12.9389547957833
20
-4.83010059627478
30
0
41
1
10
12.9467750039595
20
-4.84102397035392
30
0
41
1
10
12.9872859904911
20
-4.89477956517544
30
0
41
1
10
13.0241451570225
20
-4.9350648551457
30
0
41
1
10
13.0766976577682
20
-4.98171414448021
30
0
41
1
10
13.0875531522008
20
-4.99086542607262
30
0
41
1
10
13.1095897675602
20
-5.00849255858915
30
0
41
1
10
13.1432548145305
20
-5.03403155123453
30
0
41
1
10
13.2023826118536
20
-5.07214074180729
30
0
41
1
10
13.2529298677765
20
-5.09784459108235
30
0
41
1
10
13.3051631063884
20
-5.12106053729735
30
0
41
1
10
13.331493866305
20
-5.13114515114498
30
0
41
1
10
13.3845188699141
20
-5.14846936167731
30
0
41
1
10
13.4112225356448
20
-5.15571226011585
30
0
41
1
10
13.4650247101003
20
-5.16747406457989
30
0
41
1
10
13.492216397077
20
-5.17198820416115
30
0
41
1
10
13.5724935208943
20
-5.18133781453537
30
0
41
1
10
13.6249222467065
20
-5.18220808685402
30
0
41
1
10
13.7024065588862
20
-5.17637113204725
30
0
41
1
10
13.7281182805367
20
-5.17320613060608
30
0
41
1
10
13.7787427947223
20
-5.16457017437006
30
0
41
1
10
13.80363915096
20
-5.15911188093094
30
0
41
1
10
13.8281523379786
20
-5.15254896641514
30
0
0
SPLINE
5
12D
100
AcDbEntity
8
1
62
256
6
ByLayer
370
18
48
1
60
0
100
AcDbSpline
70
4
71
3
72
24
73
20
40
0
40
0
40
0
40
0
40
0.0625000000000001
40
0.0625000000000001
40
0.125
40
0.125
40
0.24999999999999
40
0.24999999999999
40
0.312499999999986
40
0.312499999999986
40
0.374999999999983
40
0.374999999999983
40
0.499999999999985
40
0.499999999999985
40
0.624999999999988
40
0.624999999999988
40
0.74999999999999
40
0.74999999999999
40
1
40
1
40
1
40
1
41
1
10
14.1981810583398
20
-5.30442311040483
30
0
41
1
10
14.1934313378224
20
-5.29632139018685
30
0
41
1
10
14.1882897889865
20
-5.28835019077266
30
0
41
1
10
14.177355321586
20
-5.2729069342991
30
0
41
1
10
14.1716008277749
20
-5.26548230486321
30
0
41
1
10
14.153507056405
20
-5.24406724837235
30
0
41
1
10
14.1403431053359
20
-5.23092976047491
30
0
41
1
10
14.1189603728398
20
-5.21291952202378
30
0
41
1
10
14.1115431209205
20
-5.20719464554415
30
0
41
1
10
14.0964570188402
20
-5.19652908650144
30
0
41
1
10
14.0887541685168
20
-5.19155746548529
30
0
41
1
10
14.0651865615503
20
-5.17768476963977
30
0
41
1
10
14.0488655560664
20
-5.16981928227153
30
0
41
1
10
14.0150376500416
20
-5.15680967244006
30
0
41
1
10
13.997973394896
20
-5.15183493909819
30
0
41
1
10
13.9636029977596
20
-5.14467600751669
30
0
41
1
10
13.946237058748
20
-5.14249069308138
30
0
41
1
10
13.89416944413
20
-5.14006078995394
30
0
41
1
10
13.8606039107085
20
-5.14386070823119
30
0
41
1
10
13.8281523379786
20
-5.15254896641514
30
0
0
SPLINE
5
12E
100
AcDbEntity
8
1
62
256
6
ByLayer
370
18
48
1
60
0
100
AcDbSpline
70
4
71
3
72
26
73
22
40
0
40
0
40
0
40
0
40
0.249999999999993
40
0.249999999999993
40
0.312499999999992
40
0.312499999999992
40
0.374999999999991
40
0.374999999999991
40
0.499999999999985
40
0.499999999999985
40
0.562499999999987
40
0.562499999999987
40
0.62499999999999
40
0.62499999999999
40
0.750000000000006
40
0.750000000000006
40
0.812500000000008
40
0.812500000000008
40
0.875000000000009
40
0.875000000000009
40
1
40
1
40
1
40
1
41
1
10
12.8181619695468
20
-4.57390455985569
30
0
41
1
10
12.8092192305469
20
-4.54142296665097
30
0
41
1
10
12.7954876322591
20
-4.51053631026812
30
0
41
1
10
12.771835338829
20
-4.47420148267821
30
0
41
1
10
12.7667495067732
20
-4.46702254257585
30
0
41
1
10
12.7560530091763
20
-4.45314060543947
30
0
41
1
10
12.7504333990711
20
-4.44641840555309
30
0
41
1
10
12.7327595033493
20
-4.42691327369096
30
0
41
1
10
12.7198957841168
20
-4.41478719136356
30
0
41
1
10
12.6988810548679
20
-4.3980105932508
30
0
41
1
10
12.6915883106091
20
-4.39265488280677
30
0
41
1
10
12.6763916134438
20
-4.38244843396362
30
0
41
1
10
12.6685411707113
20
-4.37763788709572
30
0
41
1
10
12.6445437728381
20
-4.36427550706148
30
0
41
1
10
12.6278334996496
20
-4.35670309595525
30
0
41
1
10
12.6016705104134
20
-4.34741602014864
30
0
41
1
10
12.5927656700965
20
-4.34466726841731
30
0
41
1
10
12.5745707697433
20
-4.3398983058961
30
0
41
1
10
12.5652845989499
20
-4.33788547449547
30
0
41
1
10
12.5374812768526
20
-4.33309641628659
30
0
41
1
10
12.51880895329
20
-4.3315
30
0
41
1
10
12.5
20
-4.3315
30
0
0
SPLINE
5
12F
100
AcDbEntity
8
1
62
256
6
ByLayer
370
18
48
1
60
0
100
AcDbSpline
70
4
71
3
72
26
73
22
40
0
40
0
40
0
40
0
40
0.250000000000002
40
0.250000000000002
40
0.3125
40
0.3125
40
0.374999999999998
40
0.374999999999998
40
0.499999999999995
40
0.499999999999995
40
0.562499999999998
40
0.562499999999998
40
0.625000000000003
40
0.625000000000003
40
0.750000000000012
40
0.750000000000012
40
0.812500000000012
40
0.812500000000012
40
0.875000000000011
40
0.875000000000011
40
1
40
1
40
1
40
1
41
1
10
12.1818380304532
20
-8.02609544014433
30
0
41
1
10
12.1907807694531
20
-8.05857703334902
30
0
41
1
10
12.204512367741
20
-8.0894636897319
30
0
41
1
10
12.228164661171
20
-8.12579851732181
30
0
41
1
10
12.2332504932269
20
-8.13297745742418
30
0
41
1
10
12.2439469908237
20
-8.14685939456052
30
0
41
1
10
12.2495666009289
20
-8.15358159444693
30
0
41
1
10
12.2672404966507
20
-8.17308672630904
30
0
41
1
10
12.2801042158832
20
-8.18521280863646
30
0
41
1
10
12.3011189451321
20
-8.20198940674919
30
0
41
1
10
12.3084116893909
20
-8.20734511719323
30
0
41
1
10
12.3236083865562
20
-8.21755156603638
30
0
41
1
10
12.3314588292887
20
-8.22236211290428
30
0
41
1
10
12.3554562271619
20
-8.23572449293852
30
0
41
1
10
12.3721665003504
20
-8.24329690404474
30
0
41
1
10
12.3983294895866
20
-8.25258397985135
30
0
41
1
10
12.4072343299035
20
-8.25533273158271
30
0
41
1
10
12.4254292302567
20
-8.26010169410389
30
0
41
1
10
12.4347154010501
20
-8.26211452550453
30
0
41
1
10
12.4625187231474
20
-8.2669035837134
30
0
41
1
10
12.48119104671
20
-8.26849999999999
30
0
41
1
10
12.5
20
-8.26849999999999
30
0
0
SPLINE
5
130
100
AcDbEntity
8
1
62
256
6
ByLayer
370
18
48
1
60
0
100
AcDbSpline
70
4
71
3
72
34
73
30
40
0
40
0
40
0
40
0
40
0.125000000000014
40
0.125000000000014
40
0.187500000000019
40
0.187500000000019
40
0.21875000000002
40
0.21875000000002
40
0.250000000000021
40
0.250000000000021
40
0.375000000000022
40
0.375000000000022
40
0.406250000000021
40
0.406250000000021
40
0.437500000000021
40
0.500000000000019
40
0.562500000000016
40
0.562500000000016
40
0.625000000000014
40
0.625000000000014
40
0.687500000000012
40
0.687500000000012
40
0.75000000000001
40
0.75000000000001
40
0.875000000000006
40
0.875000000000006
40
0.937500000000003
40
0.937500000000003
40
1
40
1
40
1
40
1
41
1
10
12.1818380304532
20
-8.02609544014433
30
0
41
1
10
12.1683756044158
20
-7.97719755258436
30
0
41
1
10
12.1504813479254
20
-7.92960672669574
30
0
41
1
10
12.1165572925044
20
-7.86005578649056
30
0
41
1
10
12.1040598537764
20
-7.83717940089676
30
0
41
1
10
12.0833694218278
20
-7.80332472256973
30
0
41
1
10
12.0761303535396
20
-7.7920914112425
30
0
41
1
10
12.0610452042167
20
-7.76989940372522
30
0
41
1
10
12.0532249960405
20
-7.75897602964608
30
0
41
1
10
12.0127140095089
20
-7.70522043482455
30
0
41
1
10
11.9758548429775
20
-7.6649351448543
30
0
41
1
10
11.9233023422318
20
-7.61828585551982
30
0
41
1
10
11.9124468477992
20
-7.60913457392738
30
0
41
1
10
11.8904102324398
20
-7.59150744141084
30
0
41
1
10
11.8567451854695
20
-7.56596844876549
30
0
41
1
10
11.797617556169
20
-7.52785899714598
30
0
41
1
10
11.7470701322235
20
-7.50215540891767
30
0
41
1
10
11.6948368936116
20
-7.47893946270264
30
0
41
1
10
11.668506133695
20
-7.46885484885502
30
0
41
1
10
11.6154811300859
20
-7.45153063832271
30
0
41
1
10
11.5887774643552
20
-7.44428773988415
30
0
41
1
10
11.5349752898997
20
-7.4325259354201
30
0
41
1
10
11.507783602923
20
-7.42801179583884
30
0
41
1
10
11.4275064791057
20
-7.41866218546463
30
0
41
1
10
11.3750777532936
20
-7.41779191314598
30
0
41
1
10
11.2975934411139
20
-7.42362886795274
30
0
41
1
10
11.2718817194633
20
-7.42679386939392
30
0
41
1
10
11.2212572052777
20
-7.43542982562994
30
0
41
1
10
11.19636084904
20
-7.44088811906909
30
0
41
1
10
11.1718476620214
20
-7.44745103358485
30
0
0
SPLINE
5
131
100
AcDbEntity
8
1
62
256
6
ByLayer
370
18
48
1
60
0
100
AcDbSpline
70
4
71
3
72
24
73
20
40
0
40
0
40
0
40
0
40
0.0624999999999942
40
0.0624999999999942
40
0.124999999999988
40
0.124999999999988
40
0.249999999999988
40
0.249999999999988
40
0.312499999999985
40
0.312499999999985
40
0.374999999999983
40
0.374999999999983
40
0.499999999999986
40
0.499999999999986
40
0.624999999999988
40
0.624999999999988
40
0.749999999999991
40
0.749999999999991
40
1
40
1
40
1
40
1
41
1
10
10.8018189416602
20
-7.29557688959517
30
0
41
1
10
10.8065686621776
20
-7.30367860981315
30
0
41
1
10
10.8117102110135
20
-7.31164980922736
30
0
41
1
10
10.822644678414
20
-7.32709306570092
30
0
41
1
10
10.8283991722251
20
-7.33451769513678
30
0
41
1
10
10.846492943595
20
-7.35593275162765
30
0
41
1
10
10.8596568946641
20
-7.36907023952509
30
0
41
1
10
10.8810396271602
20
-7.38708047797621
30
0
41
1
10
10.8884568790795
20
-7.39280535445585
30
0
41
1
10
10.9035429811598
20
-7.40347091349855
30
0
41
1
10
10.9112458314832
20
-7.40844253451471
30
0
41
1
10
10.9348134384497
20
-7.42231523036023
30
0
41
1
10
10.9511344439337
20
-7.43018071772849
30
0
41
1
10
10.9849623499584
20
-7.44319032755993
30
0
41
1
10
11.002026605104
20
-7.44816506090183
30
0
41
1
10
11.0363970022404
20
-7.4553239924833
30
0
41
1
10
11.053762941252
20
-7.45750930691861
30
0
41
1
10
11.10583055587
20
-7.45993921004606
30
0
41
1
10
11.1393960892915
20
-7.45613929176884
30
0
41
1
10
11.1718476620214
20
-7.44745103358485
30
0
0
SPLINE
5
132
100
AcDbEntity
8
1
62
256
6
ByLayer
370
18
48
1
60
0
100
AcDbSpline
70
4
71
3
72
17
73
13
40
0
40
0
40
0
40
0
40
0.250000000000007
40
0.250000000000007
40
0.500000000000014
40
0.500000000000014
40
0.562500000000011
40
0.562500000000011
40
0.625000000000008
40
0.750000000000005
40
0.750000000000005
40
1
40
1
40
1
40
1
41
1
10
14.1435826280887
20
-5.7078822958328
30
0
41
1
10
14.1146246036311
20
-5.73604768119054
30
0
41
1
10
14.0877690589037
20
-5.76627424213535
30
0
41
1
10
14.0382802616332
20
-5.831078323387
30
0
41
1
10
14.0156427078132
20
-5.86564930486622
30
0
41
1
10
13.9902105226126
20
-5.91201148814338
30
0
41
1
10
13.9852575520371
20
-5.92146529018868
30
0
41
1
10
13.9757163583556
20
-5.94057472388636
30
0
41
1
10
13.9619501115276
20
-5.96953796305181
30
0
41
1
10
13.9498230334517
20
-5.99941372325662
30
0
41
1
10
13.927809076327
20
-6.06045061207817
30
0
41
1
10
13.9160955020357
20
-6.10284180273297
30
0
41
1
10
13.9077379362998
20
-6.14725870662355
30
0
0
SPLINE
5
133
100
AcDbEntity
8
1
62
256
6
ByLayer
370
18
48
1
60
0
100
AcDbSpline
70
4
71
3
72
18
73
14
40
0
40
0
40
0
40
0
40
0.249999999999999
40
0.249999999999999
40
0.374999999999996
40
0.374999999999996
40
0.437499999999997
40
0.437499999999997
40
0.499999999999999
40
0.499999999999999
40
0.749999999999999
40
0.749999999999999
40
1
40
1
40
1
40
1
41
1
10
13.9077379362998
20
-6.45274129337645
30
0
41
1
10
13.9160970234351
20
-6.49716628285734
30
0
41
1
10
13.9278059238629
20
-6.53952872768284
30
0
41
1
10
13.9497852995846
20
-6.60048759793963
30
0
41
1
10
13.9578539822307
20
-6.62037281285285
30
0
41
1
10
13.9710409062469
20
-6.64958514624345
30
0
41
1
10
13.975617474447
20
-6.65921984345724
30
0
41
1
10
13.985130709005
20
-6.67828787560947
30
0
41
1
10
13.990079124144
20
-6.68774202982482
30
0
41
1
10
14.0155498531436
20
-6.73420879187771
30
0
41
1
10
14.0382169974673
20
-6.76883334385502
30
0
41
1
10
14.0877505294597
20
-6.8337069753097
30
0
41
1
10
14.1146213965619
20
-6.86394919952417
30
0
41
1
10
14.1435826280887
20
-6.89211770416719
30
0
0
SPLINE
5
134
100
AcDbEntity
8
1
62
256
6
ByLayer
370
18
48
1
60
0
100
AcDbSpline
70
4
71
3
72
24
73
20
40
0
40
0
40
0
40
0
40
0.125000000000009
40
0.125000000000009
40
0.187500000000009
40
0.187500000000009
40
0.250000000000008
40
0.250000000000008
40
0.375000000000008
40
0.375000000000008
40
0.500000000000008
40
0.500000000000008
40
0.625000000000008
40
0.625000000000008
40
0.687500000000009
40
0.687500000000009
40
0.75000000000001
40
0.75000000000001
40
1
40
1
40
1
40
1
41
1
10
14.1981810583398
20
-7.29557688959517
30
0
41
1
10
14.2079282570253
20
-7.27895084257395
30
0
41
1
10
14.2161357366899
20
-7.26163824881965
30
0
41
1
10
14.2261657634977
20
-7.23465255621272
30
0
41
1
10
14.2291359412957
20
-7.22545262888155
30
0
41
1
10
14.2342485495552
20
-7.20685546517265
30
0
41
1
10
14.2363695892661
20
-7.19754907943678
30
0
41
1
10
14.241496344613
20
-7.16960896588179
30
0
41
1
10
14.2432740738269
20
-7.1509543402438
30
0
41
1
10
14.2436815034584
20
-7.1136000580581
30
0
41
1
10
14.2422604780044
20
-7.09476107757362
30
0
41
1
10
14.2364872949031
20
-7.05858489507949
30
0
41
1
10
14.2321586246314
20
-7.04106952644702
30
0
41
1
10
14.2236520963913
20
-7.01561112318157
30
0
41
1
10
14.2204791393987
20
-7.00726150218696
30
0
41
1
10
14.21346298447
20
-6.99083605914888
30
0
41
1
10
14.2096028514273
20
-6.98273325540876
30
0
41
1
10
14.1889846413071
20
-6.94358412847944
30
0
41
1
10
14.1682141523736
20
-6.91607501432293
30
0
41
1
10
14.1435826280887
20
-6.89211770416719
30
0
0
SPLINE
5
135
100
AcDbEntity
8
1
62
256
6
ByLayer
370
18
48
1
60
0
100
AcDbSpline
70
4
71
3
72
24
73
20
40
0
40
0
40
0
40
0
40
0.249999999999997
40
0.249999999999997
40
0.312499999999999
40
0.312499999999999
40
0.375000000000002
40
0.375000000000002
40
0.500000000000001
40
0.500000000000001
40
0.625
40
0.625
40
0.75
40
0.75
40
0.812499999999999
40
0.812499999999999
40
0.874999999999999
40
0.874999999999999
40
1
40
1
40
1
40
1
41
1
10
14.1435826280887
20
-5.7078822958328
30
0
41
1
10
14.1682141523736
20
-5.68392498567707
30
0
41
1
10
14.1889846413071
20
-5.65641587152055
30
0
41
1
10
14.2096028514273
20
-5.61726674459123
30
0
41
1
10
14.21346298447
20
-5.60916394085115
30
0
41
1
10
14.2204791393987
20
-5.59273849781306
30
0
41
1
10
14.2236520963912
20
-5.58438887681842
30
0
41
1
10
14.2321586246314
20
-5.55893047355298
30
0
41
1
10
14.2364872949031
20
-5.5414151049205
30
0
41
1
10
14.2422604780044
20
-5.50523892242637
30
0
41
1
10
14.2436815034584
20
-5.48639994194193
30
0
41
1
10
14.2432740738269
20
-5.44904565975619
30
0
41
1
10
14.241496344613
20
-5.4303910341182
30
0
41
1
10
14.2363695892661
20
-5.40245092056321
30
0
41
1
10
14.2342485495552
20
-5.39314453482734
30
0
41
1
10
14.2291359412957
20
-5.37454737111844
30
0
41
1
10
14.2261657634977
20
-5.3653474437873
30
0
41
1
10
14.2161357366899
20
-5.33836175118034
30
0
41
1
10
14.2079282570253
20
-5.32104915742607
30
0
41
1
10
14.1981810583398
20
-5.30442311040483
30
0
0
SPLINE
5
136
100
AcDbEntity
8
1
62
256
6
ByLayer
370
18
48
1
60
0
100
AcDbSpline
70
4
71
3
72
34
73
30
40
0
40
0
40
0
40
0
40
0.125000000000001
40
0.125000000000001
40
0.187499999999999
40
0.187499999999999
40
0.218749999999999
40
0.218749999999999
40
0.249999999999998
40
0.249999999999998
40
0.374999999999992
40
0.374999999999992
40
0.406249999999991
40
0.406249999999991
40
0.43749999999999
40
0.499999999999991
40
0.562499999999993
40
0.562499999999993
40
0.624999999999995
40
0.624999999999995
40
0.687499999999997
40
0.687499999999997
40
0.749999999999999
40
0.749999999999999
40
0.875000000000001
40
0.875000000000001
40
0.9375
40
0.9375
40
1
40
1
40
1
40
1
41
1
10
13.8281523379786
20
-7.44745103358485
30
0
41
1
10
13.7791605406677
20
-7.43433446177875
30
0
41
1
10
13.729054901581
20
-7.42570218410935
30
0
41
1
10
13.6518976275393
20
-7.41979203960025
30
0
41
1
10
13.6258420498826
20
-7.41900347636431
30
0
41
1
10
13.5861721053907
20
-7.41973050935991
30
0
41
1
10
13.5728201914696
20
-7.42029419915329
30
0
41
1
10
13.5460462641006
20
-7.42208412311211
30
0
41
1
10
13.5326678100599
20
-7.42330590152713
30
0
41
1
10
13.4658054580945
20
-7.43106671594552
30
0
41
1
10
13.4124105635002
20
-7.44248984827956
30
0
41
1
10
13.3455886245496
20
-7.4642326497362
30
0
41
1
10
13.3322038067761
20
-7.46896914504629
30
0
41
1
10
13.3058521630066
20
-7.47906464844684
30
0
41
1
10
13.2667940070402
20
-7.49519028533055
30
0
41
1
10
13.2040137931598
20
-7.52692436335829
30
0
41
1
10
13.1562753174227
20
-7.55753080364264
30
0
41
1
10
13.1098302684517
20
-7.59084969244915
30
0
41
1
10
13.0878136047356
20
-7.60846431994895
30
0
41
1
10
13.0460507829755
20
-7.64544601877469
30
0
41
1
10
13.0262970086682
20
-7.66481955032941
30
0
41
1
10
12.9889396946713
20
-7.70528490510213
30
0
41
1
10
12.9712931406015
20
-7.72645952289145
30
0
41
1
10
12.9226269571248
20
-7.79098420587002
30
0
41
1
10
12.8953601516259
20
-7.83577315483097
30
0
41
1
10
12.861207557278
20
-7.90556920502846
30
0
41
1
10
12.8509341260478
20
-7.9293508452626
30
0
41
1
10
12.8327806188033
20
-7.97739115500326
30
0
41
1
10
12.8248979334757
20
-8.00162924022726
30
0
41
1
10
12.8181619695468
20
-8.02609544014433
30
0
0
SPLINE
5
137
100
AcDbEntity
8
1
62
256
6
ByLayer
370
18
48
1
60
0
100
AcDbSpline
70
4
71
3
72
26
73
22
40
0
40
0
40
0
40
0
40
0.125000000000018
40
0.125000000000018
40
0.250000000000036
40
0.250000000000036
40
0.312500000000044
40
0.312500000000044
40
0.375000000000051
40
0.375000000000051
40
0.500000000000049
40
0.500000000000049
40
0.562500000000043
40
0.562500000000043
40
0.625000000000037
40
0.625000000000037
40
0.750000000000025
40
0.750000000000025
40
0.875000000000012
40
0.875000000000012
40
1
40
1
40
1
40
1
41
1
10
12.5
20
-8.26849999999999
30
0
41
1
10
12.5187420838797
20
-8.26849999999999
30
0
41
1
10
12.537790024121
20
-8.26686279550461
30
0
41
1
10
12.5746705458544
20
-8.26048528068293
30
0
41
1
10
12.5926468374794
20
-8.25577279166549
30
0
41
1
10
12.6189272305608
20
-8.24646538610315
30
0
41
1
10
12.6276136105629
20
-8.24296752509534
30
0
41
1
10
12.644482547616
20
-8.23533413023605
30
0
41
1
10
12.6526773955158
20
-8.23119909926487
30
0
41
1
10
12.6765732518195
20
-8.21788232941574
30
0
41
1
10
12.6915899369245
20
-8.20779456249335
30
0
41
1
10
12.7127755394084
20
-8.19090470708622
30
0
41
1
10
12.7195919185691
20
-8.18499261738444
30
0
41
1
10
12.7325595895107
20
-8.17279737184288
30
0
41
1
10
12.7387403827712
20
-8.16649129678538
30
0
41
1
10
12.7564090822013
20
-8.14697635277579
30
0
41
1
10
12.7670282709711
20
-8.13317412766207
30
0
41
1
10
12.7860013809461
20
-8.10404553323991
30
0
41
1
10
12.7941811588046
20
-8.08897729418624
30
0
41
1
10
12.8080220198239
20
-8.0581177476999
30
0
41
1
10
12.8137019836554
20
-8.04229488948812
30
0
41
1
10
12.8181619695468
20
-8.02609544014433
30
0
0
SPLINE
5
138
100
AcDbEntity
8
1
62
256
6
ByLayer
370
18
48
1
60
0
100
AcDbSpline
70
4
71
3
72
24
73
20
40
0
40
0
40
0
40
0
40
0.062499999999992
40
0.062499999999992
40
0.124999999999984
40
0.124999999999984
40
0.249999999999979
40
0.249999999999979
40
0.312499999999978
40
0.312499999999978
40
0.374999999999977
40
0.374999999999977
40
0.499999999999983
40
0.499999999999983
40
0.624999999999988
40
0.624999999999988
40
0.749999999999994
40
0.749999999999994
40
1
40
1
40
1
40
1
41
1
10
14.1981810583398
20
-7.29557688959517
30
0
41
1
10
14.1934313378224
20
-7.30367860981315
30
0
41
1
10
14.1882897889865
20
-7.31164980922736
30
0
41
1
10
14.177355321586
20
-7.32709306570089
30
0
41
1
10
14.1716008277749
20
-7.33451769513678
30
0
41
1
10
14.153507056405
20
-7.35593275162765
30
0
41
1
10
14.1403431053359
20
-7.36907023952509
30
0
41
1
10
14.1189603728398
20
-7.38708047797621
30
0
41
1
10
14.1115431209205
20
-7.39280535445585
30
0
41
1
10
14.0964570188402
20
-7.40347091349855
30
0
41
1
10
14.0887541685168
20
-7.40844253451471
30
0
41
1
10
14.0651865615503
20
-7.42231523036023
30
0
41
1
10
14.0488655560664
20
-7.43018071772846
30
0
41
1
10
14.0150376500416
20
-7.44319032755993
30
0
41
1
10
13.997973394896
20
-7.44816506090183
30
0
41
1
10
13.9636029977596
20
-7.4553239924833
30
0
41
1
10
13.946237058748
20
-7.45750930691861
30
0
41
1
10
13.89416944413
20
-7.45993921004606
30
0
41
1
10
13.8606039107085
20
-7.45613929176884
30
0
41
1
10
13.8281523379786
20
-7.44745103358485
30
0
0
SPLINE
5
139
100
AcDbEntity
8
1
62
256
6
ByLayer
370
18
48
1
60
0
100
AcDbSpline
70
4
71
3
72
18
73
14
40
0
40
0
40
0
40
0
40
0.25000000000002
40
0.25000000000002
40
0.375000000000033
40
0.375000000000033
40
0.437500000000035
40
0.437500000000035
40
0.500000000000038
40
0.500000000000038
40
0.750000000000019
40
0.750000000000019
40
1
40
1
40
1
40
1
41
1
10
11.0922620637002
20
-6.14725870662355
30
0
41
1
10
11.0839029765648
20
-6.10283371714235
30
0
41
1
10
11.072194076137
20
-6.06047127231679
30
0
41
1
10
11.0502147004153
20
-5.99951240206011
30
0
41
1
10
11.0421460177692
20
-5.97962718714697
30
0
41
1
10
11.0289590937532
20
-5.95041485375657
30
0
41
1
10
11.024382525553
20
-5.94078015654284
30
0
41
1
10
11.0148692909952
20
-5.92171212439078
30
0
41
1
10
11.0099208758561
20
-5.91225797017552
30
0
41
1
10
10.9844501468565
20
-5.8657912081224
30
0
41
1
10
10.9617830025327
20
-5.831166656145
30
0
41
1
10
10.9122494705402
20
-5.76629302469024
30
0
41
1
10
10.885378603438
20
-5.73605080047579
30
0
41
1
10
10.8564173719113
20
-5.7078822958328
30
0
0
SPLINE
5
13A
100
AcDbEntity
8
1
62
256
6
ByLayer
370
18
48
1
60
0
100
AcDbSpline
70
4
71
3
72
24
73
20
40
0
40
0
40
0
40
0
40
0.124999999999996
40
0.124999999999996
40
0.187499999999994
40
0.187499999999994
40
0.249999999999993
40
0.249999999999993
40
0.37499999999999
40
0.37499999999999
40
0.499999999999988
40
0.499999999999988
40
0.624999999999985
40
0.624999999999985
40
0.687499999999989
40
0.687499999999989
40
0.749999999999994
40
0.749999999999994
40
1
40
1
40
1
40
1
41
1
10
10.8018189416602
20
-5.30442311040483
30
0
41
1
10
10.7920717429747
20
-5.32104915742607
30
0
41
1
10
10.7838642633101
20
-5.33836175118034
30
0
41
1
10
10.7738342365023
20
-5.3653474437873
30
0
41
1
10
10.7708640587043
20
-5.37454737111844
30
0
41
1
10
10.7657514504449
20
-5.39314453482734
30
0
41
1
10
10.7636304107339
20
-5.40245092056321
30
0
41
1
10
10.758503655387
20
-5.4303910341182
30
0
41
1
10
10.7567259261731
20
-5.44904565975619
30
0
41
1
10
10.7563184965417
20
-5.48639994194193
30
0
41
1
10
10.7577395219956
20
-5.50523892242637
30
0
41
1
10
10.7635127050969
20
-5.5414151049205
30
0
41
1
10
10.7678413753686
20
-5.55893047355298
30
0
41
1
10
10.7763479036088
20
-5.58438887681842
30
0
41
1
10
10.7795208606013
20
-5.59273849781306
30
0
41
1
10
10.78653701553
20
-5.60916394085115
30
0
41
1
10
10.7903971485727
20
-5.61726674459123
30
0
41
1
10
10.8110153586929
20
-5.65641587152055
30
0
41
1
10
10.8317858476265
20
-5.68392498567707
30
0
41
1
10
10.8564173719113
20
-5.7078822958328
30
0
0
SPLINE
5
13B
100
AcDbEntity
8
1
62
256
6
ByLayer
370
18
48
1
60
0
100
AcDbSpline
70
4
71
3
72
24
73
20
40
0
40
0
40
0
40
0
40
0.250000000000013
40
0.250000000000013
40
0.312500000000015
40
0.312500000000015
40
0.375000000000017
40
0.375000000000017
40
0.500000000000015
40
0.500000000000015
40
0.625000000000014
40
0.625000000000014
40
0.750000000000012
40
0.750000000000012
40
0.812500000000012
40
0.812500000000012
40
0.875000000000011
40
0.875000000000011
40
1
40
1
40
1
40
1
41
1
10
10.8564173719113
20
-6.89211770416719
30
0
41
1
10
10.8317858476265
20
-6.91607501432293
30
0
41
1
10
10.8110153586929
20
-6.94358412847944
30
0
41
1
10
10.7903971485727
20
-6.98273325540876
30
0
41
1
10
10.78653701553
20
-6.99083605914888
30
0
41
1
10
10.7795208606013
20
-7.00726150218696
30
0
41
1
10
10.7763479036088
20
-7.01561112318157
30
0
41
1
10
10.7678413753686
20
-7.04106952644702
30
0
41
1
10
10.7635127050969
20
-7.05858489507949
30
0
41
1
10
10.7577395219956
20
-7.09476107757362
30
0
41
1
10
10.7563184965417
20
-7.1136000580581
30
0
41
1
10
10.7567259261731
20
-7.1509543402438
30
0
41
1
10
10.758503655387
20
-7.16960896588179
30
0
41
1
10
10.7636304107339
20
-7.19754907943678
30
0
41
1
10
10.7657514504449
20
-7.20685546517265
30
0
41
1
10
10.7708640587043
20
-7.22545262888155
30
0
41
1
10
10.7738342365023
20
-7.23465255621272
30
0
41
1
10
10.7838642633101
20
-7.26163824881965
30
0
41
1
10
10.7920717429747
20
-7.27895084257395
30
0
41
1
10
10.8018189416602
20
-7.29557688959517
30
0
0
SPLINE
5
13C
100
AcDbEntity
8
1
62
256
6
ByLayer
370
18
48
1
60
0
100
AcDbSpline
70
4
71
3
72
17
73
13
40
0
40
0
40
0
40
0
40
0.250000000000002
40
0.250000000000002
40
0.500000000000003
40
0.500000000000003
40
0.562500000000003
40
0.562500000000003
40
0.625000000000003
40
0.750000000000002
40
0.750000000000002
40
1
40
1
40
1
40
1
41
1
10
10.8564173719113
20
-6.89211770416719
30
0
41
1
10
10.8853753963689
20
-6.86395231880942
30
0
41
1
10
10.9122309410964
20
-6.83372575786456
30
0
41
1
10
10.961719738367
20
-6.76892167661282
30
0
41
1
10
10.9843572921869
20
-6.73435069513351
30
0
41
1
10
11.0097894773876
20
-6.68798851185628
30
0
41
1
10
11.0147424479631
20
-6.67853470981095
30
0
41
1
10
11.0242836416446
20
-6.65942527611324
30
0
41
1
10
11.0380498884726
20
-6.63046203694776
30
0
41
1
10
11.0501769665485
20
-6.60058627674294
30
0
41
1
10
11.0721909236732
20
-6.53954938792148
30
0
41
1
10
11.0839044979644
20
-6.4971581972668
30
0
41
1
10
11.0922620637002
20
-6.45274129337645
30
0
0
SPLINE
5
13D
100
AcDbEntity
8
1
62
256
6
ByLayer
370
18
48
1
60
0
100
AcDbSpline
70
4
71
3
72
16
73
12
40
0
40
0
40
0
40
0
40
0.249999999999994
40
0.249999999999994
40
0.499999999999989
40
0.499999999999989
40
0.749999999999983
40
0.749999999999983
40
0.874999999999992
40
0.874999999999992
40
1
40
1
40
1
40
1
41
1
10
11.5801047960903
20
0.238734122634725
30
0
41
1
10
11.5711898845573
20
0.24658247279848
30
0
41
1
10
11.5624973228575
20
0.25402486125094
30
0
41
1
10
11.5456301165766
20
0.26795151250144
30
0
41
1
10
11.5376080059154
20
0.274308631036547
30
0
41
1
10
11.5227987760445
20
0.285348063602442
30
0
41
1
10
11.5159135580763
20
0.290093298047168
30
0
41
1
10
11.5074095726461
20
0.295102401670448
30
0
41
1
10
11.50483865657
20
0.296443495978877
30
0
41
1
10
11.5005018265235
20
0.298257920516846
30
0
41
1
10
11.4987416856686
20
0.298734122634784
30
0
41
1
10
11.4974329200672
20
0.298734122634784
30
0
0
SPLINE
5
13E
100
AcDbEntity
8
1
62
256
6
ByLayer
370
18
48
1
60
0
100
AcDbSpline
70
4
71
3
72
20
73
16
40
0
40
0
40
0
40
0
40
0.124999999999999
40
0.124999999999999
40
0.249999999999999
40
0.249999999999999
40
0.374999999999998
40
0.374999999999998
40
0.499999999999997
40
0.499999999999997
40
0.624999999999996
40
0.624999999999996
40
0.749999999999996
40
0.749999999999996
40
1
40
1
40
1
40
1
41
1
10
5.484845039286
20
0.298734122634812
30
0
41
1
10
5.48710460989292
20
0.298734122634812
30
0
41
1
10
5.48905611692638
20
0.29841161717323
30
0
41
1
10
5.4922268833574
20
0.296996862463942
30
0
41
1
10
5.49339955915681
20
0.295920167393462
30
0
41
1
10
5.49485759018998
20
0.293008841224349
30
0
41
1
10
5.49514501482
20
0.291147899698387
30
0
41
1
10
5.49476763735041
20
0.286699931478353
30
0
41
1
10
5.49411664690436
20
0.284154021638727
30
0
41
1
10
5.49195868399826
20
0.278462729066888
30
0
41
1
10
5.49043496691101
20
0.275296631536776
30
0
41
1
10
5.48672432859919
20
0.268655369253139
30
0
41
1
10
5.48453008882075
20
0.265153943370734
30
0
41
1
10
5.47705620847563
20
0.254171396993058
30
0
41
1
10
5.47113010031458
20
0.246548501495909
30
0
41
1
10
5.46455747906154
20
0.238734122634753
30
0
0
SPLINE
5
13F
100
AcDbEntity
8
1
62
256
6
ByLayer
370
18
48
1
60
0
100
AcDbSpline
70
4
71
3
72
16
73
12
40
0
40
0
40
0
40
0
40
0.249999999999998
40
0.249999999999998
40
0.499999999999995
40
0.499999999999995
40
0.749999999999993
40
0.749999999999993
40
0.874999999999997
40
0.874999999999997
40
1
40
1
40
1
40
1
41
1
10
5.30233161370029
20
0.238734122634753
30
0
41
1
10
5.31351744865736
20
0.246660271664467
30
0
41
1
10
5.32453509883192
20
0.254057789083191
30
0
41
1
10
5.34620009788722
20
0.267724600543062
30
0
41
1
10
5.35686177752305
20
0.274006612931544
30
0
41
1
10
5.37765136983052
20
0.285095592950938
30
0
41
1
10
5.387489831739
20
0.289755975986992
30
0
41
1
10
5.40108474138029
20
0.294899163245901
30
0
41
1
10
5.4053834674672
20
0.296282505811831
30
0
41
1
10
5.41324120360687
20
0.298193453108922
30
0
41
1
10
5.41682874856363
20
0.298734122634755
30
0
41
1
10
5.41997118896404
20
0.298734122634755
30
0
0
SPLINE
5
140
100
AcDbEntity
8
1
62
256
6
ByLayer
370
18
48
1
60
0
100
AcDbSpline
70
4
71
3
72
8
73
4
40
0
40
0
40
0
40
0
40
1
40
1
40
1
40
1
41
1
10
5.28292558005913
20
0.224999999999994
30
0
41
1
10
5.28939742323314
20
0.229574684455912
30
0
41
1
10
5.29586609646364
20
0.23415273435495
30
0
41
1
10
5.30233161370029
20
0.238734122634725
30
0
0
SPLINE
5
141
100
AcDbEntity
8
1
62
256
6
ByLayer
370
18
48
1
60
0
100
AcDbSpline
70
4
71
3
72
8
73
4
40
0
40
0
40
0
40
0
40
1
40
1
40
1
40
1
41
1
10
12.0194813070474
20
-0.151554445662271
30
0
41
1
10
11.8736770655148
20
-0.0209079076704484
30
0
41
1
10
11.7272372580048
20
0.109204280718984
30
0
41
1
10
11.5801047960903
20
0.238734122634725
30
0
0
SPLINE
5
142
100
AcDbEntity
8
1
62
256
6
ByLayer
370
18
48
1
60
0
100
AcDbSpline
70
4
71
3
72
8
73
4
40
0
40
0
40
0
40
0
40
1
40
1
40
1
40
1
41
1
10
5.46455747906145
20
0.238734122634725
30
0
41
1
10
5.46070683833204
20
0.234155984878214
30
0
41
1
10
5.45685604434772
20
0.229577943794965
30
0
41
1
10
5.4530050961618
20
0.224999999999994
30
0
0
SPLINE
5
143
100
AcDbEntity
8
1
62
256
6
ByLayer
370
18
48
1
60
0
100
AcDbSpline
70
4
71
3
72
8
73
4
40
0
40
0
40
0
40
0
40
1
40
1
40
1
40
1
41
1
10
12.0194813070474
20
-0.151554445662271
30
0
41
1
10
12.1204515173698
20
-0.251017965736168
30
0
41
1
10
12.2214031218637
20
-0.350500261216013
30
0
41
1
10
12.3223374405995
20
-0.449999999999989
30
0
0
SPLINE
5
144
100
AcDbEntity
8
1
62
256
6
ByLayer
370
18
48
1
60
0
100
AcDbSpline
70
4
71
3
72
12
73
8
40
0
40
0
40
0
40
0
40
0.500000000000004
40
0.500000000000004
40
0.750000000000002
40
0.750000000000002
40
1
40
1
40
1
40
1
41
1
10
31.1638003328165
20
-12.7500000000002
30
0
41
1
10
31.1219894298491
20
-12.9055935463779
30
0
41
1
10
31.0795224007298
20
-13.0608147541752
30
0
41
1
10
31.013721615603
20
-13.2924547204961
30
0
41
1
10
30.9914307537566
20
-13.3694653007762
30
0
41
1
10
30.9457060340571
20
-13.5228378337676
30
0
41
1
10
30.922276578919
20
-13.5992406781421
30
0
41
1
10
30.8978670404343
20
-13.675
30
0
0
SPLINE
5
145
100
AcDbEntity
8
1
62
256
6
ByLayer
370
18
48
1
60
0
100
AcDbSpline
70
4
71
3
72
8
73
4
40
0
40
0
40
0
40
0
40
1
40
1
40
1
40
1
41
1
10
31.2802715088963
20
-12.6878989908994
30
0
41
1
10
31.2415098707272
20
-12.7088384873171
30
0
41
1
10
31.2026967756916
20
-12.7295797717263
30
0
41
1
10
31.1638003328162
20
-12.75
30
0
0
SPLINE
5
146
100
AcDbEntity
8
1
62
256
6
ByLayer
370
18
48
1
60
0
100
AcDbSpline
70
4
71
3
72
20
73
16
40
0
40
0
40
0
40
0
40
0.250000000000001
40
0.250000000000001
40
0.375000000000001
40
0.375000000000001
40
0.500000000000001
40
0.500000000000001
40
0.625
40
0.625
40
0.75
40
0.75
40
0.875
40
0.875
40
1
40
1
40
1
40
1
41
1
10
31.35
20
-12.5488189610524
30
0
41
1
10
31.35
20
-12.5641490047044
30
0
41
1
10
31.3483032683748
20
-12.57906272116
30
0
41
1
10
31.3432722054894
20
-12.6008233142706
30
0
41
1
10
31.3411956020291
20
-12.607857468867
30
0
41
1
10
31.3363470925789
20
-12.6212854151622
30
0
41
1
10
31.3335665145094
20
-12.6277165972179
30
0
41
1
10
31.327292299883
20
-12.6400130523269
30
0
41
1
10
31.3238109198991
20
-12.6458371602263
30
0
41
1
10
31.316370343473
20
-12.6565662640604
30
0
41
1
10
31.3123875914647
20
-12.661519135205
30
0
41
1
10
31.3039058839995
20
-12.6706151999758
30
0
41
1
10
31.2993925342152
20
-12.6747610157103
30
0
41
1
10
31.2900824753272
20
-12.6820397054276
30
0
41
1
10
31.2852598767438
20
-12.6852042154563
30
0
41
1
10
31.2802715088963
20
-12.6878989908994
30
0
0
SPLINE
5
147
100
AcDbEntity
8
1
62
256
6
ByLayer
370
18
48
1
60
0
100
AcDbSpline
70
4
71
3
72
18
73
14
40
0
40
0
40
0
40
0
40
0.249999999999932
40
0.249999999999932
40
0.374999999999939
40
0.374999999999939
40
0.499999999999946
40
0.499999999999946
40
0.624999999999954
40
0.624999999999954
40
0.749999999999961
40
0.749999999999961
40
1
40
1
40
1
40
1
41
1
10
31.2802715088965
20
-12.3121010091006
30
0
41
1
10
31.2902534965698
20
-12.3174933971678
30
0
41
1
10
31.2995110920797
20
-12.3247001325068
30
0
41
1
10
31.3122681364233
20
-12.3383388568583
30
0
41
1
10
31.3163247014677
20
-12.3433741334294
30
0
41
1
10
31.3237697540225
20
-12.3540973397703
30
0
41
1
10
31.327196025976
20
-12.3598217468452
30
0
41
1
10
31.3334409557019
20
-12.3720146675935
30
0
41
1
10
31.3362812874853
20
-12.3785480546616
30
0
41
1
10
31.3411732159972
20
-12.3920650970702
30
0
41
1
10
31.3432281689774
20
-12.3990283425917
30
0
41
1
10
31.348227700362
20
-12.4205282172852
30
0
41
1
10
31.3500000000053
20
-12.4358324946181
30
0
41
1
10
31.3500000000053
20
-12.4511810389469
30
0
0
SPLINE
5
148
100
AcDbEntity
8
1
62
256
6
ByLayer
370
18
48
1
60
0
100
AcDbSpline
70
4
71
3
72
8
73
4
40
0
40
0
40
0
40
0
40
1
40
1
40
1
40
1
41
1
10
31.1638003328162
20
-12.25
30
0
41
1
10
31.2026987739192
20
-12.2704212773225
30
0
41
1
10
31.241511570766
20
-12.291162431064
30
0
41
1
10
31.2802715088965
20
-12.3121010091006
30
0
0
SPLINE
5
149
100
AcDbEntity
8
1
62
256
6
ByLayer
370
18
48
1
60
0
100
AcDbSpline
70
4
71
3
72
12
73
8
40
0
40
0
40
0
40
0
40
0.250000000000001
40
0.250000000000001
40
0.500000000000001
40
0.500000000000001
40
1
40
1
40
1
40
1
41
1
10
30.8978670404344
20
-11.3250000000001
30
0
41
1
10
30.9222300857604
20
-11.4006150221134
30
0
41
1
10
30.9456255428616
20
-11.4768980507991
30
0
41
1
10
30.9913357570131
20
-11.6302102052378
30
0
41
1
10
31.0136402131587
20
-11.7072618017632
30
0
41
1
10
31.0794832475767
20
-11.9390412580958
30
0
41
1
10
31.1219711974531
20
-12.0943386042557
30
0
41
1
10
31.1638003328172
20
-12.2499999999995
30
0
0
SPLINE
5
14A
100
AcDbEntity
8
1
62
256
6
ByLayer
370
18
48
1
60
0
100
AcDbSpline
70
4
71
3
72
26
73
22
40
0
40
0
40
0
40
0
40
0.124999999999991
40
0.124999999999991
40
0.187499999999991
40
0.187499999999991
40
0.24999999999999
40
0.24999999999999
40
0.499999999999987
40
0.499999999999987
40
0.562499999999989
40
0.562499999999989
40
0.624999999999991
40
0.624999999999991
40
0.749999999999995
40
0.749999999999995
40
0.812499999999996
40
0.812499999999996
40
0.874999999999997
40
0.874999999999997
40
1
40
1
40
1
40
1
41
1
10
6.87930125627571
20
-1.09011715399839
30
0
41
1
10
6.86935253643395
20
-1.07951734292968
30
0
41
1
10
6.85979021515467
20
-1.06763641166597
30
0
41
1
10
6.84603193918875
20
-1.04787474056272
30
0
41
1
10
6.8415437018767
20
-1.04096307568983
30
0
41
1
10
6.83276796814681
20
-1.0264741813213
30
0
41
1
10
6.82850293910613
20
-1.01893090216717
30
0
41
1
10
6.80797931336423
20
-0.980098541194224
30
0
41
1
10
6.7938837954668
20
-0.945198473205295
30
0
41
1
10
6.77922321231736
20
-0.896690583505773
30
0
41
1
10
6.77645545648207
20
-0.886781563243488
30
0
41
1
10
6.77129886805795
20
-0.86675582437195
30
0
41
1
10
6.76890096575227
20
-0.856609584909108
30
0
41
1
10
6.7622398489633
20
-0.825777104066361
30
0
41
1
10
6.75850685390864
20
-0.804698852972848
30
0
41
1
10
6.75397823319372
20
-0.772289743417588
30
0
41
1
10
6.75264775851997
20
-0.761354317482841
30
0
41
1
10
6.75035397092421
20
-0.739212010126579
30
0
41
1
10
6.7493965032553
20
-0.728047749444812
30
0
41
1
10
6.74711361798614
20
-0.694637874843863
30
0
41
1
10
6.74635986111139
20
-0.672333974999759
30
0
41
1
10
6.74635986111139
20
-0.650000000000006
30
0
0
SPLINE
5
14B
100
AcDbEntity
8
1
62
256
6
ByLayer
370
18
48
1
60
0
100
AcDbSpline
70
4
71
3
72
14
73
10
40
0
40
0
40
0
40
0
40
0.124999999999998
40
0.124999999999998
40
0.249999999999996
40
0.249999999999996
40
0.499999999999997
40
0.499999999999997
40
1
40
1
40
1
40
1
41
1
10
6.87930125627562
20
-1.09011715399853
30
0
41
1
10
6.89683334545944
20
-1.09521173316333
30
0
41
1
10
6.9145002188545
20
-1.09996698997403
30
0
41
1
10
6.95009371956186
20
-1.10882356713006
30
0
41
1
10
6.96798915857011
20
-1.11291577431095
30
0
41
1
10
7.02165006498751
20
-1.12416331526788
30
0
41
1
10
7.05751222015573
20
-1.13032521199142
30
0
41
1
10
7.16534479811617
20
-1.14508238792286
30
0
41
1
10
7.23755797703885
20
-1.15000000000003
30
0
41
1
10
7.31009575860674
20
-1.15000000000003
30
0
0
SPLINE
5
14C
100
AcDbEntity
8
1
62
256
6
ByLayer
370
18
48
1
60
0
100
AcDbSpline
70
4
71
3
72
28
73
24
40
0
40
0
40
0
40
0
40
0.125000000000005
40
0.125000000000005
40
0.187500000000008
40
0.187500000000008
40
0.25000000000001
40
0.25000000000001
40
0.375000000000016
40
0.375000000000016
40
0.500000000000021
40
0.500000000000021
40
0.562500000000021
40
0.562500000000021
40
0.625000000000021
40
0.625000000000021
40
0.750000000000016
40
0.750000000000016
40
0.812500000000014
40
0.812500000000014
40
0.875000000000011
40
0.875000000000011
40
1
40
1
40
1
40
1
41
1
10
12.4999228911954
20
-0.649999999999949
30
0
41
1
10
12.4999228911954
20
-0.68269617177404
30
0
41
1
10
12.5030997754285
20
-0.715121238543873
30
0
41
1
10
12.5126663663644
20
-0.763349114339576
30
0
41
1
10
12.5166910292743
20
-0.779439082065579
30
0
41
1
10
12.5262269296985
20
-0.81086795057692
30
0
41
1
10
12.5317370353947
20
-0.826248586453147
30
0
41
1
10
12.5504424262799
20
-0.871412213756486
30
0
41
1
10
12.5657914442251
20
-0.900226523392263
30
0
41
1
10
12.6024832855528
20
-0.955159316001414
30
0
41
1
10
12.6232386234686
20
-0.980391297647401
30
0
41
1
10
12.6577836586302
20
-1.0149556226138
30
0
41
1
10
12.6698744074062
20
-1.0259299365388
30
0
41
1
10
12.6952328053592
20
-1.04676014611249
30
0
41
1
10
12.7085508603782
20
-1.05664007330807
30
0
41
1
10
12.7494340829435
20
-1.08395245534649
30
0
41
1
10
12.7781557295389
20
-1.09930147458067
30
0
41
1
10
12.8234150749574
20
-1.11807977852317
30
0
41
1
10
12.8389138648957
20
-1.12364065962413
30
0
41
1
10
12.8704642522247
20
-1.13321995363057
30
0
41
1
10
12.8863641950729
20
-1.13719762715087
30
0
41
1
10
12.9344280874681
20
-1.14676101142644
30
0
41
1
10
12.9669525804107
20
-1.15000000000001
30
0
41
1
10
12.9999747018959
20
-1.15000000000001
30
0
0
SPLINE
5
14D
100
AcDbEntity
8
1
62
256
6
ByLayer
370
18
48
1
60
0
100
AcDbSpline
70
4
71
3
72
18
73
14
40
0
40
0
40
0
40
0
40
0.250000000000004
40
0.250000000000004
40
0.375000000000003
40
0.375000000000003
40
0.500000000000001
40
0.500000000000001
40
0.750000000000003
40
0.750000000000003
40
0.875000000000001
40
0.875000000000001
40
1
40
1
40
1
40
1
41
1
10
-11.5
20
-0.867944947177051
30
0
41
1
10
-11.5
20
-0.854224847441316
30
0
41
1
10
-11.5
20
-0.839647108563042
30
0
41
1
10
-11.5
20
-0.81602018110317
30
0
41
1
10
-11.5
20
-0.807848668242372
30
0
41
1
10
-11.5
20
-0.790785086394976
30
0
41
1
10
-11.5
20
-0.781881108951438
30
0
41
1
10
-11.5
20
-0.754475129626115
30
0
41
1
10
-11.5
20
-0.735082511898042
30
0
41
1
10
-11.5
20
-0.703849160789474
30
0
41
1
10
-11.5
20
-0.693249006755622
30
0
41
1
10
-11.5
20
-0.671631753918973
30
0
41
1
10
-11.5
20
-0.660786505786803
30
0
41
1
10
-11.5
20
-0.650000000000006
30
0
0
SPLINE
5
14E
100
AcDbEntity
8
1
62
256
6
ByLayer
370
18
48
1
60
0
100
AcDbSpline
70
4
71
3
72
24
73
20
40
0
40
0
40
0
40
0
40
0.250000000000002
40
0.250000000000002
40
0.312500000000002
40
0.312500000000002
40
0.375000000000002
40
0.500000000000002
40
0.500000000000002
40
0.562500000000004
40
0.562500000000004
40
0.625000000000006
40
0.625000000000006
40
0.750000000000004
40
0.875000000000003
40
0.875000000000003
40
0.937500000000001
40
0.937500000000001
40
1
40
1
40
1
40
1
41
1
10
5.88359347838826
20
-0.649999999999949
30
0
41
1
10
5.88359347838826
20
-0.690542859867577
30
0
41
1
10
5.88605175106292
20
-0.730671083342855
30
0
41
1
10
5.89228061043787
20
-0.78029903763138
30
0
41
1
10
5.89368200017313
20
-0.790154958516496
30
0
41
1
10
5.89676636748609
20
-0.809557859844119
30
0
41
1
10
5.90182576414182
20
-0.838277421961266
30
0
41
1
10
5.90815762409574
20
-0.865865793429862
30
0
41
1
10
5.91533850088769
20
-0.892699408428058
30
0
41
1
10
5.91787401327002
20
-0.901517812667493
30
0
41
1
10
5.92323375024378
20
-0.918897962623106
30
0
41
1
10
5.92606838458417
20
-0.927488288109771
30
0
41
1
10
5.93493150367371
20
-0.952623766897432
30
0
41
1
10
5.94767396050835
20
-0.984400374170946
30
0
41
1
10
5.96220632173575
20
-1.01281499779478
30
0
41
1
10
5.97378445798682
20
-1.0328508504
30
0
41
1
10
5.97775728630185
20
-1.03931637522294
30
0
41
1
10
5.9859350024912
20
-1.05181154659104
30
0
41
1
10
5.99013221110027
20
-1.05782639652978
30
0
41
1
10
5.99438833309259
20
-1.06354267988743
30
0
0
SPLINE
5
14F
100
AcDbEntity
8
1
62
256
6
ByLayer
370
18
48
1
60
0
100
AcDbSpline
70
4
71
3
72
14
73
10
40
0
40
0
40
0
40
0
40
0.25
40
0.25
40
0.5
40
0.5
40
0.75
40
0.75
40
1
40
1
40
1
40
1
41
1
10
5.3757683157917
20
-1.15000000000001
30
0
41
1
10
5.42747585532487
20
-1.15000000000001
30
0
41
1
10
5.47922301904421
20
-1.14802937580424
30
0
41
1
10
5.58278949726767
20
-1.14049986236611
30
0
41
1
10
5.63462722987319
20
-1.13493758759987
30
0
41
1
10
5.7382967904006
20
-1.12036076897405
30
0
41
1
10
5.78987623497767
20
-1.1113844539243
30
0
41
1
10
5.8925252436195
20
-1.09006124036657
30
0
41
1
10
5.9435954524017
20
-1.07771860378622
30
0
41
1
10
5.99438833309259
20
-1.06354267988743
30
0
0
SPLINE
5
150
100
AcDbEntity
8
1
62
256
6
ByLayer
370
18
48
1
60
0
100
AcDbSpline
70
4
71
3
72
24
73
20
40
0
40
0
40
0
40
0
40
0.0624999999999999
40
0.0624999999999999
40
0.125
40
0.125
40
0.25
40
0.25
40
0.375
40
0.375
40
0.5
40
0.5
40
0.75
40
0.75
40
0.875
40
0.875
40
0.9375
40
0.9375
40
1
40
1
40
1
40
1
41
1
10
0
20
-0.867944947177108
30
0
41
1
10
0.0711417730560413
20
-0.867944947177108
30
0
41
1
10
0.142176843588061
20
-0.86920639312612
30
0
41
1
10
0.284048372653359
20
-0.874077292284198
30
0
41
1
10
0.354885209321054
20
-0.877682275157468
30
0
41
1
10
0.567150251620319
20
-0.891399163008543
30
0
41
1
10
0.708335297540174
20
-0.904385721945431
30
0
41
1
10
0.990382072394027
20
-0.934181119616682
30
0
41
1
10
1.13124588262031
20
-0.950965353143516
30
0
41
1
10
1.4129006254957
20
-0.985395384863267
30
0
41
1
10
1.55369018231642
20
-1.00305744821171
30
0
41
1
10
1.97619857824844
20
-1.05439179234688
30
0
41
1
10
2.25805625350128
20
-1.0864227409362
30
0
41
1
10
2.68188643476745
20
-1.12213083096194
30
0
41
1
10
2.82333561610574
20
-1.13199475942244
30
0
41
1
10
3.0358774707833
20
-1.14243914874263
30
0
41
1
10
3.10678633318969
20
-1.14519263745413
30
0
41
1
10
3.24875008198131
20
-1.14897330748033
30
0
41
1
10
3.31980900869345
20
-1.15000000000001
30
0
41
1
10
3.3907963666372
20
-1.15000000000001
30
0
0
SPLINE
5
151
100
AcDbEntity
8
1
62
256
6
ByLayer
370
18
48
1
60
0
100
AcDbSpline
70
4
71
3
72
8
73
4
40
0
40
0
40
0
40
0
40
1
40
1
40
1
40
1
41
1
10
-10.8989425100447
20
0.151057489955292
30
0
41
1
10
-10.8595658338229
20
0.180340727492933
30
0
41
1
10
-10.8201314850413
20
0.209566674203614
30
0
41
1
10
-10.7806382482019
20
0.238734122634725
30
0
0
SPLINE
5
152
100
AcDbEntity
8
1
62
256
6
ByLayer
370
18
48
1
60
0
100
AcDbSpline
70
4
71
3
72
8
73
4
40
0
40
0
40
0
40
0
40
1
40
1
40
1
40
1
41
1
10
-10.8989425100447
20
0.151057489955292
30
0
41
1
10
-11.0992402935163
20
-0.0492402935162772
30
0
41
1
10
-11.2995941492394
20
-0.249594149239357
30
0
41
1
10
-11.5
20
-0.449999999999989
30
0
0
SPLINE
5
153
100
AcDbEntity
8
1
62
256
6
ByLayer
370
18
48
1
60
0
100
AcDbSpline
70
4
71
3
72
8
73
4
40
0
40
0
40
0
40
0
40
1
40
1
40
1
40
1
41
1
10
4.69688342209417
20
-0.349999999999994
30
0
41
1
10
4.713906535402
20
-0.383331961941849
30
0
41
1
10
4.73092895996044
20
-0.416665306355071
30
0
41
1
10
4.74795071232953
20
-0.449999999999989
30
0
0
SPLINE
5
154
100
AcDbEntity
8
1
62
256
6
ByLayer
370
18
48
1
60
0
100
AcDbSpline
70
4
71
3
72
8
73
4
40
0
40
0
40
0
40
0
40
1
40
1
40
1
40
1
41
1
10
3.7559494215522
20
0.292588238951737
30
0
41
1
10
4.06956788775099
20
0.0812923046259186
30
0
41
1
10
4.38321352430927
20
-0.133011112162592
30
0
41
1
10
4.6968834220942
20
-0.349999999999994
30
0
0
SPLINE
5
155
100
AcDbEntity
8
1
62
256
6
ByLayer
370
18
48
1
60
0
100
AcDbSpline
70
4
71
3
72
10
73
6
40
0
40
0
40
0
40
0
40
0.5
40
0.5
40
1
40
1
40
1
40
1
41
1
10
3.7559494215522
20
0.292588238951737
30
0
41
1
10
3.73344512503678
20
0.294457554492567
30
0
41
1
10
3.71099097219283
20
0.295968502304248
30
0
41
1
10
3.66621453305649
20
0.298103084983637
30
0
41
1
10
3.64389086242073
20
0.298734122634812
30
0
41
1
10
3.62166801750646
20
0.298734122634727
30
0
0
SPLINE
5
156
100
AcDbEntity
8
1
62
256
6
ByLayer
370
18
48
1
60
0
100
AcDbSpline
70
4
71
3
72
28
73
24
40
0
40
0
40
0
40
0
40
0.250000000000014
40
0.250000000000014
40
0.500000000000027
40
0.500000000000027
40
0.625000000000034
40
0.625000000000034
40
0.687500000000035
40
0.687500000000035
40
0.750000000000036
40
0.750000000000036
40
0.781250000000032
40
0.781250000000032
40
0.812500000000028
40
0.812500000000028
40
0.843750000000024
40
0.843750000000024
40
0.87500000000002
40
0.87500000000002
40
0.93750000000001
40
0.93750000000001
40
1
40
1
40
1
40
1
41
1
10
3.15166794857197
20
0.298734122634727
30
0
41
1
10
3.13160980319824
20
0.298734122634727
30
0
41
1
10
3.11168069456477
20
0.298358743627574
30
0
41
1
10
3.07224313007615
20
0.296444310288536
30
0
41
1
10
3.05271431486227
20
0.294957051038125
30
0
41
1
10
3.0241116081454
20
0.290900021958521
30
0
41
1
10
3.0146901487544
20
0.28924920620517
30
0
41
1
10
3.00093602704331
20
0.285793858624629
30
0
41
1
10
2.99636992012574
20
0.284459059629427
30
0
41
1
10
2.9877643742166
20
0.281283464875685
30
0
41
1
10
2.9837056211106
20
0.279461342875067
30
0
41
1
10
2.97839744387315
20
0.275983559294332
30
0
41
1
10
2.97674974441767
20
0.274679721196321
30
0
41
1
10
2.97404444340964
20
0.271786944885719
30
0
41
1
10
2.97296259628246
20
0.270157618001434
30
0
41
1
10
2.97174174112555
20
0.266673013202933
30
0
41
1
10
2.9715988734184
20
0.26476510686328
30
0
41
1
10
2.97234076295953
20
0.260937587104024
30
0
41
1
10
2.97321675883194
20
0.258999468010472
30
0
41
1
10
2.97680873259284
20
0.253488576502178
30
0
41
1
10
2.98043141963106
20
0.250138176054406
30
0
41
1
10
2.9882976419828
20
0.244094010171977
30
0
41
1
10
2.99265467152276
20
0.241325446855967
30
0
41
1
10
2.99716371967642
20
0.238734122632877
30
0
0
SPLINE
5
157
100
AcDbEntity
8
1
62
256
6
ByLayer
370
18
48
1
60
0
100
AcDbSpline
70
4
71
3
72
10
73
6
40
0
40
0
40
0
40
0
40
0.5
40
0.5
40
1
40
1
40
1
40
1
41
1
10
3.91317788205905
20
-0.346265877375742
30
0
41
1
10
3.7653594188985
20
-0.243069435311469
30
0
41
1
10
3.61544327782838
20
-0.142336480156501
30
0
41
1
10
3.31046871656758
20
0.053090401358844
30
0
41
1
10
3.15541395030198
20
0.147788618843492
30
0
41
1
10
2.99716371967816
20
0.238734122634725
30
0
0
SPLINE
5
158
100
AcDbEntity
8
1
62
256
6
ByLayer
370
18
48
1
60
0
100
AcDbSpline
70
4
71
3
72
38
73
34
40
0
40
0
40
0
40
0
40
0.25
40
0.25
40
0.5
40
0.5
40
0.625
40
0.625
40
0.750000000000001
40
0.750000000000001
40
0.812499999999999
40
0.812499999999999
40
0.843749999999999
40
0.843749999999999
40
0.874999999999999
40
0.874999999999999
40
0.890624999999997
40
0.890624999999997
40
0.906249999999997
40
0.906249999999997
40
0.921874999999996
40
0.921874999999996
40
0.937499999999996
40
0.937499999999996
40
0.945312499999998
40
0.945312499999998
40
0.953125
40
0.953125
40
0.96875
40
0.96875
40
0.984375
40
0.984375
40
1
40
1
40
1
40
1
41
1
10
3.15677909714151
20
-0.346265877365283
30
0
41
1
10
3.22843911122229
20
-0.357976356094554
30
0
41
1
10
3.29999539862641
20
-0.368586392348135
30
0
41
1
10
3.44289163380063
20
-0.387306625479852
30
0
41
1
10
3.51423237004718
20
-0.395456419931833
30
0
41
1
10
3.62105769930417
20
-0.404661361549103
30
0
41
1
10
3.65649802098281
20
-0.407205681955333
30
0
41
1
10
3.72687627393677
20
-0.410687939565491
30
0
41
1
10
3.76183084352451
20
-0.411675466929608
30
0
41
1
10
3.81360858108104
20
-0.410835290127835
30
0
41
1
10
3.83075841817885
20
-0.410166794589031
30
0
41
1
10
3.85619715491387
20
-0.408100959924724
30
0
41
1
10
3.86461178396567
20
-0.407231545015207
30
0
41
1
10
3.88106491041455
20
-0.404979961109063
30
0
41
1
10
3.88912856811439
20
-0.403603293109711
30
0
41
1
10
3.9008123645913
20
-0.400895832779298
30
0
41
1
10
3.90463738268755
20
-0.399884734533799
30
0
41
1
10
3.91208725611881
20
-0.397548344941413
30
0
41
1
10
3.91572665610695
20
-0.396216717272125
30
0
41
1
10
3.92249638146603
20
-0.393145626833729
30
0
41
1
10
3.9256526819739
20
-0.391407028083535
30
0
41
1
10
3.93118364405106
20
-0.387232665926405
30
0
41
1
10
3.93347999611683
20
-0.38485252137923
30
0
41
1
10
3.93566657923304
20
-0.380630666714978
30
0
41
1
10
3.936159774385
20
-0.379150450096603
30
0
41
1
10
3.93661737624171
20
-0.376059385573825
30
0
41
1
10
3.93657564058722
20
-0.374418799017576
30
0
41
1
10
3.93565209758708
20
-0.369523788550396
30
0
41
1
10
3.93397371228269
20
-0.366210777502005
30
0
41
1
10
3.92937892905897
20
-0.359936869246241
30
0
41
1
10
3.92646228266577
20
-0.356939786020092
30
0
41
1
10
3.9201620150927
20
-0.351368002515159
30
0
41
1
10
3.91675156831269
20
-0.3487607734709
30
0
41
1
10
3.91317788205905
20
-0.346265877375771
30
0
0
SPLINE
5
159
100
AcDbEntity
8
1
62
256
6
ByLayer
370
18
48
1
60
0
100
AcDbSpline
70
4
71
3
72
13
73
9
40
0
40
0
40
0
40
0
40
0.25
40
0.25
40
0.5
40
0.75
40
0.75
40
1
40
1
40
1
40
1
41
1
10
-3.15677909714151
20
-0.346265877365283
30
0
41
1
10
-2.63064924761792
20
-0.26028721142842
30
0
41
1
10
-2.10451939809434
20
-0.195443009051331
30
0
41
1
10
-1.05225969904717
20
-0.108884510961502
30
0
41
1
10
0
20
-0.0654585029975863
30
0
41
1
10
1.05225969904717
20
-0.108884510961502
30
0
41
1
10
2.10451939809434
20
-0.195443009051331
30
0
41
1
10
2.63064924761792
20
-0.26028721142842
30
0
41
1
10
3.15677909714151
20
-0.346265877365283
30
0
0
SPLINE
5
15A
100
AcDbEntity
8
1
62
256
6
ByLayer
370
18
48
1
60
0
100
AcDbSpline
70
4
71
3
72
38
73
34
40
0
40
0
40
0
40
0
40
0.015625000000001
40
0.015625000000001
40
0.0312500000000019
40
0.0312500000000019
40
0.0468750000000029
40
0.0468750000000029
40
0.0625000000000038
40
0.0625000000000038
40
0.0781250000000048
40
0.0781250000000048
40
0.0937500000000058
40
0.0937500000000058
40
0.109375000000007
40
0.109375000000007
40
0.125000000000006
40
0.125000000000006
40
0.156250000000006
40
0.156250000000006
40
0.187500000000006
40
0.187500000000006
40
0.250000000000006
40
0.250000000000006
40
0.312500000000007
40
0.312500000000007
40
0.375000000000007
40
0.375000000000007
40
0.500000000000005
40
0.500000000000005
40
0.750000000000002
40
0.750000000000002
40
1
40
1
40
1
40
1
41
1
10
-3.91317788206467
20
-0.346265877351755
30
0
41
1
10
-3.9167736467046
20
-0.348776187019666
30
0
41
1
10
-3.92019988484464
20
-0.351397464723817
30
0
41
1
10
-3.92651519750601
20
-0.356990669393895
30
0
41
1
10
-3.92941912327686
20
-0.359984514239159
30
0
41
1
10
-3.93398431374152
20
-0.366232571907119
30
0
41
1
10
-3.93567158343228
20
-0.369565969875452
30
0
41
1
10
-3.93688461539745
20
-0.376118578682679
30
0
41
1
10
-3.93636554390699
20
-0.379309431881211
30
0
41
1
10
-3.93344951915907
20
-0.384882444742089
30
0
41
1
10
-3.93118449019764
20
-0.387230417217381
30
0
41
1
10
-3.92567187793114
20
-0.391394144649325
30
0
41
1
10
-3.92249513173837
20
-0.393147269722334
30
0
41
1
10
-3.91569396813659
20
-0.396230464794058
30
0
41
1
10
-3.91207569076849
20
-0.397551312041969
30
0
41
1
10
-3.90468759327413
20
-0.399869644277714
30
0
41
1
10
-3.90089277753913
20
-0.400874784337134
30
0
41
1
10
-3.88929702099594
20
-0.403568985611798
30
0
41
1
10
-3.88128866264188
20
-0.404942852233319
30
0
41
1
10
-3.86494015304521
20
-0.407192881699018
30
0
41
1
10
-3.85658062990726
20
-0.408063422818799
30
0
41
1
10
-3.83125045755853
20
-0.410139163597535
30
0
41
1
10
-3.81412412428665
20
-0.410818618504862
30
0
41
1
10
-3.77959426281998
20
-0.411395291558534
30
0
41
1
10
-3.76218606694405
20
-0.411278029025851
30
0
41
1
10
-3.72716842596768
20
-0.410497020372787
30
0
41
1
10
-3.70954107497727
20
-0.409828625363218
30
0
41
1
10
-3.6565904758549
20
-0.407213395159943
30
0
41
1
10
-3.62117200610308
20
-0.404669060463703
30
0
41
1
10
-3.51465782991068
20
-0.395497362659512
30
0
41
1
10
-3.44330540860636
20
-0.387357767865041
30
0
41
1
10
-3.3000950821947
20
-0.368602505012149
30
0
41
1
10
-3.22845556709547
20
-0.357979045267229
30
0
41
1
10
-3.15677909714151
20
-0.346265877365283
30
0
0
SPLINE
5
15B
100
AcDbEntity
8
1
62
256
6
ByLayer
370
18
48
1
60
0
100
AcDbSpline
70
4
71
3
72
10
73
6
40
0
40
0
40
0
40
0
40
0.5
40
0.5
40
1
40
1
40
1
40
1
41
1
10
-2.99716371964624
20
0.238734122653057
30
0
41
1
10
-3.15541395027313
20
0.147788618860801
30
0
41
1
10
-3.31046871654166
20
0.0530904013749591
30
0
41
1
10
-3.61544327780808
20
-0.14233648014303
30
0
41
1
10
-3.76535941888088
20
-0.243069435299446
30
0
41
1
10
-3.91317788204404
20
-0.346265877365283
30
0
0
SPLINE
5
15C
100
AcDbEntity
8
1
62
256
6
ByLayer
370
18
48
1
60
0
100
AcDbSpline
70
4
71
3
72
32
73
28
40
0
40
0
40
0
40
0
40
0.250000000000003
40
0.250000000000003
40
0.375000000000001
40
0.375000000000001
40
0.499999999999999
40
0.499999999999999
40
0.624999999999997
40
0.624999999999997
40
0.687499999999997
40
0.687499999999997
40
0.749999999999996
40
0.749999999999996
40
0.781249999999997
40
0.781249999999997
40
0.812499999999998
40
0.812499999999998
40
0.843749999999999
40
0.843749999999999
40
0.875
40
0.875
40
0.906250000000001
40
0.906250000000001
40
0.937500000000002
40
0.937500000000002
40
1
40
1
40
1
40
1
41
1
10
-3.15166794857197
20
0.298734122634727
30
0
41
1
10
-3.13143042680741
20
0.298734122634727
30
0
41
1
10
-3.11129530618325
20
0.298353061031293
30
0
41
1
10
-3.08134927365927
20
0.296879527510867
30
0
41
1
10
-3.07141064231655
20
0.296236087334648
30
0
41
1
10
-3.0516593521015
20
0.294518944717254
30
0
41
1
10
-3.04186621429864
20
0.293450190195273
30
0
41
1
10
-3.02267660516452
20
0.290659752917662
30
0
41
1
10
-3.01325416984693
20
0.288957872154612
30
0
41
1
10
-2.99967637622106
20
0.285434603995981
30
0
41
1
10
-2.99521463322577
20
0.284085374545583
30
0
41
1
10
-2.98678137454652
20
0.280853033890963
30
0
41
1
10
-2.98281538585755
20
0.278997637665412
30
0
41
1
10
-2.97768674702465
20
0.275435988777957
30
0
41
1
10
-2.97615087188325
20
0.27413295646457
30
0
41
1
10
-2.97364544179203
20
0.27122224973516
30
0
41
1
10
-2.97267212447983
20
0.269587041399546
30
0
41
1
10
-2.97166376020422
20
0.266089288560153
30
0
41
1
10
-2.97163355874125
20
0.264197039806049
30
0
41
1
10
-2.97253873388948
20
0.26043492516439
30
0
41
1
10
-2.9734663403126
20
0.258545267571236
30
0
41
1
10
-2.97589600006475
20
0.254978282577241
30
0
41
1
10
-2.97742315521569
20
0.253248569030006
30
0
41
1
10
-2.98079774013124
20
0.24997549174347
30
0
41
1
10
-2.98265363418429
20
0.248419157961109
30
0
41
1
10
-2.98852599948117
20
0.243943957678226
30
0
41
1
10
-2.99276342481483
20
0.241262946964355
30
0
41
1
10
-2.99716371964621
20
0.238734122653028
30
0
0
SPLINE
5
15D
100
AcDbEntity
8
1
62
256
6
ByLayer
370
18
48
1
60
0
100
AcDbSpline
70
4
71
3
72
16
73
12
40
0
40
0
40
0
40
0
40
0.25
40
0.25
40
0.5
40
0.5
40
0.75
40
0.75
40
0.875
40
0.875
40
1
40
1
40
1
40
1
41
1
10
-4.10402191928824
20
0.238734122635378
30
0
41
1
10
-4.06376678994343
20
0.247808683203346
30
0
41
1
10
-4.02348877621887
20
0.255812163858053
30
0
41
1
10
-3.94288019119222
20
0.269956975056885
30
0
41
1
10
-3.90254967609181
20
0.27609607278481
30
0
41
1
10
-3.8218331720235
20
0.286466457907124
30
0
41
1
10
-3.78144206639695
20
0.290702474281034
30
0
41
1
10
-3.72125030061974
20
0.295277714821793
30
0
41
1
10
-3.70123695495292
20
0.29650547490354
30
0
41
1
10
-3.66134068174029
20
0.298231353222178
30
0
41
1
10
-3.64145673931293
20
0.298734122634812
30
0
41
1
10
-3.62166801750649
20
0.298734122634727
30
0
0
SPLINE
5
15E
100
AcDbEntity
8
1
62
256
6
ByLayer
370
18
48
1
60
0
100
AcDbSpline
70
4
71
3
72
8
73
4
40
0
40
0
40
0
40
0
40
1
40
1
40
1
40
1
41
1
10
-6.19449049756147
20
-0.346265877365198
30
0
41
1
10
-5.50998732186505
20
-0.118247121852249
30
0
41
1
10
-4.81389475865592
20
0.0787101907473584
30
0
41
1
10
-4.10402191928833
20
0.238734122634952
30
0
0
SPLINE
5
15F
100
AcDbEntity
8
1
62
256
6
ByLayer
370
18
48
1
60
0
100
AcDbSpline
70
4
71
3
72
34
73
30
40
0
40
0
40
0
40
0
40
0.0624999999999876
40
0.0624999999999876
40
0.093749999999979
40
0.093749999999979
40
0.109374999999975
40
0.109374999999975
40
0.12499999999997
40
0.12499999999997
40
0.140624999999966
40
0.140624999999966
40
0.156249999999962
40
0.156249999999962
40
0.187499999999961
40
0.187499999999961
40
0.249999999999966
40
0.249999999999966
40
0.312499999999971
40
0.312499999999971
40
0.374999999999977
40
0.374999999999977
40
0.499999999999983
40
0.499999999999983
40
0.624999999999989
40
0.624999999999989
40
0.749999999999995
40
0.749999999999995
40
1
40
1
40
1
40
1
41
1
10
-6.56936091871283
20
-0.346265877364658
30
0
41
1
10
-6.57633679017951
20
-0.353509057726313
30
0
41
1
10
-6.58229813805546
20
-0.361217829089981
30
0
41
1
10
-6.58722404466678
20
-0.372791285497158
30
0
41
1
10
-6.58813773742673
20
-0.376565442508934
30
0
41
1
10
-6.58821029154804
20
-0.381889783436293
30
0
41
1
10
-6.5880160375369
20
-0.38361711235774
30
0
41
1
10
-6.58722335306389
20
-0.386849998101326
30
0
41
1
10
-6.58662658861478
20
-0.388373739986406
30
0
41
1
10
-6.58506523556407
20
-0.391251371419287
30
0
41
1
10
-6.5840935134204
20
-0.392609336558195
30
0
41
1
10
-6.58188370248766
20
-0.395096444492367
30
0
41
1
10
-6.58064108584581
20
-0.39623740911523
30
0
41
1
10
-6.57656834202544
20
-0.399403836496049
30
0
41
1
10
-6.57337285389741
20
-0.401184755139496
30
0
41
1
10
-6.56294084430722
20
-0.405692358680739
30
0
41
1
10
-6.55488911369497
20
-0.40761894503234
30
0
41
1
10
-6.53807327452722
20
-0.41020870458388
30
0
41
1
10
-6.52926787048659
20
-0.41087148464274
30
0
41
1
10
-6.51114879220151
20
-0.411398682897385
30
0
41
1
10
-6.50180676784176
20
-0.411253184143163
30
0
41
1
10
-6.47336946401042
20
-0.409928190396926
30
0
41
1
10
-6.45397340175458
20
-0.407893846338737
30
0
41
1
10
-6.41461622507373
20
-0.402382530457714
30
0
41
1
10
-6.39469343836069
20
-0.398888692827086
30
0
41
1
10
-6.35489068932523
20
-0.390875963398912
30
0
41
1
10
-6.33494021749101
20
-0.386341923634689
30
0
41
1
10
-6.27496056119261
20
-0.371401907279335
30
0
41
1
10
-6.23480550385796
20
-0.359695438966497
30
0
41
1
10
-6.19449049756145
20
-0.346265877365312
30
0
0
SPLINE
5
160
100
AcDbEntity
8
1
62
256
6
ByLayer
370
18
48
1
60
0
100
AcDbSpline
70
4
71
3
72
8
73
4
40
0
40
0
40
0
40
0
40
1
40
1
40
1
40
1
41
1
10
-5.99851292719652
20
0.238734122625516
30
0
41
1
10
-6.19037013142284
20
0.0448864605763788
30
0
41
1
10
-6.38053241454662
20
-0.150201640854107
30
0
41
1
10
-6.56936091871106
20
-0.346265877365283
30
0
0
SPLINE
5
161
100
AcDbEntity
8
1
62
256
6
ByLayer
370
18
48
1
60
0
100
AcDbSpline
70
4
71
3
72
24
73
20
40
0
40
0
40
0
40
0
40
0.250000000000002
40
0.250000000000002
40
0.375000000000002
40
0.375000000000002
40
0.500000000000003
40
0.500000000000003
40
0.625000000000004
40
0.625000000000004
40
0.687500000000005
40
0.687500000000005
40
0.750000000000005
40
0.750000000000005
40
0.812500000000006
40
0.812500000000006
40
0.875000000000007
40
0.875000000000007
40
1
40
1
40
1
40
1
41
1
10
-6.0557716446379
20
0.298734122634755
30
0
41
1
10
-6.04419946822051
20
0.298734122634755
30
0
41
1
10
-6.03294239425148
20
0.298164153815549
30
0
41
1
10
-6.01690358553151
20
0.295804600306837
30
0
41
1
10
-6.01171051548181
20
0.294758501581384
30
0
41
1
10
-6.00201874393659
20
0.291970529691895
30
0
41
1
10
-5.99748212447028
20
0.290233018695716
30
0
41
1
10
-5.98945796966558
20
0.285629828351631
30
0
41
1
10
-5.9861108683719
20
0.282850156283928
30
0
41
1
10
-5.98273345186183
20
0.2775348939889
30
0
41
1
10
-5.98192572586265
20
0.275623822463814
30
0
41
1
10
-5.98102513026132
20
0.271489279150899
30
0
41
1
10
-5.98094395057635
20
0.269244265254145
30
0
41
1
10
-5.98153785798672
20
0.26465596415278
30
0
41
1
10
-5.98220737859836
20
0.262275655070056
30
0
41
1
10
-5.98420333996384
20
0.257440285772247
30
0
41
1
10
-5.98549880190893
20
0.255045798810073
30
0
41
1
10
-5.99007830002719
20
0.247916366207448
30
0
41
1
10
-5.99408431732562
20
0.243208677920734
30
0
41
1
10
-5.99851292719532
20
0.238734122625061
30
0
0
SPLINE
5
162
100
AcDbEntity
8
1
62
256
6
ByLayer
370
18
48
1
60
0
100
AcDbSpline
70
4
71
3
72
18
73
14
40
0
40
0
40
0
40
0
40
0.249999999999999
40
0.249999999999999
40
0.499999999999998
40
0.499999999999998
40
0.624999999999999
40
0.624999999999999
40
0.749999999999999
40
0.749999999999999
40
0.875
40
0.875
40
1
40
1
40
1
40
1
41
1
10
-6.55506132228464
20
0.238734122634952
30
0
41
1
10
-6.53219405367542
20
0.247307503669134
30
0
41
1
10
-6.50937413174029
20
0.255039402683366
30
0
41
1
10
-6.46381515762464
20
0.268933493633995
30
0
41
1
10
-6.4410760792901
20
0.275096625370338
30
0
41
1
10
-6.40703374432397
20
0.28304217774533
30
0
41
1
10
-6.39569750137281
20
0.285472116169956
30
0
41
1
10
-6.37305113985255
20
0.289836534228897
30
0
41
1
10
-6.3617097673044
20
0.291775433842474
30
0
41
1
10
-6.33930863555523
20
0.295021983703862
30
0
41
1
10
-6.32823070632048
20
0.296336002502869
30
0
41
1
10
-6.30638623992704
20
0.298189443883302
30
0
41
1
10
-6.2956174676666
20
0.2987341226345
30
0
41
1
10
-6.28507119094127
20
0.298734122634755
30
0
0
SPLINE
5
163
100
AcDbEntity
8
1
62
256
6
ByLayer
370
18
48
1
60
0
100
AcDbSpline
70
4
71
3
72
8
73
4
40
0
40
0
40
0
40
0
40
1
40
1
40
1
40
1
41
1
10
-7.97829372614241
20
-0.346265877365255
30
0
41
1
10
-7.51126298621298
20
-0.137799718139149
30
0
41
1
10
-7.03726186782848
20
0.0579478169985634
30
0
41
1
10
-6.55506132228466
20
0.238734122634725
30
0
0
SPLINE
5
164
100
AcDbEntity
8
1
62
256
6
ByLayer
370
18
48
1
60
0
100
AcDbSpline
70
4
71
3
72
32
73
28
40
0
40
0
40
0
40
0
40
0.0624999999999784
40
0.0624999999999784
40
0.093749999999971
40
0.093749999999971
40
0.124999999999964
40
0.124999999999964
40
0.156249999999956
40
0.156249999999956
40
0.187499999999949
40
0.187499999999949
40
0.218749999999942
40
0.218749999999942
40
0.249999999999934
40
0.249999999999934
40
0.312499999999936
40
0.312499999999936
40
0.374999999999938
40
0.374999999999938
40
0.499999999999949
40
0.499999999999949
40
0.624999999999961
40
0.624999999999961
40
0.749999999999972
40
0.749999999999972
40
1
40
1
40
1
40
1
41
1
10
-8.23863123486254
20
-0.346265877365283
30
0
41
1
10
-8.24401726610031
20
-0.352561238212388
30
0
41
1
10
-8.24865963093686
20
-0.358881809509541
30
0
41
1
10
-8.2539371465443
20
-0.368419460699641
30
0
41
1
10
-8.25538482563755
20
-0.371575152150541
30
0
41
1
10
-8.25748012467088
20
-0.377655431794693
30
0
41
1
10
-8.25814281003547
20
-0.380640315935693
30
0
41
1
10
-8.25856287725128
20
-0.386207020865641
30
0
41
1
10
-8.25833183116511
20
-0.388776083884835
30
0
41
1
10
-8.25702872715326
20
-0.393506611190418
30
0
41
1
10
-8.25593542312589
20
-0.395685960351301
30
0
41
1
10
-8.25306425665867
20
-0.399493187073574
30
0
41
1
10
-8.25129077564463
20
-0.40114332052238
30
0
41
1
10
-8.24718120168977
20
-0.404022754419117
30
0
41
1
10
-8.24483750719739
20
-0.405249636291444
30
0
41
1
10
-8.23730575918052
20
-0.408314316817979
30
0
41
1
10
-8.23156665794245
20
-0.409597366672301
30
0
41
1
10
-8.21910963287976
20
-0.411134313056067
30
0
41
1
10
-8.21257827072463
20
-0.411362685980208
30
0
41
1
10
-8.19238018397191
20
-0.410970187871783
30
0
41
1
10
-8.17811582407933
20
-0.40928888852801
30
0
41
1
10
-8.14858706018126
20
-0.404175929659544
30
0
41
1
10
-8.13325659136656
20
-0.400694159737725
30
0
41
1
10
-8.10266542924818
20
-0.392582834540974
30
0
41
1
10
-8.08728360342913
20
-0.387929076979873
30
0
41
1
10
-8.04092462387422
20
-0.372501471630443
30
0
41
1
10
-8.00973887178112
20
-0.360301888653538
30
0
41
1
10
-7.97829372614241
20
-0.346265877365283
30
0
0
SPLINE
5
165
100
AcDbEntity
8
1
62
256
6
ByLayer
370
18
48
1
60
0
100
AcDbSpline
70
4
71
3
72
8
73
4
40
0
40
0
40
0
40
0
40
1
40
1
40
1
40
1
41
1
10
-7.73668690802083
20
0.238734122632337
30
0
41
1
10
-7.90433161838287
20
0.0439464417172815
30
0
41
1
10
-8.07162694802656
20
-0.15106607212175
30
0
41
1
10
-8.23863123486254
20
-0.346265877365283
30
0
0
SPLINE
5
166
100
AcDbEntity
8
1
62
256
6
ByLayer
370
18
48
1
60
0
100
AcDbSpline
70
4
71
3
72
24
73
20
40
0
40
0
40
0
40
0
40
0.250000000000018
40
0.250000000000018
40
0.375000000000013
40
0.375000000000013
40
0.500000000000008
40
0.500000000000008
40
0.562500000000008
40
0.562500000000008
40
0.625000000000008
40
0.625000000000008
40
0.687500000000008
40
0.687500000000008
40
0.750000000000008
40
0.750000000000008
40
0.875000000000004
40
0.875000000000004
40
1
40
1
40
1
40
1
41
1
10
-7.76445294698259
20
0.298734122637598
30
0
41
1
10
-7.75540293945677
20
0.29873412263774
30
0
41
1
10
-7.7468987435326
20
0.297987387753466
30
0
41
1
10
-7.73558341781737
20
0.294917556926578
30
0
41
1
10
-7.73212874843207
20
0.293574356736144
30
0
41
1
10
-7.72614480173959
20
0.290073182754327
30
0
41
1
10
-7.72357712923777
20
0.287872211945199
30
0
41
1
10
-7.72082923371833
20
0.283877116910702
30
0
41
1
10
-7.72009293218858
20
0.282431762367963
30
0
41
1
10
-7.71902198597155
20
0.279287446626398
30
0
41
1
10
-7.71869203560706
20
0.277583782106433
30
0
41
1
10
-7.71848018492221
20
0.274027885561338
30
0
41
1
10
-7.71859219447097
20
0.272162531608984
30
0
41
1
10
-7.71924928044741
20
0.268258434985626
30
0
41
1
10
-7.71980194438463
20
0.26620734850394
30
0
41
1
10
-7.72201193028727
20
0.260029519979696
30
0
41
1
10
-7.72421704543051
20
0.255811982361564
30
0
41
1
10
-7.7297713675711
20
0.247222598955858
30
0
41
1
10
-7.73307017897189
20
0.242936427985597
30
0
41
1
10
-7.73668690802037
20
0.238734122632223
30
0
0
SPLINE
5
167
100
AcDbEntity
8
1
62
256
6
ByLayer
370
18
48
1
60
0
100
AcDbSpline
70
4
71
3
72
16
73
12
40
0
40
0
40
0
40
0
40
0.249999999999998
40
0.249999999999998
40
0.499999999999997
40
0.499999999999997
40
0.749999999999995
40
0.749999999999995
40
0.874999999999998
40
0.874999999999998
40
1
40
1
40
1
40
1
41
1
10
-8.12217101296399
20
0.238734122634725
30
0
41
1
10
-8.10492785160844
20
0.247089326470814
30
0
41
1
10
-8.08767417332828
20
0.254749513654247
30
0
41
1
10
-8.05314011575473
20
0.268675465191251
30
0
41
1
10
-8.03598293968213
20
0.274889077962996
30
0
41
1
10
-8.00221641041475
20
0.285540794836208
30
0
41
1
10
-7.98555836230928
20
0.290011288870943
30
0
41
1
10
-7.96104026791771
20
0.294956048673441
30
0
41
1
10
-7.95292019199488
20
0.29630700078414
30
0
41
1
10
-7.93721476792733
20
0.298189748345038
30
0
41
1
10
-7.92959435546132
20
0.298734122634158
30
0
41
1
10
-7.92229515489962
20
0.298734122634727
30
0
0
SPLINE
5
168
100
AcDbEntity
8
1
62
256
6
ByLayer
370
18
48
1
60
0
100
AcDbSpline
70
4
71
3
72
8
73
4
40
0
40
0
40
0
40
0
40
1
40
1
40
1
40
1
41
1
10
-9.26334869455067
20
-0.346265877365283
30
0
41
1
10
-8.8881666513155
20
-0.143642620235511
30
0
41
1
10
-8.50804729863944
20
0.051757097027604
30
0
41
1
10
-8.12217101296399
20
0.238734122634725
30
0
0
SPLINE
5
169
100
AcDbEntity
8
1
62
256
6
ByLayer
370
18
48
1
60
0
100
AcDbSpline
70
4
71
3
72
30
73
26
40
0
40
0
40
0
40
0
40
0.0625000000000019
40
0.0625000000000019
40
0.0937500000000057
40
0.0937500000000057
40
0.125000000000009
40
0.125000000000009
40
0.156250000000013
40
0.156250000000013
40
0.187500000000017
40
0.187500000000017
40
0.250000000000014
40
0.250000000000014
40
0.375000000000019
40
0.375000000000019
40
0.500000000000024
40
0.500000000000024
40
0.562500000000026
40
0.562500000000026
40
0.625000000000028
40
0.625000000000028
40
0.75000000000002
40
0.75000000000002
40
1
40
1
40
1
40
1
41
1
10
-9.45878355645307
20
-0.346265877365255
30
0
41
1
10
-9.46341419736854
20
-0.351902758652784
30
0
41
1
10
-9.46761175102303
20
-0.357592571784835
30
0
41
1
10
-9.47284545162111
20
-0.365993835241767
30
0
41
1
10
-9.47440002916805
20
-0.368751204628524
30
0
41
1
10
-9.47707791838536
20
-0.374168406194713
30
0
41
1
10
-9.47820773153613
20
-0.3768497685505
30
0
41
1
10
-9.47992378569141
20
-0.381976175061766
30
0
41
1
10
-9.48051327776389
20
-0.384418108213595
30
0
41
1
10
-9.48113238920885
20
-0.389049652357187
30
0
41
1
10
-9.48115927728807
20
-0.391256385998503
30
0
41
1
10
-9.48036009078814
20
-0.397351334987917
30
0
41
1
10
-9.4787003709217
20
-0.400628878050441
30
0
41
1
10
-9.47085971123325
20
-0.408475327977669
30
0
41
1
10
-9.46205119235333
20
-0.410729008602033
30
0
41
1
10
-9.44221847811289
20
-0.411627556292359
30
0
41
1
10
-9.43107985270923
20
-0.410374839282156
30
0
41
1
10
-9.41321959920954
20
-0.406906603674315
30
0
41
1
10
-9.40709320576434
20
-0.405477387404005
30
0
41
1
10
-9.39469835398123
20
-0.402201673728769
30
0
41
1
10
-9.38840603778161
20
-0.400350067200208
30
0
41
1
10
-9.36928321467825
20
-0.394243108478293
30
0
41
1
10
-9.35615574795807
20
-0.389416238455397
30
0
41
1
10
-9.31672576565154
20
-0.373426080422519
30
0
41
1
10
-9.29015739238108
20
-0.360744357270562
30
0
41
1
10
-9.26334869455067
20
-0.346265877365283
30
0
0
SPLINE
5
16A
100
AcDbEntity
8
1
62
256
6
ByLayer
370
18
48
1
60
0
100
AcDbSpline
70
4
71
3
72
8
73
4
40
0
40
0
40
0
40
0
40
1
40
1
40
1
40
1
41
1
10
-8.97805609738553
20
0.2387341226339
30
0
41
1
10
-9.13833491595133
20
0.0437565186267648
30
0
41
1
10
-9.29857556736316
20
-0.1512446195525
30
0
41
1
10
-9.45878355645286
20
-0.346265877365283
30
0
0
SPLINE
5
16B
100
AcDbEntity
8
1
62
256
6
ByLayer
370
18
48
1
60
0
100
AcDbSpline
70
4
71
3
72
20
73
16
40
0
40
0
40
0
40
0
40
0.250000000000001
40
0.250000000000001
40
0.375000000000001
40
0.375000000000001
40
0.5
40
0.5
40
0.625
40
0.625
40
0.75
40
0.75
40
0.875
40
0.875
40
1
40
1
40
1
40
1
41
1
10
-8.98755188690919
20
0.298734122634755
30
0
41
1
10
-8.98010477763293
20
0.298734122634755
30
0
41
1
10
-8.97342375665963
20
0.297784716206763
30
0
41
1
10
-8.96549601975461
20
0.294176119009933
30
0
41
1
10
-8.9632122621195
20
0.292590780826032
30
0
41
1
10
-8.95972943533221
20
0.288620512374877
30
0
41
1
10
-8.95850065873547
20
0.286179991016127
30
0
41
1
10
-8.95735874790303
20
0.28059721422278
30
0
41
1
10
-8.95741732819025
20
0.277453462815259
30
0
41
1
10
-8.95883565323432
20
0.270440019035902
30
0
41
1
10
-8.96017224164225
20
0.266708118177348
30
0
41
1
10
-8.9638330055302
20
0.259008009190325
30
0
41
1
10
-8.96618893311107
20
0.25498000205917
30
0
41
1
10
-8.97165079921358
20
0.246851301024407
30
0
41
1
10
-8.97472111813084
20
0.24279109204673
30
0
41
1
10
-8.97805609738535
20
0.2387341226339
30
0
0
SPLINE
5
16C
100
AcDbEntity
8
1
62
256
6
ByLayer
370
18
48
1
60
0
100
AcDbSpline
70
4
71
3
72
18
73
14
40
0
40
0
40
0
40
0
40
0.249999999999979
40
0.249999999999979
40
0.374999999999979
40
0.374999999999979
40
0.499999999999979
40
0.499999999999979
40
0.749999999999999
40
0.749999999999999
40
0.874999999999999
40
0.874999999999999
40
1
40
1
40
1
40
1
41
1
10
-9.26528439869777
20
0.238734122634725
30
0
41
1
10
-9.25107196985942
20
0.246943454831779
30
0
41
1
10
-9.23689503991778
20
0.254533599067173
30
0
41
1
10
-9.21568085228704
20
0.264952277565101
30
0
41
1
10
-9.20860682699247
20
0.268266675281382
30
0
41
1
10
-9.19463427200665
20
0.274475247841622
30
0
41
1
10
-9.18771796477509
20
0.277378834606651
30
0
41
1
10
-9.16719599763398
20
0.285437453234834
30
0
41
1
10
-9.15380789867892
20
0.289966399050258
30
0
41
1
10
-9.13434829909724
20
0.29497724982167
30
0
41
1
10
-9.12803721565436
20
0.296324021037776
30
0
41
1
10
-9.11599899930286
20
0.298197710136435
30
0
41
1
10
-9.11024736100178
20
0.298734122634187
30
0
41
1
10
-9.10485591140105
20
0.298734122634755
30
0
0
SPLINE
5
16D
100
AcDbEntity
8
1
62
256
6
ByLayer
370
18
48
1
60
0
100
AcDbSpline
70
4
71
3
72
8
73
4
40
0
40
0
40
0
40
0
40
1
40
1
40
1
40
1
41
1
10
-10.2391936837362
20
-0.346265877365283
30
0
41
1
10
-9.91846102511103
20
-0.146391617731496
30
0
41
1
10
-9.59401927701582
20
0.0488514606661852
30
0
41
1
10
-9.26528439869779
20
0.238734122634725
30
0
0
SPLINE
5
16E
100
AcDbEntity
8
1
62
256
6
ByLayer
370
18
48
1
60
0
100
AcDbSpline
70
4
71
3
72
35
73
31
40
0
40
0
40
0
40
0
40
0.0624999999999921
40
0.0624999999999921
40
0.124999999999984
40
0.124999999999984
40
0.187499999999976
40
0.187499999999976
40
0.218749999999972
40
0.218749999999972
40
0.249999999999968
40
0.281249999999964
40
0.281249999999964
40
0.31249999999996
40
0.31249999999996
40
0.374999999999964
40
0.374999999999964
40
0.437499999999968
40
0.437499999999968
40
0.499999999999971
40
0.499999999999971
40
0.562499999999975
40
0.562499999999975
40
0.624999999999978
40
0.624999999999978
40
0.749999999999986
40
0.749999999999986
40
0.874999999999993
40
0.874999999999993
40
1
40
1
40
1
40
1
41
1
10
-10.3892794799059
20
-0.346265877365283
30
0
41
1
10
-10.393565807874
20
-0.351509865768747
30
0
41
1
10
-10.3975477088159
20
-0.356774113990838
30
0
41
1
10
-10.4044805061788
20
-0.366990622080266
30
0
41
1
10
-10.4074517427559
20
-0.371959062432097
30
0
41
1
10
-10.4121284428283
20
-0.381540132767952
30
0
41
1
10
-10.4137591401409
20
-0.386023242370527
30
0
41
1
10
-10.41494278492
20
-0.392060729596437
30
0
41
1
10
-10.4151281355978
20
-0.393981740000555
30
0
41
1
10
-10.4150566482822
20
-0.397490752570235
30
0
41
1
10
-10.4145539566102
20
-0.400682631016366
30
0
41
1
10
-10.4132336255927
20
-0.403274296540502
30
0
41
1
10
-10.4115167631084
20
-0.405575445251429
30
0
41
1
10
-10.4104519673839
20
-0.406582667989795
30
0
41
1
10
-10.406792429418
20
-0.409110541754757
30
0
41
1
10
-10.4037206585327
20
-0.410180651823566
30
0
41
1
10
-10.3965559350464
20
-0.411330822595971
30
0
41
1
10
-10.3925168165316
20
-0.411395835317592
30
0
41
1
10
-10.3838843065225
20
-0.41074568632439
30
0
41
1
10
-10.3792647851403
20
-0.410031553760945
30
0
41
1
10
-10.3695279223598
20
-0.407966601097087
30
0
41
1
10
-10.3644217120287
20
-0.40661464988824
30
0
41
1
10
-10.3539916786325
20
-0.403432759293509
30
0
41
1
10
-10.3486412568543
20
-0.401596803862276
30
0
41
1
10
-10.332242883351
20
-0.395461910448347
30
0
41
1
10
-10.3208151792588
20
-0.390518000559325
30
0
41
1
10
-10.2978900658682
20
-0.379604315250674
30
0
41
1
10
-10.2863013323554
20
-0.373599285346387
30
0
41
1
10
-10.2629080774237
20
-0.36064178900395
30
0
41
1
10
-10.2511031590057
20
-0.353687627187412
30
0
41
1
10
-10.2391936837362
20
-0.346265877365283
30
0
0
SPLINE
5
16F
100
AcDbEntity
8
1
62
256
6
ByLayer
370
18
48
1
60
0
100
AcDbSpline
70
4
71
3
72
8
73
4
40
0
40
0
40
0
40
0
40
1
40
1
40
1
40
1
41
1
10
-9.91108764278047
20
0.238734122634384
30
0
41
1
10
-10.070490718115
20
0.0437376762441204
30
0
41
1
10
-10.2298877306637
20
-0.151262487319002
30
0
41
1
10
-10.3892794799059
20
-0.346265877365283
30
0
0
SPLINE
5
170
100
AcDbEntity
8
1
62
256
6
ByLayer
370
18
48
1
60
0
100
AcDbSpline
70
4
71
3
72
22
73
18
40
0
40
0
40
0
40
0
40
0.125
40
0.125
40
0.25
40
0.25
40
0.375
40
0.375
40
0.5
40
0.5
40
0.625
40
0.625
40
0.75
40
0.75
40
0.875
40
0.875
40
1
40
1
40
1
40
1
41
1
10
-9.90658610591109
20
0.298734122634727
30
0
41
1
10
-9.9035552884008
20
0.298734122634727
30
0
41
1
10
-9.90078139511638
20
0.298454319542145
30
0
41
1
10
-9.89584518729019
20
0.297230564610857
30
0
41
1
10
-9.8936645051233
20
0.296272520793337
30
0
41
1
10
-9.89017653067044
20
0.293591603240884
30
0
41
1
10
-9.88886998029527
20
0.291883994457407
30
0
41
1
10
-9.88725320254044
20
0.287635153424617
30
0
41
1
10
-9.88696933039621
20
0.285117356665921
30
0
41
1
10
-9.88746156335377
20
0.279484831735488
30
0
41
1
10
-9.88824038867955
20
0.276314977002585
30
0
41
1
10
-9.89078500388754
20
0.269479782846304
30
0
41
1
10
-9.89251430634609
20
0.265887001283545
30
0
41
1
10
-9.89674197662347
20
0.258407646048113
30
0
41
1
10
-9.899263690015
20
0.254493634525602
30
0
41
1
10
-9.90480663180605
20
0.246656481247157
30
0
41
1
10
-9.90783936297601
20
0.242707716101194
30
0
41
1
10
-9.9110876427804
20
0.238734122634384
30
0
0
SPLINE
5
171
100
AcDbEntity
8
1
62
256
6
ByLayer
370
18
48
1
60
0
100
AcDbSpline
70
4
71
3
72
18
73
14
40
0
40
0
40
0
40
0
40
0.25
40
0.25
40
0.375
40
0.375
40
0.5
40
0.5
40
0.75
40
0.75
40
0.875
40
0.875
40
1
40
1
40
1
40
1
41
1
10
-10.128984549977
20
0.238734122634725
30
0
41
1
10
-10.1167588446078
20
0.246817881580824
30
0
41
1
10
-10.1046460871967
20
0.254324801330171
30
0
41
1
10
-10.0866516356631
20
0.26467026749259
30
0
41
1
10
-10.0806828784395
20
0.267964884988487
30
0
41
1
10
-10.0688093243301
20
0.274216367216098
30
0
41
1
10
-10.0628863862919
20
0.277180863316829
30
0
41
1
10
-10.0455226766792
20
0.285357537921811
30
0
41
1
10
-10.0343930794834
20
0.289924282743982
30
0
41
1
10
-10.0186170413059
20
0.294955811004002
30
0
41
1
10
-10.0134896877797
20
0.296325792747154
30
0
41
1
10
-10.0039464335981
20
0.298206834276243
30
0
41
1
10
-9.99949425202581
20
0.298734122643111
30
0
41
1
10
-9.99545105601651
20
0.298734122643765
30
0
0
SPLINE
5
172
100
AcDbEntity
8
1
62
256
6
ByLayer
370
18
48
1
60
0
100
AcDbSpline
70
4
71
3
72
8
73
4
40
0
40
0
40
0
40
0
40
1
40
1
40
1
40
1
41
1
10
-10.9885188059763
20
-0.346265877365283
30
0
41
1
10
-10.7050148310899
20
-0.147951770980683
30
0
41
1
10
-10.4186469711083
20
0.04720642607586
30
0
41
1
10
-10.128984549977
20
0.238734122634725
30
0
0
SPLINE
5
173
100
AcDbEntity
8
1
62
256
6
ByLayer
370
18
48
1
60
0
100
AcDbSpline
70
4
71
3
72
37
73
33
40
0
40
0
40
0
40
0
40
0.0624999999999941
40
0.0624999999999941
40
0.124999999999988
40
0.124999999999988
40
0.187499999999982
40
0.187499999999982
40
0.218749999999982
40
0.218749999999982
40
0.249999999999982
40
0.249999999999982
40
0.312499999999983
40
0.312499999999983
40
0.343749999999985
40
0.343749999999985
40
0.374999999999987
40
0.374999999999987
40
0.437499999999991
40
0.437499999999991
40
0.499999999999994
40
0.499999999999994
40
0.562499999999998
40
0.562499999999998
40
0.625000000000001
40
0.687500000000005
40
0.687500000000005
40
0.750000000000008
40
0.750000000000008
40
0.875000000000004
40
0.875000000000004
40
1
40
1
40
1
40
1
41
1
10
-11.103182870482
20
-0.346265877365283
30
0
41
1
10
-11.10729192647
20
-0.351217606374917
30
0
41
1
10
-11.1111747646967
20
-0.356159314467618
30
0
41
1
10
-11.1181925136869
20
-0.365757960847532
30
0
41
1
10
-11.1213317690102
20
-0.370414666979997
30
0
41
1
10
-11.1267168241725
20
-0.379384666999926
30
0
41
1
10
-11.1289631778535
20
-0.383720135967707
30
0
41
1
10
-11.1313596255662
20
-0.389598979267532
30
0
41
1
10
-11.13200439519
20
-0.39146689634029
30
0
41
1
10
-11.1329645325849
20
-0.395007020395212
30
0
41
1
10
-11.1332789215271
20
-0.396687619078335
30
0
41
1
10
-11.1336814587799
20
-0.401283693826173
30
0
41
1
10
-11.1332511647521
20
-0.403799954159467
30
0
41
1
10
-11.1315943784824
20
-0.406784015397903
30
0
41
1
10
-11.1308656989016
20
-0.407649681054835
30
0
41
1
10
-11.1291171179571
20
-0.409081176346973
30
0
41
1
10
-11.1280968947368
20
-0.409653280476618
30
0
41
1
10
-11.1246383293278
20
-0.410978528563561
30
0
41
1
10
-11.1217741228637
20
-0.411341018064491
30
0
41
1
10
-11.1152683576925
20
-0.411164741620922
30
0
41
1
10
-11.1116594743743
20
-0.410637250693043
30
0
41
1
10
-11.1038701608851
20
-0.408878546788145
30
0
41
1
10
-11.0996670128274
20
-0.407637934191996
30
0
41
1
10
-11.090864053475
20
-0.404581256441333
30
0
41
1
10
-11.0817283932268
20
-0.400976404553404
30
0
41
1
10
-11.0720396182348
20
-0.396460995352271
30
0
41
1
10
-11.0621063047738
20
-0.391542907161011
30
0
41
1
10
-11.0570045150885
20
-0.38887449831131
30
0
41
1
10
-11.0416300463654
20
-0.380465130727231
30
0
41
1
10
-11.0312065720077
20
-0.37428716641088
30
0
41
1
10
-11.010073975124
20
-0.36098205167059
30
0
41
1
10
-10.9993640311666
20
-0.353852230054088
30
0
41
1
10
-10.9885188059763
20
-0.346265877365283
30
0
0
SPLINE
5
174
100
AcDbEntity
8
1
62
256
6
ByLayer
370
18
48
1
60
0
100
AcDbSpline
70
4
71
3
72
8
73
4
40
0
40
0
40
0
40
0
40
1
40
1
40
1
40
1
41
1
10
-10.6173831633766
20
0.238734122634554
30
0
41
1
10
-10.7793976107627
20
0.0437847029075442
30
0
41
1
10
-10.9413273326196
20
-0.151217485585761
30
0
41
1
10
-11.103182870482
20
-0.346265877365283
30
0
0
SPLINE
5
175
100
AcDbEntity
8
1
62
256
6
ByLayer
370
18
48
1
60
0
100
AcDbSpline
70
4
71
3
72
22
73
18
40
0
40
0
40
0
40
0
40
0.125
40
0.125
40
0.25
40
0.25
40
0.375
40
0.375
40
0.5
40
0.5
40
0.625
40
0.625
40
0.75
40
0.75
40
0.875
40
0.875
40
1
40
1
40
1
40
1
41
1
10
-10.6009342808912
20
0.298734122634812
30
0
41
1
10
-10.5985266859291
20
0.298734122634812
30
0
41
1
10
-10.5964041527176
20
0.298420292623774
30
0
41
1
10
-10.5928444998102
20
0.297039766706206
30
0
41
1
10
-10.5914547010666
20
0.295987918298891
30
0
41
1
10
-10.5895387265966
20
0.293112660961327
30
0
41
1
10
-10.5890138908018
20
0.29125498026886
30
0
41
1
10
-10.5889297189615
20
0.286872251074385
30
0
41
1
10
-10.5893528171736
20
0.284350984290001
30
0
41
1
10
-10.5910958301674
20
0.278674316534648
30
0
41
1
10
-10.592435999469
20
0.275492501925356
30
0
41
1
10
-10.5958268769352
20
0.268832019336344
30
0
41
1
10
-10.5978832007187
20
0.265322176712829
30
0
41
1
10
-10.6026273667997
20
0.257989186134552
30
0
41
1
10
-10.6053066170409
20
0.254184558264285
30
0
41
1
10
-10.6110458896775
20
0.246531919837963
30
0
41
1
10
-10.6141249085977
20
0.24265472902934
30
0
41
1
10
-10.6173831633766
20
0.238734122634582
30
0
0
SPLINE
5
176
100
AcDbEntity
8
1
62
256
6
ByLayer
370
18
48
1
60
0
100
AcDbSpline
70
4
71
3
72
16
73
12
40
0
40
0
40
0
40
0
40
0.250000000000003
40
0.250000000000003
40
0.500000000000006
40
0.500000000000006
40
0.750000000000009
40
0.750000000000009
40
0.875000000000004
40
0.875000000000004
40
1
40
1
40
1
40
1
41
1
10
-10.7806382482019
20
0.238734122634725
30
0
41
1
10
-10.7697755860159
20
0.246756664327705
30
0
41
1
10
-10.7590725504616
20
0.254248253984997
30
0
41
1
10
-10.738133790051
20
0.268003798727222
30
0
41
1
10
-10.7278728540626
20
0.274290284939724
30
0
41
1
10
-10.7078952640795
20
0.285342317233812
30
0
41
1
10
-10.698488429322
20
0.289941460296888
30
0
41
1
10
-10.6855448913022
20
0.294980122699059
30
0
41
1
10
-10.6813955342835
20
0.29635043144188
30
0
41
1
10
-10.6738521835112
20
0.298220550165155
30
0
41
1
10
-10.6704375933484
20
0.298734122636802
30
0
41
1
10
-10.6674590441831
20
0.298734122637029
30
0
0
LINE
5
7D
100
AcDbEntity
8
81
62
256
6
ByLayer
370
18
48
1
60
0
100
AcDbLine
10
37.6
20
-14
30
0
11
42.6
21
-14
31
0
39
0
210
0
220
0
230
1
0
LINE
5
7E
100
AcDbEntity
8
80
62
256
6
ByLayer
370
18
48
1
60
0
100
AcDbLine
10
0
20
0
30
0
11
0
21
5
31
0
39
0
210
0
220
0
230
1
0
LINE
5
7F
100
AcDbEntity
8
1
62
256
6
ByLayer
370
18
48
1
60
0
100
AcDbLine
10
18.044204
20
-13.995691
30
0
11
18.990989
21
-13.937783
31
0
39
0
210
0
220
0
230
1
0
LINE
5
80
100
AcDbEntity
8
1
62
256
6
ByLayer
370
18
48
1
60
0
100
AcDbLine
10
18.990989
20
-11.062217
30
0
11
18.694438
21
-11.044079
31
0
39
0
210
0
220
0
230
1
0
LINE
5
81
100
AcDbEntity
8
1
62
256
6
ByLayer
370
18
48
1
60
0
100
AcDbLine
10
17.60001
20
-13.674995
30
0
11
17.60001
21
-13.803151
31
0
39
0
210
0
220
0
230
1
0
LINE
5
82
100
AcDbEntity
8
1
62
256
6
ByLayer
370
18
48
1
60
0
100
AcDbLine
10
36.209011
20
-11.062217
30
0
11
37.155796
21
-11.004309
31
0
39
0
210
0
220
0
230
1
0
LINE
5
83
100
AcDbEntity
8
1
62
256
6
ByLayer
370
18
48
1
60
0
100
AcDbLine
10
37.155796
20
-13.995691
30
0
11
36.209011
21
-13.937783
31
0
39
0
210
0
220
0
230
1
0
LINE
5
84
100
AcDbEntity
8
1
62
256
6
ByLayer
370
18
48
1
60
0
100
AcDbLine
10
37.59999
20
-11.196849
30
0
11
37.59999
21
-13.803151
31
0
39
0
210
0
220
0
230
1
0
LINE
5
85
100
AcDbEntity
8
1
62
256
6
ByLayer
370
18
48
1
60
0
100
AcDbLine
10
35.451573
20
-11.058705
30
0
11
36.209011
21
-11.062217
31
0
39
0
210
0
220
0
230
1
0
LINE
5
86
100
AcDbEntity
8
1
62
256
6
ByLayer
370
18
48
1
60
0
100
AcDbLine
10
36.209011
20
-13.937783
30
0
11
35.451573
21
-13.941295
31
0
39
0
210
0
220
0
230
1
0
LINE
5
87
100
AcDbEntity
8
1
62
256
6
ByLayer
370
18
48
1
60
0
100
AcDbLine
10
36.209011
20
-13.937783
30
0
11
36.209011
21
-11.062217
31
0
39
0
210
0
220
0
230
1
0
LINE
5
88
100
AcDbEntity
8
1
62
256
6
ByLayer
370
18
48
1
60
0
100
AcDbLine
10
18.990989
20
-13.937783
30
0
11
19.748427
21
-13.941295
31
0
39
0
210
0
220
0
230
1
0
LINE
5
89
100
AcDbEntity
8
1
62
256
6
ByLayer
370
18
48
1
60
0
100
AcDbLine
10
19.748427
20
-11.058705
30
0
11
18.990989
21
-11.062217
31
0
39
0
210
0
220
0
230
1
0
LINE
5
8A
100
AcDbEntity
8
1
62
256
6
ByLayer
370
18
48
1
60
0
100
AcDbLine
10
18.990989
20
-13.937783
30
0
11
18.990989
21
-13.674983
31
0
39
0
210
0
220
0
230
1
0
LINE
5
8B
100
AcDbEntity
8
1
62
256
6
ByLayer
370
18
48
1
60
0
100
AcDbLine
10
18.990989
20
-11.204603
30
0
11
18.990989
21
-11.062217
31
0
39
0
210
0
220
0
230
1
0
LINE
5
8C
100
AcDbEntity
8
1
62
256
6
ByLayer
370
13
48
1
60
0
100
AcDbLine
10
34.78134
20
-12.5
30
0
11
31.349782
21
-12.5
31
0
39
0
210
0
220
0
230
1
0
LINE
5
8D
100
AcDbEntity
8
1
62
256
6
ByLayer
370
13
48
1
60
0
100
AcDbLine
10
33.997706
20
-12.697335
30
0
11
31.262487
21
-12.697335
31
0
39
0
210
0
220
0
230
1
0
LINE
5
8E
100
AcDbEntity
8
1
62
256
6
ByLayer
370
13
48
1
60
0
100
AcDbLine
10
31.262487
20
-12.302665
30
0
11
33.997706
21
-12.302665
31
0
39
0
210
0
220
0
230
1
0
LINE
5
8F
100
AcDbEntity
8
1
62
256
6
ByLayer
370
13
48
1
60
0
100
AcDbLine
10
31.255968
20
-12.299244
30
0
11
33.944414
21
-12.299244
31
0
39
0
210
0
220
0
230
1
0
LINE
5
90
100
AcDbEntity
8
1
62
256
6
ByLayer
370
13
48
1
60
0
100
AcDbLine
10
31.255968
20
-12.700756
30
0
11
33.944414
21
-12.700756
31
0
39
0
210
0
220
0
230
1
0
LINE
5
91
100
AcDbEntity
8
1
62
256
6
ByLayer
370
13
48
1
60
0
100
AcDbLine
10
31.163344
20
-12.248976
30
0
11
33.236252
21
-12.248976
31
0
39
0
210
0
220
0
230
1
0
LINE
5
92
100
AcDbEntity
8
1
62
256
6
ByLayer
370
13
48
1
60
0
100
AcDbLine
10
31.163344
20
-12.751024
30
0
11
33.236252
21
-12.751024
31
0
39
0
210
0
220
0
230
1
0
LINE
5
93
100
AcDbEntity
8
1
62
256
6
ByLayer
370
13
48
1
60
0
100
AcDbLine
10
31.129949
20
-12.867998
30
0
11
32.624167
21
-12.867998
31
0
39
0
210
0
220
0
230
1
0
LINE
5
94
100
AcDbEntity
8
1
62
256
6
ByLayer
370
13
48
1
60
0
100
AcDbLine
10
31.131048
20
-12.132002
30
0
11
32.624167
21
-12.132002
31
0
39
0
210
0
220
0
230
1
0
LINE
5
95
100
AcDbEntity
8
1
62
256
6
ByLayer
370
13
48
1
60
0
100
AcDbLine
10
30.955914
20
-13.475984
30
0
11
31.42005
21
-13.475984
31
0
39
0
210
0
220
0
230
1
0
LINE
5
96
100
AcDbEntity
8
1
62
256
6
ByLayer
370
18
48
1
60
0
100
AcDbLine
10
30.90576
20
-13.65
30
0
11
31.372487
21
-13.65
31
0
39
0
210
0
220
0
230
1
0
LINE
5
97
100
AcDbEntity
8
1
62
256
6
ByLayer
370
13
48
1
60
0
100
AcDbLine
10
31.372487
20
-13.525438
30
0
11
30.941716
21
-13.525438
31
0
39
0
210
0
220
0
230
1
0
LINE
5
98
100
AcDbEntity
8
1
62
256
6
ByLayer
370
18
48
1
60
0
100
AcDbLine
10
31.372487
20
-13.65
30
0
11
33.828061
21
-13.65
31
0
39
0
210
0
220
0
230
1
0
LINE
5
99
100
AcDbEntity
8
1
62
256
6
ByLayer
370
18
48
1
60
0
100
AcDbLine
10
34.072465
20
-11.3198
30
0
11
35.019669
21
-11.081125
31
0
39
0
210
0
220
0
230
1
0
LINE
5
9A
100
AcDbEntity
8
1
62
256
6
ByLayer
370
18
48
1
60
0
100
AcDbLine
10
33.828061
20
-11.35
30
0
11
31.372487
21
-11.35
31
0
39
0
210
0
220
0
230
1
0
LINE
5
9B
100
AcDbEntity
8
1
62
256
6
ByLayer
370
18
48
1
60
0
100
AcDbLine
10
32.624167
20
-12.132002
30
0
11
31.42005
21
-11.524016
31
0
39
0
210
0
220
0
230
1
0
LINE
5
9C
100
AcDbEntity
8
1
62
256
6
ByLayer
370
18
48
1
60
0
100
AcDbLine
10
33.997706
20
-12.302665
30
0
11
33.944414
21
-12.299244
31
0
39
0
210
0
220
0
230
1
0
LINE
5
9D
100
AcDbEntity
8
1
62
256
6
ByLayer
370
18
48
1
60
0
100
AcDbLine
10
33.944414
20
-12.700756
30
0
11
33.997706
21
-12.697335
31
0
39
0
210
0
220
0
230
1
0
LINE
5
9E
100
AcDbEntity
8
1
62
256
6
ByLayer
370
18
48
1
60
0
100
AcDbLine
10
31.42005
20
-13.475984
30
0
11
32.624167
21
-12.867998
31
0
39
0
210
0
220
0
230
1
0
LINE
5
9F
100
AcDbEntity
8
1
62
256
6
ByLayer
370
18
48
1
60
0
100
AcDbLine
10
31.372487
20
-13.65
30
0
11
31.372487
21
-13.525438
31
0
39
0
210
0
220
0
230
1
0
LINE
5
A0
100
AcDbEntity
8
1
62
256
6
ByLayer
370
18
48
1
60
0
100
AcDbLine
10
35.019669
20
-13.918875
30
0
11
34.072465
21
-13.6802
31
0
39
0
210
0
220
0
230
1
0
LINE
5
A1
100
AcDbEntity
8
1
62
256
6
ByLayer
370
18
48
1
60
0
100
AcDbLine
10
35.451573
20
-13.941295
30
0
11
35.058733
21
-13.924561
31
0
39
0
210
0
220
0
230
1
0
LINE
5
A2
100
AcDbEntity
8
1
62
256
6
ByLayer
370
18
48
1
60
0
100
AcDbLine
10
35.451573
20
-13.941295
30
0
11
35.451573
21
-11.058705
31
0
39
0
210
0
220
0
230
1
0
LINE
5
A3
100
AcDbEntity
8
1
62
256
6
ByLayer
370
18
48
1
60
0
100
AcDbLine
10
35.058733
20
-11.075439
30
0
11
35.451573
21
-11.058705
31
0
39
0
210
0
220
0
230
1
0
LINE
5
A4
100
AcDbEntity
8
1
62
256
6
ByLayer
370
18
48
1
60
0
100
AcDbLine
10
20.141267
20
-11.075439
30
0
11
19.748427
21
-11.058705
31
0
39
0
210
0
220
0
230
1
0
LINE
5
A5
100
AcDbEntity
8
1
62
256
6
ByLayer
370
18
48
1
60
0
100
AcDbLine
10
19.748427
20
-13.941295
30
0
11
19.748427
21
-13.67497
31
0
39
0
210
0
220
0
230
1
0
LINE
5
A6
100
AcDbEntity
8
1
62
256
6
ByLayer
370
18
48
1
60
0
100
AcDbLine
10
19.748427
20
-11.32503
30
0
11
19.748427
21
-11.058705
31
0
39
0
210
0
220
0
230
1
0
LINE
5
A7
100
AcDbEntity
8
1
62
256
6
ByLayer
370
18
48
1
60
0
100
AcDbLine
10
19.748427
20
-13.941295
30
0
11
20.141267
21
-13.924561
31
0
39
0
210
0
220
0
230
1
0
LINE
5
A8
100
AcDbEntity
8
1
62
256
6
ByLayer
370
18
48
1
60
0
100
AcDbLine
10
20.180331
20
-13.918875
30
0
11
21.127535
21
-13.6802
31
0
39
0
210
0
220
0
230
1
0
LINE
5
A9
100
AcDbEntity
8
1
62
256
6
ByLayer
370
18
48
1
60
0
100
AcDbLine
10
21.127535
20
-11.3198
30
0
11
20.180331
21
-11.081125
31
0
39
0
210
0
220
0
230
1
0
LINE
5
AA
100
AcDbEntity
8
1
62
256
6
ByLayer
370
13
48
1
60
0
100
AcDbLine
10
31.42005
20
-11.524016
30
0
11
30.957824
21
-11.524016
31
0
39
0
210
0
220
0
230
1
0
LINE
5
AB
100
AcDbEntity
8
1
62
256
6
ByLayer
370
13
48
1
60
0
100
AcDbLine
10
30.942895
20
-11.474562
30
0
11
31.372487
21
-11.474562
31
0
39
0
210
0
220
0
230
1
0
LINE
5
AC
100
AcDbEntity
8
1
62
256
6
ByLayer
370
18
48
1
60
0
100
AcDbLine
10
31.372487
20
-11.474562
30
0
11
31.372487
21
-11.35
31
0
39
0
210
0
220
0
230
1
0
LINE
5
AD
100
AcDbEntity
8
1
62
256
6
ByLayer
370
18
48
1
60
0
100
AcDbLine
10
31.372487
20
-11.35
30
0
11
30.905288
21
-11.35
31
0
39
0
210
0
220
0
230
1
0
LINE
5
AE
100
AcDbEntity
8
1
62
256
6
ByLayer
370
18
48
1
60
0
100
AcDbLine
10
5.41984
20
0.298734
30
0
11
3.621479
21
0.298734
31
0
39
0
210
0
220
0
230
1
0
LINE
5
AF
100
AcDbEntity
8
1
62
256
6
ByLayer
370
13
48
1
60
0
100
AcDbLine
10
5.302288
20
0.238734
30
0
11
3.834733
21
0.238734
31
0
39
0
210
0
220
0
230
1
0
LINE
5
B0
100
AcDbEntity
8
1
62
256
6
ByLayer
370
18
48
1
60
0
100
AcDbLine
10
30.897825
20
-11.325
30
0
11
31.497124
21
-11.325
31
0
39
0
210
0
220
0
230
1
0
LINE
5
B1
100
AcDbEntity
8
1
62
256
6
ByLayer
370
18
48
1
60
0
100
AcDbLine
10
30.897825
20
-13.675
30
0
11
31.497124
21
-13.675
31
0
39
0
210
0
220
0
230
1
0
LINE
5
B2
100
AcDbEntity
8
1
62
256
6
ByLayer
370
18
48
1
60
0
100
AcDbLine
10
32.41552
20
-11.325
30
0
11
34.050863
21
-11.325
31
0
39
0
210
0
220
0
230
1
0
LINE
5
B3
100
AcDbEntity
8
1
62
256
6
ByLayer
370
18
48
1
60
0
100
AcDbLine
10
32.41552
20
-13.675
30
0
11
34.050863
21
-13.675
31
0
39
0
210
0
220
0
230
1
0
LINE
5
B4
100
AcDbEntity
8
1
62
256
6
ByLayer
370
18
48
1
60
0
100
AcDbLine
10
31.497124
20
-13.675
30
0
11
32.41552
21
-13.675
31
0
39
0
210
0
220
0
230
1
0
LINE
5
B5
100
AcDbEntity
8
1
62
256
6
ByLayer
370
18
48
1
60
0
100
AcDbLine
10
31.497124
20
-13.675
30
0
11
31.496886
21
-13.649996
31
0
39
0
210
0
220
0
230
1
0
LINE
5
B6
100
AcDbEntity
8
1
62
256
6
ByLayer
370
18
48
1
60
0
100
AcDbLine
10
32.41552
20
-13.675
30
0
11
32.415283
21
-13.649996
31
0
39
0
210
0
220
0
230
1
0
LINE
5
B7
100
AcDbEntity
8
1
62
256
6
ByLayer
370
18
48
1
60
0
100
AcDbLine
10
31.497124
20
-11.325
30
0
11
32.41552
21
-11.325
31
0
39
0
210
0
220
0
230
1
0
LINE
5
B8
100
AcDbEntity
8
1
62
256
6
ByLayer
370
18
48
1
60
0
100
AcDbLine
10
31.496886
20
-11.350004
30
0
11
31.497124
21
-11.325
31
0
39
0
210
0
220
0
230
1
0
LINE
5
B9
100
AcDbEntity
8
1
62
256
6
ByLayer
370
18
48
1
60
0
100
AcDbLine
10
32.415283
20
-11.350004
30
0
11
32.41552
21
-11.325
31
0
39
0
210
0
220
0
230
1
0
LINE
5
BA
100
AcDbEntity
8
1
62
256
6
ByLayer
370
18
48
1
60
0
100
AcDbLine
10
11.497433
20
0.298734
30
0
11
5.484845
21
0.298734
31
0
39
0
210
0
220
0
230
1
0
LINE
5
BB
100
AcDbEntity
8
1
62
256
6
ByLayer
370
18
48
1
60
0
100
AcDbLine
10
5.419971
20
0.298734
30
0
11
5.484845
21
0.298734
31
0
39
0
210
0
220
0
230
1
0
LINE
5
BC
100
AcDbEntity
8
1
62
256
6
ByLayer
370
13
48
1
60
0
100
AcDbLine
10
11.580105
20
0.238734
30
0
11
5.464557
21
0.238734
31
0
39
0
210
0
220
0
230
1
0
LINE
5
BD
100
AcDbEntity
8
1
62
256
6
ByLayer
370
18
48
1
60
0
100
AcDbLine
10
5.453005
20
0.225
30
0
11
3.854949
21
0.225
31
0
39
0
210
0
220
0
230
1
0
LINE
5
BE
100
AcDbEntity
8
1
62
256
6
ByLayer
370
18
48
1
60
0
100
AcDbLine
10
12.322337
20
-0.55
30
0
11
12.322337
21
-0.45
31
0
39
0
210
0
220
0
230
1
0
LINE
5
BF
100
AcDbEntity
8
1
62
256
6
ByLayer
370
18
48
1
60
0
100
AcDbLine
10
4.406425
20
-0.151554
30
0
11
12.019481
21
-0.151554
31
0
39
0
210
0
220
0
230
1
0
LINE
5
C0
100
AcDbEntity
8
1
62
256
6
ByLayer
370
18
48
1
60
0
100
AcDbLine
10
-10.751266
20
0.298734
30
0
11
-10.811266
21
0.238734
31
0
39
0
210
0
220
0
230
1
0
LINE
5
C1
100
AcDbEntity
8
1
62
256
6
ByLayer
370
18
48
1
60
0
100
AcDbLine
10
-10.667432
20
0.298734
30
0
11
-10.751266
21
0.298734
31
0
39
0
210
0
220
0
230
1
0
LINE
5
C2
100
AcDbEntity
8
1
62
256
6
ByLayer
370
18
48
1
60
0
100
AcDbLine
10
-10.811266
20
0.238734
30
0
11
-10.897151
21
0.152849
31
0
39
0
210
0
220
0
230
1
0
LINE
5
C3
100
AcDbEntity
8
1
62
256
6
ByLayer
370
13
48
1
60
0
100
AcDbLine
10
-10.780637
20
0.238734
30
0
11
-10.811266
21
0.238734
31
0
39
0
210
0
220
0
230
1
0
LINE
5
C4
100
AcDbEntity
8
1
62
256
6
ByLayer
370
18
48
1
60
0
100
AcDbLine
10
30.897867
20
-13.675
30
0
11
27.85
21
-13.675
31
0
39
0
210
0
220
0
230
1
0
LINE
5
C5
100
AcDbEntity
8
1
62
256
6
ByLayer
370
18
48
1
60
0
100
AcDbLine
10
30.897867
20
-11.325
30
0
11
27.85
21
-11.325
31
0
39
0
210
0
220
0
230
1
0
LINE
5
C6
100
AcDbEntity
8
1
62
256
6
ByLayer
370
18
48
1
60
0
100
AcDbLine
10
31.35
20
-12.451181
30
0
11
31.35
21
-12.548819
31
0
39
0
210
0
220
0
230
1
0
LINE
5
C7
100
AcDbEntity
8
1
62
256
6
ByLayer
370
18
48
1
60
0
100
AcDbLine
10
-9.995441
20
0.298734
30
0
11
-10.600934
21
0.298734
31
0
39
0
210
0
220
0
230
1
0
LINE
5
C8
100
AcDbEntity
8
1
62
256
6
ByLayer
370
13
48
1
60
0
100
AcDbLine
10
-10.128972
20
0.238734
30
0
11
-10.617383
21
0.238734
31
0
39
0
210
0
220
0
230
1
0
LINE
5
C9
100
AcDbEntity
8
1
62
256
6
ByLayer
370
13
48
1
60
0
100
AcDbLine
10
-10.988496
20
-0.346266
30
0
11
-11.103183
21
-0.346266
31
0
39
0
210
0
220
0
230
1
0
LINE
5
CA
100
AcDbEntity
8
1
62
256
6
ByLayer
370
18
48
1
60
0
100
AcDbLine
10
-9.104858
20
0.298734
30
0
11
-9.906586
21
0.298734
31
0
39
0
210
0
220
0
230
1
0
LINE
5
CB
100
AcDbEntity
8
1
62
256
6
ByLayer
370
13
48
1
60
0
100
AcDbLine
10
-9.265271
20
0.238734
30
0
11
-9.911088
21
0.238734
31
0
39
0
210
0
220
0
230
1
0
LINE
5
CC
100
AcDbEntity
8
1
62
256
6
ByLayer
370
13
48
1
60
0
100
AcDbLine
10
-10.239176
20
-0.346266
30
0
11
-10.389279
21
-0.346266
31
0
39
0
210
0
220
0
230
1
0
LINE
5
CD
100
AcDbEntity
8
1
62
256
6
ByLayer
370
18
48
1
60
0
100
AcDbLine
10
-7.965411
20
0.298734
30
0
11
-8.987552
21
0.298734
31
0
39
0
210
0
220
0
230
1
0
LINE
5
CE
100
AcDbEntity
8
1
62
256
6
ByLayer
370
13
48
1
60
0
100
AcDbLine
10
-8.122176
20
0.238734
30
0
11
-8.978056
21
0.238734
31
0
39
0
210
0
220
0
230
1
0
LINE
5
CF
100
AcDbEntity
8
1
62
256
6
ByLayer
370
13
48
1
60
0
100
AcDbLine
10
-9.263244
20
-0.346266
30
0
11
-9.458784
21
-0.346266
31
0
39
0
210
0
220
0
230
1
0
LINE
5
D0
100
AcDbEntity
8
1
62
256
6
ByLayer
370
18
48
1
60
0
100
AcDbLine
10
-6.285012
20
0.298734
30
0
11
-7.764453
21
0.298734
31
0
39
0
210
0
220
0
230
1
0
LINE
5
D1
100
AcDbEntity
8
1
62
256
6
ByLayer
370
13
48
1
60
0
100
AcDbLine
10
-6.55505
20
0.238734
30
0
11
-7.736687
21
0.238734
31
0
39
0
210
0
220
0
230
1
0
LINE
5
D2
100
AcDbEntity
8
1
62
256
6
ByLayer
370
13
48
1
60
0
100
AcDbLine
10
-7.978272
20
-0.346266
30
0
11
-8.238631
21
-0.346266
31
0
39
0
210
0
220
0
230
1
0
LINE
5
D3
100
AcDbEntity
8
1
62
256
6
ByLayer
370
18
48
1
60
0
100
AcDbLine
10
-3.621663
20
0.298734
30
0
11
-6.055772
21
0.298734
31
0
39
0
210
0
220
0
230
1
0
LINE
5
D4
100
AcDbEntity
8
1
62
256
6
ByLayer
370
13
48
1
60
0
100
AcDbLine
10
-4.103919
20
0.238734
30
0
11
-5.998513
21
0.238734
31
0
39
0
210
0
220
0
230
1
0
LINE
5
D5
100
AcDbEntity
8
1
62
256
6
ByLayer
370
18
48
1
60
0
100
AcDbLine
10
12.499923
20
-0.55
30
0
11
6.74636
21
-0.55
31
0
39
0
210
0
220
0
230
1
0
LINE
5
D6
100
AcDbEntity
8
1
62
256
6
ByLayer
370
18
48
1
60
0
100
AcDbLine
10
12.499923
20
-0.55
30
0
11
12.499923
21
-0.65
31
0
39
0
210
0
220
0
230
1
0
LINE
5
D7
100
AcDbEntity
8
1
62
256
6
ByLayer
370
13
48
1
60
0
100
AcDbLine
10
-6.194457
20
-0.346266
30
0
11
-6.569361
21
-0.346266
31
0
39
0
210
0
220
0
230
1
0
LINE
5
D8
100
AcDbEntity
8
1
62
256
6
ByLayer
370
18
48
1
60
0
100
AcDbLine
10
6.879301
20
-13.675
30
0
11
20.520715
21
-13.675
31
0
39
0
210
0
220
0
230
1
0
LINE
5
D9
100
AcDbEntity
8
1
62
256
6
ByLayer
370
18
48
1
60
0
100
AcDbLine
10
17.019177
20
-1.15
30
0
11
18
21
-1.973008
31
0
39
0
210
0
220
0
230
1
0
LINE
5
DA
100
AcDbEntity
8
1
62
256
6
ByLayer
370
18
48
1
60
0
100
AcDbLine
10
7.310096
20
-1.15
30
0
11
17.019177
21
-1.15
31
0
39
0
210
0
220
0
230
1
0
LINE
5
DB
100
AcDbEntity
8
1
62
256
6
ByLayer
370
18
48
1
60
0
100
AcDbLine
10
19.6
20
-11.325
30
0
11
20.520715
21
-11.325
31
0
39
0
210
0
220
0
230
1
0
LINE
5
DC
100
AcDbEntity
8
1
62
256
6
ByLayer
370
18
48
1
60
0
100
AcDbLine
10
18
20
-1.973008
30
0
11
18
21
-9.725
31
0
39
0
210
0
220
0
230
1
0
LINE
5
DD
100
AcDbEntity
8
1
62
256
6
ByLayer
370
18
48
1
60
0
100
AcDbLine
10
27.85
20
-13.675
30
0
11
20.520715
21
-13.675
31
0
39
0
210
0
220
0
230
1
0
LINE
5
DE
100
AcDbEntity
8
1
62
256
6
ByLayer
370
18
48
1
60
0
100
AcDbLine
10
27.85
20
-11.325
30
0
11
20.520715
21
-11.325
31
0
39
0
210
0
220
0
230
1
0
LINE
5
DF
100
AcDbEntity
8
1
62
256
6
ByLayer
370
18
48
1
60
0
100
AcDbLine
10
20.520715
20
-13.675
30
0
11
20.520715
21
-11.325
31
0
39
0
210
0
220
0
230
1
0
LINE
5
E0
100
AcDbEntity
8
1
62
256
6
ByLayer
370
18
48
1
60
0
100
AcDbLine
10
27.85
20
-11.325
30
0
11
27.85
21
-13.675
31
0
39
0
210
0
220
0
230
1
0
LINE
5
E1
100
AcDbEntity
8
1
62
256
6
ByLayer
370
18
48
1
60
0
100
AcDbLine
10
6.879301
20
-13.675
30
0
11
5.99436
21
-13.675
31
0
39
0
210
0
220
0
230
1
0
LINE
5
E2
100
AcDbEntity
8
1
62
256
6
ByLayer
370
18
48
1
60
0
100
AcDbLine
10
5.883586
20
-0.55
30
0
11
6.74636
21
-0.55
31
0
39
0
210
0
220
0
230
1
0
LINE
5
E3
100
AcDbEntity
8
1
62
256
6
ByLayer
370
18
48
1
60
0
100
AcDbLine
10
6.74636
20
-0.65
30
0
11
6.74636
21
-0.55
31
0
39
0
210
0
220
0
230
1
0
LINE
5
E4
100
AcDbEntity
8
1
62
256
6
ByLayer
370
18
48
1
60
0
100
AcDbLine
10
6.879301
20
-1.090117
30
0
11
6.879301
21
-13.675
31
0
39
0
210
0
220
0
230
1
0
LINE
5
E5
100
AcDbEntity
8
1
62
256
6
ByLayer
370
13
48
1
60
0
100
AcDbLine
10
6.74636
20
-0.65
30
0
11
12.499923
21
-0.65
31
0
39
0
210
0
220
0
230
1
0
LINE
5
E6
100
AcDbEntity
8
1
62
256
6
ByLayer
370
18
48
1
60
0
100
AcDbLine
10
3.151668
20
0.298734
30
0
11
-3.151668
21
0.298734
31
0
39
0
210
0
220
0
230
1
0
LINE
5
E7
100
AcDbEntity
8
1
62
256
6
ByLayer
370
13
48
1
60
0
100
AcDbLine
10
2.997164
20
0.238734
30
0
11
-2.997164
21
0.238734
31
0
39
0
210
0
220
0
230
1
0
LINE
5
E8
100
AcDbEntity
8
1
62
256
6
ByLayer
370
13
48
1
60
0
100
AcDbLine
10
3.913178
20
-0.346266
30
0
11
3.156712
21
-0.346266
31
0
39
0
210
0
220
0
230
1
0
LINE
5
E9
100
AcDbEntity
8
1
62
256
6
ByLayer
370
13
48
1
60
0
100
AcDbLine
10
-3.156712
20
-0.346266
30
0
11
-3.913178
21
-0.346266
31
0
39
0
210
0
220
0
230
1
0
LINE
5
EA
100
AcDbEntity
8
1
62
256
6
ByLayer
370
18
48
1
60
0
100
AcDbLine
10
-11.5
20
-0.65
30
0
11
-11.5
21
-0.45
31
0
39
0
210
0
220
0
230
1
0
LINE
5
EB
100
AcDbEntity
8
1
62
256
6
ByLayer
370
18
48
1
60
0
100
AcDbLine
10
5.883593
20
-0.55
30
0
11
5.883593
21
-0.65
31
0
39
0
210
0
220
0
230
1
0
LINE
5
EC
100
AcDbEntity
8
1
62
256
6
ByLayer
370
18
48
1
60
0
100
AcDbLine
10
5.883593
20
-0.55
30
0
11
4.747951
21
-0.55
31
0
39
0
210
0
220
0
230
1
0
LINE
5
ED
100
AcDbEntity
8
1
62
256
6
ByLayer
370
18
48
1
60
0
100
AcDbLine
10
4.747951
20
-0.55
30
0
11
4.747951
21
-0.45
31
0
39
0
210
0
220
0
230
1
0
LINE
5
EE
100
AcDbEntity
8
1
62
256
6
ByLayer
370
13
48
1
60
0
100
AcDbLine
10
-11.5
20
-0.65
30
0
11
5.883593
21
-0.65
31
0
39
0
210
0
220
0
230
1
0
LINE
5
EF
100
AcDbEntity
8
1
62
256
6
ByLayer
370
18
48
1
60
0
100
AcDbLine
10
-11.5
20
-0.867945
30
0
11
0
21
-0.867945
31
0
39
0
210
0
220
0
230
1
0
LINE
5
F0
100
AcDbEntity
8
1
62
256
6
ByLayer
370
18
48
1
60
0
100
AcDbLine
10
-11.5
20
-0.867945
30
0
11
-11.5
21
-6.1
31
0
39
0
210
0
220
0
230
1
0
LINE
5
F1
100
AcDbEntity
8
1
62
256
6
ByLayer
370
18
48
1
60
0
100
AcDbLine
10
-11.5
20
-6.1
30
0
11
-3.925
21
-13.675
31
0
39
0
210
0
220
0
230
1
0
LINE
5
F2
100
AcDbEntity
8
1
62
256
6
ByLayer
370
18
48
1
60
0
100
AcDbLine
10
-3.925
20
-13.675
30
0
11
0
21
-13.675
31
0
39
0
210
0
220
0
230
1
0
LINE
5
F3
100
AcDbEntity
8
1
62
256
6
ByLayer
370
18
48
1
60
0
100
AcDbLine
10
4.6622
20
-13.675
30
0
11
5.994388
21
-13.675
31
0
39
0
210
0
220
0
230
1
0
LINE
5
F4
100
AcDbEntity
8
1
62
256
6
ByLayer
370
18
48
1
60
0
100
AcDbLine
10
5.994388
20
-13.675
30
0
11
5.994388
21
-1.063543
31
0
39
0
210
0
220
0
230
1
0
LINE
5
F5
100
AcDbEntity
8
1
62
256
6
ByLayer
370
18
48
1
60
0
100
AcDbLine
10
4.6622
20
-1.15
30
0
11
5.375768
21
-1.15
31
0
39
0
210
0
220
0
230
1
0
LINE
5
F6
100
AcDbEntity
8
1
62
256
6
ByLayer
370
13
48
1
60
0
100
AcDbLine
10
0
20
-0.867945
30
0
11
0
21
-13.675
31
0
39
0
210
0
220
0
230
1
0
LINE
5
F7
100
AcDbEntity
8
1
62
256
6
ByLayer
370
18
48
1
60
0
100
AcDbLine
10
0
20
-13.675
30
0
11
4.6622
21
-13.675
31
0
39
0
210
0
220
0
230
1
0
LINE
5
F8
100
AcDbEntity
8
1
62
256
6
ByLayer
370
18
48
1
60
0
100
AcDbLine
10
4.6622
20
-1.15
30
0
11
4.6622
21
-13.675
31
0
39
0
210
0
220
0
230
1
0
LINE
5
F9
100
AcDbEntity
8
1
62
256
6
ByLayer
370
18
48
1
60
0
100
AcDbLine
10
3.390796
20
-1.15
30
0
11
4.6622
21
-1.15
31
0
39
0
210
0
220
0
230
1
0
LINE
5
FA
100
AcDbEntity
8
1
62
256
6
ByLayer
370
18
48
1
60
0
100
AcDbLine
10
4.747951
20
-0.45
30
0
11
-11.5
21
-0.45
31
0
39
0
210
0
220
0
230
1
0
LINE
5
FB
100
AcDbEntity
8
1
62
256
6
ByLayer
370
18
48
1
60
0
100
AcDbLine
10
3.151668
20
0.298734
30
0
11
3.621668
21
0.298734
31
0
39
0
210
0
220
0
230
1
0
LINE
5
FC
100
AcDbEntity
8
1
62
256
6
ByLayer
370
18
48
1
60
0
100
AcDbLine
10
-3.621668
20
0.298734
30
0
11
-3.151668
21
0.298734
31
0
39
0
210
0
220
0
230
1
0
LINE
5
FD
100
AcDbEntity
8
1
62
256
6
ByLayer
370
18
48
1
60
0
100
AcDbLine
10
-6.285071
20
0.298734
30
0
11
-6.055772
21
0.298734
31
0
39
0
210
0
220
0
230
1
0
LINE
5
FE
100
AcDbEntity
8
1
62
256
6
ByLayer
370
18
48
1
60
0
100
AcDbLine
10
-7.922295
20
0.298734
30
0
11
-7.764453
21
0.298734
31
0
39
0
210
0
220
0
230
1
0
LINE
5
FF
100
AcDbEntity
8
1
62
256
6
ByLayer
370
18
48
1
60
0
100
AcDbLine
10
-9.104856
20
0.298734
30
0
11
-8.987552
21
0.298734
31
0
39
0
210
0
220
0
230
1
0
LINE
5
100
100
AcDbEntity
8
1
62
256
6
ByLayer
370
18
48
1
60
0
100
AcDbLine
10
-9.995451
20
0.298734
30
0
11
-9.906586
21
0.298734
31
0
39
0
210
0
220
0
230
1
0
LINE
5
101
100
AcDbEntity
8
1
62
256
6
ByLayer
370
18
48
1
60
0
100
AcDbLine
10
-10.667459
20
0.298734
30
0
11
-10.600934
21
0.298734
31
0
39
0
210
0
220
0
230
1
0
MTEXT
5
177
100
AcDbEntity
8
SK6
62
256
6
ByLayer
370
18
48
1
60
0
100
AcDbMText
10
-19.2645
20
-58.724579
30
0
210
0
220
0
230
1
1
\W0.7593;C2R-SL25-RG18GB
40
3.5
41
0
44
1.084337
50
0
71
7
72
5
7
iso_b_vert
0
DIMENSION
5
17C
100
AcDbEntity
8
2
62
256
6
ByLayer
370
18
48
1
60
0
100
AcDbDimension
2
_U0
10
37.6
20
16.25
30
0
11
18.8
21
16.25
31
0
70
32
71
1
72
1
41
1
210
0
220
0
230
1
3
Standard
100
AcDbAlignedDimension
13
0
23
0
33
0
14
37.6
24
-14
34
0
50
0
100
AcDbRotatedDimension
1001
ACAD
1000
DSTYLE
1002
{
1070
   371
1070
    13
1070
   372
1070
    13
1070
   170
1070
     0
1070
   144
1040
1.0
1070
   277
1070
     2
1070
   284
1070
     8
1070
   278
1070
    46
1070
   146
1040
1.0
1070
   345
1005
16
1070
   347
1005
16
1070
   346
1005
16
1070
   344
1005
0
1070
   343
1005
0
1070
   172
1070
     1
1070
    76
1070
     0
1070
    75
1070
     0
1070
   282
1070
     0
1070
   281
1070
     0
1070
    71
1070
     0
1070
    74
1070
     0
1070
   279
1070
     0
1070
   173
1070
     1
1070
   340
1005
178
1070
   271
1070
     2
1070
   272
1070
     2
1070
    77
1070
     1
1070
    73
1070
     1
1070
   171
1070
     3
1070
   274
1070
     4
1070
   177
1070
     2
1070
   176
1070
     2
1070
   178
1070
     2
1070
    78
1070
     8
1070
    48
1040
-0.1
1070
    41
1040
3.5
1070
   147
1040
1.75
1070
    42
1040
1.5875
1070
    44
1040
2.0
1070
   140
1040
3.5
1002
}
1001
ACAD_DSTYLE_DIM_LINETYPE
1070
   380
1005
16
1001
ACAD_DSTYLE_DIM_EXT1_LINETYPE
1070
   381
1005
16
1001
ACAD_DSTYLE_DIM_EXT2_LINETYPE
1070
   382
1005
16
0
DIMENSION
5
196
100
AcDbEntity
8
2
62
256
6
ByLayer
370
18
48
1
60
0
100
AcDbDimension
2
_U1
10
37.6
20
8.25
30
0
11
28.6
21
8.25
31
0
70
32
71
1
72
1
41
1
210
0
220
0
230
1
3
Standard
100
AcDbAlignedDimension
13
19.6
23
-11.325
33
0
14
37.6
24
-14
34
0
50
0
100
AcDbRotatedDimension
1001
ACAD
1000
DSTYLE
1002
{
1070
   371
1070
    13
1070
   372
1070
    13
1070
   170
1070
     0
1070
   144
1040
1.0
1070
   277
1070
     2
1070
   284
1070
     8
1070
   278
1070
    46
1070
   146
1040
1.0
1070
   345
1005
16
1070
   347
1005
16
1070
   346
1005
16
1070
   344
1005
0
1070
   343
1005
0
1070
   172
1070
     1
1070
    76
1070
     0
1070
    75
1070
     0
1070
   282
1070
     0
1070
   281
1070
     0
1070
    71
1070
     0
1070
    74
1070
     0
1070
   279
1070
     0
1070
   173
1070
     1
1070
   340
1005
178
1070
   271
1070
     2
1070
   272
1070
     2
1070
    77
1070
     1
1070
    73
1070
     1
1070
   171
1070
     3
1070
   274
1070
     4
1070
   177
1070
     2
1070
   176
1070
     2
1070
   178
1070
     2
1070
    78
1070
     8
1070
    48
1040
-0.1
1070
    41
1040
3.5
1070
   147
1040
1.75
1070
    42
1040
1.5875
1070
    44
1040
2.0
1070
   140
1040
3.5
1002
}
1001
ACAD_DSTYLE_DIM_LINETYPE
1070
   380
1005
16
1001
ACAD_DSTYLE_DIM_EXT1_LINETYPE
1070
   381
1005
16
1001
ACAD_DSTYLE_DIM_EXT2_LINETYPE
1070
   382
1005
16
0
DIMENSION
5
1AE
100
AcDbEntity
8
2
62
256
6
ByLayer
370
18
48
1
60
0
100
AcDbDimension
2
_U2
10
62.35
20
0
30
0
11
62.35
21
-7
31
0
70
32
71
1
72
1
41
1
210
0
220
0
230
1
3
Standard
100
AcDbAlignedDimension
13
37.6
23
-14
33
0
14
0
24
0
34
0
50
90
100
AcDbRotatedDimension
1001
ACAD
1000
DSTYLE
1002
{
1070
   371
1070
    13
1070
   372
1070
    13
1070
   170
1070
     0
1070
   144
1040
1.0
1070
   277
1070
     2
1070
   284
1070
     8
1070
   278
1070
    46
1070
   146
1040
1.0
1070
   345
1005
16
1070
   347
1005
16
1070
   346
1005
16
1070
   344
1005
0
1070
   343
1005
0
1070
   172
1070
     1
1070
    76
1070
     0
1070
    75
1070
     0
1070
   282
1070
     0
1070
   281
1070
     0
1070
    71
1070
     0
1070
    74
1070
     0
1070
   279
1070
     0
1070
   173
1070
     1
1070
   340
1005
178
1070
   271
1070
     2
1070
   272
1070
     2
1070
    77
1070
     1
1070
    73
1070
     0
1070
   171
1070
     3
1070
   274
1070
     4
1070
   177
1070
     2
1070
   176
1070
     2
1070
   178
1070
     2
1070
    78
1070
     8
1070
    48
1040
-0.1
1070
    41
1040
3.5
1070
   147
1040
1.75
1070
    42
1040
1.5875
1070
    44
1040
2.0
1070
   140
1040
3.5
1002
}
1001
ACAD_DSTYLE_DIM_LINETYPE
1070
   380
1005
16
1001
ACAD_DSTYLE_DIM_EXT1_LINETYPE
1070
   381
1005
16
1001
ACAD_DSTYLE_DIM_EXT2_LINETYPE
1070
   382
1005
16
0
DIMENSION
5
1C7
100
AcDbEntity
8
2
62
256
6
ByLayer
370
18
48
1
60
0
100
AcDbDimension
2
_U3
10
49.35
20
-11
30
0
11
49.35
21
-12.5
31
0
70
32
71
1
72
1
41
1
210
0
220
0
230
1
3
Standard
100
AcDbAlignedDimension
13
37.6
23
-14
33
0
14
37.6
24
-11
34
0
50
90
100
AcDbRotatedDimension
1001
ACAD
1000
DSTYLE
1002
{
1070
   371
1070
    13
1070
   372
1070
    13
1070
   170
1070
     0
1070
   144
1040
1.0
1070
   277
1070
     2
1070
   284
1070
     8
1070
   278
1070
    46
1070
   146
1040
1.0
1070
   345
1005
16
1070
   347
1005
16
1070
   346
1005
16
1070
   344
1005
0
1070
   343
1005
0
1070
   172
1070
     1
1070
    76
1070
     0
1070
    75
1070
     0
1070
   282
1070
     0
1070
   281
1070
     0
1070
    71
1070
     0
1070
    74
1070
     0
1070
   279
1070
     0
1070
   173
1070
     1
1070
   340
1005
178
1070
   271
1070
     2
1070
   272
1070
     2
1070
    77
1070
     1
1070
    73
1070
     0
1070
   171
1070
     3
1070
   274
1070
     4
1070
   177
1070
     2
1070
   176
1070
     2
1070
   178
1070
     2
1070
    78
1070
     8
1070
    48
1040
-0.1
1070
    41
1040
3.5
1070
   147
1040
1.75
1070
    42
1040
1.5875
1070
    44
1040
2.0
1070
   140
1040
3.5
1002
}
1001
ACAD_DSTYLE_DIM_LINETYPE
1070
   380
1005
16
1001
ACAD_DSTYLE_DIM_EXT1_LINETYPE
1070
   381
1005
16
1001
ACAD_DSTYLE_DIM_EXT2_LINETYPE
1070
   382
1005
16
0
ENDSEC
0
SECTION
2
OBJECTS
0
DICTIONARY
5
24d
330
0
100
AcDbDictionary
280
0
281
1
3
ACAD_GROUP
350
24e
3
ACAD_MLINESTYLE
350
24f
0
DICTIONARY
5
24e
330
0
100
AcDbDictionary
280
0
281
1
0
DICTIONARY
5
24f
330
0
100
AcDbDictionary
280
0
281
1
3
Standard
350
18
0
MLINESTYLE
5
18
330
24f
100
AcDbMlineStyle
2
Standard
70
0
3

62
256
51
90
52
90
71
2
49
-0.5
62
256
6
ByLayer
49
0.5
62
256
6
ByLayer
0
RASTERVARIABLES
5
23e
330

100
AcDbRasterVariables
90
0
70
1
71
1
72
1
0
ENDSEC
0
EOF
