0
SECTION
2
HEADER
9
$ACADVER
1
AC1015
9
$DWGCODEPAGE
3
ANSI_1252
9
$HANDSEED
5
268
9
$ANGBASE
50
0
9
$ANGDIR
70
0
9
$ATTMODE
70
1
9
$AUNITS
70
0
9
$AUPREC
70
0
9
$CECOLOR
62
256
9
$CELTSCALE
40
1
9
$CELTYPE
6
ByLayer
9
$CELWEIGHT
370
18
9
$CLAYER
8
0
9
$CMLJUST
70
0
9
$CMLSCALE
40
1
9
$CMLSTYLE
2
Standard
9
$DIMSTYLE
2
Standard
9
$TEXTSIZE
40
0.2
9
$TEXTSTYLE
7
Standard
9
$LUNITS
70
2
9
$LUPREC
70
4
9
$EXTNAMES
290
1
9
$INSUNITS
70
4
9
$LTSCALE
40
1
9
$LWDISPLAY
290
1
9
$PDMODE
70
0
9
$PDSIZE
40
0
9
$PLINEGEN
70
0
0
ENDSEC
0
SECTION
2
CLASSES
0
CLASS
1
RASTERVARIABLES
2
AcDbRasterVariables
3
ISM
90
0
280
0
281
0
0
ENDSEC
0
SECTION
2
TABLES
0
TABLE
2
VPORT
5
25e
100
AcDbSymbolTable
0
VPORT
5
1
100
AcDbSymbolTableRecord
100
AcDbViewportTableRecord
2
*Active
70
0
10
0
20
0
11
1
21
1
12
-1
22
1
13
0
23
0
14
0.5
24
0.5
15
10
25
10
16
0
26
0
36
1
17
0
27
0
37
0
0
ENDTAB
0
TABLE
2
LTYPE
5
25f
100
AcDbSymbolTable
0
LTYPE
5
14
100
AcDbSymbolTableRecord
100
AcDbLinetypeTableRecord
70
0
2
ByBlock
3

72
65
73
0
40
0
0
LTYPE
5
15
100
AcDbSymbolTableRecord
100
AcDbLinetypeTableRecord
70
0
2
ByLayer
3

72
65
73
0
40
0
0
LTYPE
5
16
100
AcDbSymbolTableRecord
100
AcDbLinetypeTableRecord
70
0
2
Continuous
3
Solid line
72
65
73
0
40
0
0
LTYPE
5
6E
100
AcDbSymbolTableRecord
100
AcDbLinetypeTableRecord
70
0
2
CENTER
3
____ _ ____ _ ____ _ ____
72
65
73
4
40
47.5
49
22
74
0
49
-8.5
74
0
49
8.5
74
0
49
-8.5
74
0
0
LTYPE
5
6F
100
AcDbSymbolTableRecord
100
AcDbLinetypeTableRecord
70
0
2
DASHED
3
__ __ __ __ __ __ __ __ __
72
65
73
2
40
25.72
49
12.86
74
0
49
-12.86
74
0
0
ENDTAB
0
TABLE
2
LAYER
5
260
100
AcDbSymbolTable
0
LAYER
5
10
100
AcDbSymbolTableRecord
100
AcDbLayerTableRecord
2
0
70
0
62
7
6
Continuous
290
1
370
-3
390
0
0
LAYER
5
71
100
AcDbSymbolTableRecord
100
AcDbLayerTableRecord
2
81
70
0
62
-3
6
Continuous
290
1
370
-3
390
0
0
LAYER
5
73
100
AcDbSymbolTableRecord
100
AcDbLayerTableRecord
2
80
70
0
62
-6
6
Continuous
290
1
370
-3
390
0
0
LAYER
5
75
100
AcDbSymbolTableRecord
100
AcDbLayerTableRecord
2
1
70
0
62
4
6
Continuous
290
1
370
-3
390
0
0
LAYER
5
18C
100
AcDbSymbolTableRecord
100
AcDbLayerTableRecord
2
Defpoints
70
0
62
7
6
Continuous
290
0
370
-3
390
0
0
LAYER
5
199
100
AcDbSymbolTableRecord
100
AcDbLayerTableRecord
2
2
70
0
62
7
6
Continuous
290
1
370
-3
390
0
0
LAYER
5
24d
100
AcDbSymbolTableRecord
100
AcDbLayerTableRecord
2
SK6
70
0
62
5
6
Continuous
290
1
370
-3
390
0
0
ENDTAB
0
TABLE
2
STYLE
5
261
100
AcDbSymbolTable
0
STYLE
5
11
100
AcDbSymbolTableRecord
100
AcDbTextStyleTableRecord
2
Standard
3
txt
70
0
71
0
40
0
41
1
42
0
50
0
0
STYLE
5
185
100
AcDbSymbolTableRecord
100
AcDbTextStyleTableRecord
2
iso_b_vert
3
simplex.shx
70
0
71
0
40
0
41
1
42
0
50
0
0
STYLE
5
186
100
AcDbSymbolTableRecord
100
AcDbTextStyleTableRecord
2
DWGDirectTextStyle
3
simplex
70
0
71
0
40
0
41
1
42
0
50
0
0
ENDTAB
0
TABLE
2
DIMSTYLE
5
262
100
AcDbSymbolTable
100
AcDbDimStyleTable
0
DIMSTYLE
105
27
100
AcDbSymbolTableRecord
100
AcDbDimStyleTableRecord
2
Standard
70
0
3
<>
41
0.18
42
0.0625
44
0.18
140
0.18
147
0.09
73
0
74
0
77
1
271
2
275
0
278
52
280
0
340
11
0
ENDTAB
0
TABLE
2
VIEW
5
263
100
AcDbSymbolTable
0
ENDTAB
0
TABLE
2
UCS
5
264
100
AcDbSymbolTable
0
ENDTAB
0
TABLE
2
APPID
5
265
100
AcDbSymbolTable
0
APPID
5
12
100
AcDbSymbolTableRecord
100
AcDbRegAppTableRecord
2
ACAD
70
0
0
APPID
5
188
100
AcDbSymbolTableRecord
100
AcDbRegAppTableRecord
2
ACAD_DSTYLE_DIMBREAK
70
0
0
APPID
5
20C
100
AcDbSymbolTableRecord
100
AcDbRegAppTableRecord
2
ACAD_DSTYLE_DIM_LINETYPE
70
0
0
APPID
5
20D
100
AcDbSymbolTableRecord
100
AcDbRegAppTableRecord
2
ACAD_DSTYLE_DIM_EXT1_LINETYPE
70
0
0
APPID
5
20E
100
AcDbSymbolTableRecord
100
AcDbRegAppTableRecord
2
ACAD_DSTYLE_DIM_EXT2_LINETYPE
70
0
0
APPID
5
249
100
AcDbSymbolTableRecord
100
AcDbRegAppTableRecord
2
ACAD_MLEADERVER
70
0
0
ENDTAB
0
TABLE
2
BLOCK_RECORD
5
266
100
AcDbSymbolTable
0
BLOCK_RECORD
5
1F
100
AcDbSymbolTableRecord
100
AcDbBlockTableRecord
2
*Model_Space
340
0
70
0
0
BLOCK_RECORD
5
1B
100
AcDbSymbolTableRecord
100
AcDbBlockTableRecord
2
*Paper_Space
340
0
70
0
0
BLOCK_RECORD
5
23
100
AcDbSymbolTableRecord
100
AcDbBlockTableRecord
2
*Paper_Space0
340
0
70
0
0
BLOCK_RECORD
5
18D
100
AcDbSymbolTableRecord
100
AcDbBlockTableRecord
2
*D1
340
0
70
0
0
BLOCK_RECORD
5
19A
100
AcDbSymbolTableRecord
100
AcDbBlockTableRecord
2
_U0
340
0
70
0
0
BLOCK_RECORD
5
1A6
100
AcDbSymbolTableRecord
100
AcDbBlockTableRecord
2
*D3
340
0
70
0
0
BLOCK_RECORD
5
1B3
100
AcDbSymbolTableRecord
100
AcDbBlockTableRecord
2
_U1
340
0
70
0
0
BLOCK_RECORD
5
1BF
100
AcDbSymbolTableRecord
100
AcDbBlockTableRecord
2
*D5
340
0
70
0
0
BLOCK_RECORD
5
1CC
100
AcDbSymbolTableRecord
100
AcDbBlockTableRecord
2
_U2
340
0
70
0
0
BLOCK_RECORD
5
1D8
100
AcDbSymbolTableRecord
100
AcDbBlockTableRecord
2
*D7
340
0
70
0
0
BLOCK_RECORD
5
1E5
100
AcDbSymbolTableRecord
100
AcDbBlockTableRecord
2
_U3
340
0
70
0
0
ENDTAB
0
ENDSEC
0
SECTION
2
BLOCKS
0
BLOCK
5
20
100
AcDbEntity
8
0
100
AcDbBlockBegin
2
*Model_Space
70
0
10
0
20
0
30
0
3
*Model_Space
0
ENDBLK
5
21
100
AcDbEntity
8
0
100
AcDbBlockEnd
0
BLOCK
5
1C
100
AcDbEntity
8
0
100
AcDbBlockBegin
2
*Paper_Space
70
0
10
0
20
0
30
0
3
*Paper_Space
0
ENDBLK
5
1D
100
AcDbEntity
8
0
100
AcDbBlockEnd
0
BLOCK
5
24
100
AcDbEntity
8
0
100
AcDbBlockBegin
2
*Paper_Space0
70
0
10
0
20
0
30
0
3
*Paper_Space0
0
ENDBLK
5
25
100
AcDbEntity
8
0
100
AcDbBlockEnd
0
BLOCK
5
18E
100
AcDbEntity
8
0
100
AcDbBlockBegin
2
*D1
70
1
10
0
20
0
30
0
3
*D1
0
LINE
5
190
100
AcDbEntity
8
0
62
256
6
ByLayer
370
-2
48
1
60
0
100
AcDbLine
10
0
20
1.5875
30
0
11
0
21
18.25
31
0
39
0
210
0
220
0
230
1
0
LINE
5
191
100
AcDbEntity
8
0
62
256
6
ByLayer
370
-2
48
1
60
0
100
AcDbLine
10
37.35
20
-12.4125
30
0
11
37.35
21
18.25
31
0
39
0
210
0
220
0
230
1
0
LINE
5
192
100
AcDbEntity
8
0
62
256
6
ByLayer
370
-2
48
1
60
0
100
AcDbLine
10
3.5
20
16.25
30
0
11
33.85
21
16.25
31
0
39
0
210
0
220
0
230
1
0
SOLID
5
193
100
AcDbEntity
8
0
62
256
6
ByLayer
370
-1
48
1
60
0
100
AcDbTrace
10
3.5
20
16.833333
30
0
11
3.5
21
15.666667
31
0
12
0
22
16.25
32
0
13
0
23
16.25
33
0
39
0
210
0
220
0
230
1
0
SOLID
5
194
100
AcDbEntity
8
0
62
256
6
ByLayer
370
-1
48
1
60
0
100
AcDbTrace
10
33.85
20
15.666667
30
0
11
33.85
21
16.833333
31
0
12
37.35
22
16.25
32
0
13
37.35
23
16.25
33
0
39
0
210
0
220
0
230
1
0
MTEXT
5
195
100
AcDbEntity
8
0
62
256
6
ByLayer
370
18
48
1
60
0
100
AcDbMText
10
18.675
20
23.25
30
0
210
0
220
0
230
1
1
\A1;37.35
40
3.5
41
0
44
1
50
0
71
5
72
5
7
iso_b_vert
0
POINT
5
196
100
AcDbEntity
8
Defpoints
62
0
6
ByLayer
370
-1
48
1
60
0
100
AcDbPoint
10
0
20
0
30
0
39
0
210
0
220
0
230
1
50
360
0
POINT
5
197
100
AcDbEntity
8
Defpoints
62
0
6
ByLayer
370
-1
48
1
60
0
100
AcDbPoint
10
37.35
20
-14
30
0
39
0
210
0
220
0
230
1
50
360
0
POINT
5
198
100
AcDbEntity
8
Defpoints
62
0
6
ByLayer
370
-1
48
1
60
0
100
AcDbPoint
10
37.35
20
16.25
30
0
39
0
210
0
220
0
230
1
50
360
0
ENDBLK
5
18F
100
AcDbEntity
8
0
100
AcDbBlockEnd
0
BLOCK
5
1A1
100
AcDbEntity
8
0
100
AcDbBlockBegin
2
_U0
70
0
10
0
20
0
30
0
3
_U0
0
MTEXT
5
19B
100
AcDbEntity
8
2
62
256
6
ByLayer
370
18
48
1
60
0
100
AcDbMText
10
13.445568
20
17.282634
30
0
210
0
220
0
230
1
1
\W0.7468;37.35
40
3.5
41
0
44
1.084337
50
0
71
7
72
5
7
iso_b_vert
0
LINE
5
19C
100
AcDbEntity
8
2
62
256
6
ByLayer
370
13
48
1
60
0
100
AcDbLine
10
0
20
1.5875
30
0
11
0
21
18.25
31
0
39
0
210
0
220
0
230
1
0
LINE
5
19D
100
AcDbEntity
8
2
62
256
6
ByLayer
370
13
48
1
60
0
100
AcDbLine
10
37.35
20
-12.4125
30
0
11
37.35
21
18.25
31
0
39
0
210
0
220
0
230
1
0
LINE
5
19E
100
AcDbEntity
8
2
62
256
6
ByLayer
370
13
48
1
60
0
100
AcDbLine
10
0
20
16.25
30
0
11
37.35
21
16.25
31
0
39
0
210
0
220
0
230
1
0
SOLID
5
19F
100
AcDbEntity
8
2
62
256
6
ByLayer
370
18
48
1
60
0
100
AcDbTrace
10
0
20
16.25
30
0
11
3.499998
21
16.710784
31
0
12
3.500002
22
15.789216
32
0
13
3.500002
23
15.789216
33
0
39
0
210
0
220
0
230
1
0
SOLID
5
1A0
100
AcDbEntity
8
2
62
256
6
ByLayer
370
18
48
1
60
0
100
AcDbTrace
10
37.35
20
16.25
30
0
11
33.850002
21
15.789216
31
0
12
33.849998
22
16.710784
32
0
13
33.849998
23
16.710784
33
0
39
0
210
0
220
0
230
1
0
ENDBLK
5
1A2
100
AcDbEntity
8
0
100
AcDbBlockEnd
0
BLOCK
5
1A7
100
AcDbEntity
8
0
100
AcDbBlockBegin
2
*D3
70
1
10
0
20
0
30
0
3
*D3
0
LINE
5
1A9
100
AcDbEntity
8
0
62
256
6
ByLayer
370
-2
48
1
60
0
100
AcDbLine
10
22.35
20
-10.6625
30
0
11
22.35
21
10.25
31
0
39
0
210
0
220
0
230
1
0
LINE
5
1AA
100
AcDbEntity
8
0
62
256
6
ByLayer
370
-2
48
1
60
0
100
AcDbLine
10
37.35
20
-12.4125
30
0
11
37.35
21
10.25
31
0
39
0
210
0
220
0
230
1
0
LINE
5
1AB
100
AcDbEntity
8
0
62
256
6
ByLayer
370
-2
48
1
60
0
100
AcDbLine
10
18.85
20
8.25
30
0
11
15.35
21
8.25
31
0
39
0
210
0
220
0
230
1
0
LINE
5
1AC
100
AcDbEntity
8
0
62
256
6
ByLayer
370
-2
48
1
60
0
100
AcDbLine
10
40.85
20
8.25
30
0
11
44.35
21
8.25
31
0
39
0
210
0
220
0
230
1
0
SOLID
5
1AD
100
AcDbEntity
8
0
62
256
6
ByLayer
370
-1
48
1
60
0
100
AcDbTrace
10
18.85
20
7.666667
30
0
11
18.85
21
8.833333
31
0
12
22.35
22
8.25
32
0
13
22.35
23
8.25
33
0
39
0
210
0
220
0
230
1
0
SOLID
5
1AE
100
AcDbEntity
8
0
62
256
6
ByLayer
370
-1
48
1
60
0
100
AcDbTrace
10
40.85
20
8.833333
30
0
11
40.85
21
7.666667
31
0
12
37.35
22
8.25
32
0
13
37.35
23
8.25
33
0
39
0
210
0
220
0
230
1
0
MTEXT
5
1AF
100
AcDbEntity
8
0
62
256
6
ByLayer
370
18
48
1
60
0
100
AcDbMText
10
29.85
20
15.25
30
0
210
0
220
0
230
1
1
\A1;15
40
3.5
41
0
44
1
50
0
71
5
72
5
7
iso_b_vert
0
POINT
5
1B0
100
AcDbEntity
8
Defpoints
62
0
6
ByLayer
370
-1
48
1
60
0
100
AcDbPoint
10
22.35
20
-12.25
30
0
39
0
210
0
220
0
230
1
50
360
0
POINT
5
1B1
100
AcDbEntity
8
Defpoints
62
0
6
ByLayer
370
-1
48
1
60
0
100
AcDbPoint
10
37.35
20
-14
30
0
39
0
210
0
220
0
230
1
50
360
0
POINT
5
1B2
100
AcDbEntity
8
Defpoints
62
0
6
ByLayer
370
-1
48
1
60
0
100
AcDbPoint
10
37.35
20
8.25
30
0
39
0
210
0
220
0
230
1
50
360
0
ENDBLK
5
1A8
100
AcDbEntity
8
0
100
AcDbBlockEnd
0
BLOCK
5
1BA
100
AcDbEntity
8
0
100
AcDbBlockBegin
2
_U1
70
0
10
0
20
0
30
0
3
_U1
0
MTEXT
5
1B4
100
AcDbEntity
8
2
62
256
6
ByLayer
370
18
48
1
60
0
100
AcDbMText
10
28.382467
20
9.282634
30
0
210
0
220
0
230
1
1
\W0.5321;15
40
3.5
41
0
44
1.084337
50
0
71
7
72
5
7
iso_b_vert
0
LINE
5
1B5
100
AcDbEntity
8
2
62
256
6
ByLayer
370
13
48
1
60
0
100
AcDbLine
10
22.35
20
-10.6625
30
0
11
22.35
21
10.25
31
0
39
0
210
0
220
0
230
1
0
LINE
5
1B6
100
AcDbEntity
8
2
62
256
6
ByLayer
370
13
48
1
60
0
100
AcDbLine
10
37.35
20
-12.4125
30
0
11
37.35
21
10.25
31
0
39
0
210
0
220
0
230
1
0
LINE
5
1B7
100
AcDbEntity
8
2
62
256
6
ByLayer
370
13
48
1
60
0
100
AcDbLine
10
22.35
20
8.25
30
0
11
37.35
21
8.25
31
0
39
0
210
0
220
0
230
1
0
SOLID
5
1B8
100
AcDbEntity
8
2
62
256
6
ByLayer
370
18
48
1
60
0
100
AcDbTrace
10
22.35
20
8.25
30
0
11
25.849998
21
8.710784
31
0
12
25.850002
22
7.789216
32
0
13
25.850002
23
7.789216
33
0
39
0
210
0
220
0
230
1
0
SOLID
5
1B9
100
AcDbEntity
8
2
62
256
6
ByLayer
370
18
48
1
60
0
100
AcDbTrace
10
37.35
20
8.25
30
0
11
33.850002
21
7.789216
31
0
12
33.849998
22
8.710784
32
0
13
33.849998
23
8.710784
33
0
39
0
210
0
220
0
230
1
0
ENDBLK
5
1BB
100
AcDbEntity
8
0
100
AcDbBlockEnd
0
BLOCK
5
1C0
100
AcDbEntity
8
0
100
AcDbBlockBegin
2
*D5
70
1
10
0
20
0
30
0
3
*D5
0
LINE
5
1C2
100
AcDbEntity
8
0
62
256
6
ByLayer
370
-2
48
1
60
0
100
AcDbLine
10
38.9375
20
-14
30
0
11
64.1
21
-14
31
0
39
0
210
0
220
0
230
1
0
LINE
5
1C3
100
AcDbEntity
8
0
62
256
6
ByLayer
370
-2
48
1
60
0
100
AcDbLine
10
1.5875
20
0
30
0
11
64.1
21
0
31
0
39
0
210
0
220
0
230
1
0
LINE
5
1C4
100
AcDbEntity
8
0
62
256
6
ByLayer
370
-2
48
1
60
0
100
AcDbLine
10
62.1
20
-17.5
30
0
11
62.1
21
-21
31
0
39
0
210
0
220
0
230
1
0
LINE
5
1C5
100
AcDbEntity
8
0
62
256
6
ByLayer
370
-2
48
1
60
0
100
AcDbLine
10
62.1
20
3.5
30
0
11
62.1
21
7
31
0
39
0
210
0
220
0
230
1
0
SOLID
5
1C6
100
AcDbEntity
8
0
62
256
6
ByLayer
370
-1
48
1
60
0
100
AcDbTrace
10
62.683333
20
-17.5
30
0
11
61.516667
21
-17.5
31
0
12
62.1
22
-14
32
0
13
62.1
23
-14
33
0
39
0
210
0
220
0
230
1
0
SOLID
5
1C7
100
AcDbEntity
8
0
62
256
6
ByLayer
370
-1
48
1
60
0
100
AcDbTrace
10
61.516667
20
3.5
30
0
11
62.683333
21
3.5
31
0
12
62.1
22
0
32
0
13
62.1
23
0
33
0
39
0
210
0
220
0
230
1
0
MTEXT
5
1C8
100
AcDbEntity
8
0
62
256
6
ByLayer
370
18
48
1
60
0
100
AcDbMText
10
55.1
20
-7
30
0
210
0
220
0
230
1
1
\A1;14
40
3.5
41
0
44
1
50
90
71
5
72
5
7
iso_b_vert
0
POINT
5
1C9
100
AcDbEntity
8
Defpoints
62
0
6
ByLayer
370
-1
48
1
60
0
100
AcDbPoint
10
37.35
20
-14
30
0
39
0
210
0
220
0
230
1
50
360
0
POINT
5
1CA
100
AcDbEntity
8
Defpoints
62
0
6
ByLayer
370
-1
48
1
60
0
100
AcDbPoint
10
0
20
0
30
0
39
0
210
0
220
0
230
1
50
360
0
POINT
5
1CB
100
AcDbEntity
8
Defpoints
62
0
6
ByLayer
370
-1
48
1
60
0
100
AcDbPoint
10
62.1
20
0
30
0
39
0
210
0
220
0
230
1
50
360
0
ENDBLK
5
1C1
100
AcDbEntity
8
0
100
AcDbBlockEnd
0
BLOCK
5
1D3
100
AcDbEntity
8
0
100
AcDbBlockBegin
2
_U2
70
0
10
0
20
0
30
0
3
_U2
0
MTEXT
5
1CD
100
AcDbEntity
8
2
62
256
6
ByLayer
370
18
48
1
60
0
100
AcDbMText
10
61.410366
20
-8.6798
30
0
210
0
220
0
230
1
1
\W0.5785;14
40
3.5
41
0
44
1.084337
50
90
71
7
72
5
7
iso_b_vert
0
LINE
5
1CE
100
AcDbEntity
8
2
62
256
6
ByLayer
370
13
48
1
60
0
100
AcDbLine
10
38.9375
20
-14
30
0
11
64.1
21
-14
31
0
39
0
210
0
220
0
230
1
0
LINE
5
1CF
100
AcDbEntity
8
2
62
256
6
ByLayer
370
13
48
1
60
0
100
AcDbLine
10
1.5875
20
0
30
0
11
64.1
21
0
31
0
39
0
210
0
220
0
230
1
0
LINE
5
1D0
100
AcDbEntity
8
2
62
256
6
ByLayer
370
13
48
1
60
0
100
AcDbLine
10
62.1
20
-14
30
0
11
62.1
21
0
31
0
39
0
210
0
220
0
230
1
0
SOLID
5
1D1
100
AcDbEntity
8
2
62
256
6
ByLayer
370
18
48
1
60
0
100
AcDbTrace
10
62.1
20
-14
30
0
11
61.639216
21
-10.500002
31
0
12
62.560784
22
-10.499998
32
0
13
62.560784
23
-10.499998
33
0
39
0
210
0
220
0
230
1
0
SOLID
5
1D2
100
AcDbEntity
8
2
62
256
6
ByLayer
370
18
48
1
60
0
100
AcDbTrace
10
62.1
20
0
30
0
11
62.560784
21
-3.499998
31
0
12
61.639216
22
-3.500002
32
0
13
61.639216
23
-3.500002
33
0
39
0
210
0
220
0
230
1
0
ENDBLK
5
1D4
100
AcDbEntity
8
0
100
AcDbBlockEnd
0
BLOCK
5
1D9
100
AcDbEntity
8
0
100
AcDbBlockBegin
2
*D7
70
1
10
0
20
0
30
0
3
*D7
0
LINE
5
1DB
100
AcDbEntity
8
0
62
256
6
ByLayer
370
-2
48
1
60
0
100
AcDbLine
10
38.9375
20
-14
30
0
11
51.1
21
-14
31
0
39
0
210
0
220
0
230
1
0
LINE
5
1DC
100
AcDbEntity
8
0
62
256
6
ByLayer
370
-2
48
1
60
0
100
AcDbLine
10
38.9375
20
-12
30
0
11
51.1
21
-12
31
0
39
0
210
0
220
0
230
1
0
LINE
5
1DD
100
AcDbEntity
8
0
62
256
6
ByLayer
370
-2
48
1
60
0
100
AcDbLine
10
49.1
20
-17.5
30
0
11
49.1
21
-21
31
0
39
0
210
0
220
0
230
1
0
LINE
5
1DE
100
AcDbEntity
8
0
62
256
6
ByLayer
370
-2
48
1
60
0
100
AcDbLine
10
49.1
20
-8.5
30
0
11
49.1
21
-5
31
0
39
0
210
0
220
0
230
1
0
SOLID
5
1DF
100
AcDbEntity
8
0
62
256
6
ByLayer
370
-1
48
1
60
0
100
AcDbTrace
10
49.683333
20
-17.5
30
0
11
48.516667
21
-17.5
31
0
12
49.1
22
-14
32
0
13
49.1
23
-14
33
0
39
0
210
0
220
0
230
1
0
SOLID
5
1E0
100
AcDbEntity
8
0
62
256
6
ByLayer
370
-1
48
1
60
0
100
AcDbTrace
10
48.516667
20
-8.5
30
0
11
49.683333
21
-8.5
31
0
12
49.1
22
-12
32
0
13
49.1
23
-12
33
0
39
0
210
0
220
0
230
1
0
MTEXT
5
1E1
100
AcDbEntity
8
0
62
256
6
ByLayer
370
18
48
1
60
0
100
AcDbMText
10
42.1
20
-13
30
0
210
0
220
0
230
1
1
\A1;2
40
3.5
41
0
44
1
50
90
71
5
72
5
7
iso_b_vert
0
POINT
5
1E2
100
AcDbEntity
8
Defpoints
62
0
6
ByLayer
370
-1
48
1
60
0
100
AcDbPoint
10
37.35
20
-14
30
0
39
0
210
0
220
0
230
1
50
360
0
POINT
5
1E3
100
AcDbEntity
8
Defpoints
62
0
6
ByLayer
370
-1
48
1
60
0
100
AcDbPoint
10
37.35
20
-12
30
0
39
0
210
0
220
0
230
1
50
360
0
POINT
5
1E4
100
AcDbEntity
8
Defpoints
62
0
6
ByLayer
370
-1
48
1
60
0
100
AcDbPoint
10
49.1
20
-12
30
0
39
0
210
0
220
0
230
1
50
360
0
ENDBLK
5
1DA
100
AcDbEntity
8
0
100
AcDbBlockEnd
0
BLOCK
5
1EC
100
AcDbEntity
8
0
100
AcDbBlockBegin
2
_U3
70
0
10
0
20
0
30
0
3
_U3
0
MTEXT
5
1E6
100
AcDbEntity
8
2
62
256
6
ByLayer
370
18
48
1
60
0
100
AcDbMText
10
48.410366
20
-13.625233
30
0
210
0
220
0
230
1
1
\W0.5404;2
40
3.5
41
0
44
1.084337
50
90
71
7
72
5
7
iso_b_vert
0
LINE
5
1E7
100
AcDbEntity
8
2
62
256
6
ByLayer
370
13
48
1
60
0
100
AcDbLine
10
38.9375
20
-14
30
0
11
51.1
21
-14
31
0
39
0
210
0
220
0
230
1
0
LINE
5
1E8
100
AcDbEntity
8
2
62
256
6
ByLayer
370
13
48
1
60
0
100
AcDbLine
10
38.9375
20
-12
30
0
11
51.1
21
-12
31
0
39
0
210
0
220
0
230
1
0
LINE
5
1E9
100
AcDbEntity
8
2
62
256
6
ByLayer
370
13
48
1
60
0
100
AcDbLine
10
49.1
20
-22.75
30
0
11
49.1
21
-3.25
31
0
39
0
210
0
220
0
230
1
0
SOLID
5
1EA
100
AcDbEntity
8
2
62
256
6
ByLayer
370
18
48
1
60
0
100
AcDbTrace
10
49.1
20
-14
30
0
11
49.560784
21
-17.499998
31
0
12
48.639216
22
-17.500002
32
0
13
48.639216
23
-17.500002
33
0
39
0
210
0
220
0
230
1
0
SOLID
5
1EB
100
AcDbEntity
8
2
62
256
6
ByLayer
370
18
48
1
60
0
100
AcDbTrace
10
49.1
20
-12
30
0
11
48.639216
21
-8.500002
31
0
12
49.560784
22
-8.499998
32
0
13
49.560784
23
-8.499998
33
0
39
0
210
0
220
0
230
1
0
ENDBLK
5
1ED
100
AcDbEntity
8
0
100
AcDbBlockEnd
0
ENDSEC
0
SECTION
2
ENTITIES
0
ARC
5
FE
100
AcDbEntity
8
1
62
256
6
ByLayer
370
18
48
1
60
0
100
AcDbCircle
39
0
10
16.5
20
-0.875
30
0
40
0.5
210
0
220
0
230
1
100
AcDbArc
50
202.850545
51
270
0
ARC
5
FF
100
AcDbEntity
8
1
62
256
6
ByLayer
370
18
48
1
60
0
100
AcDbCircle
39
0
10
16.5
20
-0.875
30
0
40
0.5
210
0
220
0
230
1
100
AcDbArc
50
180
51
202.850545
0
ARC
5
100
100
AcDbEntity
8
1
62
256
6
ByLayer
370
18
48
1
60
0
100
AcDbCircle
39
0
10
16
20
-7.25
30
0
40
3.8
210
0
220
0
230
1
100
AcDbArc
50
301.870131
51
58.129869
0
ARC
5
101
100
AcDbEntity
8
1
62
256
6
ByLayer
370
18
48
1
60
0
100
AcDbCircle
39
0
10
22.35
20
-10.65
30
0
40
1.59999999999998
210
0
220
0
230
1
100
AcDbArc
50
180
51
270
0
ARC
5
102
100
AcDbEntity
8
1
62
256
6
ByLayer
370
18
48
1
60
0
100
AcDbCircle
39
0
10
16
20
-7.25
30
0
40
3.8
210
0
220
0
230
1
100
AcDbArc
50
58.129869
51
301.870131
0
ARC
5
103
100
AcDbEntity
8
1
62
256
6
ByLayer
370
18
48
1
60
0
100
AcDbCircle
39
0
10
16
20
-7.25
30
0
40
1.416
210
0
220
0
230
1
100
AcDbArc
50
60.190711
51
119.809289
0
ARC
5
104
100
AcDbEntity
8
1
62
256
6
ByLayer
370
18
48
1
60
0
100
AcDbCircle
39
0
10
16
20
-7.25
30
0
40
1.416
210
0
220
0
230
1
100
AcDbArc
50
119.809289
51
173.807562
0
ARC
5
105
100
AcDbEntity
8
1
62
256
6
ByLayer
370
18
48
1
60
0
100
AcDbCircle
39
0
10
16
20
-7.25
30
0
40
1.416
210
0
220
0
230
1
100
AcDbArc
50
186.192438
51
240.190711
0
ARC
5
106
100
AcDbEntity
8
1
62
256
6
ByLayer
370
18
48
1
60
0
100
AcDbCircle
39
0
10
16
20
-7.25
30
0
40
1.416
210
0
220
0
230
1
100
AcDbArc
50
240.190711
51
299.809289
0
ARC
5
107
100
AcDbEntity
8
1
62
256
6
ByLayer
370
18
48
1
60
0
100
AcDbCircle
39
0
10
16
20
-7.25
30
0
40
1.416
210
0
220
0
230
1
100
AcDbArc
50
299.809289
51
353.807562
0
ARC
5
108
100
AcDbEntity
8
1
62
256
6
ByLayer
370
18
48
1
60
0
100
AcDbCircle
39
0
10
16
20
-7.25
30
0
40
1.416
210
0
220
0
230
1
100
AcDbArc
50
6.192438
51
60.190711
0
ARC
5
109
100
AcDbEntity
8
1
62
256
6
ByLayer
370
18
48
1
60
0
100
AcDbCircle
39
0
10
16
20
-7.25
30
0
40
1.416
210
0
220
0
230
1
100
AcDbArc
50
173.807562
51
186.192438
0
ARC
5
10A
100
AcDbEntity
8
1
62
256
6
ByLayer
370
18
48
1
60
0
100
AcDbCircle
39
0
10
16
20
-7.25
30
0
40
1.9685
210
0
220
0
230
1
100
AcDbArc
50
149.618578
51
210.381422
0
ARC
5
10B
100
AcDbEntity
8
1
62
256
6
ByLayer
370
18
48
1
60
0
100
AcDbCircle
39
0
10
16
20
-7.25
30
0
40
1.416
210
0
220
0
230
1
100
AcDbArc
50
353.807562
51
6.192438
0
ARC
5
10C
100
AcDbEntity
8
1
62
256
6
ByLayer
370
18
48
1
60
0
100
AcDbCircle
39
0
10
16
20
-7.25
30
0
40
1.9685
210
0
220
0
230
1
100
AcDbArc
50
329.618578
51
30.381422
0
ARC
5
10F
100
AcDbEntity
8
1
62
256
6
ByLayer
370
18
48
1
60
0
100
AcDbCircle
39
0
10
16
20
-7.25
30
0
40
1.9685
210
0
220
0
230
1
100
AcDbArc
50
210.381422
51
270
0
ARC
5
110
100
AcDbEntity
8
1
62
256
6
ByLayer
370
18
48
1
60
0
100
AcDbCircle
39
0
10
16
20
-7.25
30
0
40
1.9685
210
0
220
0
230
1
100
AcDbArc
50
30.381422
51
90
0
ARC
5
111
100
AcDbEntity
8
1
62
256
6
ByLayer
370
18
48
1
60
0
100
AcDbCircle
39
0
10
16
20
-7.25
30
0
40
1.9685
210
0
220
0
230
1
100
AcDbArc
50
270
51
329.618578
0
ARC
5
112
100
AcDbEntity
8
1
62
256
6
ByLayer
370
18
48
1
60
0
100
AcDbCircle
39
0
10
16
20
-7.25
30
0
40
1.9685
210
0
220
0
230
1
100
AcDbArc
50
90
51
149.618578
0
CIRCLE
5
10D
100
AcDbEntity
8
1
62
256
6
ByLayer
370
18
48
1
60
0
100
AcDbCircle
10
16
20
-7.25
30
0
40
3.5
39
0
210
0
220
0
230
1
0
CIRCLE
5
10E
100
AcDbEntity
8
1
62
256
6
ByLayer
370
18
48
1
60
0
100
AcDbCircle
10
16
20
-7.25
30
0
40
3
39
0
210
0
220
0
230
1
0
ELLIPSE
5
113
100
AcDbEntity
8
1
62
256
6
ByLayer
370
18
48
1
60
0
100
AcDbEllipse
10
34.689893
20
-11.4
30
0
11
0.909842478039911
21
0
31
0
210
0
220
0
230
1
40
0.879273
41
-1.5707963267949
42
-1.29515256585801
0
ELLIPSE
5
114
100
AcDbEntity
8
1
62
256
6
ByLayer
370
18
48
1
60
0
100
AcDbEllipse
10
33.364842
20
-12.566064
30
0
11
0.940926021896911
21
0
31
0
210
0
220
0
230
1
40
0.212557
41
-2.80561677258029
42
-1.98717825108457
0
ELLIPSE
5
115
100
AcDbEntity
8
1
62
256
6
ByLayer
370
18
48
1
60
0
100
AcDbEllipse
10
36.789895
20
-10.919859
30
0
11
-9.40926030369856
21
-1.146753892561E-08
31
0
210
0
220
0
230
1
40
0.212557
41
1.15441439977954
42
1.22173047313749
0
ELLIPSE
5
116
100
AcDbEntity
8
1
62
256
6
ByLayer
370
18
48
1
60
0
100
AcDbEllipse
10
33.278041
20
-13
30
0
11
0.987972322990226
21
0
31
0
210
0
220
0
230
1
40
0.212557
41
0
42
1.2217304763962
0
ELLIPSE
5
117
100
AcDbEntity
8
1
62
256
6
ByLayer
370
18
48
1
60
0
100
AcDbEllipse
10
33.278041
20
-13
30
0
11
0.987972322989577
21
0
31
0
210
0
220
0
230
1
40
0.212557
41
-1.22173047639662
42
0
0
ELLIPSE
5
118
100
AcDbEntity
8
1
62
256
6
ByLayer
370
18
48
1
60
0
100
AcDbEllipse
10
36.789895
20
-15.080141
30
0
11
9.40926024709697
21
-3.85333663262037E-09
31
0
210
0
220
0
230
1
40
0.212557
41
1.91986217830851
42
1.98717825202293
0
ELLIPSE
5
119
100
AcDbEntity
8
1
62
256
6
ByLayer
370
18
48
1
60
0
100
AcDbEllipse
10
33.364842
20
-13.433936
30
0
11
0.940926021895875
21
0
31
0
210
0
220
0
230
1
40
0.212557
41
1.98717825108418
42
2.80561677258086
0
ELLIPSE
5
11A
100
AcDbEntity
8
1
62
256
6
ByLayer
370
18
48
1
60
0
100
AcDbEllipse
10
32.718909
20
-13.675438
30
0
11
0.705694516581598
21
0
31
0
210
0
220
0
230
1
40
0.212557
41
2.80561677261951
42
3.14159265358979
0
ELLIPSE
5
11B
100
AcDbEntity
8
1
62
256
6
ByLayer
370
18
48
1
60
0
100
AcDbEllipse
10
34.689893
20
-14.6
30
0
11
0.909842477997808
21
0
31
0
210
0
220
0
230
1
40
0.879273
41
1.29515256584522
42
1.5707963267949
0
ELLIPSE
5
11C
100
AcDbEntity
8
1
62
256
6
ByLayer
370
18
48
1
60
0
100
AcDbEllipse
10
33.715427
20
-12.45
30
0
11
7.85307604188964E-18
21
0.128254700253314
31
0
210
0
220
0
230
1
40
0.978148
41
0
42
6.28318530717959
0
ELLIPSE
5
11D
100
AcDbEntity
8
1
62
256
6
ByLayer
370
18
48
1
60
0
100
AcDbEllipse
10
32.718909
20
-12.324562
30
0
11
0.705694516467252
21
0
31
0
210
0
220
0
230
1
40
0.212557
41
3.14159265358979
42
-2.80561677259189
0
ELLIPSE
5
11E
100
AcDbEntity
8
1
62
256
6
ByLayer
370
18
48
1
60
0
100
AcDbEllipse
10
20.010107
20
-14.6
30
0
11
0.90984247801887
21
0
31
0
210
0
220
0
230
1
40
0.879273
41
1.5707963267949
42
1.8464400877382
0
POINT
5
70
100
AcDbEntity
8
81
62
256
6
ByLayer
370
18
48
1
60
0
100
AcDbPoint
10
37.35
20
-14
30
0
39
0
210
0
220
0
230
1
50
360
0
POINT
5
72
100
AcDbEntity
8
80
62
256
6
ByLayer
370
18
48
1
60
0
100
AcDbPoint
10
0
20
0
30
0
39
0
210
0
220
0
230
1
50
360
0
POINT
5
74
100
AcDbEntity
8
1
62
256
6
ByLayer
370
18
48
1
60
1
100
AcDbPoint
10
0
20
0
30
0
39
0
210
0
220
0
230
1
50
360
0
POINT
5
76
100
AcDbEntity
8
1
62
256
6
ByLayer
370
18
48
1
60
1
100
AcDbPoint
10
37.35
20
-14
30
0
39
0
210
0
220
0
230
1
50
360
0
POINT
5
77
100
AcDbEntity
8
1
62
256
6
ByLayer
370
18
48
1
60
1
100
AcDbPoint
10
22.35
20
-12.25
30
0
39
0
210
0
220
0
230
1
50
360
0
POINT
5
78
100
AcDbEntity
8
1
62
256
6
ByLayer
370
18
48
1
60
1
100
AcDbPoint
10
37.35
20
-14
30
0
39
0
210
0
220
0
230
1
50
360
0
POINT
5
79
100
AcDbEntity
8
1
62
256
6
ByLayer
370
18
48
1
60
1
100
AcDbPoint
10
37.35
20
-14
30
0
39
0
210
0
220
0
230
1
50
360
0
POINT
5
7A
100
AcDbEntity
8
1
62
256
6
ByLayer
370
18
48
1
60
1
100
AcDbPoint
10
0
20
0
30
0
39
0
210
0
220
0
230
1
50
360
0
POINT
5
7B
100
AcDbEntity
8
1
62
256
6
ByLayer
370
18
48
1
60
1
100
AcDbPoint
10
37.35
20
-14
30
0
39
0
210
0
220
0
230
1
50
360
0
POINT
5
7C
100
AcDbEntity
8
1
62
256
6
ByLayer
370
18
48
1
60
1
100
AcDbPoint
10
37.35
20
-12
30
0
39
0
210
0
220
0
230
1
50
360
0
SPLINE
5
11F
100
AcDbEntity
8
1
62
256
6
ByLayer
370
18
48
1
60
0
100
AcDbSpline
70
4
71
3
72
12
73
8
40
0
40
0
40
0
40
0
40
0.28212329357494
40
0.28212329357494
40
0.64106164678747
40
0.64106164678747
40
1
40
1
40
1
40
1
41
1
10
9.2296255172497
20
0.312730672053561
30
0
41
1
10
9.22018631298099
20
0.314781589375485
30
0
41
1
10
9.21076689725157
20
0.316635418411295
30
0
41
1
10
9.18954659679824
20
0.320303380455783
30
0
41
1
10
9.17785494090333
20
0.321962244275824
30
0
41
1
10
9.15494813398627
20
0.324297936900479
30
0
41
1
10
9.14372986087079
20
0.324980947161691
30
0
41
1
10
9.13284665391035
20
0.324980947161691
30
0
0
SPLINE
5
120
100
AcDbEntity
8
1
62
256
6
ByLayer
370
18
48
1
60
0
100
AcDbSpline
70
4
71
3
72
8
73
4
40
0
40
0
40
0
40
0
40
1
40
1
40
1
40
1
41
1
10
8.97509300114021
20
0.269594177820636
30
0
41
1
10
8.97048024229872
20
0.263188796058728
30
0
41
1
10
8.96535566342396
20
0.256648768658465
30
0
41
1
10
8.95982040671319
20
0.249999999999829
30
0
0
SPLINE
5
121
100
AcDbEntity
8
1
62
256
6
ByLayer
370
18
48
1
60
0
100
AcDbSpline
70
4
71
3
72
8
73
4
40
0
40
0
40
0
40
0
40
1
40
1
40
1
40
1
41
1
10
8.94788459874798
20
0.25
30
0
41
1
10
8.95695689263579
20
0.256520867363747
30
0
41
1
10
8.96602634583104
20
0.263052313104737
30
0
41
1
10
8.97509300113904
20
0.269594177821347
30
0
0
SPLINE
5
122
100
AcDbEntity
8
1
62
256
6
ByLayer
370
18
48
1
60
0
100
AcDbSpline
70
4
71
3
72
18
73
14
40
0
40
0
40
0
40
0
40
0.124999999999997
40
0.124999999999997
40
0.249999999999994
40
0.249999999999994
40
0.374999999999991
40
0.374999999999991
40
0.499999999999988
40
0.499999999999988
40
0.749999999999994
40
0.749999999999994
40
1
40
1
40
1
40
1
41
1
10
9.40454881002665
20
0.324980947161663
30
0
41
1
10
9.38759768040057
20
0.324980947161663
30
0
41
1
10
9.37037734087883
20
0.324333802126603
30
0
41
1
10
9.33556537132938
20
0.322240606437305
30
0
41
1
10
9.31797101305719
20
0.320786465321106
30
0
41
1
10
9.28248929533834
20
0.317312073862979
30
0
41
1
10
9.26457702835458
20
0.315286220540855
30
0
41
1
10
9.2286184412612
20
0.310825062109671
30
0
41
1
10
9.21061352336176
20
0.308394804813759
30
0
41
1
10
9.15652522117634
20
0.300657493979827
30
0
41
1
10
9.12036847898457
20
0.294911325240093
30
0
41
1
10
9.04786915185497
20
0.282718617451991
30
0
41
1
10
9.01152644313692
20
0.276266358807078
30
0
41
1
10
8.97509300113904
20
0.269594177821347
30
0
0
SPLINE
5
123
100
AcDbEntity
8
1
62
256
6
ByLayer
370
18
48
1
60
0
100
AcDbSpline
70
4
71
3
72
20
73
16
40
0
40
0
40
0
40
0
40
0.25
40
0.25
40
0.375
40
0.375
40
0.5
40
0.5
40
0.625
40
0.625
40
0.75
40
0.75
40
0.875
40
0.875
40
1
40
1
40
1
40
1
41
1
10
9.3844789550599
20
0.25
30
0
41
1
10
9.39682270649575
20
0.259824535101188
30
0
41
1
10
9.40890440191322
20
0.269050270820657
30
0
41
1
10
9.42658457612515
20
0.281897606492294
30
0
41
1
10
9.43240356571505
20
0.286013315481341
30
0
41
1
10
9.44387251607549
20
0.293868908437645
30
0
41
1
10
9.44955246765531
20
0.297627228915957
30
0
41
1
10
9.46048600059484
20
0.304557321014272
30
0
41
1
10
9.46575547887247
20
0.307741778715808
30
0
41
1
10
9.47584069438224
20
0.313466776029827
30
0
41
1
10
9.48067606109115
20
0.316017460644701
30
0
41
1
10
9.48970604367264
20
0.320287538788818
30
0
41
1
10
9.49383752136632
20
0.321978904858042
30
0
41
1
10
9.50120547788177
20
0.324325438354236
30
0
41
1
10
9.50446684643606
20
0.324980947161691
30
0
41
1
10
9.5070945452878
20
0.324980947161691
30
0
0
SPLINE
5
124
100
AcDbEntity
8
1
62
256
6
ByLayer
370
18
48
1
60
0
100
AcDbSpline
70
4
71
2
72
6
73
3
40
0
40
0
40
0
40
1
40
1
40
1
41
1
10
9.50723215695228
20
0.324980947161691
30
0
41
1
10
9.53999786148736
20
0.324980947161691
30
0
41
1
10
9.57062122153147
20
0.324980947161691
30
0
0
SPLINE
5
125
100
AcDbEntity
8
1
62
256
6
ByLayer
370
18
48
1
60
0
100
AcDbSpline
70
4
71
3
72
18
73
14
40
0
40
0
40
0
40
0
40
0.249999999999998
40
0.249999999999998
40
0.374999999999997
40
0.374999999999997
40
0.499999999999996
40
0.499999999999996
40
0.749999999999998
40
0.749999999999998
40
0.874999999999999
40
0.874999999999999
40
1
40
1
40
1
40
1
41
1
10
14.8184692127086
20
0.249980947161674
30
0
41
1
10
14.8074408879534
20
0.25978207251589
30
0
41
1
10
14.7967015141747
20
0.269079983040143
30
0
41
1
10
14.7810985572145
20
0.282134384874752
30
0
41
1
10
14.7760027492335
20
0.286317935978389
30
0
41
1
10
14.7661922846909
20
0.294192871663853
30
0
41
1
10
14.7614560038651
20
0.29790260373386
30
0
41
1
10
14.7478183865456
20
0.308259492032192
30
0
41
1
10
14.7393963271011
20
0.314194627055087
30
0
41
1
10
14.729075461519
20
0.320451985953838
30
0
41
1
10
14.7259716490943
20
0.322125675212874
30
0
41
1
10
14.7207746365131
20
0.324388699392443
30
0
41
1
10
14.7186893510728
20
0.32498094716172
30
0
41
1
10
14.7171680292953
20
0.32498094716172
30
0
0
SPLINE
5
126
100
AcDbEntity
8
1
62
256
6
ByLayer
370
18
48
1
60
0
100
AcDbSpline
70
4
71
3
72
22
73
18
40
0
40
0
40
0
40
0
40
0.125
40
0.125
40
0.25
40
0.25
40
0.375
40
0.375
40
0.5
40
0.5
40
0.625
40
0.625
40
0.75
40
0.75
40
0.875
40
0.875
40
1
40
1
40
1
40
1
41
1
10
9.57048139756094
20
0.324980947060027
30
0
41
1
10
9.57251449079982
20
0.324980699935452
30
0
41
1
10
9.57410536556662
20
0.324533102723962
30
0
41
1
10
9.57628182451117
20
0.322618634072569
30
0
41
1
10
9.57683167984811
20
0.321175545408039
30
0
41
1
10
9.57685514810564
20
0.317350053736362
30
0
41
1
10
9.57631860575586
20
0.314932710155119
30
0
41
1
10
9.5741997112676
20
0.309275100347463
30
0
41
1
10
9.57263907119452
20
0.306067076874996
30
0
41
1
10
9.56861585716385
20
0.298965833156615
30
0
41
1
10
9.56613810398775
20
0.295057128232287
30
0
41
1
10
9.56055905507199
20
0.28690587896952
30
0
41
1
10
9.55744018536603
20
0.282630010692884
30
0
41
1
10
9.55063275024946
20
0.273730195609943
30
0
41
1
10
9.5469222663894
20
0.26908108225922
30
0
41
1
10
9.53914014588514
20
0.259653435704053
30
0
41
1
10
9.53505931314226
20
0.254861141173507
30
0
41
1
10
9.53081289439862
20
0.249999999999943
30
0
0
SPLINE
5
127
100
AcDbEntity
8
1
62
256
6
ByLayer
370
18
48
1
60
0
100
AcDbSpline
70
4
71
3
72
8
73
4
40
0
40
0
40
0
40
0
40
1
40
1
40
1
40
1
41
1
10
15.2430820962789
20
-0.129903810567669
30
0
41
1
10
15.4272614048179
20
-0.311558795607112
30
0
41
1
10
15.6113958294156
20
-0.493259035301037
30
0
41
1
10
15.7954898626159
20
-0.675000000000011
30
0
0
SPLINE
5
128
100
AcDbEntity
8
1
62
256
6
ByLayer
370
18
48
1
60
0
100
AcDbSpline
70
4
71
3
72
8
73
4
40
0
40
0
40
0
40
0
40
1
40
1
40
1
40
1
41
1
10
15.2430820962789
20
-0.129903810567669
30
0
41
1
10
15.1020216400389
20
-0.0028773178347024
30
0
41
1
10
14.9604945734528
20
0.123759749017154
30
0
41
1
10
14.8184692127086
20
0.249980947161674
30
0
0
SPLINE
5
129
100
AcDbEntity
8
1
62
256
6
ByLayer
370
18
48
1
60
0
100
AcDbSpline
70
4
71
3
72
10
73
6
40
0
40
0
40
0
40
0
40
0.5
40
0.5
40
1
40
1
40
1
40
1
41
1
10
30.9138003328162
20
-13.25
30
0
41
1
10
30.8913255083222
20
-13.333636979808
30
0
41
1
10
30.8686488048895
20
-13.4171590003179
30
0
41
1
10
30.8227115908064
20
-13.5838705942365
30
0
41
1
10
30.7994542014685
20
-13.6670619450663
30
0
41
1
10
30.7757520015973
20
-13.75
30
0
0
SPLINE
5
12A
100
AcDbEntity
8
1
62
256
6
ByLayer
370
18
48
1
60
0
100
AcDbSpline
70
4
71
3
72
8
73
4
40
0
40
0
40
0
40
0
40
1
40
1
40
1
40
1
41
1
10
31.0302715088963
20
-13.1878989908994
30
0
41
1
10
30.9915098707272
20
-13.2088384873171
30
0
41
1
10
30.9526967756916
20
-13.2295797717263
30
0
41
1
10
30.9138003328162
20
-13.25
30
0
0
SPLINE
5
12B
100
AcDbEntity
8
1
62
256
6
ByLayer
370
18
48
1
60
0
100
AcDbSpline
70
4
71
3
72
20
73
16
40
0
40
0
40
0
40
0
40
0.25
40
0.25
40
0.375
40
0.375
40
0.5
40
0.5
40
0.625
40
0.625
40
0.75
40
0.75
40
0.875
40
0.875
40
1
40
1
40
1
40
1
41
1
10
31.1
20
-13.0488189610524
30
0
41
1
10
31.1
20
-13.0641490047044
30
0
41
1
10
31.0983032683749
20
-13.07906272116
30
0
41
1
10
31.0932722054894
20
-13.1008233142706
30
0
41
1
10
31.0911956020292
20
-13.107857468867
30
0
41
1
10
31.0863470925789
20
-13.1212854151622
30
0
41
1
10
31.0835665145095
20
-13.1277165972179
30
0
41
1
10
31.077292299883
20
-13.1400130523269
30
0
41
1
10
31.0738109198991
20
-13.1458371602263
30
0
41
1
10
31.066370343473
20
-13.1565662640604
30
0
41
1
10
31.0623875914647
20
-13.161519135205
30
0
41
1
10
31.0539058839995
20
-13.1706151999758
30
0
41
1
10
31.0493925342152
20
-13.1747610157103
30
0
41
1
10
31.0400824753273
20
-13.1820397054276
30
0
41
1
10
31.0352598767439
20
-13.1852042154563
30
0
41
1
10
31.0302715088963
20
-13.1878989908994
30
0
0
SPLINE
5
12C
100
AcDbEntity
8
1
62
256
6
ByLayer
370
18
48
1
60
0
100
AcDbSpline
70
4
71
3
72
18
73
14
40
0
40
0
40
0
40
0
40
0.249999999999962
40
0.249999999999962
40
0.374999999999968
40
0.374999999999968
40
0.499999999999975
40
0.499999999999975
40
0.624999999999981
40
0.624999999999981
40
0.749999999999987
40
0.749999999999987
40
1
40
1
40
1
40
1
41
1
10
31.0302715088965
20
-12.8121010091006
30
0
41
1
10
31.0402534965698
20
-12.8174933971678
30
0
41
1
10
31.0495110920797
20
-12.8247001325068
30
0
41
1
10
31.0622681364233
20
-12.8383388568583
30
0
41
1
10
31.0663247014677
20
-12.8433741334294
30
0
41
1
10
31.0737697540225
20
-12.8540973397703
30
0
41
1
10
31.077196025976
20
-12.8598217468452
30
0
41
1
10
31.0834409557019
20
-12.8720146675935
30
0
41
1
10
31.0862812874854
20
-12.8785480546616
30
0
41
1
10
31.0911732159972
20
-12.8920650970702
30
0
41
1
10
31.0932281689774
20
-12.8990283425917
30
0
41
1
10
31.098227700362
20
-12.9205282172852
30
0
41
1
10
31.1000000000053
20
-12.9358324946182
30
0
41
1
10
31.1000000000053
20
-12.9511810389469
30
0
0
SPLINE
5
12D
100
AcDbEntity
8
1
62
256
6
ByLayer
370
18
48
1
60
0
100
AcDbSpline
70
4
71
3
72
8
73
4
40
0
40
0
40
0
40
0
40
1
40
1
40
1
40
1
41
1
10
30.9138003328162
20
-12.75
30
0
41
1
10
30.9526987739192
20
-12.7704212773225
30
0
41
1
10
30.991511570766
20
-12.791162431064
30
0
41
1
10
31.0302715088965
20
-12.8121010091006
30
0
0
SPLINE
5
12E
100
AcDbEntity
8
1
62
256
6
ByLayer
370
18
48
1
60
0
100
AcDbSpline
70
4
71
3
72
10
73
6
40
0
40
0
40
0
40
0
40
0.5
40
0.5
40
1
40
1
40
1
40
1
41
1
10
30.7757520015973
20
-12.2499999999999
30
0
41
1
10
30.7994542014685
20
-12.3329380549336
30
0
41
1
10
30.8227115908064
20
-12.4161294057634
30
0
41
1
10
30.8686488048895
20
-12.5828409996821
30
0
41
1
10
30.8913255083222
20
-12.666363020192
30
0
41
1
10
30.9138003328162
20
-12.75
30
0
0
SPLINE
5
12F
100
AcDbEntity
8
1
62
256
6
ByLayer
370
18
48
1
60
0
100
AcDbSpline
70
4
71
3
72
20
73
16
40
0
40
0
40
0
40
0
40
0.125
40
0.125
40
0.250000000000001
40
0.250000000000001
40
0.500000000000002
40
0.500000000000002
40
0.625000000000001
40
0.625000000000001
40
0.750000000000001
40
0.750000000000001
40
0.875
40
0.875
40
1
40
1
40
1
40
1
41
1
10
-11.1539311130558
20
0.249980947163749
30
0
41
1
10
-11.1604321264514
20
0.254843125490652
30
0
41
1
10
-11.1669160865667
20
0.259584653592839
30
0
41
1
10
-11.1798450150413
20
0.268812423928665
30
0
41
1
10
-11.1863183862468
20
0.273317667880235
30
0
41
1
10
-11.205414819476
20
0.286238759708993
30
0
41
1
10
-11.2177208346944
20
0.29407886125324
30
0
41
1
10
-11.2353751890956
20
0.30440847513853
30
0
41
1
10
-11.2411564914624
20
0.307626792034853
30
0
41
1
10
-11.2522175048208
20
0.313387918152557
30
0
41
1
10
-11.2574809997012
20
0.315925042907423
30
0
41
1
10
-11.2673785357809
20
0.320189385940665
30
0
41
1
10
-11.2720438166112
20
0.32192703352834
30
0
41
1
10
-11.2804336330612
20
0.324326717375243
30
0
41
1
10
-11.2841126650964
20
0.32498094716189
30
0
41
1
10
-11.2871772280887
20
0.324980947161919
30
0
0
SPLINE
5
130
100
AcDbEntity
8
1
62
256
6
ByLayer
370
18
48
1
60
0
100
AcDbSpline
70
4
71
3
72
8
73
4
40
0
40
0
40
0
40
0
40
1
40
1
40
1
40
1
41
1
10
-11.1032350631269
20
0.212243119289184
30
0
41
1
10
-11.1201660472027
20
0.224786456048634
30
0
41
1
10
-11.1370643731012
20
0.237366129676758
30
0
41
1
10
-11.1539311130555
20
0.249980947161646
30
0
0
SPLINE
5
131
100
AcDbEntity
8
1
62
256
6
ByLayer
370
18
48
1
60
0
100
AcDbSpline
70
4
71
3
72
16
73
12
40
0
40
0
40
0
40
0
40
0.250000000000001
40
0.250000000000001
40
0.500000000000003
40
0.500000000000003
40
0.750000000000004
40
0.750000000000004
40
0.875000000000002
40
0.875000000000002
40
1
40
1
40
1
40
1
41
1
10
-9.96637832280616
20
0.249980947161674
30
0
41
1
10
-9.99078675577488
20
0.259909297798572
30
0
41
1
10
-10.0150264157267
20
0.269095229194733
30
0
41
1
10
-10.0631479963767
20
0.285965246733184
30
0
41
1
10
-10.0870307140286
20
0.293653557543223
30
0
41
1
10
-10.1343736234426
20
0.307193150124277
30
0
41
1
10
-10.1578378552941
20
0.313070425791182
30
0
41
1
10
-10.1925916480194
20
0.319751268507474
30
0
41
1
10
-10.2040252939894
20
0.321595212906118
30
0
41
1
10
-10.2261105645492
20
0.324200732781947
30
0
41
1
10
-10.2368176996361
20
0.324980947160697
30
0
41
1
10
-10.2470436468637
20
0.324980947161663
30
0
0
SPLINE
5
132
100
AcDbEntity
8
1
62
256
6
ByLayer
370
18
48
1
60
0
100
AcDbSpline
70
4
71
3
72
8
73
4
40
0
40
0
40
0
40
0
40
1
40
1
40
1
40
1
41
1
10
-9.66021760532495
20
0.133311925565607
30
0
41
1
10
-9.76333499206224
20
0.169915419789419
30
0
41
1
10
-9.86535047200709
20
0.208886956076043
30
0
41
1
10
-9.96637832280624
20
0.249980947161504
30
0
0
SPLINE
5
133
100
AcDbEntity
8
1
62
256
6
ByLayer
370
18
48
1
60
0
100
AcDbSpline
70
4
71
3
72
14
73
10
40
0
40
0
40
0
40
0
40
0.30351339028557
40
0.30351339028557
40
0.607026780571141
40
0.607026780571141
40
0.910540170856711
40
0.910540170856711
40
1
40
1
40
1
40
1
41
1
10
-9.40454881002677
20
0.324980947161663
30
0
41
1
10
-9.38759768042246
20
0.324980947161663
30
0
41
1
10
-9.37037734089566
20
0.324333802127739
30
0
41
1
10
-9.33556537129778
20
0.322240606435287
30
0
41
1
10
-9.31797101298203
20
0.320786465315109
30
0
41
1
10
-9.28248929514571
20
0.317312073842714
30
0
41
1
10
-9.26457702802533
20
0.315286220502202
30
0
41
1
10
-9.24129838173921
20
0.31239818352293
30
0
41
1
10
-9.23599680282324
20
0.311723378500659
30
0
41
1
10
-9.23069302613958
20
0.311032527846351
30
0
0
SPLINE
5
134
100
AcDbEntity
8
1
62
256
6
ByLayer
370
18
48
1
60
0
100
AcDbSpline
70
4
71
3
72
16
73
12
40
0
40
0
40
0
40
0
40
0.222184820554174
40
0.222184820554174
40
0.444369641108348
40
0.444369641108348
40
0.666554461662522
40
0.666554461662522
40
0.888739282216696
40
0.888739282216696
40
1
40
1
40
1
40
1
41
1
10
-11.0234674519049
20
0.324980947168172
30
0
41
1
10
-11.0186481431831
20
0.324980947167972
30
0
41
1
10
-11.0131968590635
20
0.324294057072905
30
0
41
1
10
-11.0013242982397
20
0.321823931556111
30
0
41
1
10
-10.9950506921146
20
0.320074036858045
30
0
41
1
10
-10.9819859246727
20
0.315793026802652
30
0
41
1
10
-10.9751929157508
20
0.313258941423413
30
0
41
1
10
-10.9611695861205
20
0.3075343818509
30
0
41
1
10
-10.9539161602598
20
0.304330463663064
30
0
41
1
10
-10.9429537234276
20
0.299188283644099
30
0
41
1
10
-10.9392749349831
20
0.297414379612718
30
0
41
1
10
-10.9355763242353
20
0.295585243643501
30
0
0
SPLINE
5
135
100
AcDbEntity
8
1
62
256
6
ByLayer
370
18
48
1
60
0
100
AcDbSpline
70
4
71
3
72
20
73
16
40
0
40
0
40
0
40
0
40
0.249999999999982
40
0.249999999999982
40
0.374999999999985
40
0.374999999999985
40
0.499999999999988
40
0.499999999999988
40
0.624999999999991
40
0.624999999999991
40
0.749999999999994
40
0.749999999999994
40
0.874999999999997
40
0.874999999999997
40
1
40
1
40
1
40
1
41
1
10
-11.1114500273988
20
0.249980947154313
30
0
41
1
10
-11.1195900715259
20
0.259735651200032
30
0
41
1
10
-11.1270564922387
20
0.269508992532707
30
0
41
1
10
-11.1360204266698
20
0.283150106968293
30
0
41
1
10
-11.1386768192221
20
0.287590116805859
30
0
41
1
10
-11.1430395672149
20
0.295963435139413
30
0
41
1
10
-11.1447268949469
20
0.29985100455238
30
0
41
1
10
-11.1470034342433
20
0.306969162786601
30
0
41
1
10
-11.1475787917377
20
0.310212274884549
30
0
41
1
10
-11.1474895806123
20
0.31567755487319
30
0
41
1
10
-11.1468471997408
20
0.317947268097811
30
0
41
1
10
-11.1443698180766
20
0.321572915063968
30
0
41
1
10
-11.1425602599156
20
0.322880500925265
30
0
41
1
10
-11.1379995581218
20
0.324581483697585
30
0
41
1
10
-11.1352153779729
20
0.32498094716172
30
0
41
1
10
-11.1320782392769
20
0.32498094716172
30
0
0
SPLINE
5
136
100
AcDbEntity
8
1
62
256
6
ByLayer
370
18
48
1
60
0
100
AcDbSpline
70
4
71
3
72
31
73
27
40
0
40
0
40
0
40
0
40
0.062500000000001
40
0.062500000000001
40
0.125000000000002
40
0.125000000000002
40
0.25
40
0.25
40
0.312499999999997
40
0.312499999999997
40
0.374999999999994
40
0.374999999999994
40
0.499999999999988
40
0.499999999999988
40
0.562499999999989
40
0.562499999999989
40
0.624999999999989
40
0.68749999999999
40
0.68749999999999
40
0.74999999999999
40
0.74999999999999
40
0.874999999999995
40
0.874999999999995
40
0.937499999999998
40
0.937499999999998
40
1
40
1
40
1
40
1
41
1
10
10.9135286477444
20
-1.375
30
0
41
1
10
10.9031311989807
20
-1.375
30
0
41
1
10
10.8927259660875
20
-1.37420688800756
30
0
41
1
10
10.871899634604
20
-1.37100413459763
30
0
41
1
10
10.8614264934546
20
-1.36857311426434
30
0
41
1
10
10.8305959799132
20
-1.35895885882866
30
0
41
1
10
10.8106937010071
20
-1.3494905414218
30
0
41
1
10
10.7818017309643
20
-1.33077331882419
30
0
41
1
10
10.7723324460414
20
-1.32377647890257
30
0
41
1
10
10.7537282941605
20
-1.30821244701138
30
0
41
1
10
10.7447490399457
20
-1.29977534244537
30
0
41
1
10
10.718750279463
20
-1.27257068273749
30
0
41
1
10
10.7026590883297
20
-1.25192587785094
30
0
41
1
10
10.680415058366
20
-1.21713391883944
30
0
41
1
10
10.6733015550138
20
-1.20484975533853
30
0
41
1
10
10.6600223910835
20
-1.17951405719495
30
0
41
1
10
10.6476107596901
20
-1.15329991325174
30
0
41
1
10
10.6369018265329
20
-1.12536165171076
30
0
41
1
10
10.6270527281555
20
-1.09655273896251
30
0
41
1
10
10.6225446892889
20
-1.08166174276809
30
0
41
1
10
10.6104505253877
20
-1.03597282907063
30
0
41
1
10
10.6044179015372
20
-1.00474765911756
30
0
41
1
10
10.5983109050865
20
-0.956800029636923
30
0
41
1
10
10.5967691492518
20
-0.940631154370806
30
0
41
1
10
10.5946996798992
20
-0.907910846743846
30
0
41
1
10
10.5941800879454
20
-0.891368629710854
30
0
41
1
10
10.5941800879454
20
-0.875
30
0
0
SPLINE
5
137
100
AcDbEntity
8
1
62
256
6
ByLayer
370
18
48
1
60
0
100
AcDbSpline
70
4
71
3
72
81
73
77
40
0
40
0
40
0
40
0
40
0.0078125000000014
40
0.0078125000000014
40
0.0117187500000022
40
0.0117187500000022
40
0.0156250000000029
40
0.0156250000000029
40
0.0175781250000036
40
0.0175781250000036
40
0.0185546875000047
40
0.0185546875000047
40
0.0195312500000057
40
0.0195312500000057
40
0.021484375000006
40
0.021484375000006
40
0.0234375000000063
40
0.0234375000000063
40
0.027343750000006
40
0.027343750000006
40
0.0312500000000056
40
0.0312500000000056
40
0.0390625000000057
40
0.0390625000000057
40
0.0468750000000058
40
0.0468750000000058
40
0.0625000000000061
40
0.0625000000000061
40
0.0937500000000061
40
0.0937500000000061
40
0.125000000000006
40
0.125000000000006
40
0.187500000000006
40
0.187500000000006
40
0.250000000000007
40
0.250000000000007
40
0.375000000000007
40
0.375000000000007
40
0.500000000000007
40
0.625000000000008
40
0.625000000000008
40
0.687500000000008
40
0.687500000000008
40
0.750000000000008
40
0.750000000000008
40
0.812500000000008
40
0.812500000000008
40
0.875000000000008
40
0.875000000000008
40
0.906250000000008
40
0.906250000000008
40
0.937500000000008
40
0.937500000000008
40
0.953125000000009
40
0.953125000000009
40
0.960937500000009
40
0.960937500000009
40
0.968750000000009
40
0.968750000000009
40
0.972656250000008
40
0.972656250000008
40
0.976562500000008
40
0.976562500000008
40
0.978515625000007
40
0.978515625000007
40
0.980468750000007
40
0.980468750000007
40
0.982421875000007
40
0.982421875000007
40
0.984375000000006
40
0.984375000000006
40
0.988281250000005
40
0.988281250000005
40
0.992187500000003
40
0.992187500000003
40
1
40
1
40
1
40
1
41
1
10
-1.91224221525877
20
-0.394519052838348
30
0
41
1
10
-1.92282156572341
20
-0.397533435195697
30
0
41
1
10
-1.93328703299298
20
-0.400792642800013
30
0
41
1
10
-1.94859288445008
20
-0.406516669262459
30
0
41
1
10
-1.95359149055579
20
-0.408552813285269
30
0
41
1
10
-1.96318270865214
20
-0.413077560163515
30
0
41
1
10
-1.96785173654942
20
-0.415569664711199
30
0
41
1
10
-1.97395171242519
20
-0.420048670860751
30
0
41
1
10
-1.97580369573171
20
-0.421646658949015
30
0
41
1
10
-1.97804087537853
20
-0.424340153169822
30
0
41
1
10
-1.97867307625054
20
-0.425265399838054
30
0
41
1
10
-1.97964165466874
20
-0.427187280234904
30
0
41
1
10
-1.97997556416402
20
-0.428196550109391
30
0
41
1
10
-1.98037246688429
20
-0.43117668739427
30
0
41
1
10
-1.97980883341094
20
-0.433156040210008
30
0
41
1
10
-1.97748212350464
20
-0.436651382667122
30
0
41
1
10
-1.97581374795769
20
-0.438152979130422
30
0
41
1
10
-1.97009904328226
20
-0.442195860936522
30
0
41
1
10
-1.9655580550596
20
-0.444199414509057
30
0
41
1
10
-1.95606843466254
20
-0.44772119324756
30
0
41
1
10
-1.95106731633356
20
-0.449203062644983
30
0
41
1
10
-1.93595107519369
20
-0.45314305633795
30
0
41
1
10
-1.92557687187247
20
-0.455151548859874
30
0
41
1
10
-1.9045789202523
20
-0.458657307765151
30
0
41
1
10
-1.89394318274023
20
-0.460129304204259
30
0
41
1
10
-1.86179262627238
20
-0.464054865240968
30
0
41
1
10
-1.84020397899076
20
-0.466007269746626
30
0
41
1
10
-1.77556093947166
20
-0.470916772337659
30
0
41
1
10
-1.73240444053894
20
-0.472937703046796
30
0
41
1
10
-1.64603636785407
20
-0.476023509055125
30
0
41
1
10
-1.60282241164063
20
-0.477033463499424
30
0
41
1
10
-1.47312342215651
20
-0.479215768728096
30
0
41
1
10
-1.38658196181325
20
-0.479556475236905
30
0
41
1
10
-1.21341185681212
20
-0.479476207823097
30
0
41
1
10
-1.12678156308039
20
-0.479017268009557
30
0
41
1
10
-0.866793441191248
20
-0.477269893009009
30
0
41
1
10
-0.693339956070815
20
-0.475647183276322
30
0
41
1
10
-0.346258593410312
20
-0.473375275194542
30
0
41
1
10
0.0010003507703402
20
-0.47200367055919
30
0
41
1
10
0.34857405178758
20
-0.473386319949782
30
0
41
1
10
0.609388405753833
20
-0.475099760634464
30
0
41
1
10
0.696349175854408
20
-0.475776693033907
30
0
41
1
10
0.870323792927167
20
-0.477166899227512
30
0
41
1
10
0.957329148831519
20
-0.477882761325304
30
0
41
1
10
1.13113690460131
20
-0.479041949024122
30
0
41
1
10
1.21796857575396
20
-0.479493958295478
30
0
41
1
10
1.39143454900756
20
-0.479542216888063
30
0
41
1
10
1.47807229819915
20
-0.479177404442254
30
0
41
1
10
1.60778691374301
20
-0.476925497381728
30
0
41
1
10
1.65098443404136
20
-0.475886802092418
30
0
41
1
10
1.73725264988951
20
-0.472719601202726
30
0
41
1
10
1.78025703058955
20
-0.47064578145492
30
0
41
1
10
1.84417449210775
20
-0.465656248769307
30
0
41
1
10
1.86538741092383
20
-0.463682824017269
30
0
41
1
10
1.896922807263
20
-0.459723906732535
30
0
41
1
10
1.90740435871612
20
-0.458233151164734
30
0
41
1
10
1.92812264321614
20
-0.454664943117905
30
0
41
1
10
1.93832423326464
20
-0.452621312482364
30
0
41
1
10
1.9530654260048
20
-0.448616583755751
30
0
41
1
10
1.957886259075
20
-0.447126197110265
30
0
41
1
10
1.96714261473934
20
-0.443496857369752
30
0
41
1
10
1.97155211298312
20
-0.441419320218785
30
0
41
1
10
1.97684146809385
20
-0.437229800282637
30
0
41
1
10
1.9783365049384
20
-0.435660915574715
30
0
41
1
10
1.98016767343336
20
-0.432084882313745
30
0
41
1
10
1.9804197424285
20
-0.430094718808903
30
0
41
1
10
1.97937553127724
20
-0.426188446354047
30
0
41
1
10
1.97814356823218
20
-0.424317649885836
30
0
41
1
10
1.97498510374817
20
-0.420901794091293
30
0
41
1
10
1.97308244679581
20
-0.419356299912835
30
0
41
1
10
1.96692460319255
20
-0.415043395047604
30
0
41
1
10
1.96229755695148
20
-0.412623793809502
30
0
41
1
10
1.95271325741356
20
-0.408182097958019
30
0
41
1
10
1.94779456186376
20
-0.406204007763876
30
0
41
1
10
1.93283786110663
20
-0.400656000617459
30
0
41
1
10
1.92260027365086
20
-0.397470382277845
30
0
41
1
10
1.91224221527577
20
-0.39451905284318
30
0
0
SPLINE
5
138
100
AcDbEntity
8
1
62
256
6
ByLayer
370
18
48
1
60
0
100
AcDbSpline
70
4
71
3
72
17
73
13
40
0
40
0
40
0
40
0
40
0.25
40
0.25
40
0.375
40
0.4375
40
0.4375
40
0.5
40
0.5
40
0.75
40
0.75
40
1
40
1
40
1
40
1
41
1
10
1.91224221527679
20
-0.394519052843464
30
0
41
1
10
1.60159777754356
20
-0.306006897427324
30
0
41
1
10
1.28701472260693
20
-0.236782441218367
30
0
41
1
10
0.808326323249872
20
-0.166313521538967
30
0
41
1
10
0.567279119098828
20
-0.139418800322744
30
0
41
1
10
0.323519502227214
20
-0.12580696443888
30
0
41
1
10
0.160394283177027
20
-0.119762754673957
30
0
41
1
10
0.078362911948318
20
-0.118261377257454
30
0
41
1
10
-0.329727668873488
20
-0.118464900509594
30
0
41
1
10
-0.651754427740201
20
-0.143175179431694
30
0
41
1
10
-1.28776911723094
20
-0.236983023929383
30
0
41
1
10
-1.60176192357355
20
-0.306053667681027
30
0
41
1
10
-1.91224221525877
20
-0.394519052838348
30
0
0
SPLINE
5
139
100
AcDbEntity
8
1
62
256
6
ByLayer
370
18
48
1
60
0
100
AcDbSpline
70
4
71
3
72
8
73
4
40
0
40
0
40
0
40
0
40
1
40
1
40
1
40
1
41
1
10
-14.5615187733781
20
-0.236518773378123
30
0
41
1
10
-14.3513710386801
20
-0.0731431542574228
30
0
41
1
10
-14.1400184018759
20
0.0890594833153955
30
0
41
1
10
-13.9273497265336
20
0.249980947161674
30
0
0
SPLINE
5
13A
100
AcDbEntity
8
1
62
256
6
ByLayer
370
18
48
1
60
0
100
AcDbSpline
70
4
71
3
72
8
73
4
40
0
40
0
40
0
40
0
40
1
40
1
40
1
40
1
41
1
10
-14.5615187733781
20
-0.236518773378123
30
0
41
1
10
-14.7076620247758
20
-0.382662024775755
30
0
41
1
10
-14.8538226741322
20
-0.528822674132243
30
0
41
1
10
-15
20
-0.675000000000011
30
0
0
SPLINE
5
13B
100
AcDbEntity
8
1
62
256
6
ByLayer
370
18
48
1
60
0
100
AcDbSpline
70
4
71
3
72
8
73
4
40
0
40
0
40
0
40
0
40
1
40
1
40
1
40
1
41
1
10
8.29501691354935
20
-0.474999999999994
30
0
41
1
10
8.33799254439344
20
-0.541662508489168
30
0
41
1
10
8.38096551336059
20
-0.608329227881853
30
0
41
1
10
8.42393591949727
20
-0.675000000000011
30
0
0
SPLINE
5
13C
100
AcDbEntity
8
1
62
256
6
ByLayer
370
18
48
1
60
0
100
AcDbSpline
70
4
71
3
72
8
73
4
40
0
40
0
40
0
40
0
40
1
40
1
40
1
40
1
41
1
10
7.22339810906746
20
0.228077676673365
30
0
41
1
10
7.58144296564888
20
-0.0036155475842747
30
0
41
1
10
7.93862268326612
20
-0.23805918139459
30
0
41
1
10
8.29501691354935
20
-0.474999999999994
30
0
0
SPLINE
5
13D
100
AcDbEntity
8
1
62
256
6
ByLayer
370
18
48
1
60
0
100
AcDbSpline
70
4
71
3
72
8
73
4
40
0
40
0
40
0
40
0
40
1
40
1
40
1
40
1
41
1
10
7.22339810906746
20
0.228077676673365
30
0
41
1
10
7.20031272400735
20
0.235407347541752
30
0
41
1
10
7.17721396297489
20
0.242708489291658
30
0
41
1
10
7.15410175340969
20
0.249980947161674
30
0
0
SPLINE
5
13E
100
AcDbEntity
8
1
62
256
6
ByLayer
370
18
48
1
60
0
100
AcDbSpline
70
4
71
3
72
15
73
11
40
0
40
0
40
0
40
0
40
0.125000000000002
40
0.125000000000002
40
0.250000000000003
40
0.250000000000003
40
0.500000000000002
40
0.500000000000002
40
0.750000000000001
40
1
40
1
40
1
40
1
41
1
10
6.74249188881709
20
0.324980947161663
30
0
41
1
10
6.75894873884985
20
0.324980947161606
30
0
41
1
10
6.77561600085537
20
0.3243108537296
30
0
41
1
10
6.80923657125001
20
0.32203588721319
30
0
41
1
10
6.82619211327409
20
0.320424309897248
30
0
41
1
10
6.87739853285686
20
0.314456710978931
30
0
41
1
10
6.91206326724409
20
0.308963148688235
30
0
41
1
10
6.9811820376791
20
0.295791497294829
30
0
41
1
10
7.05032073642869
20
0.280391315152514
30
0
41
1
10
7.11949744310726
20
0.260869494537161
30
0
41
1
10
7.15410175340969
20
0.249980947161959
30
0
0
SPLINE
5
13F
100
AcDbEntity
8
1
62
256
6
ByLayer
370
18
48
1
60
0
100
AcDbSpline
70
4
71
3
72
30
73
26
40
0
40
0
40
0
40
0
40
0.0625000000000001
40
0.0625000000000001
40
0.125
40
0.125
40
0.1875
40
0.1875
40
0.21875
40
0.21875
40
0.25
40
0.25
40
0.312499999999999
40
0.312499999999999
40
0.374999999999998
40
0.374999999999998
40
0.437499999999997
40
0.437499999999997
40
0.499999999999996
40
0.499999999999996
40
0.625000000000002
40
0.625000000000002
40
0.750000000000008
40
0.750000000000008
40
1
40
1
40
1
40
1
41
1
10
6.22292588125003
20
0.249980947131121
30
0
41
1
10
6.21955595240865
20
0.252914908876164
30
0
41
1
10
6.21636758997769
20
0.255939059647659
30
0
41
1
10
6.21051007557585
20
0.262245767396166
30
0
41
1
10
6.20785466491733
20
0.265522644781726
30
0
41
1
10
6.20351609927596
20
0.272168749535751
30
0
41
1
10
6.20179147637555
20
0.275624633340158
30
0
41
1
10
6.20027976527979
20
0.280687054084183
30
0
41
1
10
6.19995012421148
20
0.282353947498052
30
0
41
1
10
6.19966320953691
20
0.285643710974028
30
0
41
1
10
6.19971056995726
20
0.287281667244514
30
0
41
1
10
6.2004140800575
20
0.291948296582604
30
0
41
1
10
6.20160828920962
20
0.294772273174488
30
0
41
1
10
6.20518386142254
20
0.299949113688825
30
0
41
1
10
6.20751976611061
20
0.302231168235778
30
0
41
1
10
6.21287035292437
20
0.30627486682053
30
0
41
1
10
6.21591426295655
20
0.308054038889253
30
0
41
1
10
6.22230861856275
20
0.311160963692004
30
0
41
1
10
6.2256865724155
20
0.312508448027302
30
0
41
1
10
6.2362068230992
20
0.316109021782751
30
0
41
1
10
6.24372854904976
20
0.31792809148601
30
0
41
1
10
6.25939445407607
20
0.320848040210763
30
0
41
1
10
6.26750018480016
20
0.321930725538721
30
0
41
1
10
6.29208157702351
20
0.324377259675799
30
0
41
1
10
6.30895523289027
20
0.324980947161663
30
0
41
1
10
6.32610759209325
20
0.324980947161663
30
0
0
SPLINE
5
140
100
AcDbEntity
8
1
62
256
6
ByLayer
370
18
48
1
60
0
100
AcDbSpline
70
4
71
3
72
8
73
4
40
0
40
0
40
0
40
0
40
1
40
1
40
1
40
1
41
1
10
6.94370199057298
20
-0.394519052838319
30
0
41
1
10
6.70648353684354
20
-0.177135671773783
30
0
41
1
10
6.46649386217231
20
0.0379233125618441
30
0
41
1
10
6.2229258812701
20
0.249980947141125
30
0
0
SPLINE
5
141
100
AcDbEntity
8
1
62
256
6
ByLayer
370
18
48
1
60
0
100
AcDbSpline
70
4
71
3
72
40
73
36
40
0
40
0
40
0
40
0
40
0.249999999999992
40
0.249999999999992
40
0.374999999999988
40
0.374999999999988
40
0.499999999999983
40
0.499999999999983
40
0.562499999999983
40
0.562499999999983
40
0.624999999999983
40
0.624999999999983
40
0.687499999999984
40
0.687499999999984
40
0.749999999999984
40
0.749999999999984
40
0.781249999999982
40
0.781249999999982
40
0.812499999999981
40
0.812499999999981
40
0.84374999999998
40
0.84374999999998
40
0.874999999999979
40
0.874999999999979
40
0.890624999999981
40
0.890624999999981
40
0.906249999999984
40
0.906249999999984
40
0.921874999999986
40
0.921874999999986
40
0.937499999999989
40
0.937499999999989
40
0.968749999999994
40
0.968749999999994
40
1
40
1
40
1
40
1
41
1
10
6.31056345909113
20
-0.394519052838518
30
0
41
1
10
6.37477160274292
20
-0.411379638935813
30
0
41
1
10
6.43873436581833
20
-0.426175341576084
30
0
41
1
10
6.53429778488416
20
-0.445232963789806
30
0
41
1
10
6.56608797546158
20
-0.451051827023463
30
0
41
1
10
6.62952417807892
20
-0.461442125692656
30
0
41
1
10
6.66117064223556
20
-0.466019194826799
30
0
41
1
10
6.70850783880189
20
-0.471655016990979
30
0
41
1
10
6.72426466292015
20
-0.473326678573358
30
0
41
1
10
6.7557261014864
20
-0.476161098836997
30
0
41
1
10
6.77145110599577
20
-0.477324643893013
30
0
41
1
10
6.80250792684535
20
-0.478976540973378
30
0
41
1
10
6.81787500488093
20
-0.479471186456607
30
0
41
1
10
6.84817943934439
20
-0.479560419705763
30
0
41
1
10
6.86312052932414
20
-0.479163283900618
30
0
41
1
10
6.88505053830161
20
-0.477539240813599
30
0
41
1
10
6.8922792992789
20
-0.476824350812876
30
0
41
1
10
6.90651936764425
20
-0.47492561812976
30
0
41
1
10
6.91354439935401
20
-0.473737864933412
30
0
41
1
10
6.92700114264716
20
-0.470750396595264
30
0
41
1
10
6.93346671813322
20
-0.468952428293051
30
0
41
1
10
6.94560309325294
20
-0.464430091165326
30
0
41
1
10
6.9513232003797
20
-0.461676155240184
30
0
41
1
10
6.95851683438016
20
-0.456587871636742
30
0
41
1
10
6.96069380192048
20
-0.454727700184236
30
0
41
1
10
6.96446307291583
20
-0.450572101252135
30
0
41
1
10
6.9660284372105
20
-0.448294122549783
30
0
41
1
10
6.96829725749961
20
-0.443380727673969
30
0
41
1
10
6.96901235433305
20
-0.440690505253485
30
0
41
1
10
6.96943324881519
20
-0.435114089853443
30
0
41
1
10
6.96915785814377
20
-0.432219602519865
30
0
41
1
10
6.96690761888635
20
-0.423224118274902
30
0
41
1
10
6.96353664392529
20
-0.417072710650359
30
0
41
1
10
6.9547696385205
20
-0.405342643436654
30
0
41
1
10
6.94949560394613
20
-0.39982823196766
30
0
41
1
10
6.94370199057298
20
-0.394519052838319
30
0
0
SPLINE
5
142
100
AcDbEntity
8
1
62
256
6
ByLayer
370
18
48
1
60
0
100
AcDbSpline
70
4
71
3
72
8
73
4
40
0
40
0
40
0
40
0
40
1
40
1
40
1
40
1
41
1
10
3.02046224885069
20
0.249980947161674
30
0
41
1
10
4.1359861011274
20
0.107222523982614
30
0
41
1
10
5.23174171602679
20
-0.111228400779481
30
0
41
1
10
6.31056345909118
20
-0.394519052838035
30
0
0
SPLINE
5
143
100
AcDbEntity
8
1
62
256
6
ByLayer
370
18
48
1
60
0
100
AcDbSpline
70
4
71
3
72
14
73
10
40
0
40
0
40
0
40
0
40
0.25
40
0.25
40
0.5
40
0.5
40
0.75
40
0.75
40
1
40
1
40
1
40
1
41
1
10
1.73594520006452
20
0.324980947161691
30
0
41
1
10
1.84309474173762
20
0.324980947161691
30
0
41
1
10
1.95022075456774
20
0.323452236129214
30
0
41
1
10
2.16441448633978
20
0.317526654577222
30
0
41
1
10
2.27148283436821
20
0.313119988055348
30
0
41
1
10
2.48557990191409
20
0.301179376033105
30
0
41
1
10
2.59260836335665
20
0.293649067375753
30
0
41
1
10
2.80666688413962
20
0.274872902970941
30
0
41
1
10
2.91367618098349
20
0.263646823185127
30
0
41
1
10
3.02046224885069
20
0.249980947161873
30
0
0
SPLINE
5
144
100
AcDbEntity
8
1
62
256
6
ByLayer
370
18
48
1
60
0
100
AcDbSpline
70
4
71
3
72
14
73
10
40
0
40
0
40
0
40
0
40
0.25
40
0.25
40
0.5
40
0.5
40
0.75
40
0.75
40
1
40
1
40
1
40
1
41
1
10
-3.02046224885069
20
0.249980947161674
30
0
41
1
10
-2.91364525025705
20
0.263650781524092
30
0
41
1
10
-2.80678930238935
20
0.274859400504965
30
0
41
1
10
-2.5929587792904
20
0.293621089038169
30
0
41
1
10
-2.48598486060513
20
0.301152741664794
30
0
41
1
10
-2.27190023278158
20
0.31310074243703
30
0
41
1
10
-2.16478964220232
20
0.317513647984981
30
0
41
1
10
-1.95042328219981
20
0.323449254272589
30
0
41
1
10
-1.84314979610454
20
0.324980947161777
30
0
41
1
10
-1.73594520006452
20
0.324980947161805
30
0
0
SPLINE
5
145
100
AcDbEntity
8
1
62
256
6
ByLayer
370
18
48
1
60
0
100
AcDbSpline
70
4
71
3
72
8
73
4
40
0
40
0
40
0
40
0
40
1
40
1
40
1
40
1
41
1
10
-6.31056345909118
20
-0.394519052838035
30
0
41
1
10
-5.23174171602679
20
-0.111228400779481
30
0
41
1
10
-4.1359861011274
20
0.107222523982614
30
0
41
1
10
-3.02046224885069
20
0.249980947161674
30
0
0
SPLINE
5
146
100
AcDbEntity
8
1
62
256
6
ByLayer
370
18
48
1
60
0
100
AcDbSpline
70
4
71
3
72
38
73
34
40
0
40
0
40
0
40
0
40
0.0312500000000052
40
0.0312500000000052
40
0.0468750000000062
40
0.0468750000000062
40
0.0625000000000071
40
0.0625000000000071
40
0.0781250000000081
40
0.0781250000000081
40
0.093750000000009
40
0.093750000000009
40
0.125000000000006
40
0.125000000000006
40
0.140625000000004
40
0.140625000000004
40
0.156250000000001
40
0.156250000000001
40
0.187500000000001
40
0.187500000000001
40
0.25
40
0.25
40
0.312499999999999
40
0.312499999999999
40
0.374999999999998
40
0.374999999999998
40
0.499999999999998
40
0.499999999999998
40
0.624999999999999
40
0.624999999999999
40
0.749999999999999
40
0.749999999999999
40
1
40
1
40
1
40
1
41
1
10
-6.94370199056817
20
-0.394519052828656
30
0
41
1
10
-6.9495089607814
20
-0.399840471962022
30
0
41
1
10
-6.95487075364812
20
-0.405468539475009
30
0
41
1
10
-6.96135311380292
20
-0.414155954724294
30
0
41
1
10
-6.96325940255426
20
-0.417097475831469
30
0
41
1
10
-6.96640667043525
20
-0.423099880046607
30
0
41
1
10
-6.96761586971135
20
-0.426116302492147
30
0
41
1
10
-6.96912327073855
20
-0.432023475740436
30
0
41
1
10
-6.96942508964125
20
-0.434972492078259
30
0
41
1
10
-6.96904305703674
20
-0.440519738392709
30
0
41
1
10
-6.96837681671261
20
-0.44313609854143
30
0
41
1
10
-6.96505057587959
20
-0.450546752266519
30
0
41
1
10
-6.96127333729441
20
-0.454550304265439
30
0
41
1
10
-6.95423460305094
20
-0.459654605409497
30
0
41
1
10
-6.9516377138298
20
-0.461207412579711
30
0
41
1
10
-6.9461753105233
20
-0.464004555016857
30
0
41
1
10
-6.94329636121341
20
-0.465259768489347
30
0
41
1
10
-6.9343104346141
20
-0.468687677720766
30
0
41
1
10
-6.92784789140543
20
-0.470525557031891
30
0
41
1
10
-6.90791400683659
20
-0.475054351303299
30
0
41
1
10
-6.89376528286891
20
-0.476844350446214
30
0
41
1
10
-6.86452894475394
20
-0.479103966090861
30
0
41
1
10
-6.8495771870079
20
-0.479534942909794
30
0
41
1
10
-6.81927766291614
20
-0.479502300680736
30
0
41
1
10
-6.8039167291696
20
-0.479030439618185
30
0
41
1
10
-6.75736948056058
20
-0.476614959196013
30
0
41
1
10
-6.72600609437083
20
-0.473707937008868
30
0
41
1
10
-6.66283482364827
20
-0.466246113727465
30
0
41
1
10
-6.63100511188702
20
-0.461668317289963
30
0
41
1
10
-6.56705479949272
20
-0.451225942276523
30
0
41
1
10
-6.53505244750718
20
-0.44537695498147
30
0
41
1
10
-6.43896947048802
20
-0.426235064494222
30
0
41
1
10
-6.37481328661716
20
-0.411390584814342
30
0
41
1
10
-6.31056345909113
20
-0.394519052838348
30
0
0
SPLINE
5
147
100
AcDbEntity
8
1
62
256
6
ByLayer
370
18
48
1
60
0
100
AcDbSpline
70
4
71
3
72
8
73
4
40
0
40
0
40
0
40
0
40
1
40
1
40
1
40
1
41
1
10
-6.2229258812701
20
0.249980947141125
30
0
41
1
10
-6.46649386216939
20
0.0379233125644021
30
0
41
1
10
-6.70648353683777
20
-0.17713567176861
30
0
41
1
10
-6.94370199056442
20
-0.394519052830475
30
0
0
SPLINE
5
148
100
AcDbEntity
8
1
62
256
6
ByLayer
370
18
48
1
60
0
100
AcDbSpline
70
4
71
3
72
28
73
24
40
0
40
0
40
0
40
0
40
0.249999999999986
40
0.249999999999986
40
0.374999999999979
40
0.374999999999979
40
0.499999999999972
40
0.499999999999972
40
0.562499999999975
40
0.562499999999975
40
0.624999999999979
40
0.624999999999979
40
0.687499999999982
40
0.687499999999982
40
0.749999999999986
40
0.749999999999986
40
0.812499999999989
40
0.812499999999989
40
0.874999999999993
40
0.874999999999993
40
0.937499999999996
40
0.937499999999996
40
1
40
1
40
1
40
1
41
1
10
-6.32610759209325
20
0.324980947161663
30
0
41
1
10
-6.30894164051674
20
0.324980947161663
30
0
41
1
10
-6.29206351344484
20
0.324375867069932
30
0
41
1
10
-6.26749588936983
20
0.321930095246671
30
0
41
1
10
-6.2594332674004
20
0.320855188810611
30
0
41
1
10
-6.24369435696326
20
0.317921804204559
30
0
41
1
10
-6.23609002146526
20
0.316080959786547
30
0
41
1
10
-6.22550351037791
20
0.312439632077798
30
0
41
1
10
-6.22210698144582
20
0.311076075105149
30
0
41
1
10
-6.21568609914914
20
0.307929189855884
30
0
41
1
10
-6.21267351534166
20
0.30614672963037
30
0
41
1
10
-6.20738715966201
20
0.302109007415226
30
0
41
1
10
-6.20507139005912
20
0.299823372219606
30
0
41
1
10
-6.20153703134235
20
0.294630037775505
30
0
41
1
10
-6.20034973300679
20
0.291754064168089
30
0
41
1
10
-6.19947715640618
20
0.285483953660503
30
0
41
1
10
-6.19979992398484
20
0.282212586931053
30
0
41
1
10
-6.20188043678124
20
0.275412687019298
30
0
41
1
10
-6.20359999834162
20
0.272014335422199
30
0
41
1
10
-6.20799059239903
20
0.265341649736172
30
0
41
1
10
-6.21065250989122
20
0.262082766471423
30
0
41
1
10
-6.21643658084923
20
0.2558747816623
30
0
41
1
10
-6.21958846278596
20
0.252886604388976
30
0
41
1
10
-6.22292588127033
20
0.249980947140926
30
0
0
SPLINE
5
149
100
AcDbEntity
8
1
62
256
6
ByLayer
370
18
48
1
60
0
100
AcDbSpline
70
4
71
3
72
17
73
13
40
0
40
0
40
0
40
0
40
0.25
40
0.5
40
0.5
40
0.625
40
0.625
40
0.75
40
0.75
40
0.875
40
0.875
40
1
40
1
40
1
40
1
41
1
10
-7.15410175340969
20
0.249980947161816
30
0
41
1
10
-7.11949273474031
20
0.260870976065661
30
0
41
1
10
-7.05026156071182
20
0.280409342926959
30
0
41
1
10
-6.98098651916527
20
0.295834974764006
30
0
41
1
10
-6.92901200463672
20
0.305730156657205
30
0
41
1
10
-6.91168423969094
20
0.308745403149373
30
0
41
1
10
-6.87726105822415
20
0.314112278634411
30
0
41
1
10
-6.8601373246226
20
0.316470394553619
30
0
41
1
10
-6.82609666353446
20
0.320433354681313
30
0
41
1
10
-6.8091790679558
20
0.322040380930361
30
0
41
1
10
-6.77560867949245
20
0.324310745266985
30
0
41
1
10
-6.75895378391422
20
0.324980947161606
30
0
41
1
10
-6.74249188881709
20
0.324980947161663
30
0
0
SPLINE
5
14A
100
AcDbEntity
8
1
62
256
6
ByLayer
370
18
48
1
60
0
100
AcDbSpline
70
4
71
3
72
8
73
4
40
0
40
0
40
0
40
0
40
1
40
1
40
1
40
1
41
1
10
-8.98692851463423
20
-0.394519052838319
30
0
41
1
10
-8.384783437259
20
-0.160922546217108
30
0
41
1
10
-7.77427580892314
20
0.0548377836275904
30
0
41
1
10
-7.15410175340969
20
0.249980947161674
30
0
0
SPLINE
5
14B
100
AcDbEntity
8
1
62
256
6
ByLayer
370
18
48
1
60
0
100
AcDbSpline
70
4
71
3
72
38
73
34
40
0
40
0
40
0
40
0
40
0.0312499999999898
40
0.0312499999999898
40
0.0624999999999797
40
0.0624999999999797
40
0.0937499999999695
40
0.0937499999999695
40
0.124999999999959
40
0.124999999999959
40
0.140624999999957
40
0.140624999999957
40
0.156249999999955
40
0.156249999999955
40
0.187499999999958
40
0.187499999999958
40
0.21874999999996
40
0.21874999999996
40
0.249999999999963
40
0.249999999999963
40
0.312499999999968
40
0.312499999999968
40
0.374999999999973
40
0.374999999999973
40
0.437499999999978
40
0.437499999999978
40
0.499999999999984
40
0.499999999999984
40
0.62499999999999
40
0.62499999999999
40
0.749999999999997
40
0.749999999999997
40
1
40
1
40
1
40
1
41
1
10
-9.39538846339337
20
-0.394519052837154
30
0
41
1
10
-9.39931252043964
20
-0.398885595145714
30
0
41
1
10
-9.40294265258267
20
-0.403307302163142
30
0
41
1
10
-9.40943685546672
20
-0.41229412988929
30
0
41
1
10
-9.41232312472627
20
-0.416909228814092
30
0
41
1
10
-9.41685123823549
20
-0.425966268108198
30
0
41
1
10
-9.41852742540985
20
-0.430476184279087
30
0
41
1
10
-9.42034760074219
20
-0.439106172816139
30
0
41
1
10
-9.42048798744298
20
-0.44314609700092
30
0
41
1
10
-9.41953665683756
20
-0.448791861472614
30
0
41
1
10
-9.41901882100981
20
-0.450615689000983
30
0
41
1
10
-9.41763416504909
20
-0.454029340103233
30
0
41
1
10
-9.41676860092079
20
-0.455629436905042
30
0
41
1
10
-9.41370522919763
20
-0.460142637892375
30
0
41
1
10
-9.41101084625686
20
-0.462790271628421
30
0
41
1
10
-9.40475722197043
20
-0.467329854200074
30
0
41
1
10
-9.40121470148263
20
-0.469229096419326
30
0
41
1
10
-9.39349606281391
20
-0.472464916766313
30
0
41
1
10
-9.38930097964762
20
-0.473801534714227
30
0
41
1
10
-9.37622144042925
20
-0.477070148566497
30
0
41
1
10
-9.36677891891844
20
-0.478317730661246
30
0
41
1
10
-9.34696068021994
20
-0.479621526876542
30
0
41
1
10
-9.33658051127526
20
-0.479660016760334
30
0
41
1
10
-9.31547973767195
20
-0.478868132934792
30
0
41
1
10
-9.30470496885985
20
-0.478037327116795
30
0
41
1
10
-9.28280754864188
20
-0.475708447562795
30
0
41
1
10
-9.27164840317904
20
-0.474201921571563
30
0
41
1
10
-9.23811409009987
20
-0.468915971092088
30
0
41
1
10
-9.21561276810894
20
-0.464384190703157
30
0
41
1
10
-9.17039514074557
20
-0.453877630445248
30
0
41
1
10
-9.14767753970108
20
-0.447892731526878
30
0
41
1
10
-9.07924677772215
20
-0.428095750861701
30
0
41
1
10
-9.0332619564788
20
-0.412493674837833
30
0
41
1
10
-8.98692851463424
20
-0.394519052838433
30
0
0
SPLINE
5
14C
100
AcDbEntity
8
1
62
256
6
ByLayer
370
18
48
1
60
0
100
AcDbSpline
70
4
71
3
72
8
73
4
40
0
40
0
40
0
40
0
40
1
40
1
40
1
40
1
41
1
10
-8.81287846405296
20
0.249980947156075
30
0
41
1
10
-9.0077785167926
20
0.0356424895420275
30
0
41
1
10
-9.20190632438599
20
-0.179219444300429
30
0
41
1
10
-9.3953884633876
20
-0.394519052838319
30
0
0
SPLINE
5
14D
100
AcDbEntity
8
1
62
256
6
ByLayer
370
18
48
1
60
0
100
AcDbSpline
70
4
71
3
72
28
73
24
40
0
40
0
40
0
40
0
40
0.249999999999976
40
0.249999999999976
40
0.374999999999974
40
0.374999999999974
40
0.499999999999971
40
0.499999999999971
40
0.562499999999975
40
0.562499999999975
40
0.624999999999978
40
0.624999999999978
40
0.687499999999982
40
0.687499999999982
40
0.749999999999986
40
0.749999999999986
40
0.812499999999989
40
0.812499999999989
40
0.874999999999993
40
0.874999999999993
40
0.937499999999996
40
0.937499999999996
40
1
40
1
40
1
40
1
41
1
10
-8.86408179867618
20
0.324980947162231
30
0
41
1
10
-8.85129538935948
20
0.32498094716226
30
0
41
1
10
-8.83894481110525
20
0.324132477893784
30
0
41
1
10
-8.82221699514493
20
0.32075719148483
30
0
41
1
10
-8.81692618508805
20
0.319278475547179
30
0
41
1
10
-8.80719346932879
20
0.315274284744561
30
0
41
1
10
-8.80288537420074
20
0.312803317823807
30
0
41
1
10
-8.79764866346821
20
0.308104402530773
30
0
41
1
10
-8.79609940480201
20
0.306352422583785
30
0
41
1
10
-8.79358803963606
20
0.302536520574051
30
0
41
1
10
-8.79261865796582
20
0.30047339121117
30
0
41
1
10
-8.79132427301086
20
0.295998566424203
30
0
41
1
10
-8.79100712746298
20
0.293571945582585
30
0
41
1
10
-8.79108275102195
20
0.288549776175699
30
0
41
1
10
-8.79146539182062
20
0.285933125165428
30
0
41
1
10
-8.79290203059389
20
0.280494627087478
30
0
41
1
10
-8.79395351452457
20
0.277701759323776
30
0
41
1
10
-8.79656638697136
20
0.272147870695989
30
0
41
1
10
-8.79813432448751
20
0.269361345622173
30
0
41
1
10
-8.80171509926663
20
0.263772010194657
30
0
41
1
10
-8.80374131425189
20
0.260953956620313
30
0
41
1
10
-8.80809426650329
20
0.255412160239644
30
0
41
1
10
-8.81042372701619
20
0.25268050799562
30
0
41
1
10
-8.81287846405201
20
0.249980947155791
30
0
0
SPLINE
5
14E
100
AcDbEntity
8
1
62
256
6
ByLayer
370
18
48
1
60
0
100
AcDbSpline
70
4
71
3
72
18
73
14
40
0
40
0
40
0
40
0
40
0.25
40
0.25
40
0.5
40
0.5
40
0.625
40
0.625
40
0.75
40
0.75
40
0.875
40
0.875
40
1
40
1
40
1
40
1
41
1
10
-9.42014604979882
20
0.249980947161674
30
0
41
1
10
-9.39555423460408
20
0.260573449959651
30
0
41
1
10
-9.3709080164588
20
0.270230194328235
30
0
41
1
10
-9.32201317218862
20
0.287558568041931
30
0
41
1
10
-9.29769042100246
20
0.295264739422492
30
0
41
1
10
-9.2614134877624
20
0.305221378626044
30
0
41
1
10
-9.24935609579742
20
0.308270592014935
30
0
41
1
10
-9.22532162877248
20
0.313754324838584
30
0
41
1
10
-9.21330961472535
20
0.316195905728222
30
0
41
1
10
-9.18954659680884
20
0.320303380454163
30
0
41
1
10
-9.17785494091434
20
0.321962244274374
30
0
41
1
10
-9.15494813399802
20
0.324297936899598
30
0
41
1
10
-9.1437298608829
20
0.324980947161151
30
0
41
1
10
-9.13284665392271
20
0.324980947161691
30
0
0
SPLINE
5
14F
100
AcDbEntity
8
1
62
256
6
ByLayer
370
18
48
1
60
0
100
AcDbSpline
70
4
71
3
72
8
73
4
40
0
40
0
40
0
40
0
40
1
40
1
40
1
40
1
41
1
10
-10.8261977204866
20
-0.394519052838319
30
0
41
1
10
-10.3635024894917
20
-0.169886976943701
30
0
41
1
10
-9.89509800998097
20
0.045403532794694
30
0
41
1
10
-9.42014604979882
20
0.249980947161674
30
0
0
SPLINE
5
150
100
AcDbEntity
8
1
62
256
6
ByLayer
370
18
48
1
60
0
100
AcDbSpline
70
4
71
3
72
39
73
35
40
0
40
0
40
0
40
0
40
0.0624999999999838
40
0.0624999999999838
40
0.0937499999999786
40
0.0937499999999786
40
0.124999999999973
40
0.124999999999973
40
0.156249999999968
40
0.156249999999968
40
0.187499999999963
40
0.187499999999963
40
0.218749999999958
40
0.218749999999958
40
0.249999999999952
40
0.281249999999947
40
0.281249999999947
40
0.312499999999942
40
0.312499999999942
40
0.374999999999945
40
0.374999999999945
40
0.437499999999948
40
0.437499999999948
40
0.499999999999951
40
0.499999999999951
40
0.562499999999954
40
0.562499999999954
40
0.624999999999957
40
0.624999999999957
40
0.749999999999971
40
0.749999999999971
40
0.874999999999986
40
0.874999999999986
40
1
40
1
40
1
40
1
41
1
10
-11.1279670839746
20
-0.394519052838319
30
0
41
1
10
-11.1344994067131
20
-0.402327507790147
30
0
41
1
10
-11.1403381258876
20
-0.410305290730918
30
0
41
1
10
-11.147148000852
20
-0.421949799605244
30
0
41
1
10
-11.1491042633321
20
-0.425789142768139
30
0
41
1
10
-11.1522661294609
20
-0.433367252098947
30
0
41
1
10
-11.1534486470362
20
-0.43707126200934
30
0
41
1
10
-11.1548792054188
20
-0.444063384204014
30
0
41
1
10
-11.1551425423024
20
-0.447385299333632
30
0
41
1
10
-11.1547000127545
20
-0.453656662833254
30
0
41
1
10
-11.1540017219895
20
-0.456500109917954
30
0
41
1
10
-11.1517438299298
20
-0.461655824862362
30
0
41
1
10
-11.1501654640366
20
-0.463986118035706
30
0
41
1
10
-11.1462927930953
20
-0.468066856897167
30
0
41
1
10
-11.1417564108312
20
-0.471545769909596
30
0
41
1
10
-11.1361417146117
20
-0.474049581821959
30
0
41
1
10
-11.1300670569308
20
-0.476138633700827
30
0
41
1
10
-11.1267820133678
20
-0.476978430843047
30
0
41
1
10
-11.1164767895555
20
-0.478927144527404
30
0
41
1
10
-11.1090219945275
20
-0.479486703751746
30
0
41
1
10
-11.0932713386151
20
-0.479548725267819
30
0
41
1
10
-11.0849977650711
20
-0.479041057890981
30
0
41
1
10
-11.0681342039558
20
-0.477241484467243
30
0
41
1
10
-11.0594969792525
20
-0.475947166332247
30
0
41
1
10
-11.0418937770116
20
-0.472731225930374
30
0
41
1
10
-11.0329270751786
20
-0.47080817215442
30
0
41
1
10
-11.0147120130597
20
-0.466427265972556
30
0
41
1
10
-11.0054357249662
20
-0.463959959019945
30
0
41
1
10
-10.9775778122249
20
-0.455947419880573
30
0
41
1
10
-10.958882884293
20
-0.449784789803459
30
0
41
1
10
-10.9212952504409
20
-0.436148777585913
30
0
41
1
10
-10.9024018906364
20
-0.428670682946205
30
0
41
1
10
-10.8644350163225
20
-0.412508030361977
30
0
41
1
10
-10.8453613808028
20
-0.403822742416708
30
0
41
1
10
-10.8261977204866
20
-0.394519052838319
30
0
0
SPLINE
5
151
100
AcDbEntity
8
1
62
256
6
ByLayer
370
18
48
1
60
0
100
AcDbSpline
70
4
71
3
72
8
73
4
40
0
40
0
40
0
40
0
40
1
40
1
40
1
40
1
41
1
10
-10.5881465384974
20
0.249980947159912
30
0
41
1
10
-10.7682360652239
20
0.0352414300963915
30
0
41
1
10
-10.9481691234914
20
-0.179596378150762
30
0
41
1
10
-11.1279670839745
20
-0.394519052838319
30
0
0
SPLINE
5
152
100
AcDbEntity
8
1
62
256
6
ByLayer
370
18
48
1
60
0
100
AcDbSpline
70
4
71
3
72
22
73
18
40
0
40
0
40
0
40
0
40
0.125
40
0.125
40
0.25
40
0.25
40
0.375
40
0.375
40
0.5
40
0.5
40
0.625
40
0.625
40
0.75
40
0.75
40
0.875
40
0.875
40
1
40
1
40
1
40
1
41
1
10
-10.6124575382183
20
0.324980947163198
30
0
41
1
10
-10.6072496942067
20
0.324980947163254
30
0
41
1
10
-10.6022321565404
20
0.32471243842005
30
0
41
1
10
-10.5926877142222
20
0.323486343691656
30
0
41
1
10
-10.5882140101569
20
0.322533301974119
30
0
41
1
10
-10.5801191826616
20
0.319788199103215
30
0
41
1
10
-10.5764671398953
20
0.317988035234293
30
0
41
1
10
-10.5703512144501
20
0.313281206584975
30
0
41
1
10
-10.5679631001511
20
0.310436416643597
30
0
41
1
10
-10.5648541823852
20
0.303528393936119
30
0
41
1
10
-10.5642045954565
20
0.299573635406631
30
0
41
1
10
-10.5647901952416
20
0.290809930744786
30
0
41
1
10
-10.5660666715437
20
0.285914845664848
30
0
41
1
10
-10.5701679829123
20
0.275969703602755
30
0
41
1
10
-10.572985089628
20
0.27083784852482
30
0
41
1
10
-10.5798645746344
20
0.260343891665031
30
0
41
1
10
-10.5838159736942
20
0.255144731035841
30
0
41
1
10
-10.588146538497
20
0.249980947159855
30
0
0
SPLINE
5
153
100
AcDbEntity
8
1
62
256
6
ByLayer
370
18
48
1
60
0
100
AcDbSpline
70
4
71
3
72
18
73
14
40
0
40
0
40
0
40
0
40
0.24999999999999
40
0.24999999999999
40
0.374999999999989
40
0.374999999999989
40
0.499999999999988
40
0.499999999999988
40
0.749999999999986
40
0.749999999999986
40
0.874999999999993
40
0.874999999999993
40
1
40
1
40
1
40
1
41
1
10
-11.0361737618139
20
0.249980947161674
30
0
41
1
10
-11.0164600587409
20
0.260339148990965
30
0
41
1
10
-10.9967579988524
20
0.269872232720218
30
0
41
1
10
-10.9672176050399
20
0.282909900397783
30
0
41
1
10
-10.9573700935551
20
0.28704319003694
30
0
41
1
10
-10.9378759446479
20
0.294780090670855
30
0
41
1
10
-10.9282051094205
20
0.298394950509135
30
0
41
1
10
-10.8994387758157
20
0.308419743129093
30
0
41
1
10
-10.8805796347571
20
0.314041022539698
30
0
41
1
10
-10.8529592725556
20
0.320261231068514
30
0
41
1
10
-10.8438730220196
20
0.321952441620653
30
0
41
1
10
-10.8264247732998
20
0.324303802427465
30
0
41
1
10
-10.8180111708273
20
0.324980947160952
30
0
41
1
10
-10.8100221617362
20
0.324980947161663
30
0
0
SPLINE
5
154
100
AcDbEntity
8
1
62
256
6
ByLayer
370
18
48
1
60
0
100
AcDbSpline
70
4
71
3
72
8
73
4
40
0
40
0
40
0
40
0
40
1
40
1
40
1
40
1
41
1
10
-12.21262584537
20
-0.394519052838319
30
0
41
1
10
-11.8249154221808
20
-0.173606852417663
30
0
41
1
10
-11.4329616463351
20
0.0414960685943413
30
0
41
1
10
-11.0361737618139
20
0.249980947161674
30
0
0
SPLINE
5
155
100
AcDbEntity
8
1
62
256
6
ByLayer
370
18
48
1
60
0
100
AcDbSpline
70
4
71
3
72
34
73
30
40
0
40
0
40
0
40
0
40
0.0624999999999971
40
0.0624999999999971
40
0.0937499999999958
40
0.0937499999999958
40
0.124999999999994
40
0.124999999999994
40
0.187499999999999
40
0.187499999999999
40
0.250000000000004
40
0.250000000000004
40
0.281250000000007
40
0.281250000000007
40
0.312500000000011
40
0.312500000000011
40
0.375000000000013
40
0.375000000000013
40
0.500000000000013
40
0.500000000000013
40
0.562500000000012
40
0.562500000000012
40
0.625000000000011
40
0.625000000000011
40
0.750000000000008
40
0.750000000000008
40
0.875000000000004
40
0.875000000000004
40
1
40
1
40
1
40
1
41
1
10
-12.4454802424852
20
-0.394519052838319
30
0
41
1
10
-12.4513585152093
20
-0.401708771010675
30
0
41
1
10
-12.4567374379799
20
-0.408956814071246
30
0
41
1
10
-12.4635248995896
20
-0.419510621874593
30
0
41
1
10
-12.4655825007594
20
-0.422985527209846
30
0
41
1
10
-12.4692288824021
20
-0.429837099363681
30
0
41
1
10
-12.470827460083
20
-0.433240182207101
30
0
41
1
10
-12.4747089449443
20
-0.443053990405275
30
0
41
1
10
-12.4760958204851
20
-0.449081203462839
30
0
41
1
10
-12.4761223246412
20
-0.459769092372454
30
0
41
1
10
-12.4747761141799
20
-0.464180222176765
30
0
41
1
10
-12.4709433497243
20
-0.469557994706776
30
0
41
1
10
-12.4693513853986
20
-0.471142526978696
30
0
41
1
10
-12.4657065335108
20
-0.473834537101368
30
0
41
1
10
-12.4636450953421
20
-0.47495820558143
30
0
41
1
10
-12.4568329303758
20
-0.477746501187454
30
0
41
1
10
-12.4514152534257
20
-0.478821439948945
30
0
41
1
10
-12.4339597259438
20
-0.480156666608053
30
0
41
1
10
-12.4205497597282
20
-0.478701530894455
30
0
41
1
10
-12.3987563531804
20
-0.474318017873884
30
0
41
1
10
-12.3912507161594
20
-0.47248177544077
30
0
41
1
10
-12.3760079072084
20
-0.46823433620375
30
0
41
1
10
-12.3682424193965
20
-0.465816634568256
30
0
41
1
10
-12.3445735365322
20
-0.457805604881315
30
0
41
1
10
-12.3282608368064
20
-0.451436957631131
30
0
41
1
10
-12.2956045495882
20
-0.437386982382037
30
0
41
1
10
-12.2791555920721
20
-0.42966862177019
30
0
41
1
10
-12.2460474242468
20
-0.413010889696807
30
0
41
1
10
-12.2293879167132
20
-0.404069856331262
30
0
41
1
10
-12.21262584537
20
-0.394519052838319
30
0
0
SPLINE
5
156
100
AcDbEntity
8
1
62
256
6
ByLayer
370
18
48
1
60
0
100
AcDbSpline
70
4
71
3
72
8
73
4
40
0
40
0
40
0
40
0
40
1
40
1
40
1
40
1
41
1
10
-11.9185094462047
20
0.249980947160964
30
0
41
1
10
-12.0941736247425
20
0.0351520577178803
30
0
41
1
10
-12.2698302504261
20
-0.179681463779445
30
0
41
1
10
-12.4454802424852
20
-0.394519052838319
30
0
0
SPLINE
5
157
100
AcDbEntity
8
1
62
256
6
ByLayer
370
18
48
1
60
0
100
AcDbSpline
70
4
71
3
72
24
73
20
40
0
40
0
40
0
40
0
40
0.124999999999999
40
0.124999999999999
40
0.249999999999999
40
0.249999999999999
40
0.374999999999998
40
0.374999999999998
40
0.499999999999998
40
0.499999999999998
40
0.624999999999997
40
0.624999999999997
40
0.687499999999994
40
0.687499999999994
40
0.749999999999991
40
0.749999999999991
40
0.874999999999996
40
0.874999999999996
40
1
40
1
40
1
40
1
41
1
10
-11.9237814416149
20
0.324980947161691
30
0
41
1
10
-11.9194457489922
20
0.324980947161691
30
0
41
1
10
-11.9153564824701
20
0.32465661851694
30
0
41
1
10
-11.9079485979119
20
0.323240679223716
30
0
41
1
10
-11.9046064730613
20
0.32215189995452
30
0
41
1
10
-11.8988364705386
20
0.3190154121788
30
0
41
1
10
-11.8964381114455
20
0.31696313099431
30
0
41
1
10
-11.8929836812652
20
0.311879900363635
30
0
41
1
10
-11.8919008982491
20
0.30877759856898
30
0
41
1
10
-11.891274090198
20
0.301756712238841
30
0
41
1
10
-11.8916984067637
20
0.297837448784492
30
0
41
1
10
-11.8934309418025
20
0.291353045960363
30
0
41
1
10
-11.8941940114109
20
0.289092391428142
30
0
41
1
10
-11.8960240148196
20
0.284507876358191
30
0
41
1
10
-11.8970946969525
20
0.282167946486851
30
0
41
1
10
-11.9007316163329
20
0.275018276597791
30
0
41
1
10
-11.9037537286027
20
0.270033424617793
30
0
41
1
10
-11.9105940690077
20
0.260025649179823
30
0
41
1
10
-11.9143984087425
20
0.255008549371979
30
0
41
1
10
-11.9185094462045
20
0.249980947160964
30
0
0
SPLINE
5
158
100
AcDbEntity
8
1
62
256
6
ByLayer
370
18
48
1
60
0
100
AcDbSpline
70
4
71
3
72
18
73
14
40
0
40
0
40
0
40
0
40
0.249999999999999
40
0.249999999999999
40
0.375000000000007
40
0.375000000000007
40
0.500000000000016
40
0.500000000000016
40
0.750000000000016
40
0.750000000000016
40
0.875000000000008
40
0.875000000000008
40
1
40
1
40
1
40
1
41
1
10
-12.2619374897427
20
0.249980947161674
30
0
41
1
10
-12.245175409905
20
0.260187306071543
30
0
41
1
10
-12.2284787618341
20
0.26964953894975
30
0
41
1
10
-12.2035319977382
20
0.282666955587615
30
0
41
1
10
-12.1952158399689
20
0.286815352002606
30
0
41
1
10
-12.1788139447434
20
0.294590398040555
30
0
41
1
10
-12.1707074902565
20
0.298228829183756
30
0
41
1
10
-12.1466956039985
20
0.308331973172614
30
0
41
1
10
-12.1310821815718
20
0.314018794774057
30
0
41
1
10
-12.1085189695399
20
0.320307354028273
30
0
41
1
10
-12.1012908516913
20
0.321980394436167
30
0
41
1
10
-12.0875370462495
20
0.324314999120048
30
0
41
1
10
-12.081008255091
20
0.324980947161094
30
0
41
1
10
-12.0749439034001
20
0.324980947161691
30
0
0
SPLINE
5
159
100
AcDbEntity
8
1
62
256
6
ByLayer
370
18
48
1
60
0
100
AcDbSpline
70
4
71
3
72
8
73
4
40
0
40
0
40
0
40
0
40
1
40
1
40
1
40
1
41
1
10
-13.2887133686798
20
-0.394519052838319
30
0
41
1
10
-12.9498764087536
20
-0.175597332640279
30
0
41
1
10
-12.6077628641245
20
0.0394093519147987
30
0
41
1
10
-12.2619374897427
20
0.249980947161674
30
0
0
SPLINE
5
15A
100
AcDbEntity
8
1
62
256
6
ByLayer
370
18
48
1
60
0
100
AcDbSpline
70
4
71
3
72
38
73
34
40
0
40
0
40
0
40
0
40
0.0625000000000038
40
0.0625000000000038
40
0.125000000000008
40
0.125000000000008
40
0.156250000000012
40
0.156250000000012
40
0.187500000000016
40
0.187500000000016
40
0.250000000000023
40
0.250000000000023
40
0.281250000000032
40
0.281250000000032
40
0.312500000000042
40
0.312500000000042
40
0.375000000000046
40
0.375000000000046
40
0.406250000000051
40
0.406250000000051
40
0.437500000000056
40
0.437500000000056
40
0.50000000000005
40
0.50000000000005
40
0.562500000000044
40
0.562500000000044
40
0.625000000000037
40
0.625000000000037
40
0.750000000000025
40
0.750000000000025
40
0.875000000000012
40
0.875000000000012
40
1
40
1
40
1
40
1
41
1
10
-13.4702748862137
20
-0.394519052838319
30
0
41
1
10
-13.4757943146983
20
-0.401252651663839
30
0
41
1
10
-13.4809501781441
20
-0.407998820378509
30
0
41
1
10
-13.4900398258229
20
-0.421090866571319
30
0
41
1
10
-13.4939949832354
20
-0.427453269472068
30
0
41
1
10
-13.4988176392413
20
-0.436652706244104
30
0
41
1
10
-13.5002379631945
20
-0.439666430659713
30
0
41
1
10
-13.5025893474109
20
-0.445402644548608
30
0
41
1
10
-13.503532127041
20
-0.448145570507194
30
0
41
1
10
-13.5056210814371
20
-0.455977741753941
30
0
41
1
10
-13.5059946892605
20
-0.460690215559282
30
0
41
1
10
-13.5049704660338
20
-0.466476927786175
30
0
41
1
10
-13.5043739139206
20
-0.468214962997223
30
0
41
1
10
-13.5026851457819
20
-0.471320945690934
30
0
41
1
10
-13.5015835740844
20
-0.472696292951213
30
0
41
1
10
-13.4976100463298
20
-0.476217282345146
30
0
41
1
10
-13.4941255566638
20
-0.477748652573382
30
0
41
1
10
-13.4878873439799
20
-0.479061483870908
30
0
41
1
10
-13.4856250849188
20
-0.47933332242323
30
0
41
1
10
-13.4808583852177
20
-0.479567589455002
30
0
41
1
10
-13.4783549901368
20
-0.479532351315839
30
0
41
1
10
-13.470530542591
20
-0.479028435196653
30
0
41
1
10
-13.4648977094209
20
-0.478164746212002
30
0
41
1
10
-13.4529523427325
20
-0.475578705664162
30
0
41
1
10
-13.4466202325066
20
-0.473845750572934
30
0
41
1
10
-13.433645567981
20
-0.469730324423097
30
0
41
1
10
-13.4269699921963
20
-0.467341554080946
30
0
41
1
10
-13.4064644692924
20
-0.459334429025461
30
0
41
1
10
-13.3920697914073
20
-0.452832519259857
30
0
41
1
10
-13.3631049887933
20
-0.438446193463477
30
0
41
1
10
-13.3484408250735
20
-0.430527273477111
30
0
41
1
10
-13.3188052716474
20
-0.413449436874572
30
0
41
1
10
-13.3038332306426
20
-0.4042879581867
30
0
41
1
10
-13.2887133686798
20
-0.394519052838348
30
0
0
SPLINE
5
15B
100
AcDbEntity
8
1
62
256
6
ByLayer
370
18
48
1
60
0
100
AcDbSpline
70
4
71
3
72
8
73
4
40
0
40
0
40
0
40
0
40
1
40
1
40
1
40
1
41
1
10
-12.941904331197
20
0.249980947161362
30
0
41
1
10
-13.1180471579123
20
0.0351594867746314
30
0
41
1
10
-13.2941699218972
20
-0.179674312264069
30
0
41
1
10
-13.4702748862137
20
-0.394519052838319
30
0
0
SPLINE
5
15C
100
AcDbEntity
8
1
62
256
6
ByLayer
370
18
48
1
60
0
100
AcDbSpline
70
4
71
3
72
23
73
19
40
0
40
0
40
0
40
0
40
0.124999999999999
40
0.124999999999999
40
0.249999999999998
40
0.249999999999998
40
0.374999999999996
40
0.374999999999996
40
0.499999999999995
40
0.562499999999996
40
0.562499999999996
40
0.624999999999996
40
0.624999999999996
40
0.749999999999998
40
0.749999999999998
40
0.874999999999999
40
0.874999999999999
40
1
40
1
40
1
40
1
41
1
10
-12.9317003032968
20
0.324980947161777
30
0
41
1
10
-12.9281546626962
20
0.324980947161777
30
0
41
1
10
-12.9249370215665
20
0.324620114170159
30
0
41
1
10
-12.9192871440886
20
0.32303667882033
30
0
41
1
10
-12.9168431622451
20
0.321793174571212
30
0
41
1
10
-12.9130939065335
20
0.318369971001488
30
0
41
1
10
-12.9117605960214
20
0.316192959110282
30
0
41
1
10
-12.9103315847485
20
0.310777985080392
30
0
41
1
10
-12.9102338827602
20
0.306085646339625
30
0
41
1
10
-12.9115299156306
20
0.300494947426273
30
0
41
1
10
-12.9127048890145
20
0.296567433923769
30
0
41
1
10
-12.9134525305583
20
0.294494826399216
30
0
41
1
10
-12.9160876840443
20
0.288143993684287
30
0
41
1
10
-12.9183740783399
20
0.283688995222491
30
0
41
1
10
-12.9238503710631
20
0.274403028467305
30
0
41
1
10
-12.9270609615909
20
0.26955094003489
30
0
41
1
10
-12.9340500009027
20
0.259832030827397
30
0
41
1
10
-12.9378497028419
20
0.254925918244197
30
0
41
1
10
-12.9419043311969
20
0.249980947161362
30
0
0
SPLINE
5
15D
100
AcDbEntity
8
1
62
256
6
ByLayer
370
18
48
1
60
0
100
AcDbSpline
70
4
71
3
72
18
73
14
40
0
40
0
40
0
40
0
40
0.250000000000005
40
0.250000000000005
40
0.375000000000006
40
0.375000000000006
40
0.500000000000006
40
0.500000000000006
40
0.750000000000007
40
0.750000000000007
40
0.875000000000004
40
0.875000000000004
40
1
40
1
40
1
40
1
41
1
10
-13.2065548385552
20
0.249980947161674
30
0
41
1
10
-13.1918683483694
20
0.260045199607333
30
0
41
1
10
-13.1773484039918
20
0.269403809868607
30
0
41
1
10
-13.1558285169502
20
0.282316542817881
30
0
41
1
10
-13.1486989674189
20
0.286431559643603
30
0
41
1
10
-13.1345354389663
20
0.29424506725934
30
0
41
1
10
-13.1274676194249
20
0.297960016390789
30
0
41
1
10
-13.1067398789887
20
0.308231131630805
30
0
41
1
10
-13.0935302985871
20
0.313958174179788
30
0
41
1
10
-13.0749605537727
20
0.320259096726829
30
0
41
1
10
-13.0689460777358
20
0.321974818101211
30
0
41
1
10
-13.0578276924747
20
0.324325815519529
30
0
41
1
10
-13.0526835673824
20
0.324980947168598
30
0
41
1
10
-13.0480635116142
20
0.324980947169223
30
0
0
SPLINE
5
15E
100
AcDbEntity
8
1
62
256
6
ByLayer
370
18
48
1
60
0
100
AcDbSpline
70
4
71
3
72
8
73
4
40
0
40
0
40
0
40
0
40
1
40
1
40
1
40
1
41
1
10
-14.1255646241437
20
-0.394519052838319
30
0
41
1
10
-13.8219161595784
20
-0.176810910131763
30
0
41
1
10
-13.5156891436444
20
0.0381396122572539
30
0
41
1
10
-13.2065548385552
20
0.249980947161674
30
0
0
SPLINE
5
15F
100
AcDbEntity
8
1
62
256
6
ByLayer
370
18
48
1
60
0
100
AcDbSpline
70
4
71
3
72
36
73
32
40
0
40
0
40
0
40
0
40
0.0624999999999994
40
0.0624999999999994
40
0.124999999999999
40
0.124999999999999
40
0.187499999999999
40
0.187499999999999
40
0.218749999999998
40
0.218749999999998
40
0.249999999999998
40
0.249999999999998
40
0.312499999999998
40
0.312499999999998
40
0.374999999999997
40
0.374999999999997
40
0.437499999999997
40
0.437499999999997
40
0.499999999999997
40
0.499999999999997
40
0.562499999999996
40
0.562499999999996
40
0.624999999999996
40
0.624999999999996
40
0.687499999999995
40
0.687499999999995
40
0.749999999999995
40
0.749999999999995
40
0.874999999999997
40
0.874999999999997
40
1
40
1
40
1
40
1
41
1
10
-14.2655750866984
20
-0.394519052838319
30
0
41
1
10
-14.2709152318049
20
-0.400916772801736
30
0
41
1
10
-14.275978382755
20
-0.407293077501066
30
0
41
1
10
-14.2851987194409
20
-0.41968620333094
30
0
41
1
10
-14.2893548863108
20
-0.4256951480927
30
0
41
1
10
-14.2965819676909
20
-0.437266289211095
30
0
41
1
10
-14.2996681948549
20
-0.442875980593413
30
0
41
1
10
-14.303108097956
20
-0.450518030421819
30
0
41
1
10
-14.3040654324165
20
-0.452948725894231
30
0
41
1
10
-14.3055769996615
20
-0.457562174581426
30
0
41
1
10
-14.3061330482862
20
-0.459758935437492
30
0
41
1
10
-14.3071284482325
20
-0.465834428936034
30
0
41
1
10
-14.3069086232189
20
-0.469181053338957
30
0
41
1
10
-14.3047638284419
20
-0.474520523657986
30
0
41
1
10
-14.3028010571971
20
-0.476498487128254
30
0
41
1
10
-14.2974997750462
20
-0.478992735534973
30
0
41
1
10
-14.2941373580524
20
-0.4795548484297
30
0
41
1
10
-14.2862625152793
20
-0.479479731271681
30
0
41
1
10
-14.2818410972795
20
-0.478850703577962
30
0
41
1
10
-14.2722259261514
20
-0.476650936816839
30
0
41
1
10
-14.2670211051816
20
-0.475074458444681
30
0
41
1
10
-14.2559794178474
20
-0.471119640285877
30
0
41
1
10
-14.2502293710657
20
-0.468773718754022
30
0
41
1
10
-14.2383514182247
20
-0.463474796430233
30
0
41
1
10
-14.2322228540822
20
-0.460520725310033
30
0
41
1
10
-14.2196336197054
20
-0.454078795623701
30
0
41
1
10
-14.2131449243124
20
-0.450573991117722
30
0
41
1
10
-14.1935390957799
20
-0.439506751248615
30
0
41
1
10
-14.1802225014732
20
-0.431373754650593
30
0
41
1
10
-14.1531891256639
20
-0.413867112124933
30
0
41
1
10
-14.1394710770359
20
-0.404489622046128
30
0
41
1
10
-14.1255646241437
20
-0.394519052838348
30
0
0
SPLINE
5
160
100
AcDbEntity
8
1
62
256
6
ByLayer
370
18
48
1
60
0
100
AcDbSpline
70
4
71
3
72
8
73
4
40
0
40
0
40
0
40
0
40
1
40
1
40
1
40
1
41
1
10
-13.7271595028412
20
0.249980947161504
30
0
41
1
10
-13.9067347108406
20
0.035212365746446
30
0
41
1
10
-14.0862027304346
20
-0.179623374600055
30
0
41
1
10
-14.2655750866984
20
-0.394519052838319
30
0
0
SPLINE
5
161
100
AcDbEntity
8
1
62
256
6
ByLayer
370
18
48
1
60
0
100
AcDbSpline
70
4
71
3
72
22
73
18
40
0
40
0
40
0
40
0
40
0.125
40
0.125
40
0.25
40
0.25
40
0.375
40
0.375
40
0.5
40
0.5
40
0.625
40
0.625
40
0.75
40
0.75
40
0.875
40
0.875
40
1
40
1
40
1
40
1
41
1
10
-13.7033273915928
20
0.32498094716172
30
0
41
1
10
-13.7004864228397
20
0.32498094716172
30
0
41
1
10
-13.6980030233289
20
0.32457223002757
30
0
41
1
10
-13.6939679064125
20
0.322810804878514
30
0
41
1
10
-13.6924447562857
20
0.321476351282854
30
0
41
1
10
-13.690469285274
20
0.317827037319773
30
0
41
1
10
-13.6900300661806
20
0.31547687530076
30
0
41
1
10
-13.6903199496591
20
0.309978932734424
30
0
41
1
10
-13.6910284293275
20
0.306819145366916
30
0
41
1
10
-13.6935353207013
20
0.299707252978664
30
0
41
1
10
-13.6953495169543
20
0.295745119604987
30
0
41
1
10
-13.699812285762
20
0.287456554264992
30
0
41
1
10
-13.7024739620712
20
0.283086608544551
30
0
41
1
10
-13.7085556247414
20
0.273950228042338
30
0
41
1
10
-13.711950430119
20
0.269226009096116
30
0
41
1
10
-13.719197862038
20
0.259701365260099
30
0
41
1
10
-13.7230711169545
20
0.254870580017553
30
0
41
1
10
-13.7271595028412
20
0.249980947161504
30
0
0
SPLINE
5
162
100
AcDbEntity
8
1
62
256
6
ByLayer
370
18
48
1
60
0
100
AcDbSpline
70
4
71
3
72
16
73
12
40
0
40
0
40
0
40
0
40
0.250000000000002
40
0.250000000000002
40
0.500000000000005
40
0.500000000000005
40
0.750000000000007
40
0.750000000000007
40
0.875000000000004
40
0.875000000000004
40
1
40
1
40
1
40
1
41
1
10
-13.9273497265336
20
0.249980947161674
30
0
41
1
10
-13.9141383585476
20
0.259977683504246
30
0
41
1
10
-13.9010856072335
20
0.269365680292765
30
0
41
1
10
-13.8756867854771
20
0.286560850671492
30
0
41
1
10
-13.8632846302391
20
0.294416067556767
30
0
41
1
10
-13.8392323105369
20
0.308231113448897
30
0
41
1
10
-13.8279050504171
20
0.314006523917868
30
0
41
1
10
-13.8124983254929
20
0.320301845067462
30
0
41
1
10
-13.8075818891419
20
0.322012470654755
30
0
41
1
10
-13.7987038822678
20
0.3243439697697
30
0
41
1
10
-13.7947211231747
20
0.324980947163425
30
0
41
1
10
-13.7912890092361
20
0.324980947163624
30
0
0
SPLINE
5
163
100
AcDbEntity
8
1
62
256
6
ByLayer
370
18
48
1
60
0
100
AcDbSpline
70
4
71
3
72
20
73
16
40
0
40
0
40
0
40
0
40
0.250000000000001
40
0.250000000000001
40
0.500000000000002
40
0.500000000000002
40
0.625000000000002
40
0.625000000000002
40
0.750000000000001
40
0.750000000000001
40
0.875000000000001
40
0.875000000000001
40
0.937500000000001
40
0.937500000000001
40
1
40
1
40
1
40
1
41
1
10
-15
20
-1.09294494717704
30
0
41
1
10
-15
20
-1.07962073585617
30
0
41
1
10
-15
20
-1.06542217995721
30
0
41
1
10
-15
20
-1.03456019396592
30
0
41
1
10
-15
20
-1.0178086732914
30
0
41
1
10
-15
20
-0.990779268346927
30
0
41
1
10
-15
20
-0.981426829848942
30
0
41
1
10
-15
20
-0.961872540571392
30
0
41
1
10
-15
20
-0.951581617805772
30
0
41
1
10
-15
20
-0.930529261157091
30
0
41
1
10
-15
20
-0.919747857907851
30
0
41
1
10
-15
20
-0.903136613087668
30
0
41
1
10
-15
20
-0.897495605869807
30
0
41
1
10
-15
20
-0.886227696855997
30
0
41
1
10
-15
20
-0.880607215885561
30
0
41
1
10
-15
20
-0.875
30
0
0
SPLINE
5
164
100
AcDbEntity
8
1
62
256
6
ByLayer
370
18
48
1
60
0
100
AcDbSpline
70
4
71
3
72
13
73
9
40
0
40
0
40
0
40
0
40
0.499999999999998
40
0.499999999999998
40
0.624999999999998
40
0.624999999999998
40
0.749999999999999
40
1
40
1
40
1
40
1
41
1
10
9.82447086320516
20
-0.874999999999602
30
0
41
1
10
9.82447086320514
20
-0.908987190641994
30
0
41
1
10
9.82666111358219
20
-0.94275451146811
30
0
41
1
10
9.83220136856991
20
-0.984682337398482
30
0
41
1
10
9.83345500989176
20
-0.993075191322248
30
0
41
1
10
9.83622180364483
20
-1.00965880621536
30
0
41
1
10
9.84076500028272
20
-1.03427297115121
30
0
41
1
10
9.84646206599211
20
-1.05812008206854
30
0
41
1
10
9.85076599721123
20
-1.07368185878309
30
0
0
SPLINE
5
165
100
AcDbEntity
8
1
62
256
6
ByLayer
370
18
48
1
60
0
100
AcDbSpline
70
4
71
3
72
26
73
22
40
0
40
0
40
0
40
0
40
0.0625
40
0.0625
40
0.125
40
0.125
40
0.25
40
0.25
40
0.375
40
0.375
40
0.5
40
0.5
40
0.75
40
0.75
40
0.8125
40
0.8125
40
0.84375
40
0.84375
40
0.875
40
0.875
40
1
40
1
40
1
40
1
41
1
10
0
20
-1.09294494717704
30
0
41
1
10
0.0798615061981423
20
-1.09294494717704
30
0
41
1
10
0.159774363699597
20
-1.09418805527122
30
0
41
1
10
0.31969693270085
20
-1.09901890502678
30
0
41
1
10
0.399749988067498
20
-1.10260550904388
30
0
41
1
10
0.639631382539051
20
-1.11627509243578
30
0
41
1
10
0.799204148954971
20
-1.12923453082303
30
0
41
1
10
1.11800182548021
20
-1.15899639959054
30
0
41
1
10
1.27722899968975
20
-1.17577381700173
30
0
41
1
10
1.59560357042369
20
-1.21021000714069
30
0
41
1
10
1.75474950260408
20
-1.22788495741705
30
0
41
1
10
2.23233478291988
20
-1.27928046028188
30
0
41
1
10
2.55092030470416
20
-1.31138613870661
30
0
41
1
10
2.95008484346241
20
-1.34121480212659
30
0
41
1
10
3.02996429579406
20
-1.34666632694675
30
0
41
1
10
3.1498673134349
20
-1.35391738932401
30
0
41
1
10
3.18992183086647
20
-1.35618341463495
30
0
41
1
10
3.26956516787257
20
-1.36035344049768
30
0
41
1
10
3.3093884139609
20
-1.36227063710794
30
0
41
1
10
3.50851321889621
20
-1.37094450465955
30
0
41
1
10
3.66784017059436
20
-1.375
30
0
41
1
10
3.82720524665191
20
-1.375
30
0
0
SPLINE
5
166
100
AcDbEntity
8
1
62
256
6
ByLayer
370
18
48
1
60
0
100
AcDbSpline
70
4
71
3
72
24
73
20
40
0
40
0
40
0
40
0
40
0.0625
40
0.0625
40
0.125
40
0.125
40
0.25
40
0.25
40
0.5
40
0.5
40
0.625
40
0.625
40
0.75
40
0.75
40
0.875
40
0.875
40
0.9375
40
0.9375
40
1
40
1
40
1
40
1
41
1
10
8.18325005084313
20
-1.375
30
0
41
1
10
8.21853700027165
20
-1.37500000000014
30
0
41
1
10
8.25383026963328
20
-1.37448212281282
30
0
41
1
10
8.32428466057075
20
-1.37250726085432
30
0
41
1
10
8.35946861218784
20
-1.37105019673194
30
0
41
1
10
8.46490157827952
20
-1.36538785892685
30
0
41
1
10
8.53503222804693
20
-1.35989713107367
30
0
41
1
10
8.74501392661978
20
-1.33896957797444
30
0
41
1
10
8.88446138808337
20
-1.31914974833532
30
0
41
1
10
9.09294013897738
20
-1.28190001265941
30
0
41
1
10
9.16231608694974
20
-1.26821313755272
30
0
41
1
10
9.30082849752571
20
-1.2382385490213
30
0
41
1
10
9.36996572421097
20
-1.22195913360994
30
0
41
1
10
9.507964771584
20
-1.18640936235906
30
0
41
1
10
9.57682940382804
20
-1.16716954034027
30
0
41
1
10
9.67983612175567
20
-1.1351578717711
30
0
41
1
10
9.71412267930847
20
-1.12395500613687
30
0
41
1
10
9.78256194503371
20
-1.10009565538812
30
0
41
1
10
9.81671601196925
20
-1.08745392659532
30
0
41
1
10
9.85076599721123
20
-1.07368185878309
30
0
0
SPLINE
5
167
100
AcDbEntity
8
1
62
256
6
ByLayer
370
18
48
1
60
0
100
AcDbSpline
70
4
71
2
72
6
73
3
40
0
40
0
40
0
40
1
40
1
40
1
41
1.03186391735993
10
37.15
20
-14.0027032771659
30
0
41
0.729637973226922
10
37.35
20
-14.0027032771659
30
0
41
1.03186391735993
10
37.35
20
-13.802703277166
30
0
0
SPLINE
5
168
100
AcDbEntity
8
1
62
256
6
ByLayer
370
18
48
1
60
0
100
AcDbSpline
70
4
71
2
72
6
73
3
40
0
40
0
40
0
40
1
40
1
40
1
41
1.03186391735993
10
37.15
20
-11.997296722834
30
0
41
1.03138264657361
10
37.0277889468057
20
-11.997296722834
30
0
41
1.03186391735993
10
36.9058058418606
20
-12.0047575291465
30
0
0
SPLINE
5
169
100
AcDbEntity
8
1
62
256
6
ByLayer
370
18
48
1
60
0
100
AcDbSpline
70
4
71
2
72
6
73
3
40
0
40
0
40
0
40
1
40
1
40
1
41
1.03186391735993
10
36.9058058418606
20
-13.9952424708534
30
0
41
1.03138264657361
10
37.0277889468057
20
-14.002703277166
30
0
41
1.03186391735993
10
37.15
20
-14.0027032771659
30
0
0
SPLINE
5
16A
100
AcDbEntity
8
1
62
256
6
ByLayer
370
18
48
1
60
0
100
AcDbSpline
70
4
71
2
72
6
73
3
40
0
40
0
40
0
40
1
40
1
40
1
41
1.03186391735993
10
37.35
20
-12.197296722834
30
0
41
0.729637973226922
10
37.35
20
-11.997296722834
30
0
41
1.03186391735993
10
37.15
20
-11.997296722834
30
0
0
SPLINE
5
16B
100
AcDbEntity
8
1
62
256
6
ByLayer
370
18
48
1
60
0
100
AcDbSpline
70
4
71
2
72
6
73
3
40
0
40
0
40
0
40
1
40
1
40
1
41
1.03186391735993
10
17.55
20
-14.002703277166
30
0
41
0.729637973226922
10
17.35
20
-14.002703277166
30
0
41
1.03186391735993
10
17.35
20
-13.802703277166
30
0
0
SPLINE
5
16C
100
AcDbEntity
8
1
62
256
6
ByLayer
370
18
48
1
60
0
100
AcDbSpline
70
4
71
2
72
6
73
3
40
0
40
0
40
0
40
1
40
1
40
1
41
1.03186391735993
10
17.7941941581394
20
-13.9952424708534
30
0
41
1.03138264657361
10
17.6722110531943
20
-14.002703277166
30
0
41
1.03186391735993
10
17.55
20
-14.002703277166
30
0
0
SPLINE
5
16D
100
AcDbEntity
8
1
62
256
6
ByLayer
370
18
48
1
60
0
100
AcDbSpline
70
4
71
3
72
8
73
4
40
0
40
0
40
0
40
0
40
1
40
1
40
1
40
1
41
1
10
35.3655276838538
20
-12.0706017036334
30
0
41
1
10
35.3521504377982
20
-12.0706872039869
30
0
41
1
10
35.3387889225588
20
-12.0720962911318
30
0
41
1
10
35.3256211251736
20
-12.0748793274281
30
0
0
SPLINE
5
16E
100
AcDbEntity
8
1
62
256
6
ByLayer
370
18
48
1
60
0
100
AcDbSpline
70
4
71
3
72
8
73
4
40
0
40
0
40
0
40
0
40
1
40
1
40
1
40
1
41
1
10
35.3256211251845
20
-13.9251206725741
30
0
41
1
10
35.3387890590187
20
-13.9279037377088
30
0
41
1
10
35.352150330567
20
-13.9293127953281
30
0
41
1
10
35.3655276838674
20
-13.9293982963667
30
0
0
SPLINE
5
16F
100
AcDbEntity
8
1
62
256
6
ByLayer
370
18
48
1
60
0
100
AcDbSpline
70
4
71
3
72
8
73
4
40
0
40
0
40
0
40
0
40
1
40
1
40
1
40
1
41
1
10
19.3743788748267
20
-13.9251206725718
30
0
41
1
10
19.3612109409933
20
-13.9279037377067
30
0
41
1
10
19.3478496694459
20
-13.9293127953276
30
0
41
1
10
19.3344723161462
20
-13.9293982963666
30
0
0
SPLINE
5
170
100
AcDbEntity
8
1
62
256
6
ByLayer
370
18
48
1
60
0
100
AcDbSpline
70
4
71
3
72
24
73
20
40
0
40
0
40
0
40
0
40
0.250000000000006
40
0.250000000000006
40
0.312500000000003
40
0.312500000000003
40
0.374999999999999
40
0.374999999999999
40
0.5
40
0.5
40
0.625
40
0.625
40
0.75
40
0.75
40
0.8125
40
0.8125
40
0.875
40
0.875
40
1
40
1
40
1
40
1
41
1
10
14.3564173719113
20
-7.84211770416718
30
0
41
1
10
14.3317839716635
20
-7.866076838937
30
0
41
1
10
14.3110139343973
20
-7.89358670081424
30
0
41
1
10
14.2903971704346
20
-7.93273324691628
30
0
41
1
10
14.2865369975272
20
-7.94083605976365
30
0
41
1
10
14.2795204050118
20
-7.95726261029679
30
0
41
1
10
14.2763473422613
20
-7.96561264320104
30
0
41
1
10
14.2678407200773
20
-7.99107180762906
30
0
41
1
10
14.2635122897661
20
-8.00858705668435
30
0
41
1
10
14.2577395427009
20
-8.04476138882001
30
0
41
1
10
14.2563184467602
20
-8.06360012455707
30
0
41
1
10
14.25672599542
20
-8.1009560581648
30
0
41
1
10
14.2585039192012
20
-8.11961071583221
30
0
41
1
10
14.2636305446476
20
-8.14754965313648
30
0
41
1
10
14.2657514702608
20
-8.15685544171589
30
0
41
1
10
14.27086357943
20
-8.17545098104529
30
0
41
1
10
14.2738341868356
20
-8.18465244326399
30
0
41
1
10
14.2838646215748
20
-8.2116391713684
30
0
41
1
10
14.2920722055931
20
-8.22895163167399
30
0
41
1
10
14.3018189416602
20
-8.24557688959516
30
0
0
SPLINE
5
171
100
AcDbEntity
8
1
62
256
6
ByLayer
370
18
48
1
60
0
100
AcDbSpline
70
4
71
3
72
26
73
22
40
0
40
0
40
0
40
0
40
0.124999999999998
40
0.124999999999998
40
0.249999999999997
40
0.249999999999997
40
0.312499999999996
40
0.312499999999996
40
0.374999999999995
40
0.374999999999995
40
0.499999999999993
40
0.499999999999993
40
0.624999999999991
40
0.624999999999991
40
0.687499999999991
40
0.687499999999991
40
0.749999999999991
40
0.749999999999991
40
0.874999999999996
40
0.874999999999996
40
1
40
1
40
1
40
1
41
1
10
14.3018189416602
20
-6.25442311040482
30
0
41
1
10
14.2921226156074
20
-6.27096238267046
30
0
41
1
10
14.2837464784977
20
-6.28863867637637
30
0
41
1
10
14.2704404213358
20
-6.32451895342967
30
0
41
1
10
14.2654055933909
20
-6.34284595688934
30
0
41
1
10
14.2602381606512
20
-6.37090403945541
30
0
41
1
10
14.2589144439236
20
-6.380391311783
30
0
41
1
10
14.257108956415
20
-6.39920532908329
30
0
41
1
10
14.2566177604081
20
-6.40856472697885
30
0
41
1
10
14.2563261495496
20
-6.43650405342592
30
0
41
1
10
14.2577000229544
20
-6.4549461069474
30
0
41
1
10
14.2635122179084
20
-6.49145704662564
30
0
41
1
10
14.2678854172297
20
-6.50909376630702
30
0
41
1
10
14.2764137990604
20
-6.53457010238051
30
0
41
1
10
14.2795878984403
20
-6.54290539581748
30
0
41
1
10
14.2865849495032
20
-6.55926603704975
30
0
41
1
10
14.290420540494
20
-6.56731480278461
30
0
41
1
10
14.3028100072966
20
-6.59082851682763
30
0
41
1
10
14.3121522745057
20
-6.60551855878569
30
0
41
1
10
14.3328117741001
20
-6.63307051831762
30
0
41
1
10
14.3441302162227
20
-6.64593146419293
30
0
41
1
10
14.3564173719113
20
-6.65788229583279
30
0
0
SPLINE
5
172
100
AcDbEntity
8
1
62
256
6
ByLayer
370
18
48
1
60
0
100
AcDbSpline
70
4
71
3
72
18
73
14
40
0
40
0
40
0
40
0
40
0.249999999999993
40
0.249999999999993
40
0.374999999999991
40
0.374999999999991
40
0.43749999999999
40
0.43749999999999
40
0.499999999999988
40
0.499999999999988
40
0.749999999999994
40
0.749999999999994
40
1
40
1
40
1
40
1
41
1
10
14.5922620637002
20
-7.09725870662353
30
0
41
1
10
14.5839029765649
20
-7.05283371714236
30
0
41
1
10
14.572194076137
20
-7.01047127231683
30
0
41
1
10
14.5502147004153
20
-6.94951240206018
30
0
41
1
10
14.5421460177693
20
-6.92962718714705
30
0
41
1
10
14.5289590937532
20
-6.90041485375664
30
0
41
1
10
14.524382525553
20
-6.89078015654292
30
0
41
1
10
14.5148692909952
20
-6.87171212439083
30
0
41
1
10
14.5099208758561
20
-6.86225797017556
30
0
41
1
10
14.4844501468565
20
-6.81579120812245
30
0
41
1
10
14.4617830025327
20
-6.78116665614505
30
0
41
1
10
14.4122494705403
20
-6.71629302469026
30
0
41
1
10
14.385378603438
20
-6.68605080047578
30
0
41
1
10
14.3564173719113
20
-6.65788229583279
30
0
0
SPLINE
5
173
100
AcDbEntity
8
1
62
256
6
ByLayer
370
18
48
1
60
0
100
AcDbSpline
70
4
71
3
72
17
73
13
40
0
40
0
40
0
40
0
40
0.250000000000012
40
0.250000000000012
40
0.500000000000024
40
0.500000000000024
40
0.562500000000022
40
0.562500000000022
40
0.625000000000019
40
0.75000000000001
40
0.75000000000001
40
1
40
1
40
1
40
1
41
1
10
14.3564173719113
20
-7.84211770416718
30
0
41
1
10
14.3853753963689
20
-7.81395231880941
30
0
41
1
10
14.4122309410964
20
-7.78372575786454
30
0
41
1
10
14.461719738367
20
-7.71892167661281
30
0
41
1
10
14.4843572921869
20
-7.6843506951335
30
0
41
1
10
14.5097894773876
20
-7.63798851185626
30
0
41
1
10
14.5147424479631
20
-7.62853470981096
30
0
41
1
10
14.5242836416446
20
-7.60942527611323
30
0
41
1
10
14.5380498884726
20
-7.58046203694775
30
0
41
1
10
14.5501769665485
20
-7.55058627674293
30
0
41
1
10
14.5721909236732
20
-7.48954938792147
30
0
41
1
10
14.5839044979644
20
-7.44715819726679
30
0
41
1
10
14.5922620637002
20
-7.40274129337647
30
0
0
SPLINE
5
174
100
AcDbEntity
8
1
62
256
6
ByLayer
370
18
48
1
60
0
100
AcDbSpline
70
4
71
3
72
24
73
20
40
0
40
0
40
0
40
0
40
0.25
40
0.25
40
0.312500000000001
40
0.312500000000001
40
0.375000000000002
40
0.375000000000002
40
0.500000000000003
40
0.500000000000003
40
0.625000000000003
40
0.625000000000003
40
0.750000000000004
40
0.750000000000004
40
0.812500000000002
40
0.812500000000002
40
0.875000000000001
40
0.875000000000001
40
1
40
1
40
1
40
1
41
1
10
17.6435826280888
20
-6.65788229583279
30
0
41
1
10
17.6682160283365
20
-6.633923161063
30
0
41
1
10
17.6889860656027
20
-6.60641329918573
30
0
41
1
10
17.7096028295654
20
-6.56726675308372
30
0
41
1
10
17.7134630024728
20
-6.55916394023632
30
0
41
1
10
17.7204795949882
20
-6.54273738970318
30
0
41
1
10
17.7236526577387
20
-6.53438735679893
30
0
41
1
10
17.7321592799227
20
-6.50892819237095
30
0
41
1
10
17.736487710234
20
-6.49141294331565
30
0
41
1
10
17.7422604572991
20
-6.45523861117999
30
0
41
1
10
17.7436815532398
20
-6.43639987544293
30
0
41
1
10
17.74327400458
20
-6.3990439418352
30
0
41
1
10
17.7414960807988
20
-6.38038928416776
30
0
41
1
10
17.7363694553524
20
-6.35245034686352
30
0
41
1
10
17.7342485297392
20
-6.34314455828411
30
0
41
1
10
17.72913642057
20
-6.32454901895468
30
0
41
1
10
17.7261658131644
20
-6.31534755673601
30
0
41
1
10
17.7161353784252
20
-6.2883608286316
30
0
41
1
10
17.7079277944069
20
-6.27104836832601
30
0
41
1
10
17.6981810583398
20
-6.25442311040482
30
0
0
SPLINE
5
175
100
AcDbEntity
8
1
62
256
6
ByLayer
370
18
48
1
60
0
100
AcDbSpline
70
4
71
3
72
26
73
22
40
0
40
0
40
0
40
0
40
0.125000000000013
40
0.125000000000013
40
0.250000000000025
40
0.250000000000025
40
0.31250000000003
40
0.31250000000003
40
0.375000000000034
40
0.375000000000034
40
0.500000000000032
40
0.500000000000032
40
0.625000000000029
40
0.625000000000029
40
0.687500000000023
40
0.687500000000023
40
0.750000000000017
40
0.750000000000017
40
0.875000000000008
40
0.875000000000008
40
1
40
1
40
1
40
1
41
1
10
17.6981810583398
20
-8.24557688959516
30
0
41
1
10
17.7078773843926
20
-8.22903761732954
30
0
41
1
10
17.7162535215023
20
-8.21136132362363
30
0
41
1
10
17.7295595786642
20
-8.1754810465703
30
0
41
1
10
17.7345944066092
20
-8.15715404311067
30
0
41
1
10
17.7397618393488
20
-8.12909596054456
30
0
41
1
10
17.7410855560764
20
-8.11960868821697
30
0
41
1
10
17.7428910435851
20
-8.10079467091671
30
0
41
1
10
17.7433822395919
20
-8.09143527302115
30
0
41
1
10
17.7436738504504
20
-8.06349594657408
30
0
41
1
10
17.7422999770457
20
-8.04505389305257
30
0
41
1
10
17.7364877820917
20
-8.00854295337436
30
0
41
1
10
17.7321145827703
20
-7.99090623369298
30
0
41
1
10
17.7235862009396
20
-7.96542989761949
30
0
41
1
10
17.7204121015597
20
-7.95709460418252
30
0
41
1
10
17.7134150504968
20
-7.94073396295025
30
0
41
1
10
17.709579459506
20
-7.93268519721539
30
0
41
1
10
17.6971899927034
20
-7.90917148317237
30
0
41
1
10
17.6878477254943
20
-7.89448144121428
30
0
41
1
10
17.6671882258999
20
-7.86692948168238
30
0
41
1
10
17.6558697837773
20
-7.85406853580707
30
0
41
1
10
17.6435826280888
20
-7.84211770416718
30
0
0
SPLINE
5
176
100
AcDbEntity
8
1
62
256
6
ByLayer
370
18
48
1
60
0
100
AcDbSpline
70
4
71
3
72
17
73
13
40
0
40
0
40
0
40
0
40
0.249999999999998
40
0.249999999999998
40
0.499999999999995
40
0.499999999999995
40
0.562499999999993
40
0.562499999999993
40
0.624999999999991
40
0.749999999999995
40
0.749999999999995
40
1
40
1
40
1
40
1
41
1
10
17.6435826280888
20
-6.65788229583279
30
0
41
1
10
17.6146246036311
20
-6.68604768119053
30
0
41
1
10
17.5877690589037
20
-6.71627424213534
30
0
41
1
10
17.5382802616332
20
-6.78107832338699
30
0
41
1
10
17.5156427078133
20
-6.81564930486621
30
0
41
1
10
17.4902105226126
20
-6.86201148814337
30
0
41
1
10
17.4852575520371
20
-6.87146529018867
30
0
41
1
10
17.4757163583556
20
-6.89057472388635
30
0
41
1
10
17.4619501115276
20
-6.91953796305179
30
0
41
1
10
17.4498230334517
20
-6.94941372325661
30
0
41
1
10
17.427809076327
20
-7.01045061207816
30
0
41
1
10
17.4160955020357
20
-7.05284180273296
30
0
41
1
10
17.4077379362998
20
-7.09725870662353
30
0
0
SPLINE
5
177
100
AcDbEntity
8
1
62
256
6
ByLayer
370
18
48
1
60
0
100
AcDbSpline
70
4
71
3
72
18
73
14
40
0
40
0
40
0
40
0
40
0.249999999999975
40
0.249999999999975
40
0.374999999999965
40
0.374999999999965
40
0.43749999999996
40
0.43749999999996
40
0.499999999999956
40
0.499999999999956
40
0.749999999999978
40
0.749999999999978
40
1
40
1
40
1
40
1
41
1
10
17.4077379362998
20
-7.40274129337647
30
0
41
1
10
17.4160970234351
20
-7.44716628285735
30
0
41
1
10
17.4278059238629
20
-7.48952872768282
30
0
41
1
10
17.4497852995846
20
-7.55048759793962
30
0
41
1
10
17.4578539822307
20
-7.57037281285284
30
0
41
1
10
17.4710409062469
20
-7.59958514624344
30
0
41
1
10
17.475617474447
20
-7.60921984345723
30
0
41
1
10
17.4851307090049
20
-7.62828787560946
30
0
41
1
10
17.4900791241441
20
-7.63774202982481
30
0
41
1
10
17.5155498531436
20
-7.68420879187769
30
0
41
1
10
17.5382169974673
20
-7.71883334385501
30
0
41
1
10
17.5877505294597
20
-7.78370697530971
30
0
41
1
10
17.6146213965619
20
-7.81394919952416
30
0
41
1
10
17.6435826280888
20
-7.84211770416718
30
0
0
SPLINE
5
178
100
AcDbEntity
8
1
62
256
6
ByLayer
370
18
48
1
60
0
100
AcDbSpline
70
4
71
3
72
26
73
22
40
0
40
0
40
0
40
0
40
0.250000000000047
40
0.250000000000047
40
0.312500000000049
40
0.312500000000049
40
0.375000000000051
40
0.375000000000051
40
0.500000000000055
40
0.500000000000055
40
0.56250000000005
40
0.56250000000005
40
0.625000000000045
40
0.625000000000045
40
0.750000000000021
40
0.750000000000021
40
0.812500000000011
40
0.812500000000011
40
0.875000000000001
40
0.875000000000001
40
1
40
1
40
1
40
1
41
1
10
15.6818380304532
20
-8.97609544014432
30
0
41
1
10
15.6907807694531
20
-9.00857703334901
30
0
41
1
10
15.704512367741
20
-9.03946368973189
30
0
41
1
10
15.728164661171
20
-9.0757985173218
30
0
41
1
10
15.7332504932268
20
-9.08297745742416
30
0
41
1
10
15.7439469908237
20
-9.09685939456051
30
0
41
1
10
15.7495666009289
20
-9.10358159444692
30
0
41
1
10
15.7672404966507
20
-9.12308672630903
30
0
41
1
10
15.7801042158832
20
-9.13521280863645
30
0
41
1
10
15.8011189451321
20
-9.15198940674918
30
0
41
1
10
15.8084116893909
20
-9.15734511719322
30
0
41
1
10
15.8236083865562
20
-9.16755156603637
30
0
41
1
10
15.8314588292887
20
-9.1723621129043
30
0
41
1
10
15.8554562271619
20
-9.1857244929385
30
0
41
1
10
15.8721665003504
20
-9.19329690404473
30
0
41
1
10
15.8983294895866
20
-9.20258397985134
30
0
41
1
10
15.9072343299036
20
-9.2053327315827
30
0
41
1
10
15.9254292302567
20
-9.21010169410388
30
0
41
1
10
15.9347154010501
20
-9.21211452550452
30
0
41
1
10
15.9625187231474
20
-9.21690358371339
30
0
41
1
10
15.98119104671
20
-9.21850000000001
30
0
41
1
10
16
20
-9.21850000000001
30
0
0
SPLINE
5
179
100
AcDbEntity
8
1
62
256
6
ByLayer
370
18
48
1
60
0
100
AcDbSpline
70
4
71
3
72
34
73
30
40
0
40
0
40
0
40
0
40
0.124999999999998
40
0.124999999999998
40
0.187499999999999
40
0.187499999999999
40
0.218749999999998
40
0.218749999999998
40
0.249999999999997
40
0.249999999999997
40
0.374999999999997
40
0.374999999999997
40
0.406249999999998
40
0.406249999999998
40
0.437499999999998
40
0.499999999999999
40
0.5625
40
0.5625
40
0.625000000000001
40
0.625000000000001
40
0.687500000000002
40
0.687500000000002
40
0.750000000000003
40
0.750000000000003
40
0.875000000000004
40
0.875000000000004
40
0.937500000000002
40
0.937500000000002
40
1
40
1
40
1
40
1
41
1
10
15.6818380304532
20
-8.97609544014432
30
0
41
1
10
15.6683756044158
20
-8.92719755258435
30
0
41
1
10
15.6504813479254
20
-8.87960672669573
30
0
41
1
10
15.6165572925044
20
-8.81005578649055
30
0
41
1
10
15.6040598537764
20
-8.78717940089675
30
0
41
1
10
15.5833694218278
20
-8.75332472256972
30
0
41
1
10
15.5761303535396
20
-8.74209141124248
30
0
41
1
10
15.5610452042167
20
-8.71989940372521
30
0
41
1
10
15.5532249960405
20
-8.70897602964607
30
0
41
1
10
15.5127140095089
20
-8.65522043482454
30
0
41
1
10
15.4758548429775
20
-8.61493514485431
30
0
41
1
10
15.4233023422318
20
-8.5682858555198
30
0
41
1
10
15.4124468477992
20
-8.55913457392737
30
0
41
1
10
15.3904102324398
20
-8.54150744141086
30
0
41
1
10
15.3567451854695
20
-8.51596844876548
30
0
41
1
10
15.2976173881464
20
-8.47785925819269
30
0
41
1
10
15.2470701322235
20
-8.45215540891766
30
0
41
1
10
15.1948368936116
20
-8.42893946270263
30
0
41
1
10
15.168506133695
20
-8.41885484885501
30
0
41
1
10
15.1154811300859
20
-8.4015306383227
30
0
41
1
10
15.0887774643553
20
-8.39428773988413
30
0
41
1
10
15.0349752898997
20
-8.38252593542009
30
0
41
1
10
15.007783602923
20
-8.37801179583883
30
0
41
1
10
14.9275064791057
20
-8.36866218546464
30
0
41
1
10
14.8750777532936
20
-8.36779191314596
30
0
41
1
10
14.7975934411139
20
-8.37362886795273
30
0
41
1
10
14.7718817194633
20
-8.37679386939394
30
0
41
1
10
14.7212572052777
20
-8.38542982562993
30
0
41
1
10
14.69636084904
20
-8.39088811906907
30
0
41
1
10
14.6718476620214
20
-8.39745103358487
30
0
0
SPLINE
5
17A
100
AcDbEntity
8
1
62
256
6
ByLayer
370
18
48
1
60
0
100
AcDbSpline
70
4
71
3
72
24
73
20
40
0
40
0
40
0
40
0
40
0.0625000000000083
40
0.0625000000000083
40
0.125000000000016
40
0.125000000000016
40
0.250000000000025
40
0.250000000000025
40
0.312500000000025
40
0.312500000000025
40
0.375000000000026
40
0.375000000000026
40
0.500000000000019
40
0.500000000000019
40
0.625000000000013
40
0.625000000000013
40
0.750000000000007
40
0.750000000000007
40
1
40
1
40
1
40
1
41
1
10
14.3018189416602
20
-8.24557688959516
30
0
41
1
10
14.3065681420829
20
-8.25367772267435
30
0
41
1
10
14.3117085667035
20
-8.2616473391966
30
0
41
1
10
14.3226428828913
20
-8.27709067744959
30
0
41
1
10
14.3283971897533
20
-8.28451519166089
30
0
41
1
10
14.3464899773977
20
-8.30592955507097
30
0
41
1
10
14.3596527137455
20
-8.31906611799144
30
0
41
1
10
14.381032396198
20
-8.33707468730404
30
0
41
1
10
14.3884492522968
20
-8.34279962933107
30
0
41
1
10
14.4035347461482
20
-8.35346542431603
30
0
41
1
10
14.4112371514018
20
-8.35843707983861
30
0
41
1
10
14.434802964484
20
-8.37230975498525
30
0
41
1
10
14.451122166039
20
-8.38017506180469
30
0
41
1
10
14.484945001347
20
-8.39318458883963
30
0
41
1
10
14.5020107708857
20
-8.39816081129405
30
0
41
1
10
14.53637856307
20
-8.40532110241668
30
0
41
1
10
14.5537405321342
20
-8.40750709684028
30
0
41
1
10
14.6058092219687
20
-8.40994054078257
30
0
41
1
10
14.6393827516566
20
-8.40614286265327
30
0
41
1
10
14.6718476620214
20
-8.39745103358487
30
0
0
SPLINE
5
17B
100
AcDbEntity
8
1
62
256
6
ByLayer
370
18
48
1
60
0
100
AcDbSpline
70
4
71
3
72
26
73
22
40
0
40
0
40
0
40
0
40
0.250000000000031
40
0.250000000000031
40
0.312500000000032
40
0.312500000000032
40
0.375000000000034
40
0.375000000000034
40
0.500000000000033
40
0.500000000000033
40
0.562500000000034
40
0.562500000000034
40
0.625000000000035
40
0.625000000000035
40
0.750000000000017
40
0.750000000000017
40
0.812500000000007
40
0.812500000000007
40
0.874999999999998
40
0.874999999999998
40
1
40
1
40
1
40
1
41
1
10
16.3181619695469
20
-5.52390455985568
30
0
41
1
10
16.3092192305469
20
-5.49142296665099
30
0
41
1
10
16.2954876322591
20
-5.46053631026811
30
0
41
1
10
16.271835338829
20
-5.4242014826782
30
0
41
1
10
16.2667495067731
20
-5.41702254257584
30
0
41
1
10
16.2560530091763
20
-5.40314060543949
30
0
41
1
10
16.2504333990711
20
-5.39641840555308
30
0
41
1
10
16.2327595033493
20
-5.37691327369097
30
0
41
1
10
16.2198957841168
20
-5.36478719136355
30
0
41
1
10
16.1988810548679
20
-5.34801059325079
30
0
41
1
10
16.1915883106091
20
-5.34265488280678
30
0
41
1
10
16.1763916134439
20
-5.33244843396361
30
0
41
1
10
16.1685411707113
20
-5.3276378870957
30
0
41
1
10
16.1445437728381
20
-5.3142755070615
30
0
41
1
10
16.1278334996496
20
-5.30670309595527
30
0
41
1
10
16.1016705104134
20
-5.29741602014866
30
0
41
1
10
16.0927656700965
20
-5.2946672684173
30
0
41
1
10
16.0745707697433
20
-5.28989830589609
30
0
41
1
10
16.0652845989499
20
-5.28788547449545
30
0
41
1
10
16.0374812768526
20
-5.28309641628658
30
0
41
1
10
16.01880895329
20
-5.28149999999999
30
0
41
1
10
16
20
-5.28149999999999
30
0
0
SPLINE
5
17C
100
AcDbEntity
8
1
62
256
6
ByLayer
370
18
48
1
60
0
100
AcDbSpline
70
4
71
3
72
34
73
30
40
0
40
0
40
0
40
0
40
0.125000000000012
40
0.125000000000012
40
0.187500000000019
40
0.187500000000019
40
0.218750000000023
40
0.218750000000023
40
0.250000000000027
40
0.250000000000027
40
0.375000000000029
40
0.375000000000029
40
0.406250000000031
40
0.406250000000031
40
0.437500000000032
40
0.500000000000029
40
0.562500000000026
40
0.562500000000026
40
0.625000000000022
40
0.625000000000022
40
0.687500000000018
40
0.687500000000018
40
0.750000000000015
40
0.750000000000015
40
0.875000000000006
40
0.875000000000006
40
0.937500000000003
40
0.937500000000003
40
1
40
1
40
1
40
1
41
1
10
16.3181619695469
20
-5.52390455985568
30
0
41
1
10
16.3316243955843
20
-5.57280244741563
30
0
41
1
10
16.3495186520746
20
-5.62039327330425
30
0
41
1
10
16.3834427074956
20
-5.68994421350942
30
0
41
1
10
16.3959401462236
20
-5.71282059910325
30
0
41
1
10
16.4166305781722
20
-5.74667527743028
30
0
41
1
10
16.4238696464604
20
-5.75790858875749
30
0
41
1
10
16.4389547957833
20
-5.78010059627479
30
0
41
1
10
16.4467750039595
20
-5.79102397035393
30
0
41
1
10
16.4872859904911
20
-5.84477956517543
30
0
41
1
10
16.5241451570225
20
-5.88506485514569
30
0
41
1
10
16.5766976577683
20
-5.9317141444802
30
0
41
1
10
16.5875531522008
20
-5.94086542607261
30
0
41
1
10
16.6095897675602
20
-5.95849255858914
30
0
41
1
10
16.6432548145305
20
-5.98403155123452
30
0
41
1
10
16.7023826118536
20
-6.02214074180731
30
0
41
1
10
16.7529298677765
20
-6.04784459108234
30
0
41
1
10
16.8051631063884
20
-6.07106053729734
30
0
41
1
10
16.8314938663051
20
-6.08114515114497
30
0
41
1
10
16.8845188699141
20
-6.0984693616773
30
0
41
1
10
16.9112225356448
20
-6.10571226011587
30
0
41
1
10
16.9650247101004
20
-6.11747406457991
30
0
41
1
10
16.992216397077
20
-6.12198820416114
30
0
41
1
10
17.0724935208943
20
-6.13133781453536
30
0
41
1
10
17.1249222467064
20
-6.13220808685401
30
0
41
1
10
17.2024065588862
20
-6.12637113204727
30
0
41
1
10
17.2281182805367
20
-6.12320613060606
30
0
41
1
10
17.2787427947224
20
-6.11457017437004
30
0
41
1
10
17.30363915096
20
-6.10911188093093
30
0
41
1
10
17.3281523379786
20
-6.10254896641513
30
0
0
SPLINE
5
17D
100
AcDbEntity
8
1
62
256
6
ByLayer
370
18
48
1
60
0
100
AcDbSpline
70
4
71
3
72
24
73
20
40
0
40
0
40
0
40
0
40
0.0624999999999892
40
0.0624999999999892
40
0.124999999999978
40
0.124999999999978
40
0.249999999999971
40
0.249999999999971
40
0.312499999999977
40
0.312499999999977
40
0.374999999999982
40
0.374999999999982
40
0.49999999999999
40
0.49999999999999
40
0.624999999999998
40
0.624999999999998
40
0.750000000000006
40
0.750000000000006
40
1
40
1
40
1
40
1
41
1
10
17.6981810583398
20
-6.25442311040482
30
0
41
1
10
17.6934318579171
20
-6.24632227732565
30
0
41
1
10
17.6882914332965
20
-6.2383526608034
30
0
41
1
10
17.6773571171087
20
-6.22290932255038
30
0
41
1
10
17.6716028102467
20
-6.21548480833908
30
0
41
1
10
17.6535100226024
20
-6.19407044492903
30
0
41
1
10
17.6403472862545
20
-6.18093388200856
30
0
41
1
10
17.6189676038021
20
-6.16292531269596
30
0
41
1
10
17.6115507477032
20
-6.15720037066893
30
0
41
1
10
17.5964652538518
20
-6.14653457568394
30
0
41
1
10
17.5887628485982
20
-6.14156292016139
30
0
41
1
10
17.5651970355161
20
-6.12769024501475
30
0
41
1
10
17.548877833961
20
-6.11982493819531
30
0
41
1
10
17.515054998653
20
-6.10681541116037
30
0
41
1
10
17.4979892291143
20
-6.10183918870595
30
0
41
1
10
17.46362143693
20
-6.09467889758329
30
0
41
1
10
17.4462594678658
20
-6.09249290315972
30
0
41
1
10
17.3941907780313
20
-6.09005945921743
30
0
41
1
10
17.3606172483434
20
-6.09385713734673
30
0
41
1
10
17.3281523379786
20
-6.10254896641513
30
0
0
SPLINE
5
17E
100
AcDbEntity
8
1
62
256
6
ByLayer
370
18
48
1
60
0
100
AcDbSpline
70
4
71
3
72
34
73
30
40
0
40
0
40
0
40
0
40
0.125
40
0.125
40
0.1875
40
0.1875
40
0.21875
40
0.21875
40
0.25
40
0.25
40
0.375000000000022
40
0.375000000000022
40
0.406250000000024
40
0.406250000000024
40
0.437500000000026
40
0.500000000000025
40
0.562500000000024
40
0.562500000000024
40
0.625000000000023
40
0.625000000000023
40
0.687500000000021
40
0.687500000000021
40
0.75000000000002
40
0.75000000000002
40
0.875000000000013
40
0.875000000000013
40
0.937500000000007
40
0.937500000000007
40
1
40
1
40
1
40
1
41
1
10
17.3281523379786
20
-8.39745103358487
30
0
41
1
10
17.2791605406677
20
-8.38433446177874
30
0
41
1
10
17.229054901581
20
-8.37570218410934
30
0
41
1
10
17.1518976275393
20
-8.36979203960024
30
0
41
1
10
17.1258420498826
20
-8.36900347636433
30
0
41
1
10
17.0861721053907
20
-8.3697305093599
30
0
41
1
10
17.0728201914697
20
-8.37029419915328
30
0
41
1
10
17.0460462641006
20
-8.3720841231121
30
0
41
1
10
17.0326678100599
20
-8.37330590152712
30
0
41
1
10
16.9658054580946
20
-8.38106671594551
30
0
41
1
10
16.9124105635002
20
-8.39248984827958
30
0
41
1
10
16.8455886245496
20
-8.41423264973619
30
0
41
1
10
16.8322038067761
20
-8.41896914504628
30
0
41
1
10
16.8058521630066
20
-8.42906464844683
30
0
41
1
10
16.7667940070401
20
-8.44519028533054
30
0
41
1
10
16.7040137931598
20
-8.47692436335828
30
0
41
1
10
16.6562753174227
20
-8.50753080364262
30
0
41
1
10
16.6098302684517
20
-8.54084969244914
30
0
41
1
10
16.5878136047356
20
-8.55846431994894
30
0
41
1
10
16.5460507829755
20
-8.59544601877468
30
0
41
1
10
16.5262970086682
20
-8.6148195503294
30
0
41
1
10
16.4889396946712
20
-8.65528490510212
30
0
41
1
10
16.4712931406015
20
-8.67645952289146
30
0
41
1
10
16.4226269571248
20
-8.74098420587001
30
0
41
1
10
16.3953601516259
20
-8.78577315483096
30
0
41
1
10
16.3612075572781
20
-8.85556920502847
30
0
41
1
10
16.3509341260478
20
-8.87935084526262
30
0
41
1
10
16.3327806188033
20
-8.92739115500325
30
0
41
1
10
16.3248979334757
20
-8.95162924022725
30
0
41
1
10
16.3181619695469
20
-8.97609544014432
30
0
0
SPLINE
5
17F
100
AcDbEntity
8
1
62
256
6
ByLayer
370
18
48
1
60
0
100
AcDbSpline
70
4
71
3
72
26
73
22
40
0
40
0
40
0
40
0
40
0.124999999999982
40
0.124999999999982
40
0.249999999999964
40
0.249999999999964
40
0.312499999999967
40
0.312499999999967
40
0.37499999999997
40
0.37499999999997
40
0.499999999999992
40
0.499999999999992
40
0.562499999999993
40
0.562499999999993
40
0.624999999999994
40
0.624999999999994
40
0.749999999999996
40
0.749999999999996
40
0.874999999999998
40
0.874999999999998
40
1
40
1
40
1
40
1
41
1
10
16
20
-9.21850000000001
30
0
41
1
10
16.0187420838797
20
-9.21850000000001
30
0
41
1
10
16.037790024121
20
-9.2168627955046
30
0
41
1
10
16.0746705458544
20
-9.21048528068295
30
0
41
1
10
16.0926468374794
20
-9.20577279166548
30
0
41
1
10
16.1189272305608
20
-9.19646538610317
30
0
41
1
10
16.127613610563
20
-9.19296752509536
30
0
41
1
10
16.144482547616
20
-9.18533413023604
30
0
41
1
10
16.1526773955158
20
-9.18119909926486
30
0
41
1
10
16.1765732518195
20
-9.16788232941573
30
0
41
1
10
16.1915899369245
20
-9.15779456249334
30
0
41
1
10
16.2127755394084
20
-9.14090470708621
30
0
41
1
10
16.2195919185691
20
-9.13499261738443
30
0
41
1
10
16.2325595895107
20
-9.12279737184286
30
0
41
1
10
16.2387403827712
20
-9.11649129678537
30
0
41
1
10
16.2564090822013
20
-9.09697635277581
30
0
41
1
10
16.2670282709711
20
-9.08317412766206
30
0
41
1
10
16.2860013809462
20
-9.05404553323993
30
0
41
1
10
16.2941811588046
20
-9.03897729418622
30
0
41
1
10
16.3080220198239
20
-9.00811774769991
30
0
41
1
10
16.3137019836554
20
-8.99229488948811
30
0
41
1
10
16.3181619695469
20
-8.97609544014432
30
0
0
SPLINE
5
180
100
AcDbEntity
8
1
62
256
6
ByLayer
370
18
48
1
60
0
100
AcDbSpline
70
4
71
3
72
26
73
22
40
0
40
0
40
0
40
0
40
0.25000000000005
40
0.25000000000005
40
0.312500000000043
40
0.312500000000043
40
0.375000000000036
40
0.375000000000036
40
0.499999999999999
40
0.499999999999999
40
0.562499999999993
40
0.562499999999993
40
0.624999999999986
40
0.624999999999986
40
0.74999999999999
40
0.74999999999999
40
0.812499999999995
40
0.812499999999995
40
0.874999999999999
40
0.874999999999999
40
1
40
1
40
1
40
1
41
1
10
17.3281523379786
20
-8.39745103358487
30
0
41
1
10
17.3606963158371
20
-8.40616403138995
30
0
41
1
10
17.394286358202
20
-8.4099391384633
30
0
41
1
10
17.4375938417867
20
-8.40791131938781
30
0
41
1
10
17.4463591330927
20
-8.40715466376915
30
0
41
1
10
17.4637445703593
20
-8.40494787966881
30
0
41
1
10
17.4723858038621
20
-8.4034997470653
30
0
41
1
10
17.498151092476
20
-8.39811767055093
30
0
41
1
10
17.51511787137
20
-8.39315324199166
30
0
41
1
10
17.54021895088
20
-8.3835091371663
30
0
41
1
10
17.5485275368
20
-8.37992652210781
30
0
41
1
10
17.5650182011033
20
-8.37197862488358
30
0
41
1
10
17.5731385487695
20
-8.36763917528793
30
0
41
1
10
17.5968027600687
20
-8.35369523185344
30
0
41
1
10
17.6117865990376
20
-8.34310942905333
30
0
41
1
10
17.6330303889944
20
-8.32523617912614
30
0
41
1
10
17.6399053342586
20
-8.31894436499601
30
0
41
1
10
17.653221554735
20
-8.30565995455339
30
0
41
1
10
17.659654499272
20
-8.29866697875326
30
0
41
1
10
17.6778475580837
20
-8.27710375641354
30
0
41
1
10
17.6886683543618
20
-8.26180295297391
30
0
41
1
10
17.6981810583398
20
-8.24557688959516
30
0
0
SPLINE
5
181
100
AcDbEntity
8
1
62
256
6
ByLayer
370
18
48
1
60
0
100
AcDbSpline
70
4
71
3
72
26
73
22
40
0
40
0
40
0
40
0
40
0.124999999999984
40
0.124999999999984
40
0.249999999999968
40
0.249999999999968
40
0.312499999999971
40
0.312499999999971
40
0.374999999999975
40
0.374999999999975
40
0.499999999999996
40
0.499999999999996
40
0.562499999999997
40
0.562499999999997
40
0.624999999999997
40
0.624999999999997
40
0.749999999999998
40
0.749999999999998
40
0.874999999999999
40
0.874999999999999
40
1
40
1
40
1
40
1
41
1
10
16
20
-5.28149999999999
30
0
41
1
10
15.9812579161203
20
-5.28149999999999
30
0
41
1
10
15.962209975879
20
-5.2831372044954
30
0
41
1
10
15.9253294541457
20
-5.28951471931705
30
0
41
1
10
15.9073531625206
20
-5.29422720833449
30
0
41
1
10
15.8810727694392
20
-5.30353461389683
30
0
41
1
10
15.8723863894371
20
-5.30703247490464
30
0
41
1
10
15.855517452384
20
-5.31466586976396
30
0
41
1
10
15.8473226044842
20
-5.31880090073511
30
0
41
1
10
15.8234267481805
20
-5.33211767058427
30
0
41
1
10
15.8084100630755
20
-5.34220543750664
30
0
41
1
10
15.7872244605916
20
-5.35909529291379
30
0
41
1
10
15.780408081431
20
-5.36500738261554
30
0
41
1
10
15.7674404104893
20
-5.37720262815711
30
0
41
1
10
15.7612596172288
20
-5.38350870321463
30
0
41
1
10
15.7435909177987
20
-5.40302364722419
30
0
41
1
10
15.732971729029
20
-5.41682587233794
30
0
41
1
10
15.7139986190539
20
-5.44595446676007
30
0
41
1
10
15.7058188411954
20
-5.46102270581375
30
0
41
1
10
15.6919779801761
20
-5.49188225230009
30
0
41
1
10
15.6862980163446
20
-5.50770511051189
30
0
41
1
10
15.6818380304532
20
-5.52390455985568
30
0
0
SPLINE
5
182
100
AcDbEntity
8
1
62
256
6
ByLayer
370
18
48
1
60
0
100
AcDbSpline
70
4
71
3
72
34
73
30
40
0
40
0
40
0
40
0
40
0.124999999999987
40
0.124999999999987
40
0.187499999999979
40
0.187499999999979
40
0.218749999999975
40
0.218749999999975
40
0.249999999999971
40
0.249999999999971
40
0.374999999999969
40
0.374999999999969
40
0.406249999999969
40
0.406249999999969
40
0.437499999999969
40
0.499999999999973
40
0.562499999999977
40
0.562499999999977
40
0.624999999999981
40
0.624999999999981
40
0.687499999999985
40
0.687499999999985
40
0.749999999999989
40
0.749999999999989
40
0.874999999999995
40
0.874999999999995
40
0.937499999999998
40
0.937499999999998
40
1
40
1
40
1
40
1
41
1
10
14.6718476620214
20
-6.10254896641513
30
0
41
1
10
14.7208394593323
20
-6.11566553822126
30
0
41
1
10
14.7709450984191
20
-6.12429781589066
30
0
41
1
10
14.8481023724607
20
-6.13020796039976
30
0
41
1
10
14.8741579501174
20
-6.13099652363567
30
0
41
1
10
14.9138278946093
20
-6.1302694906401
30
0
41
1
10
14.9271798085304
20
-6.12970580084669
30
0
41
1
10
14.9539537358994
20
-6.12791587688787
30
0
41
1
10
14.9673321899401
20
-6.12669409847288
30
0
41
1
10
15.0341945419055
20
-6.11893328405449
30
0
41
1
10
15.0875894364998
20
-6.10751015172042
30
0
41
1
10
15.1544113754504
20
-6.08576735026378
30
0
41
1
10
15.167796193224
20
-6.0810308549537
30
0
41
1
10
15.1941478369934
20
-6.07093535155315
30
0
41
1
10
15.2332059929599
20
-6.05480971466943
30
0
41
1
10
15.2959860666201
20
-6.02307535966892
30
0
41
1
10
15.3437246825773
20
-5.99246919635738
30
0
41
1
10
15.3901697315483
20
-5.95915030755083
30
0
41
1
10
15.4121863952644
20
-5.94153568005106
30
0
41
1
10
15.4539492170245
20
-5.90455398122532
30
0
41
1
10
15.4737029913318
20
-5.8851804496706
30
0
41
1
10
15.5110603053287
20
-5.84471509489788
30
0
41
1
10
15.5287068593985
20
-5.82354047710854
30
0
41
1
10
15.5773730428752
20
-5.75901579412997
30
0
41
1
10
15.6046398483741
20
-5.71422684516901
30
0
41
1
10
15.638792442722
20
-5.64443079497153
30
0
41
1
10
15.6490658739523
20
-5.62064915473738
30
0
41
1
10
15.6672193811967
20
-5.57260884499675
30
0
41
1
10
15.6751020665243
20
-5.54837075977275
30
0
41
1
10
15.6818380304532
20
-5.52390455985568
30
0
0
SPLINE
5
183
100
AcDbEntity
8
1
62
256
6
ByLayer
370
18
48
1
60
0
100
AcDbSpline
70
4
71
3
72
26
73
22
40
0
40
0
40
0
40
0
40
0.250000000000011
40
0.250000000000011
40
0.31250000000002
40
0.31250000000002
40
0.375000000000029
40
0.375000000000029
40
0.500000000000037
40
0.500000000000037
40
0.562500000000034
40
0.562500000000034
40
0.625000000000031
40
0.625000000000031
40
0.750000000000019
40
0.750000000000019
40
0.812500000000013
40
0.812500000000013
40
0.875000000000007
40
0.875000000000007
40
1
40
1
40
1
40
1
41
1
10
14.6718476620214
20
-6.10254896641513
30
0
41
1
10
14.639303684163
20
-6.09383596861002
30
0
41
1
10
14.605713641798
20
-6.09006086153667
30
0
41
1
10
14.5624061582133
20
-6.09208868061219
30
0
41
1
10
14.5536408669073
20
-6.09284533623085
30
0
41
1
10
14.5362554296407
20
-6.09505212033119
30
0
41
1
10
14.5276141961379
20
-6.0965002529347
30
0
41
1
10
14.501848907524
20
-6.10188232944904
30
0
41
1
10
14.48488212863
20
-6.10684675800835
30
0
41
1
10
14.45978104912
20
-6.1164908628337
30
0
41
1
10
14.4514724632
20
-6.12007347789216
30
0
41
1
10
14.4349817988967
20
-6.12802137511642
30
0
41
1
10
14.4268614512305
20
-6.13236082471207
30
0
41
1
10
14.4031972399313
20
-6.14630476814656
30
0
41
1
10
14.3882134009624
20
-6.15689057094664
30
0
41
1
10
14.3669696110056
20
-6.17476382087386
30
0
41
1
10
14.3600946657414
20
-6.18105563500399
30
0
41
1
10
14.346778445265
20
-6.19434004544661
30
0
41
1
10
14.340345500728
20
-6.20133302124674
30
0
41
1
10
14.3221524419163
20
-6.22289624358643
30
0
41
1
10
14.3113316456382
20
-6.23819704702609
30
0
41
1
10
14.3018189416602
20
-6.25442311040482
30
0
0
LINE
5
7D
100
AcDbEntity
8
81
62
256
6
ByLayer
370
18
48
1
60
0
100
AcDbLine
10
37.35
20
-14
30
0
11
42.35
21
-14
31
0
39
0
210
0
220
0
230
1
0
LINE
5
7E
100
AcDbEntity
8
80
62
256
6
ByLayer
370
18
48
1
60
0
100
AcDbLine
10
0
20
0
30
0
11
0
21
5
31
0
39
0
210
0
220
0
230
1
0
LINE
5
7F
100
AcDbEntity
8
1
62
256
6
ByLayer
370
18
48
1
60
0
100
AcDbLine
10
16
20
-0.875
30
0
11
16
21
-0.675
31
0
39
0
210
0
220
0
230
1
0
LINE
5
80
100
AcDbEntity
8
1
62
256
6
ByLayer
370
18
48
1
60
0
100
AcDbLine
10
9.132847
20
0.324981
30
0
11
6.742324
21
0.324981
31
0
39
0
210
0
220
0
230
1
0
LINE
5
81
100
AcDbEntity
8
1
62
256
6
ByLayer
370
18
48
1
60
0
100
AcDbLine
10
9.476736
20
0.324981
30
0
11
9.404549
21
0.324981
31
0
39
0
210
0
220
0
230
1
0
LINE
5
82
100
AcDbEntity
8
1
62
256
6
ByLayer
370
18
48
1
60
0
100
AcDbLine
10
9.530813
20
0.25
30
0
11
7.189383
21
0.25
31
0
39
0
210
0
220
0
230
1
0
LINE
5
83
100
AcDbEntity
8
1
62
256
6
ByLayer
370
18
48
1
60
0
100
AcDbLine
10
14.717168
20
0.324981
30
0
11
9.57055
21
0.324981
31
0
39
0
210
0
220
0
230
1
0
LINE
5
84
100
AcDbEntity
8
1
62
256
6
ByLayer
370
18
48
1
60
0
100
AcDbLine
10
7.769151
20
-0.129904
30
0
11
15.243082
21
-0.129904
31
0
39
0
210
0
220
0
230
1
0
LINE
5
85
100
AcDbEntity
8
1
62
256
6
ByLayer
370
13
48
1
60
0
100
AcDbLine
10
14.818469
20
0.249981
30
0
11
7.154174
21
0.249981
31
0
39
0
210
0
220
0
230
1
0
LINE
5
86
100
AcDbEntity
8
1
62
256
6
ByLayer
370
18
48
1
60
0
100
AcDbLine
10
30.775752
20
-13.75
30
0
11
27.6
21
-13.75
31
0
39
0
210
0
220
0
230
1
0
LINE
5
87
100
AcDbEntity
8
1
62
256
6
ByLayer
370
18
48
1
60
0
100
AcDbLine
10
30.775752
20
-12.25
30
0
11
27.6
21
-12.25
31
0
39
0
210
0
220
0
230
1
0
LINE
5
88
100
AcDbEntity
8
1
62
256
6
ByLayer
370
18
48
1
60
0
100
AcDbLine
10
31.1
20
-12.951181
30
0
11
31.1
21
-13.048819
31
0
39
0
210
0
220
0
230
1
0
LINE
5
89
100
AcDbEntity
8
1
62
256
6
ByLayer
370
18
48
1
60
0
100
AcDbLine
10
-14.000019
20
0.324981
30
0
11
-14.075019
21
0.249981
31
0
39
0
210
0
220
0
230
1
0
LINE
5
8A
100
AcDbEntity
8
1
62
256
6
ByLayer
370
18
48
1
60
0
100
AcDbLine
10
-9.769771
20
0.324981
30
0
11
-10.247062
21
0.324981
31
0
39
0
210
0
220
0
230
1
0
LINE
5
8B
100
AcDbEntity
8
1
62
256
6
ByLayer
370
18
48
1
60
0
100
AcDbLine
10
-10.810081
20
0.324981
30
0
11
-11.023511
21
0.324981
31
0
39
0
210
0
220
0
230
1
0
LINE
5
8C
100
AcDbEntity
8
1
62
256
6
ByLayer
370
18
48
1
60
0
100
AcDbLine
10
-13.791283
20
0.324981
30
0
11
-14.000019
21
0.324981
31
0
39
0
210
0
220
0
230
1
0
LINE
5
8D
100
AcDbEntity
8
1
62
256
6
ByLayer
370
18
48
1
60
0
100
AcDbLine
10
-14.075019
20
0.249981
30
0
11
-14.559331
21
-0.234331
31
0
39
0
210
0
220
0
230
1
0
LINE
5
8E
100
AcDbEntity
8
1
62
256
6
ByLayer
370
13
48
1
60
0
100
AcDbLine
10
-13.927309
20
0.249981
30
0
11
-14.075019
21
0.249981
31
0
39
0
210
0
220
0
230
1
0
LINE
5
8F
100
AcDbEntity
8
1
62
256
6
ByLayer
370
18
48
1
60
0
100
AcDbLine
10
-11.132078
20
0.324981
30
0
11
-11.287197
21
0.324981
31
0
39
0
210
0
220
0
230
1
0
LINE
5
90
100
AcDbEntity
8
1
62
256
6
ByLayer
370
18
48
1
60
0
100
AcDbLine
10
-13.048061
20
0.324981
30
0
11
-13.703327
21
0.324981
31
0
39
0
210
0
220
0
230
1
0
LINE
5
91
100
AcDbEntity
8
1
62
256
6
ByLayer
370
13
48
1
60
0
100
AcDbLine
10
-13.206552
20
0.249981
30
0
11
-13.72716
21
0.249981
31
0
39
0
210
0
220
0
230
1
0
LINE
5
92
100
AcDbEntity
8
1
62
256
6
ByLayer
370
13
48
1
60
0
100
AcDbLine
10
-14.125544
20
-0.394519
30
0
11
-14.265575
21
-0.394519
31
0
39
0
210
0
220
0
230
1
0
LINE
5
93
100
AcDbEntity
8
1
62
256
6
ByLayer
370
18
48
1
60
0
100
AcDbLine
10
-12.074956
20
0.324981
30
0
11
-12.9317
21
0.324981
31
0
39
0
210
0
220
0
230
1
0
LINE
5
94
100
AcDbEntity
8
1
62
256
6
ByLayer
370
13
48
1
60
0
100
AcDbLine
10
-12.261918
20
0.249981
30
0
11
-12.941904
21
0.249981
31
0
39
0
210
0
220
0
230
1
0
LINE
5
95
100
AcDbEntity
8
1
62
256
6
ByLayer
370
13
48
1
60
0
100
AcDbLine
10
-13.288685
20
-0.394519
30
0
11
-13.470275
21
-0.394519
31
0
39
0
210
0
220
0
230
1
0
LINE
5
96
100
AcDbEntity
8
1
62
256
6
ByLayer
370
18
48
1
60
0
100
AcDbLine
10
-11.287177
20
0.324981
30
0
11
-11.923781
21
0.324981
31
0
39
0
210
0
220
0
230
1
0
LINE
5
97
100
AcDbEntity
8
1
62
256
6
ByLayer
370
13
48
1
60
0
100
AcDbLine
10
-11.153931
20
0.249981
30
0
11
-11.918509
21
0.249981
31
0
39
0
210
0
220
0
230
1
0
LINE
5
98
100
AcDbEntity
8
1
62
256
6
ByLayer
370
13
48
1
60
0
100
AcDbLine
10
-12.212601
20
-0.394519
30
0
11
-12.44548
21
-0.394519
31
0
39
0
210
0
220
0
230
1
0
LINE
5
99
100
AcDbEntity
8
1
62
256
6
ByLayer
370
18
48
1
60
0
100
AcDbLine
10
-10.247044
20
0.324981
30
0
11
-10.612458
21
0.324981
31
0
39
0
210
0
220
0
230
1
0
LINE
5
9A
100
AcDbEntity
8
1
62
256
6
ByLayer
370
13
48
1
60
0
100
AcDbLine
10
-9.966378
20
0.249981
30
0
11
-10.588147
21
0.249981
31
0
39
0
210
0
220
0
230
1
0
LINE
5
9B
100
AcDbEntity
8
1
62
256
6
ByLayer
370
18
48
1
60
0
100
AcDbLine
10
-9.769771
20
0.324981
30
0
11
-9.404549
21
0.324981
31
0
39
0
210
0
220
0
230
1
0
LINE
5
9C
100
AcDbEntity
8
1
62
256
6
ByLayer
370
18
48
1
60
0
100
AcDbLine
10
-11.132078
20
0.324981
30
0
11
-11.023467
21
0.324981
31
0
39
0
210
0
220
0
230
1
0
LINE
5
9D
100
AcDbEntity
8
1
62
256
6
ByLayer
370
13
48
1
60
0
100
AcDbLine
10
-10.826097
20
-0.394519
30
0
11
-11.127967
21
-0.394519
31
0
39
0
210
0
220
0
230
1
0
LINE
5
9E
100
AcDbEntity
8
1
62
256
6
ByLayer
370
18
48
1
60
0
100
AcDbLine
10
16
20
-0.675
30
0
11
10.59418
21
-0.675
31
0
39
0
210
0
220
0
230
1
0
LINE
5
9F
100
AcDbEntity
8
1
62
256
6
ByLayer
370
18
48
1
60
0
100
AcDbLine
10
-6.742347
20
0.324981
30
0
11
-8.864082
21
0.324981
31
0
39
0
210
0
220
0
230
1
0
LINE
5
A0
100
AcDbEntity
8
1
62
256
6
ByLayer
370
13
48
1
60
0
100
AcDbLine
10
16
20
-0.875
30
0
11
10.59418
21
-0.875
31
0
39
0
210
0
220
0
230
1
0
LINE
5
A1
100
AcDbEntity
8
1
62
256
6
ByLayer
370
13
48
1
60
0
100
AcDbLine
10
-7.153914
20
0.249981
30
0
11
-8.812878
21
0.249981
31
0
39
0
210
0
220
0
230
1
0
LINE
5
A2
100
AcDbEntity
8
1
62
256
6
ByLayer
370
18
48
1
60
0
100
AcDbLine
10
27.6
20
-13.75
30
0
11
18.006384
21
-13.75
31
0
39
0
210
0
220
0
230
1
0
LINE
5
A3
100
AcDbEntity
8
1
62
256
6
ByLayer
370
18
48
1
60
0
100
AcDbLine
10
18.006384
20
-1.47968
30
0
11
20.75
21
-3.781848
31
0
39
0
210
0
220
0
230
1
0
LINE
5
A4
100
AcDbEntity
8
1
62
256
6
ByLayer
370
18
48
1
60
0
100
AcDbLine
10
27.6
20
-12.25
30
0
11
27.6
21
-13.75
31
0
39
0
210
0
220
0
230
1
0
LINE
5
A5
100
AcDbEntity
8
1
62
256
6
ByLayer
370
18
48
1
60
0
100
AcDbLine
10
27.6
20
-12.25
30
0
11
22.35
21
-12.25
31
0
39
0
210
0
220
0
230
1
0
LINE
5
A6
100
AcDbEntity
8
1
62
256
6
ByLayer
370
18
48
1
60
0
100
AcDbLine
10
20.75
20
-10.65
30
0
11
20.75
21
-3.781848
31
0
39
0
210
0
220
0
230
1
0
LINE
5
A7
100
AcDbEntity
8
1
62
256
6
ByLayer
370
18
48
1
60
0
100
AcDbLine
10
11.14147
20
-13.75
30
0
11
18.006384
21
-13.75
31
0
39
0
210
0
220
0
230
1
0
LINE
5
A8
100
AcDbEntity
8
1
62
256
6
ByLayer
370
18
48
1
60
0
100
AcDbLine
10
17.881631
20
-1.375
30
0
11
18.006384
21
-1.47968
31
0
39
0
210
0
220
0
230
1
0
LINE
5
A9
100
AcDbEntity
8
1
62
256
6
ByLayer
370
18
48
1
60
0
100
AcDbLine
10
11.14147
20
-1.375
30
0
11
17.881631
21
-1.375
31
0
39
0
210
0
220
0
230
1
0
LINE
5
AA
100
AcDbEntity
8
1
62
256
6
ByLayer
370
18
48
1
60
0
100
AcDbLine
10
18.006384
20
-13.75
30
0
11
18.006384
21
-10.477139
31
0
39
0
210
0
220
0
230
1
0
LINE
5
AB
100
AcDbEntity
8
1
62
256
6
ByLayer
370
18
48
1
60
0
100
AcDbLine
10
18.006384
20
-4.022861
30
0
11
18.006384
21
-1.47968
31
0
39
0
210
0
220
0
230
1
0
LINE
5
AC
100
AcDbEntity
8
1
62
256
6
ByLayer
370
18
48
1
60
0
100
AcDbLine
10
11.14147
20
-13.75
30
0
11
9.85075
21
-13.75
31
0
39
0
210
0
220
0
230
1
0
LINE
5
AD
100
AcDbEntity
8
1
62
256
6
ByLayer
370
18
48
1
60
0
100
AcDbLine
10
9.824412
20
-0.675
30
0
11
10.59418
21
-0.675
31
0
39
0
210
0
220
0
230
1
0
LINE
5
AE
100
AcDbEntity
8
1
62
256
6
ByLayer
370
18
48
1
60
0
100
AcDbLine
10
10.59418
20
-0.875
30
0
11
10.59418
21
-0.675
31
0
39
0
210
0
220
0
230
1
0
LINE
5
AF
100
AcDbEntity
8
1
62
256
6
ByLayer
370
18
48
1
60
0
100
AcDbLine
10
11.14147
20
-1.375
30
0
11
11.14147
21
-13.75
31
0
39
0
210
0
220
0
230
1
0
LINE
5
B0
100
AcDbEntity
8
1
62
256
6
ByLayer
370
18
48
1
60
0
100
AcDbLine
10
11.14147
20
-1.375
30
0
11
10.913529
21
-1.375
31
0
39
0
210
0
220
0
230
1
0
LINE
5
B1
100
AcDbEntity
8
1
62
256
6
ByLayer
370
13
48
1
60
0
100
AcDbLine
10
-8.986711
20
-0.394519
30
0
11
-9.395388
21
-0.394519
31
0
39
0
210
0
220
0
230
1
0
LINE
5
B2
100
AcDbEntity
8
1
62
256
6
ByLayer
370
18
48
1
60
0
100
AcDbLine
10
6.326108
20
0.324981
30
0
11
1.735923
21
0.324981
31
0
39
0
210
0
220
0
230
1
0
LINE
5
B3
100
AcDbEntity
8
1
62
256
6
ByLayer
370
18
48
1
60
0
100
AcDbLine
10
-1.735923
20
0.324981
30
0
11
-6.326108
21
0.324981
31
0
39
0
210
0
220
0
230
1
0
LINE
5
B4
100
AcDbEntity
8
1
62
256
6
ByLayer
370
13
48
1
60
0
100
AcDbLine
10
6.222926
20
0.249981
30
0
11
3.020453
21
0.249981
31
0
39
0
210
0
220
0
230
1
0
LINE
5
B5
100
AcDbEntity
8
1
62
256
6
ByLayer
370
13
48
1
60
0
100
AcDbLine
10
-3.020453
20
0.249981
30
0
11
-6.222926
21
0.249981
31
0
39
0
210
0
220
0
230
1
0
LINE
5
B6
100
AcDbEntity
8
1
62
256
6
ByLayer
370
13
48
1
60
0
100
AcDbLine
10
6.943702
20
-0.394519
30
0
11
6.310523
21
-0.394519
31
0
39
0
210
0
220
0
230
1
0
LINE
5
B7
100
AcDbEntity
8
1
62
256
6
ByLayer
370
13
48
1
60
0
100
AcDbLine
10
-6.310523
20
-0.394519
30
0
11
-6.943702
21
-0.394519
31
0
39
0
210
0
220
0
230
1
0
LINE
5
B8
100
AcDbEntity
8
1
62
256
6
ByLayer
370
13
48
1
60
0
100
AcDbLine
10
1.912242
20
-0.394519
30
0
11
-1.912242
21
-0.394519
31
0
39
0
210
0
220
0
230
1
0
LINE
5
B9
100
AcDbEntity
8
1
62
256
6
ByLayer
370
18
48
1
60
0
100
AcDbLine
10
-15
20
-0.875
30
0
11
-15
21
-0.675
31
0
39
0
210
0
220
0
230
1
0
LINE
5
BA
100
AcDbEntity
8
1
62
256
6
ByLayer
370
18
48
1
60
0
100
AcDbLine
10
9.824471
20
-0.675
30
0
11
9.824471
21
-0.875
31
0
39
0
210
0
220
0
230
1
0
LINE
5
BB
100
AcDbEntity
8
1
62
256
6
ByLayer
370
18
48
1
60
0
100
AcDbLine
10
9.824471
20
-0.675
30
0
11
8.423936
21
-0.675
31
0
39
0
210
0
220
0
230
1
0
LINE
5
BC
100
AcDbEntity
8
1
62
256
6
ByLayer
370
18
48
1
60
0
100
AcDbLine
10
8.423936
20
-0.675
30
0
11
-15
21
-0.675
31
0
39
0
210
0
220
0
230
1
0
LINE
5
BD
100
AcDbEntity
8
1
62
256
6
ByLayer
370
18
48
1
60
0
100
AcDbLine
10
6.326108
20
0.324981
30
0
11
6.742492
21
0.324981
31
0
39
0
210
0
220
0
230
1
0
LINE
5
BE
100
AcDbEntity
8
1
62
256
6
ByLayer
370
18
48
1
60
0
100
AcDbLine
10
-1.735945
20
0.324981
30
0
11
1.735945
21
0.324981
31
0
39
0
210
0
220
0
230
1
0
LINE
5
BF
100
AcDbEntity
8
1
62
256
6
ByLayer
370
18
48
1
60
0
100
AcDbLine
10
-6.742492
20
0.324981
30
0
11
-6.326108
21
0.324981
31
0
39
0
210
0
220
0
230
1
0
LINE
5
C0
100
AcDbEntity
8
1
62
256
6
ByLayer
370
18
48
1
60
0
100
AcDbLine
10
-9.132847
20
0.324981
30
0
11
-8.864082
21
0.324981
31
0
39
0
210
0
220
0
230
1
0
LINE
5
C1
100
AcDbEntity
8
1
62
256
6
ByLayer
370
18
48
1
60
0
100
AcDbLine
10
-10.810022
20
0.324981
30
0
11
-10.612458
21
0.324981
31
0
39
0
210
0
220
0
230
1
0
LINE
5
C2
100
AcDbEntity
8
1
62
256
6
ByLayer
370
18
48
1
60
0
100
AcDbLine
10
-12.074944
20
0.324981
30
0
11
-11.923781
21
0.324981
31
0
39
0
210
0
220
0
230
1
0
LINE
5
C3
100
AcDbEntity
8
1
62
256
6
ByLayer
370
18
48
1
60
0
100
AcDbLine
10
-13.048064
20
0.324981
30
0
11
-12.9317
21
0.324981
31
0
39
0
210
0
220
0
230
1
0
LINE
5
C4
100
AcDbEntity
8
1
62
256
6
ByLayer
370
18
48
1
60
0
100
AcDbLine
10
-13.791289
20
0.324981
30
0
11
-13.703327
21
0.324981
31
0
39
0
210
0
220
0
230
1
0
LINE
5
C5
100
AcDbEntity
8
1
62
256
6
ByLayer
370
13
48
1
60
0
100
AcDbLine
10
-15
20
-0.875
30
0
11
9.824471
21
-0.875
31
0
39
0
210
0
220
0
230
1
0
LINE
5
C6
100
AcDbEntity
8
1
62
256
6
ByLayer
370
18
48
1
60
0
100
AcDbLine
10
-7.35
20
-13.75
30
0
11
0
21
-13.75
31
0
39
0
210
0
220
0
230
1
0
LINE
5
C7
100
AcDbEntity
8
1
62
256
6
ByLayer
370
18
48
1
60
0
100
AcDbLine
10
-15
20
-1.092945
30
0
11
0
21
-1.092945
31
0
39
0
210
0
220
0
230
1
0
LINE
5
C8
100
AcDbEntity
8
1
62
256
6
ByLayer
370
18
48
1
60
0
100
AcDbLine
10
-15
20
-1.092945
30
0
11
-15
21
-6.1
31
0
39
0
210
0
220
0
230
1
0
LINE
5
C9
100
AcDbEntity
8
1
62
256
6
ByLayer
370
18
48
1
60
0
100
AcDbLine
10
-15
20
-6.1
30
0
11
-7.35
21
-13.75
31
0
39
0
210
0
220
0
230
1
0
LINE
5
CA
100
AcDbEntity
8
1
62
256
6
ByLayer
370
13
48
1
60
0
100
AcDbLine
10
0
20
-1.092945
30
0
11
0
21
-13.75
31
0
39
0
210
0
220
0
230
1
0
LINE
5
CB
100
AcDbEntity
8
1
62
256
6
ByLayer
370
18
48
1
60
0
100
AcDbLine
10
0
20
-13.75
30
0
11
6.461
21
-13.75
31
0
39
0
210
0
220
0
230
1
0
LINE
5
CC
100
AcDbEntity
8
1
62
256
6
ByLayer
370
18
48
1
60
0
100
AcDbLine
10
3.827205
20
-1.375
30
0
11
6.461
21
-1.375
31
0
39
0
210
0
220
0
230
1
0
LINE
5
CD
100
AcDbEntity
8
1
62
256
6
ByLayer
370
18
48
1
60
0
100
AcDbLine
10
6.461
20
-13.75
30
0
11
9.850766
21
-13.75
31
0
39
0
210
0
220
0
230
1
0
LINE
5
CE
100
AcDbEntity
8
1
62
256
6
ByLayer
370
18
48
1
60
0
100
AcDbLine
10
9.850766
20
-13.75
30
0
11
9.850766
21
-1.073682
31
0
39
0
210
0
220
0
230
1
0
LINE
5
CF
100
AcDbEntity
8
1
62
256
6
ByLayer
370
18
48
1
60
0
100
AcDbLine
10
6.461
20
-1.375
30
0
11
8.18325
21
-1.375
31
0
39
0
210
0
220
0
230
1
0
LINE
5
D0
100
AcDbEntity
8
1
62
256
6
ByLayer
370
18
48
1
60
0
100
AcDbLine
10
6.461
20
-1.375
30
0
11
6.461
21
-13.75
31
0
39
0
210
0
220
0
230
1
0
LINE
5
D1
100
AcDbEntity
8
1
62
256
6
ByLayer
370
18
48
1
60
0
100
AcDbLine
10
36.905806
20
-12.004758
30
0
11
35.883378
21
-12.067292
31
0
39
0
210
0
220
0
230
1
0
LINE
5
D2
100
AcDbEntity
8
1
62
256
6
ByLayer
370
18
48
1
60
0
100
AcDbLine
10
35.883378
20
-13.932708
30
0
11
36.905806
21
-13.995242
31
0
39
0
210
0
220
0
230
1
0
LINE
5
D3
100
AcDbEntity
8
1
62
256
6
ByLayer
370
18
48
1
60
0
100
AcDbLine
10
37.35
20
-13.802703
30
0
11
37.35
21
-12.197297
31
0
39
0
210
0
220
0
230
1
0
LINE
5
D4
100
AcDbEntity
8
1
62
256
6
ByLayer
370
18
48
1
60
0
100
AcDbLine
10
18.816622
20
-13.932708
30
0
11
17.794194
21
-13.995242
31
0
39
0
210
0
220
0
230
1
0
LINE
5
D5
100
AcDbEntity
8
1
62
256
6
ByLayer
370
18
48
1
60
0
100
AcDbLine
10
17.35
20
-13.802703
30
0
11
17.35
21
-13.749976
31
0
39
0
210
0
220
0
230
1
0
LINE
5
D6
100
AcDbEntity
8
1
62
256
6
ByLayer
370
18
48
1
60
0
100
AcDbLine
10
35.325621
20
-12.074879
30
0
11
35.282822
21
-12.083925
31
0
39
0
210
0
220
0
230
1
0
LINE
5
D7
100
AcDbEntity
8
1
62
256
6
ByLayer
370
18
48
1
60
0
100
AcDbLine
10
35.282822
20
-13.916075
30
0
11
35.325621
21
-13.925121
31
0
39
0
210
0
220
0
230
1
0
LINE
5
D8
100
AcDbEntity
8
1
62
256
6
ByLayer
370
18
48
1
60
0
100
AcDbLine
10
35.365528
20
-13.929398
30
0
11
35.883378
21
-13.932708
31
0
39
0
210
0
220
0
230
1
0
LINE
5
D9
100
AcDbEntity
8
1
62
256
6
ByLayer
370
18
48
1
60
0
100
AcDbLine
10
35.883378
20
-13.932708
30
0
11
35.883378
21
-12.067292
31
0
39
0
210
0
220
0
230
1
0
LINE
5
DA
100
AcDbEntity
8
1
62
256
6
ByLayer
370
18
48
1
60
0
100
AcDbLine
10
35.883378
20
-12.067292
30
0
11
35.365528
21
-12.070602
31
0
39
0
210
0
220
0
230
1
0
LINE
5
DB
100
AcDbEntity
8
1
62
256
6
ByLayer
370
18
48
1
60
0
100
AcDbLine
10
19.417178
20
-13.916075
30
0
11
19.374379
21
-13.925121
31
0
39
0
210
0
220
0
230
1
0
LINE
5
DC
100
AcDbEntity
8
1
62
256
6
ByLayer
370
18
48
1
60
0
100
AcDbLine
10
18.816622
20
-13.932708
30
0
11
18.816622
21
-13.749985
31
0
39
0
210
0
220
0
230
1
0
LINE
5
DD
100
AcDbEntity
8
1
62
256
6
ByLayer
370
18
48
1
60
0
100
AcDbLine
10
19.334472
20
-13.929398
30
0
11
18.816622
21
-13.932708
31
0
39
0
210
0
220
0
230
1
0
LINE
5
DE
100
AcDbEntity
8
1
62
256
6
ByLayer
370
13
48
1
60
0
100
AcDbLine
10
34.266013
20
-13
30
0
11
31.099992
21
-13
31
0
39
0
210
0
220
0
230
1
0
LINE
5
DF
100
AcDbEntity
8
1
62
256
6
ByLayer
370
13
48
1
60
0
100
AcDbLine
10
31.012446
20
-12.802665
30
0
11
33.615948
21
-12.802665
31
0
39
0
210
0
220
0
230
1
0
LINE
5
E0
100
AcDbEntity
8
1
62
256
6
ByLayer
370
13
48
1
60
0
100
AcDbLine
10
33.615948
20
-13.197335
30
0
11
31.012446
21
-13.197335
31
0
39
0
210
0
220
0
230
1
0
LINE
5
E1
100
AcDbEntity
8
1
62
256
6
ByLayer
370
13
48
1
60
0
100
AcDbLine
10
31.006049
20
-12.799244
30
0
11
33.571739
21
-12.799244
31
0
39
0
210
0
220
0
230
1
0
LINE
5
E2
100
AcDbEntity
8
1
62
256
6
ByLayer
370
13
48
1
60
0
100
AcDbLine
10
31.006049
20
-13.200756
30
0
11
33.571739
21
-13.200756
31
0
39
0
210
0
220
0
230
1
0
LINE
5
E3
100
AcDbEntity
8
1
62
256
6
ByLayer
370
13
48
1
60
0
100
AcDbLine
10
30.913506
20
-12.748976
30
0
11
32.984281
21
-12.748976
31
0
39
0
210
0
220
0
230
1
0
LINE
5
E4
100
AcDbEntity
8
1
62
256
6
ByLayer
370
13
48
1
60
0
100
AcDbLine
10
30.913506
20
-13.251024
30
0
11
32.984281
21
-13.251024
31
0
39
0
210
0
220
0
230
1
0
LINE
5
E5
100
AcDbEntity
8
1
62
256
6
ByLayer
370
13
48
1
60
0
100
AcDbLine
10
30.881214
20
-13.367998
30
0
11
32.476524
21
-13.367998
31
0
39
0
210
0
220
0
230
1
0
LINE
5
E6
100
AcDbEntity
8
1
62
256
6
ByLayer
370
13
48
1
60
0
100
AcDbLine
10
30.881214
20
-12.632002
30
0
11
32.476524
21
-12.632002
31
0
39
0
210
0
220
0
230
1
0
LINE
5
E7
100
AcDbEntity
8
1
62
256
6
ByLayer
370
13
48
1
60
0
100
AcDbLine
10
30.80999
20
-13.625984
30
0
11
32.05267
21
-13.625984
31
0
39
0
210
0
220
0
230
1
0
LINE
5
E8
100
AcDbEntity
8
1
62
256
6
ByLayer
370
18
48
1
60
0
100
AcDbLine
10
32.013214
20
-12.2
30
0
11
34.689893
21
-12.2
31
0
39
0
210
0
220
0
230
1
0
LINE
5
E9
100
AcDbEntity
8
1
62
256
6
ByLayer
370
18
48
1
60
0
100
AcDbLine
10
34.689893
20
-13.8
30
0
11
32.013214
21
-13.8
31
0
39
0
210
0
220
0
230
1
0
LINE
5
EA
100
AcDbEntity
8
1
62
256
6
ByLayer
370
18
48
1
60
0
100
AcDbLine
10
35.282822
20
-12.083925
30
0
11
34.937522
21
-12.1698
31
0
39
0
210
0
220
0
230
1
0
LINE
5
EB
100
AcDbEntity
8
1
62
256
6
ByLayer
370
18
48
1
60
0
100
AcDbLine
10
32.05267
20
-12.374016
30
0
11
32.476524
21
-12.632002
31
0
39
0
210
0
220
0
230
1
0
LINE
5
EC
100
AcDbEntity
8
1
62
256
6
ByLayer
370
18
48
1
60
0
100
AcDbLine
10
33.571739
20
-12.799244
30
0
11
33.615948
21
-12.802665
31
0
39
0
210
0
220
0
230
1
0
LINE
5
ED
100
AcDbEntity
8
1
62
256
6
ByLayer
370
18
48
1
60
0
100
AcDbLine
10
33.615948
20
-13.197335
30
0
11
33.571739
21
-13.200756
31
0
39
0
210
0
220
0
230
1
0
LINE
5
EE
100
AcDbEntity
8
1
62
256
6
ByLayer
370
18
48
1
60
0
100
AcDbLine
10
32.476524
20
-13.367998
30
0
11
32.05267
21
-13.625984
31
0
39
0
210
0
220
0
230
1
0
LINE
5
EF
100
AcDbEntity
8
1
62
256
6
ByLayer
370
18
48
1
60
0
100
AcDbLine
10
34.937522
20
-13.8302
30
0
11
35.282822
21
-13.916075
31
0
39
0
210
0
220
0
230
1
0
LINE
5
F0
100
AcDbEntity
8
1
62
256
6
ByLayer
370
18
48
1
60
0
100
AcDbLine
10
35.282822
20
-13.916075
30
0
11
35.282822
21
-12.083925
31
0
39
0
210
0
220
0
230
1
0
LINE
5
F1
100
AcDbEntity
8
1
62
256
6
ByLayer
370
13
48
1
60
0
100
AcDbLine
10
32.05267
20
-12.374016
30
0
11
30.80999
21
-12.374016
31
0
39
0
210
0
220
0
230
1
0
LINE
5
F2
100
AcDbEntity
8
1
62
256
6
ByLayer
370
18
48
1
60
0
100
AcDbLine
10
32.013214
20
-12.2
30
0
11
22.686786
21
-12.2
31
0
39
0
210
0
220
0
230
1
0
LINE
5
F3
100
AcDbEntity
8
1
62
256
6
ByLayer
370
18
48
1
60
0
100
AcDbLine
10
32.013214
20
-12.2
30
0
11
32.013214
21
-12.324562
31
0
39
0
210
0
220
0
230
1
0
LINE
5
F4
100
AcDbEntity
8
1
62
256
6
ByLayer
370
13
48
1
60
0
100
AcDbLine
10
30.796261
20
-12.324562
30
0
11
32.013214
21
-12.324562
31
0
39
0
210
0
220
0
230
1
0
LINE
5
F5
100
AcDbEntity
8
1
62
256
6
ByLayer
370
18
48
1
60
0
100
AcDbLine
10
32.013214
20
-13.675438
30
0
11
32.013214
21
-13.8
31
0
39
0
210
0
220
0
230
1
0
LINE
5
F6
100
AcDbEntity
8
1
62
256
6
ByLayer
370
13
48
1
60
0
100
AcDbLine
10
32.013214
20
-13.675438
30
0
11
30.796261
21
-13.675438
31
0
39
0
210
0
220
0
230
1
0
LINE
5
F7
100
AcDbEntity
8
1
62
256
6
ByLayer
370
18
48
1
60
0
100
AcDbLine
10
22.686786
20
-13.8
30
0
11
32.013214
21
-13.8
31
0
39
0
210
0
220
0
230
1
0
LINE
5
F8
100
AcDbEntity
8
1
62
256
6
ByLayer
370
18
48
1
60
0
100
AcDbLine
10
19.417178
20
-13.916075
30
0
11
19.417178
21
-13.749979
31
0
39
0
210
0
220
0
230
1
0
LINE
5
F9
100
AcDbEntity
8
1
62
256
6
ByLayer
370
18
48
1
60
0
100
AcDbLine
10
19.762478
20
-13.8302
30
0
11
19.417178
21
-13.916075
31
0
39
0
210
0
220
0
230
1
0
LINE
5
FA
100
AcDbEntity
8
1
62
256
6
ByLayer
370
18
48
1
60
0
100
AcDbLine
10
20.010107
20
-13.8
30
0
11
22.686786
21
-13.8
31
0
39
0
210
0
220
0
230
1
0
LINE
5
FB
100
AcDbEntity
8
1
62
256
6
ByLayer
370
18
48
1
60
0
100
AcDbLine
10
22.686786
20
-13.749998
30
0
11
22.686786
21
-13.8
31
0
39
0
210
0
220
0
230
1
0
LINE
5
FC
100
AcDbEntity
8
1
62
256
6
ByLayer
370
18
48
1
60
0
100
AcDbLine
10
22.686786
20
-12.2
30
0
11
22.686786
21
-12.250002
31
0
39
0
210
0
220
0
230
1
0
LINE
5
FD
100
AcDbEntity
8
1
62
256
6
ByLayer
370
18
48
1
60
0
100
AcDbLine
10
22.686786
20
-12.2
30
0
11
21.953125
21
-12.2
31
0
39
0
210
0
220
0
230
1
0
MTEXT
5
184
100
AcDbEntity
8
SK6
62
256
6
ByLayer
370
18
48
1
60
0
100
AcDbMText
10
-21.1395
20
-58.724355
30
0
210
0
220
0
230
1
1
\W0.7568;C2R-SL32-RE15GB
40
3.5
41
0
44
1.084337
50
0
71
7
72
5
7
iso_b_vert
0
DIMENSION
5
189
100
AcDbEntity
8
2
62
256
6
ByLayer
370
18
48
1
60
0
100
AcDbDimension
2
_U0
10
37.35
20
16.25
30
0
11
18.675
21
16.25
31
0
70
32
71
1
72
1
41
1
210
0
220
0
230
1
3
Standard
100
AcDbAlignedDimension
13
0
23
0
33
0
14
37.35
24
-14
34
0
50
0
100
AcDbRotatedDimension
1001
ACAD
1000
DSTYLE
1002
{
1070
   371
1070
    13
1070
   372
1070
    13
1070
   170
1070
     0
1070
   144
1040
1.0
1070
   277
1070
     2
1070
   284
1070
     8
1070
   278
1070
    46
1070
   146
1040
1.0
1070
   345
1005
16
1070
   347
1005
16
1070
   346
1005
16
1070
   344
1005
0
1070
   343
1005
0
1070
   172
1070
     1
1070
    76
1070
     0
1070
    75
1070
     0
1070
   282
1070
     0
1070
   281
1070
     0
1070
    71
1070
     0
1070
    74
1070
     0
1070
   279
1070
     0
1070
   173
1070
     1
1070
   340
1005
185
1070
   271
1070
     2
1070
   272
1070
     2
1070
    77
1070
     1
1070
    73
1070
     1
1070
   171
1070
     3
1070
   274
1070
     4
1070
   177
1070
     2
1070
   176
1070
     2
1070
   178
1070
     2
1070
    78
1070
     8
1070
    48
1040
-0.1
1070
    41
1040
3.5
1070
   147
1040
1.75
1070
    42
1040
1.5875
1070
    44
1040
2.0
1070
   140
1040
3.5
1002
}
1001
ACAD_DSTYLE_DIM_LINETYPE
1070
   380
1005
16
1001
ACAD_DSTYLE_DIM_EXT1_LINETYPE
1070
   381
1005
16
1001
ACAD_DSTYLE_DIM_EXT2_LINETYPE
1070
   382
1005
16
0
DIMENSION
5
1A3
100
AcDbEntity
8
2
62
256
6
ByLayer
370
18
48
1
60
0
100
AcDbDimension
2
_U1
10
37.35
20
8.25
30
0
11
29.85
21
8.25
31
0
70
32
71
1
72
1
41
1
210
0
220
0
230
1
3
Standard
100
AcDbAlignedDimension
13
22.35
23
-12.25
33
0
14
37.35
24
-14
34
0
50
0
100
AcDbRotatedDimension
1001
ACAD
1000
DSTYLE
1002
{
1070
   371
1070
    13
1070
   372
1070
    13
1070
   170
1070
     0
1070
   144
1040
1.0
1070
   277
1070
     2
1070
   284
1070
     8
1070
   278
1070
    46
1070
   146
1040
1.0
1070
   345
1005
16
1070
   347
1005
16
1070
   346
1005
16
1070
   344
1005
0
1070
   343
1005
0
1070
   172
1070
     1
1070
    76
1070
     0
1070
    75
1070
     0
1070
   282
1070
     0
1070
   281
1070
     0
1070
    71
1070
     0
1070
    74
1070
     0
1070
   279
1070
     0
1070
   173
1070
     1
1070
   340
1005
185
1070
   271
1070
     2
1070
   272
1070
     2
1070
    77
1070
     1
1070
    73
1070
     1
1070
   171
1070
     3
1070
   274
1070
     4
1070
   177
1070
     2
1070
   176
1070
     2
1070
   178
1070
     2
1070
    78
1070
     8
1070
    48
1040
-0.1
1070
    41
1040
3.5
1070
   147
1040
1.75
1070
    42
1040
1.5875
1070
    44
1040
2.0
1070
   140
1040
3.5
1002
}
1001
ACAD_DSTYLE_DIM_LINETYPE
1070
   380
1005
16
1001
ACAD_DSTYLE_DIM_EXT1_LINETYPE
1070
   381
1005
16
1001
ACAD_DSTYLE_DIM_EXT2_LINETYPE
1070
   382
1005
16
0
DIMENSION
5
1BC
100
AcDbEntity
8
2
62
256
6
ByLayer
370
18
48
1
60
0
100
AcDbDimension
2
_U2
10
62.1
20
0
30
0
11
62.1
21
-7
31
0
70
32
71
1
72
1
41
1
210
0
220
0
230
1
3
Standard
100
AcDbAlignedDimension
13
37.35
23
-14
33
0
14
0
24
0
34
0
50
90
100
AcDbRotatedDimension
1001
ACAD
1000
DSTYLE
1002
{
1070
   371
1070
    13
1070
   372
1070
    13
1070
   170
1070
     0
1070
   144
1040
1.0
1070
   277
1070
     2
1070
   284
1070
     8
1070
   278
1070
    46
1070
   146
1040
1.0
1070
   345
1005
16
1070
   347
1005
16
1070
   346
1005
16
1070
   344
1005
0
1070
   343
1005
0
1070
   172
1070
     1
1070
    76
1070
     0
1070
    75
1070
     0
1070
   282
1070
     0
1070
   281
1070
     0
1070
    71
1070
     0
1070
    74
1070
     0
1070
   279
1070
     0
1070
   173
1070
     1
1070
   340
1005
185
1070
   271
1070
     2
1070
   272
1070
     2
1070
    77
1070
     1
1070
    73
1070
     0
1070
   171
1070
     3
1070
   274
1070
     4
1070
   177
1070
     2
1070
   176
1070
     2
1070
   178
1070
     2
1070
    78
1070
     8
1070
    48
1040
-0.1
1070
    41
1040
3.5
1070
   147
1040
1.75
1070
    42
1040
1.5875
1070
    44
1040
2.0
1070
   140
1040
3.5
1002
}
1001
ACAD_DSTYLE_DIM_LINETYPE
1070
   380
1005
16
1001
ACAD_DSTYLE_DIM_EXT1_LINETYPE
1070
   381
1005
16
1001
ACAD_DSTYLE_DIM_EXT2_LINETYPE
1070
   382
1005
16
0
DIMENSION
5
1D5
100
AcDbEntity
8
2
62
256
6
ByLayer
370
18
48
1
60
0
100
AcDbDimension
2
_U3
10
49.1
20
-12
30
0
11
49.1
21
-13
31
0
70
32
71
1
72
1
41
1
210
0
220
0
230
1
3
Standard
100
AcDbAlignedDimension
13
37.35
23
-14
33
0
14
37.35
24
-12
34
0
50
90
100
AcDbRotatedDimension
1001
ACAD
1000
DSTYLE
1002
{
1070
   371
1070
    13
1070
   372
1070
    13
1070
   170
1070
     0
1070
   144
1040
1.0
1070
   277
1070
     2
1070
   284
1070
     8
1070
   278
1070
    46
1070
   146
1040
1.0
1070
   345
1005
16
1070
   347
1005
16
1070
   346
1005
16
1070
   344
1005
0
1070
   343
1005
0
1070
   172
1070
     1
1070
    76
1070
     0
1070
    75
1070
     0
1070
   282
1070
     0
1070
   281
1070
     0
1070
    71
1070
     0
1070
    74
1070
     0
1070
   279
1070
     0
1070
   173
1070
     1
1070
   340
1005
185
1070
   271
1070
     2
1070
   272
1070
     2
1070
    77
1070
     1
1070
    73
1070
     0
1070
   171
1070
     3
1070
   274
1070
     4
1070
   177
1070
     2
1070
   176
1070
     2
1070
   178
1070
     2
1070
    78
1070
     8
1070
    48
1040
-0.1
1070
    41
1040
3.5
1070
   147
1040
1.75
1070
    42
1040
1.5875
1070
    44
1040
2.0
1070
   140
1040
3.5
1002
}
1001
ACAD_DSTYLE_DIM_LINETYPE
1070
   380
1005
16
1001
ACAD_DSTYLE_DIM_EXT1_LINETYPE
1070
   381
1005
16
1001
ACAD_DSTYLE_DIM_EXT2_LINETYPE
1070
   382
1005
16
0
ENDSEC
0
SECTION
2
OBJECTS
0
DICTIONARY
5
25b
330
0
100
AcDbDictionary
280
0
281
1
3
ACAD_GROUP
350
25c
3
ACAD_MLINESTYLE
350
25d
0
DICTIONARY
5
25c
330
0
100
AcDbDictionary
280
0
281
1
0
DICTIONARY
5
25d
330
0
100
AcDbDictionary
280
0
281
1
3
Standard
350
18
0
MLINESTYLE
5
18
330
25d
100
AcDbMlineStyle
2
Standard
70
0
3

62
256
51
90
52
90
71
2
49
-0.5
62
256
6
ByLayer
49
0.5
62
256
6
ByLayer
0
RASTERVARIABLES
5
24c
330

100
AcDbRasterVariables
90
0
70
1
71
1
72
1
0
ENDSEC
0
EOF
