0
SECTION
2
HEADER
9
$ACADVER
1
AC1015
9
$DWGCODEPAGE
3
ANSI_1252
9
$HANDSEED
5
250
9
$ANGBASE
50
0
9
$ANGDIR
70
0
9
$ATTMODE
70
1
9
$AUNITS
70
0
9
$AUPREC
70
0
9
$CECOLOR
62
256
9
$CELTSCALE
40
1
9
$CELTYPE
6
ByLayer
9
$CELWEIGHT
370
18
9
$CLAYER
8
0
9
$CMLJUST
70
0
9
$CMLSCALE
40
1
9
$CMLSTYLE
2
Standard
9
$DIMSTYLE
2
Standard
9
$TEXTSIZE
40
0.2
9
$TEXTSTYLE
7
Standard
9
$LUNITS
70
2
9
$LUPREC
70
4
9
$EXTNAMES
290
1
9
$INSUNITS
70
4
9
$LTSCALE
40
1
9
$LWDISPLAY
290
1
9
$PDMODE
70
0
9
$PDSIZE
40
0
9
$PLINEGEN
70
0
0
ENDSEC
0
SECTION
2
CLASSES
0
CLASS
1
RASTERVARIABLES
2
AcDbRasterVariables
3
ISM
90
0
280
0
281
0
0
ENDSEC
0
SECTION
2
TABLES
0
TABLE
2
VPORT
5
246
100
AcDbSymbolTable
0
VPORT
5
1
100
AcDbSymbolTableRecord
100
AcDbViewportTableRecord
2
*Active
70
0
10
0
20
0
11
1
21
1
12
-1
22
1
13
0
23
0
14
0.5
24
0.5
15
10
25
10
16
0
26
0
36
1
17
0
27
0
37
0
0
ENDTAB
0
TABLE
2
LTYPE
5
247
100
AcDbSymbolTable
0
LTYPE
5
14
100
AcDbSymbolTableRecord
100
AcDbLinetypeTableRecord
70
0
2
ByBlock
3

72
65
73
0
40
0
0
LTYPE
5
15
100
AcDbSymbolTableRecord
100
AcDbLinetypeTableRecord
70
0
2
ByLayer
3

72
65
73
0
40
0
0
LTYPE
5
16
100
AcDbSymbolTableRecord
100
AcDbLinetypeTableRecord
70
0
2
Continuous
3
Solid line
72
65
73
0
40
0
0
LTYPE
5
6E
100
AcDbSymbolTableRecord
100
AcDbLinetypeTableRecord
70
0
2
CENTER
3
____ _ ____ _ ____ _ ____
72
65
73
4
40
47.5
49
22
74
0
49
-8.5
74
0
49
8.5
74
0
49
-8.5
74
0
0
LTYPE
5
6F
100
AcDbSymbolTableRecord
100
AcDbLinetypeTableRecord
70
0
2
DASHED
3
__ __ __ __ __ __ __ __ __
72
65
73
2
40
25.72
49
12.86
74
0
49
-12.86
74
0
0
ENDTAB
0
TABLE
2
LAYER
5
248
100
AcDbSymbolTable
0
LAYER
5
10
100
AcDbSymbolTableRecord
100
AcDbLayerTableRecord
2
0
70
0
62
7
6
Continuous
290
1
370
-3
390
0
0
LAYER
5
71
100
AcDbSymbolTableRecord
100
AcDbLayerTableRecord
2
81
70
0
62
-3
6
Continuous
290
1
370
-3
390
0
0
LAYER
5
73
100
AcDbSymbolTableRecord
100
AcDbLayerTableRecord
2
80
70
0
62
-6
6
Continuous
290
1
370
-3
390
0
0
LAYER
5
75
100
AcDbSymbolTableRecord
100
AcDbLayerTableRecord
2
1
70
0
62
4
6
Continuous
290
1
370
-3
390
0
0
LAYER
5
174
100
AcDbSymbolTableRecord
100
AcDbLayerTableRecord
2
Defpoints
70
0
62
7
6
Continuous
290
0
370
-3
390
0
0
LAYER
5
181
100
AcDbSymbolTableRecord
100
AcDbLayerTableRecord
2
2
70
0
62
7
6
Continuous
290
1
370
-3
390
0
0
LAYER
5
235
100
AcDbSymbolTableRecord
100
AcDbLayerTableRecord
2
SK6
70
0
62
5
6
Continuous
290
1
370
-3
390
0
0
ENDTAB
0
TABLE
2
STYLE
5
249
100
AcDbSymbolTable
0
STYLE
5
11
100
AcDbSymbolTableRecord
100
AcDbTextStyleTableRecord
2
Standard
3
txt
70
0
71
0
40
0
41
1
42
0
50
0
0
STYLE
5
16D
100
AcDbSymbolTableRecord
100
AcDbTextStyleTableRecord
2
iso_b_vert
3
simplex.shx
70
0
71
0
40
0
41
1
42
0
50
0
0
STYLE
5
16E
100
AcDbSymbolTableRecord
100
AcDbTextStyleTableRecord
2
DWGDirectTextStyle
3
simplex
70
0
71
0
40
0
41
1
42
0
50
0
0
ENDTAB
0
TABLE
2
DIMSTYLE
5
24a
100
AcDbSymbolTable
100
AcDbDimStyleTable
0
DIMSTYLE
105
27
100
AcDbSymbolTableRecord
100
AcDbDimStyleTableRecord
2
Standard
70
0
3
<>
41
0.18
42
0.0625
44
0.18
140
0.18
147
0.09
73
0
74
0
77
1
271
2
275
0
278
52
280
0
340
11
0
ENDTAB
0
TABLE
2
VIEW
5
24b
100
AcDbSymbolTable
0
ENDTAB
0
TABLE
2
UCS
5
24c
100
AcDbSymbolTable
0
ENDTAB
0
TABLE
2
APPID
5
24d
100
AcDbSymbolTable
0
APPID
5
12
100
AcDbSymbolTableRecord
100
AcDbRegAppTableRecord
2
ACAD
70
0
0
APPID
5
170
100
AcDbSymbolTableRecord
100
AcDbRegAppTableRecord
2
ACAD_DSTYLE_DIMBREAK
70
0
0
APPID
5
1F4
100
AcDbSymbolTableRecord
100
AcDbRegAppTableRecord
2
ACAD_DSTYLE_DIM_LINETYPE
70
0
0
APPID
5
1F5
100
AcDbSymbolTableRecord
100
AcDbRegAppTableRecord
2
ACAD_DSTYLE_DIM_EXT1_LINETYPE
70
0
0
APPID
5
1F6
100
AcDbSymbolTableRecord
100
AcDbRegAppTableRecord
2
ACAD_DSTYLE_DIM_EXT2_LINETYPE
70
0
0
APPID
5
231
100
AcDbSymbolTableRecord
100
AcDbRegAppTableRecord
2
ACAD_MLEADERVER
70
0
0
ENDTAB
0
TABLE
2
BLOCK_RECORD
5
24e
100
AcDbSymbolTable
0
BLOCK_RECORD
5
1F
100
AcDbSymbolTableRecord
100
AcDbBlockTableRecord
2
*Model_Space
340
0
70
0
0
BLOCK_RECORD
5
1B
100
AcDbSymbolTableRecord
100
AcDbBlockTableRecord
2
*Paper_Space
340
0
70
0
0
BLOCK_RECORD
5
23
100
AcDbSymbolTableRecord
100
AcDbBlockTableRecord
2
*Paper_Space0
340
0
70
0
0
BLOCK_RECORD
5
175
100
AcDbSymbolTableRecord
100
AcDbBlockTableRecord
2
*D1
340
0
70
0
0
BLOCK_RECORD
5
182
100
AcDbSymbolTableRecord
100
AcDbBlockTableRecord
2
_U0
340
0
70
0
0
BLOCK_RECORD
5
18E
100
AcDbSymbolTableRecord
100
AcDbBlockTableRecord
2
*D3
340
0
70
0
0
BLOCK_RECORD
5
19B
100
AcDbSymbolTableRecord
100
AcDbBlockTableRecord
2
_U1
340
0
70
0
0
BLOCK_RECORD
5
1A7
100
AcDbSymbolTableRecord
100
AcDbBlockTableRecord
2
*D5
340
0
70
0
0
BLOCK_RECORD
5
1B4
100
AcDbSymbolTableRecord
100
AcDbBlockTableRecord
2
_U2
340
0
70
0
0
BLOCK_RECORD
5
1C0
100
AcDbSymbolTableRecord
100
AcDbBlockTableRecord
2
*D7
340
0
70
0
0
BLOCK_RECORD
5
1CD
100
AcDbSymbolTableRecord
100
AcDbBlockTableRecord
2
_U3
340
0
70
0
0
ENDTAB
0
ENDSEC
0
SECTION
2
BLOCKS
0
BLOCK
5
20
100
AcDbEntity
8
0
100
AcDbBlockBegin
2
*Model_Space
70
0
10
0
20
0
30
0
3
*Model_Space
0
ENDBLK
5
21
100
AcDbEntity
8
0
100
AcDbBlockEnd
0
BLOCK
5
1C
100
AcDbEntity
8
0
100
AcDbBlockBegin
2
*Paper_Space
70
0
10
0
20
0
30
0
3
*Paper_Space
0
ENDBLK
5
1D
100
AcDbEntity
8
0
100
AcDbBlockEnd
0
BLOCK
5
24
100
AcDbEntity
8
0
100
AcDbBlockBegin
2
*Paper_Space0
70
0
10
0
20
0
30
0
3
*Paper_Space0
0
ENDBLK
5
25
100
AcDbEntity
8
0
100
AcDbBlockEnd
0
BLOCK
5
176
100
AcDbEntity
8
0
100
AcDbBlockBegin
2
*D1
70
1
10
0
20
0
30
0
3
*D1
0
LINE
5
178
100
AcDbEntity
8
0
62
256
6
ByLayer
370
-2
48
1
60
0
100
AcDbLine
10
0
20
1.5875
30
0
11
0
21
18.25
31
0
39
0
210
0
220
0
230
1
0
LINE
5
179
100
AcDbEntity
8
0
62
256
6
ByLayer
370
-2
48
1
60
0
100
AcDbLine
10
33.85
20
-12.4125
30
0
11
33.85
21
18.25
31
0
39
0
210
0
220
0
230
1
0
LINE
5
17A
100
AcDbEntity
8
0
62
256
6
ByLayer
370
-2
48
1
60
0
100
AcDbLine
10
3.5
20
16.25
30
0
11
30.35
21
16.25
31
0
39
0
210
0
220
0
230
1
0
SOLID
5
17B
100
AcDbEntity
8
0
62
256
6
ByLayer
370
-1
48
1
60
0
100
AcDbTrace
10
3.5
20
16.833333
30
0
11
3.5
21
15.666667
31
0
12
0
22
16.25
32
0
13
0
23
16.25
33
0
39
0
210
0
220
0
230
1
0
SOLID
5
17C
100
AcDbEntity
8
0
62
256
6
ByLayer
370
-1
48
1
60
0
100
AcDbTrace
10
30.35
20
15.666667
30
0
11
30.35
21
16.833333
31
0
12
33.85
22
16.25
32
0
13
33.85
23
16.25
33
0
39
0
210
0
220
0
230
1
0
MTEXT
5
17D
100
AcDbEntity
8
0
62
256
6
ByLayer
370
18
48
1
60
0
100
AcDbMText
10
16.925
20
23.25
30
0
210
0
220
0
230
1
1
\A1;33.85
40
3.5
41
0
44
1
50
0
71
5
72
5
7
iso_b_vert
0
POINT
5
17E
100
AcDbEntity
8
Defpoints
62
0
6
ByLayer
370
-1
48
1
60
0
100
AcDbPoint
10
0
20
0
30
0
39
0
210
0
220
0
230
1
50
360
0
POINT
5
17F
100
AcDbEntity
8
Defpoints
62
0
6
ByLayer
370
-1
48
1
60
0
100
AcDbPoint
10
33.85
20
-14
30
0
39
0
210
0
220
0
230
1
50
360
0
POINT
5
180
100
AcDbEntity
8
Defpoints
62
0
6
ByLayer
370
-1
48
1
60
0
100
AcDbPoint
10
33.85
20
16.25
30
0
39
0
210
0
220
0
230
1
50
360
0
ENDBLK
5
177
100
AcDbEntity
8
0
100
AcDbBlockEnd
0
BLOCK
5
189
100
AcDbEntity
8
0
100
AcDbBlockBegin
2
_U0
70
0
10
0
20
0
30
0
3
_U0
0
MTEXT
5
183
100
AcDbEntity
8
2
62
256
6
ByLayer
370
18
48
1
60
0
100
AcDbMText
10
11.695568
20
17.282634
30
0
210
0
220
0
230
1
1
\W0.7468;33.85
40
3.5
41
0
44
1.084337
50
0
71
7
72
5
7
iso_b_vert
0
LINE
5
184
100
AcDbEntity
8
2
62
256
6
ByLayer
370
13
48
1
60
0
100
AcDbLine
10
0
20
1.5875
30
0
11
0
21
18.25
31
0
39
0
210
0
220
0
230
1
0
LINE
5
185
100
AcDbEntity
8
2
62
256
6
ByLayer
370
13
48
1
60
0
100
AcDbLine
10
33.85
20
-12.4125
30
0
11
33.85
21
18.25
31
0
39
0
210
0
220
0
230
1
0
LINE
5
186
100
AcDbEntity
8
2
62
256
6
ByLayer
370
13
48
1
60
0
100
AcDbLine
10
0
20
16.25
30
0
11
33.85
21
16.25
31
0
39
0
210
0
220
0
230
1
0
SOLID
5
187
100
AcDbEntity
8
2
62
256
6
ByLayer
370
18
48
1
60
0
100
AcDbTrace
10
0
20
16.25
30
0
11
3.499998
21
16.710784
31
0
12
3.500002
22
15.789216
32
0
13
3.500002
23
15.789216
33
0
39
0
210
0
220
0
230
1
0
SOLID
5
188
100
AcDbEntity
8
2
62
256
6
ByLayer
370
18
48
1
60
0
100
AcDbTrace
10
33.85
20
16.25
30
0
11
30.350002
21
15.789216
31
0
12
30.349998
22
16.710784
32
0
13
30.349998
23
16.710784
33
0
39
0
210
0
220
0
230
1
0
ENDBLK
5
18A
100
AcDbEntity
8
0
100
AcDbBlockEnd
0
BLOCK
5
18F
100
AcDbEntity
8
0
100
AcDbBlockBegin
2
*D3
70
1
10
0
20
0
30
0
3
*D3
0
LINE
5
191
100
AcDbEntity
8
0
62
256
6
ByLayer
370
-2
48
1
60
0
100
AcDbLine
10
18.85
20
-10.6625
30
0
11
18.85
21
10.25
31
0
39
0
210
0
220
0
230
1
0
LINE
5
192
100
AcDbEntity
8
0
62
256
6
ByLayer
370
-2
48
1
60
0
100
AcDbLine
10
33.85
20
-12.4125
30
0
11
33.85
21
10.25
31
0
39
0
210
0
220
0
230
1
0
LINE
5
193
100
AcDbEntity
8
0
62
256
6
ByLayer
370
-2
48
1
60
0
100
AcDbLine
10
15.35
20
8.25
30
0
11
11.85
21
8.25
31
0
39
0
210
0
220
0
230
1
0
LINE
5
194
100
AcDbEntity
8
0
62
256
6
ByLayer
370
-2
48
1
60
0
100
AcDbLine
10
37.35
20
8.25
30
0
11
40.85
21
8.25
31
0
39
0
210
0
220
0
230
1
0
SOLID
5
195
100
AcDbEntity
8
0
62
256
6
ByLayer
370
-1
48
1
60
0
100
AcDbTrace
10
15.35
20
7.666667
30
0
11
15.35
21
8.833333
31
0
12
18.85
22
8.25
32
0
13
18.85
23
8.25
33
0
39
0
210
0
220
0
230
1
0
SOLID
5
196
100
AcDbEntity
8
0
62
256
6
ByLayer
370
-1
48
1
60
0
100
AcDbTrace
10
37.35
20
8.833333
30
0
11
37.35
21
7.666667
31
0
12
33.85
22
8.25
32
0
13
33.85
23
8.25
33
0
39
0
210
0
220
0
230
1
0
MTEXT
5
197
100
AcDbEntity
8
0
62
256
6
ByLayer
370
18
48
1
60
0
100
AcDbMText
10
26.35
20
15.25
30
0
210
0
220
0
230
1
1
\A1;15
40
3.5
41
0
44
1
50
0
71
5
72
5
7
iso_b_vert
0
POINT
5
198
100
AcDbEntity
8
Defpoints
62
0
6
ByLayer
370
-1
48
1
60
0
100
AcDbPoint
10
18.85
20
-12.25
30
0
39
0
210
0
220
0
230
1
50
360
0
POINT
5
199
100
AcDbEntity
8
Defpoints
62
0
6
ByLayer
370
-1
48
1
60
0
100
AcDbPoint
10
33.85
20
-14
30
0
39
0
210
0
220
0
230
1
50
360
0
POINT
5
19A
100
AcDbEntity
8
Defpoints
62
0
6
ByLayer
370
-1
48
1
60
0
100
AcDbPoint
10
33.85
20
8.25
30
0
39
0
210
0
220
0
230
1
50
360
0
ENDBLK
5
190
100
AcDbEntity
8
0
100
AcDbBlockEnd
0
BLOCK
5
1A2
100
AcDbEntity
8
0
100
AcDbBlockBegin
2
_U1
70
0
10
0
20
0
30
0
3
_U1
0
MTEXT
5
19C
100
AcDbEntity
8
2
62
256
6
ByLayer
370
18
48
1
60
0
100
AcDbMText
10
24.882467
20
9.282634
30
0
210
0
220
0
230
1
1
\W0.5321;15
40
3.5
41
0
44
1.084337
50
0
71
7
72
5
7
iso_b_vert
0
LINE
5
19D
100
AcDbEntity
8
2
62
256
6
ByLayer
370
13
48
1
60
0
100
AcDbLine
10
18.85
20
-10.6625
30
0
11
18.85
21
10.25
31
0
39
0
210
0
220
0
230
1
0
LINE
5
19E
100
AcDbEntity
8
2
62
256
6
ByLayer
370
13
48
1
60
0
100
AcDbLine
10
33.85
20
-12.4125
30
0
11
33.85
21
10.25
31
0
39
0
210
0
220
0
230
1
0
LINE
5
19F
100
AcDbEntity
8
2
62
256
6
ByLayer
370
13
48
1
60
0
100
AcDbLine
10
18.85
20
8.25
30
0
11
33.85
21
8.25
31
0
39
0
210
0
220
0
230
1
0
SOLID
5
1A0
100
AcDbEntity
8
2
62
256
6
ByLayer
370
18
48
1
60
0
100
AcDbTrace
10
18.85
20
8.25
30
0
11
22.349998
21
8.710784
31
0
12
22.350002
22
7.789216
32
0
13
22.350002
23
7.789216
33
0
39
0
210
0
220
0
230
1
0
SOLID
5
1A1
100
AcDbEntity
8
2
62
256
6
ByLayer
370
18
48
1
60
0
100
AcDbTrace
10
33.85
20
8.25
30
0
11
30.350002
21
7.789216
31
0
12
30.349998
22
8.710784
32
0
13
30.349998
23
8.710784
33
0
39
0
210
0
220
0
230
1
0
ENDBLK
5
1A3
100
AcDbEntity
8
0
100
AcDbBlockEnd
0
BLOCK
5
1A8
100
AcDbEntity
8
0
100
AcDbBlockBegin
2
*D5
70
1
10
0
20
0
30
0
3
*D5
0
LINE
5
1AA
100
AcDbEntity
8
0
62
256
6
ByLayer
370
-2
48
1
60
0
100
AcDbLine
10
35.4375
20
-14
30
0
11
60.6
21
-14
31
0
39
0
210
0
220
0
230
1
0
LINE
5
1AB
100
AcDbEntity
8
0
62
256
6
ByLayer
370
-2
48
1
60
0
100
AcDbLine
10
1.5875
20
0
30
0
11
60.6
21
0
31
0
39
0
210
0
220
0
230
1
0
LINE
5
1AC
100
AcDbEntity
8
0
62
256
6
ByLayer
370
-2
48
1
60
0
100
AcDbLine
10
58.6
20
-17.5
30
0
11
58.6
21
-21
31
0
39
0
210
0
220
0
230
1
0
LINE
5
1AD
100
AcDbEntity
8
0
62
256
6
ByLayer
370
-2
48
1
60
0
100
AcDbLine
10
58.6
20
3.5
30
0
11
58.6
21
7
31
0
39
0
210
0
220
0
230
1
0
SOLID
5
1AE
100
AcDbEntity
8
0
62
256
6
ByLayer
370
-1
48
1
60
0
100
AcDbTrace
10
59.183333
20
-17.5
30
0
11
58.016667
21
-17.5
31
0
12
58.6
22
-14
32
0
13
58.6
23
-14
33
0
39
0
210
0
220
0
230
1
0
SOLID
5
1AF
100
AcDbEntity
8
0
62
256
6
ByLayer
370
-1
48
1
60
0
100
AcDbTrace
10
58.016667
20
3.5
30
0
11
59.183333
21
3.5
31
0
12
58.6
22
0
32
0
13
58.6
23
0
33
0
39
0
210
0
220
0
230
1
0
MTEXT
5
1B0
100
AcDbEntity
8
0
62
256
6
ByLayer
370
18
48
1
60
0
100
AcDbMText
10
51.6
20
-7
30
0
210
0
220
0
230
1
1
\A1;14
40
3.5
41
0
44
1
50
90
71
5
72
5
7
iso_b_vert
0
POINT
5
1B1
100
AcDbEntity
8
Defpoints
62
0
6
ByLayer
370
-1
48
1
60
0
100
AcDbPoint
10
33.85
20
-14
30
0
39
0
210
0
220
0
230
1
50
360
0
POINT
5
1B2
100
AcDbEntity
8
Defpoints
62
0
6
ByLayer
370
-1
48
1
60
0
100
AcDbPoint
10
0
20
0
30
0
39
0
210
0
220
0
230
1
50
360
0
POINT
5
1B3
100
AcDbEntity
8
Defpoints
62
0
6
ByLayer
370
-1
48
1
60
0
100
AcDbPoint
10
58.6
20
0
30
0
39
0
210
0
220
0
230
1
50
360
0
ENDBLK
5
1A9
100
AcDbEntity
8
0
100
AcDbBlockEnd
0
BLOCK
5
1BB
100
AcDbEntity
8
0
100
AcDbBlockBegin
2
_U2
70
0
10
0
20
0
30
0
3
_U2
0
MTEXT
5
1B5
100
AcDbEntity
8
2
62
256
6
ByLayer
370
18
48
1
60
0
100
AcDbMText
10
57.910366
20
-8.6798
30
0
210
0
220
0
230
1
1
\W0.5785;14
40
3.5
41
0
44
1.084337
50
90
71
7
72
5
7
iso_b_vert
0
LINE
5
1B6
100
AcDbEntity
8
2
62
256
6
ByLayer
370
13
48
1
60
0
100
AcDbLine
10
35.4375
20
-14
30
0
11
60.6
21
-14
31
0
39
0
210
0
220
0
230
1
0
LINE
5
1B7
100
AcDbEntity
8
2
62
256
6
ByLayer
370
13
48
1
60
0
100
AcDbLine
10
1.5875
20
0
30
0
11
60.6
21
0
31
0
39
0
210
0
220
0
230
1
0
LINE
5
1B8
100
AcDbEntity
8
2
62
256
6
ByLayer
370
13
48
1
60
0
100
AcDbLine
10
58.6
20
-14
30
0
11
58.6
21
0
31
0
39
0
210
0
220
0
230
1
0
SOLID
5
1B9
100
AcDbEntity
8
2
62
256
6
ByLayer
370
18
48
1
60
0
100
AcDbTrace
10
58.6
20
-14
30
0
11
58.139216
21
-10.500002
31
0
12
59.060784
22
-10.499998
32
0
13
59.060784
23
-10.499998
33
0
39
0
210
0
220
0
230
1
0
SOLID
5
1BA
100
AcDbEntity
8
2
62
256
6
ByLayer
370
18
48
1
60
0
100
AcDbTrace
10
58.6
20
0
30
0
11
59.060784
21
-3.499998
31
0
12
58.139216
22
-3.500002
32
0
13
58.139216
23
-3.500002
33
0
39
0
210
0
220
0
230
1
0
ENDBLK
5
1BC
100
AcDbEntity
8
0
100
AcDbBlockEnd
0
BLOCK
5
1C1
100
AcDbEntity
8
0
100
AcDbBlockBegin
2
*D7
70
1
10
0
20
0
30
0
3
*D7
0
LINE
5
1C3
100
AcDbEntity
8
0
62
256
6
ByLayer
370
-2
48
1
60
0
100
AcDbLine
10
35.4375
20
-14
30
0
11
47.6
21
-14
31
0
39
0
210
0
220
0
230
1
0
LINE
5
1C4
100
AcDbEntity
8
0
62
256
6
ByLayer
370
-2
48
1
60
0
100
AcDbLine
10
35.4375
20
-12
30
0
11
47.6
21
-12
31
0
39
0
210
0
220
0
230
1
0
LINE
5
1C5
100
AcDbEntity
8
0
62
256
6
ByLayer
370
-2
48
1
60
0
100
AcDbLine
10
45.6
20
-17.5
30
0
11
45.6
21
-21
31
0
39
0
210
0
220
0
230
1
0
LINE
5
1C6
100
AcDbEntity
8
0
62
256
6
ByLayer
370
-2
48
1
60
0
100
AcDbLine
10
45.6
20
-8.5
30
0
11
45.6
21
-5
31
0
39
0
210
0
220
0
230
1
0
SOLID
5
1C7
100
AcDbEntity
8
0
62
256
6
ByLayer
370
-1
48
1
60
0
100
AcDbTrace
10
46.183333
20
-17.5
30
0
11
45.016667
21
-17.5
31
0
12
45.6
22
-14
32
0
13
45.6
23
-14
33
0
39
0
210
0
220
0
230
1
0
SOLID
5
1C8
100
AcDbEntity
8
0
62
256
6
ByLayer
370
-1
48
1
60
0
100
AcDbTrace
10
45.016667
20
-8.5
30
0
11
46.183333
21
-8.5
31
0
12
45.6
22
-12
32
0
13
45.6
23
-12
33
0
39
0
210
0
220
0
230
1
0
MTEXT
5
1C9
100
AcDbEntity
8
0
62
256
6
ByLayer
370
18
48
1
60
0
100
AcDbMText
10
38.6
20
-13
30
0
210
0
220
0
230
1
1
\A1;2
40
3.5
41
0
44
1
50
90
71
5
72
5
7
iso_b_vert
0
POINT
5
1CA
100
AcDbEntity
8
Defpoints
62
0
6
ByLayer
370
-1
48
1
60
0
100
AcDbPoint
10
33.85
20
-14
30
0
39
0
210
0
220
0
230
1
50
360
0
POINT
5
1CB
100
AcDbEntity
8
Defpoints
62
0
6
ByLayer
370
-1
48
1
60
0
100
AcDbPoint
10
33.85
20
-12
30
0
39
0
210
0
220
0
230
1
50
360
0
POINT
5
1CC
100
AcDbEntity
8
Defpoints
62
0
6
ByLayer
370
-1
48
1
60
0
100
AcDbPoint
10
45.6
20
-12
30
0
39
0
210
0
220
0
230
1
50
360
0
ENDBLK
5
1C2
100
AcDbEntity
8
0
100
AcDbBlockEnd
0
BLOCK
5
1D4
100
AcDbEntity
8
0
100
AcDbBlockBegin
2
_U3
70
0
10
0
20
0
30
0
3
_U3
0
MTEXT
5
1CE
100
AcDbEntity
8
2
62
256
6
ByLayer
370
18
48
1
60
0
100
AcDbMText
10
44.910366
20
-13.625233
30
0
210
0
220
0
230
1
1
\W0.5404;2
40
3.5
41
0
44
1.084337
50
90
71
7
72
5
7
iso_b_vert
0
LINE
5
1CF
100
AcDbEntity
8
2
62
256
6
ByLayer
370
13
48
1
60
0
100
AcDbLine
10
35.4375
20
-14
30
0
11
47.6
21
-14
31
0
39
0
210
0
220
0
230
1
0
LINE
5
1D0
100
AcDbEntity
8
2
62
256
6
ByLayer
370
13
48
1
60
0
100
AcDbLine
10
35.4375
20
-12
30
0
11
47.6
21
-12
31
0
39
0
210
0
220
0
230
1
0
LINE
5
1D1
100
AcDbEntity
8
2
62
256
6
ByLayer
370
13
48
1
60
0
100
AcDbLine
10
45.6
20
-22.75
30
0
11
45.6
21
-3.25
31
0
39
0
210
0
220
0
230
1
0
SOLID
5
1D2
100
AcDbEntity
8
2
62
256
6
ByLayer
370
18
48
1
60
0
100
AcDbTrace
10
45.6
20
-14
30
0
11
46.060784
21
-17.499998
31
0
12
45.139216
22
-17.500002
32
0
13
45.139216
23
-17.500002
33
0
39
0
210
0
220
0
230
1
0
SOLID
5
1D3
100
AcDbEntity
8
2
62
256
6
ByLayer
370
18
48
1
60
0
100
AcDbTrace
10
45.6
20
-12
30
0
11
45.139216
21
-8.500002
31
0
12
46.060784
22
-8.499998
32
0
13
46.060784
23
-8.499998
33
0
39
0
210
0
220
0
230
1
0
ENDBLK
5
1D5
100
AcDbEntity
8
0
100
AcDbBlockEnd
0
ENDSEC
0
SECTION
2
ENTITIES
0
ARC
5
F7
100
AcDbEntity
8
1
62
256
6
ByLayer
370
18
48
1
60
0
100
AcDbCircle
39
0
10
12.5
20
-7.25
30
0
40
1.416
210
0
220
0
230
1
100
AcDbArc
50
6.192438
51
60.190711
0
ARC
5
F8
100
AcDbEntity
8
1
62
256
6
ByLayer
370
18
48
1
60
0
100
AcDbCircle
39
0
10
12.5
20
-7.25
30
0
40
1.416
210
0
220
0
230
1
100
AcDbArc
50
119.809289
51
173.807562
0
ARC
5
F9
100
AcDbEntity
8
1
62
256
6
ByLayer
370
18
48
1
60
0
100
AcDbCircle
39
0
10
12.5
20
-7.25
30
0
40
1.416
210
0
220
0
230
1
100
AcDbArc
50
186.192438
51
240.190711
0
ARC
5
FA
100
AcDbEntity
8
1
62
256
6
ByLayer
370
18
48
1
60
0
100
AcDbCircle
39
0
10
12.5
20
-7.25
30
0
40
1.416
210
0
220
0
230
1
100
AcDbArc
50
240.190711
51
299.809289
0
ARC
5
FB
100
AcDbEntity
8
1
62
256
6
ByLayer
370
18
48
1
60
0
100
AcDbCircle
39
0
10
12.5
20
-7.25
30
0
40
1.416
210
0
220
0
230
1
100
AcDbArc
50
299.809289
51
353.807562
0
ARC
5
FC
100
AcDbEntity
8
1
62
256
6
ByLayer
370
18
48
1
60
0
100
AcDbCircle
39
0
10
12.5
20
-7.25
30
0
40
1.416
210
0
220
0
230
1
100
AcDbArc
50
60.190711
51
119.809289
0
ARC
5
FF
100
AcDbEntity
8
1
62
256
6
ByLayer
370
18
48
1
60
0
100
AcDbCircle
39
0
10
12.5
20
-7.25
30
0
40
1.9685
210
0
220
0
230
1
100
AcDbArc
50
270
51
329.618578
0
ARC
5
100
100
AcDbEntity
8
1
62
256
6
ByLayer
370
18
48
1
60
0
100
AcDbCircle
39
0
10
12.5
20
-7.25
30
0
40
1.9685
210
0
220
0
230
1
100
AcDbArc
50
149.618578
51
210.381422
0
ARC
5
101
100
AcDbEntity
8
1
62
256
6
ByLayer
370
18
48
1
60
0
100
AcDbCircle
39
0
10
12.5
20
-7.25
30
0
40
1.416
210
0
220
0
230
1
100
AcDbArc
50
173.807562
51
186.192438
0
ARC
5
102
100
AcDbEntity
8
1
62
256
6
ByLayer
370
18
48
1
60
0
100
AcDbCircle
39
0
10
12.5
20
-7.25
30
0
40
1.9685
210
0
220
0
230
1
100
AcDbArc
50
90
51
149.618578
0
ARC
5
103
100
AcDbEntity
8
1
62
256
6
ByLayer
370
18
48
1
60
0
100
AcDbCircle
39
0
10
12.5
20
-7.25
30
0
40
1.416
210
0
220
0
230
1
100
AcDbArc
50
353.807562
51
6.192438
0
ARC
5
104
100
AcDbEntity
8
1
62
256
6
ByLayer
370
18
48
1
60
0
100
AcDbCircle
39
0
10
12.5
20
-7.25
30
0
40
1.9685
210
0
220
0
230
1
100
AcDbArc
50
329.618578
51
30.381422
0
ARC
5
105
100
AcDbEntity
8
1
62
256
6
ByLayer
370
18
48
1
60
0
100
AcDbCircle
39
0
10
12.5
20
-7.25
30
0
40
1.9685
210
0
220
0
230
1
100
AcDbArc
50
30.381422
51
90
0
ARC
5
106
100
AcDbEntity
8
1
62
256
6
ByLayer
370
18
48
1
60
0
100
AcDbCircle
39
0
10
12.5
20
-7.25
30
0
40
1.9685
210
0
220
0
230
1
100
AcDbArc
50
210.381422
51
270
0
ARC
5
108
100
AcDbEntity
8
1
62
256
6
ByLayer
370
18
48
1
60
0
100
AcDbCircle
39
0
10
18.85
20
-10.65
30
0
40
1.59999999999998
210
0
220
0
230
1
100
AcDbArc
50
180
51
270
0
CIRCLE
5
FD
100
AcDbEntity
8
1
62
256
6
ByLayer
370
18
48
1
60
0
100
AcDbCircle
10
12.5
20
-7.25
30
0
40
3.5
39
0
210
0
220
0
230
1
0
CIRCLE
5
FE
100
AcDbEntity
8
1
62
256
6
ByLayer
370
18
48
1
60
0
100
AcDbCircle
10
12.5
20
-7.25
30
0
40
3
39
0
210
0
220
0
230
1
0
CIRCLE
5
107
100
AcDbEntity
8
1
62
256
6
ByLayer
370
18
48
1
60
0
100
AcDbCircle
10
12.5
20
-7.25
30
0
40
3.8
39
0
210
0
220
0
230
1
0
ELLIPSE
5
109
100
AcDbEntity
8
1
62
256
6
ByLayer
370
18
48
1
60
0
100
AcDbEllipse
10
31.189893
20
-11.4
30
0
11
0.90984247799782
21
0
31
0
210
0
220
0
230
1
40
0.879273
41
-1.5707963267949
42
-1.29515256584518
0
ELLIPSE
5
10A
100
AcDbEntity
8
1
62
256
6
ByLayer
370
18
48
1
60
0
100
AcDbEllipse
10
29.218909
20
-12.324562
30
0
11
0.705694516533427
21
0
31
0
210
0
220
0
230
1
40
0.212557
41
3.14159265358979
42
-2.80561677260787
0
ELLIPSE
5
10B
100
AcDbEntity
8
1
62
256
6
ByLayer
370
18
48
1
60
0
100
AcDbEllipse
10
29.864842
20
-12.566064
30
0
11
0.940926021896581
21
0
31
0
210
0
220
0
230
1
40
0.212557
41
-2.80561677258046
42
-1.98717825108445
0
ELLIPSE
5
10C
100
AcDbEntity
8
1
62
256
6
ByLayer
370
18
48
1
60
0
100
AcDbEllipse
10
33.289895
20
-10.919859
30
0
11
-9.40926023994328
21
-2.85464278278503E-09
31
0
210
0
220
0
230
1
40
0.212557
41
1.15441440181932
42
1.2217304755781
0
ELLIPSE
5
10D
100
AcDbEntity
8
1
62
256
6
ByLayer
370
18
48
1
60
0
100
AcDbEllipse
10
29.778041
20
-13
30
0
11
0.987972322990401
21
0
31
0
210
0
220
0
230
1
40
0.212557
41
0
42
1.22173047639609
0
ELLIPSE
5
10E
100
AcDbEntity
8
1
62
256
6
ByLayer
370
18
48
1
60
0
100
AcDbEllipse
10
29.778041
20
-13
30
0
11
0.987972322989753
21
0
31
0
210
0
220
0
230
1
40
0.212557
41
-1.22173047639651
42
0
0
ELLIPSE
5
10F
100
AcDbEntity
8
1
62
256
6
ByLayer
370
18
48
1
60
0
100
AcDbEllipse
10
33.289895
20
-15.080141
30
0
11
9.40926024709697
21
-3.85333663262037E-09
31
0
210
0
220
0
230
1
40
0.212557
41
1.91986217830851
42
1.98717825202293
0
ELLIPSE
5
110
100
AcDbEntity
8
1
62
256
6
ByLayer
370
18
48
1
60
0
100
AcDbEllipse
10
29.864842
20
-13.433936
30
0
11
0.940926021895726
21
0
31
0
210
0
220
0
230
1
40
0.212557
41
1.98717825108415
42
2.80561677258099
0
ELLIPSE
5
111
100
AcDbEntity
8
1
62
256
6
ByLayer
370
18
48
1
60
0
100
AcDbEllipse
10
29.218909
20
-13.675438
30
0
11
0.705694516381325
21
0
31
0
210
0
220
0
230
1
40
0.212557
41
2.8056167725711
42
3.14159265358979
0
ELLIPSE
5
112
100
AcDbEntity
8
1
62
256
6
ByLayer
370
18
48
1
60
0
100
AcDbEllipse
10
31.189893
20
-14.6
30
0
11
0.909842478046972
21
0
31
0
210
0
220
0
230
1
40
0.879273
41
1.2951525658602
42
1.5707963267949
0
ELLIPSE
5
113
100
AcDbEntity
8
1
62
256
6
ByLayer
370
18
48
1
60
0
100
AcDbEllipse
10
30.215427
20
-12.45
30
0
11
7.85307604188964E-18
21
0.128254700253314
31
0
210
0
220
0
230
1
40
0.978148
41
0
42
6.28318530717959
0
ELLIPSE
5
114
100
AcDbEntity
8
1
62
256
6
ByLayer
370
18
48
1
60
0
100
AcDbEllipse
10
16.510107
20
-14.6
30
0
11
0.909842477997826
21
0
31
0
210
0
220
0
230
1
40
0.879273
41
1.5707963267949
42
1.84644008774462
0
POINT
5
70
100
AcDbEntity
8
81
62
256
6
ByLayer
370
18
48
1
60
0
100
AcDbPoint
10
33.85
20
-14
30
0
39
0
210
0
220
0
230
1
50
360
0
POINT
5
72
100
AcDbEntity
8
80
62
256
6
ByLayer
370
18
48
1
60
0
100
AcDbPoint
10
0
20
0
30
0
39
0
210
0
220
0
230
1
50
360
0
POINT
5
74
100
AcDbEntity
8
1
62
256
6
ByLayer
370
18
48
1
60
1
100
AcDbPoint
10
0
20
0
30
0
39
0
210
0
220
0
230
1
50
360
0
POINT
5
76
100
AcDbEntity
8
1
62
256
6
ByLayer
370
18
48
1
60
1
100
AcDbPoint
10
33.85
20
-14
30
0
39
0
210
0
220
0
230
1
50
360
0
POINT
5
77
100
AcDbEntity
8
1
62
256
6
ByLayer
370
18
48
1
60
1
100
AcDbPoint
10
18.85
20
-12.25
30
0
39
0
210
0
220
0
230
1
50
360
0
POINT
5
78
100
AcDbEntity
8
1
62
256
6
ByLayer
370
18
48
1
60
1
100
AcDbPoint
10
33.85
20
-14
30
0
39
0
210
0
220
0
230
1
50
360
0
POINT
5
79
100
AcDbEntity
8
1
62
256
6
ByLayer
370
18
48
1
60
1
100
AcDbPoint
10
33.85
20
-14
30
0
39
0
210
0
220
0
230
1
50
360
0
POINT
5
7A
100
AcDbEntity
8
1
62
256
6
ByLayer
370
18
48
1
60
1
100
AcDbPoint
10
0
20
0
30
0
39
0
210
0
220
0
230
1
50
360
0
POINT
5
7B
100
AcDbEntity
8
1
62
256
6
ByLayer
370
18
48
1
60
1
100
AcDbPoint
10
33.85
20
-14
30
0
39
0
210
0
220
0
230
1
50
360
0
POINT
5
7C
100
AcDbEntity
8
1
62
256
6
ByLayer
370
18
48
1
60
1
100
AcDbPoint
10
33.85
20
-12
30
0
39
0
210
0
220
0
230
1
50
360
0
SPLINE
5
115
100
AcDbEntity
8
1
62
256
6
ByLayer
370
18
48
1
60
0
100
AcDbSpline
70
4
71
3
72
24
73
20
40
0
40
0
40
0
40
0
40
0.0624999999999985
40
0.0624999999999985
40
0.124999999999997
40
0.124999999999997
40
0.25
40
0.25
40
0.312500000000003
40
0.312500000000003
40
0.375000000000005
40
0.375000000000005
40
0.500000000000003
40
0.500000000000003
40
0.625000000000001
40
0.625000000000001
40
0.749999999999999
40
0.749999999999999
40
1
40
1
40
1
40
1
41
1
10
14.1981810583398
20
-8.24557688959516
30
0
41
1
10
14.1934313378224
20
-8.25367860981314
30
0
41
1
10
14.1882897889865
20
-8.26164980922735
30
0
41
1
10
14.177355321586
20
-8.27709306570091
30
0
41
1
10
14.1716008277749
20
-8.28451769513677
30
0
41
1
10
14.153507056405
20
-8.30593275162767
30
0
41
1
10
14.1403431053359
20
-8.31907023952508
30
0
41
1
10
14.1189603728398
20
-8.33708047797623
30
0
41
1
10
14.1115431209205
20
-8.34280535445583
30
0
41
1
10
14.0964570188402
20
-8.35347091349854
30
0
41
1
10
14.0887541685168
20
-8.35844253451469
30
0
41
1
10
14.0651865615503
20
-8.37231523036021
30
0
41
1
10
14.0488655560664
20
-8.38018071772848
30
0
41
1
10
14.0150376500416
20
-8.39319032755995
30
0
41
1
10
13.997973394896
20
-8.39816506090182
30
0
41
1
10
13.9636029977596
20
-8.40532399248332
30
0
41
1
10
13.946237058748
20
-8.4075093069186
30
0
41
1
10
13.89416944413
20
-8.40993921004605
30
0
41
1
10
13.8606039107085
20
-8.40613929176882
30
0
41
1
10
13.8281523379786
20
-8.39745103358487
30
0
0
SPLINE
5
116
100
AcDbEntity
8
1
62
256
6
ByLayer
370
18
48
1
60
0
100
AcDbSpline
70
4
71
3
72
26
73
22
40
0
40
0
40
0
40
0
40
0.125000000000012
40
0.125000000000012
40
0.250000000000023
40
0.250000000000023
40
0.312500000000028
40
0.312500000000028
40
0.375000000000033
40
0.375000000000033
40
0.500000000000036
40
0.500000000000036
40
0.562500000000032
40
0.562500000000032
40
0.625000000000027
40
0.625000000000027
40
0.750000000000018
40
0.750000000000018
40
0.875000000000009
40
0.875000000000009
40
1
40
1
40
1
40
1
41
1
10
12.5
20
-9.21850000000001
30
0
41
1
10
12.5187420838797
20
-9.21850000000001
30
0
41
1
10
12.537790024121
20
-9.2168627955046
30
0
41
1
10
12.5746705458543
20
-9.21048528068295
30
0
41
1
10
12.5926468374794
20
-9.20577279166548
30
0
41
1
10
12.6189272305608
20
-9.19646538610317
30
0
41
1
10
12.6276136105629
20
-9.19296752509536
30
0
41
1
10
12.644482547616
20
-9.18533413023604
30
0
41
1
10
12.6526773955158
20
-9.18119909926486
30
0
41
1
10
12.6765732518195
20
-9.16788232941573
30
0
41
1
10
12.6915899369245
20
-9.15779456249334
30
0
41
1
10
12.7127755394084
20
-9.14090470708621
30
0
41
1
10
12.719591918569
20
-9.13499261738443
30
0
41
1
10
12.7325595895107
20
-9.12279737184286
30
0
41
1
10
12.7387403827712
20
-9.11649129678537
30
0
41
1
10
12.7564090822013
20
-9.09697635277581
30
0
41
1
10
12.767028270971
20
-9.08317412766206
30
0
41
1
10
12.7860013809461
20
-9.05404553323993
30
0
41
1
10
12.7941811588046
20
-9.03897729418622
30
0
41
1
10
12.8080220198239
20
-9.00811774769991
30
0
41
1
10
12.8137019836554
20
-8.99229488948811
30
0
41
1
10
12.8181619695468
20
-8.97609544014432
30
0
0
SPLINE
5
117
100
AcDbEntity
8
1
62
256
6
ByLayer
370
18
48
1
60
0
100
AcDbSpline
70
4
71
3
72
34
73
30
40
0
40
0
40
0
40
0
40
0.12500000000001
40
0.12500000000001
40
0.187500000000013
40
0.187500000000013
40
0.218750000000015
40
0.218750000000015
40
0.250000000000016
40
0.250000000000016
40
0.37500000000002
40
0.37500000000002
40
0.40625000000002
40
0.40625000000002
40
0.437500000000021
40
0.500000000000018
40
0.562500000000015
40
0.562500000000015
40
0.625000000000012
40
0.625000000000012
40
0.687500000000009
40
0.687500000000009
40
0.750000000000005
40
0.750000000000005
40
0.875000000000001
40
0.875000000000001
40
0.937500000000001
40
0.937500000000001
40
1
40
1
40
1
40
1
41
1
10
13.8281523379786
20
-8.39745103358487
30
0
41
1
10
13.7791605406677
20
-8.38433446177874
30
0
41
1
10
13.729054901581
20
-8.37570218410934
30
0
41
1
10
13.6518976275393
20
-8.36979203960024
30
0
41
1
10
13.6258420498826
20
-8.36900347636433
30
0
41
1
10
13.5861721053907
20
-8.3697305093599
30
0
41
1
10
13.5728201914696
20
-8.37029419915328
30
0
41
1
10
13.5460462641006
20
-8.3720841231121
30
0
41
1
10
13.5326678100599
20
-8.37330590152712
30
0
41
1
10
13.4658054580945
20
-8.38106671594551
30
0
41
1
10
13.4124105635002
20
-8.39248984827955
30
0
41
1
10
13.3455886245496
20
-8.41423264973619
30
0
41
1
10
13.332203806776
20
-8.41896914504628
30
0
41
1
10
13.3058521630066
20
-8.42906464844683
30
0
41
1
10
13.2667940070401
20
-8.44519028533057
30
0
41
1
10
13.2040139333799
20
-8.47692464033108
30
0
41
1
10
13.1562753174227
20
-8.50753080364262
30
0
41
1
10
13.1098302684517
20
-8.54084969244914
30
0
41
1
10
13.0878136047356
20
-8.55846431994894
30
0
41
1
10
13.0460507829755
20
-8.59544601877468
30
0
41
1
10
13.0262970086682
20
-8.6148195503294
30
0
41
1
10
12.9889396946713
20
-8.65528490510212
30
0
41
1
10
12.9712931406015
20
-8.67645952289146
30
0
41
1
10
12.9226269571248
20
-8.74098420587001
30
0
41
1
10
12.8953601516259
20
-8.78577315483096
30
0
41
1
10
12.861207557278
20
-8.85556920502847
30
0
41
1
10
12.8509341260477
20
-8.87935084526262
30
0
41
1
10
12.8327806188033
20
-8.92739115500325
30
0
41
1
10
12.8248979334757
20
-8.95162924022725
30
0
41
1
10
12.8181619695468
20
-8.97609544014432
30
0
0
SPLINE
5
118
100
AcDbEntity
8
1
62
256
6
ByLayer
370
18
48
1
60
0
100
AcDbSpline
70
4
71
3
72
18
73
14
40
0
40
0
40
0
40
0
40
0.249999999999992
40
0.249999999999992
40
0.37499999999999
40
0.37499999999999
40
0.437499999999989
40
0.437499999999989
40
0.499999999999988
40
0.499999999999988
40
0.749999999999994
40
0.749999999999994
40
1
40
1
40
1
40
1
41
1
10
11.0922620637002
20
-7.09725870662353
30
0
41
1
10
11.0839029765648
20
-7.05283371714234
30
0
41
1
10
11.072194076137
20
-7.01047127231678
30
0
41
1
10
11.0502147004153
20
-6.94951240206009
30
0
41
1
10
11.0421460177692
20
-6.92962718714699
30
0
41
1
10
11.0289590937531
20
-6.90041485375656
30
0
41
1
10
11.024382525553
20
-6.89078015654283
30
0
41
1
10
11.0148692909952
20
-6.87171212439077
30
0
41
1
10
11.0099208758561
20
-6.86225797017551
30
0
41
1
10
10.9844501468565
20
-6.81579120812239
30
0
41
1
10
10.9617830025327
20
-6.78116665614499
30
0
41
1
10
10.9122494705402
20
-6.71629302469026
30
0
41
1
10
10.885378603438
20
-6.68605080047578
30
0
41
1
10
10.8564173719113
20
-6.65788229583279
30
0
0
SPLINE
5
119
100
AcDbEntity
8
1
62
256
6
ByLayer
370
18
48
1
60
0
100
AcDbSpline
70
4
71
3
72
24
73
20
40
0
40
0
40
0
40
0
40
0.124999999999995
40
0.124999999999995
40
0.187499999999993
40
0.187499999999993
40
0.249999999999992
40
0.249999999999992
40
0.374999999999988
40
0.374999999999988
40
0.499999999999985
40
0.499999999999985
40
0.624999999999981
40
0.624999999999981
40
0.68749999999998
40
0.68749999999998
40
0.74999999999998
40
0.74999999999998
40
1
40
1
40
1
40
1
41
1
10
10.8018189416602
20
-6.25442311040482
30
0
41
1
10
10.7920717429747
20
-6.27104915742606
30
0
41
1
10
10.7838642633101
20
-6.28836175118036
30
0
41
1
10
10.7738342365023
20
-6.31534744378729
30
0
41
1
10
10.7708640587043
20
-6.32454737111843
30
0
41
1
10
10.7657514504448
20
-6.34314453482733
30
0
41
1
10
10.7636304107339
20
-6.3524509205632
30
0
41
1
10
10.758503655387
20
-6.38039103411822
30
0
41
1
10
10.7567259261731
20
-6.39904565975621
30
0
41
1
10
10.7563184965416
20
-6.43639994194191
30
0
41
1
10
10.7577395219956
20
-6.45523892242639
30
0
41
1
10
10.7635127050969
20
-6.49141510492049
30
0
41
1
10
10.7678413753686
20
-6.50893047355297
30
0
41
1
10
10.7763479036087
20
-6.53438887681841
30
0
41
1
10
10.7795208606013
20
-6.54273849781305
30
0
41
1
10
10.78653701553
20
-6.55916394085114
30
0
41
1
10
10.7903971485727
20
-6.56726674459122
30
0
41
1
10
10.8110153586929
20
-6.60641587152054
30
0
41
1
10
10.8317858476265
20
-6.63392498567706
30
0
41
1
10
10.8564173719113
20
-6.65788229583282
30
0
0
SPLINE
5
11A
100
AcDbEntity
8
1
62
256
6
ByLayer
370
18
48
1
60
0
100
AcDbSpline
70
4
71
3
72
24
73
20
40
0
40
0
40
0
40
0
40
0.25000000000001
40
0.25000000000001
40
0.312500000000015
40
0.312500000000015
40
0.37500000000002
40
0.37500000000002
40
0.500000000000019
40
0.500000000000019
40
0.625000000000018
40
0.625000000000018
40
0.750000000000017
40
0.750000000000017
40
0.812500000000011
40
0.812500000000011
40
0.875000000000005
40
0.875000000000005
40
1
40
1
40
1
40
1
41
1
10
10.8564173719113
20
-7.84211770416718
30
0
41
1
10
10.8317858476265
20
-7.86607501432295
30
0
41
1
10
10.8110153586929
20
-7.89358412847943
30
0
41
1
10
10.7903971485727
20
-7.93273325540875
30
0
41
1
10
10.78653701553
20
-7.94083605914886
30
0
41
1
10
10.7795208606013
20
-7.95726150218695
30
0
41
1
10
10.7763479036088
20
-7.96561112318156
30
0
41
1
10
10.7678413753686
20
-7.99106952644701
30
0
41
1
10
10.7635127050969
20
-8.00858489507948
30
0
41
1
10
10.7577395219956
20
-8.04476107757361
30
0
41
1
10
10.7563184965417
20
-8.06360005805809
30
0
41
1
10
10.7567259261731
20
-8.10095434024379
30
0
41
1
10
10.758503655387
20
-8.11960896588178
30
0
41
1
10
10.7636304107339
20
-8.14754907943677
30
0
41
1
10
10.7657514504449
20
-8.15685546517264
30
0
41
1
10
10.7708640587043
20
-8.17545262888154
30
0
41
1
10
10.7738342365023
20
-8.18465255621271
30
0
41
1
10
10.7838642633101
20
-8.21163824881964
30
0
41
1
10
10.7920717429747
20
-8.22895084257394
30
0
41
1
10
10.8018189416602
20
-8.24557688959516
30
0
0
SPLINE
5
11B
100
AcDbEntity
8
1
62
256
6
ByLayer
370
18
48
1
60
0
100
AcDbSpline
70
4
71
3
72
17
73
13
40
0
40
0
40
0
40
0
40
0.250000000000009
40
0.250000000000009
40
0.500000000000019
40
0.500000000000019
40
0.562500000000017
40
0.562500000000017
40
0.625000000000014
40
0.75000000000001
40
0.75000000000001
40
1
40
1
40
1
40
1
41
1
10
10.8564173719113
20
-7.84211770416718
30
0
41
1
10
10.8853753963689
20
-7.81395231880941
30
0
41
1
10
10.9122309410964
20
-7.78372575786454
30
0
41
1
10
10.961719738367
20
-7.71892167661281
30
0
41
1
10
10.9843572921869
20
-7.6843506951335
30
0
41
1
10
11.0097894773876
20
-7.63798851185626
30
0
41
1
10
11.0147424479631
20
-7.62853470981096
30
0
41
1
10
11.0242836416446
20
-7.60942527611323
30
0
41
1
10
11.0380498884726
20
-7.58046203694775
30
0
41
1
10
11.0501769665485
20
-7.55058627674293
30
0
41
1
10
11.0721909236732
20
-7.48954938792147
30
0
41
1
10
11.0839044979644
20
-7.44715819726679
30
0
41
1
10
11.0922620637002
20
-7.40274129337647
30
0
0
SPLINE
5
11C
100
AcDbEntity
8
1
62
256
6
ByLayer
370
18
48
1
60
0
100
AcDbSpline
70
4
71
3
72
26
73
22
40
0
40
0
40
0
40
0
40
0.125000000000006
40
0.125000000000006
40
0.250000000000012
40
0.250000000000012
40
0.312500000000015
40
0.312500000000015
40
0.375000000000018
40
0.375000000000018
40
0.500000000000019
40
0.500000000000019
40
0.562500000000015
40
0.562500000000015
40
0.625000000000011
40
0.625000000000011
40
0.750000000000008
40
0.750000000000008
40
0.875000000000004
40
0.875000000000004
40
1
40
1
40
1
40
1
41
1
10
12.5
20
-5.28149999999999
30
0
41
1
10
12.4812579161203
20
-5.28149999999999
30
0
41
1
10
12.462209975879
20
-5.2831372044954
30
0
41
1
10
12.4253294541456
20
-5.28951471931705
30
0
41
1
10
12.4073531625206
20
-5.29422720833449
30
0
41
1
10
12.3810727694392
20
-5.30353461389683
30
0
41
1
10
12.3723863894371
20
-5.30703247490464
30
0
41
1
10
12.355517452384
20
-5.31466586976396
30
0
41
1
10
12.3473226044842
20
-5.31880090073511
30
0
41
1
10
12.3234267481805
20
-5.33211767058427
30
0
41
1
10
12.3084100630755
20
-5.34220543750664
30
0
41
1
10
12.2872244605916
20
-5.35909529291379
30
0
41
1
10
12.2804080814309
20
-5.36500738261554
30
0
41
1
10
12.2674404104893
20
-5.37720262815711
30
0
41
1
10
12.2612596172288
20
-5.38350870321463
30
0
41
1
10
12.2435909177987
20
-5.40302364722419
30
0
41
1
10
12.2329717290289
20
-5.41682587233794
30
0
41
1
10
12.2139986190539
20
-5.44595446676007
30
0
41
1
10
12.2058188411954
20
-5.46102270581375
30
0
41
1
10
12.1919779801761
20
-5.49188225230009
30
0
41
1
10
12.1862980163446
20
-5.50770511051189
30
0
41
1
10
12.1818380304532
20
-5.52390455985568
30
0
0
SPLINE
5
11D
100
AcDbEntity
8
1
62
256
6
ByLayer
370
18
48
1
60
0
100
AcDbSpline
70
4
71
3
72
34
73
30
40
0
40
0
40
0
40
0
40
0.124999999999999
40
0.124999999999999
40
0.187499999999997
40
0.187499999999997
40
0.218749999999995
40
0.218749999999995
40
0.249999999999994
40
0.249999999999994
40
0.375
40
0.375
40
0.406250000000002
40
0.406250000000002
40
0.437500000000003
40
0.500000000000003
40
0.562500000000003
40
0.562500000000003
40
0.625000000000003
40
0.625000000000003
40
0.687500000000003
40
0.687500000000003
40
0.750000000000003
40
0.750000000000003
40
0.875000000000001
40
0.875000000000001
40
0.937500000000001
40
0.937500000000001
40
1
40
1
40
1
40
1
41
1
10
11.1718476620214
20
-6.10254896641513
30
0
41
1
10
11.2208394593323
20
-6.11566553822126
30
0
41
1
10
11.2709450984191
20
-6.12429781589066
30
0
41
1
10
11.3481023724607
20
-6.13020796039976
30
0
41
1
10
11.3741579501174
20
-6.13099652363567
30
0
41
1
10
11.4138278946093
20
-6.1302694906401
30
0
41
1
10
11.4271798085304
20
-6.12970580084672
30
0
41
1
10
11.4539537358994
20
-6.12791587688787
30
0
41
1
10
11.4673321899401
20
-6.12669409847288
30
0
41
1
10
11.5341945419055
20
-6.11893328405449
30
0
41
1
10
11.5875894364998
20
-6.10751015172042
30
0
41
1
10
11.6544113754504
20
-6.08576735026378
30
0
41
1
10
11.6677961932239
20
-6.0810308549537
30
0
41
1
10
11.6941478369934
20
-6.07093535155315
30
0
41
1
10
11.7332059929598
20
-6.05480971466943
30
0
41
1
10
11.7959860666201
20
-6.02307535966892
30
0
41
1
10
11.8437246825773
20
-5.99246919635738
30
0
41
1
10
11.8901697315483
20
-5.95915030755083
30
0
41
1
10
11.9121863952644
20
-5.94153568005106
30
0
41
1
10
11.9539492170245
20
-5.90455398122532
30
0
41
1
10
11.9737029913318
20
-5.8851804496706
30
0
41
1
10
12.0110603053287
20
-5.84471509489788
30
0
41
1
10
12.0287068593985
20
-5.82354047710854
30
0
41
1
10
12.0773730428752
20
-5.75901579412997
30
0
41
1
10
12.1046398483741
20
-5.71422684516901
30
0
41
1
10
12.138792442722
20
-5.64443079497153
30
0
41
1
10
12.1490658739523
20
-5.62064915473738
30
0
41
1
10
12.1672193811967
20
-5.57260884499675
30
0
41
1
10
12.1751020665243
20
-5.54837075977275
30
0
41
1
10
12.1818380304532
20
-5.52390455985568
30
0
0
SPLINE
5
11E
100
AcDbEntity
8
1
62
256
6
ByLayer
370
18
48
1
60
0
100
AcDbSpline
70
4
71
3
72
24
73
20
40
0
40
0
40
0
40
0
40
0.0624999999999993
40
0.0624999999999993
40
0.124999999999999
40
0.124999999999999
40
0.250000000000008
40
0.250000000000008
40
0.312500000000011
40
0.312500000000011
40
0.375000000000014
40
0.375000000000014
40
0.50000000000001
40
0.50000000000001
40
0.625000000000007
40
0.625000000000007
40
0.750000000000003
40
0.750000000000003
40
1
40
1
40
1
40
1
41
1
10
10.8018189416602
20
-6.25442311040482
30
0
41
1
10
10.8065686621776
20
-6.24632139018686
30
0
41
1
10
10.8117102110135
20
-6.23835019077265
30
0
41
1
10
10.822644678414
20
-6.22290693429909
30
0
41
1
10
10.8283991722251
20
-6.2154823048632
30
0
41
1
10
10.846492943595
20
-6.19406724837233
30
0
41
1
10
10.8596568946641
20
-6.1809297604749
30
0
41
1
10
10.8810396271602
20
-6.16291952202377
30
0
41
1
10
10.8884568790795
20
-6.15719464554414
30
0
41
1
10
10.9035429811598
20
-6.14652908650143
30
0
41
1
10
10.9112458314832
20
-6.14155746548531
30
0
41
1
10
10.9348134384497
20
-6.12768476963976
30
0
41
1
10
10.9511344439336
20
-6.11981928227152
30
0
41
1
10
10.9849623499584
20
-6.10680967244005
30
0
41
1
10
11.002026605104
20
-6.10183493909818
30
0
41
1
10
11.0363970022404
20
-6.09467600751668
30
0
41
1
10
11.053762941252
20
-6.0924906930814
30
0
41
1
10
11.10583055587
20
-6.09006078995392
30
0
41
1
10
11.1393960892915
20
-6.09386070823118
30
0
41
1
10
11.1718476620214
20
-6.10254896641513
30
0
0
SPLINE
5
11F
100
AcDbEntity
8
1
62
256
6
ByLayer
370
18
48
1
60
0
100
AcDbSpline
70
4
71
3
72
24
73
20
40
0
40
0
40
0
40
0
40
0.125000000000006
40
0.125000000000006
40
0.187500000000007
40
0.187500000000007
40
0.250000000000009
40
0.250000000000009
40
0.375
40
0.375
40
0.499999999999991
40
0.499999999999991
40
0.624999999999983
40
0.624999999999983
40
0.687499999999987
40
0.687499999999987
40
0.749999999999991
40
0.749999999999991
40
1
40
1
40
1
40
1
41
1
10
14.1981810583398
20
-8.24557688959516
30
0
41
1
10
14.2079282570253
20
-8.22895084257394
30
0
41
1
10
14.2161357366899
20
-8.21163824881964
30
0
41
1
10
14.2261657634977
20
-8.18465255621271
30
0
41
1
10
14.2291359412957
20
-8.17545262888154
30
0
41
1
10
14.2342485495551
20
-8.15685546517264
30
0
41
1
10
14.2363695892661
20
-8.14754907943677
30
0
41
1
10
14.241496344613
20
-8.11960896588178
30
0
41
1
10
14.2432740738269
20
-8.10095434024379
30
0
41
1
10
14.2436815034583
20
-8.06360005805809
30
0
41
1
10
14.2422604780044
20
-8.04476107757361
30
0
41
1
10
14.2364872949031
20
-8.00858489507948
30
0
41
1
10
14.2321586246314
20
-7.99106952644701
30
0
41
1
10
14.2236520963912
20
-7.96561112318156
30
0
41
1
10
14.2204791393987
20
-7.95726150218695
30
0
41
1
10
14.21346298447
20
-7.94083605914886
30
0
41
1
10
14.2096028514273
20
-7.93273325540875
30
0
41
1
10
14.1889846413071
20
-7.89358412847943
30
0
41
1
10
14.1682141523736
20
-7.86607501432295
30
0
41
1
10
14.1435826280887
20
-7.84211770416718
30
0
0
SPLINE
5
120
100
AcDbEntity
8
1
62
256
6
ByLayer
370
18
48
1
60
0
100
AcDbSpline
70
4
71
3
72
17
73
13
40
0
40
0
40
0
40
0
40
0.250000000000007
40
0.250000000000007
40
0.500000000000014
40
0.500000000000014
40
0.562500000000011
40
0.562500000000011
40
0.625000000000008
40
0.750000000000005
40
0.750000000000005
40
1
40
1
40
1
40
1
41
1
10
14.1435826280887
20
-6.65788229583279
30
0
41
1
10
14.1146246036311
20
-6.68604768119053
30
0
41
1
10
14.0877690589037
20
-6.71627424213534
30
0
41
1
10
14.0382802616332
20
-6.78107832338699
30
0
41
1
10
14.0156427078132
20
-6.81564930486621
30
0
41
1
10
13.9902105226126
20
-6.86201148814337
30
0
41
1
10
13.9852575520371
20
-6.87146529018867
30
0
41
1
10
13.9757163583556
20
-6.89057472388635
30
0
41
1
10
13.9619501115276
20
-6.91953796305179
30
0
41
1
10
13.9498230334517
20
-6.94941372325661
30
0
41
1
10
13.9278090763269
20
-7.01045061207816
30
0
41
1
10
13.9160955020357
20
-7.05284180273296
30
0
41
1
10
13.9077379362998
20
-7.09725870662353
30
0
0
SPLINE
5
121
100
AcDbEntity
8
1
62
256
6
ByLayer
370
18
48
1
60
0
100
AcDbSpline
70
4
71
3
72
18
73
14
40
0
40
0
40
0
40
0
40
0.249999999999992
40
0.249999999999992
40
0.374999999999984
40
0.374999999999984
40
0.437499999999984
40
0.437499999999984
40
0.499999999999984
40
0.499999999999984
40
0.749999999999992
40
0.749999999999992
40
1
40
1
40
1
40
1
41
1
10
13.9077379362998
20
-7.40274129337647
30
0
41
1
10
13.9160970234351
20
-7.44716628285732
30
0
41
1
10
13.9278059238629
20
-7.48952872768282
30
0
41
1
10
13.9497852995846
20
-7.55048759793962
30
0
41
1
10
13.9578539822307
20
-7.57037281285284
30
0
41
1
10
13.9710409062469
20
-7.59958514624344
30
0
41
1
10
13.975617474447
20
-7.60921984345723
30
0
41
1
10
13.985130709005
20
-7.62828787560946
30
0
41
1
10
13.990079124144
20
-7.63774202982481
30
0
41
1
10
14.0155498531436
20
-7.68420879187769
30
0
41
1
10
14.0382169974673
20
-7.71883334385501
30
0
41
1
10
14.0877505294597
20
-7.78370697530968
30
0
41
1
10
14.1146213965619
20
-7.81394919952416
30
0
41
1
10
14.1435826280887
20
-7.84211770416718
30
0
0
SPLINE
5
122
100
AcDbEntity
8
1
62
256
6
ByLayer
370
18
48
1
60
0
100
AcDbSpline
70
4
71
3
72
24
73
20
40
0
40
0
40
0
40
0
40
0.25000000000001
40
0.25000000000001
40
0.312500000000012
40
0.312500000000012
40
0.375000000000013
40
0.375000000000013
40
0.50000000000001
40
0.50000000000001
40
0.625000000000007
40
0.625000000000007
40
0.750000000000004
40
0.750000000000004
40
0.812500000000003
40
0.812500000000003
40
0.875000000000002
40
0.875000000000002
40
1
40
1
40
1
40
1
41
1
10
14.1435826280887
20
-6.65788229583282
30
0
41
1
10
14.1682141523735
20
-6.63392498567706
30
0
41
1
10
14.1889846413071
20
-6.60641587152054
30
0
41
1
10
14.2096028514273
20
-6.56726674459122
30
0
41
1
10
14.21346298447
20
-6.55916394085114
30
0
41
1
10
14.2204791393987
20
-6.54273849781305
30
0
41
1
10
14.2236520963912
20
-6.53438887681844
30
0
41
1
10
14.2321586246314
20
-6.50893047355297
30
0
41
1
10
14.2364872949031
20
-6.49141510492049
30
0
41
1
10
14.2422604780044
20
-6.45523892242636
30
0
41
1
10
14.2436815034583
20
-6.43639994194191
30
0
41
1
10
14.2432740738269
20
-6.39904565975621
30
0
41
1
10
14.241496344613
20
-6.38039103411822
30
0
41
1
10
14.2363695892661
20
-6.3524509205632
30
0
41
1
10
14.2342485495551
20
-6.34314453482736
30
0
41
1
10
14.2291359412957
20
-6.32454737111846
30
0
41
1
10
14.2261657634977
20
-6.31534744378729
30
0
41
1
10
14.2161357366898
20
-6.28836175118036
30
0
41
1
10
14.2079282570253
20
-6.27104915742606
30
0
41
1
10
14.1981810583398
20
-6.25442311040482
30
0
0
SPLINE
5
123
100
AcDbEntity
8
1
62
256
6
ByLayer
370
18
48
1
60
0
100
AcDbSpline
70
4
71
3
72
26
73
22
40
0
40
0
40
0
40
0
40
0.250000000000003
40
0.250000000000003
40
0.312500000000001
40
0.312500000000001
40
0.374999999999999
40
0.374999999999999
40
0.499999999999991
40
0.499999999999991
40
0.562499999999993
40
0.562499999999993
40
0.624999999999995
40
0.624999999999995
40
0.75000000000001
40
0.75000000000001
40
0.81250000000001
40
0.81250000000001
40
0.875000000000011
40
0.875000000000011
40
1
40
1
40
1
40
1
41
1
10
12.8181619695468
20
-5.52390455985568
30
0
41
1
10
12.8092192305469
20
-5.49142296665099
30
0
41
1
10
12.795487632259
20
-5.46053631026811
30
0
41
1
10
12.771835338829
20
-5.4242014826782
30
0
41
1
10
12.7667495067732
20
-5.41702254257584
30
0
41
1
10
12.7560530091763
20
-5.40314060543949
30
0
41
1
10
12.7504333990711
20
-5.39641840555308
30
0
41
1
10
12.7327595033493
20
-5.37691327369097
30
0
41
1
10
12.7198957841168
20
-5.36478719136355
30
0
41
1
10
12.6988810548679
20
-5.34801059325079
30
0
41
1
10
12.6915883106091
20
-5.34265488280678
30
0
41
1
10
12.6763916134438
20
-5.33244843396361
30
0
41
1
10
12.6685411707113
20
-5.3276378870957
30
0
41
1
10
12.6445437728381
20
-5.3142755070615
30
0
41
1
10
12.6278334996496
20
-5.30670309595527
30
0
41
1
10
12.6016705104134
20
-5.29741602014866
30
0
41
1
10
12.5927656700965
20
-5.2946672684173
30
0
41
1
10
12.5745707697433
20
-5.28989830589609
30
0
41
1
10
12.5652845989499
20
-5.28788547449545
30
0
41
1
10
12.5374812768526
20
-5.28309641628658
30
0
41
1
10
12.51880895329
20
-5.28149999999999
30
0
41
1
10
12.5
20
-5.28149999999999
30
0
0
SPLINE
5
124
100
AcDbEntity
8
1
62
256
6
ByLayer
370
18
48
1
60
0
100
AcDbSpline
70
4
71
3
72
34
73
30
40
0
40
0
40
0
40
0
40
0.125000000000009
40
0.125000000000009
40
0.187500000000013
40
0.187500000000013
40
0.218750000000014
40
0.218750000000014
40
0.250000000000015
40
0.250000000000015
40
0.375000000000016
40
0.375000000000016
40
0.406250000000016
40
0.406250000000016
40
0.437500000000015
40
0.500000000000014
40
0.562500000000012
40
0.562500000000012
40
0.625000000000011
40
0.625000000000011
40
0.687500000000009
40
0.687500000000009
40
0.750000000000008
40
0.750000000000008
40
0.875000000000005
40
0.875000000000005
40
0.937500000000002
40
0.937500000000002
40
1
40
1
40
1
40
1
41
1
10
12.8181619695468
20
-5.52390455985568
30
0
41
1
10
12.8316243955842
20
-5.57280244741563
30
0
41
1
10
12.8495186520746
20
-5.62039327330425
30
0
41
1
10
12.8834427074956
20
-5.68994421350942
30
0
41
1
10
12.8959401462236
20
-5.71282059910325
30
0
41
1
10
12.9166305781722
20
-5.74667527743028
30
0
41
1
10
12.9238696464604
20
-5.75790858875749
30
0
41
1
10
12.9389547957833
20
-5.78010059627479
30
0
41
1
10
12.9467750039595
20
-5.79102397035393
30
0
41
1
10
12.9872859904911
20
-5.84477956517543
30
0
41
1
10
13.0241451570225
20
-5.88506485514569
30
0
41
1
10
13.0766976577682
20
-5.9317141444802
30
0
41
1
10
13.0875531522008
20
-5.94086542607261
30
0
41
1
10
13.1095897675602
20
-5.95849255858914
30
0
41
1
10
13.1432548145305
20
-5.98403155123452
30
0
41
1
10
13.2023826118536
20
-6.02214074180731
30
0
41
1
10
13.2529298677765
20
-6.04784459108234
30
0
41
1
10
13.3051631063884
20
-6.07106053729734
30
0
41
1
10
13.331493866305
20
-6.08114515114497
30
0
41
1
10
13.3845188699141
20
-6.0984693616773
30
0
41
1
10
13.4112225356448
20
-6.10571226011587
30
0
41
1
10
13.4650247101003
20
-6.11747406457991
30
0
41
1
10
13.492216397077
20
-6.12198820416114
30
0
41
1
10
13.5724935208943
20
-6.13133781453536
30
0
41
1
10
13.6249222467064
20
-6.13220808685401
30
0
41
1
10
13.7024065588862
20
-6.12637113204727
30
0
41
1
10
13.7281182805367
20
-6.12320613060606
30
0
41
1
10
13.7787427947223
20
-6.11457017437004
30
0
41
1
10
13.80363915096
20
-6.10911188093093
30
0
41
1
10
13.8281523379786
20
-6.10254896641513
30
0
0
SPLINE
5
125
100
AcDbEntity
8
1
62
256
6
ByLayer
370
18
48
1
60
0
100
AcDbSpline
70
4
71
3
72
24
73
20
40
0
40
0
40
0
40
0
40
0.062500000000008
40
0.062500000000008
40
0.125000000000016
40
0.125000000000016
40
0.250000000000021
40
0.250000000000021
40
0.312500000000022
40
0.312500000000022
40
0.375000000000023
40
0.375000000000023
40
0.500000000000017
40
0.500000000000017
40
0.625000000000012
40
0.625000000000012
40
0.750000000000006
40
0.750000000000006
40
1
40
1
40
1
40
1
41
1
10
14.1981810583398
20
-6.25442311040482
30
0
41
1
10
14.1934313378224
20
-6.24632139018686
30
0
41
1
10
14.1882897889865
20
-6.23835019077265
30
0
41
1
10
14.177355321586
20
-6.22290693429909
30
0
41
1
10
14.1716008277749
20
-6.21548230486323
30
0
41
1
10
14.153507056405
20
-6.19406724837233
30
0
41
1
10
14.1403431053359
20
-6.1809297604749
30
0
41
1
10
14.1189603728398
20
-6.16291952202377
30
0
41
1
10
14.1115431209205
20
-6.15719464554414
30
0
41
1
10
14.0964570188402
20
-6.14652908650146
30
0
41
1
10
14.0887541685168
20
-6.14155746548531
30
0
41
1
10
14.0651865615503
20
-6.12768476963976
30
0
41
1
10
14.0488655560664
20
-6.11981928227152
30
0
41
1
10
14.0150376500416
20
-6.10680967244005
30
0
41
1
10
13.997973394896
20
-6.10183493909818
30
0
41
1
10
13.9636029977596
20
-6.09467600751668
30
0
41
1
10
13.946237058748
20
-6.09249069308137
30
0
41
1
10
13.89416944413
20
-6.09006078995392
30
0
41
1
10
13.8606039107085
20
-6.09386070823118
30
0
41
1
10
13.8281523379786
20
-6.10254896641513
30
0
0
SPLINE
5
126
100
AcDbEntity
8
1
62
256
6
ByLayer
370
18
48
1
60
0
100
AcDbSpline
70
4
71
3
72
26
73
22
40
0
40
0
40
0
40
0
40
0.250000000000013
40
0.250000000000013
40
0.312500000000013
40
0.312500000000013
40
0.375000000000014
40
0.375000000000014
40
0.500000000000015
40
0.500000000000015
40
0.562500000000019
40
0.562500000000019
40
0.625000000000022
40
0.625000000000022
40
0.750000000000024
40
0.750000000000024
40
0.812500000000021
40
0.812500000000021
40
0.875000000000019
40
0.875000000000019
40
1
40
1
40
1
40
1
41
1
10
12.1818380304532
20
-8.97609544014432
30
0
41
1
10
12.1907807694531
20
-9.00857703334901
30
0
41
1
10
12.2045123677409
20
-9.03946368973189
30
0
41
1
10
12.228164661171
20
-9.0757985173218
30
0
41
1
10
12.2332504932268
20
-9.08297745742416
30
0
41
1
10
12.2439469908237
20
-9.09685939456051
30
0
41
1
10
12.2495666009289
20
-9.10358159444692
30
0
41
1
10
12.2672404966507
20
-9.12308672630903
30
0
41
1
10
12.2801042158832
20
-9.13521280863645
30
0
41
1
10
12.3011189451321
20
-9.15198940674918
30
0
41
1
10
12.3084116893909
20
-9.15734511719322
30
0
41
1
10
12.3236083865562
20
-9.16755156603637
30
0
41
1
10
12.3314588292887
20
-9.1723621129043
30
0
41
1
10
12.3554562271619
20
-9.1857244929385
30
0
41
1
10
12.3721665003504
20
-9.19329690404473
30
0
41
1
10
12.3983294895866
20
-9.20258397985134
30
0
41
1
10
12.4072343299035
20
-9.2053327315827
30
0
41
1
10
12.4254292302567
20
-9.21010169410388
30
0
41
1
10
12.4347154010501
20
-9.21211452550452
30
0
41
1
10
12.4625187231474
20
-9.21690358371339
30
0
41
1
10
12.48119104671
20
-9.21850000000001
30
0
41
1
10
12.5
20
-9.21850000000001
30
0
0
SPLINE
5
127
100
AcDbEntity
8
1
62
256
6
ByLayer
370
18
48
1
60
0
100
AcDbSpline
70
4
71
3
72
34
73
30
40
0
40
0
40
0
40
0
40
0.125000000000011
40
0.125000000000011
40
0.187500000000018
40
0.187500000000018
40
0.218750000000019
40
0.218750000000019
40
0.250000000000021
40
0.250000000000021
40
0.375000000000024
40
0.375000000000024
40
0.406250000000023
40
0.406250000000023
40
0.437500000000022
40
0.50000000000002
40
0.562500000000017
40
0.562500000000017
40
0.625000000000015
40
0.625000000000015
40
0.687500000000013
40
0.687500000000013
40
0.750000000000011
40
0.750000000000011
40
0.875000000000006
40
0.875000000000006
40
0.937500000000003
40
0.937500000000003
40
1
40
1
40
1
40
1
41
1
10
12.1818380304532
20
-8.97609544014432
30
0
41
1
10
12.1683756044158
20
-8.92719755258437
30
0
41
1
10
12.1504813479254
20
-8.87960672669573
30
0
41
1
10
12.1165572925044
20
-8.81005578649055
30
0
41
1
10
12.1040598537764
20
-8.78717940089675
30
0
41
1
10
12.0833694218278
20
-8.75332472256972
30
0
41
1
10
12.0761303535396
20
-8.74209141124248
30
0
41
1
10
12.0610452042167
20
-8.71989940372521
30
0
41
1
10
12.0532249960405
20
-8.70897602964607
30
0
41
1
10
12.0127140095089
20
-8.65522043482457
30
0
41
1
10
11.9758548429775
20
-8.61493514485429
30
0
41
1
10
11.9233023422318
20
-8.5682858555198
30
0
41
1
10
11.9124468477992
20
-8.55913457392737
30
0
41
1
10
11.8904102324398
20
-8.54150744141086
30
0
41
1
10
11.8567451854695
20
-8.51596844876548
30
0
41
1
10
11.7976173881464
20
-8.47785925819269
30
0
41
1
10
11.7470701322235
20
-8.45215540891766
30
0
41
1
10
11.6948368936116
20
-8.42893946270263
30
0
41
1
10
11.668506133695
20
-8.41885484885501
30
0
41
1
10
11.6154811300859
20
-8.4015306383227
30
0
41
1
10
11.5887774643552
20
-8.39428773988413
30
0
41
1
10
11.5349752898997
20
-8.38252593542009
30
0
41
1
10
11.507783602923
20
-8.37801179583886
30
0
41
1
10
11.4275064791057
20
-8.36866218546464
30
0
41
1
10
11.3750777532935
20
-8.36779191314596
30
0
41
1
10
11.2975934411138
20
-8.37362886795273
30
0
41
1
10
11.2718817194633
20
-8.37679386939394
30
0
41
1
10
11.2212572052777
20
-8.38542982562993
30
0
41
1
10
11.19636084904
20
-8.39088811906907
30
0
41
1
10
11.1718476620214
20
-8.39745103358487
30
0
0
SPLINE
5
128
100
AcDbEntity
8
1
62
256
6
ByLayer
370
18
48
1
60
0
100
AcDbSpline
70
4
71
3
72
24
73
20
40
0
40
0
40
0
40
0
40
0.0624999999999965
40
0.0624999999999965
40
0.124999999999993
40
0.124999999999993
40
0.249999999999993
40
0.249999999999993
40
0.312499999999992
40
0.312499999999992
40
0.374999999999992
40
0.374999999999992
40
0.499999999999993
40
0.499999999999993
40
0.624999999999994
40
0.624999999999994
40
0.749999999999994
40
0.749999999999994
40
1
40
1
40
1
40
1
41
1
10
10.8018189416602
20
-8.24557688959516
30
0
41
1
10
10.8065686621776
20
-8.25367860981314
30
0
41
1
10
10.8117102110135
20
-8.26164980922735
30
0
41
1
10
10.822644678414
20
-8.27709306570091
30
0
41
1
10
10.8283991722251
20
-8.28451769513677
30
0
41
1
10
10.846492943595
20
-8.30593275162764
30
0
41
1
10
10.8596568946641
20
-8.31907023952508
30
0
41
1
10
10.8810396271602
20
-8.33708047797623
30
0
41
1
10
10.8884568790795
20
-8.34280535445583
30
0
41
1
10
10.9035429811598
20
-8.35347091349854
30
0
41
1
10
10.9112458314832
20
-8.35844253451469
30
0
41
1
10
10.9348134384497
20
-8.37231523036021
30
0
41
1
10
10.9511344439336
20
-8.38018071772848
30
0
41
1
10
10.9849623499584
20
-8.39319032755992
30
0
41
1
10
11.002026605104
20
-8.39816506090182
30
0
41
1
10
11.0363970022404
20
-8.40532399248332
30
0
41
1
10
11.053762941252
20
-8.4075093069186
30
0
41
1
10
11.10583055587
20
-8.40993921004605
30
0
41
1
10
11.1393960892915
20
-8.40613929176882
30
0
41
1
10
11.1718476620214
20
-8.39745103358487
30
0
0
SPLINE
5
129
100
AcDbEntity
8
1
62
256
6
ByLayer
370
18
48
1
60
0
100
AcDbSpline
70
4
71
3
72
16
73
12
40
0
40
0
40
0
40
0
40
0.249999999999994
40
0.249999999999994
40
0.499999999999989
40
0.499999999999989
40
0.749999999999983
40
0.749999999999983
40
0.874999999999992
40
0.874999999999992
40
1
40
1
40
1
40
1
41
1
10
11.5801047960903
20
0.238734122634725
30
0
41
1
10
11.5711898845573
20
0.24658247279848
30
0
41
1
10
11.5624973228575
20
0.25402486125094
30
0
41
1
10
11.5456301165766
20
0.26795151250144
30
0
41
1
10
11.5376080059154
20
0.274308631036547
30
0
41
1
10
11.5227987760445
20
0.285348063602442
30
0
41
1
10
11.5159135580763
20
0.290093298047168
30
0
41
1
10
11.5074095726461
20
0.295102401670448
30
0
41
1
10
11.50483865657
20
0.296443495978877
30
0
41
1
10
11.5005018265235
20
0.298257920516846
30
0
41
1
10
11.4987416856686
20
0.298734122634784
30
0
41
1
10
11.4974329200672
20
0.298734122634784
30
0
0
SPLINE
5
12A
100
AcDbEntity
8
1
62
256
6
ByLayer
370
18
48
1
60
0
100
AcDbSpline
70
4
71
3
72
20
73
16
40
0
40
0
40
0
40
0
40
0.124999999999999
40
0.124999999999999
40
0.249999999999999
40
0.249999999999999
40
0.374999999999998
40
0.374999999999998
40
0.499999999999997
40
0.499999999999997
40
0.624999999999996
40
0.624999999999996
40
0.749999999999996
40
0.749999999999996
40
1
40
1
40
1
40
1
41
1
10
5.484845039286
20
0.298734122634812
30
0
41
1
10
5.48710460989292
20
0.298734122634812
30
0
41
1
10
5.48905611692638
20
0.29841161717323
30
0
41
1
10
5.4922268833574
20
0.296996862463942
30
0
41
1
10
5.49339955915681
20
0.295920167393462
30
0
41
1
10
5.49485759018998
20
0.293008841224349
30
0
41
1
10
5.49514501482
20
0.291147899698387
30
0
41
1
10
5.49476763735041
20
0.286699931478353
30
0
41
1
10
5.49411664690436
20
0.284154021638727
30
0
41
1
10
5.49195868399826
20
0.278462729066888
30
0
41
1
10
5.49043496691101
20
0.275296631536776
30
0
41
1
10
5.48672432859919
20
0.268655369253139
30
0
41
1
10
5.48453008882075
20
0.265153943370734
30
0
41
1
10
5.47705620847563
20
0.254171396993058
30
0
41
1
10
5.47113010031458
20
0.246548501495909
30
0
41
1
10
5.46455747906154
20
0.238734122634753
30
0
0
SPLINE
5
12B
100
AcDbEntity
8
1
62
256
6
ByLayer
370
18
48
1
60
0
100
AcDbSpline
70
4
71
3
72
16
73
12
40
0
40
0
40
0
40
0
40
0.249999999999998
40
0.249999999999998
40
0.499999999999995
40
0.499999999999995
40
0.749999999999993
40
0.749999999999993
40
0.874999999999997
40
0.874999999999997
40
1
40
1
40
1
40
1
41
1
10
5.30233161370029
20
0.238734122634753
30
0
41
1
10
5.31351744865736
20
0.246660271664467
30
0
41
1
10
5.32453509883192
20
0.254057789083191
30
0
41
1
10
5.34620009788722
20
0.267724600543062
30
0
41
1
10
5.35686177752305
20
0.274006612931544
30
0
41
1
10
5.37765136983052
20
0.285095592950938
30
0
41
1
10
5.387489831739
20
0.289755975986992
30
0
41
1
10
5.40108474138029
20
0.294899163245901
30
0
41
1
10
5.4053834674672
20
0.296282505811831
30
0
41
1
10
5.41324120360687
20
0.298193453108922
30
0
41
1
10
5.41682874856363
20
0.298734122634755
30
0
41
1
10
5.41997118896404
20
0.298734122634755
30
0
0
SPLINE
5
12C
100
AcDbEntity
8
1
62
256
6
ByLayer
370
18
48
1
60
0
100
AcDbSpline
70
4
71
3
72
8
73
4
40
0
40
0
40
0
40
0
40
1
40
1
40
1
40
1
41
1
10
5.28292558005913
20
0.224999999999994
30
0
41
1
10
5.28939742323314
20
0.229574684455912
30
0
41
1
10
5.29586609646364
20
0.23415273435495
30
0
41
1
10
5.30233161370029
20
0.238734122634725
30
0
0
SPLINE
5
12D
100
AcDbEntity
8
1
62
256
6
ByLayer
370
18
48
1
60
0
100
AcDbSpline
70
4
71
3
72
8
73
4
40
0
40
0
40
0
40
0
40
1
40
1
40
1
40
1
41
1
10
12.0194813070474
20
-0.151554445662271
30
0
41
1
10
11.8736770655148
20
-0.0209079076704484
30
0
41
1
10
11.7272372580048
20
0.109204280718984
30
0
41
1
10
11.5801047960903
20
0.238734122634725
30
0
0
SPLINE
5
12E
100
AcDbEntity
8
1
62
256
6
ByLayer
370
18
48
1
60
0
100
AcDbSpline
70
4
71
3
72
8
73
4
40
0
40
0
40
0
40
0
40
1
40
1
40
1
40
1
41
1
10
5.46455747906145
20
0.238734122634725
30
0
41
1
10
5.46070683833204
20
0.234155984878214
30
0
41
1
10
5.45685604434772
20
0.229577943794965
30
0
41
1
10
5.4530050961618
20
0.224999999999994
30
0
0
SPLINE
5
12F
100
AcDbEntity
8
1
62
256
6
ByLayer
370
18
48
1
60
0
100
AcDbSpline
70
4
71
3
72
8
73
4
40
0
40
0
40
0
40
0
40
1
40
1
40
1
40
1
41
1
10
12.0194813070474
20
-0.151554445662271
30
0
41
1
10
12.1204515174213
20
-0.251017965786929
30
0
41
1
10
12.2214031219139
20
-0.35050026126558
30
0
41
1
10
12.3223374405995
20
-0.449999999999989
30
0
0
SPLINE
5
130
100
AcDbEntity
8
1
62
256
6
ByLayer
370
18
48
1
60
0
100
AcDbSpline
70
4
71
3
72
10
73
6
40
0
40
0
40
0
40
0
40
0.5
40
0.5
40
1
40
1
40
1
40
1
41
1
10
27.4138003328163
20
-13.25
30
0
41
1
10
27.3913255083222
20
-13.333636979808
30
0
41
1
10
27.3686488048895
20
-13.4171590003179
30
0
41
1
10
27.3227115908064
20
-13.5838705942365
30
0
41
1
10
27.2994542014685
20
-13.6670619450663
30
0
41
1
10
27.2757520015974
20
-13.75
30
0
0
SPLINE
5
131
100
AcDbEntity
8
1
62
256
6
ByLayer
370
18
48
1
60
0
100
AcDbSpline
70
4
71
3
72
8
73
4
40
0
40
0
40
0
40
0
40
1
40
1
40
1
40
1
41
1
10
27.5302715088964
20
-13.1878989908994
30
0
41
1
10
27.4915098707272
20
-13.2088384873171
30
0
41
1
10
27.4526967756916
20
-13.2295797717263
30
0
41
1
10
27.4138003328163
20
-13.25
30
0
0
SPLINE
5
132
100
AcDbEntity
8
1
62
256
6
ByLayer
370
18
48
1
60
0
100
AcDbSpline
70
4
71
3
72
20
73
16
40
0
40
0
40
0
40
0
40
0.250000000000001
40
0.250000000000001
40
0.375000000000001
40
0.375000000000001
40
0.500000000000001
40
0.500000000000001
40
0.625
40
0.625
40
0.75
40
0.75
40
0.875
40
0.875
40
1
40
1
40
1
40
1
41
1
10
27.6
20
-13.0488189610524
30
0
41
1
10
27.6
20
-13.0641490047044
30
0
41
1
10
27.5983032683749
20
-13.07906272116
30
0
41
1
10
27.5932722054894
20
-13.1008233142706
30
0
41
1
10
27.5911956020292
20
-13.107857468867
30
0
41
1
10
27.5863470925789
20
-13.1212854151622
30
0
41
1
10
27.5835665145095
20
-13.1277165972179
30
0
41
1
10
27.577292299883
20
-13.1400130523269
30
0
41
1
10
27.5738109198991
20
-13.1458371602263
30
0
41
1
10
27.566370343473
20
-13.1565662640604
30
0
41
1
10
27.5623875914647
20
-13.161519135205
30
0
41
1
10
27.5539058839995
20
-13.1706151999758
30
0
41
1
10
27.5493925342152
20
-13.1747610157103
30
0
41
1
10
27.5400824753273
20
-13.1820397054276
30
0
41
1
10
27.5352598767439
20
-13.1852042154563
30
0
41
1
10
27.5302715088964
20
-13.1878989908994
30
0
0
SPLINE
5
133
100
AcDbEntity
8
1
62
256
6
ByLayer
370
18
48
1
60
0
100
AcDbSpline
70
4
71
3
72
18
73
14
40
0
40
0
40
0
40
0
40
0.249999999999962
40
0.249999999999962
40
0.374999999999968
40
0.374999999999968
40
0.499999999999975
40
0.499999999999975
40
0.624999999999981
40
0.624999999999981
40
0.749999999999987
40
0.749999999999987
40
1
40
1
40
1
40
1
41
1
10
27.5302715088965
20
-12.8121010091006
30
0
41
1
10
27.5402534965698
20
-12.8174933971678
30
0
41
1
10
27.5495110920797
20
-12.8247001325068
30
0
41
1
10
27.5622681364233
20
-12.8383388568583
30
0
41
1
10
27.5663247014677
20
-12.8433741334294
30
0
41
1
10
27.5737697540225
20
-12.8540973397703
30
0
41
1
10
27.577196025976
20
-12.8598217468452
30
0
41
1
10
27.5834409557019
20
-12.8720146675935
30
0
41
1
10
27.5862812874854
20
-12.8785480546616
30
0
41
1
10
27.5911732159972
20
-12.8920650970702
30
0
41
1
10
27.5932281689774
20
-12.8990283425917
30
0
41
1
10
27.598227700362
20
-12.9205282172852
30
0
41
1
10
27.6000000000053
20
-12.9358324946182
30
0
41
1
10
27.6000000000053
20
-12.9511810389469
30
0
0
SPLINE
5
134
100
AcDbEntity
8
1
62
256
6
ByLayer
370
18
48
1
60
0
100
AcDbSpline
70
4
71
3
72
8
73
4
40
0
40
0
40
0
40
0
40
1
40
1
40
1
40
1
41
1
10
27.4138003328163
20
-12.75
30
0
41
1
10
27.4526987739192
20
-12.7704212773225
30
0
41
1
10
27.491511570766
20
-12.791162431064
30
0
41
1
10
27.5302715088965
20
-12.8121010091006
30
0
0
SPLINE
5
135
100
AcDbEntity
8
1
62
256
6
ByLayer
370
18
48
1
60
0
100
AcDbSpline
70
4
71
3
72
10
73
6
40
0
40
0
40
0
40
0
40
0.5
40
0.5
40
1
40
1
40
1
40
1
41
1
10
27.2757520015973
20
-12.2499999999999
30
0
41
1
10
27.2994542014685
20
-12.3329380549336
30
0
41
1
10
27.3227115908064
20
-12.4161294057635
30
0
41
1
10
27.3686488048895
20
-12.5828409996821
30
0
41
1
10
27.3913255083222
20
-12.666363020192
30
0
41
1
10
27.4138003328163
20
-12.75
30
0
0
SPLINE
5
136
100
AcDbEntity
8
1
62
256
6
ByLayer
370
18
48
1
60
0
100
AcDbSpline
70
4
71
3
72
24
73
20
40
0
40
0
40
0
40
0
40
0.157744292759137
40
0.157744292759137
40
0.236616439138706
40
0.236616439138706
40
0.315488585518275
40
0.315488585518275
40
0.473232878277413
40
0.473232878277413
40
0.630977171036552
40
0.630977171036552
40
0.709849317416121
40
0.709849317416121
40
0.78872146379569
40
0.78872146379569
40
0.946465756554828
40
0.946465756554828
40
1
40
1
40
1
40
1
41
1
10
12.4999027036552
20
-0.649999999999949
30
0
41
1
10
12.4999027036552
20
-0.682696183826806
30
0
41
1
10
12.5030796401494
20
-0.715121262451447
30
0
41
1
10
12.5126463885759
20
-0.763349155720334
30
0
41
1
10
12.5166711177503
20
-0.779439129148045
30
0
41
1
10
12.5262071748885
20
-0.810868007764725
30
0
41
1
10
12.5317173711234
20
-0.826248648462098
30
0
41
1
10
12.5504230693893
20
-0.871412289521885
30
0
41
1
10
12.5657723395697
20
-0.900226607402317
30
0
41
1
10
12.6024647846199
20
-0.955159414239603
30
0
41
1
10
12.6232204610707
20
-0.980391397554286
30
0
41
1
10
12.6577660622388
20
-1.01495572555717
30
0
41
1
10
12.66985700917
20
-1.02593004008045
30
0
41
1
10
12.6952158229419
20
-1.04676024989334
30
0
41
1
10
12.7085340954967
20
-1.05664017595413
30
0
41
1
10
12.7494179840163
20
-1.08395255209814
30
0
41
1
10
12.778140098517
20
-1.09930156567259
30
0
41
1
10
12.8185535380335
20
-1.11606899755705
30
0
41
1
10
12.8289835581554
20
-1.11999574635809
30
0
41
1
10
12.8395610361321
20
-1.12357794525806
30
0
0
SPLINE
5
137
100
AcDbEntity
8
1
62
256
6
ByLayer
370
18
48
1
60
0
100
AcDbSpline
70
4
71
3
72
33
73
29
40
0
40
0
40
0
40
0
40
0.0624999999999979
40
0.0624999999999979
40
0.124999999999996
40
0.187499999999994
40
0.187499999999994
40
0.218749999999995
40
0.218749999999995
40
0.249999999999995
40
0.249999999999995
40
0.375000000000002
40
0.375000000000002
40
0.437500000000005
40
0.437500000000005
40
0.500000000000008
40
0.500000000000008
40
0.62500000000001
40
0.62500000000001
40
0.687500000000009
40
0.687500000000009
40
0.750000000000009
40
0.750000000000009
40
0.875000000000005
40
0.875000000000005
40
0.937500000000002
40
0.937500000000002
40
1
40
1
40
1
40
1
41
1
10
7.5318267425184
20
-1.15000000000001
30
0
41
1
10
7.52282220889216
20
-1.15000000000001
30
0
41
1
10
7.51376037285635
20
-1.14918018696088
30
0
41
1
10
7.49591405665441
20
-1.14595669127795
30
0
41
1
10
7.47824335947416
20
-1.14115458380965
30
0
41
1
10
7.46091849835355
20
-1.13324381035474
30
0
41
1
10
7.44805627056147
20
-1.12612943408084
30
0
41
1
10
7.44379080308417
20
-1.12356074405042
30
0
41
1
10
7.43530453010845
20
-1.11802190448071
30
0
41
1
10
7.4310742851878
20
-1.11504377778064
30
0
41
1
10
7.41025205144499
20
-1.09929467820319
30
0
41
1
10
7.39450634971504
20
-1.08390323668974
30
0
41
1
10
7.37221876142291
20
-1.05674160035704
30
0
41
1
10
7.3650129910454
20
-1.04700374959128
30
0
41
1
10
7.3510617754531
20
-1.02611885704547
30
0
41
1
10
7.34435635287645
20
-1.01502036906837
30
0
41
1
10
7.32535450130655
20
-0.980327811390794
30
0
41
1
10
7.31402839212356
20
-0.955154937386936
30
0
41
1
10
7.29906200679105
20
-0.914313497829795
30
0
41
1
10
7.29439042148249
20
-0.900098911415341
30
0
41
1
10
7.2859033996078
20
-0.871111012734133
30
0
41
1
10
7.28207833731347
20
-0.856331413458577
30
0
41
1
10
7.27182788719998
20
-0.811156560874878
30
0
41
1
10
7.26661529223114
20
-0.779933406211114
30
0
41
1
10
7.26132104132006
20
-0.731375251988169
30
0
41
1
10
7.26000335505063
20
-0.715093005975007
30
0
41
1
10
7.2582543062816
20
-0.682570700505693
30
0
41
1
10
7.25781888869273
20
-0.666293370787969
30
0
41
1
10
7.25781888869273
20
-0.650000000000006
30
0
0
SPLINE
5
138
100
AcDbEntity
8
1
62
256
6
ByLayer
370
18
48
1
60
0
100
AcDbSpline
70
4
71
3
72
18
73
14
40
0
40
0
40
0
40
0
40
0.250000000000008
40
0.250000000000008
40
0.375000000000009
40
0.375000000000009
40
0.50000000000001
40
0.50000000000001
40
0.750000000000007
40
0.750000000000007
40
0.875000000000004
40
0.875000000000004
40
1
40
1
40
1
40
1
41
1
10
-11.5
20
-0.867944947177051
30
0
41
1
10
-11.5
20
-0.854224847441316
30
0
41
1
10
-11.5
20
-0.839647108563042
30
0
41
1
10
-11.5
20
-0.81602018110317
30
0
41
1
10
-11.5
20
-0.807848668242372
30
0
41
1
10
-11.5
20
-0.790785086394976
30
0
41
1
10
-11.5
20
-0.781881108951438
30
0
41
1
10
-11.5
20
-0.754475129626144
30
0
41
1
10
-11.5
20
-0.735082511898042
30
0
41
1
10
-11.5
20
-0.703849160789474
30
0
41
1
10
-11.5
20
-0.693249006755622
30
0
41
1
10
-11.5
20
-0.671631753918973
30
0
41
1
10
-11.5
20
-0.660786505786803
30
0
41
1
10
-11.5
20
-0.650000000000006
30
0
0
SPLINE
5
139
100
AcDbEntity
8
1
62
256
6
ByLayer
370
18
48
1
60
0
100
AcDbSpline
70
4
71
3
72
24
73
20
40
0
40
0
40
0
40
0
40
0.250000000000001
40
0.250000000000001
40
0.312500000000001
40
0.312500000000001
40
0.375000000000001
40
0.375000000000001
40
0.500000000000002
40
0.500000000000002
40
0.625000000000002
40
0.625000000000002
40
0.750000000000002
40
0.750000000000002
40
0.875000000000003
40
0.875000000000003
40
0.937500000000001
40
0.937500000000001
40
1
40
1
40
1
40
1
41
1
10
5.3757683157917
20
-1.15000000000001
30
0
41
1
10
5.46690727550509
20
-1.15000000000001
30
0
41
1
10
5.55816807913038
20
-1.14394035350352
30
0
41
1
10
5.67237812809199
20
-1.12969938219734
30
0
41
1
10
5.69523874220678
20
-1.12651028868427
30
0
41
1
10
5.74082863577789
20
-1.11948073070462
30
0
41
1
10
5.76357406775622
20
-1.11563863230168
30
0
41
1
10
5.83166232047006
20
-1.10313369205619
30
0
41
1
10
5.87685800249858
20
-1.09349818450113
30
0
41
1
10
5.96683992854034
20
-1.07152056467055
30
0
41
1
10
6.01162680153755
20
-1.0591826103161
30
0
41
1
10
6.10073928710568
20
-1.03145752297519
30
0
41
1
10
6.14506669471382
20
-1.01608225614686
30
0
41
1
10
6.23314033355572
20
-0.981489835172198
30
0
41
1
10
6.27689297255102
20
-0.962315039763894
30
0
41
1
10
6.34186778877964
20
-0.92922861569437
30
0
41
1
10
6.36342722055298
20
-0.917457247464398
30
0
41
1
10
6.40588780091062
20
-0.892115833393319
30
0
41
1
10
6.42683014546407
20
-0.878541599005104
30
0
41
1
10
6.4473389085716
20
-0.863606855335149
30
0
0
SPLINE
5
13A
100
AcDbEntity
8
1
62
256
6
ByLayer
370
18
48
1
60
0
100
AcDbSpline
70
4
71
3
72
13
73
9
40
0
40
0
40
0
40
0
40
0.5
40
0.5
40
0.624999999999999
40
0.624999999999999
40
0.749999999999999
40
1
40
1
40
1
40
1
41
1
10
6.42107471208857
20
-0.649999999999949
30
0
41
1
10
6.42107471208857
20
-0.686777065427719
30
0
41
1
10
6.42327146713421
20
-0.72321201770319
30
0
41
1
10
6.42880939070437
20
-0.768320897166006
30
0
41
1
10
6.43006279575059
20
-0.777347587754292
30
0
41
1
10
6.43282848616963
20
-0.795165414426663
30
0
41
1
10
6.43736710609272
20
-0.821571970320747
30
0
41
1
10
6.44304902404062
20
-0.84704009862142
30
0
41
1
10
6.44733890857174
20
-0.86360685533532
30
0
0
SPLINE
5
13B
100
AcDbEntity
8
1
62
256
6
ByLayer
370
18
48
1
60
0
100
AcDbSpline
70
4
71
3
72
24
73
20
40
0
40
0
40
0
40
0
40
0.0624999999999999
40
0.0624999999999999
40
0.125
40
0.125
40
0.25
40
0.25
40
0.375
40
0.375
40
0.5
40
0.5
40
0.75
40
0.75
40
0.875
40
0.875
40
0.9375
40
0.9375
40
1
40
1
40
1
40
1
41
1
10
0
20
-0.867944947177108
30
0
41
1
10
0.0711417730560413
20
-0.867944947177108
30
0
41
1
10
0.142176843588061
20
-0.86920639312612
30
0
41
1
10
0.284048372653359
20
-0.874077292284198
30
0
41
1
10
0.354885209321054
20
-0.877682275157468
30
0
41
1
10
0.567150251620319
20
-0.891399163008543
30
0
41
1
10
0.708335297540174
20
-0.904385721945431
30
0
41
1
10
0.990382072394027
20
-0.934181119616682
30
0
41
1
10
1.13124588262031
20
-0.950965353143516
30
0
41
1
10
1.4129006254957
20
-0.985395384863267
30
0
41
1
10
1.55369018231642
20
-1.00305744821171
30
0
41
1
10
1.97619857824844
20
-1.05439179234688
30
0
41
1
10
2.25805625350128
20
-1.0864227409362
30
0
41
1
10
2.68188643476745
20
-1.12213083096194
30
0
41
1
10
2.82333561610574
20
-1.13199475942244
30
0
41
1
10
3.0358774707833
20
-1.14243914874263
30
0
41
1
10
3.10678633318969
20
-1.14519263745413
30
0
41
1
10
3.24875008198131
20
-1.14897330748033
30
0
41
1
10
3.31980900869345
20
-1.15000000000001
30
0
41
1
10
3.3907963666372
20
-1.15000000000001
30
0
0
SPLINE
5
13C
100
AcDbEntity
8
1
62
256
6
ByLayer
370
18
48
1
60
0
100
AcDbSpline
70
4
71
3
72
8
73
4
40
0
40
0
40
0
40
0
40
1
40
1
40
1
40
1
41
1
10
-10.8989425100447
20
0.151057489955292
30
0
41
1
10
-10.8595658338229
20
0.180340727492933
30
0
41
1
10
-10.8201314850413
20
0.209566674203614
30
0
41
1
10
-10.7806382482019
20
0.238734122634725
30
0
0
SPLINE
5
13D
100
AcDbEntity
8
1
62
256
6
ByLayer
370
18
48
1
60
0
100
AcDbSpline
70
4
71
3
72
8
73
4
40
0
40
0
40
0
40
0
40
1
40
1
40
1
40
1
41
1
10
-10.8989425100447
20
0.151057489955292
30
0
41
1
10
-11.0992402935163
20
-0.0492402935162772
30
0
41
1
10
-11.2995941492394
20
-0.249594149239357
30
0
41
1
10
-11.5
20
-0.449999999999989
30
0
0
SPLINE
5
13E
100
AcDbEntity
8
1
62
256
6
ByLayer
370
18
48
1
60
0
100
AcDbSpline
70
4
71
3
72
8
73
4
40
0
40
0
40
0
40
0
40
1
40
1
40
1
40
1
41
1
10
5.25790188435622
20
-0.349999999999994
30
0
41
1
10
5.27633879950551
20
-0.383331965143725
30
0
41
1
10
5.29477496694813
20
-0.416665309585738
30
0
41
1
10
5.31321040457257
20
-0.449999999999989
30
0
0
SPLINE
5
13F
100
AcDbEntity
8
1
62
256
6
ByLayer
370
18
48
1
60
0
100
AcDbSpline
70
4
71
3
72
8
73
4
40
0
40
0
40
0
40
0
40
1
40
1
40
1
40
1
41
1
10
4.53681898854856
20
0.136218365389652
30
0
41
1
10
4.77732221630413
20
-0.0242358162595337
30
0
41
1
10
5.01767922924861
20
-0.186353572724499
30
0
41
1
10
5.25790188435622
20
-0.349999999999994
30
0
0
SPLINE
5
140
100
AcDbEntity
8
1
62
256
6
ByLayer
370
18
48
1
60
0
100
AcDbSpline
70
4
71
3
72
8
73
4
40
0
40
0
40
0
40
0
40
1
40
1
40
1
40
1
41
1
10
4.53681898854856
20
0.136218365389652
30
0
41
1
10
4.39311485591335
20
0.171895348854719
30
0
41
1
10
4.24885570519734
20
0.206084793619937
30
0
41
1
10
4.10402191928833
20
0.238734122634952
30
0
0
SPLINE
5
141
100
AcDbEntity
8
1
62
256
6
ByLayer
370
18
48
1
60
0
100
AcDbSpline
70
4
71
3
72
16
73
12
40
0
40
0
40
0
40
0
40
0.124999999999999
40
0.124999999999999
40
0.249999999999998
40
0.249999999999998
40
0.499999999999999
40
0.499999999999999
40
0.749999999999999
40
0.749999999999999
40
1
40
1
40
1
40
1
41
1
10
3.62166801750646
20
0.298734122634727
30
0
41
1
10
3.64146900451951
20
0.298734122634812
30
0
41
1
10
3.66135045805009
20
0.298230890088973
30
0
41
1
10
3.70122060120096
20
0.296506222564574
30
0
41
1
10
3.72121017716179
20
0.295280048130735
30
0
41
1
10
3.7813045380131
20
0.290714357109039
30
0
41
1
10
3.82153260047093
20
0.286500200161299
30
0
41
1
10
3.90224457718355
20
0.276140110092712
30
0
41
1
10
3.9427154750046
20
0.269984206887727
30
0
41
1
10
4.0234414230766
20
0.255822140558706
30
0
41
1
10
4.06375598784567
20
0.247811118278662
30
0
41
1
10
4.10402191928824
20
0.238734122634895
30
0
0
SPLINE
5
142
100
AcDbEntity
8
1
62
256
6
ByLayer
370
18
48
1
60
0
100
AcDbSpline
70
4
71
3
72
28
73
24
40
0
40
0
40
0
40
0
40
0.250000000000014
40
0.250000000000014
40
0.500000000000027
40
0.500000000000027
40
0.625000000000034
40
0.625000000000034
40
0.687500000000035
40
0.687500000000035
40
0.750000000000036
40
0.750000000000036
40
0.781250000000032
40
0.781250000000032
40
0.812500000000028
40
0.812500000000028
40
0.843750000000024
40
0.843750000000024
40
0.87500000000002
40
0.87500000000002
40
0.93750000000001
40
0.93750000000001
40
1
40
1
40
1
40
1
41
1
10
3.15166794857197
20
0.298734122634727
30
0
41
1
10
3.13160980319824
20
0.298734122634727
30
0
41
1
10
3.11168069456477
20
0.298358743627574
30
0
41
1
10
3.07224313007615
20
0.296444310288536
30
0
41
1
10
3.05271431486227
20
0.294957051038125
30
0
41
1
10
3.0241116081454
20
0.290900021958521
30
0
41
1
10
3.0146901487544
20
0.28924920620517
30
0
41
1
10
3.00093602704331
20
0.285793858624629
30
0
41
1
10
2.99636992012574
20
0.284459059629427
30
0
41
1
10
2.9877643742166
20
0.281283464875685
30
0
41
1
10
2.9837056211106
20
0.279461342875067
30
0
41
1
10
2.97839744387315
20
0.275983559294332
30
0
41
1
10
2.97674974441767
20
0.274679721196321
30
0
41
1
10
2.97404444340964
20
0.271786944885719
30
0
41
1
10
2.97296259628246
20
0.270157618001434
30
0
41
1
10
2.97174174112555
20
0.266673013202933
30
0
41
1
10
2.9715988734184
20
0.26476510686328
30
0
41
1
10
2.97234076295953
20
0.260937587104024
30
0
41
1
10
2.97321675883194
20
0.258999468010472
30
0
41
1
10
2.97680873259284
20
0.253488576502178
30
0
41
1
10
2.98043141963106
20
0.250138176054406
30
0
41
1
10
2.9882976419828
20
0.244094010171977
30
0
41
1
10
2.99265467152276
20
0.241325446855967
30
0
41
1
10
2.99716371967642
20
0.238734122632877
30
0
0
SPLINE
5
143
100
AcDbEntity
8
1
62
256
6
ByLayer
370
18
48
1
60
0
100
AcDbSpline
70
4
71
3
72
10
73
6
40
0
40
0
40
0
40
0
40
0.5
40
0.5
40
1
40
1
40
1
40
1
41
1
10
3.91317788205905
20
-0.346265877375742
30
0
41
1
10
3.7653594188985
20
-0.243069435311469
30
0
41
1
10
3.61544327782838
20
-0.142336480156501
30
0
41
1
10
3.31046871656758
20
0.053090401358844
30
0
41
1
10
3.15541395030198
20
0.147788618843492
30
0
41
1
10
2.99716371967816
20
0.238734122634725
30
0
0
SPLINE
5
144
100
AcDbEntity
8
1
62
256
6
ByLayer
370
18
48
1
60
0
100
AcDbSpline
70
4
71
3
72
38
73
34
40
0
40
0
40
0
40
0
40
0.25
40
0.25
40
0.5
40
0.5
40
0.625
40
0.625
40
0.750000000000001
40
0.750000000000001
40
0.812499999999999
40
0.812499999999999
40
0.843749999999999
40
0.843749999999999
40
0.874999999999999
40
0.874999999999999
40
0.890624999999997
40
0.890624999999997
40
0.906249999999997
40
0.906249999999997
40
0.921874999999996
40
0.921874999999996
40
0.937499999999996
40
0.937499999999996
40
0.945312499999998
40
0.945312499999998
40
0.953125
40
0.953125
40
0.96875
40
0.96875
40
0.984375
40
0.984375
40
1
40
1
40
1
40
1
41
1
10
3.15677909714151
20
-0.346265877365283
30
0
41
1
10
3.22843911122229
20
-0.357976356094554
30
0
41
1
10
3.29999539862641
20
-0.368586392348135
30
0
41
1
10
3.44289163380063
20
-0.387306625479852
30
0
41
1
10
3.51423237004718
20
-0.395456419931833
30
0
41
1
10
3.62105769930417
20
-0.404661361549103
30
0
41
1
10
3.65649802098281
20
-0.407205681955333
30
0
41
1
10
3.72687627393677
20
-0.410687939565491
30
0
41
1
10
3.76183084352451
20
-0.411675466929608
30
0
41
1
10
3.81360858108104
20
-0.410835290127835
30
0
41
1
10
3.83075841817885
20
-0.410166794589031
30
0
41
1
10
3.85619715491387
20
-0.408100959924724
30
0
41
1
10
3.86461178396567
20
-0.407231545015207
30
0
41
1
10
3.88106491041455
20
-0.404979961109063
30
0
41
1
10
3.88912856811439
20
-0.403603293109711
30
0
41
1
10
3.9008123645913
20
-0.400895832779298
30
0
41
1
10
3.90463738268755
20
-0.399884734533799
30
0
41
1
10
3.91208725611881
20
-0.397548344941413
30
0
41
1
10
3.91572665610695
20
-0.396216717272125
30
0
41
1
10
3.92249638146603
20
-0.393145626833729
30
0
41
1
10
3.9256526819739
20
-0.391407028083535
30
0
41
1
10
3.93118364405106
20
-0.387232665926405
30
0
41
1
10
3.93347999611683
20
-0.38485252137923
30
0
41
1
10
3.93566657923304
20
-0.380630666714978
30
0
41
1
10
3.936159774385
20
-0.379150450096603
30
0
41
1
10
3.93661737624171
20
-0.376059385573825
30
0
41
1
10
3.93657564058722
20
-0.374418799017576
30
0
41
1
10
3.93565209758708
20
-0.369523788550396
30
0
41
1
10
3.93397371228269
20
-0.366210777502005
30
0
41
1
10
3.92937892905897
20
-0.359936869246241
30
0
41
1
10
3.92646228266577
20
-0.356939786020092
30
0
41
1
10
3.9201620150927
20
-0.351368002515159
30
0
41
1
10
3.91675156831269
20
-0.3487607734709
30
0
41
1
10
3.91317788205905
20
-0.346265877375771
30
0
0
SPLINE
5
145
100
AcDbEntity
8
1
62
256
6
ByLayer
370
18
48
1
60
0
100
AcDbSpline
70
4
71
3
72
13
73
9
40
0
40
0
40
0
40
0
40
0.25
40
0.25
40
0.5
40
0.75
40
0.75
40
1
40
1
40
1
40
1
41
1
10
-3.15677909714151
20
-0.346265877365283
30
0
41
1
10
-2.63064924761792
20
-0.26028721142842
30
0
41
1
10
-2.10451939809434
20
-0.195443009051331
30
0
41
1
10
-1.05225969904717
20
-0.108884510961502
30
0
41
1
10
0
20
-0.0654585029975863
30
0
41
1
10
1.05225969904717
20
-0.108884510961502
30
0
41
1
10
2.10451939809434
20
-0.195443009051331
30
0
41
1
10
2.63064924761792
20
-0.26028721142842
30
0
41
1
10
3.15677909714151
20
-0.346265877365283
30
0
0
SPLINE
5
146
100
AcDbEntity
8
1
62
256
6
ByLayer
370
18
48
1
60
0
100
AcDbSpline
70
4
71
3
72
38
73
34
40
0
40
0
40
0
40
0
40
0.015625000000001
40
0.015625000000001
40
0.0312500000000019
40
0.0312500000000019
40
0.0468750000000029
40
0.0468750000000029
40
0.0625000000000038
40
0.0625000000000038
40
0.0781250000000048
40
0.0781250000000048
40
0.0937500000000058
40
0.0937500000000058
40
0.109375000000007
40
0.109375000000007
40
0.125000000000006
40
0.125000000000006
40
0.156250000000006
40
0.156250000000006
40
0.187500000000006
40
0.187500000000006
40
0.250000000000006
40
0.250000000000006
40
0.312500000000007
40
0.312500000000007
40
0.375000000000007
40
0.375000000000007
40
0.500000000000005
40
0.500000000000005
40
0.750000000000002
40
0.750000000000002
40
1
40
1
40
1
40
1
41
1
10
-3.91317788206467
20
-0.346265877351755
30
0
41
1
10
-3.9167736467046
20
-0.348776187019666
30
0
41
1
10
-3.92019988484464
20
-0.351397464723817
30
0
41
1
10
-3.92651519750601
20
-0.356990669393895
30
0
41
1
10
-3.92941912327686
20
-0.359984514239159
30
0
41
1
10
-3.93398431374152
20
-0.366232571907119
30
0
41
1
10
-3.93567158343228
20
-0.369565969875452
30
0
41
1
10
-3.93688461539745
20
-0.376118578682679
30
0
41
1
10
-3.93636554390699
20
-0.379309431881211
30
0
41
1
10
-3.93344951915907
20
-0.384882444742089
30
0
41
1
10
-3.93118449019764
20
-0.387230417217381
30
0
41
1
10
-3.92567187793114
20
-0.391394144649325
30
0
41
1
10
-3.92249513173837
20
-0.393147269722334
30
0
41
1
10
-3.91569396813659
20
-0.396230464794058
30
0
41
1
10
-3.91207569076849
20
-0.397551312041969
30
0
41
1
10
-3.90468759327413
20
-0.399869644277714
30
0
41
1
10
-3.90089277753913
20
-0.400874784337134
30
0
41
1
10
-3.88929702099594
20
-0.403568985611798
30
0
41
1
10
-3.88128866264188
20
-0.404942852233319
30
0
41
1
10
-3.86494015304521
20
-0.407192881699018
30
0
41
1
10
-3.85658062990726
20
-0.408063422818799
30
0
41
1
10
-3.83125045755853
20
-0.410139163597535
30
0
41
1
10
-3.81412412428665
20
-0.410818618504862
30
0
41
1
10
-3.77959426281998
20
-0.411395291558534
30
0
41
1
10
-3.76218606694405
20
-0.411278029025851
30
0
41
1
10
-3.72716842596768
20
-0.410497020372787
30
0
41
1
10
-3.70954107497727
20
-0.409828625363218
30
0
41
1
10
-3.6565904758549
20
-0.407213395159943
30
0
41
1
10
-3.62117200610308
20
-0.404669060463703
30
0
41
1
10
-3.51465782991068
20
-0.395497362659512
30
0
41
1
10
-3.44330540860636
20
-0.387357767865041
30
0
41
1
10
-3.3000950821947
20
-0.368602505012149
30
0
41
1
10
-3.22845556709547
20
-0.357979045267229
30
0
41
1
10
-3.15677909714151
20
-0.346265877365283
30
0
0
SPLINE
5
147
100
AcDbEntity
8
1
62
256
6
ByLayer
370
18
48
1
60
0
100
AcDbSpline
70
4
71
3
72
10
73
6
40
0
40
0
40
0
40
0
40
0.5
40
0.5
40
1
40
1
40
1
40
1
41
1
10
-2.99716371964624
20
0.238734122653057
30
0
41
1
10
-3.15541395027313
20
0.147788618860801
30
0
41
1
10
-3.31046871654166
20
0.0530904013749591
30
0
41
1
10
-3.61544327780808
20
-0.14233648014303
30
0
41
1
10
-3.76535941888088
20
-0.243069435299446
30
0
41
1
10
-3.91317788204404
20
-0.346265877365283
30
0
0
SPLINE
5
148
100
AcDbEntity
8
1
62
256
6
ByLayer
370
18
48
1
60
0
100
AcDbSpline
70
4
71
3
72
32
73
28
40
0
40
0
40
0
40
0
40
0.250000000000003
40
0.250000000000003
40
0.375000000000001
40
0.375000000000001
40
0.499999999999999
40
0.499999999999999
40
0.624999999999997
40
0.624999999999997
40
0.687499999999997
40
0.687499999999997
40
0.749999999999996
40
0.749999999999996
40
0.781249999999997
40
0.781249999999997
40
0.812499999999998
40
0.812499999999998
40
0.843749999999999
40
0.843749999999999
40
0.875
40
0.875
40
0.906250000000001
40
0.906250000000001
40
0.937500000000002
40
0.937500000000002
40
1
40
1
40
1
40
1
41
1
10
-3.15166794857197
20
0.298734122634727
30
0
41
1
10
-3.13143042680741
20
0.298734122634727
30
0
41
1
10
-3.11129530618325
20
0.298353061031293
30
0
41
1
10
-3.08134927365927
20
0.296879527510867
30
0
41
1
10
-3.07141064231655
20
0.296236087334648
30
0
41
1
10
-3.0516593521015
20
0.294518944717254
30
0
41
1
10
-3.04186621429864
20
0.293450190195273
30
0
41
1
10
-3.02267660516452
20
0.290659752917662
30
0
41
1
10
-3.01325416984693
20
0.288957872154612
30
0
41
1
10
-2.99967637622106
20
0.285434603995981
30
0
41
1
10
-2.99521463322577
20
0.284085374545583
30
0
41
1
10
-2.98678137454652
20
0.280853033890963
30
0
41
1
10
-2.98281538585755
20
0.278997637665412
30
0
41
1
10
-2.97768674702465
20
0.275435988777957
30
0
41
1
10
-2.97615087188325
20
0.27413295646457
30
0
41
1
10
-2.97364544179203
20
0.27122224973516
30
0
41
1
10
-2.97267212447983
20
0.269587041399546
30
0
41
1
10
-2.97166376020422
20
0.266089288560153
30
0
41
1
10
-2.97163355874125
20
0.264197039806049
30
0
41
1
10
-2.97253873388948
20
0.26043492516439
30
0
41
1
10
-2.9734663403126
20
0.258545267571236
30
0
41
1
10
-2.97589600006475
20
0.254978282577241
30
0
41
1
10
-2.97742315521569
20
0.253248569030006
30
0
41
1
10
-2.98079774013124
20
0.24997549174347
30
0
41
1
10
-2.98265363418429
20
0.248419157961109
30
0
41
1
10
-2.98852599948117
20
0.243943957678226
30
0
41
1
10
-2.99276342481483
20
0.241262946964355
30
0
41
1
10
-2.99716371964621
20
0.238734122653028
30
0
0
SPLINE
5
149
100
AcDbEntity
8
1
62
256
6
ByLayer
370
18
48
1
60
0
100
AcDbSpline
70
4
71
3
72
16
73
12
40
0
40
0
40
0
40
0
40
0.25
40
0.25
40
0.5
40
0.5
40
0.75
40
0.75
40
0.875
40
0.875
40
1
40
1
40
1
40
1
41
1
10
-4.10402191928824
20
0.238734122635378
30
0
41
1
10
-4.06376678994343
20
0.247808683203346
30
0
41
1
10
-4.02348877621887
20
0.255812163858053
30
0
41
1
10
-3.94288019119222
20
0.269956975056885
30
0
41
1
10
-3.90254967609181
20
0.27609607278481
30
0
41
1
10
-3.8218331720235
20
0.286466457907124
30
0
41
1
10
-3.78144206639695
20
0.290702474281034
30
0
41
1
10
-3.72125030061974
20
0.295277714821793
30
0
41
1
10
-3.70123695495292
20
0.29650547490354
30
0
41
1
10
-3.66134068174029
20
0.298231353222178
30
0
41
1
10
-3.64145673931293
20
0.298734122634812
30
0
41
1
10
-3.62166801750649
20
0.298734122634727
30
0
0
SPLINE
5
14A
100
AcDbEntity
8
1
62
256
6
ByLayer
370
18
48
1
60
0
100
AcDbSpline
70
4
71
3
72
8
73
4
40
0
40
0
40
0
40
0
40
1
40
1
40
1
40
1
41
1
10
-6.19449049756147
20
-0.346265877365198
30
0
41
1
10
-5.50998732186505
20
-0.118247121852249
30
0
41
1
10
-4.81389475865592
20
0.0787101907473584
30
0
41
1
10
-4.10402191928833
20
0.238734122634952
30
0
0
SPLINE
5
14B
100
AcDbEntity
8
1
62
256
6
ByLayer
370
18
48
1
60
0
100
AcDbSpline
70
4
71
3
72
34
73
30
40
0
40
0
40
0
40
0
40
0.0624999999999876
40
0.0624999999999876
40
0.093749999999979
40
0.093749999999979
40
0.109374999999975
40
0.109374999999975
40
0.12499999999997
40
0.12499999999997
40
0.140624999999966
40
0.140624999999966
40
0.156249999999962
40
0.156249999999962
40
0.187499999999961
40
0.187499999999961
40
0.249999999999966
40
0.249999999999966
40
0.312499999999971
40
0.312499999999971
40
0.374999999999977
40
0.374999999999977
40
0.499999999999983
40
0.499999999999983
40
0.624999999999989
40
0.624999999999989
40
0.749999999999995
40
0.749999999999995
40
1
40
1
40
1
40
1
41
1
10
-6.56936091871285
20
-0.346265877364658
30
0
41
1
10
-6.57633679017951
20
-0.353509057726313
30
0
41
1
10
-6.58229813805548
20
-0.361217829089981
30
0
41
1
10
-6.58722404466678
20
-0.372791285497158
30
0
41
1
10
-6.58813773742673
20
-0.376565442508934
30
0
41
1
10
-6.58821029154805
20
-0.381889783436293
30
0
41
1
10
-6.5880160375369
20
-0.38361711235774
30
0
41
1
10
-6.58722335306388
20
-0.386849998101326
30
0
41
1
10
-6.58662658861479
20
-0.388373739986406
30
0
41
1
10
-6.58506523556409
20
-0.391251371419287
30
0
41
1
10
-6.58409351342041
20
-0.392609336558195
30
0
41
1
10
-6.58188370248766
20
-0.395096444492367
30
0
41
1
10
-6.58064108584583
20
-0.39623740911523
30
0
41
1
10
-6.57656834202544
20
-0.399403836496049
30
0
41
1
10
-6.57337285389741
20
-0.401184755139496
30
0
41
1
10
-6.56294084430724
20
-0.405692358680739
30
0
41
1
10
-6.55488911369497
20
-0.40761894503234
30
0
41
1
10
-6.53807327452722
20
-0.41020870458388
30
0
41
1
10
-6.52926787048659
20
-0.41087148464274
30
0
41
1
10
-6.51114879220151
20
-0.411398682897385
30
0
41
1
10
-6.50180676784177
20
-0.411253184143163
30
0
41
1
10
-6.47336946401043
20
-0.409928190396926
30
0
41
1
10
-6.45397340175458
20
-0.407893846338737
30
0
41
1
10
-6.41461622507373
20
-0.402382530457714
30
0
41
1
10
-6.39469343836069
20
-0.398888692827086
30
0
41
1
10
-6.35489068932523
20
-0.390875963398912
30
0
41
1
10
-6.33494021749101
20
-0.386341923634689
30
0
41
1
10
-6.27496056119261
20
-0.371401907279335
30
0
41
1
10
-6.23480550385796
20
-0.359695438966497
30
0
41
1
10
-6.19449049756145
20
-0.346265877365312
30
0
0
SPLINE
5
14C
100
AcDbEntity
8
1
62
256
6
ByLayer
370
18
48
1
60
0
100
AcDbSpline
70
4
71
3
72
8
73
4
40
0
40
0
40
0
40
0
40
1
40
1
40
1
40
1
41
1
10
-5.99851292719652
20
0.238734122625516
30
0
41
1
10
-6.19037013142284
20
0.0448864605763788
30
0
41
1
10
-6.38053241454662
20
-0.150201640854107
30
0
41
1
10
-6.56936091871106
20
-0.346265877365283
30
0
0
SPLINE
5
14D
100
AcDbEntity
8
1
62
256
6
ByLayer
370
18
48
1
60
0
100
AcDbSpline
70
4
71
3
72
24
73
20
40
0
40
0
40
0
40
0
40
0.250000000000002
40
0.250000000000002
40
0.375000000000002
40
0.375000000000002
40
0.500000000000003
40
0.500000000000003
40
0.625000000000004
40
0.625000000000004
40
0.687500000000005
40
0.687500000000005
40
0.750000000000005
40
0.750000000000005
40
0.812500000000006
40
0.812500000000006
40
0.875000000000007
40
0.875000000000007
40
1
40
1
40
1
40
1
41
1
10
-6.0557716446379
20
0.298734122634755
30
0
41
1
10
-6.04419946822051
20
0.298734122634755
30
0
41
1
10
-6.03294239425148
20
0.298164153815549
30
0
41
1
10
-6.01690358553151
20
0.295804600306837
30
0
41
1
10
-6.01171051548181
20
0.294758501581384
30
0
41
1
10
-6.00201874393659
20
0.291970529691895
30
0
41
1
10
-5.99748212447028
20
0.290233018695716
30
0
41
1
10
-5.98945796966558
20
0.285629828351631
30
0
41
1
10
-5.9861108683719
20
0.282850156283928
30
0
41
1
10
-5.98273345186183
20
0.2775348939889
30
0
41
1
10
-5.98192572586265
20
0.275623822463814
30
0
41
1
10
-5.98102513026132
20
0.271489279150899
30
0
41
1
10
-5.98094395057635
20
0.269244265254145
30
0
41
1
10
-5.98153785798672
20
0.26465596415278
30
0
41
1
10
-5.98220737859836
20
0.262275655070056
30
0
41
1
10
-5.98420333996384
20
0.257440285772247
30
0
41
1
10
-5.98549880190893
20
0.255045798810073
30
0
41
1
10
-5.99007830002719
20
0.247916366207448
30
0
41
1
10
-5.99408431732562
20
0.243208677920734
30
0
41
1
10
-5.99851292719532
20
0.238734122625061
30
0
0
SPLINE
5
14E
100
AcDbEntity
8
1
62
256
6
ByLayer
370
18
48
1
60
0
100
AcDbSpline
70
4
71
3
72
18
73
14
40
0
40
0
40
0
40
0
40
0.249999999999999
40
0.249999999999999
40
0.499999999999998
40
0.499999999999998
40
0.624999999999999
40
0.624999999999999
40
0.749999999999999
40
0.749999999999999
40
0.875
40
0.875
40
1
40
1
40
1
40
1
41
1
10
-6.55506132228464
20
0.238734122634952
30
0
41
1
10
-6.53219405367542
20
0.247307503669134
30
0
41
1
10
-6.50937413174029
20
0.255039402683366
30
0
41
1
10
-6.46381515762462
20
0.268933493633995
30
0
41
1
10
-6.4410760792901
20
0.275096625370338
30
0
41
1
10
-6.40703374432397
20
0.28304217774533
30
0
41
1
10
-6.39569750137281
20
0.285472116169956
30
0
41
1
10
-6.37305113985255
20
0.289836534228897
30
0
41
1
10
-6.3617097673044
20
0.291775433842474
30
0
41
1
10
-6.33930863555523
20
0.295021983703862
30
0
41
1
10
-6.32823070632048
20
0.296336002502869
30
0
41
1
10
-6.30638623992704
20
0.298189443883302
30
0
41
1
10
-6.2956174676666
20
0.2987341226345
30
0
41
1
10
-6.28507119094127
20
0.298734122634755
30
0
0
SPLINE
5
14F
100
AcDbEntity
8
1
62
256
6
ByLayer
370
18
48
1
60
0
100
AcDbSpline
70
4
71
3
72
8
73
4
40
0
40
0
40
0
40
0
40
1
40
1
40
1
40
1
41
1
10
-7.97829372614243
20
-0.346265877365255
30
0
41
1
10
-7.51126298621298
20
-0.137799718139149
30
0
41
1
10
-7.03726186782848
20
0.0579478169985634
30
0
41
1
10
-6.55506132228467
20
0.238734122634725
30
0
0
SPLINE
5
150
100
AcDbEntity
8
1
62
256
6
ByLayer
370
18
48
1
60
0
100
AcDbSpline
70
4
71
3
72
32
73
28
40
0
40
0
40
0
40
0
40
0.0624999999999784
40
0.0624999999999784
40
0.093749999999971
40
0.093749999999971
40
0.124999999999964
40
0.124999999999964
40
0.156249999999956
40
0.156249999999956
40
0.187499999999949
40
0.187499999999949
40
0.218749999999942
40
0.218749999999942
40
0.249999999999934
40
0.249999999999934
40
0.312499999999936
40
0.312499999999936
40
0.374999999999938
40
0.374999999999938
40
0.499999999999949
40
0.499999999999949
40
0.624999999999961
40
0.624999999999961
40
0.749999999999972
40
0.749999999999972
40
1
40
1
40
1
40
1
41
1
10
-8.23863123486254
20
-0.346265877365283
30
0
41
1
10
-8.24401726610031
20
-0.352561238212388
30
0
41
1
10
-8.24865963093686
20
-0.358881809509541
30
0
41
1
10
-8.2539371465443
20
-0.368419460699641
30
0
41
1
10
-8.25538482563755
20
-0.371575152150541
30
0
41
1
10
-8.25748012467088
20
-0.377655431794693
30
0
41
1
10
-8.25814281003545
20
-0.380640315935693
30
0
41
1
10
-8.25856287725128
20
-0.386207020865641
30
0
41
1
10
-8.25833183116509
20
-0.388776083884835
30
0
41
1
10
-8.25702872715326
20
-0.393506611190418
30
0
41
1
10
-8.25593542312589
20
-0.395685960351301
30
0
41
1
10
-8.25306425665869
20
-0.399493187073574
30
0
41
1
10
-8.25129077564463
20
-0.40114332052238
30
0
41
1
10
-8.24718120168978
20
-0.404022754419117
30
0
41
1
10
-8.24483750719739
20
-0.405249636291444
30
0
41
1
10
-8.23730575918052
20
-0.408314316817979
30
0
41
1
10
-8.23156665794247
20
-0.409597366672301
30
0
41
1
10
-8.21910963287976
20
-0.411134313056067
30
0
41
1
10
-8.21257827072463
20
-0.411362685980208
30
0
41
1
10
-8.19238018397189
20
-0.410970187871783
30
0
41
1
10
-8.17811582407933
20
-0.40928888852801
30
0
41
1
10
-8.14858706018126
20
-0.404175929659544
30
0
41
1
10
-8.13325659136655
20
-0.400694159737725
30
0
41
1
10
-8.10266542924819
20
-0.392582834540974
30
0
41
1
10
-8.08728360342911
20
-0.387929076979873
30
0
41
1
10
-8.04092462387422
20
-0.372501471630443
30
0
41
1
10
-8.00973887178111
20
-0.360301888653538
30
0
41
1
10
-7.97829372614243
20
-0.346265877365283
30
0
0
SPLINE
5
151
100
AcDbEntity
8
1
62
256
6
ByLayer
370
18
48
1
60
0
100
AcDbSpline
70
4
71
3
72
8
73
4
40
0
40
0
40
0
40
0
40
1
40
1
40
1
40
1
41
1
10
-7.73668690802083
20
0.238734122632337
30
0
41
1
10
-7.90433161838288
20
0.0439464417172815
30
0
41
1
10
-8.07162694802656
20
-0.15106607212175
30
0
41
1
10
-8.23863123486254
20
-0.346265877365283
30
0
0
SPLINE
5
152
100
AcDbEntity
8
1
62
256
6
ByLayer
370
18
48
1
60
0
100
AcDbSpline
70
4
71
3
72
24
73
20
40
0
40
0
40
0
40
0
40
0.250000000000018
40
0.250000000000018
40
0.375000000000013
40
0.375000000000013
40
0.500000000000008
40
0.500000000000008
40
0.562500000000008
40
0.562500000000008
40
0.625000000000008
40
0.625000000000008
40
0.687500000000008
40
0.687500000000008
40
0.750000000000008
40
0.750000000000008
40
0.875000000000004
40
0.875000000000004
40
1
40
1
40
1
40
1
41
1
10
-7.76445294698257
20
0.298734122637598
30
0
41
1
10
-7.75540293945676
20
0.29873412263774
30
0
41
1
10
-7.7468987435326
20
0.297987387753466
30
0
41
1
10
-7.73558341781737
20
0.294917556926578
30
0
41
1
10
-7.73212874843207
20
0.293574356736144
30
0
41
1
10
-7.72614480173959
20
0.290073182754327
30
0
41
1
10
-7.72357712923775
20
0.287872211945199
30
0
41
1
10
-7.72082923371835
20
0.283877116910702
30
0
41
1
10
-7.72009293218858
20
0.282431762367963
30
0
41
1
10
-7.71902198597155
20
0.279287446626398
30
0
41
1
10
-7.71869203560706
20
0.277583782106433
30
0
41
1
10
-7.71848018492221
20
0.274027885561338
30
0
41
1
10
-7.71859219447097
20
0.272162531608984
30
0
41
1
10
-7.71924928044743
20
0.268258434985626
30
0
41
1
10
-7.71980194438464
20
0.26620734850394
30
0
41
1
10
-7.72201193028727
20
0.260029519979696
30
0
41
1
10
-7.72421704543052
20
0.255811982361564
30
0
41
1
10
-7.72977136757109
20
0.247222598955858
30
0
41
1
10
-7.7330701789719
20
0.242936427985597
30
0
41
1
10
-7.73668690802037
20
0.238734122632223
30
0
0
SPLINE
5
153
100
AcDbEntity
8
1
62
256
6
ByLayer
370
18
48
1
60
0
100
AcDbSpline
70
4
71
3
72
16
73
12
40
0
40
0
40
0
40
0
40
0.249999999999998
40
0.249999999999998
40
0.499999999999997
40
0.499999999999997
40
0.749999999999995
40
0.749999999999995
40
0.874999999999998
40
0.874999999999998
40
1
40
1
40
1
40
1
41
1
10
-8.12217101296397
20
0.238734122634725
30
0
41
1
10
-8.10492785160844
20
0.247089326470814
30
0
41
1
10
-8.08767417332828
20
0.254749513654247
30
0
41
1
10
-8.05314011575473
20
0.268675465191251
30
0
41
1
10
-8.03598293968213
20
0.274889077962996
30
0
41
1
10
-8.00221641041475
20
0.285540794836208
30
0
41
1
10
-7.98555836230929
20
0.290011288870943
30
0
41
1
10
-7.96104026791772
20
0.294956048673441
30
0
41
1
10
-7.95292019199488
20
0.29630700078414
30
0
41
1
10
-7.93721476792732
20
0.298189748345038
30
0
41
1
10
-7.92959435546132
20
0.298734122634158
30
0
41
1
10
-7.92229515489962
20
0.298734122634727
30
0
0
SPLINE
5
154
100
AcDbEntity
8
1
62
256
6
ByLayer
370
18
48
1
60
0
100
AcDbSpline
70
4
71
3
72
8
73
4
40
0
40
0
40
0
40
0
40
1
40
1
40
1
40
1
41
1
10
-9.26334869455067
20
-0.346265877365283
30
0
41
1
10
-8.8881666513155
20
-0.143642620235511
30
0
41
1
10
-8.50804729863944
20
0.051757097027604
30
0
41
1
10
-8.12217101296397
20
0.238734122634725
30
0
0
SPLINE
5
155
100
AcDbEntity
8
1
62
256
6
ByLayer
370
18
48
1
60
0
100
AcDbSpline
70
4
71
3
72
30
73
26
40
0
40
0
40
0
40
0
40
0.0625000000000019
40
0.0625000000000019
40
0.0937500000000057
40
0.0937500000000057
40
0.125000000000009
40
0.125000000000009
40
0.156250000000013
40
0.156250000000013
40
0.187500000000017
40
0.187500000000017
40
0.250000000000014
40
0.250000000000014
40
0.375000000000019
40
0.375000000000019
40
0.500000000000024
40
0.500000000000024
40
0.562500000000026
40
0.562500000000026
40
0.625000000000028
40
0.625000000000028
40
0.75000000000002
40
0.75000000000002
40
1
40
1
40
1
40
1
41
1
10
-9.45878355645307
20
-0.346265877365255
30
0
41
1
10
-9.46341419736854
20
-0.351902758652784
30
0
41
1
10
-9.46761175102303
20
-0.357592571784835
30
0
41
1
10
-9.47284545162111
20
-0.365993835241767
30
0
41
1
10
-9.47440002916805
20
-0.368751204628524
30
0
41
1
10
-9.47707791838536
20
-0.374168406194713
30
0
41
1
10
-9.47820773153613
20
-0.3768497685505
30
0
41
1
10
-9.47992378569141
20
-0.381976175061766
30
0
41
1
10
-9.48051327776389
20
-0.384418108213595
30
0
41
1
10
-9.48113238920885
20
-0.389049652357187
30
0
41
1
10
-9.48115927728807
20
-0.391256385998503
30
0
41
1
10
-9.48036009078814
20
-0.397351334987917
30
0
41
1
10
-9.4787003709217
20
-0.400628878050441
30
0
41
1
10
-9.47085971123325
20
-0.408475327977669
30
0
41
1
10
-9.46205119235333
20
-0.410729008602033
30
0
41
1
10
-9.44221847811289
20
-0.411627556292359
30
0
41
1
10
-9.43107985270923
20
-0.410374839282156
30
0
41
1
10
-9.41321959920954
20
-0.406906603674315
30
0
41
1
10
-9.40709320576434
20
-0.405477387404005
30
0
41
1
10
-9.39469835398123
20
-0.402201673728769
30
0
41
1
10
-9.38840603778161
20
-0.400350067200208
30
0
41
1
10
-9.36928321467825
20
-0.394243108478293
30
0
41
1
10
-9.35615574795807
20
-0.389416238455397
30
0
41
1
10
-9.31672576565154
20
-0.373426080422519
30
0
41
1
10
-9.29015739238108
20
-0.360744357270562
30
0
41
1
10
-9.26334869455067
20
-0.346265877365283
30
0
0
SPLINE
5
156
100
AcDbEntity
8
1
62
256
6
ByLayer
370
18
48
1
60
0
100
AcDbSpline
70
4
71
3
72
8
73
4
40
0
40
0
40
0
40
0
40
1
40
1
40
1
40
1
41
1
10
-8.97805609738553
20
0.2387341226339
30
0
41
1
10
-9.13833491595133
20
0.0437565186267648
30
0
41
1
10
-9.29857556736316
20
-0.1512446195525
30
0
41
1
10
-9.45878355645286
20
-0.346265877365283
30
0
0
SPLINE
5
157
100
AcDbEntity
8
1
62
256
6
ByLayer
370
18
48
1
60
0
100
AcDbSpline
70
4
71
3
72
20
73
16
40
0
40
0
40
0
40
0
40
0.250000000000001
40
0.250000000000001
40
0.375000000000001
40
0.375000000000001
40
0.5
40
0.5
40
0.625
40
0.625
40
0.75
40
0.75
40
0.875
40
0.875
40
1
40
1
40
1
40
1
41
1
10
-8.98755188690919
20
0.298734122634755
30
0
41
1
10
-8.98010477763293
20
0.298734122634755
30
0
41
1
10
-8.97342375665963
20
0.297784716206763
30
0
41
1
10
-8.96549601975461
20
0.294176119009933
30
0
41
1
10
-8.9632122621195
20
0.292590780826032
30
0
41
1
10
-8.95972943533221
20
0.288620512374877
30
0
41
1
10
-8.95850065873547
20
0.286179991016127
30
0
41
1
10
-8.95735874790303
20
0.28059721422278
30
0
41
1
10
-8.95741732819025
20
0.277453462815259
30
0
41
1
10
-8.95883565323432
20
0.270440019035902
30
0
41
1
10
-8.96017224164225
20
0.266708118177348
30
0
41
1
10
-8.9638330055302
20
0.259008009190325
30
0
41
1
10
-8.96618893311107
20
0.25498000205917
30
0
41
1
10
-8.97165079921358
20
0.246851301024407
30
0
41
1
10
-8.97472111813084
20
0.24279109204673
30
0
41
1
10
-8.97805609738535
20
0.2387341226339
30
0
0
SPLINE
5
158
100
AcDbEntity
8
1
62
256
6
ByLayer
370
18
48
1
60
0
100
AcDbSpline
70
4
71
3
72
18
73
14
40
0
40
0
40
0
40
0
40
0.249999999999979
40
0.249999999999979
40
0.374999999999979
40
0.374999999999979
40
0.499999999999979
40
0.499999999999979
40
0.749999999999999
40
0.749999999999999
40
0.874999999999999
40
0.874999999999999
40
1
40
1
40
1
40
1
41
1
10
-9.26528439869777
20
0.238734122634725
30
0
41
1
10
-9.25107196985942
20
0.246943454831779
30
0
41
1
10
-9.23689503991778
20
0.254533599067173
30
0
41
1
10
-9.21568085228704
20
0.264952277565101
30
0
41
1
10
-9.20860682699247
20
0.268266675281382
30
0
41
1
10
-9.19463427200665
20
0.274475247841622
30
0
41
1
10
-9.18771796477509
20
0.277378834606651
30
0
41
1
10
-9.16719599763398
20
0.285437453234834
30
0
41
1
10
-9.15380789867892
20
0.289966399050258
30
0
41
1
10
-9.13434829909724
20
0.29497724982167
30
0
41
1
10
-9.12803721565436
20
0.296324021037776
30
0
41
1
10
-9.11599899930286
20
0.298197710136435
30
0
41
1
10
-9.11024736100178
20
0.298734122634187
30
0
41
1
10
-9.10485591140105
20
0.298734122634755
30
0
0
SPLINE
5
159
100
AcDbEntity
8
1
62
256
6
ByLayer
370
18
48
1
60
0
100
AcDbSpline
70
4
71
3
72
8
73
4
40
0
40
0
40
0
40
0
40
1
40
1
40
1
40
1
41
1
10
-10.2391936837362
20
-0.346265877365283
30
0
41
1
10
-9.91846102511103
20
-0.146391617731496
30
0
41
1
10
-9.59401927701582
20
0.0488514606661852
30
0
41
1
10
-9.26528439869779
20
0.238734122634725
30
0
0
SPLINE
5
15A
100
AcDbEntity
8
1
62
256
6
ByLayer
370
18
48
1
60
0
100
AcDbSpline
70
4
71
3
72
35
73
31
40
0
40
0
40
0
40
0
40
0.0624999999999921
40
0.0624999999999921
40
0.124999999999984
40
0.124999999999984
40
0.187499999999976
40
0.187499999999976
40
0.218749999999972
40
0.218749999999972
40
0.249999999999968
40
0.281249999999964
40
0.281249999999964
40
0.31249999999996
40
0.31249999999996
40
0.374999999999964
40
0.374999999999964
40
0.437499999999968
40
0.437499999999968
40
0.499999999999971
40
0.499999999999971
40
0.562499999999975
40
0.562499999999975
40
0.624999999999978
40
0.624999999999978
40
0.749999999999986
40
0.749999999999986
40
0.874999999999993
40
0.874999999999993
40
1
40
1
40
1
40
1
41
1
10
-10.3892794799059
20
-0.346265877365283
30
0
41
1
10
-10.393565807874
20
-0.351509865768747
30
0
41
1
10
-10.3975477088159
20
-0.356774113990838
30
0
41
1
10
-10.4044805061788
20
-0.366990622080266
30
0
41
1
10
-10.4074517427559
20
-0.371959062432097
30
0
41
1
10
-10.4121284428283
20
-0.381540132767952
30
0
41
1
10
-10.4137591401409
20
-0.386023242370527
30
0
41
1
10
-10.41494278492
20
-0.392060729596437
30
0
41
1
10
-10.4151281355978
20
-0.393981740000555
30
0
41
1
10
-10.4150566482822
20
-0.397490752570235
30
0
41
1
10
-10.4145539566102
20
-0.400682631016366
30
0
41
1
10
-10.4132336255927
20
-0.403274296540502
30
0
41
1
10
-10.4115167631084
20
-0.405575445251429
30
0
41
1
10
-10.4104519673839
20
-0.406582667989795
30
0
41
1
10
-10.406792429418
20
-0.409110541754757
30
0
41
1
10
-10.4037206585327
20
-0.410180651823566
30
0
41
1
10
-10.3965559350464
20
-0.411330822595971
30
0
41
1
10
-10.3925168165316
20
-0.411395835317592
30
0
41
1
10
-10.3838843065225
20
-0.41074568632439
30
0
41
1
10
-10.3792647851403
20
-0.410031553760945
30
0
41
1
10
-10.3695279223598
20
-0.407966601097087
30
0
41
1
10
-10.3644217120287
20
-0.40661464988824
30
0
41
1
10
-10.3539916786325
20
-0.403432759293509
30
0
41
1
10
-10.3486412568543
20
-0.401596803862276
30
0
41
1
10
-10.332242883351
20
-0.395461910448347
30
0
41
1
10
-10.3208151792588
20
-0.390518000559325
30
0
41
1
10
-10.2978900658682
20
-0.379604315250674
30
0
41
1
10
-10.2863013323554
20
-0.373599285346387
30
0
41
1
10
-10.2629080774237
20
-0.36064178900395
30
0
41
1
10
-10.2511031590057
20
-0.353687627187412
30
0
41
1
10
-10.2391936837362
20
-0.346265877365283
30
0
0
SPLINE
5
15B
100
AcDbEntity
8
1
62
256
6
ByLayer
370
18
48
1
60
0
100
AcDbSpline
70
4
71
3
72
8
73
4
40
0
40
0
40
0
40
0
40
1
40
1
40
1
40
1
41
1
10
-9.91108764278047
20
0.238734122634384
30
0
41
1
10
-10.070490718115
20
0.0437376762441204
30
0
41
1
10
-10.2298877306637
20
-0.151262487319002
30
0
41
1
10
-10.3892794799059
20
-0.346265877365283
30
0
0
SPLINE
5
15C
100
AcDbEntity
8
1
62
256
6
ByLayer
370
18
48
1
60
0
100
AcDbSpline
70
4
71
3
72
22
73
18
40
0
40
0
40
0
40
0
40
0.125
40
0.125
40
0.25
40
0.25
40
0.375
40
0.375
40
0.5
40
0.5
40
0.625
40
0.625
40
0.75
40
0.75
40
0.875
40
0.875
40
1
40
1
40
1
40
1
41
1
10
-9.90658610591109
20
0.298734122634727
30
0
41
1
10
-9.9035552884008
20
0.298734122634727
30
0
41
1
10
-9.90078139511638
20
0.298454319542145
30
0
41
1
10
-9.89584518729019
20
0.297230564610857
30
0
41
1
10
-9.8936645051233
20
0.296272520793337
30
0
41
1
10
-9.89017653067044
20
0.293591603240884
30
0
41
1
10
-9.88886998029527
20
0.291883994457407
30
0
41
1
10
-9.88725320254044
20
0.287635153424617
30
0
41
1
10
-9.88696933039621
20
0.285117356665921
30
0
41
1
10
-9.88746156335377
20
0.279484831735488
30
0
41
1
10
-9.88824038867955
20
0.276314977002585
30
0
41
1
10
-9.89078500388754
20
0.269479782846304
30
0
41
1
10
-9.89251430634609
20
0.265887001283545
30
0
41
1
10
-9.89674197662347
20
0.258407646048113
30
0
41
1
10
-9.899263690015
20
0.254493634525602
30
0
41
1
10
-9.90480663180605
20
0.246656481247157
30
0
41
1
10
-9.90783936297601
20
0.242707716101194
30
0
41
1
10
-9.9110876427804
20
0.238734122634384
30
0
0
SPLINE
5
15D
100
AcDbEntity
8
1
62
256
6
ByLayer
370
18
48
1
60
0
100
AcDbSpline
70
4
71
3
72
18
73
14
40
0
40
0
40
0
40
0
40
0.25
40
0.25
40
0.375
40
0.375
40
0.5
40
0.5
40
0.75
40
0.75
40
0.875
40
0.875
40
1
40
1
40
1
40
1
41
1
10
-10.128984549977
20
0.238734122634725
30
0
41
1
10
-10.1167588446078
20
0.246817881580824
30
0
41
1
10
-10.1046460871967
20
0.254324801330171
30
0
41
1
10
-10.0866516356631
20
0.26467026749259
30
0
41
1
10
-10.0806828784395
20
0.267964884988487
30
0
41
1
10
-10.0688093243301
20
0.274216367216098
30
0
41
1
10
-10.0628863862919
20
0.277180863316829
30
0
41
1
10
-10.0455226766792
20
0.285357537921811
30
0
41
1
10
-10.0343930794834
20
0.289924282743982
30
0
41
1
10
-10.0186170413059
20
0.294955811004002
30
0
41
1
10
-10.0134896877797
20
0.296325792747154
30
0
41
1
10
-10.0039464335981
20
0.298206834276243
30
0
41
1
10
-9.99949425202581
20
0.298734122643111
30
0
41
1
10
-9.99545105601651
20
0.298734122643765
30
0
0
SPLINE
5
15E
100
AcDbEntity
8
1
62
256
6
ByLayer
370
18
48
1
60
0
100
AcDbSpline
70
4
71
3
72
8
73
4
40
0
40
0
40
0
40
0
40
1
40
1
40
1
40
1
41
1
10
-10.9885188059763
20
-0.346265877365283
30
0
41
1
10
-10.7050148310899
20
-0.147951770980683
30
0
41
1
10
-10.4186469711083
20
0.04720642607586
30
0
41
1
10
-10.128984549977
20
0.238734122634725
30
0
0
SPLINE
5
15F
100
AcDbEntity
8
1
62
256
6
ByLayer
370
18
48
1
60
0
100
AcDbSpline
70
4
71
3
72
37
73
33
40
0
40
0
40
0
40
0
40
0.0624999999999941
40
0.0624999999999941
40
0.124999999999988
40
0.124999999999988
40
0.187499999999982
40
0.187499999999982
40
0.218749999999982
40
0.218749999999982
40
0.249999999999982
40
0.249999999999982
40
0.312499999999983
40
0.312499999999983
40
0.343749999999985
40
0.343749999999985
40
0.374999999999987
40
0.374999999999987
40
0.437499999999991
40
0.437499999999991
40
0.499999999999994
40
0.499999999999994
40
0.562499999999998
40
0.562499999999998
40
0.625000000000001
40
0.687500000000005
40
0.687500000000005
40
0.750000000000008
40
0.750000000000008
40
0.875000000000004
40
0.875000000000004
40
1
40
1
40
1
40
1
41
1
10
-11.103182870482
20
-0.346265877365283
30
0
41
1
10
-11.10729192647
20
-0.351217606374917
30
0
41
1
10
-11.1111747646967
20
-0.356159314467618
30
0
41
1
10
-11.1181925136869
20
-0.365757960847532
30
0
41
1
10
-11.1213317690102
20
-0.370414666979997
30
0
41
1
10
-11.1267168241725
20
-0.379384666999926
30
0
41
1
10
-11.1289631778535
20
-0.383720135967707
30
0
41
1
10
-11.1313596255662
20
-0.389598979267532
30
0
41
1
10
-11.13200439519
20
-0.39146689634029
30
0
41
1
10
-11.1329645325849
20
-0.395007020395212
30
0
41
1
10
-11.1332789215271
20
-0.396687619078335
30
0
41
1
10
-11.1336814587799
20
-0.401283693826173
30
0
41
1
10
-11.1332511647521
20
-0.403799954159467
30
0
41
1
10
-11.1315943784824
20
-0.406784015397903
30
0
41
1
10
-11.1308656989016
20
-0.407649681054835
30
0
41
1
10
-11.1291171179571
20
-0.409081176346973
30
0
41
1
10
-11.1280968947368
20
-0.409653280476618
30
0
41
1
10
-11.1246383293278
20
-0.410978528563561
30
0
41
1
10
-11.1217741228637
20
-0.411341018064491
30
0
41
1
10
-11.1152683576925
20
-0.411164741620922
30
0
41
1
10
-11.1116594743743
20
-0.410637250693043
30
0
41
1
10
-11.1038701608851
20
-0.408878546788145
30
0
41
1
10
-11.0996670128274
20
-0.407637934191996
30
0
41
1
10
-11.090864053475
20
-0.404581256441333
30
0
41
1
10
-11.0817283932268
20
-0.400976404553404
30
0
41
1
10
-11.0720396182348
20
-0.396460995352271
30
0
41
1
10
-11.0621063047738
20
-0.391542907161011
30
0
41
1
10
-11.0570045150885
20
-0.38887449831131
30
0
41
1
10
-11.0416300463654
20
-0.380465130727231
30
0
41
1
10
-11.0312065720077
20
-0.37428716641088
30
0
41
1
10
-11.010073975124
20
-0.36098205167059
30
0
41
1
10
-10.9993640311666
20
-0.353852230054088
30
0
41
1
10
-10.9885188059763
20
-0.346265877365283
30
0
0
SPLINE
5
160
100
AcDbEntity
8
1
62
256
6
ByLayer
370
18
48
1
60
0
100
AcDbSpline
70
4
71
3
72
8
73
4
40
0
40
0
40
0
40
0
40
1
40
1
40
1
40
1
41
1
10
-10.6173831633766
20
0.238734122634554
30
0
41
1
10
-10.7793976107627
20
0.0437847029075442
30
0
41
1
10
-10.9413273326196
20
-0.151217485585761
30
0
41
1
10
-11.103182870482
20
-0.346265877365283
30
0
0
SPLINE
5
161
100
AcDbEntity
8
1
62
256
6
ByLayer
370
18
48
1
60
0
100
AcDbSpline
70
4
71
3
72
22
73
18
40
0
40
0
40
0
40
0
40
0.125
40
0.125
40
0.25
40
0.25
40
0.375
40
0.375
40
0.5
40
0.5
40
0.625
40
0.625
40
0.75
40
0.75
40
0.875
40
0.875
40
1
40
1
40
1
40
1
41
1
10
-10.6009342808912
20
0.298734122634812
30
0
41
1
10
-10.5985266859291
20
0.298734122634812
30
0
41
1
10
-10.5964041527176
20
0.298420292623774
30
0
41
1
10
-10.5928444998102
20
0.297039766706206
30
0
41
1
10
-10.5914547010666
20
0.295987918298891
30
0
41
1
10
-10.5895387265966
20
0.293112660961327
30
0
41
1
10
-10.5890138908018
20
0.29125498026886
30
0
41
1
10
-10.5889297189615
20
0.286872251074385
30
0
41
1
10
-10.5893528171736
20
0.284350984290001
30
0
41
1
10
-10.5910958301674
20
0.278674316534648
30
0
41
1
10
-10.592435999469
20
0.275492501925356
30
0
41
1
10
-10.5958268769352
20
0.268832019336344
30
0
41
1
10
-10.5978832007187
20
0.265322176712829
30
0
41
1
10
-10.6026273667997
20
0.257989186134552
30
0
41
1
10
-10.6053066170409
20
0.254184558264285
30
0
41
1
10
-10.6110458896775
20
0.246531919837963
30
0
41
1
10
-10.6141249085977
20
0.24265472902934
30
0
41
1
10
-10.6173831633766
20
0.238734122634582
30
0
0
SPLINE
5
162
100
AcDbEntity
8
1
62
256
6
ByLayer
370
18
48
1
60
0
100
AcDbSpline
70
4
71
3
72
16
73
12
40
0
40
0
40
0
40
0
40
0.250000000000003
40
0.250000000000003
40
0.500000000000006
40
0.500000000000006
40
0.750000000000009
40
0.750000000000009
40
0.875000000000004
40
0.875000000000004
40
1
40
1
40
1
40
1
41
1
10
-10.7806382482019
20
0.238734122634725
30
0
41
1
10
-10.7697755860159
20
0.246756664327705
30
0
41
1
10
-10.7590725504616
20
0.254248253984997
30
0
41
1
10
-10.738133790051
20
0.268003798727222
30
0
41
1
10
-10.7278728540626
20
0.274290284939724
30
0
41
1
10
-10.7078952640795
20
0.285342317233812
30
0
41
1
10
-10.698488429322
20
0.289941460296888
30
0
41
1
10
-10.6855448913022
20
0.294980122699059
30
0
41
1
10
-10.6813955342835
20
0.29635043144188
30
0
41
1
10
-10.6738521835112
20
0.298220550165155
30
0
41
1
10
-10.6704375933484
20
0.298734122636802
30
0
41
1
10
-10.6674590441831
20
0.298734122637029
30
0
0
SPLINE
5
163
100
AcDbEntity
8
1
62
256
6
ByLayer
370
18
48
1
60
0
100
AcDbSpline
70
4
71
2
72
6
73
3
40
0
40
0
40
0
40
1
40
1
40
1
41
1.03186391735993
10
33.65
20
-14.0027032771659
30
0
41
0.729637973226922
10
33.85
20
-14.0027032771659
30
0
41
1.03186391735993
10
33.85
20
-13.802703277166
30
0
0
SPLINE
5
164
100
AcDbEntity
8
1
62
256
6
ByLayer
370
18
48
1
60
0
100
AcDbSpline
70
4
71
2
72
6
73
3
40
0
40
0
40
0
40
1
40
1
40
1
41
1.03186391735993
10
33.85
20
-12.197296722834
30
0
41
0.729637973226922
10
33.85
20
-11.997296722834
30
0
41
1.03186391735993
10
33.65
20
-11.997296722834
30
0
0
SPLINE
5
165
100
AcDbEntity
8
1
62
256
6
ByLayer
370
18
48
1
60
0
100
AcDbSpline
70
4
71
2
72
6
73
3
40
0
40
0
40
0
40
1
40
1
40
1
41
1.03186391735993
10
33.4058058418606
20
-13.9952424708534
30
0
41
1.03138264657361
10
33.5277889468057
20
-14.002703277166
30
0
41
1.03186391735993
10
33.65
20
-14.0027032771659
30
0
0
SPLINE
5
166
100
AcDbEntity
8
1
62
256
6
ByLayer
370
18
48
1
60
0
100
AcDbSpline
70
4
71
2
72
6
73
3
40
0
40
0
40
0
40
1
40
1
40
1
41
1.03186391735993
10
33.65
20
-11.997296722834
30
0
41
1.03138264657361
10
33.5277889468057
20
-11.997296722834
30
0
41
1.03186391735993
10
33.4058058418606
20
-12.0047575291465
30
0
0
SPLINE
5
167
100
AcDbEntity
8
1
62
256
6
ByLayer
370
18
48
1
60
0
100
AcDbSpline
70
4
71
2
72
6
73
3
40
0
40
0
40
0
40
1
40
1
40
1
41
1.03186391735993
10
14.05
20
-14.002703277166
30
0
41
0.729637973226922
10
13.85
20
-14.002703277166
30
0
41
1.03186391735993
10
13.85
20
-13.802703277166
30
0
0
SPLINE
5
168
100
AcDbEntity
8
1
62
256
6
ByLayer
370
18
48
1
60
0
100
AcDbSpline
70
4
71
2
72
6
73
3
40
0
40
0
40
0
40
1
40
1
40
1
41
1.03186391735993
10
14.2941941581395
20
-13.9952424708534
30
0
41
1.03138264657361
10
14.1722110531944
20
-14.002703277166
30
0
41
1.03186391735993
10
14.05
20
-14.002703277166
30
0
0
SPLINE
5
169
100
AcDbEntity
8
1
62
256
6
ByLayer
370
18
48
1
60
0
100
AcDbSpline
70
4
71
3
72
8
73
4
40
0
40
0
40
0
40
0
40
1
40
1
40
1
40
1
41
1
10
31.8655276838538
20
-12.0706017036334
30
0
41
1
10
31.8521504377982
20
-12.0706872039869
30
0
41
1
10
31.8387889225588
20
-12.0720962911318
30
0
41
1
10
31.8256211251736
20
-12.0748793274281
30
0
0
SPLINE
5
16A
100
AcDbEntity
8
1
62
256
6
ByLayer
370
18
48
1
60
0
100
AcDbSpline
70
4
71
3
72
8
73
4
40
0
40
0
40
0
40
0
40
1
40
1
40
1
40
1
41
1
10
31.8256211251845
20
-13.9251206725741
30
0
41
1
10
31.8387890590187
20
-13.9279037377088
30
0
41
1
10
31.852150330567
20
-13.9293127953281
30
0
41
1
10
31.8655276838674
20
-13.9293982963667
30
0
0
SPLINE
5
16B
100
AcDbEntity
8
1
62
256
6
ByLayer
370
18
48
1
60
0
100
AcDbSpline
70
4
71
3
72
8
73
4
40
0
40
0
40
0
40
0
40
1
40
1
40
1
40
1
41
1
10
15.8743788748267
20
-13.9251206725718
30
0
41
1
10
15.8612109409933
20
-13.9279037377067
30
0
41
1
10
15.8478496694459
20
-13.9293127953276
30
0
41
1
10
15.8344723161463
20
-13.9293982963666
30
0
0
LINE
5
7D
100
AcDbEntity
8
81
62
256
6
ByLayer
370
18
48
1
60
0
100
AcDbLine
10
33.85
20
-14
30
0
11
38.85
21
-14
31
0
39
0
210
0
220
0
230
1
0
LINE
5
7E
100
AcDbEntity
8
80
62
256
6
ByLayer
370
18
48
1
60
0
100
AcDbLine
10
0
20
0
30
0
11
0
21
5
31
0
39
0
210
0
220
0
230
1
0
LINE
5
7F
100
AcDbEntity
8
1
62
256
6
ByLayer
370
18
48
1
60
0
100
AcDbLine
10
5.41984
20
0.298734
30
0
11
3.723726
21
0.298734
31
0
39
0
210
0
220
0
230
1
0
LINE
5
80
100
AcDbEntity
8
1
62
256
6
ByLayer
370
13
48
1
60
0
100
AcDbLine
10
5.302288
20
0.238734
30
0
11
4.104006
21
0.238734
31
0
39
0
210
0
220
0
230
1
0
LINE
5
81
100
AcDbEntity
8
1
62
256
6
ByLayer
370
18
48
1
60
0
100
AcDbLine
10
11.497433
20
0.298734
30
0
11
5.484845
21
0.298734
31
0
39
0
210
0
220
0
230
1
0
LINE
5
82
100
AcDbEntity
8
1
62
256
6
ByLayer
370
18
48
1
60
0
100
AcDbLine
10
5.419971
20
0.298734
30
0
11
5.484845
21
0.298734
31
0
39
0
210
0
220
0
230
1
0
LINE
5
83
100
AcDbEntity
8
1
62
256
6
ByLayer
370
13
48
1
60
0
100
AcDbLine
10
11.580105
20
0.238734
30
0
11
5.464557
21
0.238734
31
0
39
0
210
0
220
0
230
1
0
LINE
5
84
100
AcDbEntity
8
1
62
256
6
ByLayer
370
18
48
1
60
0
100
AcDbLine
10
5.453005
20
0.225
30
0
11
4.161967
21
0.225
31
0
39
0
210
0
220
0
230
1
0
LINE
5
85
100
AcDbEntity
8
1
62
256
6
ByLayer
370
18
48
1
60
0
100
AcDbLine
10
12.322337
20
-0.55
30
0
11
12.322337
21
-0.45
31
0
39
0
210
0
220
0
230
1
0
LINE
5
86
100
AcDbEntity
8
1
62
256
6
ByLayer
370
18
48
1
60
0
100
AcDbLine
10
4.96368
20
-0.151554
30
0
11
12.019481
21
-0.151554
31
0
39
0
210
0
220
0
230
1
0
LINE
5
87
100
AcDbEntity
8
1
62
256
6
ByLayer
370
18
48
1
60
0
100
AcDbLine
10
-10.751266
20
0.298734
30
0
11
-10.811266
21
0.238734
31
0
39
0
210
0
220
0
230
1
0
LINE
5
88
100
AcDbEntity
8
1
62
256
6
ByLayer
370
18
48
1
60
0
100
AcDbLine
10
-10.667432
20
0.298734
30
0
11
-10.751266
21
0.298734
31
0
39
0
210
0
220
0
230
1
0
LINE
5
89
100
AcDbEntity
8
1
62
256
6
ByLayer
370
18
48
1
60
0
100
AcDbLine
10
-10.811266
20
0.238734
30
0
11
-10.897151
21
0.152849
31
0
39
0
210
0
220
0
230
1
0
LINE
5
8A
100
AcDbEntity
8
1
62
256
6
ByLayer
370
13
48
1
60
0
100
AcDbLine
10
-10.780637
20
0.238734
30
0
11
-10.811266
21
0.238734
31
0
39
0
210
0
220
0
230
1
0
LINE
5
8B
100
AcDbEntity
8
1
62
256
6
ByLayer
370
18
48
1
60
0
100
AcDbLine
10
27.275752
20
-13.75
30
0
11
24.1
21
-13.75
31
0
39
0
210
0
220
0
230
1
0
LINE
5
8C
100
AcDbEntity
8
1
62
256
6
ByLayer
370
18
48
1
60
0
100
AcDbLine
10
27.275752
20
-12.25
30
0
11
24.1
21
-12.25
31
0
39
0
210
0
220
0
230
1
0
LINE
5
8D
100
AcDbEntity
8
1
62
256
6
ByLayer
370
18
48
1
60
0
100
AcDbLine
10
27.6
20
-12.951181
30
0
11
27.6
21
-13.048819
31
0
39
0
210
0
220
0
230
1
0
LINE
5
8E
100
AcDbEntity
8
1
62
256
6
ByLayer
370
18
48
1
60
0
100
AcDbLine
10
-9.995441
20
0.298734
30
0
11
-10.600934
21
0.298734
31
0
39
0
210
0
220
0
230
1
0
LINE
5
8F
100
AcDbEntity
8
1
62
256
6
ByLayer
370
13
48
1
60
0
100
AcDbLine
10
-10.128972
20
0.238734
30
0
11
-10.617383
21
0.238734
31
0
39
0
210
0
220
0
230
1
0
LINE
5
90
100
AcDbEntity
8
1
62
256
6
ByLayer
370
13
48
1
60
0
100
AcDbLine
10
-10.988496
20
-0.346266
30
0
11
-11.103183
21
-0.346266
31
0
39
0
210
0
220
0
230
1
0
LINE
5
91
100
AcDbEntity
8
1
62
256
6
ByLayer
370
18
48
1
60
0
100
AcDbLine
10
-9.104858
20
0.298734
30
0
11
-9.906586
21
0.298734
31
0
39
0
210
0
220
0
230
1
0
LINE
5
92
100
AcDbEntity
8
1
62
256
6
ByLayer
370
13
48
1
60
0
100
AcDbLine
10
-9.265271
20
0.238734
30
0
11
-9.911088
21
0.238734
31
0
39
0
210
0
220
0
230
1
0
LINE
5
93
100
AcDbEntity
8
1
62
256
6
ByLayer
370
13
48
1
60
0
100
AcDbLine
10
-10.239176
20
-0.346266
30
0
11
-10.389279
21
-0.346266
31
0
39
0
210
0
220
0
230
1
0
LINE
5
94
100
AcDbEntity
8
1
62
256
6
ByLayer
370
18
48
1
60
0
100
AcDbLine
10
-7.965411
20
0.298734
30
0
11
-8.987552
21
0.298734
31
0
39
0
210
0
220
0
230
1
0
LINE
5
95
100
AcDbEntity
8
1
62
256
6
ByLayer
370
13
48
1
60
0
100
AcDbLine
10
-8.122176
20
0.238734
30
0
11
-8.978056
21
0.238734
31
0
39
0
210
0
220
0
230
1
0
LINE
5
96
100
AcDbEntity
8
1
62
256
6
ByLayer
370
13
48
1
60
0
100
AcDbLine
10
-9.263311
20
-0.346266
30
0
11
-9.458784
21
-0.346266
31
0
39
0
210
0
220
0
230
1
0
LINE
5
97
100
AcDbEntity
8
1
62
256
6
ByLayer
370
18
48
1
60
0
100
AcDbLine
10
-6.284955
20
0.298734
30
0
11
-7.764453
21
0.298734
31
0
39
0
210
0
220
0
230
1
0
LINE
5
98
100
AcDbEntity
8
1
62
256
6
ByLayer
370
13
48
1
60
0
100
AcDbLine
10
-6.555027
20
0.238734
30
0
11
-7.736687
21
0.238734
31
0
39
0
210
0
220
0
230
1
0
LINE
5
99
100
AcDbEntity
8
1
62
256
6
ByLayer
370
13
48
1
60
0
100
AcDbLine
10
-7.978144
20
-0.346266
30
0
11
-8.238631
21
-0.346266
31
0
39
0
210
0
220
0
230
1
0
LINE
5
9A
100
AcDbEntity
8
1
62
256
6
ByLayer
370
18
48
1
60
0
100
AcDbLine
10
-3.621552
20
0.298734
30
0
11
-6.055772
21
0.298734
31
0
39
0
210
0
220
0
230
1
0
LINE
5
9B
100
AcDbEntity
8
1
62
256
6
ByLayer
370
18
48
1
60
0
100
AcDbLine
10
12.499903
20
-0.55
30
0
11
7.257819
21
-0.55
31
0
39
0
210
0
220
0
230
1
0
LINE
5
9C
100
AcDbEntity
8
1
62
256
6
ByLayer
370
18
48
1
60
0
100
AcDbLine
10
12.499903
20
-0.55
30
0
11
12.499903
21
-0.65
31
0
39
0
210
0
220
0
230
1
0
LINE
5
9D
100
AcDbEntity
8
1
62
256
6
ByLayer
370
13
48
1
60
0
100
AcDbLine
10
-4.103907
20
0.238734
30
0
11
-5.998513
21
0.238734
31
0
39
0
210
0
220
0
230
1
0
LINE
5
9E
100
AcDbEntity
8
1
62
256
6
ByLayer
370
13
48
1
60
0
100
AcDbLine
10
7.257819
20
-0.65
30
0
11
12.499903
21
-0.65
31
0
39
0
210
0
220
0
230
1
0
LINE
5
9F
100
AcDbEntity
8
1
62
256
6
ByLayer
370
13
48
1
60
0
100
AcDbLine
10
-6.194352
20
-0.346266
30
0
11
-6.569361
21
-0.346266
31
0
39
0
210
0
220
0
230
1
0
LINE
5
A0
100
AcDbEntity
8
1
62
256
6
ByLayer
370
18
48
1
60
0
100
AcDbLine
10
7.632722
20
-13.75
30
0
11
16.770715
21
-13.75
31
0
39
0
210
0
220
0
230
1
0
LINE
5
A1
100
AcDbEntity
8
1
62
256
6
ByLayer
370
18
48
1
60
0
100
AcDbLine
10
7.632722
20
-1.15
30
0
11
14.720218
21
-1.15
31
0
39
0
210
0
220
0
230
1
0
LINE
5
A2
100
AcDbEntity
8
1
62
256
6
ByLayer
370
18
48
1
60
0
100
AcDbLine
10
14.720218
20
-1.15
30
0
11
16.770715
21
-2.870571
31
0
39
0
210
0
220
0
230
1
0
LINE
5
A3
100
AcDbEntity
8
1
62
256
6
ByLayer
370
18
48
1
60
0
100
AcDbLine
10
24.1
20
-13.75
30
0
11
16.770715
21
-13.75
31
0
39
0
210
0
220
0
230
1
0
LINE
5
A4
100
AcDbEntity
8
1
62
256
6
ByLayer
370
18
48
1
60
0
100
AcDbLine
10
16.770715
20
-2.870571
30
0
11
17.25
21
-3.272739
31
0
39
0
210
0
220
0
230
1
0
LINE
5
A5
100
AcDbEntity
8
1
62
256
6
ByLayer
370
18
48
1
60
0
100
AcDbLine
10
16.770715
20
-13.75
30
0
11
16.770715
21
-2.870571
31
0
39
0
210
0
220
0
230
1
0
LINE
5
A6
100
AcDbEntity
8
1
62
256
6
ByLayer
370
18
48
1
60
0
100
AcDbLine
10
24.1
20
-12.25
30
0
11
24.1
21
-13.75
31
0
39
0
210
0
220
0
230
1
0
LINE
5
A7
100
AcDbEntity
8
1
62
256
6
ByLayer
370
18
48
1
60
0
100
AcDbLine
10
24.1
20
-12.25
30
0
11
18.85
21
-12.25
31
0
39
0
210
0
220
0
230
1
0
LINE
5
A8
100
AcDbEntity
8
1
62
256
6
ByLayer
370
18
48
1
60
0
100
AcDbLine
10
17.25
20
-10.65
30
0
11
17.25
21
-3.272739
31
0
39
0
210
0
220
0
230
1
0
LINE
5
A9
100
AcDbEntity
8
1
62
256
6
ByLayer
370
18
48
1
60
0
100
AcDbLine
10
7.632722
20
-13.75
30
0
11
6.447348
21
-13.75
31
0
39
0
210
0
220
0
230
1
0
LINE
5
AA
100
AcDbEntity
8
1
62
256
6
ByLayer
370
18
48
1
60
0
100
AcDbLine
10
6.421046
20
-0.55
30
0
11
7.257819
21
-0.55
31
0
39
0
210
0
220
0
230
1
0
LINE
5
AB
100
AcDbEntity
8
1
62
256
6
ByLayer
370
18
48
1
60
0
100
AcDbLine
10
7.257819
20
-0.65
30
0
11
7.257819
21
-0.55
31
0
39
0
210
0
220
0
230
1
0
LINE
5
AC
100
AcDbEntity
8
1
62
256
6
ByLayer
370
18
48
1
60
0
100
AcDbLine
10
7.632722
20
-1.15
30
0
11
7.632722
21
-13.75
31
0
39
0
210
0
220
0
230
1
0
LINE
5
AD
100
AcDbEntity
8
1
62
256
6
ByLayer
370
18
48
1
60
0
100
AcDbLine
10
7.632722
20
-1.15
30
0
11
7.531827
21
-1.15
31
0
39
0
210
0
220
0
230
1
0
LINE
5
AE
100
AcDbEntity
8
1
62
256
6
ByLayer
370
18
48
1
60
0
100
AcDbLine
10
3.151668
20
0.298734
30
0
11
-3.151668
21
0.298734
31
0
39
0
210
0
220
0
230
1
0
LINE
5
AF
100
AcDbEntity
8
1
62
256
6
ByLayer
370
13
48
1
60
0
100
AcDbLine
10
2.997164
20
0.238734
30
0
11
-2.997164
21
0.238734
31
0
39
0
210
0
220
0
230
1
0
LINE
5
B0
100
AcDbEntity
8
1
62
256
6
ByLayer
370
13
48
1
60
0
100
AcDbLine
10
3.913178
20
-0.346266
30
0
11
3.156712
21
-0.346266
31
0
39
0
210
0
220
0
230
1
0
LINE
5
B1
100
AcDbEntity
8
1
62
256
6
ByLayer
370
13
48
1
60
0
100
AcDbLine
10
-3.156712
20
-0.346266
30
0
11
-3.913178
21
-0.346266
31
0
39
0
210
0
220
0
230
1
0
LINE
5
B2
100
AcDbEntity
8
1
62
256
6
ByLayer
370
18
48
1
60
0
100
AcDbLine
10
-11.5
20
-0.65
30
0
11
-11.5
21
-0.45
31
0
39
0
210
0
220
0
230
1
0
LINE
5
B3
100
AcDbEntity
8
1
62
256
6
ByLayer
370
18
48
1
60
0
100
AcDbLine
10
6.421075
20
-0.55
30
0
11
6.421075
21
-0.65
31
0
39
0
210
0
220
0
230
1
0
LINE
5
B4
100
AcDbEntity
8
1
62
256
6
ByLayer
370
18
48
1
60
0
100
AcDbLine
10
6.421075
20
-0.55
30
0
11
5.31321
21
-0.55
31
0
39
0
210
0
220
0
230
1
0
LINE
5
B5
100
AcDbEntity
8
1
62
256
6
ByLayer
370
18
48
1
60
0
100
AcDbLine
10
5.31321
20
-0.55
30
0
11
5.31321
21
-0.45
31
0
39
0
210
0
220
0
230
1
0
LINE
5
B6
100
AcDbEntity
8
1
62
256
6
ByLayer
370
18
48
1
60
0
100
AcDbLine
10
4.6622
20
-13.75
30
0
11
6.447339
21
-13.75
31
0
39
0
210
0
220
0
230
1
0
LINE
5
B7
100
AcDbEntity
8
1
62
256
6
ByLayer
370
18
48
1
60
0
100
AcDbLine
10
4.6622
20
-1.15
30
0
11
5.375768
21
-1.15
31
0
39
0
210
0
220
0
230
1
0
LINE
5
B8
100
AcDbEntity
8
1
62
256
6
ByLayer
370
18
48
1
60
0
100
AcDbLine
10
6.447339
20
-13.75
30
0
11
6.447339
21
-0.863607
31
0
39
0
210
0
220
0
230
1
0
LINE
5
B9
100
AcDbEntity
8
1
62
256
6
ByLayer
370
18
48
1
60
0
100
AcDbLine
10
-3.85
20
-13.75
30
0
11
0
21
-13.75
31
0
39
0
210
0
220
0
230
1
0
LINE
5
BA
100
AcDbEntity
8
1
62
256
6
ByLayer
370
18
48
1
60
0
100
AcDbLine
10
-11.5
20
-0.867945
30
0
11
-11.5
21
-6.1
31
0
39
0
210
0
220
0
230
1
0
LINE
5
BB
100
AcDbEntity
8
1
62
256
6
ByLayer
370
18
48
1
60
0
100
AcDbLine
10
-11.5
20
-6.1
30
0
11
-3.85
21
-13.75
31
0
39
0
210
0
220
0
230
1
0
LINE
5
BC
100
AcDbEntity
8
1
62
256
6
ByLayer
370
18
48
1
60
0
100
AcDbLine
10
-11.5
20
-0.867945
30
0
11
0
21
-0.867945
31
0
39
0
210
0
220
0
230
1
0
LINE
5
BD
100
AcDbEntity
8
1
62
256
6
ByLayer
370
13
48
1
60
0
100
AcDbLine
10
-11.5
20
-0.65
30
0
11
6.421075
21
-0.65
31
0
39
0
210
0
220
0
230
1
0
LINE
5
BE
100
AcDbEntity
8
1
62
256
6
ByLayer
370
13
48
1
60
0
100
AcDbLine
10
0
20
-0.867945
30
0
11
0
21
-13.75
31
0
39
0
210
0
220
0
230
1
0
LINE
5
BF
100
AcDbEntity
8
1
62
256
6
ByLayer
370
18
48
1
60
0
100
AcDbLine
10
0
20
-13.75
30
0
11
4.6622
21
-13.75
31
0
39
0
210
0
220
0
230
1
0
LINE
5
C0
100
AcDbEntity
8
1
62
256
6
ByLayer
370
18
48
1
60
0
100
AcDbLine
10
4.6622
20
-1.15
30
0
11
4.6622
21
-13.75
31
0
39
0
210
0
220
0
230
1
0
LINE
5
C1
100
AcDbEntity
8
1
62
256
6
ByLayer
370
18
48
1
60
0
100
AcDbLine
10
3.390796
20
-1.15
30
0
11
4.6622
21
-1.15
31
0
39
0
210
0
220
0
230
1
0
LINE
5
C2
100
AcDbEntity
8
1
62
256
6
ByLayer
370
18
48
1
60
0
100
AcDbLine
10
5.31321
20
-0.45
30
0
11
-11.5
21
-0.45
31
0
39
0
210
0
220
0
230
1
0
LINE
5
C3
100
AcDbEntity
8
1
62
256
6
ByLayer
370
18
48
1
60
0
100
AcDbLine
10
3.151668
20
0.298734
30
0
11
3.621668
21
0.298734
31
0
39
0
210
0
220
0
230
1
0
LINE
5
C4
100
AcDbEntity
8
1
62
256
6
ByLayer
370
18
48
1
60
0
100
AcDbLine
10
-3.621668
20
0.298734
30
0
11
-3.151668
21
0.298734
31
0
39
0
210
0
220
0
230
1
0
LINE
5
C5
100
AcDbEntity
8
1
62
256
6
ByLayer
370
18
48
1
60
0
100
AcDbLine
10
-6.285071
20
0.298734
30
0
11
-6.055772
21
0.298734
31
0
39
0
210
0
220
0
230
1
0
LINE
5
C6
100
AcDbEntity
8
1
62
256
6
ByLayer
370
18
48
1
60
0
100
AcDbLine
10
-7.922295
20
0.298734
30
0
11
-7.764453
21
0.298734
31
0
39
0
210
0
220
0
230
1
0
LINE
5
C7
100
AcDbEntity
8
1
62
256
6
ByLayer
370
18
48
1
60
0
100
AcDbLine
10
-9.104856
20
0.298734
30
0
11
-8.987552
21
0.298734
31
0
39
0
210
0
220
0
230
1
0
LINE
5
C8
100
AcDbEntity
8
1
62
256
6
ByLayer
370
18
48
1
60
0
100
AcDbLine
10
-9.995451
20
0.298734
30
0
11
-9.906586
21
0.298734
31
0
39
0
210
0
220
0
230
1
0
LINE
5
C9
100
AcDbEntity
8
1
62
256
6
ByLayer
370
18
48
1
60
0
100
AcDbLine
10
-10.667459
20
0.298734
30
0
11
-10.600934
21
0.298734
31
0
39
0
210
0
220
0
230
1
0
LINE
5
CA
100
AcDbEntity
8
1
62
256
6
ByLayer
370
18
48
1
60
0
100
AcDbLine
10
33.405806
20
-12.004758
30
0
11
32.383378
21
-12.067292
31
0
39
0
210
0
220
0
230
1
0
LINE
5
CB
100
AcDbEntity
8
1
62
256
6
ByLayer
370
18
48
1
60
0
100
AcDbLine
10
32.383378
20
-13.932708
30
0
11
33.405806
21
-13.995242
31
0
39
0
210
0
220
0
230
1
0
LINE
5
CC
100
AcDbEntity
8
1
62
256
6
ByLayer
370
18
48
1
60
0
100
AcDbLine
10
33.85
20
-13.802703
30
0
11
33.85
21
-12.197297
31
0
39
0
210
0
220
0
230
1
0
LINE
5
CD
100
AcDbEntity
8
1
62
256
6
ByLayer
370
18
48
1
60
0
100
AcDbLine
10
15.316622
20
-13.932708
30
0
11
14.294194
21
-13.995242
31
0
39
0
210
0
220
0
230
1
0
LINE
5
CE
100
AcDbEntity
8
1
62
256
6
ByLayer
370
18
48
1
60
0
100
AcDbLine
10
13.85
20
-13.802703
30
0
11
13.85
21
-13.749976
31
0
39
0
210
0
220
0
230
1
0
LINE
5
CF
100
AcDbEntity
8
1
62
256
6
ByLayer
370
18
48
1
60
0
100
AcDbLine
10
31.825621
20
-12.074879
30
0
11
31.782822
21
-12.083925
31
0
39
0
210
0
220
0
230
1
0
LINE
5
D0
100
AcDbEntity
8
1
62
256
6
ByLayer
370
18
48
1
60
0
100
AcDbLine
10
31.782822
20
-13.916075
30
0
11
31.825621
21
-13.925121
31
0
39
0
210
0
220
0
230
1
0
LINE
5
D1
100
AcDbEntity
8
1
62
256
6
ByLayer
370
18
48
1
60
0
100
AcDbLine
10
31.865528
20
-13.929398
30
0
11
32.383378
21
-13.932708
31
0
39
0
210
0
220
0
230
1
0
LINE
5
D2
100
AcDbEntity
8
1
62
256
6
ByLayer
370
18
48
1
60
0
100
AcDbLine
10
32.383378
20
-13.932708
30
0
11
32.383378
21
-12.067292
31
0
39
0
210
0
220
0
230
1
0
LINE
5
D3
100
AcDbEntity
8
1
62
256
6
ByLayer
370
18
48
1
60
0
100
AcDbLine
10
32.383378
20
-12.067292
30
0
11
31.865528
21
-12.070602
31
0
39
0
210
0
220
0
230
1
0
LINE
5
D4
100
AcDbEntity
8
1
62
256
6
ByLayer
370
18
48
1
60
0
100
AcDbLine
10
15.917178
20
-13.916075
30
0
11
15.874379
21
-13.925121
31
0
39
0
210
0
220
0
230
1
0
LINE
5
D5
100
AcDbEntity
8
1
62
256
6
ByLayer
370
18
48
1
60
0
100
AcDbLine
10
15.316622
20
-13.932708
30
0
11
15.316622
21
-13.749985
31
0
39
0
210
0
220
0
230
1
0
LINE
5
D6
100
AcDbEntity
8
1
62
256
6
ByLayer
370
18
48
1
60
0
100
AcDbLine
10
15.834472
20
-13.929398
30
0
11
15.316622
21
-13.932708
31
0
39
0
210
0
220
0
230
1
0
LINE
5
D7
100
AcDbEntity
8
1
62
256
6
ByLayer
370
13
48
1
60
0
100
AcDbLine
10
30.766013
20
-13
30
0
11
27.599992
21
-13
31
0
39
0
210
0
220
0
230
1
0
LINE
5
D8
100
AcDbEntity
8
1
62
256
6
ByLayer
370
13
48
1
60
0
100
AcDbLine
10
27.512446
20
-12.802665
30
0
11
30.115948
21
-12.802665
31
0
39
0
210
0
220
0
230
1
0
LINE
5
D9
100
AcDbEntity
8
1
62
256
6
ByLayer
370
13
48
1
60
0
100
AcDbLine
10
30.115948
20
-13.197335
30
0
11
27.512446
21
-13.197335
31
0
39
0
210
0
220
0
230
1
0
LINE
5
DA
100
AcDbEntity
8
1
62
256
6
ByLayer
370
13
48
1
60
0
100
AcDbLine
10
27.506049
20
-12.799244
30
0
11
30.071739
21
-12.799244
31
0
39
0
210
0
220
0
230
1
0
LINE
5
DB
100
AcDbEntity
8
1
62
256
6
ByLayer
370
13
48
1
60
0
100
AcDbLine
10
27.506049
20
-13.200756
30
0
11
30.071739
21
-13.200756
31
0
39
0
210
0
220
0
230
1
0
LINE
5
DC
100
AcDbEntity
8
1
62
256
6
ByLayer
370
13
48
1
60
0
100
AcDbLine
10
27.413506
20
-12.748976
30
0
11
29.484281
21
-12.748976
31
0
39
0
210
0
220
0
230
1
0
LINE
5
DD
100
AcDbEntity
8
1
62
256
6
ByLayer
370
13
48
1
60
0
100
AcDbLine
10
27.413506
20
-13.251024
30
0
11
29.484281
21
-13.251024
31
0
39
0
210
0
220
0
230
1
0
LINE
5
DE
100
AcDbEntity
8
1
62
256
6
ByLayer
370
13
48
1
60
0
100
AcDbLine
10
27.381214
20
-13.367998
30
0
11
28.976524
21
-13.367998
31
0
39
0
210
0
220
0
230
1
0
LINE
5
DF
100
AcDbEntity
8
1
62
256
6
ByLayer
370
13
48
1
60
0
100
AcDbLine
10
27.381214
20
-12.632002
30
0
11
28.976524
21
-12.632002
31
0
39
0
210
0
220
0
230
1
0
LINE
5
E0
100
AcDbEntity
8
1
62
256
6
ByLayer
370
13
48
1
60
0
100
AcDbLine
10
27.30999
20
-13.625984
30
0
11
28.55267
21
-13.625984
31
0
39
0
210
0
220
0
230
1
0
LINE
5
E1
100
AcDbEntity
8
1
62
256
6
ByLayer
370
13
48
1
60
0
100
AcDbLine
10
28.55267
20
-12.374016
30
0
11
27.30999
21
-12.374016
31
0
39
0
210
0
220
0
230
1
0
LINE
5
E2
100
AcDbEntity
8
1
62
256
6
ByLayer
370
18
48
1
60
0
100
AcDbLine
10
28.513214
20
-12.2
30
0
11
31.189893
21
-12.2
31
0
39
0
210
0
220
0
230
1
0
LINE
5
E3
100
AcDbEntity
8
1
62
256
6
ByLayer
370
18
48
1
60
0
100
AcDbLine
10
31.782822
20
-12.083925
30
0
11
31.437522
21
-12.1698
31
0
39
0
210
0
220
0
230
1
0
LINE
5
E4
100
AcDbEntity
8
1
62
256
6
ByLayer
370
18
48
1
60
0
100
AcDbLine
10
28.55267
20
-12.374016
30
0
11
28.976524
21
-12.632002
31
0
39
0
210
0
220
0
230
1
0
LINE
5
E5
100
AcDbEntity
8
1
62
256
6
ByLayer
370
18
48
1
60
0
100
AcDbLine
10
30.071739
20
-12.799244
30
0
11
30.115948
21
-12.802665
31
0
39
0
210
0
220
0
230
1
0
LINE
5
E6
100
AcDbEntity
8
1
62
256
6
ByLayer
370
18
48
1
60
0
100
AcDbLine
10
30.115948
20
-13.197335
30
0
11
30.071739
21
-13.200756
31
0
39
0
210
0
220
0
230
1
0
LINE
5
E7
100
AcDbEntity
8
1
62
256
6
ByLayer
370
18
48
1
60
0
100
AcDbLine
10
28.976524
20
-13.367998
30
0
11
28.55267
21
-13.625984
31
0
39
0
210
0
220
0
230
1
0
LINE
5
E8
100
AcDbEntity
8
1
62
256
6
ByLayer
370
18
48
1
60
0
100
AcDbLine
10
31.189893
20
-13.8
30
0
11
28.513214
21
-13.8
31
0
39
0
210
0
220
0
230
1
0
LINE
5
E9
100
AcDbEntity
8
1
62
256
6
ByLayer
370
18
48
1
60
0
100
AcDbLine
10
31.437522
20
-13.8302
30
0
11
31.782822
21
-13.916075
31
0
39
0
210
0
220
0
230
1
0
LINE
5
EA
100
AcDbEntity
8
1
62
256
6
ByLayer
370
18
48
1
60
0
100
AcDbLine
10
31.782822
20
-13.916075
30
0
11
31.782822
21
-12.083925
31
0
39
0
210
0
220
0
230
1
0
LINE
5
EB
100
AcDbEntity
8
1
62
256
6
ByLayer
370
18
48
1
60
0
100
AcDbLine
10
28.513214
20
-12.2
30
0
11
19.186786
21
-12.2
31
0
39
0
210
0
220
0
230
1
0
LINE
5
EC
100
AcDbEntity
8
1
62
256
6
ByLayer
370
18
48
1
60
0
100
AcDbLine
10
28.513214
20
-12.2
30
0
11
28.513214
21
-12.324562
31
0
39
0
210
0
220
0
230
1
0
LINE
5
ED
100
AcDbEntity
8
1
62
256
6
ByLayer
370
13
48
1
60
0
100
AcDbLine
10
27.296261
20
-12.324562
30
0
11
28.513214
21
-12.324562
31
0
39
0
210
0
220
0
230
1
0
LINE
5
EE
100
AcDbEntity
8
1
62
256
6
ByLayer
370
18
48
1
60
0
100
AcDbLine
10
28.513214
20
-13.675438
30
0
11
28.513214
21
-13.8
31
0
39
0
210
0
220
0
230
1
0
LINE
5
EF
100
AcDbEntity
8
1
62
256
6
ByLayer
370
13
48
1
60
0
100
AcDbLine
10
28.513214
20
-13.675438
30
0
11
27.296261
21
-13.675438
31
0
39
0
210
0
220
0
230
1
0
LINE
5
F0
100
AcDbEntity
8
1
62
256
6
ByLayer
370
18
48
1
60
0
100
AcDbLine
10
19.186786
20
-13.8
30
0
11
28.513214
21
-13.8
31
0
39
0
210
0
220
0
230
1
0
LINE
5
F1
100
AcDbEntity
8
1
62
256
6
ByLayer
370
18
48
1
60
0
100
AcDbLine
10
19.186786
20
-12.2
30
0
11
18.453125
21
-12.2
31
0
39
0
210
0
220
0
230
1
0
LINE
5
F2
100
AcDbEntity
8
1
62
256
6
ByLayer
370
18
48
1
60
0
100
AcDbLine
10
15.917178
20
-13.916075
30
0
11
15.917178
21
-13.749979
31
0
39
0
210
0
220
0
230
1
0
LINE
5
F3
100
AcDbEntity
8
1
62
256
6
ByLayer
370
18
48
1
60
0
100
AcDbLine
10
16.262478
20
-13.8302
30
0
11
15.917178
21
-13.916075
31
0
39
0
210
0
220
0
230
1
0
LINE
5
F4
100
AcDbEntity
8
1
62
256
6
ByLayer
370
18
48
1
60
0
100
AcDbLine
10
16.510107
20
-13.8
30
0
11
19.186786
21
-13.8
31
0
39
0
210
0
220
0
230
1
0
LINE
5
F5
100
AcDbEntity
8
1
62
256
6
ByLayer
370
18
48
1
60
0
100
AcDbLine
10
19.186786
20
-13.749998
30
0
11
19.186786
21
-13.8
31
0
39
0
210
0
220
0
230
1
0
LINE
5
F6
100
AcDbEntity
8
1
62
256
6
ByLayer
370
18
48
1
60
0
100
AcDbLine
10
19.186786
20
-12.2
30
0
11
19.186786
21
-12.250002
31
0
39
0
210
0
220
0
230
1
0
MTEXT
5
16C
100
AcDbEntity
8
SK6
62
256
6
ByLayer
370
18
48
1
60
0
100
AcDbMText
10
-21.1395
20
-58.724355
30
0
210
0
220
0
230
1
1
\W0.7568;C2R-SL25-RE15GB
40
3.5
41
0
44
1.084337
50
0
71
7
72
5
7
iso_b_vert
0
DIMENSION
5
171
100
AcDbEntity
8
2
62
256
6
ByLayer
370
18
48
1
60
0
100
AcDbDimension
2
_U0
10
33.85
20
16.25
30
0
11
16.925
21
16.25
31
0
70
32
71
1
72
1
41
1
210
0
220
0
230
1
3
Standard
100
AcDbAlignedDimension
13
0
23
0
33
0
14
33.85
24
-14
34
0
50
0
100
AcDbRotatedDimension
1001
ACAD
1000
DSTYLE
1002
{
1070
   371
1070
    13
1070
   372
1070
    13
1070
   170
1070
     0
1070
   144
1040
1.0
1070
   277
1070
     2
1070
   284
1070
     8
1070
   278
1070
    46
1070
   146
1040
1.0
1070
   345
1005
16
1070
   347
1005
16
1070
   346
1005
16
1070
   344
1005
0
1070
   343
1005
0
1070
   172
1070
     1
1070
    76
1070
     0
1070
    75
1070
     0
1070
   282
1070
     0
1070
   281
1070
     0
1070
    71
1070
     0
1070
    74
1070
     0
1070
   279
1070
     0
1070
   173
1070
     1
1070
   340
1005
16D
1070
   271
1070
     2
1070
   272
1070
     2
1070
    77
1070
     1
1070
    73
1070
     1
1070
   171
1070
     3
1070
   274
1070
     4
1070
   177
1070
     2
1070
   176
1070
     2
1070
   178
1070
     2
1070
    78
1070
     8
1070
    48
1040
-0.1
1070
    41
1040
3.5
1070
   147
1040
1.75
1070
    42
1040
1.5875
1070
    44
1040
2.0
1070
   140
1040
3.5
1002
}
1001
ACAD_DSTYLE_DIM_LINETYPE
1070
   380
1005
16
1001
ACAD_DSTYLE_DIM_EXT1_LINETYPE
1070
   381
1005
16
1001
ACAD_DSTYLE_DIM_EXT2_LINETYPE
1070
   382
1005
16
0
DIMENSION
5
18B
100
AcDbEntity
8
2
62
256
6
ByLayer
370
18
48
1
60
0
100
AcDbDimension
2
_U1
10
33.85
20
8.25
30
0
11
26.35
21
8.25
31
0
70
32
71
1
72
1
41
1
210
0
220
0
230
1
3
Standard
100
AcDbAlignedDimension
13
18.85
23
-12.25
33
0
14
33.85
24
-14
34
0
50
0
100
AcDbRotatedDimension
1001
ACAD
1000
DSTYLE
1002
{
1070
   371
1070
    13
1070
   372
1070
    13
1070
   170
1070
     0
1070
   144
1040
1.0
1070
   277
1070
     2
1070
   284
1070
     8
1070
   278
1070
    46
1070
   146
1040
1.0
1070
   345
1005
16
1070
   347
1005
16
1070
   346
1005
16
1070
   344
1005
0
1070
   343
1005
0
1070
   172
1070
     1
1070
    76
1070
     0
1070
    75
1070
     0
1070
   282
1070
     0
1070
   281
1070
     0
1070
    71
1070
     0
1070
    74
1070
     0
1070
   279
1070
     0
1070
   173
1070
     1
1070
   340
1005
16D
1070
   271
1070
     2
1070
   272
1070
     2
1070
    77
1070
     1
1070
    73
1070
     1
1070
   171
1070
     3
1070
   274
1070
     4
1070
   177
1070
     2
1070
   176
1070
     2
1070
   178
1070
     2
1070
    78
1070
     8
1070
    48
1040
-0.1
1070
    41
1040
3.5
1070
   147
1040
1.75
1070
    42
1040
1.5875
1070
    44
1040
2.0
1070
   140
1040
3.5
1002
}
1001
ACAD_DSTYLE_DIM_LINETYPE
1070
   380
1005
16
1001
ACAD_DSTYLE_DIM_EXT1_LINETYPE
1070
   381
1005
16
1001
ACAD_DSTYLE_DIM_EXT2_LINETYPE
1070
   382
1005
16
0
DIMENSION
5
1A4
100
AcDbEntity
8
2
62
256
6
ByLayer
370
18
48
1
60
0
100
AcDbDimension
2
_U2
10
58.6
20
0
30
0
11
58.6
21
-7
31
0
70
32
71
1
72
1
41
1
210
0
220
0
230
1
3
Standard
100
AcDbAlignedDimension
13
33.85
23
-14
33
0
14
0
24
0
34
0
50
90
100
AcDbRotatedDimension
1001
ACAD
1000
DSTYLE
1002
{
1070
   371
1070
    13
1070
   372
1070
    13
1070
   170
1070
     0
1070
   144
1040
1.0
1070
   277
1070
     2
1070
   284
1070
     8
1070
   278
1070
    46
1070
   146
1040
1.0
1070
   345
1005
16
1070
   347
1005
16
1070
   346
1005
16
1070
   344
1005
0
1070
   343
1005
0
1070
   172
1070
     1
1070
    76
1070
     0
1070
    75
1070
     0
1070
   282
1070
     0
1070
   281
1070
     0
1070
    71
1070
     0
1070
    74
1070
     0
1070
   279
1070
     0
1070
   173
1070
     1
1070
   340
1005
16D
1070
   271
1070
     2
1070
   272
1070
     2
1070
    77
1070
     1
1070
    73
1070
     0
1070
   171
1070
     3
1070
   274
1070
     4
1070
   177
1070
     2
1070
   176
1070
     2
1070
   178
1070
     2
1070
    78
1070
     8
1070
    48
1040
-0.1
1070
    41
1040
3.5
1070
   147
1040
1.75
1070
    42
1040
1.5875
1070
    44
1040
2.0
1070
   140
1040
3.5
1002
}
1001
ACAD_DSTYLE_DIM_LINETYPE
1070
   380
1005
16
1001
ACAD_DSTYLE_DIM_EXT1_LINETYPE
1070
   381
1005
16
1001
ACAD_DSTYLE_DIM_EXT2_LINETYPE
1070
   382
1005
16
0
DIMENSION
5
1BD
100
AcDbEntity
8
2
62
256
6
ByLayer
370
18
48
1
60
0
100
AcDbDimension
2
_U3
10
45.6
20
-12
30
0
11
45.6
21
-13
31
0
70
32
71
1
72
1
41
1
210
0
220
0
230
1
3
Standard
100
AcDbAlignedDimension
13
33.85
23
-14
33
0
14
33.85
24
-12
34
0
50
90
100
AcDbRotatedDimension
1001
ACAD
1000
DSTYLE
1002
{
1070
   371
1070
    13
1070
   372
1070
    13
1070
   170
1070
     0
1070
   144
1040
1.0
1070
   277
1070
     2
1070
   284
1070
     8
1070
   278
1070
    46
1070
   146
1040
1.0
1070
   345
1005
16
1070
   347
1005
16
1070
   346
1005
16
1070
   344
1005
0
1070
   343
1005
0
1070
   172
1070
     1
1070
    76
1070
     0
1070
    75
1070
     0
1070
   282
1070
     0
1070
   281
1070
     0
1070
    71
1070
     0
1070
    74
1070
     0
1070
   279
1070
     0
1070
   173
1070
     1
1070
   340
1005
16D
1070
   271
1070
     2
1070
   272
1070
     2
1070
    77
1070
     1
1070
    73
1070
     0
1070
   171
1070
     3
1070
   274
1070
     4
1070
   177
1070
     2
1070
   176
1070
     2
1070
   178
1070
     2
1070
    78
1070
     8
1070
    48
1040
-0.1
1070
    41
1040
3.5
1070
   147
1040
1.75
1070
    42
1040
1.5875
1070
    44
1040
2.0
1070
   140
1040
3.5
1002
}
1001
ACAD_DSTYLE_DIM_LINETYPE
1070
   380
1005
16
1001
ACAD_DSTYLE_DIM_EXT1_LINETYPE
1070
   381
1005
16
1001
ACAD_DSTYLE_DIM_EXT2_LINETYPE
1070
   382
1005
16
0
ENDSEC
0
SECTION
2
OBJECTS
0
DICTIONARY
5
243
330
0
100
AcDbDictionary
280
0
281
1
3
ACAD_GROUP
350
244
3
ACAD_MLINESTYLE
350
245
0
DICTIONARY
5
244
330
0
100
AcDbDictionary
280
0
281
1
0
DICTIONARY
5
245
330
0
100
AcDbDictionary
280
0
281
1
3
Standard
350
18
0
MLINESTYLE
5
18
330
245
100
AcDbMlineStyle
2
Standard
70
0
3

62
256
51
90
52
90
71
2
49
-0.5
62
256
6
ByLayer
49
0.5
62
256
6
ByLayer
0
RASTERVARIABLES
5
234
330

100
AcDbRasterVariables
90
0
70
1
71
1
72
1
0
ENDSEC
0
EOF
