0
SECTION
2
HEADER
9
$ACADVER
1
AC1015
9
$DWGCODEPAGE
3
ANSI_1252
9
$HANDSEED
5
24f
9
$ANGBASE
50
0
9
$ANGDIR
70
0
9
$ATTMODE
70
1
9
$AUNITS
70
0
9
$AUPREC
70
0
9
$CECOLOR
62
256
9
$CELTSCALE
40
1
9
$CELTYPE
6
ByLayer
9
$CELWEIGHT
370
18
9
$CLAYER
8
0
9
$CMLJUST
70
0
9
$CMLSCALE
40
1
9
$CMLSTYLE
2
Standard
9
$DIMSTYLE
2
Standard
9
$TEXTSIZE
40
0.2
9
$TEXTSTYLE
7
Standard
9
$LUNITS
70
2
9
$LUPREC
70
4
9
$EXTNAMES
290
1
9
$INSUNITS
70
4
9
$LTSCALE
40
1
9
$LWDISPLAY
290
1
9
$PDMODE
70
0
9
$PDSIZE
40
0
9
$PLINEGEN
70
0
0
ENDSEC
0
SECTION
2
CLASSES
0
CLASS
1
RASTERVARIABLES
2
AcDbRasterVariables
3
ISM
90
0
280
0
281
0
0
ENDSEC
0
SECTION
2
TABLES
0
TABLE
2
VPORT
5
245
100
AcDbSymbolTable
0
VPORT
5
1
100
AcDbSymbolTableRecord
100
AcDbViewportTableRecord
2
*Active
70
0
10
0
20
0
11
1
21
1
12
-1
22
1
13
0
23
0
14
0.5
24
0.5
15
10
25
10
16
0
26
0
36
1
17
0
27
0
37
0
0
ENDTAB
0
TABLE
2
LTYPE
5
246
100
AcDbSymbolTable
0
LTYPE
5
14
100
AcDbSymbolTableRecord
100
AcDbLinetypeTableRecord
70
0
2
ByBlock
3

72
65
73
0
40
0
0
LTYPE
5
15
100
AcDbSymbolTableRecord
100
AcDbLinetypeTableRecord
70
0
2
ByLayer
3

72
65
73
0
40
0
0
LTYPE
5
16
100
AcDbSymbolTableRecord
100
AcDbLinetypeTableRecord
70
0
2
Continuous
3
Solid line
72
65
73
0
40
0
0
LTYPE
5
6E
100
AcDbSymbolTableRecord
100
AcDbLinetypeTableRecord
70
0
2
CENTER
3
____ _ ____ _ ____ _ ____
72
65
73
4
40
47.5
49
22
74
0
49
-8.5
74
0
49
8.5
74
0
49
-8.5
74
0
0
LTYPE
5
6F
100
AcDbSymbolTableRecord
100
AcDbLinetypeTableRecord
70
0
2
DASHED
3
__ __ __ __ __ __ __ __ __
72
65
73
2
40
25.72
49
12.86
74
0
49
-12.86
74
0
0
ENDTAB
0
TABLE
2
LAYER
5
247
100
AcDbSymbolTable
0
LAYER
5
10
100
AcDbSymbolTableRecord
100
AcDbLayerTableRecord
2
0
70
0
62
7
6
Continuous
290
1
370
-3
390
0
0
LAYER
5
71
100
AcDbSymbolTableRecord
100
AcDbLayerTableRecord
2
81
70
0
62
-3
6
Continuous
290
1
370
-3
390
0
0
LAYER
5
73
100
AcDbSymbolTableRecord
100
AcDbLayerTableRecord
2
80
70
0
62
-6
6
Continuous
290
1
370
-3
390
0
0
LAYER
5
75
100
AcDbSymbolTableRecord
100
AcDbLayerTableRecord
2
1
70
0
62
4
6
Continuous
290
1
370
-3
390
0
0
LAYER
5
128
100
AcDbSymbolTableRecord
100
AcDbLayerTableRecord
2
Defpoints
70
0
62
7
6
Continuous
290
0
370
-3
390
0
0
LAYER
5
135
100
AcDbSymbolTableRecord
100
AcDbLayerTableRecord
2
2
70
0
62
7
6
Continuous
290
1
370
-3
390
0
0
LAYER
5
232
100
AcDbSymbolTableRecord
100
AcDbLayerTableRecord
2
SK1
70
0
62
4
6
Continuous
290
1
370
-3
390
0
0
LAYER
5
233
100
AcDbSymbolTableRecord
100
AcDbLayerTableRecord
2
SK6
70
0
62
5
6
Continuous
290
1
370
-3
390
0
0
LAYER
5
234
100
AcDbSymbolTableRecord
100
AcDbLayerTableRecord
2
SK2
70
0
62
7
6
Continuous
290
1
370
-3
390
0
0
ENDTAB
0
TABLE
2
STYLE
5
248
100
AcDbSymbolTable
0
STYLE
5
11
100
AcDbSymbolTableRecord
100
AcDbTextStyleTableRecord
2
Standard
3
txt
70
0
71
0
40
0
41
1
42
0
50
0
0
STYLE
5
121
100
AcDbSymbolTableRecord
100
AcDbTextStyleTableRecord
2
iso_b_vert
3
simplex.shx
70
0
71
0
40
0
41
1
42
0
50
0
0
STYLE
5
122
100
AcDbSymbolTableRecord
100
AcDbTextStyleTableRecord
2
DWGDirectTextStyle
3
simplex
70
0
71
0
40
0
41
1
42
0
50
0
0
ENDTAB
0
TABLE
2
DIMSTYLE
5
249
100
AcDbSymbolTable
100
AcDbDimStyleTable
0
DIMSTYLE
105
27
100
AcDbSymbolTableRecord
100
AcDbDimStyleTableRecord
2
Standard
70
0
3
<>
41
0.18
42
0.0625
44
0.18
140
0.18
147
0.09
73
0
74
0
77
1
271
2
275
0
278
52
280
0
340
11
0
ENDTAB
0
TABLE
2
VIEW
5
24a
100
AcDbSymbolTable
0
ENDTAB
0
TABLE
2
UCS
5
24b
100
AcDbSymbolTable
0
ENDTAB
0
TABLE
2
APPID
5
24c
100
AcDbSymbolTable
0
APPID
5
12
100
AcDbSymbolTableRecord
100
AcDbRegAppTableRecord
2
ACAD
70
0
0
APPID
5
124
100
AcDbSymbolTableRecord
100
AcDbRegAppTableRecord
2
ACAD_DSTYLE_DIMBREAK
70
0
0
APPID
5
1F1
100
AcDbSymbolTableRecord
100
AcDbRegAppTableRecord
2
ACAD_DSTYLE_DIM_LINETYPE
70
0
0
APPID
5
1F2
100
AcDbSymbolTableRecord
100
AcDbRegAppTableRecord
2
ACAD_DSTYLE_DIM_EXT1_LINETYPE
70
0
0
APPID
5
1F3
100
AcDbSymbolTableRecord
100
AcDbRegAppTableRecord
2
ACAD_DSTYLE_DIM_EXT2_LINETYPE
70
0
0
APPID
5
22E
100
AcDbSymbolTableRecord
100
AcDbRegAppTableRecord
2
ACAD_MLEADERVER
70
0
0
ENDTAB
0
TABLE
2
BLOCK_RECORD
5
24d
100
AcDbSymbolTable
0
BLOCK_RECORD
5
1F
100
AcDbSymbolTableRecord
100
AcDbBlockTableRecord
2
*Model_Space
340
0
70
0
0
BLOCK_RECORD
5
1B
100
AcDbSymbolTableRecord
100
AcDbBlockTableRecord
2
*Paper_Space
340
0
70
0
0
BLOCK_RECORD
5
23
100
AcDbSymbolTableRecord
100
AcDbBlockTableRecord
2
*Paper_Space0
340
0
70
0
0
BLOCK_RECORD
5
129
100
AcDbSymbolTableRecord
100
AcDbBlockTableRecord
2
*D1
340
0
70
0
0
BLOCK_RECORD
5
136
100
AcDbSymbolTableRecord
100
AcDbBlockTableRecord
2
_U0
340
0
70
0
0
BLOCK_RECORD
5
142
100
AcDbSymbolTableRecord
100
AcDbBlockTableRecord
2
*D3
340
0
70
0
0
BLOCK_RECORD
5
14F
100
AcDbSymbolTableRecord
100
AcDbBlockTableRecord
2
_U1
340
0
70
0
0
BLOCK_RECORD
5
15B
100
AcDbSymbolTableRecord
100
AcDbBlockTableRecord
2
*D5
340
0
70
0
0
BLOCK_RECORD
5
168
100
AcDbSymbolTableRecord
100
AcDbBlockTableRecord
2
_U2
340
0
70
0
0
BLOCK_RECORD
5
174
100
AcDbSymbolTableRecord
100
AcDbBlockTableRecord
2
*D7
340
0
70
0
0
BLOCK_RECORD
5
181
100
AcDbSymbolTableRecord
100
AcDbBlockTableRecord
2
_U3
340
0
70
0
0
BLOCK_RECORD
5
18D
100
AcDbSymbolTableRecord
100
AcDbBlockTableRecord
2
*D9
340
0
70
0
0
BLOCK_RECORD
5
199
100
AcDbSymbolTableRecord
100
AcDbBlockTableRecord
2
_U4
340
0
70
0
0
BLOCK_RECORD
5
1A5
100
AcDbSymbolTableRecord
100
AcDbBlockTableRecord
2
*D11
340
0
70
0
0
BLOCK_RECORD
5
1B1
100
AcDbSymbolTableRecord
100
AcDbBlockTableRecord
2
_U5
340
0
70
0
0
BLOCK_RECORD
5
1BD
100
AcDbSymbolTableRecord
100
AcDbBlockTableRecord
2
*D13
340
0
70
0
0
BLOCK_RECORD
5
1CA
100
AcDbSymbolTableRecord
100
AcDbBlockTableRecord
2
_U6
340
0
70
0
0
ENDTAB
0
ENDSEC
0
SECTION
2
BLOCKS
0
BLOCK
5
20
100
AcDbEntity
8
0
100
AcDbBlockBegin
2
*Model_Space
70
0
10
0
20
0
30
0
3
*Model_Space
0
ENDBLK
5
21
100
AcDbEntity
8
0
100
AcDbBlockEnd
0
BLOCK
5
1C
100
AcDbEntity
8
0
100
AcDbBlockBegin
2
*Paper_Space
70
0
10
0
20
0
30
0
3
*Paper_Space
0
ENDBLK
5
1D
100
AcDbEntity
8
0
100
AcDbBlockEnd
0
BLOCK
5
24
100
AcDbEntity
8
0
100
AcDbBlockBegin
2
*Paper_Space0
70
0
10
0
20
0
30
0
3
*Paper_Space0
0
ENDBLK
5
25
100
AcDbEntity
8
0
100
AcDbBlockEnd
0
BLOCK
5
12A
100
AcDbEntity
8
0
100
AcDbBlockBegin
2
*D1
70
1
10
0
20
0
30
0
3
*D1
0
LINE
5
12C
100
AcDbEntity
8
0
62
256
6
ByLayer
370
-2
48
1
60
0
100
AcDbLine
10
34.375852
20
10.5375
30
0
11
67.888352
21
10.5375
31
0
39
0
210
0
220
0
230
1
0
LINE
5
12D
100
AcDbEntity
8
0
62
256
6
ByLayer
370
-2
48
1
60
0
100
AcDbLine
10
1.5875
20
-9.9625
30
0
11
67.888352
21
-9.9625
31
0
39
0
210
0
220
0
230
1
0
LINE
5
12E
100
AcDbEntity
8
0
62
256
6
ByLayer
370
-2
48
1
60
0
100
AcDbLine
10
65.888352
20
7.0375
30
0
11
65.888352
21
-6.4625
31
0
39
0
210
0
220
0
230
1
0
SOLID
5
12F
100
AcDbEntity
8
0
62
256
6
ByLayer
370
-1
48
1
60
0
100
AcDbTrace
10
66.471686
20
7.0375
30
0
11
65.305019
21
7.0375
31
0
12
65.888352
22
10.5375
32
0
13
65.888352
23
10.5375
33
0
39
0
210
0
220
0
230
1
0
SOLID
5
130
100
AcDbEntity
8
0
62
256
6
ByLayer
370
-1
48
1
60
0
100
AcDbTrace
10
65.305019
20
-6.4625
30
0
11
66.471686
21
-6.4625
31
0
12
65.888352
22
-9.9625
32
0
13
65.888352
23
-9.9625
33
0
39
0
210
0
220
0
230
1
0
MTEXT
5
131
100
AcDbEntity
8
0
62
256
6
ByLayer
370
18
48
1
60
0
100
AcDbMText
10
58.888352
20
0.2875
30
0
210
0
220
0
230
1
1
\A1;20.5
40
3.5
41
0
44
1
50
90
71
5
72
5
7
iso_b_vert
0
POINT
5
132
100
AcDbEntity
8
Defpoints
62
0
6
ByLayer
370
-1
48
1
60
0
100
AcDbPoint
10
32.788352
20
10.5375
30
0
39
0
210
0
220
0
230
1
50
360
0
POINT
5
133
100
AcDbEntity
8
Defpoints
62
0
6
ByLayer
370
-1
48
1
60
0
100
AcDbPoint
10
0
20
-9.9625
30
0
39
0
210
0
220
0
230
1
50
360
0
POINT
5
134
100
AcDbEntity
8
Defpoints
62
0
6
ByLayer
370
-1
48
1
60
0
100
AcDbPoint
10
65.888352
20
-9.9625
30
0
39
0
210
0
220
0
230
1
50
360
0
ENDBLK
5
12B
100
AcDbEntity
8
0
100
AcDbBlockEnd
0
BLOCK
5
13D
100
AcDbEntity
8
0
100
AcDbBlockBegin
2
_U0
70
0
10
0
20
0
30
0
3
_U0
0
MTEXT
5
137
100
AcDbEntity
8
2
62
256
6
ByLayer
370
18
48
1
60
0
100
AcDbMText
10
65.198719
20
-3.662199
30
0
210
0
220
0
230
1
1
\W0.7346;20.5
40
3.5
41
0
44
1.084337
50
90
71
7
72
5
7
iso_b_vert
0
LINE
5
138
100
AcDbEntity
8
2
62
256
6
ByLayer
370
13
48
1
60
0
100
AcDbLine
10
34.375852
20
10.5375
30
0
11
67.888352
21
10.5375
31
0
39
0
210
0
220
0
230
1
0
LINE
5
139
100
AcDbEntity
8
2
62
256
6
ByLayer
370
13
48
1
60
0
100
AcDbLine
10
1.5875
20
-9.9625
30
0
11
67.888352
21
-9.9625
31
0
39
0
210
0
220
0
230
1
0
LINE
5
13A
100
AcDbEntity
8
2
62
256
6
ByLayer
370
13
48
1
60
0
100
AcDbLine
10
65.888352
20
10.5375
30
0
11
65.888352
21
-9.9625
31
0
39
0
210
0
220
0
230
1
0
SOLID
5
13B
100
AcDbEntity
8
2
62
256
6
ByLayer
370
18
48
1
60
0
100
AcDbTrace
10
65.888352
20
10.5375
30
0
11
66.349136
21
7.037502
31
0
12
65.427569
22
7.037498
32
0
13
65.427569
23
7.037498
33
0
39
0
210
0
220
0
230
1
0
SOLID
5
13C
100
AcDbEntity
8
2
62
256
6
ByLayer
370
18
48
1
60
0
100
AcDbTrace
10
65.888352
20
-9.9625
30
0
11
65.427569
21
-6.462502
31
0
12
66.349136
22
-6.462498
32
0
13
66.349136
23
-6.462498
33
0
39
0
210
0
220
0
230
1
0
ENDBLK
5
13E
100
AcDbEntity
8
0
100
AcDbBlockEnd
0
BLOCK
5
143
100
AcDbEntity
8
0
100
AcDbBlockBegin
2
*D3
70
1
10
0
20
0
30
0
3
*D3
0
LINE
5
145
100
AcDbEntity
8
0
62
256
6
ByLayer
370
-2
48
1
60
0
100
AcDbLine
10
34.375852
20
7.5375
30
0
11
55.888352
21
7.5375
31
0
39
0
210
0
220
0
230
1
0
LINE
5
146
100
AcDbEntity
8
0
62
256
6
ByLayer
370
-2
48
1
60
0
100
AcDbLine
10
34.375852
20
10.5375
30
0
11
55.888352
21
10.5375
31
0
39
0
210
0
220
0
230
1
0
LINE
5
147
100
AcDbEntity
8
0
62
256
6
ByLayer
370
-2
48
1
60
0
100
AcDbLine
10
53.888352
20
4.0375
30
0
11
53.888352
21
0.5375
31
0
39
0
210
0
220
0
230
1
0
LINE
5
148
100
AcDbEntity
8
0
62
256
6
ByLayer
370
-2
48
1
60
0
100
AcDbLine
10
53.888352
20
14.0375
30
0
11
53.888352
21
17.5375
31
0
39
0
210
0
220
0
230
1
0
SOLID
5
149
100
AcDbEntity
8
0
62
256
6
ByLayer
370
-1
48
1
60
0
100
AcDbTrace
10
54.471686
20
4.0375
30
0
11
53.305019
21
4.0375
31
0
12
53.888352
22
7.5375
32
0
13
53.888352
23
7.5375
33
0
39
0
210
0
220
0
230
1
0
SOLID
5
14A
100
AcDbEntity
8
0
62
256
6
ByLayer
370
-1
48
1
60
0
100
AcDbTrace
10
53.305019
20
14.0375
30
0
11
54.471686
21
14.0375
31
0
12
53.888352
22
10.5375
32
0
13
53.888352
23
10.5375
33
0
39
0
210
0
220
0
230
1
0
MTEXT
5
14B
100
AcDbEntity
8
0
62
256
6
ByLayer
370
18
48
1
60
0
100
AcDbMText
10
46.888352
20
9.0375
30
0
210
0
220
0
230
1
1
\A1;3
40
3.5
41
0
44
1
50
90
71
5
72
5
7
iso_b_vert
0
POINT
5
14C
100
AcDbEntity
8
Defpoints
62
0
6
ByLayer
370
-1
48
1
60
0
100
AcDbPoint
10
32.788352
20
7.5375
30
0
39
0
210
0
220
0
230
1
50
360
0
POINT
5
14D
100
AcDbEntity
8
Defpoints
62
0
6
ByLayer
370
-1
48
1
60
0
100
AcDbPoint
10
32.788352
20
10.5375
30
0
39
0
210
0
220
0
230
1
50
360
0
POINT
5
14E
100
AcDbEntity
8
Defpoints
62
0
6
ByLayer
370
-1
48
1
60
0
100
AcDbPoint
10
53.888352
20
10.5375
30
0
39
0
210
0
220
0
230
1
50
360
0
ENDBLK
5
144
100
AcDbEntity
8
0
100
AcDbBlockEnd
0
BLOCK
5
156
100
AcDbEntity
8
0
100
AcDbBlockBegin
2
_U1
70
0
10
0
20
0
30
0
3
_U1
0
MTEXT
5
150
100
AcDbEntity
8
2
62
256
6
ByLayer
370
18
48
1
60
0
100
AcDbMText
10
53.198719
20
8.412267
30
0
210
0
220
0
230
1
1
\W0.5404;3
40
3.5
41
0
44
1.084337
50
90
71
7
72
5
7
iso_b_vert
0
LINE
5
151
100
AcDbEntity
8
2
62
256
6
ByLayer
370
13
48
1
60
0
100
AcDbLine
10
34.375852
20
7.5375
30
0
11
55.888352
21
7.5375
31
0
39
0
210
0
220
0
230
1
0
LINE
5
152
100
AcDbEntity
8
2
62
256
6
ByLayer
370
13
48
1
60
0
100
AcDbLine
10
34.375852
20
10.5375
30
0
11
55.888352
21
10.5375
31
0
39
0
210
0
220
0
230
1
0
LINE
5
153
100
AcDbEntity
8
2
62
256
6
ByLayer
370
13
48
1
60
0
100
AcDbLine
10
53.888352
20
-1.2125
30
0
11
53.888352
21
19.2875
31
0
39
0
210
0
220
0
230
1
0
SOLID
5
154
100
AcDbEntity
8
2
62
256
6
ByLayer
370
18
48
1
60
0
100
AcDbTrace
10
53.888352
20
7.5375
30
0
11
54.349136
21
4.037502
31
0
12
53.427569
22
4.037498
32
0
13
53.427569
23
4.037498
33
0
39
0
210
0
220
0
230
1
0
SOLID
5
155
100
AcDbEntity
8
2
62
256
6
ByLayer
370
18
48
1
60
0
100
AcDbTrace
10
53.888352
20
10.5375
30
0
11
53.427569
21
14.037498
31
0
12
54.349136
22
14.037502
32
0
13
54.349136
23
14.037502
33
0
39
0
210
0
220
0
230
1
0
ENDBLK
5
157
100
AcDbEntity
8
0
100
AcDbBlockEnd
0
BLOCK
5
15C
100
AcDbEntity
8
0
100
AcDbBlockBegin
2
*D5
70
1
10
0
20
0
30
0
3
*D5
0
LINE
5
15E
100
AcDbEntity
8
0
62
256
6
ByLayer
370
-2
48
1
60
0
100
AcDbLine
10
-1.5875
20
-9.9625
30
0
11
-82.6
21
-9.9625
31
0
39
0
210
0
220
0
230
1
0
LINE
5
15F
100
AcDbEntity
8
0
62
256
6
ByLayer
370
-2
48
1
60
0
100
AcDbLine
10
-1.5875
20
10.0375
30
0
11
-82.6
21
10.0375
31
0
39
0
210
0
220
0
230
1
0
LINE
5
160
100
AcDbEntity
8
0
62
256
6
ByLayer
370
-2
48
1
60
0
100
AcDbLine
10
-80.6
20
-6.4625
30
0
11
-80.6
21
6.5375
31
0
39
0
210
0
220
0
230
1
0
SOLID
5
161
100
AcDbEntity
8
0
62
256
6
ByLayer
370
-1
48
1
60
0
100
AcDbTrace
10
-81.183333
20
-6.4625
30
0
11
-80.016667
21
-6.4625
31
0
12
-80.6
22
-9.9625
32
0
13
-80.6
23
-9.9625
33
0
39
0
210
0
220
0
230
1
0
SOLID
5
162
100
AcDbEntity
8
0
62
256
6
ByLayer
370
-1
48
1
60
0
100
AcDbTrace
10
-80.016667
20
6.5375
30
0
11
-81.183333
21
6.5375
31
0
12
-80.6
22
10.0375
32
0
13
-80.6
23
10.0375
33
0
39
0
210
0
220
0
230
1
0
MTEXT
5
163
100
AcDbEntity
8
0
62
256
6
ByLayer
370
18
48
1
60
0
100
AcDbMText
10
-87.6
20
0.0375
30
0
210
0
220
0
230
1
1
\A1;20
40
3.5
41
0
44
1
50
90
71
5
72
5
7
iso_b_vert
0
POINT
5
164
100
AcDbEntity
8
Defpoints
62
0
6
ByLayer
370
-1
48
1
60
0
100
AcDbPoint
10
0
20
-9.9625
30
0
39
0
210
0
220
0
230
1
50
360
0
POINT
5
165
100
AcDbEntity
8
Defpoints
62
0
6
ByLayer
370
-1
48
1
60
0
100
AcDbPoint
10
0
20
10.0375
30
0
39
0
210
0
220
0
230
1
50
360
0
POINT
5
166
100
AcDbEntity
8
Defpoints
62
0
6
ByLayer
370
-1
48
1
60
0
100
AcDbPoint
10
-80.6
20
10.0375
30
0
39
0
210
0
220
0
230
1
50
360
0
ENDBLK
5
15D
100
AcDbEntity
8
0
100
AcDbBlockEnd
0
BLOCK
5
16F
100
AcDbEntity
8
0
100
AcDbBlockBegin
2
_U2
70
0
10
0
20
0
30
0
3
_U2
0
MTEXT
5
169
100
AcDbEntity
8
SK2
62
256
6
ByLayer
370
18
48
1
60
0
100
AcDbMText
10
-81.289634
20
-1.895466
30
0
210
0
220
0
230
1
1
\W0.6740;20
40
3.5
41
0
44
1.084337
50
90
71
7
72
5
7
iso_b_vert
0
LINE
5
16A
100
AcDbEntity
8
SK2
62
256
6
ByLayer
370
13
48
1
60
0
100
AcDbLine
10
-1.5875
20
-9.9625
30
0
11
-82.6
21
-9.9625
31
0
39
0
210
0
220
0
230
1
0
LINE
5
16B
100
AcDbEntity
8
SK2
62
256
6
ByLayer
370
13
48
1
60
0
100
AcDbLine
10
-1.5875
20
10.0375
30
0
11
-82.6
21
10.0375
31
0
39
0
210
0
220
0
230
1
0
LINE
5
16C
100
AcDbEntity
8
SK2
62
256
6
ByLayer
370
13
48
1
60
0
100
AcDbLine
10
-80.6
20
-9.9625
30
0
11
-80.6
21
10.0375
31
0
39
0
210
0
220
0
230
1
0
SOLID
5
16D
100
AcDbEntity
8
SK2
62
256
6
ByLayer
370
18
48
1
60
0
100
AcDbTrace
10
-80.6
20
-9.9625
30
0
11
-81.060784
21
-6.462502
31
0
12
-80.139216
22
-6.462498
32
0
13
-80.139216
23
-6.462498
33
0
39
0
210
0
220
0
230
1
0
SOLID
5
16E
100
AcDbEntity
8
SK2
62
256
6
ByLayer
370
18
48
1
60
0
100
AcDbTrace
10
-80.6
20
10.0375
30
0
11
-80.139216
21
6.537502
31
0
12
-81.060784
22
6.537498
32
0
13
-81.060784
23
6.537498
33
0
39
0
210
0
220
0
230
1
0
ENDBLK
5
170
100
AcDbEntity
8
0
100
AcDbBlockEnd
0
BLOCK
5
175
100
AcDbEntity
8
0
100
AcDbBlockBegin
2
*D7
70
1
10
0
20
0
30
0
3
*D7
0
LINE
5
177
100
AcDbEntity
8
0
62
256
6
ByLayer
370
-2
48
1
60
0
100
AcDbLine
10
17.788352
20
6.275082
30
0
11
17.788352
21
-21.7125
31
0
39
0
210
0
220
0
230
1
0
LINE
5
178
100
AcDbEntity
8
0
62
256
6
ByLayer
370
-2
48
1
60
0
100
AcDbLine
10
32.788352
20
8.95
30
0
11
32.788352
21
-21.7125
31
0
39
0
210
0
220
0
230
1
0
LINE
5
179
100
AcDbEntity
8
0
62
256
6
ByLayer
370
-2
48
1
60
0
100
AcDbLine
10
14.288352
20
-19.7125
30
0
11
10.788352
21
-19.7125
31
0
39
0
210
0
220
0
230
1
0
LINE
5
17A
100
AcDbEntity
8
0
62
256
6
ByLayer
370
-2
48
1
60
0
100
AcDbLine
10
36.288352
20
-19.7125
30
0
11
39.788352
21
-19.7125
31
0
39
0
210
0
220
0
230
1
0
SOLID
5
17B
100
AcDbEntity
8
0
62
256
6
ByLayer
370
-1
48
1
60
0
100
AcDbTrace
10
14.288352
20
-20.295833
30
0
11
14.288352
21
-19.129167
31
0
12
17.788352
22
-19.7125
32
0
13
17.788352
23
-19.7125
33
0
39
0
210
0
220
0
230
1
0
SOLID
5
17C
100
AcDbEntity
8
0
62
256
6
ByLayer
370
-1
48
1
60
0
100
AcDbTrace
10
36.288352
20
-19.129167
30
0
11
36.288352
21
-20.295833
31
0
12
32.788352
22
-19.7125
32
0
13
32.788352
23
-19.7125
33
0
39
0
210
0
220
0
230
1
0
MTEXT
5
17D
100
AcDbEntity
8
0
62
256
6
ByLayer
370
18
48
1
60
0
100
AcDbMText
10
25.288352
20
-12.7125
30
0
210
0
220
0
230
1
1
\A1;15
40
3.5
41
0
44
1
50
0
71
5
72
5
7
iso_b_vert
0
POINT
5
17E
100
AcDbEntity
8
Defpoints
62
0
6
ByLayer
370
-1
48
1
60
0
100
AcDbPoint
10
17.788352
20
7.862582
30
0
39
0
210
0
220
0
230
1
50
360
0
POINT
5
17F
100
AcDbEntity
8
Defpoints
62
0
6
ByLayer
370
-1
48
1
60
0
100
AcDbPoint
10
32.788352
20
10.5375
30
0
39
0
210
0
220
0
230
1
50
360
0
POINT
5
180
100
AcDbEntity
8
Defpoints
62
0
6
ByLayer
370
-1
48
1
60
0
100
AcDbPoint
10
32.788352
20
-19.7125
30
0
39
0
210
0
220
0
230
1
50
360
0
ENDBLK
5
176
100
AcDbEntity
8
0
100
AcDbBlockEnd
0
BLOCK
5
188
100
AcDbEntity
8
0
100
AcDbBlockBegin
2
_U3
70
0
10
0
20
0
30
0
3
_U3
0
MTEXT
5
182
100
AcDbEntity
8
2
62
256
6
ByLayer
370
18
48
1
60
0
100
AcDbMText
10
23.820819
20
-18.679866
30
0
210
0
220
0
230
1
1
\W0.5321;15
40
3.5
41
0
44
1.084337
50
0
71
7
72
5
7
iso_b_vert
0
LINE
5
183
100
AcDbEntity
8
2
62
256
6
ByLayer
370
13
48
1
60
0
100
AcDbLine
10
17.788352
20
6.275082
30
0
11
17.788352
21
-21.7125
31
0
39
0
210
0
220
0
230
1
0
LINE
5
184
100
AcDbEntity
8
2
62
256
6
ByLayer
370
13
48
1
60
0
100
AcDbLine
10
32.788352
20
8.95
30
0
11
32.788352
21
-21.7125
31
0
39
0
210
0
220
0
230
1
0
LINE
5
185
100
AcDbEntity
8
2
62
256
6
ByLayer
370
13
48
1
60
0
100
AcDbLine
10
17.788352
20
-19.7125
30
0
11
32.788352
21
-19.7125
31
0
39
0
210
0
220
0
230
1
0
SOLID
5
186
100
AcDbEntity
8
2
62
256
6
ByLayer
370
18
48
1
60
0
100
AcDbTrace
10
17.788352
20
-19.7125
30
0
11
21.288351
21
-19.251716
31
0
12
21.288354
22
-20.173284
32
0
13
21.288354
23
-20.173284
33
0
39
0
210
0
220
0
230
1
0
SOLID
5
187
100
AcDbEntity
8
2
62
256
6
ByLayer
370
18
48
1
60
0
100
AcDbTrace
10
32.788352
20
-19.7125
30
0
11
29.288354
21
-20.173284
31
0
12
29.288351
22
-19.251716
32
0
13
29.288351
23
-19.251716
33
0
39
0
210
0
220
0
230
1
0
ENDBLK
5
189
100
AcDbEntity
8
0
100
AcDbBlockEnd
0
BLOCK
5
18E
100
AcDbEntity
8
0
100
AcDbBlockBegin
2
*D9
70
1
10
0
20
0
30
0
3
*D9
0
LINE
5
190
100
AcDbEntity
8
0
62
256
6
ByLayer
370
-2
48
1
60
0
100
AcDbLine
10
-69
20
-11.55
30
0
11
-69
21
-37.7125
31
0
39
0
210
0
220
0
230
1
0
LINE
5
191
100
AcDbEntity
8
0
62
256
6
ByLayer
370
-2
48
1
60
0
100
AcDbLine
10
32.788352
20
8.95
30
0
11
32.788352
21
-37.7125
31
0
39
0
210
0
220
0
230
1
0
LINE
5
192
100
AcDbEntity
8
0
62
256
6
ByLayer
370
-2
48
1
60
0
100
AcDbLine
10
-65.5
20
-35.7125
30
0
11
29.288352
21
-35.7125
31
0
39
0
210
0
220
0
230
1
0
SOLID
5
193
100
AcDbEntity
8
0
62
256
6
ByLayer
370
-1
48
1
60
0
100
AcDbTrace
10
-65.5
20
-35.129167
30
0
11
-65.5
21
-36.295833
31
0
12
-69
22
-35.7125
32
0
13
-69
23
-35.7125
33
0
39
0
210
0
220
0
230
1
0
SOLID
5
194
100
AcDbEntity
8
0
62
256
6
ByLayer
370
-1
48
1
60
0
100
AcDbTrace
10
29.288352
20
-36.295833
30
0
11
29.288352
21
-35.129167
31
0
12
32.788352
22
-35.7125
32
0
13
32.788352
23
-35.7125
33
0
39
0
210
0
220
0
230
1
0
MTEXT
5
195
100
AcDbEntity
8
0
62
256
6
ByLayer
370
18
48
1
60
0
100
AcDbMText
10
-18.105824
20
-28.7125
30
0
210
0
220
0
230
1
1
\A1;101.8
40
3.5
41
0
44
1
50
0
71
5
72
5
7
iso_b_vert
0
POINT
5
196
100
AcDbEntity
8
Defpoints
62
0
6
ByLayer
370
-1
48
1
60
0
100
AcDbPoint
10
-69
20
-9.9625
30
0
39
0
210
0
220
0
230
1
50
360
0
POINT
5
197
100
AcDbEntity
8
Defpoints
62
0
6
ByLayer
370
-1
48
1
60
0
100
AcDbPoint
10
32.788352
20
10.5375
30
0
39
0
210
0
220
0
230
1
50
360
0
POINT
5
198
100
AcDbEntity
8
Defpoints
62
0
6
ByLayer
370
-1
48
1
60
0
100
AcDbPoint
10
32.788352
20
-35.7125
30
0
39
0
210
0
220
0
230
1
50
360
0
ENDBLK
5
18F
100
AcDbEntity
8
0
100
AcDbBlockEnd
0
BLOCK
5
1A0
100
AcDbEntity
8
0
100
AcDbBlockBegin
2
_U4
70
0
10
0
20
0
30
0
3
_U4
0
MTEXT
5
19A
100
AcDbEntity
8
SK2
62
256
6
ByLayer
370
18
48
1
60
0
100
AcDbMText
10
-22.460389
20
-34.679866
30
0
210
0
220
0
230
1
1
\W0.6261;101.8
40
3.5
41
0
44
1.084337
50
0
71
7
72
5
7
iso_b_vert
0
LINE
5
19B
100
AcDbEntity
8
SK2
62
256
6
ByLayer
370
13
48
1
60
0
100
AcDbLine
10
-69
20
-11.55
30
0
11
-69
21
-37.7125
31
0
39
0
210
0
220
0
230
1
0
LINE
5
19C
100
AcDbEntity
8
SK2
62
256
6
ByLayer
370
13
48
1
60
0
100
AcDbLine
10
32.788352
20
8.95
30
0
11
32.788352
21
-37.7125
31
0
39
0
210
0
220
0
230
1
0
LINE
5
19D
100
AcDbEntity
8
SK2
62
256
6
ByLayer
370
13
48
1
60
0
100
AcDbLine
10
-69
20
-35.7125
30
0
11
32.788352
21
-35.7125
31
0
39
0
210
0
220
0
230
1
0
SOLID
5
19E
100
AcDbEntity
8
SK2
62
256
6
ByLayer
370
18
48
1
60
0
100
AcDbTrace
10
-69
20
-35.7125
30
0
11
-65.500002
21
-35.251716
31
0
12
-65.499998
22
-36.173284
32
0
13
-65.499998
23
-36.173284
33
0
39
0
210
0
220
0
230
1
0
SOLID
5
19F
100
AcDbEntity
8
SK2
62
256
6
ByLayer
370
18
48
1
60
0
100
AcDbTrace
10
32.788352
20
-35.7125
30
0
11
29.288354
21
-36.173284
31
0
12
29.288351
22
-35.251716
32
0
13
29.288351
23
-35.251716
33
0
39
0
210
0
220
0
230
1
0
ENDBLK
5
1A1
100
AcDbEntity
8
0
100
AcDbBlockEnd
0
BLOCK
5
1A6
100
AcDbEntity
8
0
100
AcDbBlockBegin
2
*D11
70
1
10
0
20
0
30
0
3
*D11
0
LINE
5
1A8
100
AcDbEntity
8
0
62
256
6
ByLayer
370
-2
48
1
60
0
100
AcDbLine
10
0
20
-11.55
30
0
11
0
21
-29.7125
31
0
39
0
210
0
220
0
230
1
0
LINE
5
1A9
100
AcDbEntity
8
0
62
256
6
ByLayer
370
-2
48
1
60
0
100
AcDbLine
10
32.788352
20
8.95
30
0
11
32.788352
21
-29.7125
31
0
39
0
210
0
220
0
230
1
0
LINE
5
1AA
100
AcDbEntity
8
0
62
256
6
ByLayer
370
-2
48
1
60
0
100
AcDbLine
10
3.5
20
-27.7125
30
0
11
29.288352
21
-27.7125
31
0
39
0
210
0
220
0
230
1
0
SOLID
5
1AB
100
AcDbEntity
8
0
62
256
6
ByLayer
370
-1
48
1
60
0
100
AcDbTrace
10
3.5
20
-27.129167
30
0
11
3.5
21
-28.295833
31
0
12
0
22
-27.7125
32
0
13
0
23
-27.7125
33
0
39
0
210
0
220
0
230
1
0
SOLID
5
1AC
100
AcDbEntity
8
0
62
256
6
ByLayer
370
-1
48
1
60
0
100
AcDbTrace
10
29.288352
20
-28.295833
30
0
11
29.288352
21
-27.129167
31
0
12
32.788352
22
-27.7125
32
0
13
32.788352
23
-27.7125
33
0
39
0
210
0
220
0
230
1
0
MTEXT
5
1AD
100
AcDbEntity
8
0
62
256
6
ByLayer
370
18
48
1
60
0
100
AcDbMText
10
16.394176
20
-20.7125
30
0
210
0
220
0
230
1
1
\A1;32.8
40
3.5
41
0
44
1
50
0
71
5
72
5
7
iso_b_vert
0
POINT
5
1AE
100
AcDbEntity
8
Defpoints
62
0
6
ByLayer
370
-1
48
1
60
0
100
AcDbPoint
10
0
20
-9.9625
30
0
39
0
210
0
220
0
230
1
50
360
0
POINT
5
1AF
100
AcDbEntity
8
Defpoints
62
0
6
ByLayer
370
-1
48
1
60
0
100
AcDbPoint
10
32.788352
20
10.5375
30
0
39
0
210
0
220
0
230
1
50
360
0
POINT
5
1B0
100
AcDbEntity
8
Defpoints
62
0
6
ByLayer
370
-1
48
1
60
0
100
AcDbPoint
10
32.788352
20
-27.7125
30
0
39
0
210
0
220
0
230
1
50
360
0
ENDBLK
5
1A7
100
AcDbEntity
8
0
100
AcDbBlockEnd
0
BLOCK
5
1B8
100
AcDbEntity
8
0
100
AcDbBlockBegin
2
_U5
70
0
10
0
20
0
30
0
3
_U5
0
MTEXT
5
1B2
100
AcDbEntity
8
2
62
256
6
ByLayer
370
18
48
1
60
0
100
AcDbMText
10
12.472477
20
-26.679866
30
0
210
0
220
0
230
1
1
\W0.7346;32.8
40
3.5
41
0
44
1.084337
50
0
71
7
72
5
7
iso_b_vert
0
LINE
5
1B3
100
AcDbEntity
8
2
62
256
6
ByLayer
370
13
48
1
60
0
100
AcDbLine
10
0
20
-11.55
30
0
11
0
21
-29.7125
31
0
39
0
210
0
220
0
230
1
0
LINE
5
1B4
100
AcDbEntity
8
2
62
256
6
ByLayer
370
13
48
1
60
0
100
AcDbLine
10
32.788352
20
8.95
30
0
11
32.788352
21
-29.7125
31
0
39
0
210
0
220
0
230
1
0
LINE
5
1B5
100
AcDbEntity
8
2
62
256
6
ByLayer
370
13
48
1
60
0
100
AcDbLine
10
0
20
-27.7125
30
0
11
32.788352
21
-27.7125
31
0
39
0
210
0
220
0
230
1
0
SOLID
5
1B6
100
AcDbEntity
8
2
62
256
6
ByLayer
370
18
48
1
60
0
100
AcDbTrace
10
0
20
-27.7125
30
0
11
3.499998
21
-27.251716
31
0
12
3.500002
22
-28.173284
32
0
13
3.500002
23
-28.173284
33
0
39
0
210
0
220
0
230
1
0
SOLID
5
1B7
100
AcDbEntity
8
2
62
256
6
ByLayer
370
18
48
1
60
0
100
AcDbTrace
10
32.788352
20
-27.7125
30
0
11
29.288354
21
-28.173284
31
0
12
29.288351
22
-27.251716
32
0
13
29.288351
23
-27.251716
33
0
39
0
210
0
220
0
230
1
0
ENDBLK
5
1B9
100
AcDbEntity
8
0
100
AcDbBlockEnd
0
BLOCK
5
1BE
100
AcDbEntity
8
0
100
AcDbBlockBegin
2
*D13
70
1
10
0
20
0
30
0
3
*D13
0
LINE
5
1C0
100
AcDbEntity
8
0
62
256
6
ByLayer
370
-2
48
1
60
0
100
AcDbLine
10
-69
20
-11.55
30
0
11
-69
21
-21.7125
31
0
39
0
210
0
220
0
230
1
0
LINE
5
1C1
100
AcDbEntity
8
0
62
256
6
ByLayer
370
-2
48
1
60
0
100
AcDbLine
10
-66
20
-11.55
30
0
11
-66
21
-21.7125
31
0
39
0
210
0
220
0
230
1
0
LINE
5
1C2
100
AcDbEntity
8
0
62
256
6
ByLayer
370
-2
48
1
60
0
100
AcDbLine
10
-72.5
20
-19.7125
30
0
11
-76
21
-19.7125
31
0
39
0
210
0
220
0
230
1
0
LINE
5
1C3
100
AcDbEntity
8
0
62
256
6
ByLayer
370
-2
48
1
60
0
100
AcDbLine
10
-62.5
20
-19.7125
30
0
11
-59
21
-19.7125
31
0
39
0
210
0
220
0
230
1
0
SOLID
5
1C4
100
AcDbEntity
8
0
62
256
6
ByLayer
370
-1
48
1
60
0
100
AcDbTrace
10
-72.5
20
-20.295833
30
0
11
-72.5
21
-19.129167
31
0
12
-69
22
-19.7125
32
0
13
-69
23
-19.7125
33
0
39
0
210
0
220
0
230
1
0
SOLID
5
1C5
100
AcDbEntity
8
0
62
256
6
ByLayer
370
-1
48
1
60
0
100
AcDbTrace
10
-62.5
20
-19.129167
30
0
11
-62.5
21
-20.295833
31
0
12
-66
22
-19.7125
32
0
13
-66
23
-19.7125
33
0
39
0
210
0
220
0
230
1
0
MTEXT
5
1C6
100
AcDbEntity
8
0
62
256
6
ByLayer
370
18
48
1
60
0
100
AcDbMText
10
-67.5
20
-12.7125
30
0
210
0
220
0
230
1
1
\A1;3
40
3.5
41
0
44
1
50
0
71
5
72
5
7
iso_b_vert
0
POINT
5
1C7
100
AcDbEntity
8
Defpoints
62
0
6
ByLayer
370
-1
48
1
60
0
100
AcDbPoint
10
-69
20
-9.9625
30
0
39
0
210
0
220
0
230
1
50
360
0
POINT
5
1C8
100
AcDbEntity
8
Defpoints
62
0
6
ByLayer
370
-1
48
1
60
0
100
AcDbPoint
10
-66
20
-9.9625
30
0
39
0
210
0
220
0
230
1
50
360
0
POINT
5
1C9
100
AcDbEntity
8
Defpoints
62
0
6
ByLayer
370
-1
48
1
60
0
100
AcDbPoint
10
-66
20
-19.7125
30
0
39
0
210
0
220
0
230
1
50
360
0
ENDBLK
5
1BF
100
AcDbEntity
8
0
100
AcDbBlockEnd
0
BLOCK
5
1D1
100
AcDbEntity
8
0
100
AcDbBlockBegin
2
_U6
70
0
10
0
20
0
30
0
3
_U6
0
MTEXT
5
1CB
100
AcDbEntity
8
SK2
62
256
6
ByLayer
370
18
48
1
60
0
100
AcDbMText
10
-68.097233
20
-18.679866
30
0
210
0
220
0
230
1
1
\W0.5404;3
40
3.5
41
0
44
1.084337
50
0
71
7
72
5
7
iso_b_vert
0
LINE
5
1CC
100
AcDbEntity
8
SK2
62
256
6
ByLayer
370
13
48
1
60
0
100
AcDbLine
10
-69
20
-11.55
30
0
11
-69
21
-21.7125
31
0
39
0
210
0
220
0
230
1
0
LINE
5
1CD
100
AcDbEntity
8
SK2
62
256
6
ByLayer
370
13
48
1
60
0
100
AcDbLine
10
-66
20
-11.55
30
0
11
-66
21
-21.7125
31
0
39
0
210
0
220
0
230
1
0
LINE
5
1CE
100
AcDbEntity
8
SK2
62
256
6
ByLayer
370
13
48
1
60
0
100
AcDbLine
10
-77.75
20
-19.7125
30
0
11
-57.25
21
-19.7125
31
0
39
0
210
0
220
0
230
1
0
SOLID
5
1CF
100
AcDbEntity
8
SK2
62
256
6
ByLayer
370
18
48
1
60
0
100
AcDbTrace
10
-69
20
-19.7125
30
0
11
-72.499998
21
-20.173284
31
0
12
-72.500002
22
-19.251716
32
0
13
-72.500002
23
-19.251716
33
0
39
0
210
0
220
0
230
1
0
SOLID
5
1D0
100
AcDbEntity
8
SK2
62
256
6
ByLayer
370
18
48
1
60
0
100
AcDbTrace
10
-66
20
-19.7125
30
0
11
-62.500002
21
-19.251716
31
0
12
-62.499998
22
-20.173284
32
0
13
-62.499998
23
-20.173284
33
0
39
0
210
0
220
0
230
1
0
ENDBLK
5
1D2
100
AcDbEntity
8
0
100
AcDbBlockEnd
0
ENDSEC
0
SECTION
2
ENTITIES
0
ARC
5
CF
100
AcDbEntity
8
1
62
256
6
ByLayer
370
18
48
1
60
0
100
AcDbCircle
39
0
10
17.788352
20
6.262582
30
0
40
1.6
210
0
220
0
230
1
100
AcDbArc
50
160.838644
51
180
0
ARC
5
D0
100
AcDbEntity
8
1
62
256
6
ByLayer
370
18
48
1
60
0
100
AcDbCircle
39
0
10
-1.227723
20
11.5625
30
0
40
1.6
210
0
220
0
230
1
100
AcDbArc
50
320.114458
51
331.121215
0
ARC
5
D2
100
AcDbEntity
8
1
62
256
6
ByLayer
370
18
48
1
60
0
100
AcDbCircle
39
0
10
10.638352
20
1.237294
30
0
40
1.416
210
0
220
0
230
1
100
AcDbArc
50
96.192438
51
150.190711
0
ARC
5
D3
100
AcDbEntity
8
1
62
256
6
ByLayer
370
18
48
1
60
0
100
AcDbCircle
39
0
10
10.638352
20
1.237294
30
0
40
1.416
210
0
220
0
230
1
100
AcDbArc
50
276.192438
51
330.190711
0
ARC
5
D4
100
AcDbEntity
8
1
62
256
6
ByLayer
370
18
48
1
60
0
100
AcDbCircle
39
0
10
10.638352
20
1.237294
30
0
40
1.416
210
0
220
0
230
1
100
AcDbArc
50
209.809289
51
263.807562
0
ARC
5
D5
100
AcDbEntity
8
1
62
256
6
ByLayer
370
18
48
1
60
0
100
AcDbCircle
39
0
10
10.638352
20
1.237294
30
0
40
1.416
210
0
220
0
230
1
100
AcDbArc
50
29.809289
51
83.807562
0
ARC
5
D6
100
AcDbEntity
8
1
62
256
6
ByLayer
370
18
48
1
60
0
100
AcDbCircle
39
0
10
10.638352
20
1.237294
30
0
40
1.416
210
0
220
0
230
1
100
AcDbArc
50
150.190711
51
209.809289
0
ARC
5
D7
100
AcDbEntity
8
1
62
256
6
ByLayer
370
18
48
1
60
0
100
AcDbCircle
39
0
10
10.638352
20
1.237294
30
0
40
1.416
210
0
220
0
230
1
100
AcDbArc
50
330.190711
51
29.809289
0
ARC
5
D8
100
AcDbEntity
8
1
62
256
6
ByLayer
370
18
48
1
60
0
100
AcDbCircle
39
0
10
10.638352
20
1.237294
30
0
40
1.9685
210
0
220
0
230
1
100
AcDbArc
50
120.381422
51
180
0
ARC
5
D9
100
AcDbEntity
8
1
62
256
6
ByLayer
370
18
48
1
60
0
100
AcDbCircle
39
0
10
10.638352
20
1.237294
30
0
40
1.9685
210
0
220
0
230
1
100
AcDbArc
50
180
51
239.618578
0
ARC
5
DC
100
AcDbEntity
8
1
62
256
6
ByLayer
370
18
48
1
60
0
100
AcDbCircle
39
0
10
10.638352
20
1.237294
30
0
40
1.9685
210
0
220
0
230
1
100
AcDbArc
50
0
51
59.618578
0
ARC
5
DD
100
AcDbEntity
8
1
62
256
6
ByLayer
370
18
48
1
60
0
100
AcDbCircle
39
0
10
10.638352
20
1.237294
30
0
40
1.9685
210
0
220
0
230
1
100
AcDbArc
50
300.381422
51
0
0
ARC
5
DE
100
AcDbEntity
8
1
62
256
6
ByLayer
370
18
48
1
60
0
100
AcDbCircle
39
0
10
10.638352
20
1.237294
30
0
40
1.416
210
0
220
0
230
1
100
AcDbArc
50
83.807562
51
96.192438
0
ARC
5
DF
100
AcDbEntity
8
1
62
256
6
ByLayer
370
18
48
1
60
0
100
AcDbCircle
39
0
10
10.638352
20
1.237294
30
0
40
1.9685
210
0
220
0
230
1
100
AcDbArc
50
59.618578
51
120.381422
0
ARC
5
E0
100
AcDbEntity
8
1
62
256
6
ByLayer
370
18
48
1
60
0
100
AcDbCircle
39
0
10
10.638352
20
1.237294
30
0
40
1.9685
210
0
220
0
230
1
100
AcDbArc
50
239.618578
51
300.381422
0
ARC
5
E1
100
AcDbEntity
8
1
62
256
6
ByLayer
370
18
48
1
60
0
100
AcDbCircle
39
0
10
10.638352
20
1.237294
30
0
40
1.416
210
0
220
0
230
1
100
AcDbArc
50
263.807562
51
276.192438
0
ARC
5
E2
100
AcDbEntity
8
SK1
62
256
6
ByLayer
370
18
48
1
60
0
100
AcDbCircle
39
0
10
-1.227723
20
11.5625
30
0
40
1.6
210
0
220
0
230
1
100
AcDbArc
50
270
51
320.114458
0
CIRCLE
5
D1
100
AcDbEntity
8
1
62
256
6
ByLayer
370
18
48
1
60
0
100
AcDbCircle
10
10.638352
20
1.237294
30
0
40
4.55000000000002
39
0
210
0
220
0
230
1
0
CIRCLE
5
DA
100
AcDbEntity
8
1
62
256
6
ByLayer
370
18
48
1
60
0
100
AcDbCircle
10
10.638352
20
1.237294
30
0
40
4.25
39
0
210
0
220
0
230
1
0
CIRCLE
5
DB
100
AcDbEntity
8
1
62
256
6
ByLayer
370
18
48
1
60
0
100
AcDbCircle
10
10.638352
20
1.237294
30
0
40
3.75
39
0
210
0
220
0
230
1
0
ELLIPSE
5
E3
100
AcDbEntity
8
1
62
256
6
ByLayer
370
18
48
1
60
0
100
AcDbEllipse
10
37.301893
20
57.737582
30
0
11
2.90997084826948E-15
21
47.5249999999846
31
0
210
0
220
0
230
1
40
0.601805
41
2.73520422624335
42
2.95472405840268
0
ELLIPSE
5
E4
100
AcDbEntity
8
1
62
256
6
ByLayer
370
18
48
1
60
0
100
AcDbEllipse
10
395.122464
20
55.990222
30
0
11
904.667008844974
21
14.3043514361592
31
0
210
0
220
0
230
1
40
0.048068
41
-1.99100881284477
42
-1.98989760893031
0
ELLIPSE
5
E5
100
AcDbEntity
8
1
62
256
6
ByLayer
370
18
48
1
60
0
100
AcDbEllipse
10
24.766244
20
9.140542
30
0
11
0.784992496421608
21
-0.0193622477888122
31
0
210
0
220
0
230
1
40
0.764043
41
0
42
6.28318530717959
0
ELLIPSE
5
E6
100
AcDbEntity
8
1
62
256
6
ByLayer
370
18
48
1
60
0
100
AcDbEllipse
10
27.525476
20
57.737582
30
0
11
53.5198733923458
21
6.2696142797241E-14
31
0
210
0
220
0
230
1
40
0.887988
41
-1.6547351898299
42
-1.59956579222586
0
ELLIPSE
5
E7
100
AcDbEntity
8
1
62
256
6
ByLayer
370
18
48
1
60
0
100
AcDbEllipse
10
27.525476
20
44.037582
30
0
11
40.7381676329356
21
4.77229450168645E-14
31
0
210
0
220
0
230
1
40
0.887988
41
-1.68116571607024
42
-1.60719972209776
0
ELLIPSE
5
E8
100
AcDbEntity
8
1
62
256
6
ByLayer
370
18
48
1
60
0
100
AcDbEllipse
10
-807.68179
20
44.001219
30
0
11
2925.49987986374
21
-11.5551045853117
31
0
210
0
220
0
230
1
40
0.011704
41
-1.28470129321998
42
-1.28175895987052
0
ELLIPSE
5
E9
100
AcDbEntity
8
1
62
256
6
ByLayer
370
18
48
1
60
0
100
AcDbEllipse
10
18.116454
20
7.862582
30
0
11
-2.78941224234494
21
3.41593195540554E-16
31
0
210
0
220
0
230
1
40
0.573598
41
0
42
0.807618121377637
0
ELLIPSE
5
EA
100
AcDbEntity
8
1
62
256
6
ByLayer
370
18
48
1
60
0
100
AcDbEllipse
10
28.728513
20
44.037582
30
0
11
51.6604214266888
21
6.05178778168886E-14
31
0
210
0
220
0
230
1
40
0.700246
41
-1.78418266050057
42
-1.68116571611355
0
ELLIPSE
5
EB
100
AcDbEntity
8
1
62
256
6
ByLayer
370
18
48
1
60
0
100
AcDbEllipse
10
28.728513
20
57.737582
30
0
11
67.8690124677102
21
7.95055187442173E-14
31
0
210
0
220
0
230
1
40
0.700246
41
-1.72680611290307
42
-1.65473519007642
0
ELLIPSE
5
EC
100
AcDbEntity
8
1
62
256
6
ByLayer
370
18
48
1
60
0
100
AcDbEllipse
10
29.016413
20
10.979522
30
0
11
0.897965179833572
21
0.00803157368462721
31
0
210
0
220
0
230
1
40
0.890811
41
-1.57876374622486
42
-1.30311998530727
0
ELLIPSE
5
ED
100
AcDbEntity
8
1
62
256
6
ByLayer
370
18
48
1
60
0
100
AcDbEllipse
10
27.411532
20
10.052047
30
0
11
0.850692224774897
21
0.0016211658172708
31
0
210
0
220
0
230
1
40
0.176317
41
3.14125664654114
42
-2.80595277960132
0
ELLIPSE
5
EE
100
AcDbEntity
8
1
62
256
6
ByLayer
370
18
48
1
60
0
100
AcDbEllipse
10
28.883359
20
9.463296
30
0
11
1.13425629987984
21
0.00216155442793914
31
0
210
0
220
0
230
1
40
0.176317
41
-2.80595277962965
42
-1.98751425812915
0
ELLIPSE
5
EF
100
AcDbEntity
8
1
62
256
6
ByLayer
370
18
48
1
60
0
100
AcDbEllipse
10
33.012151
20
11.117034
30
0
11
11.3425631300885
21
0.0216155589944176
31
0
210
0
220
0
230
1
40
0.176317
41
-1.98751426147867
42
-1.92019818827354
0
ELLIPSE
5
F0
100
AcDbEntity
8
1
62
256
6
ByLayer
370
18
48
1
60
0
100
AcDbEllipse
10
28.778723
20
9.02919
30
0
11
1.19096911488367
21
0.00226963215056312
31
0
210
0
220
0
230
1
40
0.176317
41
-0.000336007049302369
42
1.22139446934558
0
ELLIPSE
5
F1
100
AcDbEntity
8
1
62
256
6
ByLayer
370
18
48
1
60
0
100
AcDbEllipse
10
28.778723
20
9.02919
30
0
11
1.19096911488359
21
0.00226963215018163
31
0
210
0
220
0
230
1
40
0.176317
41
-1.22206648344429
42
-0.000336007049395444
0
ELLIPSE
5
F2
100
AcDbEntity
8
1
62
256
6
ByLayer
370
18
48
1
60
0
100
AcDbEllipse
10
33.012151
20
6.95698
30
0
11
11.3425628585528
21
0.0216155595360451
31
0
210
0
220
0
230
1
40
0.176317
41
1.91952616578547
42
1.98684224040711
0
ELLIPSE
5
F3
100
AcDbEntity
8
1
62
256
6
ByLayer
370
18
48
1
60
0
100
AcDbEllipse
10
28.883359
20
8.595471
30
0
11
1.13425629989015
21
0.00216155442854234
31
0
210
0
220
0
230
1
40
0.176317
41
1.98684224403623
42
2.80528076553161
0
ELLIPSE
5
F4
100
AcDbEntity
8
1
62
256
6
ByLayer
370
18
48
1
60
0
100
AcDbEllipse
10
27.411532
20
8.001284
30
0
11
0.850692224926806
21
0.00162116582157444
31
0
210
0
220
0
230
1
40
0.176317
41
2.80528076553381
42
3.14125664654047
0
ELLIPSE
5
F5
100
AcDbEntity
8
1
62
256
6
ByLayer
370
18
48
1
60
0
100
AcDbEllipse
10
29.016413
20
7.079736
30
0
11
0.897965179588987
21
0.00803157361128278
31
0
210
0
220
0
230
1
40
0.890811
41
1.28718514646023
42
1.56282890745183
0
ELLIPSE
5
F6
100
AcDbEntity
8
1
62
256
6
ByLayer
370
18
48
1
60
0
100
AcDbEllipse
10
28.35985
20
9.778376
30
0
11
-0.00751561974882363
21
-0.126550215680568
31
0
210
0
220
0
230
1
40
0.984754
41
0
42
6.28318530717959
0
POINT
5
70
100
AcDbEntity
8
81
62
256
6
ByLayer
370
18
48
1
60
0
100
AcDbPoint
10
32.788352
20
10.5375
30
0
39
0
210
0
220
0
230
1
50
360
0
POINT
5
72
100
AcDbEntity
8
80
62
256
6
ByLayer
370
18
48
1
60
0
100
AcDbPoint
10
0
20
0
30
0
39
0
210
0
220
0
230
1
50
360
0
POINT
5
74
100
AcDbEntity
8
1
62
256
6
ByLayer
370
18
48
1
60
1
100
AcDbPoint
10
32.788352
20
10.5375
30
0
39
0
210
0
220
0
230
1
50
360
0
POINT
5
76
100
AcDbEntity
8
1
62
256
6
ByLayer
370
18
48
1
60
1
100
AcDbPoint
10
0
20
-9.9625
30
0
39
0
210
0
220
0
230
1
50
360
0
POINT
5
77
100
AcDbEntity
8
1
62
256
6
ByLayer
370
18
48
1
60
1
100
AcDbPoint
10
32.788352
20
7.5375
30
0
39
0
210
0
220
0
230
1
50
360
0
POINT
5
78
100
AcDbEntity
8
1
62
256
6
ByLayer
370
18
48
1
60
1
100
AcDbPoint
10
32.788352
20
10.5375
30
0
39
0
210
0
220
0
230
1
50
360
0
POINT
5
79
100
AcDbEntity
8
1
62
256
6
ByLayer
370
18
48
1
60
1
100
AcDbPoint
10
0
20
-9.9625
30
0
39
0
210
0
220
0
230
1
50
360
0
POINT
5
7A
100
AcDbEntity
8
1
62
256
6
ByLayer
370
18
48
1
60
1
100
AcDbPoint
10
0
20
10.0375
30
0
39
0
210
0
220
0
230
1
50
360
0
POINT
5
7B
100
AcDbEntity
8
1
62
256
6
ByLayer
370
18
48
1
60
1
100
AcDbPoint
10
17.788352
20
7.862582
30
0
39
0
210
0
220
0
230
1
50
360
0
POINT
5
7C
100
AcDbEntity
8
1
62
256
6
ByLayer
370
18
48
1
60
1
100
AcDbPoint
10
32.788352
20
10.5375
30
0
39
0
210
0
220
0
230
1
50
360
0
POINT
5
7D
100
AcDbEntity
8
1
62
256
6
ByLayer
370
18
48
1
60
1
100
AcDbPoint
10
-69
20
-9.9625
30
0
39
0
210
0
220
0
230
1
50
360
0
POINT
5
7E
100
AcDbEntity
8
1
62
256
6
ByLayer
370
18
48
1
60
1
100
AcDbPoint
10
32.788352
20
10.5375
30
0
39
0
210
0
220
0
230
1
50
360
0
POINT
5
7F
100
AcDbEntity
8
1
62
256
6
ByLayer
370
18
48
1
60
1
100
AcDbPoint
10
0
20
-9.9625
30
0
39
0
210
0
220
0
230
1
50
360
0
POINT
5
80
100
AcDbEntity
8
1
62
256
6
ByLayer
370
18
48
1
60
1
100
AcDbPoint
10
32.788352
20
10.5375
30
0
39
0
210
0
220
0
230
1
50
360
0
POINT
5
81
100
AcDbEntity
8
1
62
256
6
ByLayer
370
18
48
1
60
1
100
AcDbPoint
10
-69
20
-9.9625
30
0
39
0
210
0
220
0
230
1
50
360
0
POINT
5
82
100
AcDbEntity
8
1
62
256
6
ByLayer
370
18
48
1
60
1
100
AcDbPoint
10
-66
20
-9.9625
30
0
39
0
210
0
220
0
230
1
50
360
0
SPLINE
5
F7
100
AcDbEntity
8
1
62
256
6
ByLayer
370
18
48
1
60
0
100
AcDbSpline
70
4
71
3
72
10
73
6
40
0
40
0
40
0
40
0
40
0.0412268678064474
40
0.0412268678064474
40
1
40
1
40
1
40
1
41
1
10
0.173108646765172
20
10.7894090863874
30
0
41
1
10
0.175500030099471
20
10.7937419827748
30
0
41
1
10
0.17787868173167
20
10.7980994494247
30
0
41
1
10
0.235254443865358
20
10.9043905408536
30
0
41
1
10
0.283247047834351
20
11.0195923736116
30
0
41
1
10
0.317758141296196
20
11.148389527836
30
0
0
SPLINE
5
F8
100
AcDbEntity
8
1
62
256
6
ByLayer
370
18
48
1
60
0
100
AcDbSpline
70
4
71
3
72
14
73
10
40
0
40
0
40
0
40
0
40
0.25
40
0.25
40
0.5
40
0.5
40
0.75
40
0.75
40
1
40
1
40
1
40
1
41
1
10
26.3324934503553
20
8.77631010434735
30
0
41
1
10
26.3105194488331
20
8.7016458153328
30
0
41
1
10
26.2882856277946
20
8.62713293650648
30
0
41
1
10
26.2430770879695
20
8.47853893805768
30
0
41
1
10
26.2201060197771
20
8.40445569104639
30
0
41
1
10
26.1730521027224
20
8.25693708877154
30
0
41
1
10
26.1489789505143
20
8.18349608276907
30
0
41
1
10
26.0990184140177
20
8.03767131705865
30
0
41
1
10
26.0731644365667
20
7.96526808946913
30
0
41
1
10
26.0456139066815
20
7.8938535301948
30
0
0
SPLINE
5
F9
100
AcDbEntity
8
1
62
256
6
ByLayer
370
18
48
1
60
0
100
AcDbSpline
70
4
71
3
72
8
73
4
40
0
40
0
40
0
40
0
40
1
40
1
40
1
40
1
41
1
10
26.4624988829591
20
8.83962348176732
30
0
41
1
10
26.4192656061458
20
8.81814458056024
30
0
41
1
10
26.3759481129859
20
8.79697524008171
30
0
41
1
10
26.332493450355
20
8.7763101043476
30
0
0
SPLINE
5
FA
100
AcDbEntity
8
1
62
256
6
ByLayer
370
18
48
1
60
0
100
AcDbSpline
70
4
71
3
72
16
73
12
40
0
40
0
40
0
40
0
40
0.25
40
0.25
40
0.5
40
0.5
40
0.75
40
0.75
40
0.875
40
0.875
40
1
40
1
40
1
40
1
41
1
10
26.5387325115373
20
8.97942005935738
30
0
41
1
10
26.5388532044469
20
8.96391944025254
30
0
41
1
10
26.5370512531349
20
8.94880199347824
30
0
41
1
10
26.5296739605066
20
8.9193746806726
30
0
41
1
10
26.5242980704636
20
8.90585566891954
30
0
41
1
10
26.5103797920928
20
8.88105966899866
30
0
41
1
10
26.5021537045305
20
8.8703626820419
30
0
41
1
10
26.4881314138001
20
8.85671725097083
30
0
41
1
10
26.4832229470387
20
8.85262955839801
30
0
41
1
10
26.4731122881566
20
8.84543205579604
30
0
41
1
10
26.4678877584786
20
8.84230075107081
30
0
41
1
10
26.4624988829591
20
8.83962348176732
30
0
0
SPLINE
5
FB
100
AcDbEntity
8
1
62
256
6
ByLayer
370
18
48
1
60
0
100
AcDbSpline
70
4
71
2
72
6
73
3
40
0
40
0
40
0
40
1
40
1
40
1
41
0.499998707474138
10
26.5379720392567
20
9.07705626342421
30
0
41
0.500001292525862
10
26.5383523375607
20
9.02824589365056
30
0
41
0.499998707474138
10
26.5387325115373
20
8.97942005935745
30
0
0
SPLINE
5
FC
100
AcDbEntity
8
1
62
256
6
ByLayer
370
18
48
1
60
0
100
AcDbSpline
70
4
71
3
72
18
73
14
40
0
40
0
40
0
40
0
40
0.249999999999992
40
0.249999999999992
40
0.375000000000005
40
0.375000000000005
40
0.500000000000017
40
0.500000000000017
40
0.625000000000029
40
0.625000000000029
40
0.750000000000041
40
0.750000000000041
40
1
40
1
40
1
40
1
41
1
10
26.4594674640256
20
9.2154138797805
30
0
41
1
10
26.4703960465141
20
9.2102371034988
30
0
41
1
10
26.4806222685809
20
9.20327836890792
30
0
41
1
10
26.4948268331742
20
9.18996124635459
30
0
41
1
10
26.4993548189889
20
9.1850352100806
30
0
41
1
10
26.507705043774
20
9.17449638911646
30
0
41
1
10
26.5115681353371
20
9.16884842842788
30
0
41
1
10
26.5186451854722
20
9.15676496530835
30
0
41
1
10
26.5218852036065
20
9.15026334352893
30
0
41
1
10
26.5275049792988
20
9.1367383073883
30
0
41
1
10
26.5298811458545
20
9.12975191819078
30
0
41
1
10
26.5357080350178
20
9.10812090668102
30
0
41
1
10
26.5378508411136
20
9.09261175266496
30
0
41
1
10
26.5379720392567
20
9.0770562634242
30
0
0
SPLINE
5
FD
100
AcDbEntity
8
1
62
256
6
ByLayer
370
18
48
1
60
0
100
AcDbSpline
70
4
71
3
72
8
73
4
40
0
40
0
40
0
40
0
40
1
40
1
40
1
40
1
41
1
10
26.3281427271735
20
9.27629706236866
30
0
41
1
10
26.3720372645946
20
9.2564637472687
30
0
41
1
10
26.4157945393508
20
9.23610137157988
30
0
41
1
10
26.4594674640256
20
9.21541387978056
30
0
0
SPLINE
5
FE
100
AcDbEntity
8
1
62
256
6
ByLayer
370
18
48
1
60
0
100
AcDbSpline
70
4
71
3
72
14
73
10
40
0
40
0
40
0
40
0
40
0.25
40
0.25
40
0.5
40
0.5
40
0.75
40
0.75
40
1
40
1
40
1
40
1
41
1
10
26.0453165285218
20
10.0883959183417
30
0
41
1
10
26.0723522831012
20
10.0228843604759
30
0
41
1
10
26.0978352888596
20
9.95640388812015
30
0
41
1
10
26.147108805876
20
9.82238682768457
30
0
41
1
10
26.1708736781682
20
9.75483424090282
30
0
41
1
10
26.217315523154
20
9.61905021853241
30
0
41
1
10
26.239984494957
20
9.55081379039194
30
0
41
1
10
26.2845751783621
20
9.41387464411838
30
0
41
1
10
26.3064937338498
20
9.34516995657151
30
0
41
1
10
26.3281427271735
20
9.27629706236868
30
0
0
SPLINE
5
FF
100
AcDbEntity
8
1
62
256
6
ByLayer
370
18
48
1
60
0
100
AcDbSpline
70
4
71
3
72
10
73
6
40
0
40
0
40
0
40
0
40
0.5
40
0.5
40
1
40
1
40
1
40
1
41
1
10
16.2562451877162
20
6.76821650524107
30
0
41
1
10
16.2634926614752
20
6.77247022037375
30
0
41
1
10
16.2693272172339
20
6.77672419079721
30
0
41
1
10
16.2766666269293
20
6.78523291394916
30
0
41
1
10
16.2781665617774
20
6.78948738473287
30
0
41
1
10
16.2773100690964
20
6.79374136652305
30
0
0
SPLINE
5
100
100
AcDbEntity
8
1
62
256
6
ByLayer
370
18
48
1
60
0
100
AcDbSpline
70
4
71
3
72
31
73
27
40
0
40
0
40
0
40
0
40
0.125000000000002
40
0.125000000000002
40
0.250000000000004
40
0.250000000000004
40
0.281250000000003
40
0.281250000000003
40
0.312500000000003
40
0.374999999999999
40
0.374999999999999
40
0.499999999999991
40
0.499999999999991
40
0.531249999999992
40
0.531249999999992
40
0.562499999999992
40
0.562499999999992
40
0.624999999999992
40
0.624999999999992
40
0.749999999999998
40
0.749999999999998
40
0.812499999999999
40
0.812499999999999
40
0.875000000000001
40
0.875000000000001
40
1
40
1
40
1
40
1
41
1
10
16.2562451877163
20
6.76821650524104
30
0
41
1
10
16.280543999819
20
6.8477173723073
30
0
41
1
10
16.3109020603437
20
6.92443473326398
30
0
41
1
10
16.383356389183
20
7.0724771406816
30
0
41
1
10
16.425451815041
20
7.14380257415149
30
0
41
1
10
16.485727475327
20
7.22944216825169
30
0
41
1
10
16.498195015078
20
7.24642823852449
30
0
41
1
10
16.5237767394229
20
7.27985585363172
30
0
41
1
10
16.5630658826356
20
7.32911950943986
30
0
41
1
10
16.605065421437
20
7.37578747704103
30
0
41
1
10
16.6926391996077
20
7.46569999754092
30
0
41
1
10
16.7557646154082
20
7.52109950627636
30
0
41
1
10
16.8408140765663
20
7.58446616728548
30
0
41
1
10
16.8581329622696
20
7.59684358301158
30
0
41
1
10
16.8934019368107
20
7.62099392464717
30
0
41
1
10
16.9113883696796
20
7.63278797688639
30
0
41
1
10
16.9658296817973
20
7.66694188174023
30
0
41
1
10
17.002877932909
20
7.68816043462485
30
0
41
1
10
17.1162426487062
20
7.74725065945353
30
0
41
1
10
17.1947647828334
20
7.78058629169075
30
0
41
1
10
17.3170585045395
20
7.82131368998662
30
0
41
1
10
17.3585783216104
20
7.83333630427791
30
0
41
1
10
17.4431903883261
20
7.85414776788321
30
0
41
1
10
17.4857946168517
20
7.86281385999317
30
0
41
1
10
17.6142362541302
20
7.88361728729552
30
0
41
1
10
17.7008090611312
20
7.89062190021821
30
0
41
1
10
17.7883523365866
20
7.89057753961237
30
0
0
SPLINE
5
101
100
AcDbEntity
8
1
62
256
6
ByLayer
370
18
48
1
60
0
100
AcDbSpline
70
4
71
3
72
14
73
10
40
0
40
0
40
0
40
0
40
0.500000000000004
40
0.500000000000004
40
0.750000000000006
40
0.750000000000006
40
0.875000000000003
40
0.875000000000003
40
1
40
1
40
1
40
1
41
1
10
16.2920072743202
20
7.86258224594786
30
0
41
1
10
16.2573776760508
20
7.77434086611129
30
0
41
1
10
16.2316371893615
20
7.68504005259931
30
0
41
1
10
16.2057362783448
20
7.55021069269881
30
0
41
1
10
16.1992334109001
20
7.50511784185363
30
0
41
1
10
16.1927063152794
20
7.4373242611511
30
0
41
1
10
16.1910679495886
20
7.41467277144881
30
0
41
1
10
16.1888884380219
20
7.36944869968724
30
0
41
1
10
16.188352336587
20
7.34701048554089
30
0
41
1
10
16.188352336587
20
7.32474885595937
30
0
0
SPLINE
5
102
100
AcDbEntity
8
1
62
256
6
ByLayer
370
18
48
1
60
0
100
AcDbSpline
70
4
71
3
72
30
73
26
40
0
40
0
40
0
40
0
40
0.125000000000002
40
0.125000000000002
40
0.187500000000001
40
0.187500000000001
40
0.25
40
0.25
40
0.374999999999999
40
0.374999999999999
40
0.437499999999999
40
0.437499999999999
40
0.5
40
0.5
40
0.624999999999998
40
0.624999999999998
40
0.687499999999998
40
0.687499999999998
40
0.718749999999996
40
0.718749999999996
40
0.749999999999994
40
0.749999999999994
40
0.874999999999997
40
0.874999999999997
40
1
40
1
40
1
40
1
41
1
10
16.2920072743191
20
7.86258224594511
30
0
41
1
10
16.3239090526839
20
7.94387273393374
30
0
41
1
10
16.3622012093844
20
8.01950987397993
30
0
41
1
10
16.428459549322
20
8.1251627405876
30
0
41
1
10
16.4520246678229
20
8.1590719377644
30
0
41
1
10
16.5020809874469
20
8.22430172745285
30
0
41
1
10
16.5286962013455
20
8.25573300884267
30
0
41
1
10
16.6112428383775
20
8.34439141518052
30
0
41
1
10
16.6702209549332
20
8.39660420632509
30
0
41
1
10
16.7639771615737
20
8.4656869920139
30
0
41
1
10
16.7961221904427
20
8.48716902028718
30
0
41
1
10
16.8621141706878
20
8.52710532089714
30
0
41
1
10
16.8955402060452
20
8.54530733037515
30
0
41
1
10
16.9970016358015
20
8.59505359964675
30
0
41
1
10
17.0662131520105
20
8.62176767745464
30
0
41
1
10
17.1721320867424
20
8.65320754338407
30
0
41
1
10
17.2077906950907
20
8.66224066087295
30
0
41
1
10
17.2617906965122
20
8.67368725343371
30
0
41
1
10
17.2798761381586
20
8.67715188830945
30
0
41
1
10
17.3162162381623
20
8.68338620665276
30
0
41
1
10
17.3344624384814
20
8.6861529773586
30
0
41
1
10
17.4255054364161
20
8.69819714940857
30
0
41
1
10
17.4982225068239
20
8.70222586915128
30
0
41
1
10
17.6434445995189
20
8.70015040432764
30
0
41
1
10
17.7159494723942
20
8.69403907998287
30
0
41
1
10
17.7883523365871
20
8.68305318181805
30
0
0
SPLINE
5
103
100
AcDbEntity
8
1
62
256
6
ByLayer
370
18
48
1
60
0
100
AcDbSpline
70
4
71
3
72
26
73
22
40
0
40
0
40
0
40
0
40
0.250000000000015
40
0.250000000000015
40
0.312500000000018
40
0.312500000000018
40
0.375000000000021
40
0.375000000000021
40
0.500000000000036
40
0.500000000000036
40
0.562500000000035
40
0.562500000000035
40
0.625000000000035
40
0.625000000000035
40
0.750000000000033
40
0.750000000000033
40
0.812500000000027
40
0.812500000000027
40
0.87500000000002
40
0.87500000000002
40
1
40
1
40
1
40
1
41
1
10
8.9122568964427
20
1.5554563433929
30
0
41
1
10
8.87977530323798
20
1.546513604393
30
0
41
1
10
8.8488886468551
20
1.53278200610512
30
0
41
1
10
8.81255381926522
20
1.5091297126751
30
0
41
1
10
8.80537487916286
20
1.50404388061921
30
0
41
1
10
8.79149294202648
20
1.49334738302241
30
0
41
1
10
8.7847707421401
20
1.48772777291722
30
0
41
1
10
8.76526561027799
20
1.4700538771954
30
0
41
1
10
8.75313952795057
20
1.45719015796288
30
0
41
1
10
8.73636292983781
20
1.43617542871402
30
0
41
1
10
8.7310072193938
20
1.42888268445517
30
0
41
1
10
8.72080077055062
20
1.41368598728991
30
0
41
1
10
8.71599022368272
20
1.40583554455733
30
0
41
1
10
8.70262784364849
20
1.38183814668417
30
0
41
1
10
8.69505543254226
20
1.36512787349568
30
0
41
1
10
8.68576835673565
20
1.33896488425947
30
0
41
1
10
8.68301960500432
20
1.33006004394255
30
0
41
1
10
8.67825064248311
20
1.31186514358933
30
0
41
1
10
8.67623781108247
20
1.302578972796
30
0
41
1
10
8.6714487528736
20
1.27477565069864
30
0
41
1
10
8.66985233658701
20
1.25610332713609
30
0
41
1
10
8.66985233658701
20
1.23729437384608
30
0
0
SPLINE
5
104
100
AcDbEntity
8
1
62
256
6
ByLayer
370
18
48
1
60
0
100
AcDbSpline
70
4
71
3
72
24
73
20
40
0
40
0
40
0
40
0
40
0.0624999999999944
40
0.0624999999999944
40
0.124999999999989
40
0.124999999999989
40
0.249999999999987
40
0.249999999999987
40
0.312499999999988
40
0.312499999999988
40
0.374999999999989
40
0.374999999999989
40
0.499999999999989
40
0.499999999999989
40
0.62499999999999
40
0.62499999999999
40
0.74999999999999
40
0.74999999999999
40
1
40
1
40
1
40
1
41
1
10
9.64277544699183
20
2.93547543218585
30
0
41
1
10
9.63467372677388
20
2.93072571166852
30
0
41
1
10
9.62670252735964
20
2.92558416283254
30
0
41
1
10
9.61125927088611
20
2.9146496954321
30
0
41
1
10
9.60383464145022
20
2.90889520162102
30
0
41
1
10
9.58241958495935
20
2.89080143025112
30
0
41
1
10
9.56928209706192
20
2.87763747918194
30
0
41
1
10
9.55127185861079
20
2.85625474668586
30
0
41
1
10
9.54554698213116
20
2.84883749476663
30
0
41
1
10
9.53488142308845
20
2.83375139268628
30
0
41
1
10
9.52990980207233
20
2.82604854236288
30
0
41
1
10
9.51603710622678
20
2.80248093539635
30
0
41
1
10
9.50817161885854
20
2.78615992991246
30
0
41
1
10
9.49516200902707
20
2.75233202388768
30
0
41
1
10
9.4901872756852
20
2.73526776874206
30
0
41
1
10
9.4830283441037
20
2.70089737160572
30
0
41
1
10
9.48084302966839
20
2.68353143259409
30
0
41
1
10
9.47841312654097
20
2.63146381797608
30
0
41
1
10
9.48221304481817
20
2.59789828455453
30
0
41
1
10
9.49090130300215
20
2.56544671182465
30
0
0
SPLINE
5
105
100
AcDbEntity
8
1
62
256
6
ByLayer
370
18
48
1
60
0
100
AcDbSpline
70
4
71
3
72
34
73
30
40
0
40
0
40
0
40
0
40
0.124999999999981
40
0.124999999999981
40
0.187499999999973
40
0.187499999999973
40
0.21874999999997
40
0.21874999999997
40
0.249999999999968
40
0.249999999999968
40
0.374999999999962
40
0.374999999999962
40
0.406249999999963
40
0.406249999999963
40
0.437499999999965
40
0.499999999999969
40
0.562499999999972
40
0.562499999999972
40
0.624999999999976
40
0.624999999999976
40
0.687499999999979
40
0.687499999999979
40
0.749999999999983
40
0.749999999999983
40
0.87499999999999
40
0.87499999999999
40
0.937499999999995
40
0.937499999999995
40
1
40
1
40
1
40
1
41
1
10
8.9122568964427
20
1.5554563433929
30
0
41
1
10
8.96115478400264
20
1.56891876943033
30
0
41
1
10
9.00874560989126
20
1.58681302592066
30
0
41
1
10
9.07829655009644
20
1.6207370813417
30
0
41
1
10
9.10117293569027
20
1.63323452006966
30
0
41
1
10
9.1350276140173
20
1.65392495201826
30
0
41
1
10
9.14626092534451
20
1.66116402030653
30
0
41
1
10
9.16845293286181
20
1.67624916962942
30
0
41
1
10
9.17937630694095
20
1.68406937780554
30
0
41
1
10
9.23313190176245
20
1.72458036433719
30
0
41
1
10
9.2734171917327
20
1.76143953086856
30
0
41
1
10
9.32006648106722
20
1.81399203161433
30
0
41
1
10
9.32921776265962
20
1.82484752604688
30
0
41
1
10
9.34684489517616
20
1.84688414140626
30
0
41
1
10
9.37238388782154
20
1.88054918837656
30
0
41
1
10
9.41049333944105
20
1.93967681767705
30
0
41
1
10
9.43619692766936
20
1.99022424162257
30
0
41
1
10
9.45941287388436
20
2.04245748023445
30
0
41
1
10
9.46949748773199
20
2.06878824015112
30
0
41
1
10
9.48682169826432
20
2.12181324376016
30
0
41
1
10
9.49406459670288
20
2.14851690949081
30
0
41
1
10
9.5058264011669
20
2.20231908394643
30
0
41
1
10
9.51034054074816
20
2.2295107709231
30
0
41
1
10
9.51969015112238
20
2.30978789474042
30
0
41
1
10
9.52056042344103
20
2.36221662055252
30
0
41
1
10
9.51472346863429
20
2.43970093273222
30
0
41
1
10
9.51155846719308
20
2.46541265438276
30
0
41
1
10
9.50292251095706
20
2.51603716856843
30
0
41
1
10
9.49746421751794
20
2.54093352480606
30
0
41
1
10
9.49090130300215
20
2.56544671182465
30
0
0
SPLINE
5
106
100
AcDbEntity
8
1
62
256
6
ByLayer
370
18
48
1
60
0
100
AcDbSpline
70
4
71
3
72
24
73
20
40
0
40
0
40
0
40
0
40
0.0625000000000009
40
0.0625000000000009
40
0.125000000000002
40
0.125000000000002
40
0.249999999999998
40
0.249999999999998
40
0.312499999999998
40
0.312499999999998
40
0.374999999999998
40
0.374999999999998
40
0.499999999999997
40
0.499999999999997
40
0.624999999999995
40
0.624999999999995
40
0.749999999999994
40
0.749999999999994
40
1
40
1
40
1
40
1
41
1
10
9.64277544699183
20
-0.460886684493687
30
0
41
1
10
9.63467372677385
20
-0.456136963976348
30
0
41
1
10
9.62670252735967
20
-0.450995415140397
30
0
41
1
10
9.61125927088611
20
-0.440060947739937
30
0
41
1
10
9.60383464145022
20
-0.434306453928855
30
0
41
1
10
9.58241958495935
20
-0.41621268255895
30
0
41
1
10
9.56928209706192
20
-0.403048731489804
30
0
41
1
10
9.55127185861079
20
-0.381665998993697
30
0
41
1
10
9.54554698213116
20
-0.374248747074461
30
0
41
1
10
9.53488142308845
20
-0.359162644994143
30
0
41
1
10
9.52990980207233
20
-0.351459794670717
30
0
41
1
10
9.51603710622678
20
-0.327892187704208
30
0
41
1
10
9.50817161885854
20
-0.311571182220291
30
0
41
1
10
9.49516200902707
20
-0.277743276195508
30
0
41
1
10
9.4901872756852
20
-0.260679021049896
30
0
41
1
10
9.4830283441037
20
-0.226308623913553
30
0
41
1
10
9.48084302966839
20
-0.208942684901956
30
0
41
1
10
9.47841312654094
20
-0.156875070283945
30
0
41
1
10
9.4822130448182
20
-0.123309536862394
30
0
41
1
10
9.49090130300215
20
-0.0908579641325105
30
0
0
SPLINE
5
107
100
AcDbEntity
8
1
62
256
6
ByLayer
370
18
48
1
60
0
100
AcDbSpline
70
4
71
3
72
26
73
22
40
0
40
0
40
0
40
0
40
0.125000000000002
40
0.125000000000002
40
0.250000000000005
40
0.250000000000005
40
0.312500000000004
40
0.312500000000004
40
0.375000000000003
40
0.375000000000003
40
0.500000000000002
40
0.500000000000002
40
0.562499999999999
40
0.562499999999999
40
0.624999999999995
40
0.624999999999995
40
0.749999999999997
40
0.749999999999997
40
0.874999999999998
40
0.874999999999998
40
1
40
1
40
1
40
1
41
1
10
8.66985233658701
20
1.23729437384608
30
0
41
1
10
8.66985233658701
20
1.2185522899664
30
0
41
1
10
8.67148954108242
20
1.19950434972509
30
0
41
1
10
8.67786705590407
20
1.16262382799172
30
0
41
1
10
8.68257954492151
20
1.14464753636673
30
0
41
1
10
8.69188695048385
20
1.11836714328527
30
0
41
1
10
8.69538481149166
20
1.10968076328314
30
0
41
1
10
8.70301820635098
20
1.0928118262301
30
0
41
1
10
8.70715323732213
20
1.08461697833025
30
0
41
1
10
8.72047000717129
20
1.06072112202659
30
0
41
1
10
8.73055777409365
20
1.04570443692154
30
0
41
1
10
8.74744762950081
20
1.02451883443769
30
0
41
1
10
8.75335971920256
20
1.017702455277
30
0
41
1
10
8.76555496474413
20
1.00473478433537
30
0
41
1
10
8.77186103980165
20
0.998553991074886
30
0
41
1
10
8.79137598381121
20
0.980885291644768
30
0
41
1
10
8.80517820892496
20
0.97026610287503
30
0
41
1
10
8.83430680334709
20
0.951292992899965
30
0
41
1
10
8.84937504240077
20
0.943113215041507
30
0
41
1
10
8.88023458888711
20
0.929272354022146
30
0
41
1
10
8.89605744709891
20
0.923592390190663
30
0
41
1
10
8.9122568964427
20
0.919132404299233
30
0
0
SPLINE
5
108
100
AcDbEntity
8
1
62
256
6
ByLayer
370
18
48
1
60
0
100
AcDbSpline
70
4
71
3
72
34
73
30
40
0
40
0
40
0
40
0
40
0.124999999999997
40
0.124999999999997
40
0.187499999999998
40
0.187499999999998
40
0.218749999999996
40
0.218749999999996
40
0.249999999999995
40
0.249999999999995
40
0.375
40
0.375
40
0.406250000000001
40
0.406250000000001
40
0.437500000000002
40
0.500000000000001
40
0.5625
40
0.5625
40
0.624999999999999
40
0.624999999999999
40
0.687499999999998
40
0.687499999999998
40
0.749999999999998
40
0.749999999999998
40
0.874999999999999
40
0.874999999999999
40
0.937499999999999
40
0.937499999999999
40
1
40
1
40
1
40
1
41
1
10
9.49090130300215
20
-0.0908579641325105
30
0
41
1
10
9.50401787480828
20
-0.0418661668216203
30
0
41
1
10
9.51265015247768
20
0.0082394722651316
30
0
41
1
10
9.51856029698675
20
0.0853967463067704
30
0
41
1
10
9.51934886022269
20
0.111452323963505
30
0
41
1
10
9.51862182722712
20
0.151122268455396
30
0
41
1
10
9.51805813743371
20
0.164474182376438
30
0
41
1
10
9.51626821347489
20
0.191248109745459
30
0
41
1
10
9.51504643505987
20
0.204626563786178
30
0
41
1
10
9.50728562064148
20
0.271488915751547
30
0
41
1
10
9.49586248830744
20
0.324883810345909
30
0
41
1
10
9.4741196868508
20
0.391705749296477
30
0
41
1
10
9.46938319154071
20
0.405090567070033
30
0
41
1
10
9.45928768814017
20
0.431442210839492
30
0
41
1
10
9.44316205125645
20
0.470500366805936
30
0
41
1
10
9.41142797322871
20
0.533280580686323
30
0
41
1
10
9.3808215329444
20
0.581019056423372
30
0
41
1
10
9.34750264413785
20
0.627464105394438
30
0
41
1
10
9.32988801663808
20
0.649480769110454
30
0
41
1
10
9.29290631781234
20
0.691243590870613
30
0
41
1
10
9.27353278625759
20
0.710997365177889
30
0
41
1
10
9.2330674314849
20
0.748354679174838
30
0
41
1
10
9.21189281369556
20
0.766001233244623
30
0
41
1
10
9.14736813071698
20
0.81466741672125
30
0
41
1
10
9.10257918175603
20
0.841934222220175
30
0
41
1
10
9.03278313155855
20
0.876086816568034
30
0
41
1
10
9.0090014913244
20
0.886360247798336
30
0
41
1
10
8.96096118158377
20
0.904513755042814
30
0
41
1
10
8.93672309635977
20
0.912396440370401
30
0
41
1
10
8.9122568964427
20
0.919132404299233
30
0
0
SPLINE
5
109
100
AcDbEntity
8
1
62
256
6
ByLayer
370
18
48
1
60
0
100
AcDbSpline
70
4
71
3
72
34
73
30
40
0
40
0
40
0
40
0
40
0.125000000000008
40
0.125000000000008
40
0.187500000000014
40
0.187500000000014
40
0.218750000000015
40
0.218750000000015
40
0.250000000000017
40
0.250000000000017
40
0.375000000000018
40
0.375000000000018
40
0.406250000000018
40
0.406250000000018
40
0.437500000000018
40
0.500000000000015
40
0.562500000000013
40
0.562500000000013
40
0.62500000000001
40
0.62500000000001
40
0.687500000000008
40
0.687500000000008
40
0.750000000000005
40
0.750000000000005
40
0.875000000000002
40
0.875000000000002
40
0.937500000000001
40
0.937500000000001
40
1
40
1
40
1
40
1
41
1
10
11.7858033701719
20
2.56544671182465
30
0
41
1
10
11.7726867983658
20
2.51645491451376
30
0
41
1
10
11.7640545206964
20
2.46634927542704
30
0
41
1
10
11.7581443761873
20
2.3891920013854
30
0
41
1
10
11.7573558129513
20
2.36313642372866
30
0
41
1
10
11.7580828459469
20
2.32346647923677
30
0
41
1
10
11.7586465357403
20
2.31011456531573
30
0
41
1
10
11.7604364596991
20
2.28334063794671
30
0
41
1
10
11.7616582381141
20
2.26996218390596
30
0
41
1
10
11.7694190525325
20
2.20309983194062
30
0
41
1
10
11.7808421848666
20
2.14970493734626
30
0
41
1
10
11.8025849863232
20
2.08288299839569
30
0
41
1
10
11.8073214816333
20
2.06949818062211
30
0
41
1
10
11.8174169850338
20
2.04314653685267
30
0
41
1
10
11.8335426219176
20
2.0040883808862
30
0
41
1
10
11.8652769769181
20
1.94130830722599
30
0
41
1
10
11.8958831402296
20
1.89356969126879
30
0
41
1
10
11.9292020290362
20
1.84712464229773
30
0
41
1
10
11.946816656536
20
1.82510797858171
30
0
41
1
10
11.9837983553617
20
1.78334515682155
30
0
41
1
10
12.0031718869164
20
1.76359138251428
30
0
41
1
10
12.0436372416891
20
1.72623406851733
30
0
41
1
10
12.0648118594784
20
1.70858751444754
30
0
41
1
10
12.129336542457
20
1.65992133097092
30
0
41
1
10
12.174125491418
20
1.63265452547199
30
0
41
1
10
12.2439215416155
20
1.59850193112413
30
0
41
1
10
12.2677031818496
20
1.5882284998938
30
0
41
1
10
12.3157434915903
20
1.57007499264935
30
0
41
1
10
12.3399815768143
20
1.56219230732177
30
0
41
1
10
12.3644477767313
20
1.5554563433929
30
0
0
SPLINE
5
10A
100
AcDbEntity
8
1
62
256
6
ByLayer
370
18
48
1
60
0
100
AcDbSpline
70
4
71
3
72
26
73
22
40
0
40
0
40
0
40
0
40
0.125000000000002
40
0.125000000000002
40
0.250000000000005
40
0.250000000000005
40
0.312500000000004
40
0.312500000000004
40
0.375000000000003
40
0.375000000000003
40
0.500000000000002
40
0.500000000000002
40
0.562499999999999
40
0.562499999999999
40
0.624999999999995
40
0.624999999999995
40
0.749999999999997
40
0.749999999999997
40
0.874999999999998
40
0.874999999999998
40
1
40
1
40
1
40
1
41
1
10
12.606852336587
20
1.23729437384608
30
0
41
1
10
12.606852336587
20
1.25603645772574
30
0
41
1
10
12.6052151320916
20
1.27508439796708
30
0
41
1
10
12.5988376172699
20
1.31196491970042
30
0
41
1
10
12.5941251282525
20
1.32994121132543
30
0
41
1
10
12.5848177226902
20
1.3562216044069
30
0
41
1
10
12.5813198616823
20
1.36490798440903
30
0
41
1
10
12.5736864668231
20
1.38177692146206
30
0
41
1
10
12.5695514358519
20
1.38997176936192
30
0
41
1
10
12.5562346660027
20
1.41386762566557
30
0
41
1
10
12.5461468990804
20
1.42888431077063
30
0
41
1
10
12.5292570436732
20
1.45006991325448
30
0
41
1
10
12.5233449539714
20
1.45688629241513
30
0
41
1
10
12.5111497084299
20
1.4698539633568
30
0
41
1
10
12.5048436333724
20
1.47603475661725
30
0
41
1
10
12.4853286893628
20
1.4937034560474
30
0
41
1
10
12.4715264642491
20
1.50432264481714
30
0
41
1
10
12.4423978698269
20
1.5232957547922
30
0
41
1
10
12.4273296307732
20
1.53147553265066
30
0
41
1
10
12.3964700842869
20
1.54531639367002
30
0
41
1
10
12.3806472260751
20
1.5509963575015
30
0
41
1
10
12.3644477767313
20
1.5554563433929
30
0
0
SPLINE
5
10B
100
AcDbEntity
8
1
62
256
6
ByLayer
370
18
48
1
60
0
100
AcDbSpline
70
4
71
3
72
24
73
20
40
0
40
0
40
0
40
0
40
0.0625000000000009
40
0.0625000000000009
40
0.125000000000002
40
0.125000000000002
40
0.249999999999998
40
0.249999999999998
40
0.312499999999998
40
0.312499999999998
40
0.374999999999998
40
0.374999999999998
40
0.499999999999997
40
0.499999999999997
40
0.624999999999995
40
0.624999999999995
40
0.749999999999994
40
0.749999999999994
40
1
40
1
40
1
40
1
41
1
10
11.6339292261822
20
2.93547543218585
30
0
41
1
10
11.6420309464001
20
2.93072571166849
30
0
41
1
10
11.6500021458144
20
2.92558416283256
30
0
41
1
10
11.6654454022879
20
2.9146496954321
30
0
41
1
10
11.6728700317238
20
2.90889520162102
30
0
41
1
10
11.6942850882147
20
2.89080143025112
30
0
41
1
10
11.7074225761121
20
2.87763747918194
30
0
41
1
10
11.7254328145632
20
2.85625474668586
30
0
41
1
10
11.7311576910428
20
2.84883749476663
30
0
41
1
10
11.7418232500856
20
2.83375139268628
30
0
41
1
10
11.7467948711017
20
2.82604854236288
30
0
41
1
10
11.7606675669472
20
2.80248093539635
30
0
41
1
10
11.7685330543155
20
2.78615992991246
30
0
41
1
10
11.781542664147
20
2.75233202388768
30
0
41
1
10
11.7865173974888
20
2.73526776874206
30
0
41
1
10
11.7936763290703
20
2.70089737160572
30
0
41
1
10
11.7958616435056
20
2.68353143259412
30
0
41
1
10
11.7982915466331
20
2.63146381797611
30
0
41
1
10
11.7944916283558
20
2.59789828455453
30
0
41
1
10
11.7858033701719
20
2.56544671182465
30
0
0
SPLINE
5
10C
100
AcDbEntity
8
1
62
256
6
ByLayer
370
18
48
1
60
0
100
AcDbSpline
70
4
71
3
72
26
73
22
40
0
40
0
40
0
40
0
40
0.250000000000015
40
0.250000000000015
40
0.312500000000018
40
0.312500000000018
40
0.375000000000021
40
0.375000000000021
40
0.500000000000036
40
0.500000000000036
40
0.562500000000035
40
0.562500000000035
40
0.625000000000035
40
0.625000000000035
40
0.750000000000033
40
0.750000000000033
40
0.812500000000027
40
0.812500000000027
40
0.87500000000002
40
0.87500000000002
40
1
40
1
40
1
40
1
41
1
10
12.3644477767313
20
0.919132404299233
30
0
41
1
10
12.396929369936
20
0.928075143299139
30
0
41
1
10
12.4278160263189
20
0.941806741587015
30
0
41
1
10
12.4641508539088
20
0.965459035017062
30
0
41
1
10
12.4713297940112
20
0.970544867072931
30
0
41
1
10
12.4852117311475
20
0.981241364669756
30
0
41
1
10
12.4919339310339
20
0.986860974774942
30
0
41
1
10
12.5114390628961
20
1.00453487049677
30
0
41
1
10
12.5235651452235
20
1.01739858972925
30
0
41
1
10
12.5403417433362
20
1.03841331897814
30
0
41
1
10
12.5456974537802
20
1.04570606323699
30
0
41
1
10
12.5559039026234
20
1.06090276040223
30
0
41
1
10
12.5607144494913
20
1.0687532031348
30
0
41
1
10
12.5740768295255
20
1.09275060100799
30
0
41
1
10
12.5816492406317
20
1.10946087419649
30
0
41
1
10
12.5909363164384
20
1.1356238634327
30
0
41
1
10
12.5936850681697
20
1.14452870374961
30
0
41
1
10
12.5984540306909
20
1.16272360410284
30
0
41
1
10
12.6004668620915
20
1.17200977489617
30
0
41
1
10
12.6052559203004
20
1.19981309699352
30
0
41
1
10
12.606852336587
20
1.21848542055605
30
0
41
1
10
12.606852336587
20
1.23729437384608
30
0
0
SPLINE
5
10D
100
AcDbEntity
8
1
62
256
6
ByLayer
370
18
48
1
60
0
100
AcDbSpline
70
4
71
3
72
34
73
30
40
0
40
0
40
0
40
0
40
0.124999999999981
40
0.124999999999981
40
0.187499999999973
40
0.187499999999973
40
0.21874999999997
40
0.21874999999997
40
0.249999999999968
40
0.249999999999968
40
0.374999999999962
40
0.374999999999962
40
0.406249999999963
40
0.406249999999963
40
0.437499999999965
40
0.499999999999969
40
0.562499999999972
40
0.562499999999972
40
0.624999999999976
40
0.624999999999976
40
0.687499999999979
40
0.687499999999979
40
0.749999999999983
40
0.749999999999983
40
0.87499999999999
40
0.87499999999999
40
0.937499999999995
40
0.937499999999995
40
1
40
1
40
1
40
1
41
1
10
12.3644477767313
20
0.919132404299233
30
0
41
1
10
12.3155498891714
20
0.905669978261813
30
0
41
1
10
12.2679590632828
20
0.887775721771504
30
0
41
1
10
12.1984081230776
20
0.853851666350465
30
0
41
1
10
12.1755317374838
20
0.841354227622503
30
0
41
1
10
12.1416770591567
20
0.820663795673909
30
0
41
1
10
12.1304437478295
20
0.813424727385637
30
0
41
1
10
12.1082517403122
20
0.798339578062752
30
0
41
1
10
12.0973283662331
20
0.790519369886624
30
0
41
1
10
12.0435727714116
20
0.750008383354981
30
0
41
1
10
12.0032874814413
20
0.713149216823581
30
0
41
1
10
11.9566381921068
20
0.660596716077833
30
0
41
1
10
11.9474869105144
20
0.649741221645257
30
0
41
1
10
11.9298597779979
20
0.627704606285903
30
0
41
1
10
11.9043207853525
20
0.594039559315604
30
0
41
1
10
11.866211333733
20
0.534911930015113
30
0
41
1
10
11.8405077455047
20
0.484364506069596
30
0
41
1
10
11.8172917992897
20
0.43213126745772
30
0
41
1
10
11.807207185442
20
0.405800507541045
30
0
41
1
10
11.7898829749097
20
0.35277550393198
30
0
41
1
10
11.7826400764712
20
0.32607183820133
30
0
41
1
10
11.7708782720071
20
0.272269663745732
30
0
41
1
10
11.7663641324258
20
0.245077976769039
30
0
41
1
10
11.7570145220516
20
0.164800852951743
30
0
41
1
10
11.756144249733
20
0.112372127139622
30
0
41
1
10
11.7619812045397
20
0.0348878149599159
30
0
41
1
10
11.7651462059809
20
0.0091760933094065
30
0
41
1
10
11.7737821622169
20
-0.0414484208762644
30
0
41
1
10
11.7792404556561
20
-0.0663447771138976
30
0
41
1
10
11.7858033701719
20
-0.0908579641325105
30
0
0
SPLINE
5
10E
100
AcDbEntity
8
1
62
256
6
ByLayer
370
18
48
1
60
0
100
AcDbSpline
70
4
71
3
72
24
73
20
40
0
40
0
40
0
40
0
40
0.0625000000000009
40
0.0625000000000009
40
0.125000000000002
40
0.125000000000002
40
0.249999999999998
40
0.249999999999998
40
0.312499999999998
40
0.312499999999998
40
0.374999999999998
40
0.374999999999998
40
0.499999999999996
40
0.499999999999996
40
0.624999999999995
40
0.624999999999995
40
0.749999999999993
40
0.749999999999993
40
1
40
1
40
1
40
1
41
1
10
11.6339292261822
20
-0.460886684493687
30
0
41
1
10
11.6420309464001
20
-0.456136963976348
30
0
41
1
10
11.6500021458144
20
-0.450995415140397
30
0
41
1
10
11.6654454022879
20
-0.440060947739937
30
0
41
1
10
11.6728700317238
20
-0.434306453928855
30
0
41
1
10
11.6942850882147
20
-0.41621268255895
30
0
41
1
10
11.7074225761121
20
-0.403048731489804
30
0
41
1
10
11.7254328145633
20
-0.381665998993697
30
0
41
1
10
11.7311576910428
20
-0.374248747074461
30
0
41
1
10
11.7418232500856
20
-0.359162644994143
30
0
41
1
10
11.7467948711017
20
-0.351459794670717
30
0
41
1
10
11.7606675669472
20
-0.327892187704208
30
0
41
1
10
11.7685330543155
20
-0.311571182220291
30
0
41
1
10
11.7815426641469
20
-0.277743276195508
30
0
41
1
10
11.7865173974888
20
-0.260679021049896
30
0
41
1
10
11.7936763290703
20
-0.226308623913553
30
0
41
1
10
11.7958616435056
20
-0.208942684901956
30
0
41
1
10
11.7982915466331
20
-0.156875070283945
30
0
41
1
10
11.7944916283558
20
-0.123309536862394
30
0
41
1
10
11.7858033701719
20
-0.0908579641325105
30
0
0
SPLINE
5
10F
100
AcDbEntity
8
1
62
256
6
ByLayer
370
18
48
1
60
0
100
AcDbSpline
70
4
71
3
72
17
73
13
40
0
40
0
40
0
40
0
40
0.249999999999996
40
0.249999999999996
40
0.499999999999993
40
0.499999999999993
40
0.562499999999993
40
0.562499999999993
40
0.624999999999994
40
0.749999999999999
40
0.749999999999999
40
1
40
1
40
1
40
1
41
1
10
10.0462346324198
20
2.88087700193483
30
0
41
1
10
10.0744000177776
20
2.85191897747723
30
0
41
1
10
10.1046265787224
20
2.82506343274977
30
0
41
1
10
10.169430659974
20
2.77557463547925
30
0
41
1
10
10.2040016414532
20
2.75293708165933
30
0
41
1
10
10.2503638247304
20
2.72750489645864
30
0
41
1
10
10.2598176267757
20
2.72255192588312
30
0
41
1
10
10.2789270604734
20
2.71301073220167
30
0
41
1
10
10.3078902996388
20
2.69924448537364
30
0
41
1
10
10.3377660598436
20
2.68711740729776
30
0
41
1
10
10.3988029486652
20
2.66510345017301
30
0
41
1
10
10.44119413932
20
2.65338987588174
30
0
41
1
10
10.4856110432106
20
2.64503231014589
30
0
0
SPLINE
5
110
100
AcDbEntity
8
1
62
256
6
ByLayer
370
18
48
1
60
0
100
AcDbSpline
70
4
71
3
72
18
73
14
40
0
40
0
40
0
40
0
40
0.249999999999979
40
0.249999999999979
40
0.374999999999973
40
0.374999999999973
40
0.437499999999977
40
0.437499999999977
40
0.499999999999982
40
0.499999999999982
40
0.749999999999991
40
0.749999999999991
40
1
40
1
40
1
40
1
41
1
10
10.7910936299635
20
2.64503231014589
30
0
41
1
10
10.8355186194443
20
2.65339139728116
30
0
41
1
10
10.8778810642698
20
2.66510029770899
30
0
41
1
10
10.9388399345266
20
2.68707967343064
30
0
41
1
10
10.9587251494399
20
2.6951483560768
30
0
41
1
10
10.9879374828305
20
2.70833528009294
30
0
41
1
10
10.9975721800442
20
2.71291184829312
30
0
41
1
10
11.0166402121965
20
2.72242508285103
30
0
41
1
10
11.0260943664118
20
2.72737349799013
30
0
41
1
10
11.0725611284647
20
2.75284422698968
30
0
41
1
10
11.107185680442
20
2.77551137131337
30
0
41
1
10
11.1720593118967
20
2.82504490330578
30
0
41
1
10
11.2023015361112
20
2.851915770408
30
0
41
1
10
11.2304700407542
20
2.88087700193483
30
0
0
SPLINE
5
111
100
AcDbEntity
8
1
62
256
6
ByLayer
370
18
48
1
60
0
100
AcDbSpline
70
4
71
3
72
24
73
20
40
0
40
0
40
0
40
0
40
0.125000000000002
40
0.125000000000002
40
0.187500000000006
40
0.187500000000006
40
0.25000000000001
40
0.25000000000001
40
0.375000000000008
40
0.375000000000008
40
0.500000000000005
40
0.500000000000005
40
0.625000000000002
40
0.625000000000002
40
0.687500000000003
40
0.687500000000003
40
0.750000000000004
40
0.750000000000004
40
1
40
1
40
1
40
1
41
1
10
11.6339292261822
20
2.93547543218585
30
0
41
1
10
11.617303179161
20
2.9452226308714
30
0
41
1
10
11.5999905854067
20
2.95343011053592
30
0
41
1
10
11.5730048927997
20
2.96346013734376
30
0
41
1
10
11.5638049654686
20
2.96643031514182
30
0
41
1
10
11.5452078017597
20
2.97154292340122
30
0
41
1
10
11.5359014160238
20
2.97366396311216
30
0
41
1
10
11.5079613024688
20
2.97879071845912
30
0
41
1
10
11.4893066768308
20
2.98056844767296
30
0
41
1
10
11.4519523946451
20
2.98097587730442
30
0
41
1
10
11.4331134141606
20
2.97955485185045
30
0
41
1
10
11.3969372316665
20
2.97378166874915
30
0
41
1
10
11.379421863034
20
2.96945299847749
30
0
41
1
10
11.3539634597686
20
2.9609464702373
30
0
41
1
10
11.345613838774
20
2.95777351324483
30
0
41
1
10
11.3291883957359
20
2.95075735831605
30
0
41
1
10
11.3210855919958
20
2.94689722527337
30
0
41
1
10
11.2819364650664
20
2.92627901515317
30
0
41
1
10
11.2544273509099
20
2.90550852621962
30
0
41
1
10
11.2304700407542
20
2.88087700193483
30
0
0
SPLINE
5
112
100
AcDbEntity
8
1
62
256
6
ByLayer
370
18
48
1
60
0
100
AcDbSpline
70
4
71
3
72
24
73
20
40
0
40
0
40
0
40
0
40
0.249999999999971
40
0.249999999999971
40
0.312499999999967
40
0.312499999999967
40
0.374999999999962
40
0.374999999999962
40
0.499999999999967
40
0.499999999999967
40
0.624999999999972
40
0.624999999999972
40
0.749999999999977
40
0.749999999999977
40
0.812499999999985
40
0.812499999999985
40
0.874999999999993
40
0.874999999999993
40
1
40
1
40
1
40
1
41
1
10
10.0462346324198
20
2.88087700193483
30
0
41
1
10
10.0222773222641
20
2.90550852621962
30
0
41
1
10
9.99476820810756
20
2.92627901515317
30
0
41
1
10
9.95561908117824
20
2.94689722527337
30
0
41
1
10
9.94751627743815
20
2.95075735831605
30
0
41
1
10
9.93109083440007
20
2.95777351324483
30
0
41
1
10
9.92274121340543
20
2.9609464702373
30
0
41
1
10
9.89728281013998
20
2.96945299847749
30
0
41
1
10
9.87976744150751
20
2.97378166874915
30
0
41
1
10
9.84359125901338
20
2.97955485185045
30
0
41
1
10
9.82475227852891
20
2.98097587730442
30
0
41
1
10
9.7873979963432
20
2.98056844767296
30
0
41
1
10
9.76874337070524
20
2.97879071845912
30
0
41
1
10
9.74080325715022
20
2.97366396311216
30
0
41
1
10
9.73149687141435
20
2.97154292340122
30
0
41
1
10
9.71289970770545
20
2.96643031514179
30
0
41
1
10
9.70369978037431
20
2.96346013734376
30
0
41
1
10
9.67671408776735
20
2.95343011053592
30
0
41
1
10
9.65940149401308
20
2.9452226308714
30
0
41
1
10
9.64277544699183
20
2.93547543218585
30
0
0
SPLINE
5
113
100
AcDbEntity
8
1
62
256
6
ByLayer
370
18
48
1
60
0
100
AcDbSpline
70
4
71
3
72
24
73
20
40
0
40
0
40
0
40
0
40
0.125000000000002
40
0.125000000000002
40
0.187499999999997
40
0.187499999999997
40
0.249999999999991
40
0.249999999999991
40
0.374999999999992
40
0.374999999999992
40
0.499999999999992
40
0.499999999999992
40
0.624999999999992
40
0.624999999999992
40
0.687499999999995
40
0.687499999999995
40
0.749999999999998
40
0.749999999999998
40
1
40
1
40
1
40
1
41
1
10
9.64277544699183
20
-0.460886684493687
30
0
41
1
10
9.65940149401308
20
-0.470633883179232
30
0
41
1
10
9.67671408776735
20
-0.478841362843781
30
0
41
1
10
9.70369978037431
20
-0.488871389651592
30
0
41
1
10
9.71289970770545
20
-0.491841567449654
30
0
41
1
10
9.73149687141435
20
-0.49695417570905
30
0
41
1
10
9.74080325715022
20
-0.499075215419992
30
0
41
1
10
9.76874337070524
20
-0.504201970766957
30
0
41
1
10
9.7873979963432
20
-0.505979699980827
30
0
41
1
10
9.82475227852893
20
-0.506387129612278
30
0
41
1
10
9.84359125901341
20
-0.504966104158285
30
0
41
1
10
9.87976744150751
20
-0.499192921057016
30
0
41
1
10
9.89728281013998
20
-0.494864250785326
30
0
41
1
10
9.92274121340543
20
-0.486357722545136
30
0
41
1
10
9.93109083440007
20
-0.483184765552664
30
0
41
1
10
9.94751627743815
20
-0.476168610623887
30
0
41
1
10
9.95561908117824
20
-0.472308477581237
30
0
41
1
10
9.99476820810756
20
-0.451690267461004
30
0
41
1
10
10.0222773222641
20
-0.430919778527482
30
0
41
1
10
10.0462346324198
20
-0.406288254242668
30
0
0
SPLINE
5
114
100
AcDbEntity
8
1
62
256
6
ByLayer
370
18
48
1
60
0
100
AcDbSpline
70
4
71
3
72
18
73
14
40
0
40
0
40
0
40
0
40
0.250000000000013
40
0.250000000000013
40
0.375000000000023
40
0.375000000000023
40
0.437500000000027
40
0.437500000000027
40
0.50000000000003
40
0.50000000000003
40
0.750000000000015
40
0.750000000000015
40
1
40
1
40
1
40
1
41
1
10
10.4856110432106
20
-0.170443562453755
30
0
41
1
10
10.4411860537293
20
-0.178802649589073
30
0
41
1
10
10.3988236089038
20
-0.190511550016964
30
0
41
1
10
10.3378647386471
20
-0.212490925738592
30
0
41
1
10
10.317979523734
20
-0.22055960838469
30
0
41
1
10
10.2887671903436
20
-0.233746532400772
30
0
41
1
10
10.2791324931299
20
-0.238323100600922
30
0
41
1
10
10.2600644609778
20
-0.247836335158752
30
0
41
1
10
10.2506103067625
20
-0.252784750297792
30
0
41
1
10
10.2041435447094
20
-0.278255479297456
30
0
41
1
10
10.169518992732
20
-0.300922623621204
30
0
41
1
10
10.1046453612772
20
-0.350456155613671
30
0
41
1
10
10.0744031370628
20
-0.377327022715889
30
0
41
1
10
10.0462346324198
20
-0.406288254242668
30
0
0
SPLINE
5
115
100
AcDbEntity
8
1
62
256
6
ByLayer
370
18
48
1
60
0
100
AcDbSpline
70
4
71
3
72
24
73
20
40
0
40
0
40
0
40
0
40
0.249999999999969
40
0.249999999999969
40
0.312499999999963
40
0.312499999999963
40
0.374999999999958
40
0.374999999999958
40
0.499999999999961
40
0.499999999999961
40
0.624999999999965
40
0.624999999999965
40
0.749999999999969
40
0.749999999999969
40
0.812499999999976
40
0.812499999999976
40
0.874999999999983
40
0.874999999999983
40
1
40
1
40
1
40
1
41
1
10
11.2304700407542
20
-0.406288254242668
30
0
41
1
10
11.2544273509099
20
-0.430919778527482
30
0
41
1
10
11.2819364650664
20
-0.451690267461004
30
0
41
1
10
11.3210855919958
20
-0.472308477581237
30
0
41
1
10
11.3291883957359
20
-0.476168610623887
30
0
41
1
10
11.345613838774
20
-0.483184765552664
30
0
41
1
10
11.3539634597686
20
-0.486357722545165
30
0
41
1
10
11.379421863034
20
-0.494864250785326
30
0
41
1
10
11.3969372316665
20
-0.499192921057016
30
0
41
1
10
11.4331134141606
20
-0.504966104158314
30
0
41
1
10
11.4519523946451
20
-0.506387129612278
30
0
41
1
10
11.4893066768308
20
-0.505979699980827
30
0
41
1
10
11.5079613024688
20
-0.504201970766957
30
0
41
1
10
11.5359014160238
20
-0.499075215419992
30
0
41
1
10
11.5452078017597
20
-0.49695417570905
30
0
41
1
10
11.5638049654686
20
-0.491841567449654
30
0
41
1
10
11.5730048927997
20
-0.488871389651592
30
0
41
1
10
11.5999905854067
20
-0.478841362843781
30
0
41
1
10
11.617303179161
20
-0.470633883179232
30
0
41
1
10
11.6339292261822
20
-0.460886684493687
30
0
0
SPLINE
5
116
100
AcDbEntity
8
1
62
256
6
ByLayer
370
18
48
1
60
0
100
AcDbSpline
70
4
71
3
72
17
73
13
40
0
40
0
40
0
40
0
40
0.250000000000005
40
0.250000000000005
40
0.50000000000001
40
0.50000000000001
40
0.562500000000009
40
0.562500000000009
40
0.625000000000009
40
0.750000000000005
40
0.750000000000005
40
1
40
1
40
1
40
1
41
1
10
11.2304700407542
20
-0.406288254242668
30
0
41
1
10
11.2023046553964
20
-0.377330229785002
30
0
41
1
10
11.1720780944516
20
-0.350474685057549
30
0
41
1
10
11.1072740131998
20
-0.300985887786936
30
0
41
1
10
11.0727030317205
20
-0.278348333966988
30
0
41
1
10
11.0263408484433
20
-0.252916148766275
30
0
41
1
10
11.0168870463979
20
-0.247963178190787
30
0
41
1
10
10.9977776127003
20
-0.238421984509301
30
0
41
1
10
10.9688143735348
20
-0.224655737681275
30
0
41
1
10
10.93893861333
20
-0.212528659605425
30
0
41
1
10
10.8779017245085
20
-0.190514702480755
30
0
41
1
10
10.8355105338538
20
-0.178801128189519
30
0
41
1
10
10.7910936299635
20
-0.170443562453755
30
0
0
SPLINE
5
117
100
AcDbEntity
8
1
62
256
6
ByLayer
370
18
48
1
60
0
100
AcDbSpline
70
4
71
2
72
6
73
3
40
0
40
0
40
0
40
1
40
1
40
1
41
1.03186391735993
10
32.5883423346376
20
7.5345141652929
30
0
41
1.03138264657361
10
32.4661312814433
20
7.53451416529291
30
0
41
1.03186391735993
10
32.3441481764982
20
7.5419745625247
30
0
0
SPLINE
5
118
100
AcDbEntity
8
1
62
256
6
ByLayer
370
18
48
1
60
0
100
AcDbSpline
70
4
71
2
72
6
73
3
40
0
40
0
40
0
40
1
40
1
40
1
41
1.03186391735993
10
32.7883423346376
20
7.73450319916602
30
0
41
0.729637973226922
10
32.7883423346376
20
7.53451416529291
30
0
41
1.03186391735993
10
32.5883423346377
20
7.5345141652929
30
0
0
SPLINE
5
119
100
AcDbEntity
8
1
62
256
6
ByLayer
370
18
48
1
60
0
100
AcDbSpline
70
4
71
2
72
6
73
3
40
0
40
0
40
0
40
1
40
1
40
1
41
1.03186391735993
10
32.5883423346377
20
10.5406520326598
30
0
41
0.729637973226922
10
32.7883423346376
20
10.5406520326598
30
0
41
1.03186391735993
10
32.7883423346376
20
10.3406629987867
30
0
0
SPLINE
5
11A
100
AcDbEntity
8
1
62
256
6
ByLayer
370
18
48
1
60
0
100
AcDbSpline
70
4
71
2
72
6
73
3
40
0
40
0
40
0
40
1
40
1
40
1
41
1.03186391735993
10
32.3441481764982
20
10.5331916354281
30
0
41
1.03138264657361
10
32.4661312814433
20
10.5406520326598
30
0
41
1.03186391735993
10
32.5883423346377
20
10.5406520326598
30
0
0
SPLINE
5
11B
100
AcDbEntity
8
1
62
256
6
ByLayer
370
18
48
1
60
0
100
AcDbSpline
70
4
71
3
72
8
73
4
40
0
40
0
40
0
40
0
40
1
40
1
40
1
40
1
41
1
10
29.3608673365861
20
10.2356052613139
30
0
41
1
10
29.0783624386785
20
10.2356048164916
30
0
41
1
10
28.7958574408605
20
10.2356044003484
30
0
41
1
10
28.513352336587
20
10.2356040128845
30
0
0
SPLINE
5
11C
100
AcDbEntity
8
1
62
256
6
ByLayer
370
18
48
1
60
0
100
AcDbSpline
70
4
71
3
72
8
73
4
40
0
40
0
40
0
40
0
40
1
40
1
40
1
40
1
41
1
10
25.9190733365885
20
10.2356012609748
30
0
41
1
10
26.7838330055807
20
10.2356019095521
30
0
41
1
10
27.6485926730085
20
10.2356028268416
30
0
41
1
10
28.513352336587
20
10.2356040128845
30
0
0
SPLINE
5
11D
100
AcDbEntity
8
1
62
256
6
ByLayer
370
18
48
1
60
0
100
AcDbSpline
70
4
71
3
72
8
73
4
40
0
40
0
40
0
40
0
40
1
40
1
40
1
40
1
41
1
10
30.2080217529783
20
10.4506264907267
30
0
41
1
10
30.2208172061491
20
10.4538741178821
30
0
41
1
10
30.2339134786688
20
10.4557994448444
30
0
41
1
10
30.247085347364
20
10.456384794765
30
0
0
SPLINE
5
11E
100
AcDbEntity
8
1
62
256
6
ByLayer
370
18
48
1
60
0
100
AcDbSpline
70
4
71
3
72
8
73
4
40
0
40
0
40
0
40
0
40
1
40
1
40
1
40
1
41
1
10
30.247085347371
20
7.60741809046104
30
0
41
1
10
30.2339134636189
20
7.60795479838845
30
0
41
1
10
30.2208172209433
20
7.60983175760123
30
0
41
1
10
30.2080217529806
20
7.61303213592043
30
0
0
SPLINE
5
11F
100
AcDbEntity
8
SK1
62
256
6
ByLayer
370
18
48
1
60
0
100
AcDbSpline
70
4
71
3
72
28
73
24
40
0
40
0
40
0
40
0
40
0.125000000000002
40
0.125000000000002
40
0.250000000000004
40
0.250000000000004
40
0.375000000000006
40
0.375000000000006
40
0.437500000000007
40
0.437500000000007
40
0.500000000000008
40
0.500000000000008
40
0.625000000000006
40
0.625000000000006
40
0.687500000000005
40
0.687500000000005
40
0.718750000000005
40
0.718750000000005
40
0.750000000000004
40
0.750000000000004
40
0.875000000000002
40
0.875000000000002
40
1
40
1
40
1
40
1
41
1
10
-6
20
-9.46270562615396
30
0
41
1
10
-6.02999723886668
20
-9.46270562615396
30
0
41
1
10
-6.06303130279107
20
-9.4635414511518
30
0
41
1
10
-6.13497656227835
20
-9.46800178801428
30
0
41
1
10
-6.17388832383071
20
-9.47162342998598
30
0
41
1
10
-6.25749124526845
20
-9.48299743704513
30
0
41
1
10
-6.30218280905459
20
-9.4907443002877
30
0
41
1
10
-6.37354374895449
20
-9.50673027845599
30
0
41
1
10
-6.3981192472053
20
-9.51281053960045
30
0
41
1
10
-6.44818288650384
20
-9.5265396798568
30
0
41
1
10
-6.47370591328752
20
-9.53419321466976
30
0
41
1
10
-6.55162404153219
20
-9.55980813990178
30
0
41
1
10
-6.60537114301726
20
-9.58041071809123
30
0
41
1
10
-6.68816324665249
20
-9.61793939946764
30
0
41
1
10
-6.71612194068209
20
-9.63155597329308
30
0
41
1
10
-6.75852683637152
20
-9.65384366371521
30
0
41
1
10
-6.77273953086896
20
-9.66158366211889
30
0
41
1
10
-6.80130669227492
20
-9.67772305385043
30
0
41
1
10
-6.81562917010612
20
-9.68610557380052
30
0
41
1
10
-6.88698755518945
20
-9.72939717227737
30
0
41
1
10
-6.94364208299774
20
-9.76864351059891
30
0
41
1
10
-7.054726135782
20
-9.85746294593659
30
0
41
1
10
-7.10916276451937
20
-9.90702594523867
30
0
41
1
10
-7.16170029705566
20
-9.96250000000001
30
0
0
LINE
5
83
100
AcDbEntity
8
80
62
256
6
ByLayer
370
18
48
1
60
0
100
AcDbLine
10
0
20
0
30
0
11
-5
21
0
31
0
39
0
210
0
220
0
230
1
0
LINE
5
84
100
AcDbEntity
8
81
62
256
6
ByLayer
370
18
48
1
60
0
100
AcDbLine
10
32.788352
20
10.5375
30
0
11
37.788352
21
10.5375
31
0
39
0
210
0
220
0
230
1
0
LINE
5
85
100
AcDbEntity
8
1
62
256
6
ByLayer
370
18
48
1
60
0
100
AcDbLine
10
26.685228
20
10.235587
30
0
11
26.687281
21
10.452474
31
0
39
0
210
0
220
0
230
1
0
LINE
5
86
100
AcDbEntity
8
1
62
256
6
ByLayer
370
18
48
1
60
0
100
AcDbLine
10
27.60363
20
10.235599
30
0
11
27.605634
21
10.447301
31
0
39
0
210
0
220
0
230
1
0
LINE
5
87
100
AcDbEntity
8
1
62
256
6
ByLayer
370
18
48
1
60
0
100
AcDbLine
10
31.988352
20
11.039954
30
0
11
31.988352
21
10.511437
31
0
39
0
210
0
220
0
230
1
0
LINE
5
88
100
AcDbEntity
8
1
62
256
6
ByLayer
370
18
48
1
60
0
100
AcDbLine
10
25.996153
20
14.083282
30
0
11
1.10416
21
14.083282
31
0
39
0
210
0
220
0
230
1
0
LINE
5
89
100
AcDbEntity
8
1
62
256
6
ByLayer
370
18
48
1
60
0
100
AcDbLine
10
1.10416
20
14.083282
30
0
11
0.317758
21
11.14839
31
0
39
0
210
0
220
0
230
1
0
LINE
5
8A
100
AcDbEntity
8
1
62
256
6
ByLayer
370
18
48
1
60
0
100
AcDbLine
10
21.91802
20
10.452474
30
0
11
26.687281
21
10.452474
31
0
39
0
210
0
220
0
230
1
0
LINE
5
8B
100
AcDbEntity
8
1
62
256
6
ByLayer
370
18
48
1
60
0
100
AcDbLine
10
27.605634
20
10.447301
30
0
11
30.194862
21
10.447301
31
0
39
0
210
0
220
0
230
1
0
LINE
5
8C
100
AcDbEntity
8
1
62
256
6
ByLayer
370
18
48
1
60
0
100
AcDbLine
10
0
20
10.53649
30
0
11
0
21
-9.462706
31
0
39
0
210
0
220
0
230
1
0
LINE
5
8D
100
AcDbEntity
8
1
62
256
6
ByLayer
370
18
48
1
60
0
100
AcDbLine
10
26.045614
20
7.893854
30
0
11
26.042796
21
7.886549
31
0
39
0
210
0
220
0
230
1
0
LINE
5
8E
100
AcDbEntity
8
1
62
256
6
ByLayer
370
18
48
1
60
0
100
AcDbLine
10
25.98595
20
10.232249
30
0
11
26.045317
21
10.088396
31
0
39
0
210
0
220
0
230
1
0
LINE
5
8F
100
AcDbEntity
8
1
62
256
6
ByLayer
370
13
48
1
60
0
100
AcDbLine
10
17.788352
20
8.683053
30
0
11
17.788352
21
7.890578
31
0
39
0
210
0
220
0
230
1
0
LINE
5
90
100
AcDbEntity
8
1
62
256
6
ByLayer
370
18
48
1
60
0
100
AcDbLine
10
0.173306
20
10.789767
30
0
11
15.327042
21
10.789767
31
0
39
0
210
0
220
0
230
1
0
LINE
5
91
100
AcDbEntity
8
1
62
256
6
ByLayer
370
18
48
1
60
0
100
AcDbLine
10
16.188352
20
-1.9888
30
0
11
8.221135
21
-9.462706
31
0
39
0
210
0
220
0
230
1
0
LINE
5
92
100
AcDbEntity
8
1
62
256
6
ByLayer
370
18
48
1
60
0
100
AcDbLine
10
8.221135
20
-9.462706
30
0
11
0
21
-9.462706
31
0
39
0
210
0
220
0
230
1
0
LINE
5
93
100
AcDbEntity
8
1
62
256
6
ByLayer
370
18
48
1
60
0
100
AcDbLine
10
16.188352
20
-1.9888
30
0
11
16.188352
21
6.706354
31
0
39
0
210
0
220
0
230
1
0
LINE
5
94
100
AcDbEntity
8
1
62
256
6
ByLayer
370
18
48
1
60
0
100
AcDbLine
10
16.188352
20
7.324749
30
0
11
16.188352
21
6.706354
31
0
39
0
210
0
220
0
230
1
0
LINE
5
95
100
AcDbEntity
8
1
62
256
6
ByLayer
370
13
48
1
60
0
100
AcDbLine
10
15.327042
20
7.862582
30
0
11
16.292007
21
7.862582
31
0
39
0
210
0
220
0
230
1
0
LINE
5
96
100
AcDbEntity
8
1
62
256
6
ByLayer
370
18
48
1
60
0
100
AcDbLine
10
23.038352
20
10.379908
30
0
11
23.038352
21
8.08269
31
0
39
0
210
0
220
0
230
1
0
LINE
5
97
100
AcDbEntity
8
1
62
256
6
ByLayer
370
18
48
1
60
0
100
AcDbLine
10
18.183182
20
10.789767
30
0
11
15.327042
21
10.789767
31
0
39
0
210
0
220
0
230
1
0
LINE
5
98
100
AcDbEntity
8
1
62
256
6
ByLayer
370
18
48
1
60
0
100
AcDbLine
10
15.327042
20
7.862582
30
0
11
15.327042
21
10.789767
31
0
39
0
210
0
220
0
230
1
0
LINE
5
99
100
AcDbEntity
8
1
62
256
6
ByLayer
370
18
48
1
60
0
100
AcDbLine
10
31.397363
20
10.475287
30
0
11
32.344148
21
10.533192
31
0
39
0
210
0
220
0
230
1
0
LINE
5
9A
100
AcDbEntity
8
1
62
256
6
ByLayer
370
18
48
1
60
0
100
AcDbLine
10
32.344148
20
7.541975
30
0
11
31.397363
21
7.599879
31
0
39
0
210
0
220
0
230
1
0
LINE
5
9B
100
AcDbEntity
8
1
62
256
6
ByLayer
370
18
48
1
60
0
100
AcDbLine
10
32.788342
20
10.340663
30
0
11
32.788342
21
7.734503
31
0
39
0
210
0
220
0
230
1
0
LINE
5
9C
100
AcDbEntity
8
1
62
256
6
ByLayer
370
18
48
1
60
0
100
AcDbLine
10
30.639925
20
10.473842
30
0
11
31.397363
21
10.475287
31
0
39
0
210
0
220
0
230
1
0
LINE
5
9D
100
AcDbEntity
8
1
62
256
6
ByLayer
370
18
48
1
60
0
100
AcDbLine
10
31.397363
20
7.599879
30
0
11
30.639925
21
7.591411
31
0
39
0
210
0
220
0
230
1
0
LINE
5
9E
100
AcDbEntity
8
1
62
256
6
ByLayer
370
18
48
1
60
0
100
AcDbLine
10
31.397363
20
7.599879
30
0
11
31.397363
21
10.475287
31
0
39
0
210
0
220
0
230
1
0
LINE
5
9F
100
AcDbEntity
8
1
62
256
6
ByLayer
370
13
48
1
60
0
100
AcDbLine
10
29.969692
20
9.031389
30
0
11
26.538134
21
9.031389
31
0
39
0
210
0
220
0
230
1
0
LINE
5
A0
100
AcDbEntity
8
1
62
256
6
ByLayer
370
13
48
1
60
0
100
AcDbLine
10
29.186059
20
8.832618
30
0
11
26.44804
21
8.832618
31
0
39
0
210
0
220
0
230
1
0
LINE
5
A1
100
AcDbEntity
8
1
62
256
6
ByLayer
370
13
48
1
60
0
100
AcDbLine
10
26.433845
20
9.227267
30
0
11
29.186059
21
9.227267
31
0
39
0
210
0
220
0
230
1
0
LINE
5
A2
100
AcDbEntity
8
1
62
256
6
ByLayer
370
13
48
1
60
0
100
AcDbLine
10
26.440752
20
8.829099
30
0
11
29.132766
21
8.829099
31
0
39
0
210
0
220
0
230
1
0
LINE
5
A3
100
AcDbEntity
8
1
62
256
6
ByLayer
370
13
48
1
60
0
100
AcDbLine
10
26.426675
20
9.230589
30
0
11
29.132766
21
9.230589
31
0
39
0
210
0
220
0
230
1
0
LINE
5
A4
100
AcDbEntity
8
1
62
256
6
ByLayer
370
13
48
1
60
0
100
AcDbLine
10
26.334964
20
8.777526
30
0
11
28.424604
21
8.777526
31
0
39
0
210
0
220
0
230
1
0
LINE
5
A5
100
AcDbEntity
8
1
62
256
6
ByLayer
370
13
48
1
60
0
100
AcDbLine
10
26.326862
20
9.279547
30
0
11
28.424604
21
9.279547
31
0
39
0
210
0
220
0
230
1
0
LINE
5
A6
100
AcDbEntity
8
1
62
256
6
ByLayer
370
13
48
1
60
0
100
AcDbLine
10
26.294436
20
8.659428
30
0
11
27.81252
21
8.659428
31
0
39
0
210
0
220
0
230
1
0
LINE
5
A7
100
AcDbEntity
8
1
62
256
6
ByLayer
370
18
48
1
60
0
100
AcDbLine
10
19.015865
20
7.875158
30
0
11
26.560839
21
7.875158
31
0
39
0
210
0
220
0
230
1
0
LINE
5
A8
100
AcDbEntity
8
1
62
256
6
ByLayer
370
13
48
1
60
0
100
AcDbLine
10
26.560839
20
7.999713
30
0
11
26.079965
21
7.999713
31
0
39
0
210
0
220
0
230
1
0
LINE
5
A9
100
AcDbEntity
8
1
62
256
6
ByLayer
370
13
48
1
60
0
100
AcDbLine
10
26.096038
20
8.049252
30
0
11
26.608402
21
8.049252
31
0
39
0
210
0
220
0
230
1
0
LINE
5
AA
100
AcDbEntity
8
1
62
256
6
ByLayer
370
13
48
1
60
0
100
AcDbLine
10
26.286586
20
9.395384
30
0
11
27.81252
21
9.395384
31
0
39
0
210
0
220
0
230
1
0
LINE
5
AB
100
AcDbEntity
8
1
62
256
6
ByLayer
370
13
48
1
60
0
100
AcDbLine
10
26.608402
20
10.001114
30
0
11
26.075625
21
10.001114
31
0
39
0
210
0
220
0
230
1
0
LINE
5
AC
100
AcDbEntity
8
1
62
256
6
ByLayer
370
18
48
1
60
0
100
AcDbLine
10
19.015865
20
7.875158
30
0
11
17.680225
21
7.877624
31
0
39
0
210
0
220
0
230
1
0
LINE
5
AD
100
AcDbEntity
8
1
62
256
6
ByLayer
370
18
48
1
60
0
100
AcDbLine
10
19.015865
20
7.875158
30
0
11
19.015865
21
7.889961
31
0
39
0
210
0
220
0
230
1
0
LINE
5
AE
100
AcDbEntity
8
1
62
256
6
ByLayer
370
13
48
1
60
0
100
AcDbLine
10
26.058509
20
10.050477
30
0
11
26.560839
21
10.050477
31
0
39
0
210
0
220
0
230
1
0
LINE
5
AF
100
AcDbEntity
8
1
62
256
6
ByLayer
370
13
48
1
60
0
100
AcDbLine
10
29.016413
20
10.179566
30
0
11
29.075095
21
10.181384
31
0
39
0
210
0
220
0
230
1
0
LINE
5
B0
100
AcDbEntity
8
1
62
256
6
ByLayer
370
18
48
1
60
0
100
AcDbLine
10
26.560839
20
10.175032
30
0
11
26.009467
21
10.175032
31
0
39
0
210
0
220
0
230
1
0
LINE
5
B1
100
AcDbEntity
8
1
62
256
6
ByLayer
370
18
48
1
60
0
100
AcDbLine
10
29.260817
20
10.210215
30
0
11
30.208022
21
10.450626
31
0
39
0
210
0
220
0
230
1
0
LINE
5
B2
100
AcDbEntity
8
1
62
256
6
ByLayer
370
18
48
1
60
0
100
AcDbLine
10
29.016413
20
10.179566
30
0
11
26.560839
21
10.175032
31
0
39
0
210
0
220
0
230
1
0
LINE
5
B3
100
AcDbEntity
8
1
62
256
6
ByLayer
370
18
48
1
60
0
100
AcDbLine
10
26.560839
20
10.050477
30
0
11
26.560839
21
10.175032
31
0
39
0
210
0
220
0
230
1
0
LINE
5
B4
100
AcDbEntity
8
1
62
256
6
ByLayer
370
18
48
1
60
0
100
AcDbLine
10
27.81252
20
9.395384
30
0
11
26.608402
21
10.001114
31
0
39
0
210
0
220
0
230
1
0
LINE
5
B5
100
AcDbEntity
8
1
62
256
6
ByLayer
370
18
48
1
60
0
100
AcDbLine
10
29.186059
20
9.227267
30
0
11
29.132766
21
9.230589
31
0
39
0
210
0
220
0
230
1
0
LINE
5
B6
100
AcDbEntity
8
1
62
256
6
ByLayer
370
18
48
1
60
0
100
AcDbLine
10
29.132766
20
8.829099
30
0
11
29.186059
21
8.832618
31
0
39
0
210
0
220
0
230
1
0
LINE
5
B7
100
AcDbEntity
8
1
62
256
6
ByLayer
370
18
48
1
60
0
100
AcDbLine
10
26.608402
20
8.049252
30
0
11
27.81252
21
8.659428
31
0
39
0
210
0
220
0
230
1
0
LINE
5
B8
100
AcDbEntity
8
1
62
256
6
ByLayer
370
18
48
1
60
0
100
AcDbLine
10
26.560839
20
7.875158
30
0
11
26.560839
21
7.999713
31
0
39
0
210
0
220
0
230
1
0
LINE
5
B9
100
AcDbEntity
8
1
62
256
6
ByLayer
370
18
48
1
60
0
100
AcDbLine
10
26.560839
20
7.875158
30
0
11
29.016413
21
7.879692
31
0
39
0
210
0
220
0
230
1
0
LINE
5
BA
100
AcDbEntity
8
1
62
256
6
ByLayer
370
18
48
1
60
0
100
AcDbLine
10
30.208022
20
7.613032
30
0
11
29.260817
21
7.849945
31
0
39
0
210
0
220
0
230
1
0
LINE
5
BB
100
AcDbEntity
8
1
62
256
6
ByLayer
370
18
48
1
60
0
100
AcDbLine
10
30.639925
20
7.591411
30
0
11
30.247085
21
7.607418
31
0
39
0
210
0
220
0
230
1
0
LINE
5
BC
100
AcDbEntity
8
1
62
256
6
ByLayer
370
18
48
1
60
0
100
AcDbLine
10
30.639925
20
7.591411
30
0
11
30.639925
21
10.473842
31
0
39
0
210
0
220
0
230
1
0
LINE
5
BD
100
AcDbEntity
8
1
62
256
6
ByLayer
370
18
48
1
60
0
100
AcDbLine
10
30.247085
20
10.456385
30
0
11
30.639925
21
10.473842
31
0
39
0
210
0
220
0
230
1
0
LINE
5
BE
100
AcDbEntity
8
SK1
62
256
6
ByLayer
370
18
48
1
60
0
100
AcDbLine
10
-66
20
9.9625
30
0
11
-10.837884
21
9.9625
31
0
39
0
210
0
220
0
230
1
0
LINE
5
C0
100
AcDbEntity
8
SK1
62
256
6
ByLayer
370
18
48
1
60
0
100
AcDbLine
10
-66
20
-9.9625
30
0
11
-69
21
-6.9625
31
0
39
0
210
0
220
0
230
1
0
LINE
5
C1
100
AcDbEntity
8
SK1
62
256
6
ByLayer
370
18
48
1
60
0
100
AcDbLine
10
-69
20
6.9625
30
0
11
-69
21
-6.9625
31
0
39
0
210
0
220
0
230
1
0
LINE
5
C2
100
AcDbEntity
8
SK1
62
256
6
ByLayer
370
18
48
1
60
0
100
AcDbLine
10
-66
20
9.9625
30
0
11
-69
21
6.9625
31
0
39
0
210
0
220
0
230
1
0
LINE
5
C3
100
AcDbEntity
8
SK1
62
256
6
ByLayer
370
18
48
1
60
0
100
AcDbLine
10
-66
20
-9.9625
30
0
11
-10.837884
21
-9.9625
31
0
39
0
210
0
220
0
230
1
0
LINE
5
C4
100
AcDbEntity
8
SK1
62
256
6
ByLayer
370
18
48
1
60
0
100
AcDbLine
10
-10.837884
20
9.9625
30
0
11
-5.900499
21
9.9625
31
0
39
0
210
0
220
0
230
1
0
LINE
5
C5
100
AcDbEntity
8
SK1
62
256
6
ByLayer
370
18
48
1
60
0
100
AcDbLine
10
-5.900499
20
-9.462706
30
0
11
-6
21
-9.462706
31
0
39
0
210
0
220
0
230
1
0
LINE
5
C6
100
AcDbEntity
8
SK1
62
256
6
ByLayer
370
18
48
1
60
0
100
AcDbLine
10
-10.837884
20
9.9625
30
0
11
-10.837884
21
-9.9625
31
0
39
0
210
0
220
0
230
1
0
LINE
5
C7
100
AcDbEntity
8
SK1
62
256
6
ByLayer
370
18
48
1
60
0
100
AcDbLine
10
-10.837884
20
-9.9625
30
0
11
-7.1617
21
-9.9625
31
0
39
0
210
0
220
0
230
1
0
LINE
5
C8
100
AcDbEntity
8
SK1
62
256
6
ByLayer
370
18
48
1
60
0
100
AcDbLine
10
-5.900499
20
9.9625
30
0
11
-3.747318
21
9.9625
31
0
39
0
210
0
220
0
230
1
0
LINE
5
C9
100
AcDbEntity
8
SK1
62
256
6
ByLayer
370
18
48
1
60
0
100
AcDbLine
10
-3.747318
20
-9.462706
30
0
11
-5.900499
21
-9.462706
31
0
39
0
210
0
220
0
230
1
0
LINE
5
CA
100
AcDbEntity
8
SK1
62
256
6
ByLayer
370
13
48
1
60
0
100
AcDbLine
10
-5.900499
20
-9.462706
30
0
11
-5.900499
21
9.9625
31
0
39
0
210
0
220
0
230
1
0
LINE
5
CB
100
AcDbEntity
8
SK1
62
256
6
ByLayer
370
18
48
1
60
0
100
AcDbLine
10
0
20
10.53649
30
0
11
0
21
-9.462706
31
0
39
0
210
0
220
0
230
1
0
LINE
5
CC
100
AcDbEntity
8
SK1
62
256
6
ByLayer
370
18
48
1
60
0
100
AcDbLine
10
-3.747318
20
9.9625
30
0
11
-1.227723
21
9.9625
31
0
39
0
210
0
220
0
230
1
0
LINE
5
CD
100
AcDbEntity
8
SK1
62
256
6
ByLayer
370
18
48
1
60
0
100
AcDbLine
10
-3.747318
20
9.9625
30
0
11
-3.747318
21
-9.462706
31
0
39
0
210
0
220
0
230
1
0
LINE
5
CE
100
AcDbEntity
8
SK1
62
256
6
ByLayer
370
18
48
1
60
0
100
AcDbLine
10
0
20
-9.462706
30
0
11
-3.747318
21
-9.462706
31
0
39
0
210
0
220
0
230
1
0
MTEXT
5
120
100
AcDbEntity
8
SK6
62
256
6
ByLayer
370
18
48
1
60
0
100
AcDbMText
10
-50.420324
20
-52.22181
30
0
210
0
220
0
230
1
1
\W0.7699;C2A-QS20-RFG15B-067CB
40
3.5
41
0
44
1.084337
50
0
71
7
72
5
7
iso_b_vert
0
DIMENSION
5
125
100
AcDbEntity
8
2
62
256
6
ByLayer
370
18
48
1
60
0
100
AcDbDimension
2
_U0
10
65.888352
20
-9.9625
30
0
11
65.888352
21
0.2875
31
0
70
32
71
1
72
1
41
1
210
0
220
0
230
1
3
Standard
100
AcDbAlignedDimension
13
32.788352
23
10.5375
33
0
14
0
24
-9.9625
34
0
50
90
100
AcDbRotatedDimension
1001
ACAD
1000
DSTYLE
1002
{
1070
   371
1070
    13
1070
   372
1070
    13
1070
   170
1070
     0
1070
   144
1040
1.0
1070
   277
1070
     2
1070
   284
1070
     8
1070
   278
1070
    46
1070
   146
1040
1.0
1070
   345
1005
16
1070
   347
1005
16
1070
   346
1005
16
1070
   344
1005
0
1070
   343
1005
0
1070
   172
1070
     1
1070
    76
1070
     0
1070
    75
1070
     0
1070
   282
1070
     0
1070
   281
1070
     0
1070
    71
1070
     0
1070
    74
1070
     0
1070
   279
1070
     0
1070
   173
1070
     1
1070
   340
1005
121
1070
   271
1070
     2
1070
   272
1070
     2
1070
    77
1070
     1
1070
    73
1070
     0
1070
   171
1070
     3
1070
   274
1070
     4
1070
   177
1070
     2
1070
   176
1070
     2
1070
   178
1070
     2
1070
    78
1070
     8
1070
    48
1040
-0.1
1070
    41
1040
3.5
1070
   147
1040
1.75
1070
    42
1040
1.5875
1070
    44
1040
2.0
1070
   140
1040
3.5
1002
}
1001
ACAD_DSTYLE_DIM_LINETYPE
1070
   380
1005
16
1001
ACAD_DSTYLE_DIM_EXT1_LINETYPE
1070
   381
1005
16
1001
ACAD_DSTYLE_DIM_EXT2_LINETYPE
1070
   382
1005
16
0
DIMENSION
5
13F
100
AcDbEntity
8
2
62
256
6
ByLayer
370
18
48
1
60
0
100
AcDbDimension
2
_U1
10
53.888352
20
10.5375
30
0
11
53.888352
21
9.0375
31
0
70
32
71
1
72
1
41
1
210
0
220
0
230
1
3
Standard
100
AcDbAlignedDimension
13
32.788352
23
7.5375
33
0
14
32.788352
24
10.5375
34
0
50
90
100
AcDbRotatedDimension
1001
ACAD
1000
DSTYLE
1002
{
1070
   371
1070
    13
1070
   372
1070
    13
1070
   170
1070
     0
1070
   144
1040
1.0
1070
   277
1070
     2
1070
   284
1070
     8
1070
   278
1070
    46
1070
   146
1040
1.0
1070
   345
1005
16
1070
   347
1005
16
1070
   346
1005
16
1070
   344
1005
0
1070
   343
1005
0
1070
   172
1070
     1
1070
    76
1070
     0
1070
    75
1070
     0
1070
   282
1070
     0
1070
   281
1070
     0
1070
    71
1070
     0
1070
    74
1070
     0
1070
   279
1070
     0
1070
   173
1070
     1
1070
   340
1005
121
1070
   271
1070
     2
1070
   272
1070
     2
1070
    77
1070
     1
1070
    73
1070
     0
1070
   171
1070
     3
1070
   274
1070
     4
1070
   177
1070
     2
1070
   176
1070
     2
1070
   178
1070
     2
1070
    78
1070
     8
1070
    48
1040
-0.1
1070
    41
1040
3.5
1070
   147
1040
1.75
1070
    42
1040
1.5875
1070
    44
1040
2.0
1070
   140
1040
3.5
1002
}
1001
ACAD_DSTYLE_DIM_LINETYPE
1070
   380
1005
16
1001
ACAD_DSTYLE_DIM_EXT1_LINETYPE
1070
   381
1005
16
1001
ACAD_DSTYLE_DIM_EXT2_LINETYPE
1070
   382
1005
16
0
DIMENSION
5
158
100
AcDbEntity
8
SK2
62
256
6
ByLayer
370
18
48
1
60
0
100
AcDbDimension
2
_U2
10
-80.6
20
10.0375
30
0
11
-80.6
21
0.0375
31
0
70
32
71
1
72
1
41
1
210
0
220
0
230
1
3
Standard
100
AcDbAlignedDimension
13
0
23
-9.9625
33
0
14
0
24
10.0375
34
0
50
90
100
AcDbRotatedDimension
1001
ACAD
1000
DSTYLE
1002
{
1070
   371
1070
    13
1070
   372
1070
    13
1070
   170
1070
     0
1070
   144
1040
1.0
1070
   277
1070
     2
1070
   284
1070
     8
1070
   278
1070
    46
1070
   146
1040
1.0
1070
   345
1005
16
1070
   347
1005
16
1070
   346
1005
16
1070
   344
1005
0
1070
   343
1005
0
1070
   172
1070
     1
1070
    76
1070
     0
1070
    75
1070
     0
1070
   282
1070
     0
1070
   281
1070
     0
1070
    71
1070
     0
1070
    74
1070
     0
1070
   279
1070
     0
1070
   173
1070
     1
1070
   340
1005
121
1070
   271
1070
     2
1070
   272
1070
     2
1070
    77
1070
     1
1070
    73
1070
     0
1070
   171
1070
     3
1070
   274
1070
     4
1070
   177
1070
     2
1070
   176
1070
     2
1070
   178
1070
     2
1070
    78
1070
     8
1070
    48
1040
-0.1
1070
    41
1040
3.5
1070
   147
1040
1.75
1070
    42
1040
1.5875
1070
    44
1040
2.0
1070
   140
1040
3.5
1002
}
1001
ACAD_DSTYLE_DIM_LINETYPE
1070
   380
1005
16
1001
ACAD_DSTYLE_DIM_EXT1_LINETYPE
1070
   381
1005
16
1001
ACAD_DSTYLE_DIM_EXT2_LINETYPE
1070
   382
1005
16
0
DIMENSION
5
171
100
AcDbEntity
8
2
62
256
6
ByLayer
370
18
48
1
60
0
100
AcDbDimension
2
_U3
10
32.788352
20
-19.7125
30
0
11
25.288352
21
-19.7125
31
0
70
32
71
1
72
1
41
1
210
0
220
0
230
1
3
Standard
100
AcDbAlignedDimension
13
17.788352
23
7.862582
33
0
14
32.788352
24
10.5375
34
0
50
0
100
AcDbRotatedDimension
1001
ACAD
1000
DSTYLE
1002
{
1070
   371
1070
    13
1070
   372
1070
    13
1070
   170
1070
     0
1070
   144
1040
1.0
1070
   277
1070
     2
1070
   284
1070
     8
1070
   278
1070
    46
1070
   146
1040
1.0
1070
   345
1005
16
1070
   347
1005
16
1070
   346
1005
16
1070
   344
1005
0
1070
   343
1005
0
1070
   172
1070
     1
1070
    76
1070
     0
1070
    75
1070
     0
1070
   282
1070
     0
1070
   281
1070
     0
1070
    71
1070
     0
1070
    74
1070
     0
1070
   279
1070
     0
1070
   173
1070
     1
1070
   340
1005
121
1070
   271
1070
     1
1070
   272
1070
     2
1070
    77
1070
     1
1070
    73
1070
     1
1070
   171
1070
     3
1070
   274
1070
     4
1070
   177
1070
     2
1070
   176
1070
     2
1070
   178
1070
     2
1070
    78
1070
     8
1070
    48
1040
-0.1
1070
    41
1040
3.5
1070
   147
1040
1.75
1070
    42
1040
1.5875
1070
    44
1040
2.0
1070
   140
1040
3.5
1002
}
1001
ACAD_DSTYLE_DIM_LINETYPE
1070
   380
1005
16
1001
ACAD_DSTYLE_DIM_EXT1_LINETYPE
1070
   381
1005
16
1001
ACAD_DSTYLE_DIM_EXT2_LINETYPE
1070
   382
1005
16
0
DIMENSION
5
18A
100
AcDbEntity
8
SK2
62
256
6
ByLayer
370
18
48
1
60
0
100
AcDbDimension
2
_U4
10
32.788352
20
-35.7125
30
0
11
-18.105824
21
-35.7125
31
0
70
32
71
1
72
1
41
1
210
0
220
0
230
1
3
Standard
100
AcDbAlignedDimension
13
-69
23
-9.9625
33
0
14
32.788352
24
10.5375
34
0
50
0
100
AcDbRotatedDimension
1001
ACAD
1000
DSTYLE
1002
{
1070
   371
1070
    13
1070
   372
1070
    13
1070
   170
1070
     0
1070
   144
1040
1.0
1070
   277
1070
     2
1070
   284
1070
     8
1070
   278
1070
    46
1070
   146
1040
1.0
1070
   345
1005
16
1070
   347
1005
16
1070
   346
1005
16
1070
   344
1005
0
1070
   343
1005
0
1070
   172
1070
     1
1070
    76
1070
     0
1070
    75
1070
     0
1070
   282
1070
     0
1070
   281
1070
     0
1070
    71
1070
     0
1070
    74
1070
     0
1070
   279
1070
     0
1070
   173
1070
     1
1070
   340
1005
121
1070
   271
1070
     1
1070
   272
1070
     2
1070
    77
1070
     1
1070
    73
1070
     1
1070
   171
1070
     3
1070
   274
1070
     4
1070
   177
1070
     2
1070
   176
1070
     2
1070
   178
1070
     2
1070
    78
1070
     8
1070
    48
1040
-0.1
1070
    41
1040
3.5
1070
   147
1040
1.75
1070
    42
1040
1.5875
1070
    44
1040
2.0
1070
   140
1040
3.5
1002
}
1001
ACAD_DSTYLE_DIM_LINETYPE
1070
   380
1005
16
1001
ACAD_DSTYLE_DIM_EXT1_LINETYPE
1070
   381
1005
16
1001
ACAD_DSTYLE_DIM_EXT2_LINETYPE
1070
   382
1005
16
0
DIMENSION
5
1A2
100
AcDbEntity
8
2
62
256
6
ByLayer
370
18
48
1
60
0
100
AcDbDimension
2
_U5
10
32.788352
20
-27.7125
30
0
11
16.394176
21
-27.7125
31
0
70
32
71
1
72
1
41
1
210
0
220
0
230
1
3
Standard
100
AcDbAlignedDimension
13
0
23
-9.9625
33
0
14
32.788352
24
10.5375
34
0
50
0
100
AcDbRotatedDimension
1001
ACAD
1000
DSTYLE
1002
{
1070
   371
1070
    13
1070
   372
1070
    13
1070
   170
1070
     0
1070
   144
1040
1.0
1070
   277
1070
     2
1070
   284
1070
     8
1070
   278
1070
    46
1070
   146
1040
1.0
1070
   345
1005
16
1070
   347
1005
16
1070
   346
1005
16
1070
   344
1005
0
1070
   343
1005
0
1070
   172
1070
     1
1070
    76
1070
     0
1070
    75
1070
     0
1070
   282
1070
     0
1070
   281
1070
     0
1070
    71
1070
     0
1070
    74
1070
     0
1070
   279
1070
     0
1070
   173
1070
     1
1070
   340
1005
121
1070
   271
1070
     1
1070
   272
1070
     2
1070
    77
1070
     1
1070
    73
1070
     1
1070
   171
1070
     3
1070
   274
1070
     4
1070
   177
1070
     2
1070
   176
1070
     2
1070
   178
1070
     2
1070
    78
1070
     8
1070
    48
1040
-0.1
1070
    41
1040
3.5
1070
   147
1040
1.75
1070
    42
1040
1.5875
1070
    44
1040
2.0
1070
   140
1040
3.5
1002
}
1001
ACAD_DSTYLE_DIM_LINETYPE
1070
   380
1005
16
1001
ACAD_DSTYLE_DIM_EXT1_LINETYPE
1070
   381
1005
16
1001
ACAD_DSTYLE_DIM_EXT2_LINETYPE
1070
   382
1005
16
0
DIMENSION
5
1BA
100
AcDbEntity
8
SK2
62
256
6
ByLayer
370
18
48
1
60
0
100
AcDbDimension
2
_U6
10
-66
20
-19.7125
30
0
11
-67.5
21
-19.7125
31
0
70
32
71
1
72
1
41
1
210
0
220
0
230
1
3
Standard
100
AcDbAlignedDimension
13
-69
23
-9.9625
33
0
14
-66
24
-9.9625
34
0
50
0
100
AcDbRotatedDimension
1001
ACAD
1000
DSTYLE
1002
{
1070
   371
1070
    13
1070
   372
1070
    13
1070
   170
1070
     0
1070
   144
1040
1.0
1070
   277
1070
     2
1070
   284
1070
     8
1070
   278
1070
    46
1070
   146
1040
1.0
1070
   345
1005
16
1070
   347
1005
16
1070
   346
1005
16
1070
   344
1005
0
1070
   343
1005
0
1070
   172
1070
     1
1070
    76
1070
     0
1070
    75
1070
     0
1070
   282
1070
     0
1070
   281
1070
     0
1070
    71
1070
     0
1070
    74
1070
     0
1070
   279
1070
     0
1070
   173
1070
     1
1070
   340
1005
121
1070
   271
1070
     2
1070
   272
1070
     2
1070
    77
1070
     1
1070
    73
1070
     1
1070
   171
1070
     3
1070
   274
1070
     4
1070
   177
1070
     2
1070
   176
1070
     2
1070
   178
1070
     2
1070
    78
1070
     8
1070
    48
1040
-0.1
1070
    41
1040
3.5
1070
   147
1040
1.75
1070
    42
1040
1.5875
1070
    44
1040
2.0
1070
   140
1040
3.5
1002
}
1001
ACAD_DSTYLE_DIM_LINETYPE
1070
   380
1005
16
1001
ACAD_DSTYLE_DIM_EXT1_LINETYPE
1070
   381
1005
16
1001
ACAD_DSTYLE_DIM_EXT2_LINETYPE
1070
   382
1005
16
0
ENDSEC
0
SECTION
2
OBJECTS
0
DICTIONARY
5
242
330
0
100
AcDbDictionary
280
0
281
1
3
ACAD_GROUP
350
243
3
ACAD_MLINESTYLE
350
244
0
DICTIONARY
5
243
330
0
100
AcDbDictionary
280
0
281
1
0
DICTIONARY
5
244
330
0
100
AcDbDictionary
280
0
281
1
3
Standard
350
18
0
MLINESTYLE
5
18
330
244
100
AcDbMlineStyle
2
Standard
70
0
3

62
256
51
90
52
90
71
2
49
-0.5
62
256
6
ByLayer
49
0.5
62
256
6
ByLayer
0
RASTERVARIABLES
5
231
330

100
AcDbRasterVariables
90
0
70
1
71
1
72
1
0
ENDSEC
0
EOF
