0
SECTION
2
HEADER
9
$ACADVER
1
AC1015
9
$DWGCODEPAGE
3
ANSI_1252
9
$HANDSEED
5
24f
9
$ANGBASE
50
0
9
$ANGDIR
70
0
9
$ATTMODE
70
1
9
$AUNITS
70
0
9
$AUPREC
70
0
9
$CECOLOR
62
256
9
$CELTSCALE
40
1
9
$CELTYPE
6
ByLayer
9
$CELWEIGHT
370
18
9
$CLAYER
8
0
9
$CMLJUST
70
0
9
$CMLSCALE
40
1
9
$CMLSTYLE
2
Standard
9
$DIMSTYLE
2
Standard
9
$TEXTSIZE
40
0.2
9
$TEXTSTYLE
7
Standard
9
$LUNITS
70
2
9
$LUPREC
70
4
9
$EXTNAMES
290
1
9
$INSUNITS
70
4
9
$LTSCALE
40
1
9
$LWDISPLAY
290
1
9
$PDMODE
70
0
9
$PDSIZE
40
0
9
$PLINEGEN
70
0
0
ENDSEC
0
SECTION
2
CLASSES
0
CLASS
1
RASTERVARIABLES
2
AcDbRasterVariables
3
ISM
90
0
280
0
281
0
0
ENDSEC
0
SECTION
2
TABLES
0
TABLE
2
VPORT
5
245
100
AcDbSymbolTable
0
VPORT
5
1
100
AcDbSymbolTableRecord
100
AcDbViewportTableRecord
2
*Active
70
0
10
0
20
0
11
1
21
1
12
-1
22
1
13
0
23
0
14
0.5
24
0.5
15
10
25
10
16
0
26
0
36
1
17
0
27
0
37
0
0
ENDTAB
0
TABLE
2
LTYPE
5
246
100
AcDbSymbolTable
0
LTYPE
5
14
100
AcDbSymbolTableRecord
100
AcDbLinetypeTableRecord
70
0
2
ByBlock
3

72
65
73
0
40
0
0
LTYPE
5
15
100
AcDbSymbolTableRecord
100
AcDbLinetypeTableRecord
70
0
2
ByLayer
3

72
65
73
0
40
0
0
LTYPE
5
16
100
AcDbSymbolTableRecord
100
AcDbLinetypeTableRecord
70
0
2
Continuous
3
Solid line
72
65
73
0
40
0
0
LTYPE
5
6E
100
AcDbSymbolTableRecord
100
AcDbLinetypeTableRecord
70
0
2
CENTER
3
____ _ ____ _ ____ _ ____
72
65
73
4
40
47.5
49
22
74
0
49
-8.5
74
0
49
8.5
74
0
49
-8.5
74
0
0
LTYPE
5
6F
100
AcDbSymbolTableRecord
100
AcDbLinetypeTableRecord
70
0
2
DASHED
3
__ __ __ __ __ __ __ __ __
72
65
73
2
40
25.72
49
12.86
74
0
49
-12.86
74
0
0
ENDTAB
0
TABLE
2
LAYER
5
247
100
AcDbSymbolTable
0
LAYER
5
10
100
AcDbSymbolTableRecord
100
AcDbLayerTableRecord
2
0
70
0
62
7
6
Continuous
290
1
370
-3
390
0
0
LAYER
5
71
100
AcDbSymbolTableRecord
100
AcDbLayerTableRecord
2
81
70
0
62
-3
6
Continuous
290
1
370
-3
390
0
0
LAYER
5
73
100
AcDbSymbolTableRecord
100
AcDbLayerTableRecord
2
80
70
0
62
-6
6
Continuous
290
1
370
-3
390
0
0
LAYER
5
75
100
AcDbSymbolTableRecord
100
AcDbLayerTableRecord
2
1
70
0
62
4
6
Continuous
290
1
370
-3
390
0
0
LAYER
5
157
100
AcDbSymbolTableRecord
100
AcDbLayerTableRecord
2
Defpoints
70
0
62
7
6
Continuous
290
0
370
-3
390
0
0
LAYER
5
165
100
AcDbSymbolTableRecord
100
AcDbLayerTableRecord
2
2
70
0
62
7
6
Continuous
290
1
370
-3
390
0
0
LAYER
5
232
100
AcDbSymbolTableRecord
100
AcDbLayerTableRecord
2
SK1
70
0
62
4
6
Continuous
290
1
370
-3
390
0
0
LAYER
5
233
100
AcDbSymbolTableRecord
100
AcDbLayerTableRecord
2
SK6
70
0
62
5
6
Continuous
290
1
370
-3
390
0
0
LAYER
5
234
100
AcDbSymbolTableRecord
100
AcDbLayerTableRecord
2
SK2
70
0
62
7
6
Continuous
290
1
370
-3
390
0
0
ENDTAB
0
TABLE
2
STYLE
5
248
100
AcDbSymbolTable
0
STYLE
5
11
100
AcDbSymbolTableRecord
100
AcDbTextStyleTableRecord
2
Standard
3
txt
70
0
71
0
40
0
41
1
42
0
50
0
0
STYLE
5
150
100
AcDbSymbolTableRecord
100
AcDbTextStyleTableRecord
2
iso_b_vert
3
simplex.shx
70
0
71
0
40
0
41
1
42
0
50
0
0
STYLE
5
151
100
AcDbSymbolTableRecord
100
AcDbTextStyleTableRecord
2
DWGDirectTextStyle
3
simplex
70
0
71
0
40
0
41
1
42
0
50
0
0
ENDTAB
0
TABLE
2
DIMSTYLE
5
249
100
AcDbSymbolTable
100
AcDbDimStyleTable
0
DIMSTYLE
105
27
100
AcDbSymbolTableRecord
100
AcDbDimStyleTableRecord
2
Standard
70
0
3
<>
41
0.18
42
0.0625
44
0.18
140
0.18
147
0.09
73
0
74
0
77
1
271
2
275
0
278
52
280
0
340
11
0
ENDTAB
0
TABLE
2
VIEW
5
24a
100
AcDbSymbolTable
0
ENDTAB
0
TABLE
2
UCS
5
24b
100
AcDbSymbolTable
0
ENDTAB
0
TABLE
2
APPID
5
24c
100
AcDbSymbolTable
0
APPID
5
12
100
AcDbSymbolTableRecord
100
AcDbRegAppTableRecord
2
ACAD
70
0
0
APPID
5
153
100
AcDbSymbolTableRecord
100
AcDbRegAppTableRecord
2
ACAD_DSTYLE_DIMBREAK
70
0
0
APPID
5
1F1
100
AcDbSymbolTableRecord
100
AcDbRegAppTableRecord
2
ACAD_DSTYLE_DIM_LINETYPE
70
0
0
APPID
5
1F2
100
AcDbSymbolTableRecord
100
AcDbRegAppTableRecord
2
ACAD_DSTYLE_DIM_EXT1_LINETYPE
70
0
0
APPID
5
1F3
100
AcDbSymbolTableRecord
100
AcDbRegAppTableRecord
2
ACAD_DSTYLE_DIM_EXT2_LINETYPE
70
0
0
APPID
5
22E
100
AcDbSymbolTableRecord
100
AcDbRegAppTableRecord
2
ACAD_MLEADERVER
70
0
0
ENDTAB
0
TABLE
2
BLOCK_RECORD
5
24d
100
AcDbSymbolTable
0
BLOCK_RECORD
5
1F
100
AcDbSymbolTableRecord
100
AcDbBlockTableRecord
2
*Model_Space
340
0
70
0
0
BLOCK_RECORD
5
1B
100
AcDbSymbolTableRecord
100
AcDbBlockTableRecord
2
*Paper_Space
340
0
70
0
0
BLOCK_RECORD
5
23
100
AcDbSymbolTableRecord
100
AcDbBlockTableRecord
2
*Paper_Space0
340
0
70
0
0
BLOCK_RECORD
5
158
100
AcDbSymbolTableRecord
100
AcDbBlockTableRecord
2
*D1
340
0
70
0
0
BLOCK_RECORD
5
166
100
AcDbSymbolTableRecord
100
AcDbBlockTableRecord
2
_U0
340
0
70
0
0
BLOCK_RECORD
5
172
100
AcDbSymbolTableRecord
100
AcDbBlockTableRecord
2
*D3
340
0
70
0
0
BLOCK_RECORD
5
17F
100
AcDbSymbolTableRecord
100
AcDbBlockTableRecord
2
_U1
340
0
70
0
0
BLOCK_RECORD
5
18B
100
AcDbSymbolTableRecord
100
AcDbBlockTableRecord
2
*D5
340
0
70
0
0
BLOCK_RECORD
5
199
100
AcDbSymbolTableRecord
100
AcDbBlockTableRecord
2
_U2
340
0
70
0
0
BLOCK_RECORD
5
1A5
100
AcDbSymbolTableRecord
100
AcDbBlockTableRecord
2
*D7
340
0
70
0
0
BLOCK_RECORD
5
1B2
100
AcDbSymbolTableRecord
100
AcDbBlockTableRecord
2
_U3
340
0
70
0
0
BLOCK_RECORD
5
1BE
100
AcDbSymbolTableRecord
100
AcDbBlockTableRecord
2
*D9
340
0
70
0
0
BLOCK_RECORD
5
1CA
100
AcDbSymbolTableRecord
100
AcDbBlockTableRecord
2
_U4
340
0
70
0
0
ENDTAB
0
ENDSEC
0
SECTION
2
BLOCKS
0
BLOCK
5
20
100
AcDbEntity
8
0
100
AcDbBlockBegin
2
*Model_Space
70
0
10
0
20
0
30
0
3
*Model_Space
0
ENDBLK
5
21
100
AcDbEntity
8
0
100
AcDbBlockEnd
0
BLOCK
5
1C
100
AcDbEntity
8
0
100
AcDbBlockBegin
2
*Paper_Space
70
0
10
0
20
0
30
0
3
*Paper_Space
0
ENDBLK
5
1D
100
AcDbEntity
8
0
100
AcDbBlockEnd
0
BLOCK
5
24
100
AcDbEntity
8
0
100
AcDbBlockBegin
2
*Paper_Space0
70
0
10
0
20
0
30
0
3
*Paper_Space0
0
ENDBLK
5
25
100
AcDbEntity
8
0
100
AcDbBlockEnd
0
BLOCK
5
159
100
AcDbEntity
8
0
100
AcDbBlockBegin
2
*D1
70
1
10
0
20
0
30
0
3
*D1
0
LINE
5
15B
100
AcDbEntity
8
0
62
256
6
ByLayer
370
-2
48
1
60
0
100
AcDbLine
10
28.1875
20
6.05
30
0
11
56.35
21
6.05
31
0
39
0
210
0
220
0
230
1
0
LINE
5
15C
100
AcDbEntity
8
0
62
256
6
ByLayer
370
-2
48
1
60
0
100
AcDbLine
10
-96.8125
20
-5.95
30
0
11
56.35
21
-5.95
31
0
39
0
210
0
220
0
230
1
0
LINE
5
15D
100
AcDbEntity
8
0
62
256
6
ByLayer
370
-2
48
1
60
0
100
AcDbLine
10
54.35
20
9.55
30
0
11
54.35
21
13.05
31
0
39
0
210
0
220
0
230
1
0
LINE
5
15E
100
AcDbEntity
8
0
62
256
6
ByLayer
370
-2
48
1
60
0
100
AcDbLine
10
54.35
20
-9.45
30
0
11
54.35
21
-12.95
31
0
39
0
210
0
220
0
230
1
0
SOLID
5
15F
100
AcDbEntity
8
0
62
256
6
ByLayer
370
-1
48
1
60
0
100
AcDbTrace
10
53.766667
20
9.55
30
0
11
54.933333
21
9.55
31
0
12
54.35
22
6.05
32
0
13
54.35
23
6.05
33
0
39
0
210
0
220
0
230
1
0
SOLID
5
160
100
AcDbEntity
8
0
62
256
6
ByLayer
370
-1
48
1
60
0
100
AcDbTrace
10
54.933333
20
-9.45
30
0
11
53.766667
21
-9.45
31
0
12
54.35
22
-5.95
32
0
13
54.35
23
-5.95
33
0
39
0
210
0
220
0
230
1
0
MTEXT
5
161
100
AcDbEntity
8
0
62
256
6
ByLayer
370
18
48
1
60
0
100
AcDbMText
10
47.35
20
0.05
30
0
210
0
220
0
230
1
1
\A1;12
40
3.5
41
0
44
1
50
90
71
5
72
5
7
iso_b_vert
0
POINT
5
162
100
AcDbEntity
8
Defpoints
62
0
6
ByLayer
370
-1
48
1
60
0
100
AcDbPoint
10
26.6
20
6.05
30
0
39
0
210
0
220
0
230
1
50
360
0
POINT
5
163
100
AcDbEntity
8
Defpoints
62
0
6
ByLayer
370
-1
48
1
60
0
100
AcDbPoint
10
-98.4
20
-5.95
30
0
39
0
210
0
220
0
230
1
50
360
0
POINT
5
164
100
AcDbEntity
8
Defpoints
62
0
6
ByLayer
370
-1
48
1
60
0
100
AcDbPoint
10
54.35
20
-5.95
30
0
39
0
210
0
220
0
230
1
50
360
0
ENDBLK
5
15A
100
AcDbEntity
8
0
100
AcDbBlockEnd
0
BLOCK
5
16D
100
AcDbEntity
8
0
100
AcDbBlockBegin
2
_U0
70
0
10
0
20
0
30
0
3
_U0
0
MTEXT
5
167
100
AcDbEntity
8
2
62
256
6
ByLayer
370
18
48
1
60
0
100
AcDbMText
10
53.660366
20
-1.445533
30
0
210
0
220
0
230
1
1
\W0.5321;12
40
3.5
41
0
44
1.084337
50
90
71
7
72
5
7
iso_b_vert
0
LINE
5
168
100
AcDbEntity
8
2
62
256
6
ByLayer
370
13
48
1
60
0
100
AcDbLine
10
28.1875
20
6.05
30
0
11
56.35
21
6.05
31
0
39
0
210
0
220
0
230
1
0
LINE
5
169
100
AcDbEntity
8
2
62
256
6
ByLayer
370
13
48
1
60
0
100
AcDbLine
10
-96.8125
20
-5.95
30
0
11
56.35
21
-5.95
31
0
39
0
210
0
220
0
230
1
0
LINE
5
16A
100
AcDbEntity
8
2
62
256
6
ByLayer
370
13
48
1
60
0
100
AcDbLine
10
54.35
20
6.05
30
0
11
54.35
21
-5.95
31
0
39
0
210
0
220
0
230
1
0
SOLID
5
16B
100
AcDbEntity
8
2
62
256
6
ByLayer
370
18
48
1
60
0
100
AcDbTrace
10
54.35
20
6.05
30
0
11
54.810784
21
2.550002
31
0
12
53.889216
22
2.549998
32
0
13
53.889216
23
2.549998
33
0
39
0
210
0
220
0
230
1
0
SOLID
5
16C
100
AcDbEntity
8
2
62
256
6
ByLayer
370
18
48
1
60
0
100
AcDbTrace
10
54.35
20
-5.95
30
0
11
53.889216
21
-2.450002
31
0
12
54.810784
22
-2.449998
32
0
13
54.810784
23
-2.449998
33
0
39
0
210
0
220
0
230
1
0
ENDBLK
5
16E
100
AcDbEntity
8
0
100
AcDbBlockEnd
0
BLOCK
5
173
100
AcDbEntity
8
0
100
AcDbBlockBegin
2
*D3
70
1
10
0
20
0
30
0
3
*D3
0
LINE
5
175
100
AcDbEntity
8
0
62
256
6
ByLayer
370
-2
48
1
60
0
100
AcDbLine
10
28.1875
20
3.55
30
0
11
48.693148
21
3.55
31
0
39
0
210
0
220
0
230
1
0
LINE
5
176
100
AcDbEntity
8
0
62
256
6
ByLayer
370
-2
48
1
60
0
100
AcDbLine
10
28.1875
20
6.05
30
0
11
48.693148
21
6.05
31
0
39
0
210
0
220
0
230
1
0
LINE
5
177
100
AcDbEntity
8
0
62
256
6
ByLayer
370
-2
48
1
60
0
100
AcDbLine
10
46.693148
20
0.05
30
0
11
46.693148
21
-3.45
31
0
39
0
210
0
220
0
230
1
0
LINE
5
178
100
AcDbEntity
8
0
62
256
6
ByLayer
370
-2
48
1
60
0
100
AcDbLine
10
46.693148
20
9.55
30
0
11
46.693148
21
13.05
31
0
39
0
210
0
220
0
230
1
0
SOLID
5
179
100
AcDbEntity
8
0
62
256
6
ByLayer
370
-1
48
1
60
0
100
AcDbTrace
10
47.276481
20
0.05
30
0
11
46.109814
21
0.05
31
0
12
46.693148
22
3.55
32
0
13
46.693148
23
3.55
33
0
39
0
210
0
220
0
230
1
0
SOLID
5
17A
100
AcDbEntity
8
0
62
256
6
ByLayer
370
-1
48
1
60
0
100
AcDbTrace
10
46.109814
20
9.55
30
0
11
47.276481
21
9.55
31
0
12
46.693148
22
6.05
32
0
13
46.693148
23
6.05
33
0
39
0
210
0
220
0
230
1
0
MTEXT
5
17B
100
AcDbEntity
8
0
62
256
6
ByLayer
370
18
48
1
60
0
100
AcDbMText
10
39.693148
20
4.8
30
0
210
0
220
0
230
1
1
\A1;2.5
40
3.5
41
0
44
1
50
90
71
5
72
5
7
iso_b_vert
0
POINT
5
17C
100
AcDbEntity
8
Defpoints
62
0
6
ByLayer
370
-1
48
1
60
0
100
AcDbPoint
10
26.6
20
3.55
30
0
39
0
210
0
220
0
230
1
50
360
0
POINT
5
17D
100
AcDbEntity
8
Defpoints
62
0
6
ByLayer
370
-1
48
1
60
0
100
AcDbPoint
10
26.6
20
6.05
30
0
39
0
210
0
220
0
230
1
50
360
0
POINT
5
17E
100
AcDbEntity
8
Defpoints
62
0
6
ByLayer
370
-1
48
1
60
0
100
AcDbPoint
10
46.693148
20
6.05
30
0
39
0
210
0
220
0
230
1
50
360
0
ENDBLK
5
174
100
AcDbEntity
8
0
100
AcDbBlockEnd
0
BLOCK
5
186
100
AcDbEntity
8
0
100
AcDbBlockBegin
2
_U1
70
0
10
0
20
0
30
0
3
_U1
0
MTEXT
5
180
100
AcDbEntity
8
2
62
256
6
ByLayer
370
18
48
1
60
0
100
AcDbMText
10
46.003514
20
2.158034
30
0
210
0
220
0
230
1
1
\W0.7121;2.5
40
3.5
41
0
44
1.084337
50
90
71
7
72
5
7
iso_b_vert
0
LINE
5
181
100
AcDbEntity
8
2
62
256
6
ByLayer
370
13
48
1
60
0
100
AcDbLine
10
28.1875
20
3.55
30
0
11
48.693148
21
3.55
31
0
39
0
210
0
220
0
230
1
0
LINE
5
182
100
AcDbEntity
8
2
62
256
6
ByLayer
370
13
48
1
60
0
100
AcDbLine
10
28.1875
20
6.05
30
0
11
48.693148
21
6.05
31
0
39
0
210
0
220
0
230
1
0
LINE
5
183
100
AcDbEntity
8
2
62
256
6
ByLayer
370
13
48
1
60
0
100
AcDbLine
10
46.693148
20
-5.2
30
0
11
46.693148
21
14.8
31
0
39
0
210
0
220
0
230
1
0
SOLID
5
184
100
AcDbEntity
8
2
62
256
6
ByLayer
370
18
48
1
60
0
100
AcDbTrace
10
46.693148
20
3.55
30
0
11
47.153931
21
0.050002
31
0
12
46.232364
22
0.049998
32
0
13
46.232364
23
0.049998
33
0
39
0
210
0
220
0
230
1
0
SOLID
5
185
100
AcDbEntity
8
2
62
256
6
ByLayer
370
18
48
1
60
0
100
AcDbTrace
10
46.693148
20
6.05
30
0
11
46.232364
21
9.549998
31
0
12
47.153931
22
9.550002
32
0
13
47.153931
23
9.550002
33
0
39
0
210
0
220
0
230
1
0
ENDBLK
5
187
100
AcDbEntity
8
0
100
AcDbBlockEnd
0
BLOCK
5
18C
100
AcDbEntity
8
0
100
AcDbBlockBegin
2
*D5
70
1
10
0
20
0
30
0
3
*D5
0
LINE
5
18E
100
AcDbEntity
8
0
62
256
6
ByLayer
370
-2
48
1
60
0
100
AcDbLine
10
-99.9875
20
-5.95
30
0
11
-112
21
-5.95
31
0
39
0
210
0
220
0
230
1
0
LINE
5
18F
100
AcDbEntity
8
0
62
256
6
ByLayer
370
-2
48
1
60
0
100
AcDbLine
10
-99.9875
20
6.05
30
0
11
-112
21
6.05
31
0
39
0
210
0
220
0
230
1
0
LINE
5
190
100
AcDbEntity
8
0
62
256
6
ByLayer
370
-2
48
1
60
0
100
AcDbLine
10
-110
20
-9.45
30
0
11
-110
21
-12.95
31
0
39
0
210
0
220
0
230
1
0
LINE
5
191
100
AcDbEntity
8
0
62
256
6
ByLayer
370
-2
48
1
60
0
100
AcDbLine
10
-110
20
9.55
30
0
11
-110
21
13.05
31
0
39
0
210
0
220
0
230
1
0
SOLID
5
192
100
AcDbEntity
8
0
62
256
6
ByLayer
370
-1
48
1
60
0
100
AcDbTrace
10
-109.416667
20
-9.45
30
0
11
-110.583333
21
-9.45
31
0
12
-110
22
-5.95
32
0
13
-110
23
-5.95
33
0
39
0
210
0
220
0
230
1
0
SOLID
5
193
100
AcDbEntity
8
0
62
256
6
ByLayer
370
-1
48
1
60
0
100
AcDbTrace
10
-110.583333
20
9.55
30
0
11
-109.416667
21
9.55
31
0
12
-110
22
6.05
32
0
13
-110
23
6.05
33
0
39
0
210
0
220
0
230
1
0
MTEXT
5
194
100
AcDbEntity
8
0
62
256
6
ByLayer
370
18
48
1
60
0
100
AcDbMText
10
-117
20
0.05
30
0
210
0
220
0
230
1
1
\A1;12
40
3.5
41
0
44
1
50
90
71
5
72
5
7
iso_b_vert
0
POINT
5
195
100
AcDbEntity
8
Defpoints
62
0
6
ByLayer
370
-1
48
1
60
0
100
AcDbPoint
10
-98.4
20
-5.95
30
0
39
0
210
0
220
0
230
1
50
360
0
POINT
5
196
100
AcDbEntity
8
Defpoints
62
0
6
ByLayer
370
-1
48
1
60
0
100
AcDbPoint
10
-98.4
20
6.05
30
0
39
0
210
0
220
0
230
1
50
360
0
POINT
5
197
100
AcDbEntity
8
Defpoints
62
0
6
ByLayer
370
-1
48
1
60
0
100
AcDbPoint
10
-110
20
6.05
30
0
39
0
210
0
220
0
230
1
50
360
0
ENDBLK
5
18D
100
AcDbEntity
8
0
100
AcDbBlockEnd
0
BLOCK
5
1A0
100
AcDbEntity
8
0
100
AcDbBlockBegin
2
_U2
70
0
10
0
20
0
30
0
3
_U2
0
MTEXT
5
19A
100
AcDbEntity
8
SK2
62
256
6
ByLayer
370
18
48
1
60
0
100
AcDbMText
10
-110.689634
20
-1.445533
30
0
210
0
220
0
230
1
1
\W0.5321;12
40
3.5
41
0
44
1.084337
50
90
71
7
72
5
7
iso_b_vert
0
LINE
5
19B
100
AcDbEntity
8
SK2
62
256
6
ByLayer
370
13
48
1
60
0
100
AcDbLine
10
-99.9875
20
-5.95
30
0
11
-112
21
-5.95
31
0
39
0
210
0
220
0
230
1
0
LINE
5
19C
100
AcDbEntity
8
SK2
62
256
6
ByLayer
370
13
48
1
60
0
100
AcDbLine
10
-99.9875
20
6.05
30
0
11
-112
21
6.05
31
0
39
0
210
0
220
0
230
1
0
LINE
5
19D
100
AcDbEntity
8
SK2
62
256
6
ByLayer
370
13
48
1
60
0
100
AcDbLine
10
-110
20
-5.95
30
0
11
-110
21
6.05
31
0
39
0
210
0
220
0
230
1
0
SOLID
5
19E
100
AcDbEntity
8
SK2
62
256
6
ByLayer
370
18
48
1
60
0
100
AcDbTrace
10
-110
20
-5.95
30
0
11
-110.460784
21
-2.450002
31
0
12
-109.539216
22
-2.449998
32
0
13
-109.539216
23
-2.449998
33
0
39
0
210
0
220
0
230
1
0
SOLID
5
19F
100
AcDbEntity
8
SK2
62
256
6
ByLayer
370
18
48
1
60
0
100
AcDbTrace
10
-110
20
6.05
30
0
11
-109.539216
21
2.550002
31
0
12
-110.460784
22
2.549998
32
0
13
-110.460784
23
2.549998
33
0
39
0
210
0
220
0
230
1
0
ENDBLK
5
1A1
100
AcDbEntity
8
0
100
AcDbBlockEnd
0
BLOCK
5
1A6
100
AcDbEntity
8
0
100
AcDbBlockBegin
2
*D7
70
1
10
0
20
0
30
0
3
*D7
0
LINE
5
1A8
100
AcDbEntity
8
0
62
256
6
ByLayer
370
-2
48
1
60
0
100
AcDbLine
10
11.6
20
2.2125
30
0
11
11.6
21
-19.7
31
0
39
0
210
0
220
0
230
1
0
LINE
5
1A9
100
AcDbEntity
8
0
62
256
6
ByLayer
370
-2
48
1
60
0
100
AcDbLine
10
26.6
20
4.4625
30
0
11
26.6
21
-19.7
31
0
39
0
210
0
220
0
230
1
0
LINE
5
1AA
100
AcDbEntity
8
0
62
256
6
ByLayer
370
-2
48
1
60
0
100
AcDbLine
10
8.1
20
-17.7
30
0
11
4.6
21
-17.7
31
0
39
0
210
0
220
0
230
1
0
LINE
5
1AB
100
AcDbEntity
8
0
62
256
6
ByLayer
370
-2
48
1
60
0
100
AcDbLine
10
30.1
20
-17.7
30
0
11
33.6
21
-17.7
31
0
39
0
210
0
220
0
230
1
0
SOLID
5
1AC
100
AcDbEntity
8
0
62
256
6
ByLayer
370
-1
48
1
60
0
100
AcDbTrace
10
8.1
20
-18.283333
30
0
11
8.1
21
-17.116667
31
0
12
11.6
22
-17.7
32
0
13
11.6
23
-17.7
33
0
39
0
210
0
220
0
230
1
0
SOLID
5
1AD
100
AcDbEntity
8
0
62
256
6
ByLayer
370
-1
48
1
60
0
100
AcDbTrace
10
30.1
20
-17.116667
30
0
11
30.1
21
-18.283333
31
0
12
26.6
22
-17.7
32
0
13
26.6
23
-17.7
33
0
39
0
210
0
220
0
230
1
0
MTEXT
5
1AE
100
AcDbEntity
8
0
62
256
6
ByLayer
370
18
48
1
60
0
100
AcDbMText
10
19.1
20
-10.7
30
0
210
0
220
0
230
1
1
\A1;15
40
3.5
41
0
44
1
50
0
71
5
72
5
7
iso_b_vert
0
POINT
5
1AF
100
AcDbEntity
8
Defpoints
62
0
6
ByLayer
370
-1
48
1
60
0
100
AcDbPoint
10
11.6
20
3.8
30
0
39
0
210
0
220
0
230
1
50
360
0
POINT
5
1B0
100
AcDbEntity
8
Defpoints
62
0
6
ByLayer
370
-1
48
1
60
0
100
AcDbPoint
10
26.6
20
6.05
30
0
39
0
210
0
220
0
230
1
50
360
0
POINT
5
1B1
100
AcDbEntity
8
Defpoints
62
0
6
ByLayer
370
-1
48
1
60
0
100
AcDbPoint
10
26.6
20
-17.7
30
0
39
0
210
0
220
0
230
1
50
360
0
ENDBLK
5
1A7
100
AcDbEntity
8
0
100
AcDbBlockEnd
0
BLOCK
5
1B9
100
AcDbEntity
8
0
100
AcDbBlockBegin
2
_U3
70
0
10
0
20
0
30
0
3
_U3
0
MTEXT
5
1B3
100
AcDbEntity
8
2
62
256
6
ByLayer
370
18
48
1
60
0
100
AcDbMText
10
17.632467
20
-16.667366
30
0
210
0
220
0
230
1
1
\W0.5321;15
40
3.5
41
0
44
1.084337
50
0
71
7
72
5
7
iso_b_vert
0
LINE
5
1B4
100
AcDbEntity
8
2
62
256
6
ByLayer
370
13
48
1
60
0
100
AcDbLine
10
11.6
20
2.2125
30
0
11
11.6
21
-19.7
31
0
39
0
210
0
220
0
230
1
0
LINE
5
1B5
100
AcDbEntity
8
2
62
256
6
ByLayer
370
13
48
1
60
0
100
AcDbLine
10
26.6
20
4.4625
30
0
11
26.6
21
-19.7
31
0
39
0
210
0
220
0
230
1
0
LINE
5
1B6
100
AcDbEntity
8
2
62
256
6
ByLayer
370
13
48
1
60
0
100
AcDbLine
10
11.6
20
-17.7
30
0
11
26.6
21
-17.7
31
0
39
0
210
0
220
0
230
1
0
SOLID
5
1B7
100
AcDbEntity
8
2
62
256
6
ByLayer
370
18
48
1
60
0
100
AcDbTrace
10
11.6
20
-17.7
30
0
11
15.099998
21
-17.239216
31
0
12
15.100002
22
-18.160784
32
0
13
15.100002
23
-18.160784
33
0
39
0
210
0
220
0
230
1
0
SOLID
5
1B8
100
AcDbEntity
8
2
62
256
6
ByLayer
370
18
48
1
60
0
100
AcDbTrace
10
26.6
20
-17.7
30
0
11
23.100002
21
-18.160784
31
0
12
23.099998
22
-17.239216
32
0
13
23.099998
23
-17.239216
33
0
39
0
210
0
220
0
230
1
0
ENDBLK
5
1BA
100
AcDbEntity
8
0
100
AcDbBlockEnd
0
BLOCK
5
1BF
100
AcDbEntity
8
0
100
AcDbBlockBegin
2
*D9
70
1
10
0
20
0
30
0
3
*D9
0
LINE
5
1C1
100
AcDbEntity
8
0
62
256
6
ByLayer
370
-2
48
1
60
0
100
AcDbLine
10
-98.4
20
-7.5375
30
0
11
-98.4
21
-25.7
31
0
39
0
210
0
220
0
230
1
0
LINE
5
1C2
100
AcDbEntity
8
0
62
256
6
ByLayer
370
-2
48
1
60
0
100
AcDbLine
10
26.6
20
4.4625
30
0
11
26.6
21
-25.7
31
0
39
0
210
0
220
0
230
1
0
LINE
5
1C3
100
AcDbEntity
8
0
62
256
6
ByLayer
370
-2
48
1
60
0
100
AcDbLine
10
-94.9
20
-23.7
30
0
11
23.1
21
-23.7
31
0
39
0
210
0
220
0
230
1
0
SOLID
5
1C4
100
AcDbEntity
8
0
62
256
6
ByLayer
370
-1
48
1
60
0
100
AcDbTrace
10
-94.9
20
-23.116667
30
0
11
-94.9
21
-24.283333
31
0
12
-98.4
22
-23.7
32
0
13
-98.4
23
-23.7
33
0
39
0
210
0
220
0
230
1
0
SOLID
5
1C5
100
AcDbEntity
8
0
62
256
6
ByLayer
370
-1
48
1
60
0
100
AcDbTrace
10
23.1
20
-24.283333
30
0
11
23.1
21
-23.116667
31
0
12
26.6
22
-23.7
32
0
13
26.6
23
-23.7
33
0
39
0
210
0
220
0
230
1
0
MTEXT
5
1C6
100
AcDbEntity
8
0
62
256
6
ByLayer
370
18
48
1
60
0
100
AcDbMText
10
-35.9
20
-16.7
30
0
210
0
220
0
230
1
1
\A1;125
40
3.5
41
0
44
1
50
0
71
5
72
5
7
iso_b_vert
0
POINT
5
1C7
100
AcDbEntity
8
Defpoints
62
0
6
ByLayer
370
-1
48
1
60
0
100
AcDbPoint
10
-98.4
20
-5.95
30
0
39
0
210
0
220
0
230
1
50
360
0
POINT
5
1C8
100
AcDbEntity
8
Defpoints
62
0
6
ByLayer
370
-1
48
1
60
0
100
AcDbPoint
10
26.6
20
6.05
30
0
39
0
210
0
220
0
230
1
50
360
0
POINT
5
1C9
100
AcDbEntity
8
Defpoints
62
0
6
ByLayer
370
-1
48
1
60
0
100
AcDbPoint
10
26.6
20
-23.7
30
0
39
0
210
0
220
0
230
1
50
360
0
ENDBLK
5
1C0
100
AcDbEntity
8
0
100
AcDbBlockEnd
0
BLOCK
5
1D1
100
AcDbEntity
8
0
100
AcDbBlockBegin
2
_U4
70
0
10
0
20
0
30
0
3
_U4
0
MTEXT
5
1CB
100
AcDbEntity
8
SK2
62
256
6
ByLayer
370
18
48
1
60
0
100
AcDbMText
10
-38.675266
20
-22.667366
30
0
210
0
220
0
230
1
1
\W0.6217;125
40
3.5
41
0
44
1.084337
50
0
71
7
72
5
7
iso_b_vert
0
LINE
5
1CC
100
AcDbEntity
8
SK2
62
256
6
ByLayer
370
13
48
1
60
0
100
AcDbLine
10
-98.4
20
-7.5375
30
0
11
-98.4
21
-25.7
31
0
39
0
210
0
220
0
230
1
0
LINE
5
1CD
100
AcDbEntity
8
SK2
62
256
6
ByLayer
370
13
48
1
60
0
100
AcDbLine
10
26.6
20
4.4625
30
0
11
26.6
21
-25.7
31
0
39
0
210
0
220
0
230
1
0
LINE
5
1CE
100
AcDbEntity
8
SK2
62
256
6
ByLayer
370
13
48
1
60
0
100
AcDbLine
10
-98.4
20
-23.7
30
0
11
26.6
21
-23.7
31
0
39
0
210
0
220
0
230
1
0
SOLID
5
1CF
100
AcDbEntity
8
SK2
62
256
6
ByLayer
370
18
48
1
60
0
100
AcDbTrace
10
-98.4
20
-23.7
30
0
11
-94.900002
21
-23.239216
31
0
12
-94.899998
22
-24.160784
32
0
13
-94.899998
23
-24.160784
33
0
39
0
210
0
220
0
230
1
0
SOLID
5
1D0
100
AcDbEntity
8
SK2
62
256
6
ByLayer
370
18
48
1
60
0
100
AcDbTrace
10
26.6
20
-23.7
30
0
11
23.100002
21
-24.160784
31
0
12
23.099998
22
-23.239216
32
0
13
23.099998
23
-23.239216
33
0
39
0
210
0
220
0
230
1
0
ENDBLK
5
1D2
100
AcDbEntity
8
0
100
AcDbBlockEnd
0
ENDSEC
0
SECTION
2
ENTITIES
0
ARC
5
EA
100
AcDbEntity
8
1
62
256
6
ByLayer
370
18
48
1
60
0
100
AcDbCircle
39
0
10
11.6
20
3
30
0
40
0.800000000000006
210
0
220
0
230
1
100
AcDbArc
50
90
51
180
0
ARC
5
EB
100
AcDbEntity
8
SK1
62
256
6
ByLayer
370
18
48
1
60
0
100
AcDbCircle
39
0
10
-1.6
20
7.4
30
0
40
1.6
210
0
220
0
230
1
100
AcDbArc
50
244.992167
51
270
0
ELLIPSE
5
EC
100
AcDbEntity
8
1
62
256
6
ByLayer
370
18
48
1
60
0
100
AcDbEllipse
10
9.86953
20
-1.075
30
0
11
4.53787995752991
21
0
31
0
210
0
220
0
230
1
40
0.851581
41
2.38911365625785
42
2.64065334554962
0
ELLIPSE
5
ED
100
AcDbEntity
8
1
62
256
6
ByLayer
370
18
48
1
60
0
100
AcDbEllipse
10
9.86953
20
-1.075
30
0
11
4.53787995752991
21
0
31
0
210
0
220
0
230
1
40
0.851581
41
-2.64065334554963
42
-2.38911365625785
0
ELLIPSE
5
EE
100
AcDbEntity
8
1
62
256
6
ByLayer
370
18
48
1
60
0
100
AcDbEllipse
10
8.693501
20
3
30
0
11
1.76215141166822
21
0
31
0
210
0
220
0
230
1
40
0.45399
41
1.5707963267949
42
3.14159265358979
0
ELLIPSE
5
EF
100
AcDbEntity
8
1
62
256
6
ByLayer
370
18
48
1
60
0
100
AcDbEllipse
10
8.204159
20
-1.075
30
0
11
-5.83218776007907E-16
21
-3.175
31
0
210
0
220
0
230
1
40
0.891007
41
-0.466679858345003
42
1.16200065020727
0
ELLIPSE
5
F0
100
AcDbEntity
8
1
62
256
6
ByLayer
370
18
48
1
60
0
100
AcDbEllipse
10
8.12698
20
-1.075
30
0
11
-1.21557698260465E-15
21
3.175
31
0
210
0
220
0
230
1
40
0.891007
41
-3.127943275686
42
-1.90435897834825
0
ELLIPSE
5
F1
100
AcDbEntity
8
1
62
256
6
ByLayer
370
18
48
1
60
0
100
AcDbEllipse
10
8.534601
20
-1.075
30
0
11
-3.5633858044891
21
4.36374489729782E-16
31
0
210
0
220
0
230
1
40
0.891007
41
0.982423360466037
42
1.10411646844989
0
ELLIPSE
5
F2
100
AcDbEntity
8
1
62
256
6
ByLayer
370
18
48
1
60
0
100
AcDbEllipse
10
8.204159
20
-1.075
30
0
11
-5.83218776007907E-16
21
-3.175
31
0
210
0
220
0
230
1
40
0.891007
41
1.97959200338252
42
-2.67491279524479
0
ELLIPSE
5
F3
100
AcDbEntity
8
1
62
256
6
ByLayer
370
18
48
1
60
0
100
AcDbEllipse
10
8.534601
20
-1.075
30
0
11
-3.5633858044891
21
4.36374489729782E-16
31
0
210
0
220
0
230
1
40
0.891007
41
-1.10411646844989
42
-0.982423360466038
0
ELLIPSE
5
F4
100
AcDbEntity
8
1
62
256
6
ByLayer
370
18
48
1
60
0
100
AcDbEllipse
10
8.12698
20
-1.075
30
0
11
-1.21557698260465E-15
21
3.175
31
0
210
0
220
0
230
1
40
0.891007
41
-1.23723367524155
42
-0.0136493779038004
0
ELLIPSE
5
F5
100
AcDbEntity
8
1
62
256
6
ByLayer
370
18
48
1
60
0
100
AcDbEllipse
10
26.598178
20
16.943295
30
0
11
0.941903703066487
21
-45.239993141572
31
0
210
0
220
0
230
1
40
0.348587
41
-1.26475437087729
42
-1.26010389497835
0
ELLIPSE
5
F6
100
AcDbEntity
8
1
62
256
6
ByLayer
370
18
48
1
60
0
100
AcDbEllipse
10
9.890539
20
6.6
30
0
11
0.898474163481448
21
1.37488270749073E-15
31
0
210
0
220
0
230
1
40
0.890398
41
-1.84644008775166
42
-1.5707963267949
0
ELLIPSE
5
F7
100
AcDbEntity
8
1
62
256
6
ByLayer
370
18
48
1
60
0
100
AcDbEllipse
10
23.261887
20
6.6
30
0
11
0.918716977488439
21
1.40585910732545E-15
31
0
210
0
220
0
230
1
40
0.87078
41
-1.5707963267949
42
-1.29515256584122
0
ELLIPSE
5
F8
100
AcDbEntity
8
1
62
256
6
ByLayer
370
18
48
1
60
0
100
AcDbEllipse
10
22.945577
20
5.233936
30
0
11
0.950103706737461
21
1.4538883919094E-15
31
0
210
0
220
0
230
1
40
0.210503
41
-2.80561677257881
42
-1.98717825108603
0
ELLIPSE
5
F9
100
AcDbEntity
8
1
62
256
6
ByLayer
370
18
48
1
60
0
100
AcDbEllipse
10
26.404038
20
6.880141
30
0
11
9.50103706138211
21
1.4538883909924E-14
31
0
210
0
220
0
230
1
40
0.210503
41
-1.98717825126464
42
-1.91986217732791
0
ELLIPSE
5
FA
100
AcDbEntity
8
1
62
256
6
ByLayer
370
18
48
1
60
0
100
AcDbEllipse
10
22.85793
20
4.8
30
0
11
0.99760889206826
21
1.52658281149557E-15
31
0
210
0
220
0
230
1
40
0.210503
41
0
42
1.22173047639675
0
ELLIPSE
5
FB
100
AcDbEntity
8
1
62
256
6
ByLayer
370
18
48
1
60
0
100
AcDbEllipse
10
22.85793
20
4.8
30
0
11
0.997608892068259
21
1.52658281149557E-15
31
0
210
0
220
0
230
1
40
0.210503
41
-1.22173047639675
42
0
0
ELLIPSE
5
FC
100
AcDbEntity
8
1
62
256
6
ByLayer
370
18
48
1
60
0
100
AcDbEllipse
10
26.404038
20
2.719859
30
0
11
9.50103704133194
21
3.52052288464625E-09
31
0
210
0
220
0
230
1
40
0.210503
41
1.91986217617681
42
1.98717825022813
0
ELLIPSE
5
FD
100
AcDbEntity
8
1
62
256
6
ByLayer
370
18
48
1
60
0
100
AcDbEllipse
10
22.945577
20
4.366064
30
0
11
0.950103706735547
21
1.45388839190647E-15
31
0
210
0
220
0
230
1
40
0.210503
41
1.98717825108541
42
2.80561677258007
0
ELLIPSE
5
FE
100
AcDbEntity
8
1
62
256
6
ByLayer
370
18
48
1
60
0
100
AcDbEllipse
10
21.961552
20
3.924562
30
0
11
0.712577780041607
21
1.09041629391447E-15
31
0
210
0
220
0
230
1
40
0.210503
41
2.80561677257891
42
3.14159265358979
0
ELLIPSE
5
FF
100
AcDbEntity
8
1
62
256
6
ByLayer
370
18
48
1
60
0
100
AcDbEllipse
10
23.261887
20
3
30
0
11
0.918716977546055
21
1.40585910741362E-15
31
0
210
0
220
0
230
1
40
0.87078
41
1.29515256585859
42
1.5707963267949
0
ELLIPSE
5
100
100
AcDbEntity
8
1
62
256
6
ByLayer
370
18
48
1
60
0
100
AcDbEllipse
10
22.475438
20
5.45
30
0
11
-4.91034524531608E-17
21
0.128254700253313
31
0
210
0
220
0
230
1
40
0.987688
41
0
42
6.28318530717959
0
ELLIPSE
5
101
100
AcDbEntity
8
1
62
256
6
ByLayer
370
18
48
1
60
0
100
AcDbEllipse
10
21.961552
20
5.675438
30
0
11
0.712577780059676
21
1.09041629394212E-15
31
0
210
0
220
0
230
1
40
0.210503
41
3.14159265358979
42
-2.80561677258325
0
ELLIPSE
5
102
100
AcDbEntity
8
1
62
256
6
ByLayer
370
18
48
1
60
0
100
AcDbEllipse
10
7.10409
20
-1.075
30
0
11
-4.94002828552685E-16
21
1.2903
31
0
210
0
220
0
230
1
40
0.891007
41
-1.57079671052643
42
-0.46574194908351
0
ELLIPSE
5
103
100
AcDbEntity
8
1
62
256
6
ByLayer
370
18
48
1
60
0
100
AcDbEllipse
10
7.10409
20
-1.075
30
0
11
-4.94002828552685E-16
21
1.2903
31
0
210
0
220
0
230
1
40
0.891007
41
-2.67035354084124
42
-1.57079593551289
0
ELLIPSE
5
104
100
AcDbEntity
8
1
62
256
6
ByLayer
370
18
48
1
60
0
100
AcDbEllipse
10
7.489982
20
-1.075
30
0
11
-2.37016436750552E-16
21
-1.2903
31
0
210
0
220
0
230
1
40
0.891007
41
0.523598775598314
42
1.5707963267949
0
ELLIPSE
5
105
100
AcDbEntity
8
1
62
256
6
ByLayer
370
18
48
1
60
0
100
AcDbEllipse
10
7.489982
20
-1.075
30
0
11
-2.37016436750552E-16
21
-1.2903
31
0
210
0
220
0
230
1
40
0.891007
41
1.5707963267949
42
2.6179938779915
0
ELLIPSE
5
106
100
AcDbEntity
8
1
62
256
6
ByLayer
370
18
48
1
60
0
100
AcDbEllipse
10
7.489982
20
-1.075
30
0
11
-2.37016436750552E-16
21
-1.2903
31
0
210
0
220
0
230
1
40
0.891007
41
2.61799387799149
42
2.91718129697015
0
ELLIPSE
5
107
100
AcDbEntity
8
1
62
256
6
ByLayer
370
18
48
1
60
0
100
AcDbEllipse
10
7.489982
20
-1.075
30
0
11
-4.94002828552685E-16
21
1.2903
31
0
210
0
220
0
230
1
40
0.891007
41
-2.91718129697016
42
-2.6179938779915
0
ELLIPSE
5
108
100
AcDbEntity
8
1
62
256
6
ByLayer
370
18
48
1
60
0
100
AcDbEllipse
10
8.811612
20
-1.075
30
0
11
-1.50884689400302E-16
21
0.394100000001208
31
0
210
0
220
0
230
1
40
0.436347
41
0.288932900936677
42
1.5707963267949
0
ELLIPSE
5
109
100
AcDbEntity
8
1
62
256
6
ByLayer
370
18
48
1
60
0
100
AcDbEllipse
10
8.811612
20
-1.075
30
0
11
-1.5088468940003E-16
21
0.394100000000497
31
0
210
0
220
0
230
1
40
0.436347
41
1.5707963267949
42
2.85265975265443
0
ELLIPSE
5
10A
100
AcDbEntity
8
1
62
256
6
ByLayer
370
18
48
1
60
0
100
AcDbEllipse
10
8.634625
20
-1.8167
30
0
11
0.166590173381911
21
0.346346854433055
31
0
210
0
220
0
230
1
40
0.458817
41
-2.28436054737893
42
0.137551892608193
0
ELLIPSE
5
10B
100
AcDbEntity
8
1
62
256
6
ByLayer
370
18
48
1
60
0
100
AcDbEllipse
10
8.634625
20
-0.3333
30
0
11
0.166590173381899
21
-0.34634685443306
31
0
210
0
220
0
230
1
40
0.458817
41
-0.137551892608003
42
2.28436054737901
0
ELLIPSE
5
10C
100
AcDbEntity
8
1
62
256
6
ByLayer
370
18
48
1
60
0
100
AcDbEllipse
10
8.150797
20
0.209575
30
0
11
0.2973144274122
21
-0.208297956712868
31
0
210
0
220
0
230
1
40
0.514259
41
-2.78239765148356
42
-1.50053422562562
0
ELLIPSE
5
10D
100
AcDbEntity
8
1
62
256
6
ByLayer
370
18
48
1
60
0
100
AcDbEllipse
10
8.150797
20
0.209575
30
0
11
0.297314427410624
21
-0.20829795671171
31
0
210
0
220
0
230
1
40
0.514259
41
-1.50053422562563
42
-0.57953566085575
0
ELLIPSE
5
10E
100
AcDbEntity
8
1
62
256
6
ByLayer
370
18
48
1
60
0
100
AcDbEllipse
10
8.150797
20
-2.359575
30
0
11
0.297314427411072
21
0.20829795671262
31
0
210
0
220
0
230
1
40
0.514259
41
0.622058059848537
42
1.50053422562263
0
ELLIPSE
5
10F
100
AcDbEntity
8
1
62
256
6
ByLayer
370
18
48
1
60
0
100
AcDbEllipse
10
8.150797
20
-2.359575
30
0
11
0.297314427409416
21
0.208297956712655
31
0
210
0
220
0
230
1
40
0.514259
41
1.50053422561709
42
2.78239765148211
0
ELLIPSE
5
110
100
AcDbEntity
8
1
62
256
6
ByLayer
370
18
48
1
60
0
100
AcDbEllipse
10
7.989372
20
-1.075
30
0
11
-5.5107285922007E-16
21
-3
31
0
210
0
220
0
230
1
40
0.891007
41
3.14159258717256
42
-2.49206352952369E-16
0
ELLIPSE
5
111
100
AcDbEntity
8
1
62
256
6
ByLayer
370
18
48
1
60
0
100
AcDbEllipse
10
8.261766
20
-1.075
30
0
11
-3.07939513732175E-16
21
-1.6764
31
0
210
0
220
0
230
1
40
0.891007
41
-1.0471975511966
42
9.51396241287975E-15
0
ELLIPSE
5
112
100
AcDbEntity
8
1
62
256
6
ByLayer
370
18
48
1
60
0
100
AcDbEllipse
10
8.261766
20
-1.075
30
0
11
-3.07939513732175E-16
21
-1.6764
31
0
210
0
220
0
230
1
40
0.891007
41
-2.09439510239319
42
-1.0471975511966
0
ELLIPSE
5
113
100
AcDbEntity
8
1
62
256
6
ByLayer
370
18
48
1
60
0
100
AcDbEllipse
10
8.261766
20
-1.075
30
0
11
-3.07939513732175E-16
21
-1.6764
31
0
210
0
220
0
230
1
40
0.891007
41
3.14159265358978
42
-2.09439510239319
0
ELLIPSE
5
114
100
AcDbEntity
8
1
62
256
6
ByLayer
370
18
48
1
60
0
100
AcDbEllipse
10
8.261766
20
-1.075
30
0
11
-3.07939513732175E-16
21
-1.6764
31
0
210
0
220
0
230
1
40
0.891007
41
2.0943951023932
42
3.14159265358978
0
ELLIPSE
5
115
100
AcDbEntity
8
1
62
256
6
ByLayer
370
18
48
1
60
0
100
AcDbEllipse
10
8.261766
20
-1.075
30
0
11
-3.07939513732175E-16
21
-1.6764
31
0
210
0
220
0
230
1
40
0.891007
41
1.0471975511966
42
2.0943951023932
0
ELLIPSE
5
116
100
AcDbEntity
8
1
62
256
6
ByLayer
370
18
48
1
60
0
100
AcDbEllipse
10
8.261766
20
-1.075
30
0
11
-3.07939513732175E-16
21
-1.6764
31
0
210
0
220
0
230
1
40
0.891007
41
0
42
1.0471975511966
0
ELLIPSE
5
117
100
AcDbEntity
8
1
62
256
6
ByLayer
370
13
48
1
60
0
100
AcDbEllipse
10
8.261766
20
-1.075
30
0
11
-1.07200489804504E-15
21
2.8
31
0
210
0
220
0
230
1
40
0.891007
41
0
42
6.28318530717959
0
ELLIPSE
5
118
100
AcDbEntity
8
1
62
256
6
ByLayer
370
18
48
1
60
0
100
AcDbEllipse
10
8.170968
20
-1.075
30
0
11
-5.5107285922007E-16
21
-3
31
0
210
0
220
0
230
1
40
0.891007
41
-0.679075062477707
42
-2.49206352952369E-16
0
ELLIPSE
5
119
100
AcDbEntity
8
1
62
256
6
ByLayer
370
18
48
1
60
0
100
AcDbEllipse
10
8.170968
20
-1.075
30
0
11
-5.5107285922007E-16
21
-3
31
0
210
0
220
0
230
1
40
0.891007
41
0
42
0.679467705231409
0
ELLIPSE
5
11A
100
AcDbEntity
8
1
62
256
6
ByLayer
370
13
48
1
60
0
100
AcDbEllipse
10
8.170968
20
-1.075
30
0
11
-5.5107285922007E-16
21
-3
31
0
210
0
220
0
230
1
40
0.891007
41
-2.46929193059957
42
-0.679075062477733
0
ELLIPSE
5
11B
100
AcDbEntity
8
1
62
256
6
ByLayer
370
18
48
1
60
0
100
AcDbEllipse
10
8.170968
20
-1.075
30
0
11
-5.5107285922007E-16
21
-3
31
0
210
0
220
0
230
1
40
0.891007
41
2.46389227359152
42
-2.46929193059958
0
POINT
5
70
100
AcDbEntity
8
81
62
256
6
ByLayer
370
18
48
1
60
0
100
AcDbPoint
10
26.6
20
6.05
30
0
39
0
210
0
220
0
230
1
50
360
0
POINT
5
72
100
AcDbEntity
8
80
62
256
6
ByLayer
370
18
48
1
60
0
100
AcDbPoint
10
0
20
0
30
0
39
0
210
0
220
0
230
1
50
360
0
POINT
5
74
100
AcDbEntity
8
1
62
256
6
ByLayer
370
18
48
1
60
1
100
AcDbPoint
10
26.6
20
6.05
30
0
39
0
210
0
220
0
230
1
50
360
0
POINT
5
76
100
AcDbEntity
8
1
62
256
6
ByLayer
370
18
48
1
60
1
100
AcDbPoint
10
-98.4
20
-5.95
30
0
39
0
210
0
220
0
230
1
50
360
0
POINT
5
77
100
AcDbEntity
8
1
62
256
6
ByLayer
370
18
48
1
60
1
100
AcDbPoint
10
26.6
20
3.55
30
0
39
0
210
0
220
0
230
1
50
360
0
POINT
5
78
100
AcDbEntity
8
1
62
256
6
ByLayer
370
18
48
1
60
1
100
AcDbPoint
10
26.6
20
6.05
30
0
39
0
210
0
220
0
230
1
50
360
0
POINT
5
79
100
AcDbEntity
8
1
62
256
6
ByLayer
370
18
48
1
60
1
100
AcDbPoint
10
-98.4
20
-5.95
30
0
39
0
210
0
220
0
230
1
50
360
0
POINT
5
7A
100
AcDbEntity
8
1
62
256
6
ByLayer
370
18
48
1
60
1
100
AcDbPoint
10
-98.4
20
6.05
30
0
39
0
210
0
220
0
230
1
50
360
0
POINT
5
7B
100
AcDbEntity
8
1
62
256
6
ByLayer
370
18
48
1
60
1
100
AcDbPoint
10
11.6
20
3.8
30
0
39
0
210
0
220
0
230
1
50
360
0
POINT
5
7C
100
AcDbEntity
8
1
62
256
6
ByLayer
370
18
48
1
60
1
100
AcDbPoint
10
26.6
20
6.05
30
0
39
0
210
0
220
0
230
1
50
360
0
POINT
5
7D
100
AcDbEntity
8
1
62
256
6
ByLayer
370
18
48
1
60
1
100
AcDbPoint
10
-98.4
20
-5.95
30
0
39
0
210
0
220
0
230
1
50
360
0
POINT
5
7E
100
AcDbEntity
8
1
62
256
6
ByLayer
370
18
48
1
60
1
100
AcDbPoint
10
26.6
20
6.05
30
0
39
0
210
0
220
0
230
1
50
360
0
SPLINE
5
11C
100
AcDbEntity
8
1
62
256
6
ByLayer
370
18
48
1
60
0
100
AcDbSpline
70
4
71
3
72
15
73
11
40
0
40
0
40
0
40
0
40
0.082271936581169
40
0.235143984591451
40
0.388120924304172
40
0.54109394557146
40
0.694029011183493
40
0.846882111429867
40
0.999599974798333
40
1
40
1
40
1
40
1
41
1
10
10.8657863386115
20
-1.07500000000005
30
0
41
1
10
10.8657777405249
20
-1.00183433082964
30
0
41
1
10
10.8589657039421
20
-0.793553307448917
30
0
41
1
10
10.8154262513588
20
-0.451333840080167
30
0
41
1
10
10.7153725240917
20
-0.058472626973213
30
0
41
1
10
10.5681005511532
20
0.315607767136243
30
0
41
1
10
10.3775431182051
20
0.665612868253476
30
0
41
1
10
10.1424702112353
20
0.97812075897852
30
0
41
1
10
9.9703276470313
20
1.17517124950342
30
0
41
1
10
9.87017246105023
20
1.25380247377146
30
0
41
1
10
9.86991074161574
20
1.25400782217372
30
0
0
SPLINE
5
11D
100
AcDbEntity
8
1
62
256
6
ByLayer
370
18
48
1
60
0
100
AcDbSpline
70
4
71
3
72
14
73
10
40
0
40
0
40
0
40
0
40
0.11656417361821
40
0.269039829206524
40
0.421733744224059
40
0.574609796665146
40
0.727629473804526
40
0.880758149030212
40
1
40
1
40
1
40
1
41
1
10
9.87097123804546
20
-3.39678695695468
30
0
41
1
10
9.94480282567531
20
-3.3327709389001
30
0
41
1
10
10.1062843190539
20
-3.17568242320579
30
0
41
1
10
10.326449214295
20
-2.89057066769695
30
0
41
1
10
10.5272195039317
20
-2.55038261470543
30
0
41
1
10
10.6845135081844
20
-2.18227520938544
30
0
41
1
10
10.7958475781666
20
-1.79399656306114
30
0
41
1
10
10.8543694560361
20
-1.42152019986577
30
0
41
1
10
10.8657560610754
20
-1.18102817702533
30
0
41
1
10
10.8657863386115
20
-1.07500000000005
30
0
0
SPLINE
5
11E
100
AcDbEntity
8
1
62
256
6
ByLayer
370
18
48
1
60
0
100
AcDbSpline
70
4
71
3
72
8
73
4
40
0
40
0
40
0
40
0
40
1
40
1
40
1
40
1
41
1
10
10.7999999999999
20
-0.0354688556853944
30
0
41
1
10
10.7999999999999
20
-0.161472668303702
30
0
41
1
10
10.7999999999999
20
-0.289292926300021
30
0
41
1
10
10.7999999999999
20
-0.419116855685417
30
0
0
SPLINE
5
11F
100
AcDbEntity
8
1
62
256
6
ByLayer
370
18
48
1
60
0
100
AcDbSpline
70
4
71
3
72
10
73
6
40
0
40
0
40
0
40
0
40
0.358203697219166
40
0.358203697219166
40
1
40
1
40
1
40
1
41
1
10
10.7999999999999
20
-1.71598514430889
30
0
41
1
10
10.7999999999999
20
-1.76432081228967
30
0
41
1
10
10.7999999999999
20
-1.81254889726233
30
0
41
1
10
10.7999999999999
20
-1.94681283748434
30
0
41
1
10
10.7999999999999
20
-2.03138597549682
30
0
41
1
10
10.7999999999999
20
-2.11453114431464
30
0
0
SPLINE
5
120
100
AcDbEntity
8
1
62
256
6
ByLayer
370
18
48
1
60
0
100
AcDbSpline
70
4
71
3
72
12
73
8
40
0
40
0
40
0
40
0
40
0.500000000000016
40
0.500000000000016
40
0.750000000000008
40
0.750000000000008
40
1
40
1
40
1
40
1
41
1
10
20.0556881129216
20
4.55000000000004
30
0
41
1
10
20.0171301333289
20
4.45033396586592
30
0
41
1
10
19.9773868889436
20
4.35138261081042
30
0
41
1
10
19.9144329226186
20
4.20496895510735
30
0
41
1
10
19.8928819446757
20
4.15650587866898
30
0
41
1
10
19.8481053044933
20
4.06058951013523
30
0
41
1
10
19.8248936691536
20
4.01312776024045
30
0
41
1
10
19.8003436392156
20
3.96647302209897
30
0
0
SPLINE
5
121
100
AcDbEntity
8
1
62
256
6
ByLayer
370
18
48
1
60
0
100
AcDbSpline
70
4
71
3
72
8
73
4
40
0
40
0
40
0
40
0
40
1
40
1
40
1
40
1
41
1
10
20.2181246704175
20
4.6121010091006
30
0
41
1
10
20.164195467101
20
4.59066762087755
30
0
41
1
10
20.1100883116395
20
4.56983727746552
30
0
41
1
10
20.0556881129216
20
4.55000000000004
30
0
0
SPLINE
5
122
100
AcDbEntity
8
1
62
256
6
ByLayer
370
18
48
1
60
0
100
AcDbSpline
70
4
71
3
72
20
73
16
40
0
40
0
40
0
40
0
40
0.124999999999981
40
0.124999999999981
40
0.249999999999961
40
0.249999999999961
40
0.374999999999942
40
0.374999999999942
40
0.499999999999923
40
0.499999999999923
40
0.624999999999903
40
0.624999999999903
40
0.749999999999884
40
0.749999999999884
40
1
40
1
40
1
40
1
41
1
10
20.3118654791435
20
4.75118103894764
30
0
41
1
10
20.3118654791435
20
4.74319594473772
30
0
41
1
10
20.3112424896884
20
4.73533887691215
30
0
41
1
10
20.3088182782485
20
4.71986687192543
30
0
41
1
10
20.3070044140296
20
4.71221469569352
30
0
41
1
10
20.3022254729567
20
4.69731998449853
30
0
41
1
10
20.2993119882647
20
4.6902162065868
30
0
41
1
10
20.2925178783766
20
4.67664277083929
30
0
41
1
10
20.2886061771778
20
4.67013232634247
30
0
41
1
10
20.2799693779058
20
4.65793970006303
30
0
41
1
10
20.2752865153938
20
4.65230131741282
30
0
41
1
10
20.2652539509921
20
4.64186240447759
30
0
41
1
10
20.2598711264948
20
4.63703823016294
30
0
41
1
10
20.2429851640987
20
4.6239678830743
30
0
41
1
10
20.2309137812967
20
4.61718385775481
30
0
41
1
10
20.2181246704175
20
4.6121010091006
30
0
0
SPLINE
5
123
100
AcDbEntity
8
1
62
256
6
ByLayer
370
18
48
1
60
0
100
AcDbSpline
70
4
71
3
72
20
73
16
40
0
40
0
40
0
40
0
40
0.250000000000009
40
0.250000000000009
40
0.375000000000008
40
0.375000000000008
40
0.500000000000006
40
0.500000000000006
40
0.625000000000005
40
0.625000000000005
40
0.750000000000003
40
0.750000000000003
40
0.875000000000002
40
0.875000000000002
40
1
40
1
40
1
40
1
41
1
10
20.218124670418
20
4.98789899089928
30
0
41
1
10
20.2309328296019
20
4.98280857176954
30
0
41
1
10
20.2429898027922
20
4.97602320941652
30
0
41
1
10
20.2598170774568
20
4.96300625200672
30
0
41
1
10
20.2652446548524
20
4.95814677055876
30
0
41
1
10
20.2752861068555
20
4.94769960481625
30
0
41
1
10
20.2799400079972
20
4.94208991232753
30
0
41
1
10
20.2884780033379
20
4.93006025003061
30
0
41
1
10
20.2923628988546
20
4.92364112366695
30
0
41
1
10
20.2992692955817
20
4.90989408617131
30
0
41
1
10
20.3021942171546
20
4.90274786986731
30
0
41
1
10
20.3069288392454
20
4.88804975223638
30
0
41
1
10
20.3087501529882
20
4.88047606206914
30
0
41
1
10
20.3112269577542
20
4.86484904505477
30
0
41
1
10
20.3118654791467
20
4.85682979241599
30
0
41
1
10
20.3118654791467
20
4.8488189610527
30
0
0
SPLINE
5
124
100
AcDbEntity
8
1
62
256
6
ByLayer
370
18
48
1
60
0
100
AcDbSpline
70
4
71
3
72
8
73
4
40
0
40
0
40
0
40
0
40
1
40
1
40
1
40
1
41
1
10
20.0556881129216
20
5.05000000000001
30
0
41
1
10
20.1100807377125
20
5.03016548440118
30
0
41
1
10
20.1641890881285
20
5.00933491435359
30
0
41
1
10
20.218124670418
20
4.98789899089928
30
0
0
SPLINE
5
125
100
AcDbEntity
8
1
62
256
6
ByLayer
370
18
48
1
60
0
100
AcDbSpline
70
4
71
3
72
12
73
8
40
0
40
0
40
0
40
0
40
0.250000000000006
40
0.250000000000006
40
0.500000000000012
40
0.500000000000012
40
1
40
1
40
1
40
1
41
1
10
19.8003436392157
20
5.63352697790108
30
0
41
1
10
19.8249566849096
20
5.58675248497337
30
0
41
1
10
19.8481994228116
20
5.53921656841447
30
0
41
1
10
19.8930092667318
20
5.4432136556363
30
0
41
1
10
19.9145615452562
20
5.39473842038907
30
0
41
1
10
19.9774942225733
20
5.24835467087954
30
0
41
1
10
20.01719038426
20
5.14951029538904
30
0
41
1
10
20.0556881129216
20
5.05000000000001
30
0
0
SPLINE
5
126
100
AcDbEntity
8
1
62
256
6
ByLayer
370
18
48
1
60
0
100
AcDbSpline
70
4
71
3
72
36
73
32
40
0
40
0
40
0
40
0
40
0.125000000000009
40
0.125000000000009
40
0.187500000000016
40
0.187500000000016
40
0.250000000000022
40
0.312500000000029
40
0.312500000000029
40
0.343750000000025
40
0.343750000000025
40
0.375000000000021
40
0.375000000000021
40
0.500000000000015
40
0.500000000000015
40
0.562500000000024
40
0.562500000000024
40
0.625000000000034
40
0.625000000000034
40
0.750000000000074
40
0.750000000000074
40
0.781250000000065
40
0.781250000000065
40
0.812500000000055
40
0.875000000000037
40
0.937500000000018
40
0.937500000000018
40
0.968749999999996
40
0.984374999999998
40
0.984374999999998
40
1
40
1
40
1
40
1
41
1
10
17.6058155492303
20
3.00000000000006
30
0
41
1
10
17.6058155492303
20
3.05646299580576
30
0
41
1
10
17.611725569677
20
3.1117596692232
30
0
41
1
10
17.6289639481308
20
3.1930514690236
30
0
41
1
10
17.6361343816004
20
3.21992176094045
30
0
41
1
10
17.653279685771
20
3.27288176001122
30
0
41
1
10
17.6729534461584
20
3.32425206767536
30
0
41
1
10
17.6973832446907
20
3.37262964928101
30
0
41
1
10
17.7174379043332
20
3.40782166987003
30
0
41
1
10
17.7244121014483
20
3.4193701085787
30
0
41
1
10
17.7389373623593
20
3.44210341606254
30
0
41
1
10
17.7465080946992
20
3.45331537743869
30
0
41
1
10
17.7855631104615
20
3.50811940384529
30
0
41
1
10
17.8203415453335
20
3.54766082660771
30
0
41
1
10
17.8772995862488
20
3.60112305265534
30
0
41
1
10
17.8971155263201
20
3.61797902433492
30
0
41
1
10
17.938246194238
20
3.64965582126141
30
0
41
1
10
17.9593160082815
20
3.66429262685773
30
0
41
1
10
18.0239451160169
20
3.70481281834066
30
0
41
1
10
18.0689122470846
20
3.72733394551554
30
0
41
1
10
18.127372267814
20
3.75008449223418
30
0
41
1
10
18.1392023601809
20
3.75437020659629
30
0
41
1
10
18.1629580080824
20
3.76234979889995
30
0
41
1
10
18.198705895245
20
3.77342559799769
30
0
41
1
10
18.2588410409335
20
3.78753632092713
30
0
41
1
10
18.3075220790417
20
3.7943191751655
30
0
41
1
10
18.3442464174201
20
3.79772199517606
30
0
41
1
10
18.3626620617659
20
3.79900168942137
30
0
41
1
10
18.3811584860455
20
3.79964377955392
30
0
41
1
10
18.3935075077034
20
3.79992915752456
30
0
41
1
10
18.3997021996003
20
3.8000000000001
30
0
41
1
10
18.4058155492303
20
3.8000000000001
30
0
0
SPLINE
5
127
100
AcDbEntity
8
1
62
256
6
ByLayer
370
18
48
1
60
0
100
AcDbSpline
70
4
71
3
72
30
73
26
40
0
40
0
40
0
40
0
40
0.125000000000023
40
0.125000000000023
40
0.187500000000019
40
0.187500000000019
40
0.250000000000014
40
0.250000000000014
40
0.375000000000007
40
0.375000000000007
40
0.406250000000005
40
0.406250000000005
40
0.437500000000003
40
0.500000000000002
40
0.562500000000001
40
0.562500000000001
40
0.625
40
0.625
40
0.749999999999997
40
0.749999999999997
40
0.812499999999999
40
0.812499999999999
40
0.875
40
0.875
40
1
40
1
40
1
40
1
41
1
10
12.5794888108937
20
3.80000000000013
30
0
41
1
10
12.5262543066673
20
3.80000000000013
30
0
41
1
10
12.4736278120575
20
3.79521629104198
30
0
41
1
10
12.39565557014
20
3.78042861378805
30
0
41
1
10
12.3697974781699
20
3.77421384732796
30
0
41
1
10
12.3185517853539
20
3.75907242621861
30
0
41
1
10
12.2936244691928
20
3.75028420501593
30
0
41
1
10
12.2208919278174
20
3.72033209860811
30
0
41
1
10
12.1751150191407
20
3.69561768919053
30
0
41
1
10
12.1214650563556
20
3.65847341624476
30
0
41
1
10
12.1108831799056
20
3.65070346158535
30
0
41
1
10
12.0902566930463
20
3.63464214170421
30
0
41
1
10
12.0601866789962
20
3.6098263691741
30
0
41
1
10
12.0143177643229
20
3.56493167704343
30
0
41
1
10
11.9820724102503
20
3.52531274236429
30
0
41
1
10
11.9520800245866
20
3.48381884889528
30
0
41
1
10
11.938167753708
20
3.46202927291199
30
0
41
1
10
11.9007768051891
20
3.39536034565953
30
0
41
1
10
11.8812576204594
20
3.34880286114736
30
0
41
1
10
11.8597478898923
20
3.2759333038419
30
0
41
1
10
11.85387309702
20
3.25101639625274
30
0
41
1
10
11.8449417082214
20
3.20122219995494
30
0
41
1
10
11.8418430488673
20
3.17624623561582
30
0
41
1
10
11.836447041778
20
3.10109334774296
30
0
41
1
10
11.8380163553202
20
3.05069335103721
30
0
41
1
10
11.8446705556892
20
3.00000000000011
30
0
0
SPLINE
5
128
100
AcDbEntity
8
1
62
256
6
ByLayer
370
18
48
1
60
0
100
AcDbSpline
70
4
71
2
72
6
73
3
40
0
40
0
40
0
40
1
40
1
40
1
41
1.03186391735993
10
6.82713521185934
20
6.0526694862014
30
0
41
1.03138264657361
10
6.94917877905271
20
6.05266948620138
30
0
41
1.03186391735993
10
7.07099471039189
20
6.04520867988887
30
0
0
SPLINE
5
129
100
AcDbEntity
8
1
62
256
6
ByLayer
370
18
48
1
60
0
100
AcDbSpline
70
4
71
2
72
6
73
3
40
0
40
0
40
0
40
1
40
1
40
1
41
1.03186391735993
10
6.62740930490842
20
5.85266948620138
30
0
41
0.729637973226921
10
6.62740930490842
20
6.05266948620138
30
0
41
1.03186391735993
10
6.82713521185937
20
6.0526694862014
30
0
0
SPLINE
5
12A
100
AcDbEntity
8
1
62
256
6
ByLayer
370
18
48
1
60
0
100
AcDbSpline
70
4
71
2
72
6
73
3
40
0
40
0
40
0
40
1
40
1
40
1
41
1.03186391735993
10
26.400274093049
20
3.54733051379865
30
0
41
0.729637973226922
10
26.6
20
3.54733051379863
30
0
41
1.03186391735993
10
26.5999999999999
20
3.74733051379865
30
0
0
SPLINE
5
12B
100
AcDbEntity
8
1
62
256
6
ByLayer
370
18
48
1
60
0
100
AcDbSpline
70
4
71
2
72
6
73
3
40
0
40
0
40
0
40
1
40
1
40
1
41
1.03186391735993
10
26.1564145945164
20
3.55479132011119
30
0
41
1.03138264657361
10
26.2782305258557
20
3.54733051379864
30
0
41
1.03186391735993
10
26.400274093049
20
3.54733051379865
30
0
0
SPLINE
5
12C
100
AcDbEntity
8
1
62
256
6
ByLayer
370
18
48
1
60
0
100
AcDbSpline
70
4
71
2
72
6
73
3
40
0
40
0
40
0
40
1
40
1
40
1
41
1.03186391735993
10
26.5999999999999
20
5.85266948620144
30
0
41
0.729637973226922
10
26.6
20
6.0526694862014
30
0
41
1.03186391735993
10
26.400274093049
20
6.05266948620143
30
0
0
SPLINE
5
12D
100
AcDbEntity
8
1
62
256
6
ByLayer
370
18
48
1
60
0
100
AcDbSpline
70
4
71
2
72
6
73
3
40
0
40
0
40
0
40
1
40
1
40
1
41
1.03186391735993
10
26.400274093049
20
6.05266948620143
30
0
41
1.03138264657361
10
26.2782305258557
20
6.05266948620141
30
0
41
1.03186391735993
10
26.1564145945164
20
6.0452086798889
30
0
0
SPLINE
5
12E
100
AcDbEntity
8
1
62
256
6
ByLayer
370
18
48
1
60
0
100
AcDbSpline
70
4
71
3
72
8
73
4
40
0
40
0
40
0
40
0
40
1
40
1
40
1
40
1
41
1
10
9.08317127427023
20
5.96778903897993
30
0
41
1
10
9.09637571433495
20
5.96722032733356
30
0
41
1
10
9.109507397518
20
5.96531314894796
30
0
41
1
10
9.12234885661638
20
5.96207910918673
30
0
0
SPLINE
5
12F
100
AcDbEntity
8
1
62
256
6
ByLayer
370
18
48
1
60
0
100
AcDbSpline
70
4
71
3
72
8
73
4
40
0
40
0
40
0
40
0
40
1
40
1
40
1
40
1
41
1
10
24.0874449906149
20
5.96778903897942
30
0
41
1
10
24.073943051711
20
5.96722032733285
30
0
41
1
10
24.0605155089169
20
5.96531314894668
30
0
41
1
10
24.0473847290176
20
5.96207910918642
30
0
0
SPLINE
5
130
100
AcDbEntity
8
1
62
256
6
ByLayer
370
18
48
1
60
0
100
AcDbSpline
70
4
71
3
72
8
73
4
40
0
40
0
40
0
40
0
40
1
40
1
40
1
40
1
41
1
10
24.047384729019
20
3.63792089081326
30
0
41
1
10
24.0605156006566
20
3.63468682845837
30
0
41
1
10
24.073942967421
20
3.63277967621721
30
0
41
1
10
24.0874449906283
20
3.63221096102006
30
0
0
SPLINE
5
131
100
AcDbEntity
8
1
62
256
6
ByLayer
370
18
48
1
60
0
100
AcDbSpline
70
4
71
3
72
40
73
36
40
0
40
0
40
0
40
0
40
0.0625000000000012
40
0.0625000000000012
40
0.0937500000000019
40
0.0937500000000019
40
0.125000000000002
40
0.125000000000002
40
0.187500000000001
40
0.187500000000001
40
0.249999999999999
40
0.249999999999999
40
0.312499999999997
40
0.312499999999997
40
0.374999999999995
40
0.374999999999995
40
0.437499999999994
40
0.437499999999994
40
0.499999999999992
40
0.499999999999992
40
0.624999999999988
40
0.624999999999988
40
0.687499999999991
40
0.687499999999991
40
0.749999999999993
40
0.749999999999993
40
0.812499999999996
40
0.812499999999996
40
0.874999999999998
40
0.874999999999998
40
0.906249999999998
40
0.906249999999998
40
0.937499999999998
40
0.937499999999998
40
1
40
1
40
1
40
1
41
1
10
9.48224360780227
20
-0.69723604827621
30
0
41
1
10
9.46606029984886
20
-0.705524825650599
30
0
41
1
10
9.45157633089789
20
-0.716089690123624
30
0
41
1
10
9.43156173009749
20
-0.734242044647118
30
0
41
1
10
9.42518916604311
20
-0.740690740733015
30
0
41
1
10
9.41313039127726
20
-0.754088880526695
30
0
41
1
10
9.4074175165257
20
-0.76106230298268
30
0
41
1
10
9.39110712057661
20
-0.78270415501251
30
0
41
1
10
9.38144268578617
20
-0.797934687135808
30
0
41
1
10
9.36408957654456
20
-0.829599259763199
30
0
41
1
10
9.35643379770147
20
-0.845995572335994
30
0
41
1
10
9.34298652319535
20
-0.87948554508435
30
0
41
1
10
9.33716277998963
20
-0.896673238351269
30
0
41
1
10
9.32727563834777
20
-0.931459492959164
30
0
41
1
10
9.32320244643606
20
-0.949071006351261
30
0
41
1
10
9.31669058272479
20
-0.984708223985081
30
0
41
1
10
9.31425987780145
20
-1.00272453895823
30
0
41
1
10
9.31103329876098
20
-1.03879915208222
30
0
41
1
10
9.31022844120739
20
-1.05690346175481
30
0
41
1
10
9.31023500427386
20
-1.11141385296327
30
0
41
1
10
9.31342677589998
20
-1.14742684790775
30
0
41
1
10
9.3232038785647
20
-1.20093844171245
30
0
41
1
10
9.32728974424759
20
-1.21859479126462
30
0
41
1
10
9.33716964546457
20
-1.25334625180815
30
0
41
1
10
9.34298365779847
20
-1.27051053635341
30
0
41
1
10
9.35646083076131
20
-1.3040685291806
30
0
41
1
10
9.36412686574533
20
-1.32047608071761
30
0
41
1
10
9.38148348708756
20
-1.35213243280282
30
0
41
1
10
9.39119087518918
20
-1.36741640885904
30
0
41
1
10
9.40747070619705
20
-1.38900351561566
30
0
41
1
10
9.41317784265243
20
-1.39596723399706
30
0
41
1
10
9.4252396525211
20
-1.40936193286663
30
0
41
1
10
9.43161619168632
20
-1.41581001508979
30
0
41
1
10
9.45158807150565
20
-1.43391560286983
30
0
41
1
10
9.4660523807614
20
-1.44447111834603
30
0
41
1
10
9.48224360780227
20
-1.45276395172385
30
0
0
SPLINE
5
132
100
AcDbEntity
8
1
62
256
6
ByLayer
370
18
48
1
60
0
100
AcDbSpline
70
4
71
3
72
8
73
4
40
0
40
0
40
0
40
0
40
1
40
1
40
1
40
1
41
1
10
9.48224360780227
20
-1.45276395172385
30
0
41
1
10
9.48899991689024
20
-1.45622440258245
30
0
41
1
10
9.49575627765438
20
-1.45968439430146
30
0
41
1
10
9.50251268699463
20
-1.46314394410842
30
0
0
SPLINE
5
133
100
AcDbEntity
8
1
62
256
6
ByLayer
370
18
48
1
60
0
100
AcDbSpline
70
4
71
3
72
8
73
4
40
0
40
0
40
0
40
0
40
1
40
1
40
1
40
1
41
1
10
9.50251268699463
20
-0.686856055891639
30
0
41
1
10
9.49575627765438
20
-0.690315605698601
30
0
41
1
10
9.48899991689024
20
-0.693775597417613
30
0
41
1
10
9.48224360780227
20
-0.69723604827621
30
0
0
SPLINE
5
134
100
AcDbEntity
8
1
62
256
6
ByLayer
370
18
48
1
60
0
100
AcDbSpline
70
4
71
3
72
31
73
27
40
0
40
0
40
0
40
0
40
0.249999999999932
40
0.249999999999932
40
0.374999999999899
40
0.374999999999899
40
0.499999999999865
40
0.499999999999865
40
0.56249999999985
40
0.56249999999985
40
0.624999999999835
40
0.624999999999835
40
0.687499999999819
40
0.687499999999819
40
0.749999999999804
40
0.749999999999804
40
0.781249999999814
40
0.781249999999814
40
0.812499999999823
40
0.843749999999831
40
0.843749999999831
40
0.87499999999984
40
0.87499999999984
40
0.93749999999992
40
0.93749999999992
40
1
40
1
40
1
40
1
41
1
10
9.55533388601282
20
-1.91320000000005
30
0
41
1
10
9.5750361054622
20
-1.87490034204944
30
0
41
1
10
9.59157983927753
20
-1.83464411795347
30
0
41
1
10
9.61028233177069
20
-1.77233075207184
30
0
41
1
10
9.61549530828933
20
-1.75120206392475
30
0
41
1
10
9.62335756111759
20
-1.70843616080322
30
0
41
1
10
9.62601926459934
20
-1.6867757503575
30
0
41
1
10
9.62741960835837
20
-1.65411178845113
30
0
41
1
10
9.62745009734385
20
-1.64317388340885
30
0
41
1
10
9.62645973944581
20
-1.62137788938586
30
0
41
1
10
9.62543363866266
20
-1.61045109862425
30
0
41
1
10
9.62211182811481
20
-1.58891795477118
30
0
41
1
10
9.61982713407397
20
-1.57833656685852
30
0
41
1
10
9.61372508838133
20
-1.55763544377081
30
0
41
1
10
9.60991294021775
20
-1.5475140775147
30
0
41
1
10
9.60267965890873
20
-1.53279430977602
30
0
41
1
10
9.59999278091533
20
-1.52793388542162
30
0
41
1
10
9.59413159955446
20
-1.51858705925261
30
0
41
1
10
9.58779473433287
20
-1.50961597236463
30
0
41
1
10
9.58042628631864
20
-1.50146177673631
30
0
41
1
10
9.57248841703546
20
-1.49375947327019
30
0
41
1
10
9.56822567209406
20
-1.49013694592736
30
0
41
1
10
9.5549374675291
20
-1.48032085487856
30
0
41
1
10
9.54529666122028
20
-1.47504738976886
30
0
41
1
10
9.52444479205914
20
-1.46705646686721
30
0
41
1
10
9.51362185014341
20
-1.46448733193645
30
0
41
1
10
9.50251268699463
20
-1.46314394410842
30
0
0
SPLINE
5
135
100
AcDbEntity
8
1
62
256
6
ByLayer
370
18
48
1
60
0
100
AcDbSpline
70
4
71
3
72
32
73
28
40
0
40
0
40
0
40
0
40
0.125000000000017
40
0.125000000000017
40
0.250000000000035
40
0.250000000000035
40
0.375000000000052
40
0.375000000000052
40
0.50000000000007
40
0.50000000000007
40
0.562500000000079
40
0.562500000000079
40
0.625000000000087
40
0.625000000000087
40
0.687500000000096
40
0.687500000000096
40
0.750000000000105
40
0.750000000000105
40
0.812500000000114
40
0.812500000000114
40
0.843750000000094
40
0.843750000000094
40
0.875000000000074
40
0.875000000000074
40
0.937500000000037
40
0.937500000000037
40
1
40
1
40
1
40
1
41
1
10
9.55533388601282
20
-0.236800000000017
30
0
41
1
10
9.56519181342219
20
-0.255963082050272
30
0
41
1
10
9.57421490188818
20
-0.275553965729273
30
0
41
1
10
9.59052354873387
20
-0.31562167659672
30
0
41
1
10
9.59780065660752
20
-0.336084828283077
30
0
41
1
10
9.61028438472539
20
-0.377673796535504
30
0
41
1
10
9.61549666402874
20
-0.398797777558911
30
0
41
1
10
9.62336838317111
20
-0.441630249206696
30
0
41
1
10
9.62602629287647
20
-0.46326973363287
30
0
41
1
10
9.62742214770091
20
-0.496007056118401
30
0
41
1
10
9.6274487344221
20
-0.506910558117056
30
0
41
1
10
9.62645410222638
20
-0.52869134411651
30
0
41
1
10
9.62542804643675
20
-0.539609967045521
30
0
41
1
10
9.62208838659177
20
-0.561208969633213
30
0
41
1
10
9.61978833231217
20
-0.571839455948748
30
0
41
1
10
9.61362070533912
20
-0.592673241944681
30
0
41
1
10
9.60974309833972
20
-0.602910296276235
30
0
41
1
10
9.59995429124257
20
-0.622669080150303
30
0
41
1
10
9.59415599458285
20
-0.631968581138551
30
0
41
1
10
9.58378408810756
20
-0.644837092752823
30
0
41
1
10
9.58003158997343
20
-0.648951692721141
30
0
41
1
10
9.57211933172709
20
-0.656565075120056
30
0
41
1
10
9.56793897943368
20
-0.660092919782869
30
0
41
1
10
9.55470478143531
20
-0.669813158656126
30
0
41
1
10
9.54479358472167
20
-0.675178631183542
30
0
41
1
10
9.52426976375892
20
-0.682976260543001
30
0
41
1
10
9.51358055408573
20
-0.685517661835007
30
0
41
1
10
9.50251268699463
20
-0.686856055891639
30
0
0
SPLINE
5
136
100
AcDbEntity
8
1
62
256
6
ByLayer
370
18
48
1
60
0
100
AcDbSpline
70
4
71
3
72
42
73
38
40
0
40
0
40
0
40
0
40
0.0625000000000333
40
0.0625000000000333
40
0.0937500000000518
40
0.0937500000000518
40
0.12500000000007
40
0.12500000000007
40
0.187500000000097
40
0.187500000000097
40
0.250000000000123
40
0.250000000000123
40
0.312500000000149
40
0.312500000000149
40
0.375000000000175
40
0.375000000000175
40
0.437500000000201
40
0.437500000000201
40
0.500000000000227
40
0.500000000000227
40
0.562500000000253
40
0.562500000000253
40
0.625000000000279
40
0.625000000000279
40
0.750000000000332
40
0.750000000000332
40
0.78125000000032
40
0.78125000000032
40
0.812500000000308
40
0.812500000000308
40
0.875000000000237
40
0.875000000000237
40
0.906250000000178
40
0.906250000000178
40
0.937500000000118
40
0.937500000000118
40
1
40
1
40
1
40
1
41
1
10
8.55443184942118
20
-2.50083350996675
30
0
41
1
10
8.55072438193525
20
-2.48484653166747
30
0
41
1
10
8.54975897048149
20
-2.4691197835651
30
0
41
1
10
8.55109616078937
20
-2.44575658685508
30
0
41
1
10
8.55202483669774
20
-2.43801119303441
30
0
41
1
10
8.55468382328306
20
-2.42279980101611
30
0
41
1
10
8.55641577295708
20
-2.41530277394955
30
0
41
1
10
8.56267255366674
20
-2.39308458059116
30
0
41
1
10
8.56820233840796
20
-2.37878975753449
30
0
41
1
10
8.58142562053388
20
-2.35104530971185
30
0
41
1
10
8.58911002480011
20
-2.33763979616032
30
0
41
1
10
8.60620732165273
20
-2.31179651464547
30
0
41
1
10
8.61567145487078
20
-2.29929075690759
30
0
41
1
10
8.63605756219556
20
-2.27528317408908
30
0
41
1
10
8.64698380303255
20
-2.26376743862562
30
0
41
1
10
8.67022961602703
20
-2.24162564270131
30
0
41
1
10
8.68254580756718
20
-2.23101083809405
30
0
41
1
10
8.7082922505644
20
-2.21084148687018
30
0
41
1
10
8.72175361623007
20
-2.20125712436231
30
0
41
1
10
8.74984251610857
20
-2.18308974058999
30
0
41
1
10
8.76437306965113
20
-2.17456920227616
30
0
41
1
10
8.79440707079351
20
-2.1586634186836
30
0
41
1
10
8.80996925040728
20
-2.15125551369653
30
0
41
1
10
8.85758440314254
20
-2.13108825932093
30
0
41
1
10
8.89059957384725
20
-2.12026753279207
30
0
41
1
10
8.93366708453516
20
-2.11072458160194
30
0
41
1
10
8.94237242643126
20
-2.10902004560035
30
0
41
1
10
8.95998205327572
20
-2.1060623968404
30
0
41
1
10
8.96890498666693
20
-2.10480853403959
30
0
41
1
10
8.99565322316084
20
-2.10184652308592
30
0
41
1
10
9.01355394690358
20
-2.10090417376119
30
0
41
1
10
9.04052109599729
20
-2.1014342047433
30
0
41
1
10
9.04952962954295
20
-2.1019374925778
30
0
41
1
10
9.06759071310904
20
-2.10371877639491
30
0
41
1
10
9.07668221770584
20
-2.10500675723648
30
0
41
1
10
9.10346687109887
20
-2.11018702842659
30
0
41
1
10
9.12082346140403
20
-2.11533916442622
30
0
41
1
10
9.13742308290853
20
-2.12306955824295
30
0
0
SPLINE
5
137
100
AcDbEntity
8
1
62
256
6
ByLayer
370
18
48
1
60
0
100
AcDbSpline
70
4
71
3
72
8
73
4
40
0
40
0
40
0
40
0
40
1
40
1
40
1
40
1
41
1
10
8.55907276614792
20
-2.52083350996676
30
0
41
1
10
8.55752507030547
20
-2.51416770583361
30
0
41
1
10
8.55597808838394
20
-2.50750105023153
30
0
41
1
10
8.55443184942118
20
-2.50083350996675
30
0
0
SPLINE
5
138
100
AcDbEntity
8
1
62
256
6
ByLayer
370
18
48
1
60
0
100
AcDbSpline
70
4
71
3
72
32
73
28
40
0
40
0
40
0
40
0
40
0.125000000000046
40
0.125000000000046
40
0.250000000000092
40
0.250000000000092
40
0.375000000000138
40
0.375000000000138
40
0.500000000000184
40
0.500000000000184
40
0.56250000000018
40
0.56250000000018
40
0.625000000000176
40
0.625000000000176
40
0.687500000000172
40
0.687500000000172
40
0.750000000000167
40
0.750000000000167
40
0.812500000000163
40
0.812500000000163
40
0.843750000000161
40
0.843750000000161
40
0.875000000000159
40
0.875000000000159
40
0.93750000000008
40
0.93750000000008
40
1
40
1
40
1
40
1
41
1
10
9.55533388601282
20
-1.91320000000005
30
0
41
1
10
9.54547595860345
20
-1.9323630820503
30
0
41
1
10
9.53480911529508
20
-1.95104796999021
30
0
41
1
10
9.5117917371667
20
-1.98742714415195
30
0
41
1
10
9.49944752646456
20
-2.00510638509928
30
0
41
1
10
9.47305646325344
20
-2.03908713703115
30
0
41
1
10
9.45901448273619
20
-2.0553920135595
30
0
41
1
10
9.42899650796221
20
-2.08621430555795
30
0
41
1
10
9.41307570062159
20
-2.100690473475
30
0
41
1
10
9.38745893837648
20
-2.12046368142862
30
0
41
1
10
9.37867125856482
20
-2.12669446189807
30
0
41
1
10
9.36049986642701
20
-2.13830402728357
30
0
41
1
10
9.35107996357067
20
-2.14370242246375
30
0
41
1
10
9.33166696031603
20
-2.15334881110186
30
0
41
1
10
9.3217221906865
20
-2.1575790862243
30
0
41
1
10
9.30123691419527
20
-2.16457775233408
30
0
41
1
10
9.29066326648018
20
-2.16735730609045
30
0
41
1
10
9.26886264119204
20
-2.1709486087008
30
0
41
1
10
9.25788249681938
20
-2.17172223655319
30
0
41
1
10
9.24126144812618
20
-2.17100159538796
30
0
41
1
10
9.23568195947996
20
-2.17043852989897
30
0
41
1
10
9.22476810411172
20
-2.16866003038552
30
0
41
1
10
9.2193979214918
20
-2.16744512790896
30
0
41
1
10
9.20355508256122
20
-2.16279589414114
30
0
41
1
10
9.19322072174157
20
-2.15825302134979
30
0
41
1
10
9.17446497521735
20
-2.14701838600229
30
0
41
1
10
9.16590960873978
20
-2.14032895130097
30
0
41
1
10
9.15808311563683
20
-2.13268956585836
30
0
0
SPLINE
5
139
100
AcDbEntity
8
1
62
256
6
ByLayer
370
18
48
1
60
0
100
AcDbSpline
70
4
71
3
72
8
73
4
40
0
40
0
40
0
40
0
40
1
40
1
40
1
40
1
41
1
10
9.15808311563683
20
-2.13268956585836
30
0
41
1
10
9.15119640531174
20
-2.12948331153217
30
0
41
1
10
9.14430972691861
20
-2.12627664764909
30
0
41
1
10
9.13742308290853
20
-2.12306955824295
30
0
0
SPLINE
5
13A
100
AcDbEntity
8
1
62
256
6
ByLayer
370
18
48
1
60
0
100
AcDbSpline
70
4
71
3
72
40
73
36
40
0
40
0
40
0
40
0
40
0.0625000000000012
40
0.0625000000000012
40
0.093750000000003
40
0.093750000000003
40
0.125000000000005
40
0.125000000000005
40
0.187500000000008
40
0.187500000000008
40
0.250000000000012
40
0.250000000000012
40
0.312500000000016
40
0.312500000000016
40
0.37500000000002
40
0.37500000000002
40
0.437500000000023
40
0.437500000000023
40
0.500000000000027
40
0.500000000000027
40
0.62500000000004
40
0.62500000000004
40
0.687500000000026
40
0.687500000000026
40
0.750000000000011
40
0.750000000000011
40
0.812499999999996
40
0.812499999999996
40
0.874999999999982
40
0.874999999999982
40
0.906249999999974
40
0.906249999999974
40
0.937499999999967
40
0.937499999999967
40
1
40
1
40
1
40
1
41
1
10
8.55443184942118
20
0.350833509966691
30
0
41
1
10
8.55072816136044
20
0.334862828934831
30
0
41
1
10
8.549761081545
20
0.319151860282631
30
0
41
1
10
8.55109102483252
20
0.295811999181382
30
0
41
1
10
8.55201647747509
20
0.288073890378172
30
0
41
1
10
8.55466780985472
20
0.27287666945449
30
0
41
1
10
8.55639530032079
20
0.265386572021612
30
0
41
1
10
8.56263701352503
20
0.243188791219268
30
0
41
1
10
8.56815519544767
20
0.228905438960084
30
0
41
1
10
8.5813515060641
20
0.201184198016676
30
0
41
1
10
8.58902147213598
20
0.187788395564468
30
0
41
1
10
8.60608681361862
20
0.161964098742857
30
0
41
1
10
8.61553354680697
20
0.149467114903217
30
0
41
1
10
8.63588385848038
20
0.125473995834511
30
0
41
1
10
8.64679101434302
20
0.113964820706599
30
0
41
1
10
8.66999601610985
20
0.0918346489303588
30
0
41
1
10
8.68229182502074
20
0.0812237097960633
30
0
41
1
10
8.70799524368306
20
0.0610605462891556
30
0
41
1
10
8.72143241154154
20
0.0514794115269979
30
0
41
1
10
8.76349884056364
20
0.0242285329611889
30
0
41
1
10
8.79340314131841
20
0.0083143462370288
30
0
41
1
10
8.84114150829677
20
-0.0119679511654454
30
0
41
1
10
8.85745657277897
20
-0.0180842599284858
30
0
41
1
10
8.89075916866048
20
-0.0288647860851654
30
0
41
1
10
8.90781325114364
20
-0.0335503668895285
30
0
41
1
10
8.94250389614331
20
-0.0412297953105281
30
0
41
1
10
8.9601531121649
20
-0.0442288096165271
30
0
41
1
10
8.9958195230721
20
-0.0481653347340796
30
0
41
1
10
9.01387488568091
20
-0.0491092039228249
30
0
41
1
10
9.04097029802051
20
-0.0485467876385997
30
0
41
1
10
9.04999346625493
20
-0.0480291898690552
30
0
41
1
10
9.06801821462989
20
-0.0462260025932721
30
0
41
1
10
9.07704679061862
20
-0.0449332838800558
30
0
41
1
10
9.10366748841653
20
-0.039752506678326
30
0
41
1
10
9.12091951339079
20
-0.034616104452482
30
0
41
1
10
9.13742308290853
20
-0.0269304417571163
30
0
0
SPLINE
5
13B
100
AcDbEntity
8
1
62
256
6
ByLayer
370
18
48
1
60
0
100
AcDbSpline
70
4
71
3
72
8
73
4
40
0
40
0
40
0
40
0
40
1
40
1
40
1
40
1
41
1
10
9.13742308290853
20
-0.0269304417571163
30
0
41
1
10
9.14430972691861
20
-0.0237233523509701
30
0
41
1
10
9.15119640531174
20
-0.0205166884678931
30
0
41
1
10
9.15808311563683
20
-0.0173104341417059
30
0
0
SPLINE
5
13C
100
AcDbEntity
8
1
62
256
6
ByLayer
370
18
48
1
60
0
100
AcDbSpline
70
4
71
3
72
31
73
27
40
0
40
0
40
0
40
0
40
0.249999999999954
40
0.249999999999954
40
0.374999999999905
40
0.374999999999905
40
0.499999999999857
40
0.499999999999857
40
0.562499999999836
40
0.562499999999836
40
0.624999999999816
40
0.624999999999816
40
0.687499999999795
40
0.687499999999795
40
0.749999999999775
40
0.749999999999775
40
0.781249999999803
40
0.781249999999803
40
0.812499999999831
40
0.843749999999859
40
0.843749999999859
40
0.874999999999887
40
0.874999999999887
40
0.937499999999944
40
0.937499999999944
40
1
40
1
40
1
40
1
41
1
10
9.55533388601282
20
-0.236800000000017
30
0
41
1
10
9.53563166656349
20
-0.198500342049442
30
0
41
1
10
9.51260224665677
20
-0.161829281101433
30
0
41
1
10
9.47305896094935
20
-0.11091716048989
30
0
41
1
10
9.45901357751501
20
-0.0946090207311272
30
0
41
1
10
9.42904384251435
20
-0.0638323365740803
30
0
41
1
10
9.41310832128579
20
-0.0493411171454738
30
0
41
1
10
9.38755340906192
20
-0.0296060543242334
30
0
41
1
10
9.37874023798076
20
-0.0233525380419621
30
0
41
1
10
9.3605590855247
20
-0.0117308984239628
30
0
41
1
10
9.35113255961065
20
-0.0063278838060796
30
0
41
1
10
9.33178330828366
20
0.0032951322468477
30
0
41
1
10
9.32188728753914
20
0.0075096007120692
30
0
41
1
10
9.3015482328056
20
0.0144841706042769
30
0
41
1
10
9.29110708511422
20
0.0172490893236272
30
0
41
1
10
9.27490191962826
20
0.0199700010998072
30
0
41
1
10
9.26937070432163
20
0.02063875818979
30
0
41
1
10
9.25831322532494
20
0.0213931504431173
30
0
41
1
10
9.24726917422487
20
0.0215724848830519
30
0
41
1
10
9.23625335865904
20
0.0205085021114257
30
0
41
1
10
9.22525270701638
20
0.0187600211092445
30
0
41
1
10
9.21975655635703
20
0.0175351432916102
30
0
41
1
10
9.20380413343548
20
0.0128980957524902
30
0
41
1
10
9.19370830886487
20
0.0085091525026542
30
0
41
1
10
9.17459796641913
20
-0.0028671695761773
30
0
41
1
10
9.16593881069062
20
-0.009642544878119
30
0
41
1
10
9.15808311563683
20
-0.0173104341417059
30
0
0
SPLINE
5
13D
100
AcDbEntity
8
1
62
256
6
ByLayer
370
18
48
1
60
0
100
AcDbSpline
70
4
71
3
72
8
73
4
40
0
40
0
40
0
40
0
40
1
40
1
40
1
40
1
41
1
10
8.55907276614795
20
0.370833509966701
30
0
41
1
10
8.5575250703055
20
0.364167705833552
30
0
41
1
10
8.55597808838394
20
0.357501050231463
30
0
41
1
10
8.55443184942118
20
0.350833509966691
30
0
0
SPLINE
5
13E
100
AcDbEntity
8
1
62
256
6
ByLayer
370
18
48
1
60
0
100
AcDbSpline
70
4
71
3
72
32
73
28
40
0
40
0
40
0
40
0
40
0.12500000000002
40
0.12500000000002
40
0.250000000000039
40
0.250000000000039
40
0.375000000000059
40
0.375000000000059
40
0.500000000000078
40
0.500000000000078
40
0.562500000000059
40
0.562500000000059
40
0.625000000000039
40
0.625000000000039
40
0.68750000000002
40
0.68750000000002
40
0.75
40
0.75
40
0.812499999999981
40
0.812499999999981
40
0.843749999999984
40
0.843749999999984
40
0.874999999999987
40
0.874999999999987
40
0.937499999999994
40
0.937499999999994
40
1
40
1
40
1
40
1
41
1
10
8.26176617083195
20
-2.75140000000005
30
0
41
1
10
8.28148202565063
20
-2.75140000000005
30
0
41
1
10
8.30104917737808
20
-2.75049400426096
30
0
41
1
10
8.33986703809404
20
-2.74680546755525
30
0
41
1
10
8.35910296622785
20
-2.74402155681619
30
0
41
1
10
8.39689485056991
20
-2.73641334049566
30
0
41
1
10
8.41545284603444
20
-2.7315942360006
30
0
41
1
10
8.45153687852002
20
-2.7195840563513
30
0
41
1
10
8.46901160736036
20
-2.71242073984217
30
0
41
1
10
8.49391732596553
20
-2.69945662531023
30
0
41
1
10
8.50195667808885
20
-2.69478390378106
30
0
41
1
10
8.51739888840893
20
-2.68461268316707
30
0
41
1
10
8.52482935314401
20
-2.67909245541827
30
0
41
1
10
8.53874941172131
20
-2.6671398414687
30
0
41
1
10
8.54521033750393
20
-2.66073963027557
30
0
41
1
10
8.55687718812959
20
-2.64690451038942
30
0
41
1
10
8.56210206461139
20
-2.63944700981423
30
0
41
1
10
8.57079454945301
20
-2.62327952855054
30
0
41
1
10
8.57416603267001
20
-2.61475365541466
30
0
41
1
10
8.57740455349082
20
-2.60116450263519
30
0
41
1
10
8.57817499765287
20
-2.59648683717785
30
0
41
1
10
8.57901063605061
20
-2.58709495526546
30
0
41
1
10
8.57908486521777
20
-2.58235220812614
30
0
41
1
10
8.57824296543095
20
-2.56798273548506
30
0
41
1
10
8.57618896972485
20
-2.5580743901663
30
0
41
1
10
8.56946705950969
20
-2.53904212545933
30
0
41
1
10
8.56483375776929
20
-2.52981128946598
30
0
41
1
10
8.55907276614792
20
-2.52083350996676
30
0
0
SPLINE
5
13F
100
AcDbEntity
8
1
62
256
6
ByLayer
370
18
48
1
60
0
100
AcDbSpline
70
4
71
3
72
32
73
28
40
0
40
0
40
0
40
0
40
0.12499999999997
40
0.12499999999997
40
0.24999999999994
40
0.24999999999994
40
0.374999999999909
40
0.374999999999909
40
0.499999999999879
40
0.499999999999879
40
0.562499999999888
40
0.562499999999888
40
0.624999999999897
40
0.624999999999897
40
0.687499999999906
40
0.687499999999906
40
0.749999999999915
40
0.749999999999915
40
0.812499999999923
40
0.812499999999923
40
0.843749999999941
40
0.843749999999941
40
0.874999999999958
40
0.874999999999958
40
0.937499999999979
40
0.937499999999979
40
1
40
1
40
1
40
1
41
1
10
8.26176617083195
20
0.601399999999956
30
0
41
1
10
8.28148202565069
20
0.601399999999956
30
0
41
1
10
8.30104917737808
20
0.600494004260895
30
0
41
1
10
8.33986703809404
20
0.596805467555185
30
0
41
1
10
8.35910296622788
20
0.594021556816131
30
0
41
1
10
8.39689485056988
20
0.586413340495596
30
0
41
1
10
8.41545284603444
20
0.581594236000541
30
0
41
1
10
8.45153687851996
20
0.569584056351232
30
0
41
1
10
8.46901160736036
20
0.562420739842082
30
0
41
1
10
8.49391732596558
20
0.549456625310171
30
0
41
1
10
8.50195667808885
20
0.544783903780996
30
0
41
1
10
8.51739888840888
20
0.534612683167012
30
0
41
1
10
8.52482935314401
20
0.529092455418208
30
0
41
1
10
8.53874941172137
20
0.517139841468634
30
0
41
1
10
8.54521033750393
20
0.510739630275509
30
0
41
1
10
8.55687718812959
20
0.496904510389356
30
0
41
1
10
8.56210206461142
20
0.489447009814171
30
0
41
1
10
8.57079454945301
20
0.473279528550449
30
0
41
1
10
8.57416603267001
20
0.464753655414597
30
0
41
1
10
8.57740455349085
20
0.451164502635123
30
0
41
1
10
8.57817499765287
20
0.446486837177787
30
0
41
1
10
8.57901063605061
20
0.437094955265394
30
0
41
1
10
8.57908486521779
20
0.432352208126076
30
0
41
1
10
8.57824296543095
20
0.417982735484998
30
0
41
1
10
8.57618896972485
20
0.408074390166206
30
0
41
1
10
8.56946705950972
20
0.38904212545927
30
0
41
1
10
8.56483375776929
20
0.37981128946592
30
0
41
1
10
8.55907276614792
20
0.370833509966701
30
0
0
SPLINE
5
140
100
AcDbEntity
8
1
62
256
6
ByLayer
370
18
48
1
60
0
100
AcDbSpline
70
4
71
3
72
40
73
36
40
0
40
0
40
0
40
0
40
0.0624999999999828
40
0.0624999999999828
40
0.0937499999999882
40
0.0937499999999882
40
0.124999999999994
40
0.124999999999994
40
0.187499999999982
40
0.187499999999982
40
0.249999999999971
40
0.249999999999971
40
0.312499999999959
40
0.312499999999959
40
0.374999999999948
40
0.374999999999948
40
0.437499999999937
40
0.437499999999937
40
0.499999999999925
40
0.499999999999925
40
0.624999999999944
40
0.624999999999944
40
0.687499999999953
40
0.687499999999953
40
0.749999999999962
40
0.749999999999962
40
0.812499999999971
40
0.812499999999971
40
0.874999999999981
40
0.874999999999981
40
0.906249999999984
40
0.906249999999984
40
0.937499999999987
40
0.937499999999987
40
1
40
1
40
1
40
1
41
1
10
7.28179956614633
20
-0.0269304417571163
30
0
41
1
10
7.2902633082673
20
-0.0346123454146152
30
0
41
1
10
7.30002558343782
20
-0.0397584495937906
30
0
41
1
10
7.31603065669776
20
-0.0449459561715457
30
0
41
1
10
7.32160007274885
20
-0.04623536888883
30
0
41
1
10
7.33299469138234
20
-0.0480344500188608
30
0
41
1
10
7.3388410485835
20
-0.048551124995754
30
0
41
1
10
7.35678779006525
20
-0.0491070537682674
30
0
41
1
10
7.36916640388739
20
-0.048159873904126
30
0
41
1
10
7.39459461450878
20
-0.0442165422201413
30
0
41
1
10
7.40761215655698
20
-0.0412160320995838
30
0
41
1
10
7.43401870767212
20
-0.0335503561728387
30
0
41
1
10
7.44748116684298
20
-0.0288596467455591
30
0
41
1
10
7.47462185175056
20
-0.0180665112063707
30
0
41
1
10
7.48831040807778
20
-0.0119641729421573
30
0
41
1
10
7.51595134291239
20
0.0015428729154223
30
0
41
1
10
7.52989616685068
20
0.0089482487542796
30
0
41
1
10
7.55778676431765
20
0.0248596983713583
30
0
41
1
10
7.57176817090516
20
0.0333828732817949
30
0
41
1
10
7.61383015836088
20
0.0606423859244387
30
0
41
1
10
7.64158179417188
20
0.080741194144764
30
0
41
1
10
7.68265992894044
20
0.113970490546961
30
0
41
1
10
7.69618490170035
20
0.125510531336118
30
0
41
1
10
7.72270205010062
20
0.149481465722943
30
0
41
1
10
7.73574717202092
20
0.161960169463839
30
0
41
1
10
7.76107576549967
20
0.187838733870052
30
0
41
1
10
7.77337008500243
20
0.201247271101039
30
0
41
1
10
7.79680182183279
20
0.228967098068694
30
0
41
1
10
7.80796585358732
20
0.243307204936173
30
0
41
1
10
7.82337772522067
20
0.265456727977011
30
0
41
1
10
7.8282860693065
20
0.272938044127983
30
0
41
1
10
7.83756507692701
20
0.288135930273313
30
0
41
1
10
7.84194660393257
20
0.295876731209717
30
0
41
1
10
7.85392315312947
20
0.319163096191488
30
0
41
1
10
7.86046061426839
20
0.334855013893531
30
0
41
1
10
7.86479079963368
20
0.350833509966691
30
0
0
SPLINE
5
141
100
AcDbEntity
8
1
62
256
6
ByLayer
370
18
48
1
60
0
100
AcDbSpline
70
4
71
3
72
8
73
4
40
0
40
0
40
0
40
0
40
1
40
1
40
1
40
1
41
1
10
7.86479079963368
20
0.350833509966691
30
0
41
1
10
7.86659770844068
20
0.357501050231463
30
0
41
1
10
7.86840532562024
20
0.364167705833552
30
0
41
1
10
7.87021362343222
20
0.370833509966701
30
0
0
SPLINE
5
142
100
AcDbEntity
8
1
62
256
6
ByLayer
370
18
48
1
60
0
100
AcDbSpline
70
4
71
3
72
31
73
27
40
0
40
0
40
0
40
0
40
0.249999999999925
40
0.249999999999925
40
0.374999999999887
40
0.374999999999887
40
0.499999999999849
40
0.499999999999849
40
0.562499999999834
40
0.562499999999834
40
0.624999999999819
40
0.624999999999819
40
0.687499999999804
40
0.687499999999804
40
0.749999999999789
40
0.749999999999789
40
0.781249999999806
40
0.781249999999806
40
0.812499999999824
40
0.843749999999841
40
0.843749999999841
40
0.874999999999859
40
0.874999999999859
40
0.93749999999993
40
0.93749999999993
40
1
40
1
40
1
40
1
41
1
10
8.26176617083195
20
0.601399999999956
30
0
41
1
10
8.22236173193323
20
0.601399999999956
30
0
41
1
10
8.18231216996736
20
0.597814836851995
30
0
41
1
10
8.12244358690043
20
0.586413591581902
30
0
41
1
10
8.10248872389801
20
0.581593043193578
30
0
41
1
10
8.06285428738494
20
0.569603824229063
30
0
41
1
10
8.04315214738489
20
0.562434633212007
30
0
41
1
10
8.0140959889695
20
0.549505734126853
30
0
41
1
10
8.00447562282594
20
0.54482134536687
30
0
41
1
10
7.9855499537764
20
0.534646990961846
30
0
41
1
10
7.97618555035135
20
0.529123214818128
30
0
41
1
10
7.95801284158262
20
0.517213087017979
30
0
41
1
10
7.94922409082113
20
0.510846167570548
30
0
41
1
10
7.93235841062614
20
0.497119614375066
30
0
41
1
10
7.92427925030512
20
0.489763166838316
30
0
41
1
10
7.91284687137073
20
0.477764310875784
30
0
41
1
10
7.90912792157957
20
0.473572643611391
30
0
41
1
10
7.9021025103649
20
0.464980209695682
30
0
41
1
10
7.89548888393867
20
0.456188457247663
30
0
41
1
10
7.88976244709462
20
0.446970278847715
30
0
41
1
10
7.88452295358701
20
0.437519494379387
30
0
41
1
10
7.8821505240833
20
0.432672089218926
30
0
41
1
10
7.876018529242
20
0.418218950631029
30
0
41
1
10
7.87315104110525
20
0.408556542271469
30
0
41
1
10
7.86985589224793
20
0.389189297290983
30
0
41
1
10
7.86948917408404
20
0.379844787058289
30
0
41
1
10
7.87021362343225
20
0.370833509966701
30
0
0
SPLINE
5
143
100
AcDbEntity
8
1
62
256
6
ByLayer
370
18
48
1
60
0
100
AcDbSpline
70
4
71
3
72
8
73
4
40
0
40
0
40
0
40
0
40
1
40
1
40
1
40
1
41
1
10
7.27120327394334
20
-0.0173104341417059
30
0
41
1
10
7.27473399061398
20
-0.0205166884678931
30
0
41
1
10
7.27826606990601
20
-0.0237233523509701
30
0
41
1
10
7.28179956614633
20
-0.0269304417571163
30
0
0
SPLINE
5
144
100
AcDbEntity
8
1
62
256
6
ByLayer
370
18
48
1
60
0
100
AcDbSpline
70
4
71
3
72
8
73
4
40
0
40
0
40
0
40
0
40
1
40
1
40
1
40
1
41
1
10
7.28179956614633
20
-2.12306955824295
30
0
41
1
10
7.27826606990601
20
-2.12627664764912
30
0
41
1
10
7.27473399061398
20
-2.12948331153217
30
0
41
1
10
7.27120327394334
20
-2.13268956585836
30
0
0
SPLINE
5
145
100
AcDbEntity
8
1
62
256
6
ByLayer
370
18
48
1
60
0
100
AcDbSpline
70
4
71
3
72
31
73
27
40
0
40
0
40
0
40
0
40
0.249999999999809
40
0.249999999999809
40
0.374999999999744
40
0.374999999999744
40
0.49999999999968
40
0.49999999999968
40
0.562499999999686
40
0.562499999999686
40
0.624999999999691
40
0.624999999999691
40
0.687499999999697
40
0.687499999999697
40
0.749999999999702
40
0.749999999999702
40
0.781249999999733
40
0.781249999999733
40
0.812499999999763
40
0.843749999999794
40
0.843749999999794
40
0.874999999999824
40
0.874999999999824
40
0.937499999999912
40
0.937499999999912
40
1
40
1
40
1
40
1
41
1
10
8.26176617083195
20
-2.75140000000005
30
0
41
1
10
8.22236173193329
20
-2.75140000000005
30
0
41
1
10
8.18231216996736
20
-2.74781483685206
30
0
41
1
10
8.12244358690043
20
-2.73641359158197
30
0
41
1
10
8.10248872389798
20
-2.73159304319364
30
0
41
1
10
8.06285428738494
20
-2.71960382422913
30
0
41
1
10
8.04315214738483
20
-2.71243463321207
30
0
41
1
10
8.01409598896942
20
-2.69950573412692
30
0
41
1
10
8.00447562282591
20
-2.69482134536693
30
0
41
1
10
7.98554995377629
20
-2.68464699096191
30
0
41
1
10
7.97618555035129
20
-2.67912321481819
30
0
41
1
10
7.95801284158262
20
-2.66721308701801
30
0
41
1
10
7.94922409082113
20
-2.66084616757061
30
0
41
1
10
7.93235841062608
20
-2.64711961437513
30
0
41
1
10
7.92427925030509
20
-2.63976316683835
30
0
41
1
10
7.91284687137076
20
-2.62776431087585
30
0
41
1
10
7.90912792157954
20
-2.62357264361142
30
0
41
1
10
7.90210251036484
20
-2.61498020969572
30
0
41
1
10
7.89548888393864
20
-2.6061884572477
30
0
41
1
10
7.88976244709457
20
-2.59697027884775
30
0
41
1
10
7.88452295358698
20
-2.58751949437942
30
0
41
1
10
7.88215052408327
20
-2.58267208921896
30
0
41
1
10
7.876018529242
20
-2.56821895063106
30
0
41
1
10
7.87315104110525
20
-2.5585565422715
30
0
41
1
10
7.86985589224793
20
-2.53918929729102
30
0
41
1
10
7.86948917408404
20
-2.52984478705835
30
0
41
1
10
7.87021362343225
20
-2.52083350996676
30
0
0
SPLINE
5
146
100
AcDbEntity
8
1
62
256
6
ByLayer
370
18
48
1
60
0
100
AcDbSpline
70
4
71
3
72
8
73
4
40
0
40
0
40
0
40
0
40
1
40
1
40
1
40
1
41
1
10
7.86479079963368
20
-2.50083350996675
30
0
41
1
10
7.86659770844068
20
-2.50750105023153
30
0
41
1
10
7.86840532562024
20
-2.51416770583361
30
0
41
1
10
7.87021362343225
20
-2.52083350996676
30
0
0
SPLINE
5
147
100
AcDbEntity
8
1
62
256
6
ByLayer
370
18
48
1
60
0
100
AcDbSpline
70
4
71
3
72
40
73
36
40
0
40
0
40
0
40
0
40
0.0312499999999998
40
0.0312499999999998
40
0.0624999999999997
40
0.0624999999999997
40
0.12499999999999
40
0.12499999999999
40
0.156249999999986
40
0.156249999999986
40
0.187499999999981
40
0.187499999999981
40
0.24999999999998
40
0.24999999999998
40
0.312499999999979
40
0.312499999999979
40
0.374999999999978
40
0.374999999999978
40
0.499999999999976
40
0.499999999999976
40
0.624999999999973
40
0.624999999999973
40
0.687499999999972
40
0.687499999999972
40
0.749999999999971
40
0.749999999999971
40
0.81249999999997
40
0.81249999999997
40
0.874999999999969
40
0.874999999999969
40
0.906249999999982
40
0.906249999999982
40
0.937499999999995
40
0.937499999999995
40
1
40
1
40
1
40
1
41
1
10
7.28179956614633
20
-2.12306955824295
30
0
41
1
10
7.28605022850402
20
-2.11921155096366
30
0
41
1
10
7.29065810880843
20
-2.11598808051144
30
0
41
1
10
7.3004664211704
20
-2.11057410081469
30
0
41
1
10
7.30566301569067
20
-2.10839458832453
30
0
41
1
10
7.3217141676094
20
-2.10325329894567
30
0
41
1
10
7.33312525294042
20
-2.1016049265057
30
0
41
1
10
7.35109664003576
20
-2.10108011744725
30
0
41
1
10
7.35723821407848
20
-2.10123955606929
30
0
41
1
10
7.36961586260648
20
-2.10213631705508
30
0
41
1
10
7.37587475800305
20
-2.10287239919168
30
0
41
1
10
7.39485391066728
20
-2.10584037322678
30
0
41
1
10
7.40777553465841
20
-2.10882552576285
30
0
41
1
10
7.43415441501895
20
-2.11649497576218
30
0
41
1
10
7.44767602405423
20
-2.12121248554468
30
0
41
1
10
7.4747587193354
20
-2.13199334074969
30
0
41
1
10
7.48836434150522
20
-2.1380645056401
30
0
41
1
10
7.5294177120191
20
-2.15811873581933
30
0
41
1
10
7.55710551280569
20
-2.17391212278224
30
0
41
1
10
7.6132496189866
20
-2.2102350177006
30
0
41
1
10
7.64124555285355
20
-2.23048611561839
30
0
41
1
10
7.68239765552613
20
-2.26375000357109
30
0
41
1
10
7.6959361504243
20
-2.27529372467285
30
0
41
1
10
7.72248975665201
20
-2.29928163658494
30
0
41
1
10
7.73555258607041
20
-2.31176932794199
30
0
41
1
10
7.76091803357025
20
-2.33766971744066
30
0
41
1
10
7.77323009410998
20
-2.35108965734017
30
0
41
1
10
7.7966973556583
20
-2.37883560114852
30
0
41
1
10
7.80787820861372
20
-2.39318924578717
30
0
41
1
10
7.82331435259255
20
-2.41536169119095
30
0
41
1
10
7.8282304071044
20
-2.42285080097489
30
0
41
1
10
7.83752393137723
20
-2.43806465478465
30
0
41
1
10
7.84191246627211
20
-2.4458139611657
30
0
41
1
10
7.85390812637596
20
-2.46912670698029
30
0
41
1
10
7.86045559564468
20
-2.48483649504215
30
0
41
1
10
7.86479079963368
20
-2.50083350996675
30
0
0
SPLINE
5
148
100
AcDbEntity
8
1
62
256
6
ByLayer
370
18
48
1
60
0
100
AcDbSpline
70
4
71
3
72
31
73
27
40
0
40
0
40
0
40
0
40
0.249999999999981
40
0.249999999999981
40
0.374999999999968
40
0.374999999999968
40
0.499999999999954
40
0.499999999999954
40
0.562499999999948
40
0.562499999999948
40
0.624999999999941
40
0.624999999999941
40
0.687499999999935
40
0.687499999999935
40
0.749999999999928
40
0.749999999999928
40
0.781249999999952
40
0.781249999999952
40
0.812499999999975
40
0.843749999999999
40
0.843749999999999
40
0.875000000000022
40
0.875000000000022
40
0.937500000000011
40
0.937500000000011
40
1
40
1
40
1
40
1
41
1
10
6.96819845565108
20
-1.91320000000002
30
0
41
1
10
6.98790067510043
20
-1.95149965795062
30
0
41
1
10
7.00997727851953
20
-1.98817071889863
30
0
41
1
10
7.04627495449421
20
-2.03908283951017
30
0
41
1
10
7.05892733182969
20
-2.05539097926893
30
0
41
1
10
7.08529216946192
20
-2.08616766342598
30
0
41
1
10
7.09901786011096
20
-2.10065888285459
30
0
41
1
10
7.12037096746985
20
-2.12039394567583
30
0
41
1
10
7.12763072639717
20
-2.1266474619581
30
0
41
1
10
7.14234212987014
20
-2.1382691015761
30
0
41
1
10
7.14984069919598
20
-2.14367211619398
30
0
41
1
10
7.1648994145441
20
-2.15329513224691
30
0
41
1
10
7.17244058717273
20
-2.15750960071213
30
0
41
1
10
7.18752229959784
20
-2.16448417060437
30
0
41
1
10
7.19506312570297
20
-2.16724908932369
30
0
41
1
10
7.2063473016741
20
-2.16997000109987
30
0
41
1
10
7.21012929202479
20
-2.17063875818988
30
0
41
1
10
7.21752854386383
20
-2.17139315044318
30
0
41
1
10
7.22475971386851
20
-2.17157248488314
30
0
41
1
10
7.23161739084941
20
-2.17050850211149
30
0
41
1
10
7.23826462019588
20
-2.16876002110931
30
0
41
1
10
7.24148272328353
20
-2.16753514329167
30
0
41
1
10
7.25049959323582
20
-2.16289809575255
30
0
41
1
10
7.25577047805666
20
-2.15850915250272
30
0
41
1
10
7.2648074693569
20
-2.14713283042388
30
0
41
1
10
7.26840561638315
20
-2.14035745512194
30
0
41
1
10
7.27120327394334
20
-2.13268956585836
30
0
0
SPLINE
5
149
100
AcDbEntity
8
1
62
256
6
ByLayer
370
18
48
1
60
0
100
AcDbSpline
70
4
71
3
72
32
73
28
40
0
40
0
40
0
40
0
40
0.125000000000038
40
0.125000000000038
40
0.250000000000076
40
0.250000000000076
40
0.375000000000114
40
0.375000000000114
40
0.500000000000152
40
0.500000000000152
40
0.562500000000152
40
0.562500000000152
40
0.625000000000152
40
0.625000000000152
40
0.687500000000152
40
0.687500000000152
40
0.750000000000152
40
0.750000000000152
40
0.812500000000152
40
0.812500000000152
40
0.843750000000127
40
0.843750000000127
40
0.875000000000102
40
0.875000000000102
40
0.937500000000051
40
0.937500000000051
40
1
40
1
40
1
40
1
41
1
10
6.96819845565108
20
-0.236800000000045
30
0
41
1
10
6.97805638306045
20
-0.21763691794979
30
0
41
1
10
6.98847766627489
20
-0.198952030009877
30
0
41
1
10
7.01047871588696
20
-0.162572855848111
30
0
41
1
10
7.02205214570512
20
-0.144893614900809
30
0
41
1
10
7.04627739494253
20
-0.110912862968917
30
0
41
1
10
7.05892684674757
20
-0.0946079864405931
30
0
41
1
10
7.08533349865996
20
-0.0637856944421173
30
0
41
1
10
7.0990463295893
20
-0.0493095265250645
30
0
41
1
10
7.12044929490571
20
-0.0295363185714734
30
0
41
1
10
7.12768714589819
20
-0.0233055381019938
30
0
41
1
10
7.14238943879215
20
-0.0116959727165238
30
0
41
1
10
7.14988257698519
20
-0.0062975775363157
30
0
41
1
10
7.1649890105752
20
0.0033488111018016
30
0
41
1
10
7.17256620106991
20
0.00757908622424
30
0
41
1
10
7.18774987977616
20
0.01457775233402
30
0
41
1
10
7.19538119902342
20
0.0173573060903891
30
0
41
1
10
7.21054315761288
20
0.0209486087007349
30
0
41
1
10
7.21790257299369
20
0.0217222365531313
30
0
41
1
10
7.2285023788927
20
0.0210015953879008
30
0
41
1
10
7.23196877483878
20
0.0204385298989109
30
0
41
1
10
7.23855071275875
20
0.0186600303854334
30
0
41
1
10
7.24168969305993
20
0.0174451279088998
30
0
41
1
10
7.25063145055259
20
0.0127958941410782
30
0
41
1
10
7.25601149174787
20
0.0082530213497307
30
0
41
1
10
7.26485956671894
20
-0.0029816139977754
30
0
41
1
10
7.2684160161069
20
-0.0096710486991185
30
0
41
1
10
7.27120327394334
20
-0.0173104341417059
30
0
0
SPLINE
5
14A
100
AcDbEntity
8
1
62
256
6
ByLayer
370
18
48
1
60
0
100
AcDbSpline
70
4
71
3
72
40
73
36
40
0
40
0
40
0
40
0
40
0.0624999999999784
40
0.0624999999999784
40
0.0937499999999757
40
0.0937499999999757
40
0.124999999999973
40
0.124999999999973
40
0.187499999999978
40
0.187499999999978
40
0.249999999999983
40
0.249999999999983
40
0.312499999999987
40
0.312499999999987
40
0.374999999999992
40
0.374999999999992
40
0.437499999999997
40
0.437499999999997
40
0.500000000000002
40
0.500000000000002
40
0.625000000000008
40
0.625000000000008
40
0.687500000000011
40
0.687500000000011
40
0.750000000000015
40
0.750000000000015
40
0.812500000000018
40
0.812500000000018
40
0.875000000000021
40
0.875000000000021
40
0.906250000000015
40
0.906250000000015
40
0.93750000000001
40
0.93750000000001
40
1
40
1
40
1
40
1
41
1
10
6.93697904125258
20
-1.45276395172385
30
0
41
1
10
6.9451305936625
20
-1.44447517434949
30
0
41
1
10
6.95210533468349
20
-1.43391030987647
30
0
41
1
10
6.96144099382792
20
-1.41575795535294
30
0
41
1
10
6.96435635659057
20
-1.40930925926705
30
0
41
1
10
6.96978415433256
20
-1.39591111947337
30
0
41
1
10
6.97230901305124
20
-1.38893769701738
30
0
41
1
10
6.97940867365719
20
-1.36729584498755
30
0
41
1
10
6.98346510266566
20
-1.35206531286426
30
0
41
1
10
6.99057579343392
20
-1.32040074023683
30
0
41
1
10
6.99361516654352
20
-1.30400442766407
30
0
41
1
10
6.99885031130236
20
-1.27051445491571
30
0
41
1
10
7.00105802006166
20
-1.25332676164882
30
0
41
1
10
7.0047516248882
20
-1.2185405070409
30
0
41
1
10
7.0062412339056
20
-1.2009289936488
30
0
41
1
10
7.00860123632998
20
-1.16529177601498
30
0
41
1
10
7.00946856146143
20
-1.14727546104183
30
0
41
1
10
7.01061634003025
20
-1.11120084791784
30
0
41
1
10
7.01089995993476
20
-1.09309653824525
30
0
41
1
10
7.01089763986823
20
-1.0385861470368
30
0
41
1
10
7.00978408160677
20
-1.00257315209231
30
0
41
1
10
7.00624071985203
20
-0.949061558287639
30
0
41
1
10
7.00474640209049
20
-0.931405208735441
30
0
41
1
10
7.0010554083448
20
-0.896653748191937
30
0
41
1
10
6.99885149955313
20
-0.879489463646649
30
0
41
1
10
6.993604569474
20
-0.845931470819465
30
0
41
1
10
6.99056081142038
20
-0.829523919282451
30
0
41
1
10
6.98344808460894
20
-0.797867567197244
30
0
41
1
10
6.97937281100195
20
-0.78258359114102
30
0
41
1
10
6.9722855605973
20
-0.760996484384407
30
0
41
1
10
6.96976304875545
20
-0.754032766003007
30
0
41
1
10
6.96433337711534
20
-0.740638067133432
30
0
41
1
10
6.96141581831415
20
-0.734189984910273
30
0
41
1
10
6.9520994009315
20
-0.716084397130231
30
0
41
1
10
6.94513458251677
20
-0.705528881654033
30
0
41
1
10
6.93697904125258
20
-0.69723604827621
30
0
0
SPLINE
5
14B
100
AcDbEntity
8
1
62
256
6
ByLayer
370
18
48
1
60
0
100
AcDbSpline
70
4
71
3
72
8
73
4
40
0
40
0
40
0
40
0
40
1
40
1
40
1
40
1
41
1
10
6.93697904125258
20
-0.69723604827621
30
0
41
1
10
6.93357587993438
20
-0.693775597417613
30
0
41
1
10
6.93017411827137
20
-0.690315605698601
30
0
41
1
10
6.92677370258551
20
-0.686856055891639
30
0
0
SPLINE
5
14C
100
AcDbEntity
8
1
62
256
6
ByLayer
370
18
48
1
60
0
100
AcDbSpline
70
4
71
3
72
31
73
27
40
0
40
0
40
0
40
0
40
0.250000000000008
40
0.250000000000008
40
0.37500000000001
40
0.37500000000001
40
0.500000000000012
40
0.500000000000012
40
0.562500000000006
40
0.562500000000006
40
0.625
40
0.625
40
0.687499999999994
40
0.687499999999994
40
0.749999999999988
40
0.749999999999988
40
0.78124999999999
40
0.78124999999999
40
0.812499999999991
40
0.843749999999993
40
0.843749999999993
40
0.874999999999994
40
0.874999999999994
40
0.937499999999997
40
0.937499999999997
40
1
40
1
40
1
40
1
41
1
10
6.96819845565108
20
-0.236800000000045
30
0
41
1
10
6.94849623620172
20
-0.275099657950619
30
0
41
1
10
6.93099968589877
20
-0.315355882046617
30
0
41
1
10
6.90905158367292
20
-0.377669247928225
30
0
41
1
10
6.90244560105535
20
-0.39879793607534
30
0
41
1
10
6.89097845085868
20
-0.441563839196874
30
0
41
1
10
6.88610691679747
20
-0.463224249642565
30
0
41
1
10
6.88050476817341
20
-0.49588821154893
30
0
41
1
10
6.87892086703411
20
-0.506826116591213
30
0
41
1
10
6.87644147594904
20
-0.528622110614236
30
0
41
1
10
6.87553962014397
20
-0.539548901375838
30
0
41
1
10
6.87457089471286
20
-0.561082045228915
30
0
41
1
10
6.87450074063784
20
-0.571663433141538
30
0
41
1
10
6.87534544402217
20
-0.592364556229256
30
0
41
1
10
6.87625727059944
20
-0.602485922485357
30
0
41
1
10
6.87856956239366
20
-0.617205690224068
30
0
41
1
10
6.87950721543115
20
-0.622066114578445
30
0
41
1
10
6.88171016963435
20
-0.631412940747481
30
0
41
1
10
6.88423415376047
20
-0.640384027635463
30
0
41
1
10
6.88744446318981
20
-0.648538223263756
30
0
41
1
10
6.89102891017677
20
-0.656240526729874
30
0
41
1
10
6.89301360754655
20
-0.659863054072702
30
0
41
1
10
6.89936625914223
20
-0.669679145121506
30
0
41
1
10
6.90418212570111
20
-0.674952610231202
30
0
41
1
10
6.91496064371683
20
-0.682943533132857
30
0
41
1
10
6.92072257693036
20
-0.685512668063637
30
0
41
1
10
6.92677370258551
20
-0.686856055891639
30
0
0
SPLINE
5
14D
100
AcDbEntity
8
1
62
256
6
ByLayer
370
18
48
1
60
0
100
AcDbSpline
70
4
71
3
72
32
73
28
40
0
40
0
40
0
40
0
40
0.125000000000007
40
0.125000000000007
40
0.250000000000013
40
0.250000000000013
40
0.37500000000002
40
0.37500000000002
40
0.500000000000026
40
0.500000000000026
40
0.562500000000036
40
0.562500000000036
40
0.625000000000046
40
0.625000000000046
40
0.687500000000056
40
0.687500000000056
40
0.750000000000066
40
0.750000000000066
40
0.812500000000076
40
0.812500000000076
40
0.843750000000073
40
0.843750000000073
40
0.875000000000071
40
0.875000000000071
40
0.937500000000035
40
0.937500000000035
40
1
40
1
40
1
40
1
41
1
10
6.96819845565108
20
-1.91320000000002
30
0
41
1
10
6.95834052824174
20
-1.89403691794979
30
0
41
1
10
6.94907187968184
20
-1.87444603427079
30
0
41
1
10
6.93174690431977
20
-1.83437832340334
30
0
41
1
10
6.92369901556214
20
-1.81391517171699
30
0
41
1
10
6.90904947347062
20
-1.77232620346456
30
0
41
1
10
6.90244466545499
20
-1.75120222244115
30
0
41
1
10
6.89096162345106
20
-1.70836975079337
30
0
41
1
10
6.88609573733441
20
-1.68673026636719
30
0
41
1
10
6.88048608558125
20
-1.65399294388166
30
0
41
1
10
6.87890967004083
20
-1.64308944188301
30
0
41
1
10
6.87643520299281
20
-1.62130865588355
30
0
41
1
10
6.87553449411911
20
-1.61039003295457
30
0
41
1
10
6.87456758429946
20
-1.58879103036688
30
0
41
1
10
6.87450005944407
20
-1.57816054405131
30
0
41
1
10
6.87536608863221
20
-1.55732675805538
30
0
41
1
10
6.87630136716388
20
-1.54708970372383
30
0
41
1
10
6.87945150756235
20
-1.52733091984976
30
0
41
1
10
6.88162907523008
20
-1.51803141886151
30
0
41
1
10
6.88597973891132
20
-1.50516290724727
30
0
41
1
10
6.88761914434522
20
-1.50104830727889
30
0
41
1
10
6.89119948514343
20
-1.49343492487998
30
0
41
1
10
6.89314863511794
20
-1.48990708021719
30
0
41
1
10
6.89948175167854
20
-1.48018684134396
30
0
41
1
10
6.90443862876782
20
-1.47482136881652
30
0
41
1
10
6.91505477817731
20
-1.46702373945709
30
0
41
1
10
6.92074507076094
20
-1.46448233816505
30
0
41
1
10
6.92677370258551
20
-1.46314394410842
30
0
0
SPLINE
5
14E
100
AcDbEntity
8
1
62
256
6
ByLayer
370
18
48
1
60
0
100
AcDbSpline
70
4
71
3
72
8
73
4
40
0
40
0
40
0
40
0
40
1
40
1
40
1
40
1
41
1
10
6.92677370258551
20
-1.46314394410842
30
0
41
1
10
6.93017411827137
20
-1.45968439430146
30
0
41
1
10
6.93357587993438
20
-1.45622440258248
30
0
41
1
10
6.93697904125258
20
-1.45276395172385
30
0
0
LINE
5
7F
100
AcDbEntity
8
81
62
256
6
ByLayer
370
18
48
1
60
0
100
AcDbLine
10
26.6
20
6.05
30
0
11
31.593148
21
6.05
31
0
39
0
210
0
220
0
230
1
0
LINE
5
80
100
AcDbEntity
8
80
62
256
6
ByLayer
370
18
48
1
60
0
100
AcDbLine
10
0
20
0
30
0
11
-5
21
0
31
0
39
0
210
0
220
0
230
1
0
LINE
5
81
100
AcDbEntity
8
1
62
256
6
ByLayer
370
18
48
1
60
0
100
AcDbLine
10
8.327088
20
-0.048815
30
0
11
9.024231
21
-0.048815
31
0
39
0
210
0
220
0
230
1
0
LINE
5
82
100
AcDbEntity
8
1
62
256
6
ByLayer
370
18
48
1
60
0
100
AcDbLine
10
9.025024
20
-2.101185
30
0
11
8.327088
21
-2.101185
31
0
39
0
210
0
220
0
230
1
0
LINE
5
83
100
AcDbEntity
8
1
62
256
6
ByLayer
370
18
48
1
60
0
100
AcDbLine
10
7.101032
20
-0.048815
30
0
11
7.350021
21
-0.048815
31
0
39
0
210
0
220
0
230
1
0
LINE
5
84
100
AcDbEntity
8
1
62
256
6
ByLayer
370
18
48
1
60
0
100
AcDbLine
10
7.350007
20
-2.101185
30
0
11
7.101208
21
-2.101185
31
0
39
0
210
0
220
0
230
1
0
LINE
5
85
100
AcDbEntity
8
1
62
256
6
ByLayer
370
18
48
1
60
0
100
AcDbLine
10
8.170968
20
1.925
30
0
11
7.989372
21
1.925
31
0
39
0
210
0
220
0
230
1
0
LINE
5
86
100
AcDbEntity
8
1
62
256
6
ByLayer
370
18
48
1
60
0
100
AcDbLine
10
7.989372
20
-4.075
30
0
11
8.170968
21
-4.075
31
0
39
0
210
0
220
0
230
1
0
LINE
5
87
100
AcDbEntity
8
1
62
256
6
ByLayer
370
18
48
1
60
0
100
AcDbLine
10
0
20
-5.95
30
0
11
0.468629
21
-5.95
31
0
39
0
210
0
220
0
230
1
0
LINE
5
88
100
AcDbEntity
8
1
62
256
6
ByLayer
370
18
48
1
60
0
100
AcDbLine
10
0
20
-5.95
30
0
11
0
21
5.8
31
0
39
0
210
0
220
0
230
1
0
LINE
5
89
100
AcDbEntity
8
1
62
256
6
ByLayer
370
18
48
1
60
0
100
AcDbLine
10
10.98629
20
-5.261528
30
0
11
10.8
21
-5.369643
31
0
39
0
210
0
220
0
230
1
0
LINE
5
8A
100
AcDbEntity
8
1
62
256
6
ByLayer
370
18
48
1
60
0
100
AcDbLine
10
10.98629
20
2.8
30
0
11
10.8
21
2.8
31
0
39
0
210
0
220
0
230
1
0
LINE
5
8B
100
AcDbEntity
8
1
62
256
6
ByLayer
370
18
48
1
60
0
100
AcDbLine
10
10.98629
20
-5.261528
30
0
11
10.98629
21
2.8
31
0
39
0
210
0
220
0
230
1
0
LINE
5
8C
100
AcDbEntity
8
1
62
256
6
ByLayer
370
18
48
1
60
0
100
AcDbLine
10
0.468629
20
5.8
30
0
11
0
21
5.8
31
0
39
0
210
0
220
0
230
1
0
LINE
5
8D
100
AcDbEntity
8
1
62
256
6
ByLayer
370
18
48
1
60
0
100
AcDbLine
10
9.8
20
-5.95
30
0
11
6.931349
21
-5.95
31
0
39
0
210
0
220
0
230
1
0
LINE
5
8E
100
AcDbEntity
8
1
62
256
6
ByLayer
370
18
48
1
60
0
100
AcDbLine
10
10.8
20
-5.369643
30
0
11
9.8
21
-5.95
31
0
39
0
210
0
220
0
230
1
0
LINE
5
8F
100
AcDbEntity
8
1
62
256
6
ByLayer
370
18
48
1
60
0
100
AcDbLine
10
10.8
20
-5.369643
30
0
11
10.8
21
-2.337077
31
0
39
0
210
0
220
0
230
1
0
LINE
5
90
100
AcDbEntity
8
1
62
256
6
ByLayer
370
18
48
1
60
0
100
AcDbLine
10
10.8
20
0.187077
30
0
11
10.8
21
3
31
0
39
0
210
0
220
0
230
1
0
LINE
5
91
100
AcDbEntity
8
1
62
256
6
ByLayer
370
18
48
1
60
0
100
AcDbLine
10
0.468629
20
5.8
30
0
11
5
21
5.8
31
0
39
0
210
0
220
0
230
1
0
LINE
5
92
100
AcDbEntity
8
1
62
256
6
ByLayer
370
13
48
1
60
0
100
AcDbLine
10
0.468629
20
5.8
30
0
11
0.468629
21
-5.95
31
0
39
0
210
0
220
0
230
1
0
LINE
5
93
100
AcDbEntity
8
1
62
256
6
ByLayer
370
18
48
1
60
0
100
AcDbLine
10
0.468629
20
-5.95
30
0
11
5
21
-5.95
31
0
39
0
210
0
220
0
230
1
0
LINE
5
94
100
AcDbEntity
8
1
62
256
6
ByLayer
370
13
48
1
60
0
100
AcDbLine
10
10.8
20
3
30
0
11
6.931349
21
3
31
0
39
0
210
0
220
0
230
1
0
LINE
5
95
100
AcDbEntity
8
1
62
256
6
ByLayer
370
18
48
1
60
0
100
AcDbLine
10
6.931349
20
-3.910488
30
0
11
6.931349
21
-5.95
31
0
39
0
210
0
220
0
230
1
0
LINE
5
96
100
AcDbEntity
8
1
62
256
6
ByLayer
370
18
48
1
60
0
100
AcDbLine
10
6.931349
20
3
30
0
11
6.931349
21
1.760488
31
0
39
0
210
0
220
0
230
1
0
LINE
5
97
100
AcDbEntity
8
1
62
256
6
ByLayer
370
18
48
1
60
0
100
AcDbLine
10
8.693501
20
3.8
30
0
11
13.452812
21
3.8
31
0
39
0
210
0
220
0
230
1
0
LINE
5
98
100
AcDbEntity
8
1
62
256
6
ByLayer
370
18
48
1
60
0
100
AcDbLine
10
5
20
5.8
30
0
11
13.452812
21
5.8
31
0
39
0
210
0
220
0
230
1
0
LINE
5
99
100
AcDbEntity
8
1
62
256
6
ByLayer
370
18
48
1
60
0
100
AcDbLine
10
5
20
5.8
30
0
11
5
21
-5.95
31
0
39
0
210
0
220
0
230
1
0
LINE
5
9A
100
AcDbEntity
8
1
62
256
6
ByLayer
370
18
48
1
60
0
100
AcDbLine
10
5
20
-5.95
30
0
11
6.931349
21
-5.95
31
0
39
0
210
0
220
0
230
1
0
LINE
5
9B
100
AcDbEntity
8
1
62
256
6
ByLayer
370
18
48
1
60
0
100
AcDbLine
10
10.8
20
-2.114531
30
0
11
10.8
21
-2.337077
31
0
39
0
210
0
220
0
230
1
0
LINE
5
9C
100
AcDbEntity
8
1
62
256
6
ByLayer
370
18
48
1
60
0
100
AcDbLine
10
10.8
20
0.187077
30
0
11
10.8
21
-0.035469
31
0
39
0
210
0
220
0
230
1
0
LINE
5
9D
100
AcDbEntity
8
1
62
256
6
ByLayer
370
18
48
1
60
0
100
AcDbLine
10
13.452812
20
3.8
30
0
11
13.452812
21
5.8
31
0
39
0
210
0
220
0
230
1
0
LINE
5
9E
100
AcDbEntity
8
1
62
256
6
ByLayer
370
18
48
1
60
0
100
AcDbLine
10
13.452812
20
3.8
30
0
11
19.712744
21
3.8
31
0
39
0
210
0
220
0
230
1
0
LINE
5
9F
100
AcDbEntity
8
1
62
256
6
ByLayer
370
18
48
1
60
0
100
AcDbLine
10
19.800344
20
3.966473
30
0
11
19.712744
21
3.8
31
0
39
0
210
0
220
0
230
1
0
LINE
5
A0
100
AcDbEntity
8
1
62
256
6
ByLayer
370
18
48
1
60
0
100
AcDbLine
10
20.311865
20
4.848819
30
0
11
20.311865
21
4.751181
31
0
39
0
210
0
220
0
230
1
0
LINE
5
A1
100
AcDbEntity
8
1
62
256
6
ByLayer
370
18
48
1
60
0
100
AcDbLine
10
19.712744
20
5.8
30
0
11
19.800344
21
5.633527
31
0
39
0
210
0
220
0
230
1
0
LINE
5
A2
100
AcDbEntity
8
1
62
256
6
ByLayer
370
18
48
1
60
0
100
AcDbLine
10
13.452812
20
5.8
30
0
11
19.712744
21
5.8
31
0
39
0
210
0
220
0
230
1
0
LINE
5
A3
100
AcDbEntity
8
1
62
256
6
ByLayer
370
18
48
1
60
0
100
AcDbLine
10
11.172524
20
2.8
30
0
11
10.986258
21
2.8
31
0
39
0
210
0
220
0
230
1
0
LINE
5
A4
100
AcDbEntity
8
1
62
256
6
ByLayer
370
18
48
1
60
0
100
AcDbLine
10
11.172524
20
-5.153446
30
0
11
10.98629
21
-5.261528
31
0
39
0
210
0
220
0
230
1
0
LINE
5
A5
100
AcDbEntity
8
1
62
256
6
ByLayer
370
18
48
1
60
0
100
AcDbLine
10
17.605816
20
-1.419839
30
0
11
11.172524
21
-5.153446
31
0
39
0
210
0
220
0
230
1
0
LINE
5
A6
100
AcDbEntity
8
1
62
256
6
ByLayer
370
18
48
1
60
0
100
AcDbLine
10
17.605816
20
-1.419839
30
0
11
17.605816
21
3
31
0
39
0
210
0
220
0
230
1
0
LINE
5
A7
100
AcDbEntity
8
1
62
256
6
ByLayer
370
13
48
1
60
0
100
AcDbLine
10
17.605816
20
3
30
0
11
11.844671
21
3
31
0
39
0
210
0
220
0
230
1
0
LINE
5
A8
100
AcDbEntity
8
1
62
256
6
ByLayer
370
18
48
1
60
0
100
AcDbLine
10
11.871103
20
2.8
30
0
11
11.172524
21
2.8
31
0
39
0
210
0
220
0
230
1
0
LINE
5
A9
100
AcDbEntity
8
1
62
256
6
ByLayer
370
18
48
1
60
0
100
AcDbLine
10
11.172524
20
2.8
30
0
11
11.172524
21
-5.153446
31
0
39
0
210
0
220
0
230
1
0
LINE
5
AA
100
AcDbEntity
8
SK1
62
256
6
ByLayer
370
18
48
1
60
0
100
AcDbLine
10
-0.662742
20
5.8
30
0
11
-1.6
21
5.8
31
0
39
0
210
0
220
0
230
1
0
LINE
5
AC
100
AcDbEntity
8
SK1
62
256
6
ByLayer
370
18
48
1
60
0
100
AcDbLine
10
-98.4
20
-5.95
30
0
11
-0.662742
21
-5.95
31
0
39
0
210
0
220
0
230
1
0
LINE
5
AD
100
AcDbEntity
8
SK1
62
256
6
ByLayer
370
18
48
1
60
0
100
AcDbLine
10
-98.4
20
5.95
30
0
11
-2.276387
21
5.95
31
0
39
0
210
0
220
0
230
1
0
LINE
5
AE
100
AcDbEntity
8
SK1
62
256
6
ByLayer
370
18
48
1
60
0
100
AcDbLine
10
-98.4
20
-5.95
30
0
11
-98.4
21
5.95
31
0
39
0
210
0
220
0
230
1
0
LINE
5
AF
100
AcDbEntity
8
SK1
62
256
6
ByLayer
370
18
48
1
60
0
100
AcDbLine
10
-0.662742
20
-5.95
30
0
11
0
21
-5.95
31
0
39
0
210
0
220
0
230
1
0
LINE
5
B0
100
AcDbEntity
8
SK1
62
256
6
ByLayer
370
18
48
1
60
0
100
AcDbLine
10
0
20
-5.95
30
0
11
0
21
5.8
31
0
39
0
210
0
220
0
230
1
0
LINE
5
B1
100
AcDbEntity
8
SK1
62
256
6
ByLayer
370
18
48
1
60
0
100
AcDbLine
10
0
20
5.8
30
0
11
-0.662742
21
5.8
31
0
39
0
210
0
220
0
230
1
0
LINE
5
B2
100
AcDbEntity
8
SK1
62
256
6
ByLayer
370
13
48
1
60
0
100
AcDbLine
10
-0.662742
20
-5.95
30
0
11
-0.662742
21
5.8
31
0
39
0
210
0
220
0
230
1
0
LINE
5
B3
100
AcDbEntity
8
1
62
256
6
ByLayer
370
18
48
1
60
0
100
AcDbLine
10
7.070995
20
6.045209
30
0
11
7.992349
21
5.988779
31
0
39
0
210
0
220
0
230
1
0
LINE
5
B4
100
AcDbEntity
8
1
62
256
6
ByLayer
370
18
48
1
60
0
100
AcDbLine
10
6.627409
20
5.79997
30
0
11
6.627409
21
5.852669
31
0
39
0
210
0
220
0
230
1
0
LINE
5
B5
100
AcDbEntity
8
1
62
256
6
ByLayer
370
18
48
1
60
0
100
AcDbLine
10
7.992349
20
5.988779
30
0
11
8.75044
21
5.98212
31
0
39
0
210
0
220
0
230
1
0
LINE
5
B6
100
AcDbEntity
8
1
62
256
6
ByLayer
370
18
48
1
60
0
100
AcDbLine
10
7.992349
20
5.799986
30
0
11
7.992349
21
5.988779
31
0
39
0
210
0
220
0
230
1
0
LINE
5
B7
100
AcDbEntity
8
1
62
256
6
ByLayer
370
18
48
1
60
0
100
AcDbLine
10
26.156415
20
6.045209
30
0
11
25.23506
21
5.988779
31
0
39
0
210
0
220
0
230
1
0
LINE
5
B8
100
AcDbEntity
8
1
62
256
6
ByLayer
370
18
48
1
60
0
100
AcDbLine
10
25.23506
20
3.611221
30
0
11
26.156415
21
3.554791
31
0
39
0
210
0
220
0
230
1
0
LINE
5
B9
100
AcDbEntity
8
1
62
256
6
ByLayer
370
18
48
1
60
0
100
AcDbLine
10
26.6
20
3.747331
30
0
11
26.6
21
5.852669
31
0
39
0
210
0
220
0
230
1
0
LINE
5
BA
100
AcDbEntity
8
1
62
256
6
ByLayer
370
18
48
1
60
0
100
AcDbLine
10
25.23506
20
5.988779
30
0
11
24.427673
21
5.98212
31
0
39
0
210
0
220
0
230
1
0
LINE
5
BB
100
AcDbEntity
8
1
62
256
6
ByLayer
370
18
48
1
60
0
100
AcDbLine
10
24.427673
20
3.61788
30
0
11
25.23506
21
3.611221
31
0
39
0
210
0
220
0
230
1
0
LINE
5
BC
100
AcDbEntity
8
1
62
256
6
ByLayer
370
18
48
1
60
0
100
AcDbLine
10
25.23506
20
3.611221
30
0
11
25.23506
21
5.988779
31
0
39
0
210
0
220
0
230
1
0
LINE
5
BD
100
AcDbEntity
8
1
62
256
6
ByLayer
370
18
48
1
60
0
100
AcDbLine
10
8.75044
20
5.799999
30
0
11
8.75044
21
5.98212
31
0
39
0
210
0
220
0
230
1
0
LINE
5
BE
100
AcDbEntity
8
1
62
256
6
ByLayer
370
18
48
1
60
0
100
AcDbLine
10
9.122349
20
5.962079
30
0
11
9.646004
21
5.8302
31
0
39
0
210
0
220
0
230
1
0
LINE
5
BF
100
AcDbEntity
8
1
62
256
6
ByLayer
370
18
48
1
60
0
100
AcDbLine
10
8.75044
20
5.98212
30
0
11
9.083171
21
5.967789
31
0
39
0
210
0
220
0
230
1
0
LINE
5
C0
100
AcDbEntity
8
1
62
256
6
ByLayer
370
13
48
1
60
0
100
AcDbLine
10
23.855538
20
4.8
30
0
11
20.311647
21
4.8
31
0
39
0
210
0
220
0
230
1
0
LINE
5
C1
100
AcDbEntity
8
1
62
256
6
ByLayer
370
13
48
1
60
0
100
AcDbLine
10
20.193255
20
4.997335
30
0
11
23.199132
21
4.997335
31
0
39
0
210
0
220
0
230
1
0
LINE
5
C2
100
AcDbEntity
8
1
62
256
6
ByLayer
370
13
48
1
60
0
100
AcDbLine
10
23.199132
20
4.602665
30
0
11
20.193255
21
4.602665
31
0
39
0
210
0
220
0
230
1
0
LINE
5
C3
100
AcDbEntity
8
1
62
256
6
ByLayer
370
13
48
1
60
0
100
AcDbLine
10
20.184481
20
5.000756
30
0
11
23.154492
21
5.000756
31
0
39
0
210
0
220
0
230
1
0
LINE
5
C4
100
AcDbEntity
8
1
62
256
6
ByLayer
370
13
48
1
60
0
100
AcDbLine
10
20.184481
20
4.599244
30
0
11
23.154492
21
4.599244
31
0
39
0
210
0
220
0
230
1
0
LINE
5
C5
100
AcDbEntity
8
1
62
256
6
ByLayer
370
13
48
1
60
0
100
AcDbLine
10
20.055186
20
5.051024
30
0
11
22.561304
21
5.051024
31
0
39
0
210
0
220
0
230
1
0
LINE
5
C6
100
AcDbEntity
8
1
62
256
6
ByLayer
370
13
48
1
60
0
100
AcDbLine
10
20.055186
20
4.548976
30
0
11
22.561304
21
4.548976
31
0
39
0
210
0
220
0
230
1
0
LINE
5
C7
100
AcDbEntity
8
1
62
256
6
ByLayer
370
13
48
1
60
0
100
AcDbLine
10
20.003953
20
5.167998
30
0
11
22.048595
21
5.167998
31
0
39
0
210
0
220
0
230
1
0
LINE
5
C8
100
AcDbEntity
8
1
62
256
6
ByLayer
370
13
48
1
60
0
100
AcDbLine
10
20.003953
20
4.432002
30
0
11
22.048595
21
4.432002
31
0
39
0
210
0
220
0
230
1
0
LINE
5
C9
100
AcDbEntity
8
1
62
256
6
ByLayer
370
13
48
1
60
0
100
AcDbLine
10
19.803564
20
3.974016
30
0
11
21.288816
21
3.974016
31
0
39
0
210
0
220
0
230
1
0
LINE
5
CA
100
AcDbEntity
8
1
62
256
6
ByLayer
370
18
48
1
60
0
100
AcDbLine
10
19.712703
20
3.8
30
0
11
21.248975
21
3.8
31
0
39
0
210
0
220
0
230
1
0
LINE
5
CB
100
AcDbEntity
8
1
62
256
6
ByLayer
370
13
48
1
60
0
100
AcDbLine
10
21.248975
20
3.924562
30
0
11
19.778285
21
3.924562
31
0
39
0
210
0
220
0
230
1
0
LINE
5
CC
100
AcDbEntity
8
1
62
256
6
ByLayer
370
18
48
1
60
0
100
AcDbLine
10
23.261887
20
3.8
30
0
11
21.248975
21
3.8
31
0
39
0
210
0
220
0
230
1
0
LINE
5
CD
100
AcDbEntity
8
1
62
256
6
ByLayer
370
18
48
1
60
0
100
AcDbLine
10
24.427673
20
5.98212
30
0
11
24.087445
21
5.967789
31
0
39
0
210
0
220
0
230
1
0
LINE
5
CE
100
AcDbEntity
8
1
62
256
6
ByLayer
370
18
48
1
60
0
100
AcDbLine
10
24.047385
20
5.962079
30
0
11
23.511931
21
5.8302
31
0
39
0
210
0
220
0
230
1
0
LINE
5
CF
100
AcDbEntity
8
1
62
256
6
ByLayer
370
18
48
1
60
0
100
AcDbLine
10
21.248975
20
5.8
30
0
11
23.261887
21
5.8
31
0
39
0
210
0
220
0
230
1
0
LINE
5
D0
100
AcDbEntity
8
1
62
256
6
ByLayer
370
18
48
1
60
0
100
AcDbLine
10
21.288816
20
5.625984
30
0
11
22.048595
21
5.167998
31
0
39
0
210
0
220
0
230
1
0
LINE
5
D1
100
AcDbEntity
8
1
62
256
6
ByLayer
370
18
48
1
60
0
100
AcDbLine
10
23.154492
20
5.000756
30
0
11
23.199132
21
4.997335
31
0
39
0
210
0
220
0
230
1
0
LINE
5
D2
100
AcDbEntity
8
1
62
256
6
ByLayer
370
18
48
1
60
0
100
AcDbLine
10
23.199132
20
4.602665
30
0
11
23.154492
21
4.599244
31
0
39
0
210
0
220
0
230
1
0
LINE
5
D3
100
AcDbEntity
8
1
62
256
6
ByLayer
370
18
48
1
60
0
100
AcDbLine
10
22.048595
20
4.432002
30
0
11
21.288816
21
3.974016
31
0
39
0
210
0
220
0
230
1
0
LINE
5
D4
100
AcDbEntity
8
1
62
256
6
ByLayer
370
18
48
1
60
0
100
AcDbLine
10
21.248975
20
3.924562
30
0
11
21.248975
21
3.8
31
0
39
0
210
0
220
0
230
1
0
LINE
5
D5
100
AcDbEntity
8
1
62
256
6
ByLayer
370
18
48
1
60
0
100
AcDbLine
10
23.511931
20
3.7698
30
0
11
24.047385
21
3.637921
31
0
39
0
210
0
220
0
230
1
0
LINE
5
D6
100
AcDbEntity
8
1
62
256
6
ByLayer
370
18
48
1
60
0
100
AcDbLine
10
24.087445
20
3.632211
30
0
11
24.427673
21
3.61788
31
0
39
0
210
0
220
0
230
1
0
LINE
5
D7
100
AcDbEntity
8
1
62
256
6
ByLayer
370
18
48
1
60
0
100
AcDbLine
10
24.427673
20
3.61788
30
0
11
24.427673
21
5.98212
31
0
39
0
210
0
220
0
230
1
0
LINE
5
D8
100
AcDbEntity
8
1
62
256
6
ByLayer
370
13
48
1
60
0
100
AcDbLine
10
21.288816
20
5.625984
30
0
11
19.803564
21
5.625984
31
0
39
0
210
0
220
0
230
1
0
LINE
5
D9
100
AcDbEntity
8
1
62
256
6
ByLayer
370
18
48
1
60
0
100
AcDbLine
10
21.248975
20
5.8
30
0
11
21.248975
21
5.675438
31
0
39
0
210
0
220
0
230
1
0
LINE
5
DA
100
AcDbEntity
8
1
62
256
6
ByLayer
370
18
48
1
60
0
100
AcDbLine
10
21.248975
20
5.8
30
0
11
19.712703
21
5.8
31
0
39
0
210
0
220
0
230
1
0
LINE
5
DB
100
AcDbEntity
8
1
62
256
6
ByLayer
370
13
48
1
60
0
100
AcDbLine
10
19.778285
20
5.675438
30
0
11
21.248975
21
5.675438
31
0
39
0
210
0
220
0
230
1
0
LINE
5
DC
100
AcDbEntity
8
1
62
256
6
ByLayer
370
18
48
1
60
0
100
AcDbLine
10
8.777852
20
-1.463144
30
0
11
8.762615
21
-1.452764
31
0
39
0
210
0
220
0
230
1
0
LINE
5
DD
100
AcDbEntity
8
1
62
256
6
ByLayer
370
18
48
1
60
0
100
AcDbLine
10
8.762615
20
-0.697236
30
0
11
8.777852
21
-0.686856
31
0
39
0
210
0
220
0
230
1
0
LINE
5
DE
100
AcDbEntity
8
1
62
256
6
ByLayer
370
13
48
1
60
0
100
AcDbLine
10
9.482244
20
-1.452764
30
0
11
8.762615
21
-1.452764
31
0
39
0
210
0
220
0
230
1
0
LINE
5
DF
100
AcDbEntity
8
1
62
256
6
ByLayer
370
13
48
1
60
0
100
AcDbLine
10
9.482244
20
-0.697236
30
0
11
8.762615
21
-0.697236
31
0
39
0
210
0
220
0
230
1
0
LINE
5
E0
100
AcDbEntity
8
1
62
256
6
ByLayer
370
18
48
1
60
0
100
AcDbLine
10
9.502513
20
-1.463144
30
0
11
8.777852
21
-1.463144
31
0
39
0
210
0
220
0
230
1
0
LINE
5
E1
100
AcDbEntity
8
1
62
256
6
ByLayer
370
18
48
1
60
0
100
AcDbLine
10
9.502513
20
-0.686856
30
0
11
8.777852
21
-0.686856
31
0
39
0
210
0
220
0
230
1
0
LINE
5
E2
100
AcDbEntity
8
1
62
256
6
ByLayer
370
13
48
1
60
0
100
AcDbLine
10
8.554432
20
0.350834
30
0
11
7.864791
21
0.350834
31
0
39
0
210
0
220
0
230
1
0
LINE
5
E3
100
AcDbEntity
8
1
62
256
6
ByLayer
370
13
48
1
60
0
100
AcDbLine
10
8.554432
20
-2.500834
30
0
11
7.864791
21
-2.500834
31
0
39
0
210
0
220
0
230
1
0
LINE
5
E4
100
AcDbEntity
8
1
62
256
6
ByLayer
370
18
48
1
60
0
100
AcDbLine
10
8.559073
20
-2.520834
30
0
11
7.870215
21
-2.520834
31
0
39
0
210
0
220
0
230
1
0
LINE
5
E5
100
AcDbEntity
8
1
62
256
6
ByLayer
370
18
48
1
60
0
100
AcDbLine
10
8.559073
20
0.370834
30
0
11
7.870215
21
0.370834
31
0
39
0
210
0
220
0
230
1
0
LINE
5
E6
100
AcDbEntity
8
1
62
256
6
ByLayer
370
13
48
1
60
0
100
AcDbLine
10
7.2818
20
-0.02693
30
0
11
7.124853
21
-0.02693
31
0
39
0
210
0
220
0
230
1
0
LINE
5
E7
100
AcDbEntity
8
1
62
256
6
ByLayer
370
13
48
1
60
0
100
AcDbLine
10
7.2818
20
-2.12307
30
0
11
7.123841
21
-2.12307
31
0
39
0
210
0
220
0
230
1
0
LINE
5
E8
100
AcDbEntity
8
1
62
256
6
ByLayer
370
18
48
1
60
0
100
AcDbLine
10
7.271203
20
-2.13269
30
0
11
7.13619
21
-2.13269
31
0
39
0
210
0
220
0
230
1
0
LINE
5
E9
100
AcDbEntity
8
1
62
256
6
ByLayer
370
18
48
1
60
0
100
AcDbLine
10
7.271203
20
-0.01731
30
0
11
7.136858
21
-0.01731
31
0
39
0
210
0
220
0
230
1
0
MTEXT
5
14F
100
AcDbEntity
8
SK6
62
256
6
ByLayer
370
18
48
1
60
0
100
AcDbMText
10
-68.217926
20
-54.160395
30
0
210
0
220
0
230
1
1
\W0.7425;C2R-RS12-RF15DS
40
3.5
41
0
44
1.084337
50
0
71
7
72
5
7
iso_b_vert
0
DIMENSION
5
154
100
AcDbEntity
8
2
62
256
6
ByLayer
370
18
48
1
60
0
100
AcDbDimension
2
_U0
10
54.35
20
-5.95
30
0
11
54.35
21
0.05
31
0
70
32
71
1
72
1
41
1
210
0
220
0
230
1
3
Standard
100
AcDbAlignedDimension
13
26.6
23
6.05
33
0
14
-98.4
24
-5.95
34
0
50
90
100
AcDbRotatedDimension
1001
ACAD
1000
DSTYLE
1002
{
1070
   371
1070
    13
1070
   372
1070
    13
1070
   170
1070
     0
1070
   144
1040
1.0
1070
   277
1070
     2
1070
   284
1070
     8
1070
   278
1070
    46
1070
   146
1040
1.0
1070
   345
1005
16
1070
   347
1005
16
1070
   346
1005
16
1070
   344
1005
0
1070
   343
1005
0
1070
   172
1070
     1
1070
    76
1070
     0
1070
    75
1070
     0
1070
   282
1070
     0
1070
   281
1070
     0
1070
    71
1070
     0
1070
    74
1070
     0
1070
   279
1070
     0
1070
   173
1070
     1
1070
   340
1005
150
1070
   271
1070
     2
1070
   272
1070
     2
1070
    77
1070
     1
1070
    73
1070
     0
1070
   171
1070
     3
1070
   274
1070
     4
1070
   177
1070
     2
1070
   176
1070
     2
1070
   178
1070
     2
1070
    78
1070
     8
1070
    48
1040
-0.1
1070
    41
1040
3.5
1070
   147
1040
1.75
1070
    42
1040
1.5875
1070
    44
1040
2.0
1070
   140
1040
3.5
1002
}
1001
ACAD_DSTYLE_DIM_LINETYPE
1070
   380
1005
16
1001
ACAD_DSTYLE_DIM_EXT1_LINETYPE
1070
   381
1005
16
1001
ACAD_DSTYLE_DIM_EXT2_LINETYPE
1070
   382
1005
16
0
DIMENSION
5
16F
100
AcDbEntity
8
2
62
256
6
ByLayer
370
18
48
1
60
0
100
AcDbDimension
2
_U1
10
46.693148
20
6.05
30
0
11
46.693148
21
4.8
31
0
70
32
71
1
72
1
41
1
210
0
220
0
230
1
3
Standard
100
AcDbAlignedDimension
13
26.6
23
3.55
33
0
14
26.6
24
6.05
34
0
50
90
100
AcDbRotatedDimension
1001
ACAD
1000
DSTYLE
1002
{
1070
   371
1070
    13
1070
   372
1070
    13
1070
   170
1070
     0
1070
   144
1040
1.0
1070
   277
1070
     2
1070
   284
1070
     8
1070
   278
1070
    46
1070
   146
1040
1.0
1070
   345
1005
16
1070
   347
1005
16
1070
   346
1005
16
1070
   344
1005
0
1070
   343
1005
0
1070
   172
1070
     1
1070
    76
1070
     0
1070
    75
1070
     0
1070
   282
1070
     0
1070
   281
1070
     0
1070
    71
1070
     0
1070
    74
1070
     0
1070
   279
1070
     0
1070
   173
1070
     1
1070
   340
1005
150
1070
   271
1070
     2
1070
   272
1070
     2
1070
    77
1070
     1
1070
    73
1070
     0
1070
   171
1070
     3
1070
   274
1070
     4
1070
   177
1070
     2
1070
   176
1070
     2
1070
   178
1070
     2
1070
    78
1070
     8
1070
    48
1040
-0.1
1070
    41
1040
3.5
1070
   147
1040
1.75
1070
    42
1040
1.5875
1070
    44
1040
2.0
1070
   140
1040
3.5
1002
}
1001
ACAD_DSTYLE_DIM_LINETYPE
1070
   380
1005
16
1001
ACAD_DSTYLE_DIM_EXT1_LINETYPE
1070
   381
1005
16
1001
ACAD_DSTYLE_DIM_EXT2_LINETYPE
1070
   382
1005
16
0
DIMENSION
5
188
100
AcDbEntity
8
SK2
62
256
6
ByLayer
370
18
48
1
60
0
100
AcDbDimension
2
_U2
10
-110
20
6.05
30
0
11
-110
21
0.05
31
0
70
32
71
1
72
1
41
1
210
0
220
0
230
1
3
Standard
100
AcDbAlignedDimension
13
-98.4
23
-5.95
33
0
14
-98.4
24
6.05
34
0
50
90
100
AcDbRotatedDimension
1001
ACAD
1000
DSTYLE
1002
{
1070
   371
1070
    13
1070
   372
1070
    13
1070
   170
1070
     0
1070
   144
1040
1.0
1070
   277
1070
     2
1070
   284
1070
     8
1070
   278
1070
    46
1070
   146
1040
1.0
1070
   345
1005
16
1070
   347
1005
16
1070
   346
1005
16
1070
   344
1005
0
1070
   343
1005
0
1070
   172
1070
     1
1070
    76
1070
     0
1070
    75
1070
     0
1070
   282
1070
     0
1070
   281
1070
     0
1070
    71
1070
     0
1070
    74
1070
     0
1070
   279
1070
     0
1070
   173
1070
     1
1070
   340
1005
150
1070
   271
1070
     2
1070
   272
1070
     2
1070
    77
1070
     1
1070
    73
1070
     0
1070
   171
1070
     3
1070
   274
1070
     4
1070
   177
1070
     2
1070
   176
1070
     2
1070
   178
1070
     2
1070
    78
1070
     8
1070
    48
1040
-0.1
1070
    41
1040
3.5
1070
   147
1040
1.75
1070
    42
1040
1.5875
1070
    44
1040
2.0
1070
   140
1040
3.5
1002
}
1001
ACAD_DSTYLE_DIM_LINETYPE
1070
   380
1005
16
1001
ACAD_DSTYLE_DIM_EXT1_LINETYPE
1070
   381
1005
16
1001
ACAD_DSTYLE_DIM_EXT2_LINETYPE
1070
   382
1005
16
0
DIMENSION
5
1A2
100
AcDbEntity
8
2
62
256
6
ByLayer
370
18
48
1
60
0
100
AcDbDimension
2
_U3
10
26.6
20
-17.7
30
0
11
19.1
21
-17.7
31
0
70
32
71
1
72
1
41
1
210
0
220
0
230
1
3
Standard
100
AcDbAlignedDimension
13
11.6
23
3.8
33
0
14
26.6
24
6.05
34
0
50
0
100
AcDbRotatedDimension
1001
ACAD
1000
DSTYLE
1002
{
1070
   371
1070
    13
1070
   372
1070
    13
1070
   170
1070
     0
1070
   144
1040
1.0
1070
   277
1070
     2
1070
   284
1070
     8
1070
   278
1070
    46
1070
   146
1040
1.0
1070
   345
1005
16
1070
   347
1005
16
1070
   346
1005
16
1070
   344
1005
0
1070
   343
1005
0
1070
   172
1070
     1
1070
    76
1070
     0
1070
    75
1070
     0
1070
   282
1070
     0
1070
   281
1070
     0
1070
    71
1070
     0
1070
    74
1070
     0
1070
   279
1070
     0
1070
   173
1070
     1
1070
   340
1005
150
1070
   271
1070
     1
1070
   272
1070
     2
1070
    77
1070
     1
1070
    73
1070
     1
1070
   171
1070
     3
1070
   274
1070
     4
1070
   177
1070
     2
1070
   176
1070
     2
1070
   178
1070
     2
1070
    78
1070
     8
1070
    48
1040
-0.1
1070
    41
1040
3.5
1070
   147
1040
1.75
1070
    42
1040
1.5875
1070
    44
1040
2.0
1070
   140
1040
3.5
1002
}
1001
ACAD_DSTYLE_DIM_LINETYPE
1070
   380
1005
16
1001
ACAD_DSTYLE_DIM_EXT1_LINETYPE
1070
   381
1005
16
1001
ACAD_DSTYLE_DIM_EXT2_LINETYPE
1070
   382
1005
16
0
DIMENSION
5
1BB
100
AcDbEntity
8
SK2
62
256
6
ByLayer
370
18
48
1
60
0
100
AcDbDimension
2
_U4
10
26.6
20
-23.7
30
0
11
-35.9
21
-23.7
31
0
70
32
71
1
72
1
41
1
210
0
220
0
230
1
3
Standard
100
AcDbAlignedDimension
13
-98.4
23
-5.95
33
0
14
26.6
24
6.05
34
0
50
0
100
AcDbRotatedDimension
1001
ACAD
1000
DSTYLE
1002
{
1070
   371
1070
    13
1070
   372
1070
    13
1070
   170
1070
     0
1070
   144
1040
1.0
1070
   277
1070
     2
1070
   284
1070
     8
1070
   278
1070
    46
1070
   146
1040
1.0
1070
   345
1005
16
1070
   347
1005
16
1070
   346
1005
16
1070
   344
1005
0
1070
   343
1005
0
1070
   172
1070
     1
1070
    76
1070
     0
1070
    75
1070
     0
1070
   282
1070
     0
1070
   281
1070
     0
1070
    71
1070
     0
1070
    74
1070
     0
1070
   279
1070
     0
1070
   173
1070
     1
1070
   340
1005
150
1070
   271
1070
     1
1070
   272
1070
     2
1070
    77
1070
     1
1070
    73
1070
     1
1070
   171
1070
     3
1070
   274
1070
     4
1070
   177
1070
     2
1070
   176
1070
     2
1070
   178
1070
     2
1070
    78
1070
     8
1070
    48
1040
-0.1
1070
    41
1040
3.5
1070
   147
1040
1.75
1070
    42
1040
1.5875
1070
    44
1040
2.0
1070
   140
1040
3.5
1002
}
1001
ACAD_DSTYLE_DIM_LINETYPE
1070
   380
1005
16
1001
ACAD_DSTYLE_DIM_EXT1_LINETYPE
1070
   381
1005
16
1001
ACAD_DSTYLE_DIM_EXT2_LINETYPE
1070
   382
1005
16
0
ENDSEC
0
SECTION
2
OBJECTS
0
DICTIONARY
5
242
330
0
100
AcDbDictionary
280
0
281
1
3
ACAD_GROUP
350
243
3
ACAD_MLINESTYLE
350
244
0
DICTIONARY
5
243
330
0
100
AcDbDictionary
280
0
281
1
0
DICTIONARY
5
244
330
0
100
AcDbDictionary
280
0
281
1
3
Standard
350
18
0
MLINESTYLE
5
18
330
244
100
AcDbMlineStyle
2
Standard
70
0
3

62
256
51
90
52
90
71
2
49
-0.5
62
256
6
ByLayer
49
0.5
62
256
6
ByLayer
0
RASTERVARIABLES
5
231
330

100
AcDbRasterVariables
90
0
70
1
71
1
72
1
0
ENDSEC
0
EOF
