0
SECTION
2
HEADER
9
$ACADVER
1
AC1015
9
$DWGCODEPAGE
3
ANSI_1252
9
$HANDSEED
5
250
9
$ANGBASE
50
0
9
$ANGDIR
70
0
9
$ATTMODE
70
1
9
$AUNITS
70
0
9
$AUPREC
70
0
9
$CECOLOR
62
256
9
$CELTSCALE
40
1
9
$CELTYPE
6
ByLayer
9
$CELWEIGHT
370
18
9
$CLAYER
8
0
9
$CMLJUST
70
0
9
$CMLSCALE
40
1
9
$CMLSTYLE
2
Standard
9
$DIMSTYLE
2
Standard
9
$TEXTSIZE
40
0.2
9
$TEXTSTYLE
7
Standard
9
$LUNITS
70
2
9
$LUPREC
70
4
9
$EXTNAMES
290
1
9
$INSUNITS
70
4
9
$LTSCALE
40
1
9
$LWDISPLAY
290
1
9
$PDMODE
70
0
9
$PDSIZE
40
0
9
$PLINEGEN
70
0
0
ENDSEC
0
SECTION
2
CLASSES
0
CLASS
1
RASTERVARIABLES
2
AcDbRasterVariables
3
ISM
90
0
280
0
281
0
0
ENDSEC
0
SECTION
2
TABLES
0
TABLE
2
VPORT
5
246
100
AcDbSymbolTable
0
VPORT
5
1
100
AcDbSymbolTableRecord
100
AcDbViewportTableRecord
2
*Active
70
0
10
0
20
0
11
1
21
1
12
-1
22
1
13
0
23
0
14
0.5
24
0.5
15
10
25
10
16
0
26
0
36
1
17
0
27
0
37
0
0
ENDTAB
0
TABLE
2
LTYPE
5
247
100
AcDbSymbolTable
0
LTYPE
5
14
100
AcDbSymbolTableRecord
100
AcDbLinetypeTableRecord
70
0
2
ByBlock
3

72
65
73
0
40
0
0
LTYPE
5
15
100
AcDbSymbolTableRecord
100
AcDbLinetypeTableRecord
70
0
2
ByLayer
3

72
65
73
0
40
0
0
LTYPE
5
16
100
AcDbSymbolTableRecord
100
AcDbLinetypeTableRecord
70
0
2
Continuous
3
Solid line
72
65
73
0
40
0
0
LTYPE
5
6E
100
AcDbSymbolTableRecord
100
AcDbLinetypeTableRecord
70
0
2
CENTER
3
____ _ ____ _ ____ _ ____
72
65
73
4
40
47.5
49
22
74
0
49
-8.5
74
0
49
8.5
74
0
49
-8.5
74
0
0
LTYPE
5
6F
100
AcDbSymbolTableRecord
100
AcDbLinetypeTableRecord
70
0
2
DASHED
3
__ __ __ __ __ __ __ __ __
72
65
73
2
40
25.72
49
12.86
74
0
49
-12.86
74
0
0
ENDTAB
0
TABLE
2
LAYER
5
248
100
AcDbSymbolTable
0
LAYER
5
10
100
AcDbSymbolTableRecord
100
AcDbLayerTableRecord
2
0
70
0
62
7
6
Continuous
290
1
370
-3
390
0
0
LAYER
5
71
100
AcDbSymbolTableRecord
100
AcDbLayerTableRecord
2
81
70
0
62
-3
6
Continuous
290
1
370
-3
390
0
0
LAYER
5
73
100
AcDbSymbolTableRecord
100
AcDbLayerTableRecord
2
80
70
0
62
-6
6
Continuous
290
1
370
-3
390
0
0
LAYER
5
75
100
AcDbSymbolTableRecord
100
AcDbLayerTableRecord
2
1
70
0
62
4
6
Continuous
290
1
370
-3
390
0
0
LAYER
5
158
100
AcDbSymbolTableRecord
100
AcDbLayerTableRecord
2
Defpoints
70
0
62
7
6
Continuous
290
0
370
-3
390
0
0
LAYER
5
166
100
AcDbSymbolTableRecord
100
AcDbLayerTableRecord
2
2
70
0
62
7
6
Continuous
290
1
370
-3
390
0
0
LAYER
5
233
100
AcDbSymbolTableRecord
100
AcDbLayerTableRecord
2
SK1
70
0
62
4
6
Continuous
290
1
370
-3
390
0
0
LAYER
5
234
100
AcDbSymbolTableRecord
100
AcDbLayerTableRecord
2
SK6
70
0
62
5
6
Continuous
290
1
370
-3
390
0
0
LAYER
5
235
100
AcDbSymbolTableRecord
100
AcDbLayerTableRecord
2
SK2
70
0
62
7
6
Continuous
290
1
370
-3
390
0
0
ENDTAB
0
TABLE
2
STYLE
5
249
100
AcDbSymbolTable
0
STYLE
5
11
100
AcDbSymbolTableRecord
100
AcDbTextStyleTableRecord
2
Standard
3
txt
70
0
71
0
40
0
41
1
42
0
50
0
0
STYLE
5
151
100
AcDbSymbolTableRecord
100
AcDbTextStyleTableRecord
2
iso_b_vert
3
simplex.shx
70
0
71
0
40
0
41
1
42
0
50
0
0
STYLE
5
152
100
AcDbSymbolTableRecord
100
AcDbTextStyleTableRecord
2
DWGDirectTextStyle
3
simplex
70
0
71
0
40
0
41
1
42
0
50
0
0
ENDTAB
0
TABLE
2
DIMSTYLE
5
24a
100
AcDbSymbolTable
100
AcDbDimStyleTable
0
DIMSTYLE
105
27
100
AcDbSymbolTableRecord
100
AcDbDimStyleTableRecord
2
Standard
70
0
3
<>
41
0.18
42
0.0625
44
0.18
140
0.18
147
0.09
73
0
74
0
77
1
271
2
275
0
278
52
280
0
340
11
0
ENDTAB
0
TABLE
2
VIEW
5
24b
100
AcDbSymbolTable
0
ENDTAB
0
TABLE
2
UCS
5
24c
100
AcDbSymbolTable
0
ENDTAB
0
TABLE
2
APPID
5
24d
100
AcDbSymbolTable
0
APPID
5
12
100
AcDbSymbolTableRecord
100
AcDbRegAppTableRecord
2
ACAD
70
0
0
APPID
5
154
100
AcDbSymbolTableRecord
100
AcDbRegAppTableRecord
2
ACAD_DSTYLE_DIMBREAK
70
0
0
APPID
5
1F2
100
AcDbSymbolTableRecord
100
AcDbRegAppTableRecord
2
ACAD_DSTYLE_DIM_LINETYPE
70
0
0
APPID
5
1F3
100
AcDbSymbolTableRecord
100
AcDbRegAppTableRecord
2
ACAD_DSTYLE_DIM_EXT1_LINETYPE
70
0
0
APPID
5
1F4
100
AcDbSymbolTableRecord
100
AcDbRegAppTableRecord
2
ACAD_DSTYLE_DIM_EXT2_LINETYPE
70
0
0
APPID
5
22F
100
AcDbSymbolTableRecord
100
AcDbRegAppTableRecord
2
ACAD_MLEADERVER
70
0
0
ENDTAB
0
TABLE
2
BLOCK_RECORD
5
24e
100
AcDbSymbolTable
0
BLOCK_RECORD
5
1F
100
AcDbSymbolTableRecord
100
AcDbBlockTableRecord
2
*Model_Space
340
0
70
0
0
BLOCK_RECORD
5
1B
100
AcDbSymbolTableRecord
100
AcDbBlockTableRecord
2
*Paper_Space
340
0
70
0
0
BLOCK_RECORD
5
23
100
AcDbSymbolTableRecord
100
AcDbBlockTableRecord
2
*Paper_Space0
340
0
70
0
0
BLOCK_RECORD
5
159
100
AcDbSymbolTableRecord
100
AcDbBlockTableRecord
2
*D1
340
0
70
0
0
BLOCK_RECORD
5
167
100
AcDbSymbolTableRecord
100
AcDbBlockTableRecord
2
_U0
340
0
70
0
0
BLOCK_RECORD
5
173
100
AcDbSymbolTableRecord
100
AcDbBlockTableRecord
2
*D3
340
0
70
0
0
BLOCK_RECORD
5
180
100
AcDbSymbolTableRecord
100
AcDbBlockTableRecord
2
_U1
340
0
70
0
0
BLOCK_RECORD
5
18C
100
AcDbSymbolTableRecord
100
AcDbBlockTableRecord
2
*D5
340
0
70
0
0
BLOCK_RECORD
5
19A
100
AcDbSymbolTableRecord
100
AcDbBlockTableRecord
2
_U2
340
0
70
0
0
BLOCK_RECORD
5
1A6
100
AcDbSymbolTableRecord
100
AcDbBlockTableRecord
2
*D7
340
0
70
0
0
BLOCK_RECORD
5
1B3
100
AcDbSymbolTableRecord
100
AcDbBlockTableRecord
2
_U3
340
0
70
0
0
BLOCK_RECORD
5
1BF
100
AcDbSymbolTableRecord
100
AcDbBlockTableRecord
2
*D9
340
0
70
0
0
BLOCK_RECORD
5
1CB
100
AcDbSymbolTableRecord
100
AcDbBlockTableRecord
2
_U4
340
0
70
0
0
ENDTAB
0
ENDSEC
0
SECTION
2
BLOCKS
0
BLOCK
5
20
100
AcDbEntity
8
0
100
AcDbBlockBegin
2
*Model_Space
70
0
10
0
20
0
30
0
3
*Model_Space
0
ENDBLK
5
21
100
AcDbEntity
8
0
100
AcDbBlockEnd
0
BLOCK
5
1C
100
AcDbEntity
8
0
100
AcDbBlockBegin
2
*Paper_Space
70
0
10
0
20
0
30
0
3
*Paper_Space
0
ENDBLK
5
1D
100
AcDbEntity
8
0
100
AcDbBlockEnd
0
BLOCK
5
24
100
AcDbEntity
8
0
100
AcDbBlockBegin
2
*Paper_Space0
70
0
10
0
20
0
30
0
3
*Paper_Space0
0
ENDBLK
5
25
100
AcDbEntity
8
0
100
AcDbBlockEnd
0
BLOCK
5
15A
100
AcDbEntity
8
0
100
AcDbBlockBegin
2
*D1
70
1
10
0
20
0
30
0
3
*D1
0
LINE
5
15C
100
AcDbEntity
8
0
62
256
6
ByLayer
370
-2
48
1
60
0
100
AcDbLine
10
24.1875
20
6.05
30
0
11
52.35
21
6.05
31
0
39
0
210
0
220
0
230
1
0
LINE
5
15D
100
AcDbEntity
8
0
62
256
6
ByLayer
370
-2
48
1
60
0
100
AcDbLine
10
-100.8125
20
-5.95
30
0
11
52.35
21
-5.95
31
0
39
0
210
0
220
0
230
1
0
LINE
5
15E
100
AcDbEntity
8
0
62
256
6
ByLayer
370
-2
48
1
60
0
100
AcDbLine
10
50.35
20
9.55
30
0
11
50.35
21
13.05
31
0
39
0
210
0
220
0
230
1
0
LINE
5
15F
100
AcDbEntity
8
0
62
256
6
ByLayer
370
-2
48
1
60
0
100
AcDbLine
10
50.35
20
-9.45
30
0
11
50.35
21
-12.95
31
0
39
0
210
0
220
0
230
1
0
SOLID
5
160
100
AcDbEntity
8
0
62
256
6
ByLayer
370
-1
48
1
60
0
100
AcDbTrace
10
49.766667
20
9.55
30
0
11
50.933333
21
9.55
31
0
12
50.35
22
6.05
32
0
13
50.35
23
6.05
33
0
39
0
210
0
220
0
230
1
0
SOLID
5
161
100
AcDbEntity
8
0
62
256
6
ByLayer
370
-1
48
1
60
0
100
AcDbTrace
10
50.933333
20
-9.45
30
0
11
49.766667
21
-9.45
31
0
12
50.35
22
-5.95
32
0
13
50.35
23
-5.95
33
0
39
0
210
0
220
0
230
1
0
MTEXT
5
162
100
AcDbEntity
8
0
62
256
6
ByLayer
370
18
48
1
60
0
100
AcDbMText
10
43.35
20
0.05
30
0
210
0
220
0
230
1
1
\A1;12
40
3.5
41
0
44
1
50
90
71
5
72
5
7
iso_b_vert
0
POINT
5
163
100
AcDbEntity
8
Defpoints
62
0
6
ByLayer
370
-1
48
1
60
0
100
AcDbPoint
10
22.6
20
6.05
30
0
39
0
210
0
220
0
230
1
50
360
0
POINT
5
164
100
AcDbEntity
8
Defpoints
62
0
6
ByLayer
370
-1
48
1
60
0
100
AcDbPoint
10
-102.4
20
-5.95
30
0
39
0
210
0
220
0
230
1
50
360
0
POINT
5
165
100
AcDbEntity
8
Defpoints
62
0
6
ByLayer
370
-1
48
1
60
0
100
AcDbPoint
10
50.35
20
-5.95
30
0
39
0
210
0
220
0
230
1
50
360
0
ENDBLK
5
15B
100
AcDbEntity
8
0
100
AcDbBlockEnd
0
BLOCK
5
16E
100
AcDbEntity
8
0
100
AcDbBlockBegin
2
_U0
70
0
10
0
20
0
30
0
3
_U0
0
MTEXT
5
168
100
AcDbEntity
8
2
62
256
6
ByLayer
370
18
48
1
60
0
100
AcDbMText
10
49.660366
20
-1.445533
30
0
210
0
220
0
230
1
1
\W0.5321;12
40
3.5
41
0
44
1.084337
50
90
71
7
72
5
7
iso_b_vert
0
LINE
5
169
100
AcDbEntity
8
2
62
256
6
ByLayer
370
13
48
1
60
0
100
AcDbLine
10
24.1875
20
6.05
30
0
11
52.35
21
6.05
31
0
39
0
210
0
220
0
230
1
0
LINE
5
16A
100
AcDbEntity
8
2
62
256
6
ByLayer
370
13
48
1
60
0
100
AcDbLine
10
-100.8125
20
-5.95
30
0
11
52.35
21
-5.95
31
0
39
0
210
0
220
0
230
1
0
LINE
5
16B
100
AcDbEntity
8
2
62
256
6
ByLayer
370
13
48
1
60
0
100
AcDbLine
10
50.35
20
6.05
30
0
11
50.35
21
-5.95
31
0
39
0
210
0
220
0
230
1
0
SOLID
5
16C
100
AcDbEntity
8
2
62
256
6
ByLayer
370
18
48
1
60
0
100
AcDbTrace
10
50.35
20
6.05
30
0
11
50.810784
21
2.550002
31
0
12
49.889216
22
2.549998
32
0
13
49.889216
23
2.549998
33
0
39
0
210
0
220
0
230
1
0
SOLID
5
16D
100
AcDbEntity
8
2
62
256
6
ByLayer
370
18
48
1
60
0
100
AcDbTrace
10
50.35
20
-5.95
30
0
11
49.889216
21
-2.450002
31
0
12
50.810784
22
-2.449998
32
0
13
50.810784
23
-2.449998
33
0
39
0
210
0
220
0
230
1
0
ENDBLK
5
16F
100
AcDbEntity
8
0
100
AcDbBlockEnd
0
BLOCK
5
174
100
AcDbEntity
8
0
100
AcDbBlockBegin
2
*D3
70
1
10
0
20
0
30
0
3
*D3
0
LINE
5
176
100
AcDbEntity
8
0
62
256
6
ByLayer
370
-2
48
1
60
0
100
AcDbLine
10
24.1875
20
4.05
30
0
11
44.693148
21
4.05
31
0
39
0
210
0
220
0
230
1
0
LINE
5
177
100
AcDbEntity
8
0
62
256
6
ByLayer
370
-2
48
1
60
0
100
AcDbLine
10
24.1875
20
6.05
30
0
11
44.693148
21
6.05
31
0
39
0
210
0
220
0
230
1
0
LINE
5
178
100
AcDbEntity
8
0
62
256
6
ByLayer
370
-2
48
1
60
0
100
AcDbLine
10
42.693148
20
0.55
30
0
11
42.693148
21
-2.95
31
0
39
0
210
0
220
0
230
1
0
LINE
5
179
100
AcDbEntity
8
0
62
256
6
ByLayer
370
-2
48
1
60
0
100
AcDbLine
10
42.693148
20
9.55
30
0
11
42.693148
21
13.05
31
0
39
0
210
0
220
0
230
1
0
SOLID
5
17A
100
AcDbEntity
8
0
62
256
6
ByLayer
370
-1
48
1
60
0
100
AcDbTrace
10
43.276481
20
0.55
30
0
11
42.109814
21
0.55
31
0
12
42.693148
22
4.05
32
0
13
42.693148
23
4.05
33
0
39
0
210
0
220
0
230
1
0
SOLID
5
17B
100
AcDbEntity
8
0
62
256
6
ByLayer
370
-1
48
1
60
0
100
AcDbTrace
10
42.109814
20
9.55
30
0
11
43.276481
21
9.55
31
0
12
42.693148
22
6.05
32
0
13
42.693148
23
6.05
33
0
39
0
210
0
220
0
230
1
0
MTEXT
5
17C
100
AcDbEntity
8
0
62
256
6
ByLayer
370
18
48
1
60
0
100
AcDbMText
10
35.693148
20
5.05
30
0
210
0
220
0
230
1
1
\A1;2
40
3.5
41
0
44
1
50
90
71
5
72
5
7
iso_b_vert
0
POINT
5
17D
100
AcDbEntity
8
Defpoints
62
0
6
ByLayer
370
-1
48
1
60
0
100
AcDbPoint
10
22.6
20
4.05
30
0
39
0
210
0
220
0
230
1
50
360
0
POINT
5
17E
100
AcDbEntity
8
Defpoints
62
0
6
ByLayer
370
-1
48
1
60
0
100
AcDbPoint
10
22.6
20
6.05
30
0
39
0
210
0
220
0
230
1
50
360
0
POINT
5
17F
100
AcDbEntity
8
Defpoints
62
0
6
ByLayer
370
-1
48
1
60
0
100
AcDbPoint
10
42.693148
20
6.05
30
0
39
0
210
0
220
0
230
1
50
360
0
ENDBLK
5
175
100
AcDbEntity
8
0
100
AcDbBlockEnd
0
BLOCK
5
187
100
AcDbEntity
8
0
100
AcDbBlockBegin
2
_U1
70
0
10
0
20
0
30
0
3
_U1
0
MTEXT
5
181
100
AcDbEntity
8
2
62
256
6
ByLayer
370
18
48
1
60
0
100
AcDbMText
10
42.003514
20
4.424767
30
0
210
0
220
0
230
1
1
\W0.5404;2
40
3.5
41
0
44
1.084337
50
90
71
7
72
5
7
iso_b_vert
0
LINE
5
182
100
AcDbEntity
8
2
62
256
6
ByLayer
370
13
48
1
60
0
100
AcDbLine
10
24.1875
20
4.05
30
0
11
44.693148
21
4.05
31
0
39
0
210
0
220
0
230
1
0
LINE
5
183
100
AcDbEntity
8
2
62
256
6
ByLayer
370
13
48
1
60
0
100
AcDbLine
10
24.1875
20
6.05
30
0
11
44.693148
21
6.05
31
0
39
0
210
0
220
0
230
1
0
LINE
5
184
100
AcDbEntity
8
2
62
256
6
ByLayer
370
13
48
1
60
0
100
AcDbLine
10
42.693148
20
-4.7
30
0
11
42.693148
21
14.8
31
0
39
0
210
0
220
0
230
1
0
SOLID
5
185
100
AcDbEntity
8
2
62
256
6
ByLayer
370
18
48
1
60
0
100
AcDbTrace
10
42.693148
20
4.05
30
0
11
43.153931
21
0.550002
31
0
12
42.232364
22
0.549998
32
0
13
42.232364
23
0.549998
33
0
39
0
210
0
220
0
230
1
0
SOLID
5
186
100
AcDbEntity
8
2
62
256
6
ByLayer
370
18
48
1
60
0
100
AcDbTrace
10
42.693148
20
6.05
30
0
11
42.232364
21
9.549998
31
0
12
43.153931
22
9.550002
32
0
13
43.153931
23
9.550002
33
0
39
0
210
0
220
0
230
1
0
ENDBLK
5
188
100
AcDbEntity
8
0
100
AcDbBlockEnd
0
BLOCK
5
18D
100
AcDbEntity
8
0
100
AcDbBlockBegin
2
*D5
70
1
10
0
20
0
30
0
3
*D5
0
LINE
5
18F
100
AcDbEntity
8
0
62
256
6
ByLayer
370
-2
48
1
60
0
100
AcDbLine
10
-103.9875
20
-5.95
30
0
11
-116
21
-5.95
31
0
39
0
210
0
220
0
230
1
0
LINE
5
190
100
AcDbEntity
8
0
62
256
6
ByLayer
370
-2
48
1
60
0
100
AcDbLine
10
-103.9875
20
6.05
30
0
11
-116
21
6.05
31
0
39
0
210
0
220
0
230
1
0
LINE
5
191
100
AcDbEntity
8
0
62
256
6
ByLayer
370
-2
48
1
60
0
100
AcDbLine
10
-114
20
-9.45
30
0
11
-114
21
-12.95
31
0
39
0
210
0
220
0
230
1
0
LINE
5
192
100
AcDbEntity
8
0
62
256
6
ByLayer
370
-2
48
1
60
0
100
AcDbLine
10
-114
20
9.55
30
0
11
-114
21
13.05
31
0
39
0
210
0
220
0
230
1
0
SOLID
5
193
100
AcDbEntity
8
0
62
256
6
ByLayer
370
-1
48
1
60
0
100
AcDbTrace
10
-113.416667
20
-9.45
30
0
11
-114.583333
21
-9.45
31
0
12
-114
22
-5.95
32
0
13
-114
23
-5.95
33
0
39
0
210
0
220
0
230
1
0
SOLID
5
194
100
AcDbEntity
8
0
62
256
6
ByLayer
370
-1
48
1
60
0
100
AcDbTrace
10
-114.583333
20
9.55
30
0
11
-113.416667
21
9.55
31
0
12
-114
22
6.05
32
0
13
-114
23
6.05
33
0
39
0
210
0
220
0
230
1
0
MTEXT
5
195
100
AcDbEntity
8
0
62
256
6
ByLayer
370
18
48
1
60
0
100
AcDbMText
10
-121
20
0.05
30
0
210
0
220
0
230
1
1
\A1;12
40
3.5
41
0
44
1
50
90
71
5
72
5
7
iso_b_vert
0
POINT
5
196
100
AcDbEntity
8
Defpoints
62
0
6
ByLayer
370
-1
48
1
60
0
100
AcDbPoint
10
-102.4
20
-5.95
30
0
39
0
210
0
220
0
230
1
50
360
0
POINT
5
197
100
AcDbEntity
8
Defpoints
62
0
6
ByLayer
370
-1
48
1
60
0
100
AcDbPoint
10
-102.4
20
6.05
30
0
39
0
210
0
220
0
230
1
50
360
0
POINT
5
198
100
AcDbEntity
8
Defpoints
62
0
6
ByLayer
370
-1
48
1
60
0
100
AcDbPoint
10
-114
20
6.05
30
0
39
0
210
0
220
0
230
1
50
360
0
ENDBLK
5
18E
100
AcDbEntity
8
0
100
AcDbBlockEnd
0
BLOCK
5
1A1
100
AcDbEntity
8
0
100
AcDbBlockBegin
2
_U2
70
0
10
0
20
0
30
0
3
_U2
0
MTEXT
5
19B
100
AcDbEntity
8
SK2
62
256
6
ByLayer
370
18
48
1
60
0
100
AcDbMText
10
-114.689634
20
-1.445533
30
0
210
0
220
0
230
1
1
\W0.5321;12
40
3.5
41
0
44
1.084337
50
90
71
7
72
5
7
iso_b_vert
0
LINE
5
19C
100
AcDbEntity
8
SK2
62
256
6
ByLayer
370
13
48
1
60
0
100
AcDbLine
10
-103.9875
20
-5.95
30
0
11
-116
21
-5.95
31
0
39
0
210
0
220
0
230
1
0
LINE
5
19D
100
AcDbEntity
8
SK2
62
256
6
ByLayer
370
13
48
1
60
0
100
AcDbLine
10
-103.9875
20
6.05
30
0
11
-116
21
6.05
31
0
39
0
210
0
220
0
230
1
0
LINE
5
19E
100
AcDbEntity
8
SK2
62
256
6
ByLayer
370
13
48
1
60
0
100
AcDbLine
10
-114
20
-5.95
30
0
11
-114
21
6.05
31
0
39
0
210
0
220
0
230
1
0
SOLID
5
19F
100
AcDbEntity
8
SK2
62
256
6
ByLayer
370
18
48
1
60
0
100
AcDbTrace
10
-114
20
-5.95
30
0
11
-114.460784
21
-2.450002
31
0
12
-113.539216
22
-2.449998
32
0
13
-113.539216
23
-2.449998
33
0
39
0
210
0
220
0
230
1
0
SOLID
5
1A0
100
AcDbEntity
8
SK2
62
256
6
ByLayer
370
18
48
1
60
0
100
AcDbTrace
10
-114
20
6.05
30
0
11
-113.539216
21
2.550002
31
0
12
-114.460784
22
2.549998
32
0
13
-114.460784
23
2.549998
33
0
39
0
210
0
220
0
230
1
0
ENDBLK
5
1A2
100
AcDbEntity
8
0
100
AcDbBlockEnd
0
BLOCK
5
1A7
100
AcDbEntity
8
0
100
AcDbBlockBegin
2
*D7
70
1
10
0
20
0
30
0
3
*D7
0
LINE
5
1A9
100
AcDbEntity
8
0
62
256
6
ByLayer
370
-2
48
1
60
0
100
AcDbLine
10
11.6
20
2.7125
30
0
11
11.6
21
-19.7
31
0
39
0
210
0
220
0
230
1
0
LINE
5
1AA
100
AcDbEntity
8
0
62
256
6
ByLayer
370
-2
48
1
60
0
100
AcDbLine
10
22.6
20
4.4625
30
0
11
22.6
21
-19.7
31
0
39
0
210
0
220
0
230
1
0
LINE
5
1AB
100
AcDbEntity
8
0
62
256
6
ByLayer
370
-2
48
1
60
0
100
AcDbLine
10
8.1
20
-17.7
30
0
11
4.6
21
-17.7
31
0
39
0
210
0
220
0
230
1
0
LINE
5
1AC
100
AcDbEntity
8
0
62
256
6
ByLayer
370
-2
48
1
60
0
100
AcDbLine
10
26.1
20
-17.7
30
0
11
29.6
21
-17.7
31
0
39
0
210
0
220
0
230
1
0
SOLID
5
1AD
100
AcDbEntity
8
0
62
256
6
ByLayer
370
-1
48
1
60
0
100
AcDbTrace
10
8.1
20
-18.283333
30
0
11
8.1
21
-17.116667
31
0
12
11.6
22
-17.7
32
0
13
11.6
23
-17.7
33
0
39
0
210
0
220
0
230
1
0
SOLID
5
1AE
100
AcDbEntity
8
0
62
256
6
ByLayer
370
-1
48
1
60
0
100
AcDbTrace
10
26.1
20
-17.116667
30
0
11
26.1
21
-18.283333
31
0
12
22.6
22
-17.7
32
0
13
22.6
23
-17.7
33
0
39
0
210
0
220
0
230
1
0
MTEXT
5
1AF
100
AcDbEntity
8
0
62
256
6
ByLayer
370
18
48
1
60
0
100
AcDbMText
10
17.1
20
-10.7
30
0
210
0
220
0
230
1
1
\A1;11
40
3.5
41
0
44
1
50
0
71
5
72
5
7
iso_b_vert
0
POINT
5
1B0
100
AcDbEntity
8
Defpoints
62
0
6
ByLayer
370
-1
48
1
60
0
100
AcDbPoint
10
11.6
20
4.3
30
0
39
0
210
0
220
0
230
1
50
360
0
POINT
5
1B1
100
AcDbEntity
8
Defpoints
62
0
6
ByLayer
370
-1
48
1
60
0
100
AcDbPoint
10
22.6
20
6.05
30
0
39
0
210
0
220
0
230
1
50
360
0
POINT
5
1B2
100
AcDbEntity
8
Defpoints
62
0
6
ByLayer
370
-1
48
1
60
0
100
AcDbPoint
10
22.6
20
-17.7
30
0
39
0
210
0
220
0
230
1
50
360
0
ENDBLK
5
1A8
100
AcDbEntity
8
0
100
AcDbBlockEnd
0
BLOCK
5
1BA
100
AcDbEntity
8
0
100
AcDbBlockBegin
2
_U3
70
0
10
0
20
0
30
0
3
_U3
0
MTEXT
5
1B4
100
AcDbEntity
8
2
62
256
6
ByLayer
370
18
48
1
60
0
100
AcDbMText
10
16.0699
20
-16.667366
30
0
210
0
220
0
230
1
1
\W0.4657;11
40
3.5
41
0
44
1.084337
50
0
71
7
72
5
7
iso_b_vert
0
LINE
5
1B5
100
AcDbEntity
8
2
62
256
6
ByLayer
370
13
48
1
60
0
100
AcDbLine
10
11.6
20
2.7125
30
0
11
11.6
21
-19.7
31
0
39
0
210
0
220
0
230
1
0
LINE
5
1B6
100
AcDbEntity
8
2
62
256
6
ByLayer
370
13
48
1
60
0
100
AcDbLine
10
22.6
20
4.4625
30
0
11
22.6
21
-19.7
31
0
39
0
210
0
220
0
230
1
0
LINE
5
1B7
100
AcDbEntity
8
2
62
256
6
ByLayer
370
13
48
1
60
0
100
AcDbLine
10
11.6
20
-17.7
30
0
11
22.6
21
-17.7
31
0
39
0
210
0
220
0
230
1
0
SOLID
5
1B8
100
AcDbEntity
8
2
62
256
6
ByLayer
370
18
48
1
60
0
100
AcDbTrace
10
11.6
20
-17.7
30
0
11
15.099998
21
-17.239216
31
0
12
15.100002
22
-18.160784
32
0
13
15.100002
23
-18.160784
33
0
39
0
210
0
220
0
230
1
0
SOLID
5
1B9
100
AcDbEntity
8
2
62
256
6
ByLayer
370
18
48
1
60
0
100
AcDbTrace
10
22.6
20
-17.7
30
0
11
19.100002
21
-18.160784
31
0
12
19.099998
22
-17.239216
32
0
13
19.099998
23
-17.239216
33
0
39
0
210
0
220
0
230
1
0
ENDBLK
5
1BB
100
AcDbEntity
8
0
100
AcDbBlockEnd
0
BLOCK
5
1C0
100
AcDbEntity
8
0
100
AcDbBlockBegin
2
*D9
70
1
10
0
20
0
30
0
3
*D9
0
LINE
5
1C2
100
AcDbEntity
8
0
62
256
6
ByLayer
370
-2
48
1
60
0
100
AcDbLine
10
-102.4
20
-7.5375
30
0
11
-102.4
21
-25.7
31
0
39
0
210
0
220
0
230
1
0
LINE
5
1C3
100
AcDbEntity
8
0
62
256
6
ByLayer
370
-2
48
1
60
0
100
AcDbLine
10
22.6
20
4.4625
30
0
11
22.6
21
-25.7
31
0
39
0
210
0
220
0
230
1
0
LINE
5
1C4
100
AcDbEntity
8
0
62
256
6
ByLayer
370
-2
48
1
60
0
100
AcDbLine
10
-98.9
20
-23.7
30
0
11
19.1
21
-23.7
31
0
39
0
210
0
220
0
230
1
0
SOLID
5
1C5
100
AcDbEntity
8
0
62
256
6
ByLayer
370
-1
48
1
60
0
100
AcDbTrace
10
-98.9
20
-23.116667
30
0
11
-98.9
21
-24.283333
31
0
12
-102.4
22
-23.7
32
0
13
-102.4
23
-23.7
33
0
39
0
210
0
220
0
230
1
0
SOLID
5
1C6
100
AcDbEntity
8
0
62
256
6
ByLayer
370
-1
48
1
60
0
100
AcDbTrace
10
19.1
20
-24.283333
30
0
11
19.1
21
-23.116667
31
0
12
22.6
22
-23.7
32
0
13
22.6
23
-23.7
33
0
39
0
210
0
220
0
230
1
0
MTEXT
5
1C7
100
AcDbEntity
8
0
62
256
6
ByLayer
370
18
48
1
60
0
100
AcDbMText
10
-39.9
20
-16.7
30
0
210
0
220
0
230
1
1
\A1;125
40
3.5
41
0
44
1
50
0
71
5
72
5
7
iso_b_vert
0
POINT
5
1C8
100
AcDbEntity
8
Defpoints
62
0
6
ByLayer
370
-1
48
1
60
0
100
AcDbPoint
10
-102.4
20
-5.95
30
0
39
0
210
0
220
0
230
1
50
360
0
POINT
5
1C9
100
AcDbEntity
8
Defpoints
62
0
6
ByLayer
370
-1
48
1
60
0
100
AcDbPoint
10
22.6
20
6.05
30
0
39
0
210
0
220
0
230
1
50
360
0
POINT
5
1CA
100
AcDbEntity
8
Defpoints
62
0
6
ByLayer
370
-1
48
1
60
0
100
AcDbPoint
10
22.6
20
-23.7
30
0
39
0
210
0
220
0
230
1
50
360
0
ENDBLK
5
1C1
100
AcDbEntity
8
0
100
AcDbBlockEnd
0
BLOCK
5
1D2
100
AcDbEntity
8
0
100
AcDbBlockBegin
2
_U4
70
0
10
0
20
0
30
0
3
_U4
0
MTEXT
5
1CC
100
AcDbEntity
8
SK2
62
256
6
ByLayer
370
18
48
1
60
0
100
AcDbMText
10
-42.675266
20
-22.667366
30
0
210
0
220
0
230
1
1
\W0.6217;125
40
3.5
41
0
44
1.084337
50
0
71
7
72
5
7
iso_b_vert
0
LINE
5
1CD
100
AcDbEntity
8
SK2
62
256
6
ByLayer
370
13
48
1
60
0
100
AcDbLine
10
-102.4
20
-7.5375
30
0
11
-102.4
21
-25.7
31
0
39
0
210
0
220
0
230
1
0
LINE
5
1CE
100
AcDbEntity
8
SK2
62
256
6
ByLayer
370
13
48
1
60
0
100
AcDbLine
10
22.6
20
4.4625
30
0
11
22.6
21
-25.7
31
0
39
0
210
0
220
0
230
1
0
LINE
5
1CF
100
AcDbEntity
8
SK2
62
256
6
ByLayer
370
13
48
1
60
0
100
AcDbLine
10
-102.4
20
-23.7
30
0
11
22.6
21
-23.7
31
0
39
0
210
0
220
0
230
1
0
SOLID
5
1D0
100
AcDbEntity
8
SK2
62
256
6
ByLayer
370
18
48
1
60
0
100
AcDbTrace
10
-102.4
20
-23.7
30
0
11
-98.900002
21
-23.239216
31
0
12
-98.899998
22
-24.160784
32
0
13
-98.899998
23
-24.160784
33
0
39
0
210
0
220
0
230
1
0
SOLID
5
1D1
100
AcDbEntity
8
SK2
62
256
6
ByLayer
370
18
48
1
60
0
100
AcDbTrace
10
22.6
20
-23.7
30
0
11
19.100002
21
-24.160784
31
0
12
19.099998
22
-23.239216
32
0
13
19.099998
23
-23.239216
33
0
39
0
210
0
220
0
230
1
0
ENDBLK
5
1D3
100
AcDbEntity
8
0
100
AcDbBlockEnd
0
ENDSEC
0
SECTION
2
ENTITIES
0
ARC
5
EB
100
AcDbEntity
8
1
62
256
6
ByLayer
370
18
48
1
60
0
100
AcDbCircle
39
0
10
11.6
20
3.5
30
0
40
0.800000000000225
210
0
220
0
230
1
100
AcDbArc
50
90
51
180
0
ARC
5
EC
100
AcDbEntity
8
SK1
62
256
6
ByLayer
370
18
48
1
60
0
100
AcDbCircle
39
0
10
-1.6
20
7.4
30
0
40
1.6
210
0
220
0
230
1
100
AcDbArc
50
244.992167
51
270
0
ELLIPSE
5
ED
100
AcDbEntity
8
1
62
256
6
ByLayer
370
18
48
1
60
0
100
AcDbEllipse
10
22.599965
20
17.338166
30
0
11
0.703029699791364
21
-33.7890559927506
31
0
210
0
220
0
230
1
40
0.348604
41
-1.1561050865418
42
-1.1414585257436
0
ELLIPSE
5
EE
100
AcDbEntity
8
1
62
256
6
ByLayer
370
18
48
1
60
0
100
AcDbEllipse
10
8.12698
20
-0.825
30
0
11
1.94406258669302E-16
21
3.175
31
0
210
0
220
0
230
1
40
0.891007
41
-3.12794327568601
42
-1.90435897834825
0
ELLIPSE
5
EF
100
AcDbEntity
8
1
62
256
6
ByLayer
370
18
48
1
60
0
100
AcDbEllipse
10
8.12698
20
-0.825
30
0
11
1.94406258669302E-16
21
3.175
31
0
210
0
220
0
230
1
40
0.891007
41
-1.23723367524155
42
-0.0136493779037964
0
ELLIPSE
5
F0
100
AcDbEntity
8
1
62
256
6
ByLayer
370
18
48
1
60
0
100
AcDbEllipse
10
8.204159
20
-0.825
30
0
11
-5.83218776007907E-16
21
-3.175
31
0
210
0
220
0
230
1
40
0.891007
41
1.97959200338253
42
-2.6749127952448
0
ELLIPSE
5
F1
100
AcDbEntity
8
1
62
256
6
ByLayer
370
18
48
1
60
0
100
AcDbEllipse
10
8.534601
20
-0.825
30
0
11
-3.5633858044891
21
4.36374489729782E-16
31
0
210
0
220
0
230
1
40
0.891007
41
0.982423360466023
42
1.1041164684499
0
ELLIPSE
5
F2
100
AcDbEntity
8
1
62
256
6
ByLayer
370
18
48
1
60
0
100
AcDbEllipse
10
9.86953
20
-0.825
30
0
11
4.53787995752993
21
0
31
0
210
0
220
0
230
1
40
0.851581
41
2.38911365625786
42
2.64065334554964
0
ELLIPSE
5
F3
100
AcDbEntity
8
1
62
256
6
ByLayer
370
18
48
1
60
0
100
AcDbEllipse
10
9.86953
20
-0.825
30
0
11
4.53787995752993
21
0
31
0
210
0
220
0
230
1
40
0.851581
41
-2.64065334554964
42
-2.38911365625786
0
ELLIPSE
5
F4
100
AcDbEntity
8
1
62
256
6
ByLayer
370
18
48
1
60
0
100
AcDbEllipse
10
8.534601
20
-0.825
30
0
11
-3.5633858044891
21
4.36374489729782E-16
31
0
210
0
220
0
230
1
40
0.891007
41
-1.1041164684499
42
-0.982423360466023
0
ELLIPSE
5
F5
100
AcDbEntity
8
1
62
256
6
ByLayer
370
18
48
1
60
0
100
AcDbEllipse
10
8.693501
20
3.5
30
0
11
1.76215141166822
21
0
31
0
210
0
220
0
230
1
40
0.45399
41
1.57079632679488
42
3.14159265358979
0
ELLIPSE
5
F6
100
AcDbEntity
8
1
62
256
6
ByLayer
370
18
48
1
60
0
100
AcDbEllipse
10
8.204159
20
-0.825
30
0
11
-5.83218776007907E-16
21
-3.175
31
0
210
0
220
0
230
1
40
0.891007
41
-0.46667985834499
42
1.16200065020727
0
ELLIPSE
5
F7
100
AcDbEntity
8
1
62
256
6
ByLayer
370
18
48
1
60
0
100
AcDbEllipse
10
7.10409
20
-0.825
30
0
11
7.90054789168507E-17
21
1.2903
31
0
210
0
220
0
230
1
40
0.891007
41
-1.57079671052643
42
-0.465741949083513
0
ELLIPSE
5
F8
100
AcDbEntity
8
1
62
256
6
ByLayer
370
18
48
1
60
0
100
AcDbEllipse
10
7.10409
20
-0.825
30
0
11
7.90054789168507E-17
21
1.2903
31
0
210
0
220
0
230
1
40
0.891007
41
-2.67035354084124
42
-1.57079593551288
0
ELLIPSE
5
F9
100
AcDbEntity
8
1
62
256
6
ByLayer
370
18
48
1
60
0
100
AcDbEllipse
10
7.489982
20
-0.825
30
0
11
-2.37016436750552E-16
21
-1.2903
31
0
210
0
220
0
230
1
40
0.891007
41
0.523598775598295
42
1.5707963267949
0
ELLIPSE
5
FA
100
AcDbEntity
8
1
62
256
6
ByLayer
370
18
48
1
60
0
100
AcDbEllipse
10
7.489982
20
-0.825
30
0
11
-2.37016436750552E-16
21
-1.2903
31
0
210
0
220
0
230
1
40
0.891007
41
1.5707963267949
42
2.61799387799149
0
ELLIPSE
5
FB
100
AcDbEntity
8
1
62
256
6
ByLayer
370
18
48
1
60
0
100
AcDbEllipse
10
7.489982
20
-0.825
30
0
11
-2.37016436750552E-16
21
-1.2903
31
0
210
0
220
0
230
1
40
0.891007
41
2.61799387799149
42
2.91718129697015
0
ELLIPSE
5
FC
100
AcDbEntity
8
1
62
256
6
ByLayer
370
18
48
1
60
0
100
AcDbEllipse
10
7.489982
20
-0.825
30
0
11
7.90054789168507E-17
21
1.2903
31
0
210
0
220
0
230
1
40
0.891007
41
-2.91718129697015
42
-2.61799387799149
0
ELLIPSE
5
FD
100
AcDbEntity
8
1
62
256
6
ByLayer
370
18
48
1
60
0
100
AcDbEllipse
10
8.811612
20
-0.825
30
0
11
2.41308682020448E-17
21
0.394099999999589
31
0
210
0
220
0
230
1
40
0.436347
41
0.288932900932912
42
1.5707963267949
0
ELLIPSE
5
FE
100
AcDbEntity
8
1
62
256
6
ByLayer
370
18
48
1
60
0
100
AcDbEllipse
10
8.811612
20
-0.825
30
0
11
2.41308682020565E-17
21
0.39409999999978
31
0
210
0
220
0
230
1
40
0.436347
41
1.5707963267949
42
2.85265975265575
0
ELLIPSE
5
FF
100
AcDbEntity
8
1
62
256
6
ByLayer
370
18
48
1
60
0
100
AcDbEllipse
10
8.634625
20
-1.5667
30
0
11
0.166590173381905
21
0.346346854433054
31
0
210
0
220
0
230
1
40
0.458817
41
-2.284360547379
42
0.137551892608026
0
ELLIPSE
5
100
100
AcDbEntity
8
1
62
256
6
ByLayer
370
18
48
1
60
0
100
AcDbEllipse
10
8.634625
20
-0.0833
30
0
11
0.166590173381909
21
-0.346346854433055
31
0
210
0
220
0
230
1
40
0.458817
41
-0.137551892608196
42
2.28436054737896
0
ELLIPSE
5
101
100
AcDbEntity
8
1
62
256
6
ByLayer
370
18
48
1
60
0
100
AcDbEllipse
10
8.150797
20
0.459575
30
0
11
0.297314427408499
21
-0.20829795671257
31
0
210
0
220
0
230
1
40
0.514259
41
-2.78239765148193
42
-1.50053422561442
0
ELLIPSE
5
102
100
AcDbEntity
8
1
62
256
6
ByLayer
370
18
48
1
60
0
100
AcDbEllipse
10
8.150797
20
0.459575
30
0
11
0.297314427411324
21
-0.208297956713165
31
0
210
0
220
0
230
1
40
0.514259
41
-1.50053422562093
42
-0.579535660853534
0
ELLIPSE
5
103
100
AcDbEntity
8
1
62
256
6
ByLayer
370
18
48
1
60
0
100
AcDbEllipse
10
8.150797
20
-2.109575
30
0
11
0.297314427410703
21
0.208297956711881
31
0
210
0
220
0
230
1
40
0.514259
41
0.622058059849745
42
1.50053422562506
0
ELLIPSE
5
104
100
AcDbEntity
8
1
62
256
6
ByLayer
370
18
48
1
60
0
100
AcDbEllipse
10
8.150797
20
-2.109575
30
0
11
0.297314427408169
21
0.208297956712528
31
0
210
0
220
0
230
1
40
0.514259
41
1.50053422561338
42
2.78239765148168
0
ELLIPSE
5
105
100
AcDbEntity
8
1
62
256
6
ByLayer
370
18
48
1
60
0
100
AcDbEllipse
10
7.989372
20
-0.825
30
0
11
-5.5107285922007E-16
21
-3
31
0
210
0
220
0
230
1
40
0.891007
41
3.14159258717256
42
-2.90740745111097E-16
0
ELLIPSE
5
106
100
AcDbEntity
8
1
62
256
6
ByLayer
370
18
48
1
60
0
100
AcDbEllipse
10
8.261766
20
-0.825
30
0
11
-3.07939513732175E-16
21
-1.6764
31
0
210
0
220
0
230
1
40
0.891007
41
-1.0471975511966
42
9.51396241287975E-15
0
ELLIPSE
5
107
100
AcDbEntity
8
1
62
256
6
ByLayer
370
18
48
1
60
0
100
AcDbEllipse
10
8.261766
20
-0.825
30
0
11
-3.07939513732175E-16
21
-1.6764
31
0
210
0
220
0
230
1
40
0.891007
41
-2.09439510239319
42
-1.0471975511966
0
ELLIPSE
5
108
100
AcDbEntity
8
1
62
256
6
ByLayer
370
18
48
1
60
0
100
AcDbEllipse
10
8.261766
20
-0.825
30
0
11
-3.07939513732175E-16
21
-1.6764
31
0
210
0
220
0
230
1
40
0.891007
41
3.14159265358978
42
-2.09439510239319
0
ELLIPSE
5
109
100
AcDbEntity
8
1
62
256
6
ByLayer
370
18
48
1
60
0
100
AcDbEllipse
10
8.261766
20
-0.825
30
0
11
-3.07939513732175E-16
21
-1.6764
31
0
210
0
220
0
230
1
40
0.891007
41
2.0943951023932
42
3.14159265358978
0
ELLIPSE
5
10A
100
AcDbEntity
8
1
62
256
6
ByLayer
370
18
48
1
60
0
100
AcDbEllipse
10
8.261766
20
-0.825
30
0
11
-3.07939513732175E-16
21
-1.6764
31
0
210
0
220
0
230
1
40
0.891007
41
1.0471975511966
42
2.0943951023932
0
ELLIPSE
5
10B
100
AcDbEntity
8
1
62
256
6
ByLayer
370
18
48
1
60
0
100
AcDbEllipse
10
8.261766
20
-0.825
30
0
11
-3.07939513732175E-16
21
-1.6764
31
0
210
0
220
0
230
1
40
0.891007
41
0
42
1.0471975511966
0
ELLIPSE
5
10C
100
AcDbEntity
8
1
62
256
6
ByLayer
370
13
48
1
60
0
100
AcDbEllipse
10
8.261766
20
-0.825
30
0
11
1.71444889535133E-16
21
2.8
31
0
210
0
220
0
230
1
40
0.891007
41
0
42
6.28318530717959
0
ELLIPSE
5
10D
100
AcDbEntity
8
1
62
256
6
ByLayer
370
18
48
1
60
0
100
AcDbEllipse
10
8.170968
20
-0.825
30
0
11
-5.5107285922007E-16
21
-3
31
0
210
0
220
0
230
1
40
0.891007
41
-0.679075062477707
42
-2.90740745111097E-16
0
ELLIPSE
5
10E
100
AcDbEntity
8
1
62
256
6
ByLayer
370
18
48
1
60
0
100
AcDbEllipse
10
8.170968
20
-0.825
30
0
11
-5.5107285922007E-16
21
-3
31
0
210
0
220
0
230
1
40
0.891007
41
0
42
0.679467705231409
0
ELLIPSE
5
10F
100
AcDbEntity
8
1
62
256
6
ByLayer
370
13
48
1
60
0
100
AcDbEllipse
10
8.170968
20
-0.825
30
0
11
-5.5107285922007E-16
21
-3
31
0
210
0
220
0
230
1
40
0.891007
41
-2.46929193059957
42
-0.679075062477733
0
ELLIPSE
5
110
100
AcDbEntity
8
1
62
256
6
ByLayer
370
18
48
1
60
0
100
AcDbEllipse
10
8.170968
20
-0.825
30
0
11
-5.5107285922007E-16
21
-3
31
0
210
0
220
0
230
1
40
0.891007
41
2.46389227359152
42
-2.46929193059958
0
ELLIPSE
5
111
100
AcDbEntity
8
1
62
256
6
ByLayer
370
18
48
1
60
0
100
AcDbEllipse
10
5.257635
20
6.65
30
0
11
0.898474163593651
21
1.05252237888058E-15
31
0
210
0
220
0
230
1
40
0.890398
41
-1.84644008771698
42
-1.5707963267949
0
ELLIPSE
5
112
100
AcDbEntity
8
1
62
256
6
ByLayer
370
18
48
1
60
0
100
AcDbEllipse
10
19.917302
20
6.65
30
0
11
0.918716977488528
21
1.07623593181198E-15
31
0
210
0
220
0
230
1
40
0.87078
41
-1.5707963267949
42
-1.29515256584116
0
ELLIPSE
5
113
100
AcDbEntity
8
1
62
256
6
ByLayer
370
18
48
1
60
0
100
AcDbEllipse
10
18.579327
20
5.483936
30
0
11
0.950103706737461
21
1.11300408416734E-15
31
0
210
0
220
0
230
1
40
0.210503
41
-2.80561677257881
42
-1.98717825108603
0
ELLIPSE
5
114
100
AcDbEntity
8
1
62
256
6
ByLayer
370
18
48
1
60
0
100
AcDbEllipse
10
22.037788
20
7.130141
30
0
11
9.5010371091134
21
5.5899107850033E-09
31
0
210
0
220
0
230
1
40
0.210503
41
-1.98717825241013
42
-1.91986217877985
0
ELLIPSE
5
115
100
AcDbEntity
8
1
62
256
6
ByLayer
370
18
48
1
60
0
100
AcDbEllipse
10
18.49168
20
5.05
30
0
11
0.997608892070228
21
1.1686542883709E-15
31
0
210
0
220
0
230
1
40
0.210503
41
0
42
1.2217304763955
0
ELLIPSE
5
116
100
AcDbEntity
8
1
62
256
6
ByLayer
370
18
48
1
60
0
100
AcDbEllipse
10
18.49168
20
5.05
30
0
11
0.997608892070228
21
1.1686542883709E-15
31
0
210
0
220
0
230
1
40
0.210503
41
-1.2217304763955
42
0
0
ELLIPSE
5
117
100
AcDbEntity
8
1
62
256
6
ByLayer
370
18
48
1
60
0
100
AcDbEllipse
10
22.037788
20
2.969859
30
0
11
9.50103700337667
21
8.52487192670485E-09
31
0
210
0
220
0
230
1
40
0.210503
41
1.91986217478996
42
1.98717824907893
0
ELLIPSE
5
118
100
AcDbEntity
8
1
62
256
6
ByLayer
370
18
48
1
60
0
100
AcDbEllipse
10
18.579327
20
4.616064
30
0
11
0.950103706732285
21
1.11300408416128E-15
31
0
210
0
220
0
230
1
40
0.210503
41
1.98717825108395
42
2.80561677258123
0
ELLIPSE
5
119
100
AcDbEntity
8
1
62
256
6
ByLayer
370
18
48
1
60
0
100
AcDbEllipse
10
17.927094
20
4.374562
30
0
11
0.712577779774534
21
8.34753062799182E-16
31
0
210
0
220
0
230
1
40
0.210503
41
2.80561677251507
42
3.14159265358979
0
ELLIPSE
5
11A
100
AcDbEntity
8
1
62
256
6
ByLayer
370
18
48
1
60
0
100
AcDbEllipse
10
19.917302
20
3.45
30
0
11
0.918716977546075
21
1.07623593187939E-15
31
0
210
0
220
0
230
1
40
0.87078
41
1.29515256585859
42
1.5707963267949
0
ELLIPSE
5
11B
100
AcDbEntity
8
1
62
256
6
ByLayer
370
18
48
1
60
0
100
AcDbEllipse
10
18.933332
20
5.6
30
0
11
7.85307604188964E-18
21
0.128254700253314
31
0
210
0
220
0
230
1
40
0.987688
41
0
42
6.28318530717959
0
ELLIPSE
5
11C
100
AcDbEntity
8
1
62
256
6
ByLayer
370
18
48
1
60
0
100
AcDbEllipse
10
17.927094
20
5.725438
30
0
11
0.712577779792603
21
8.34753062820349E-16
31
0
210
0
220
0
230
1
40
0.210503
41
3.14159265358979
42
-2.80561677251941
0
POINT
5
70
100
AcDbEntity
8
81
62
256
6
ByLayer
370
18
48
1
60
0
100
AcDbPoint
10
22.6
20
6.05
30
0
39
0
210
0
220
0
230
1
50
360
0
POINT
5
72
100
AcDbEntity
8
80
62
256
6
ByLayer
370
18
48
1
60
0
100
AcDbPoint
10
0
20
0
30
0
39
0
210
0
220
0
230
1
50
360
0
POINT
5
74
100
AcDbEntity
8
1
62
256
6
ByLayer
370
18
48
1
60
1
100
AcDbPoint
10
22.6
20
6.05
30
0
39
0
210
0
220
0
230
1
50
360
0
POINT
5
76
100
AcDbEntity
8
1
62
256
6
ByLayer
370
18
48
1
60
1
100
AcDbPoint
10
-102.4
20
-5.95
30
0
39
0
210
0
220
0
230
1
50
360
0
POINT
5
77
100
AcDbEntity
8
1
62
256
6
ByLayer
370
18
48
1
60
1
100
AcDbPoint
10
22.6
20
4.05
30
0
39
0
210
0
220
0
230
1
50
360
0
POINT
5
78
100
AcDbEntity
8
1
62
256
6
ByLayer
370
18
48
1
60
1
100
AcDbPoint
10
22.6
20
6.05
30
0
39
0
210
0
220
0
230
1
50
360
0
POINT
5
79
100
AcDbEntity
8
1
62
256
6
ByLayer
370
18
48
1
60
1
100
AcDbPoint
10
-102.4
20
-5.95
30
0
39
0
210
0
220
0
230
1
50
360
0
POINT
5
7A
100
AcDbEntity
8
1
62
256
6
ByLayer
370
18
48
1
60
1
100
AcDbPoint
10
-102.4
20
6.05
30
0
39
0
210
0
220
0
230
1
50
360
0
POINT
5
7B
100
AcDbEntity
8
1
62
256
6
ByLayer
370
18
48
1
60
1
100
AcDbPoint
10
11.6
20
4.3
30
0
39
0
210
0
220
0
230
1
50
360
0
POINT
5
7C
100
AcDbEntity
8
1
62
256
6
ByLayer
370
18
48
1
60
1
100
AcDbPoint
10
22.6
20
6.05
30
0
39
0
210
0
220
0
230
1
50
360
0
POINT
5
7D
100
AcDbEntity
8
1
62
256
6
ByLayer
370
18
48
1
60
1
100
AcDbPoint
10
-102.4
20
-5.95
30
0
39
0
210
0
220
0
230
1
50
360
0
POINT
5
7E
100
AcDbEntity
8
1
62
256
6
ByLayer
370
18
48
1
60
1
100
AcDbPoint
10
22.6
20
6.05
30
0
39
0
210
0
220
0
230
1
50
360
0
SPLINE
5
11D
100
AcDbEntity
8
1
62
256
6
ByLayer
370
18
48
1
60
0
100
AcDbSpline
70
4
71
3
72
15
73
11
40
0
40
0
40
0
40
0
40
0.0822719365811691
40
0.23514398459145
40
0.388120924304172
40
0.541093945571462
40
0.694029011183464
40
0.846882111429855
40
0.999599974798298
40
1
40
1
40
1
40
1
41
1
10
10.8657863386115
20
-0.825000000000045
30
0
41
1
10
10.8657777405249
20
-0.751834330829638
30
0
41
1
10
10.8589657039422
20
-0.543553307448917
30
0
41
1
10
10.8154262513588
20
-0.201333840080167
30
0
41
1
10
10.7153725240918
20
0.191527373026787
30
0
41
1
10
10.5681005511531
20
0.565607767136271
30
0
41
1
10
10.3775431182057
20
0.915612868253305
30
0
41
1
10
10.1424702112336
20
1.22812075897903
30
0
41
1
10
9.97032764703539
20
1.42517124950217
30
0
41
1
10
9.87017246105023
20
1.50380247377143
30
0
41
1
10
9.86991074161577
20
1.50400782217372
30
0
0
SPLINE
5
11E
100
AcDbEntity
8
1
62
256
6
ByLayer
370
18
48
1
60
0
100
AcDbSpline
70
4
71
3
72
14
73
10
40
0
40
0
40
0
40
0
40
0.116564173618199
40
0.269039829206535
40
0.421733744224089
40
0.574609796665158
40
0.727629473804566
40
0.880758149030346
40
1
40
1
40
1
40
1
41
1
10
9.87097123804557
20
-3.1467869569546
30
0
41
1
10
9.94480282567545
20
-3.08277093890001
30
0
41
1
10
10.106284319054
20
-2.92568242320567
30
0
41
1
10
10.3264492142951
20
-2.64057066769684
30
0
41
1
10
10.5272195039318
20
-2.30038261470528
30
0
41
1
10
10.6845135081845
20
-1.9322752093853
30
0
41
1
10
10.7958475781667
20
-1.54399656306094
30
0
41
1
10
10.8543694560362
20
-1.1715201998656
30
0
41
1
10
10.8657560610755
20
-0.931028177025212
30
0
41
1
10
10.8657863386115
20
-0.825000000000045
30
0
0
SPLINE
5
11F
100
AcDbEntity
8
1
62
256
6
ByLayer
370
18
48
1
60
0
100
AcDbSpline
70
4
71
3
72
31
73
27
40
0
40
0
40
0
40
0
40
0.161622739435665
40
0.161622739435665
40
0.202028424294587
40
0.202028424294587
40
0.242434109153509
40
0.242434109153509
40
0.323245478871349
40
0.404056848589188
40
0.404056848589188
40
0.484868218307028
40
0.484868218307028
40
0.64649095774271
40
0.64649095774271
40
0.686896642601623
40
0.686896642601623
40
0.727302327460535
40
0.808113697178388
40
0.88892506689624
40
0.88892506689624
40
0.929330751755166
40
0.929330751755166
40
0.969736436614093
40
0.969736436614093
40
1
40
1
40
1
40
1
41
1
10
17.9131549576852
20
3.50000000000006
30
0
41
1
10
17.9131549576852
20
3.55852441919399
30
0
41
1
10
17.9194985827879
20
3.61570150421466
30
0
41
1
10
17.9348495327587
20
3.68559497702881
30
0
41
1
10
17.9382951166214
20
3.69949384675584
30
0
41
1
10
17.9459411131587
20
3.72713098633551
30
0
41
1
10
17.9501535720797
20
3.74089786742053
30
0
41
1
10
17.9637426706594
20
3.7814121744149
30
0
41
1
10
17.9844717023233
20
3.8336781233088
30
0
41
1
10
18.0100730272421
20
3.88266546991755
30
0
41
1
10
18.0380257125581
20
3.93006693101995
30
0
41
1
10
18.0532399064742
20
3.95303518528337
30
0
41
1
10
18.101301541967
20
4.01821849962317
30
0
41
1
10
18.1367945468978
20
4.05724761083118
30
0
41
1
10
18.1850260947109
20
4.10104048784157
30
0
41
1
10
18.1948905507717
20
4.10956491037544
30
0
41
1
10
18.2148718130574
20
4.1260042198054
30
0
41
1
10
18.245217949679
20
4.14975142356607
30
0
41
1
10
18.2975820160499
20
4.18496304499846
30
0
41
1
10
18.3412617110141
20
4.20873727312002
30
0
41
1
10
18.3746686223182
20
4.22496915663854
30
0
41
1
10
18.3859122837326
20
4.23011291733803
30
0
41
1
10
18.4086138608306
20
4.23986982641955
30
0
41
1
10
18.4200738276667
20
4.24448214780818
30
0
41
1
10
18.440138017315
20
4.25202793872137
30
0
41
1
10
18.4487499854399
20
4.25509943811755
30
0
41
1
10
18.4573812265755
20
4.25801333075106
30
0
0
SPLINE
5
120
100
AcDbEntity
8
1
62
256
6
ByLayer
370
18
48
1
60
0
100
AcDbSpline
70
4
71
3
72
28
73
24
40
0
40
0
40
0
40
0
40
0.0409395750215094
40
0.0409395750215094
40
0.200782979184597
40
0.200782979184597
40
0.280704681266139
40
0.280704681266139
40
0.360626383347682
40
0.440548085429224
40
0.440548085429224
40
0.480508936469995
40
0.480508936469995
40
0.520469787510767
40
0.520469787510767
40
0.680313191673851
40
0.680313191673851
40
0.760234893755389
40
0.760234893755389
40
0.840156595836926
40
0.920078297918463
40
0.920078297918463
40
1
40
1
40
1
40
1
41
1
10
12.5625470825708
20
4.25690641695968
30
0
41
1
10
12.5495915176542
20
4.25261603474257
30
0
41
1
10
12.5368065710373
20
4.24801307611318
30
0
41
1
10
12.4749417425315
20
4.22390444206061
30
0
41
1
10
12.4282723280079
20
4.19998273833437
30
0
41
1
10
12.3624948719453
20
4.1563568398027
30
0
41
1
10
12.3411921090697
20
4.14041729610352
30
0
41
1
10
12.3012455103565
20
4.10672107838684
30
0
41
1
10
12.2636696602045
20
4.07105089141723
30
0
41
1
10
12.2307899559249
20
4.03147052699944
30
0
41
1
10
12.2079291881884
20
4.00028733382314
30
0
41
1
10
12.2006093425038
20
3.98964280389802
30
0
41
1
10
12.1865842458045
20
3.96784201074925
30
0
41
1
10
12.1799038968546
20
3.95671952336076
30
0
41
1
10
12.148464938952
20
3.90057030982626
30
0
41
1
10
12.1292003344492
20
3.85344246895716
30
0
41
1
10
12.1087501476254
20
3.77958173933425
30
0
41
1
10
12.1033485046439
20
3.75431431684069
30
0
41
1
10
12.0955754316907
20
3.70383809668749
30
0
41
1
10
12.0907441451384
20
3.65319645062024
30
0
41
1
10
12.0915067115562
20
3.60224024458336
30
0
41
1
10
12.0950099289136
20
3.5511299231128
30
0
41
1
10
12.0981465986709
20
3.52545549725559
30
0
41
1
10
12.1025969114633
20
3.50000000000008
30
0
0
SPLINE
5
121
100
AcDbEntity
8
1
62
256
6
ByLayer
370
18
48
1
60
0
100
AcDbSpline
70
4
71
3
72
12
73
8
40
0
40
0
40
0
40
0
40
0.500000000000017
40
0.500000000000017
40
0.750000000000009
40
0.750000000000009
40
1
40
1
40
1
40
1
41
1
10
16.0556881129218
20
4.79999999999697
30
0
41
1
10
16.0228555530823
20
4.71513323404497
30
0
41
1
10
15.9891118107752
20
4.63070301290605
30
0
41
1
10
15.9362590374975
20
4.50534815694834
30
0
41
1
10
15.9182710637825
20
4.46380017489631
30
0
41
1
10
15.881286387934
20
4.38134959287041
30
0
41
1
10
15.8622934171869
20
4.34044460556436
30
0
41
1
10
15.8425808724668
20
4.29999999999987
30
0
0
SPLINE
5
122
100
AcDbEntity
8
1
62
256
6
ByLayer
370
18
48
1
60
0
100
AcDbSpline
70
4
71
3
72
8
73
4
40
0
40
0
40
0
40
0
40
1
40
1
40
1
40
1
41
1
10
16.2181246704175
20
4.86210100910057
30
0
41
1
10
16.1641954671006
20
4.84066762087741
30
0
41
1
10
16.1100883116387
20
4.81983727746521
30
0
41
1
10
16.0556881129204
20
4.79999999999959
30
0
0
SPLINE
5
123
100
AcDbEntity
8
1
62
256
6
ByLayer
370
18
48
1
60
0
100
AcDbSpline
70
4
71
3
72
20
73
16
40
0
40
0
40
0
40
0
40
0.124999999999981
40
0.124999999999981
40
0.249999999999961
40
0.249999999999961
40
0.374999999999942
40
0.374999999999942
40
0.499999999999923
40
0.499999999999923
40
0.624999999999903
40
0.624999999999903
40
0.749999999999884
40
0.749999999999884
40
1
40
1
40
1
40
1
41
1
10
16.3118654791435
20
5.00118103894764
30
0
41
1
10
16.3118654791435
20
4.99319594473772
30
0
41
1
10
16.3112424896884
20
4.98533887691215
30
0
41
1
10
16.3088182782485
20
4.96986687192543
30
0
41
1
10
16.3070044140297
20
4.96221469569352
30
0
41
1
10
16.3022254729567
20
4.94731998449851
30
0
41
1
10
16.2993119882647
20
4.94021620658677
30
0
41
1
10
16.2925178783766
20
4.92664277083929
30
0
41
1
10
16.2886061771778
20
4.92013232634247
30
0
41
1
10
16.2799693779059
20
4.90793970006303
30
0
41
1
10
16.2752865153938
20
4.90230131741282
30
0
41
1
10
16.2652539509921
20
4.89186240447759
30
0
41
1
10
16.2598711264948
20
4.88703823016294
30
0
41
1
10
16.2429851640987
20
4.8739678830743
30
0
41
1
10
16.2309137812967
20
4.86718385775478
30
0
41
1
10
16.2181246704175
20
4.86210100910057
30
0
0
SPLINE
5
124
100
AcDbEntity
8
1
62
256
6
ByLayer
370
18
48
1
60
0
100
AcDbSpline
70
4
71
3
72
20
73
16
40
0
40
0
40
0
40
0
40
0.249999999999991
40
0.249999999999991
40
0.374999999999992
40
0.374999999999992
40
0.499999999999994
40
0.499999999999994
40
0.624999999999995
40
0.624999999999995
40
0.749999999999997
40
0.749999999999997
40
0.874999999999998
40
0.874999999999998
40
1
40
1
40
1
40
1
41
1
10
16.218124670418
20
5.23789899089928
30
0
41
1
10
16.230932829602
20
5.23280857176957
30
0
41
1
10
16.2429898027922
20
5.22602320941652
30
0
41
1
10
16.2598170774568
20
5.21300625200672
30
0
41
1
10
16.2652446548525
20
5.20814677055878
30
0
41
1
10
16.2752861068555
20
5.19769960481625
30
0
41
1
10
16.2799400079973
20
5.19208991232753
30
0
41
1
10
16.288478003338
20
5.18006025003061
30
0
41
1
10
16.2923628988546
20
5.17364112366698
30
0
41
1
10
16.2992692955817
20
5.15989408617131
30
0
41
1
10
16.3021942171546
20
5.15274786986731
30
0
41
1
10
16.3069288392454
20
5.13804975223638
30
0
41
1
10
16.3087501529882
20
5.13047606206911
30
0
41
1
10
16.3112269577542
20
5.11484904505477
30
0
41
1
10
16.3118654791468
20
5.10682979241599
30
0
41
1
10
16.3118654791467
20
5.0988189610527
30
0
0
SPLINE
5
125
100
AcDbEntity
8
1
62
256
6
ByLayer
370
18
48
1
60
0
100
AcDbSpline
70
4
71
3
72
8
73
4
40
0
40
0
40
0
40
0
40
1
40
1
40
1
40
1
41
1
10
16.0556881129216
20
5.30000000000004
30
0
41
1
10
16.1100807377125
20
5.28016548440118
30
0
41
1
10
16.1641890881286
20
5.25933491435359
30
0
41
1
10
16.218124670418
20
5.23789899089928
30
0
0
SPLINE
5
126
100
AcDbEntity
8
1
62
256
6
ByLayer
370
18
48
1
60
0
100
AcDbSpline
70
4
71
3
72
12
73
8
40
0
40
0
40
0
40
0
40
0.250000000000008
40
0.250000000000008
40
0.500000000000017
40
0.500000000000017
40
1
40
1
40
1
40
1
41
1
10
15.8425808724663
20
5.80000000000007
30
0
41
1
10
15.8623272572528
20
5.75948596412317
30
0
41
1
10
15.881335469213
20
5.71854382109942
30
0
41
1
10
15.9183295424953
20
5.63606661751408
30
0
41
1
10
15.9363114347058
20
5.59452925504573
30
0
41
1
10
15.9891255871201
20
5.46926093432103
30
0
41
1
10
16.022847992118
20
5.38488630980038
30
0
41
1
10
16.0556881129216
20
5.30000000000001
30
0
0
SPLINE
5
127
100
AcDbEntity
8
1
62
256
6
ByLayer
370
18
48
1
60
0
100
AcDbSpline
70
4
71
3
72
8
73
4
40
0
40
0
40
0
40
0
40
1
40
1
40
1
40
1
41
1
10
10.7999999999999
20
0.214531144314634
30
0
41
1
10
10.7999999999999
20
0.088527331696298
30
0
41
1
10
10.8
20
-0.0392929262999928
30
0
41
1
10
10.8
20
-0.169116855685388
30
0
0
SPLINE
5
128
100
AcDbEntity
8
1
62
256
6
ByLayer
370
18
48
1
60
0
100
AcDbSpline
70
4
71
3
72
10
73
6
40
0
40
0
40
0
40
0
40
0.358203697201029
40
0.358203697201029
40
1
40
1
40
1
40
1
41
1
10
10.7999999999999
20
-1.46598514432028
30
0
41
1
10
10.7999999999999
20
-1.51432081229726
30
0
41
1
10
10.7999999999999
20
-1.56254889726614
30
0
41
1
10
10.7999999999999
20
-1.69681283748434
30
0
41
1
10
10.7999999999999
20
-1.78138597549682
30
0
41
1
10
10.7999999999999
20
-1.86453114431467
30
0
0
SPLINE
5
129
100
AcDbEntity
8
1
62
256
6
ByLayer
370
18
48
1
60
0
100
AcDbSpline
70
4
71
3
72
40
73
36
40
0
40
0
40
0
40
0
40
0.0624999999999968
40
0.0624999999999968
40
0.0937499999999952
40
0.0937499999999952
40
0.124999999999994
40
0.124999999999994
40
0.187499999999992
40
0.187499999999992
40
0.249999999999991
40
0.249999999999991
40
0.312499999999989
40
0.312499999999989
40
0.374999999999988
40
0.374999999999988
40
0.437499999999986
40
0.437499999999986
40
0.499999999999984
40
0.499999999999984
40
0.624999999999981
40
0.624999999999981
40
0.687499999999984
40
0.687499999999984
40
0.749999999999987
40
0.749999999999987
40
0.81249999999999
40
0.81249999999999
40
0.874999999999992
40
0.874999999999992
40
0.906249999999995
40
0.906249999999995
40
0.937499999999997
40
0.937499999999997
40
1
40
1
40
1
40
1
41
1
10
9.4822436078023
20
-0.44723604827621
30
0
41
1
10
9.46606029984898
20
-0.455524825650571
30
0
41
1
10
9.45157633089795
20
-0.466089690123596
30
0
41
1
10
9.43156173009754
20
-0.484242044647118
30
0
41
1
10
9.42518916604311
20
-0.490690740733015
30
0
41
1
10
9.41313039127726
20
-0.504088880526695
30
0
41
1
10
9.40741751652575
20
-0.51106230298268
30
0
41
1
10
9.39110712057663
20
-0.53270415501251
30
0
41
1
10
9.38144268578623
20
-0.547934687135808
30
0
41
1
10
9.36408957654461
20
-0.579599259763199
30
0
41
1
10
9.35643379770153
20
-0.595995572335994
30
0
41
1
10
9.34298652319541
20
-0.62948554508435
30
0
41
1
10
9.33716277998968
20
-0.646673238351241
30
0
41
1
10
9.32727563834777
20
-0.681459492959164
30
0
41
1
10
9.32320244643614
20
-0.699071006351261
30
0
41
1
10
9.31669058272485
20
-0.734708223985081
30
0
41
1
10
9.31425987780148
20
-0.752724538958233
30
0
41
1
10
9.31103329876106
20
-0.78879915208222
30
0
41
1
10
9.31022844120747
20
-0.806903461754814
30
0
41
1
10
9.31023500427389
20
-0.861413852963267
30
0
41
1
10
9.31342677589998
20
-0.897426847907752
30
0
41
1
10
9.3232038785647
20
-0.950938441712424
30
0
41
1
10
9.32728974424759
20
-0.968594791264621
30
0
41
1
10
9.3371696454646
20
-1.00334625180815
30
0
41
1
10
9.34298365779847
20
-1.02051053635341
30
0
41
1
10
9.35646083076131
20
-1.0540685291806
30
0
41
1
10
9.36412686574536
20
-1.07047608071761
30
0
41
1
10
9.38148348708762
20
-1.10213243280282
30
0
41
1
10
9.39119087518921
20
-1.11741640885904
30
0
41
1
10
9.40747070619707
20
-1.13900351561566
30
0
41
1
10
9.41317784265249
20
-1.14596723399706
30
0
41
1
10
9.42523965252113
20
-1.15936193286663
30
0
41
1
10
9.43161619168632
20
-1.16581001508979
30
0
41
1
10
9.45158807150565
20
-1.18391560286983
30
0
41
1
10
9.46605238076148
20
-1.19447111834603
30
0
41
1
10
9.4822436078023
20
-1.20276395172385
30
0
0
SPLINE
5
12A
100
AcDbEntity
8
1
62
256
6
ByLayer
370
18
48
1
60
0
100
AcDbSpline
70
4
71
3
72
8
73
4
40
0
40
0
40
0
40
0
40
1
40
1
40
1
40
1
41
1
10
9.4822436078023
20
-1.20276395172385
30
0
41
1
10
9.48899991689026
20
-1.20622440258245
30
0
41
1
10
9.49575627765438
20
-1.20968439430146
30
0
41
1
10
9.50251268699469
20
-1.21314394410842
30
0
0
SPLINE
5
12B
100
AcDbEntity
8
1
62
256
6
ByLayer
370
18
48
1
60
0
100
AcDbSpline
70
4
71
3
72
8
73
4
40
0
40
0
40
0
40
0
40
1
40
1
40
1
40
1
41
1
10
9.50251268699469
20
-0.436856055891639
30
0
41
1
10
9.49575627765438
20
-0.440315605698601
30
0
41
1
10
9.48899991689026
20
-0.443775597417613
30
0
41
1
10
9.4822436078023
20
-0.44723604827621
30
0
0
SPLINE
5
12C
100
AcDbEntity
8
1
62
256
6
ByLayer
370
18
48
1
60
0
100
AcDbSpline
70
4
71
3
72
31
73
27
40
0
40
0
40
0
40
0
40
0.249999999999939
40
0.249999999999939
40
0.374999999999908
40
0.374999999999908
40
0.499999999999878
40
0.499999999999878
40
0.562499999999862
40
0.562499999999862
40
0.624999999999846
40
0.624999999999846
40
0.687499999999829
40
0.687499999999829
40
0.749999999999813
40
0.749999999999813
40
0.781249999999822
40
0.781249999999822
40
0.812499999999832
40
0.843749999999839
40
0.843749999999839
40
0.874999999999847
40
0.874999999999847
40
0.937499999999924
40
0.937499999999924
40
1
40
1
40
1
40
1
41
1
10
9.55533388601287
20
-1.66320000000005
30
0
41
1
10
9.57503610546226
20
-1.62490034204944
30
0
41
1
10
9.59157983927759
20
-1.58464411795347
30
0
41
1
10
9.61028233177069
20
-1.52233075207184
30
0
41
1
10
9.61549530828935
20
-1.50120206392475
30
0
41
1
10
9.62335756111764
20
-1.45843616080322
30
0
41
1
10
9.62601926459939
20
-1.4367757503575
30
0
41
1
10
9.62741960835834
20
-1.40411178845113
30
0
41
1
10
9.6274500973438
20
-1.39317388340888
30
0
41
1
10
9.62645973944586
20
-1.37137788938586
30
0
41
1
10
9.62543363866268
20
-1.36045109862425
30
0
41
1
10
9.62211182811484
20
-1.33891795477115
30
0
41
1
10
9.619827134074
20
-1.32833656685852
30
0
41
1
10
9.61372508838127
20
-1.30763544377081
30
0
41
1
10
9.60991294021778
20
-1.29751407751473
30
0
41
1
10
9.60267965890876
20
-1.28279430977602
30
0
41
1
10
9.59999278091533
20
-1.27793388542162
30
0
41
1
10
9.59413159955446
20
-1.26858705925261
30
0
41
1
10
9.58779473433287
20
-1.25961597236463
30
0
41
1
10
9.58042628631864
20
-1.25146177673631
30
0
41
1
10
9.57248841703552
20
-1.24375947327019
30
0
41
1
10
9.568225672094
20
-1.24013694592736
30
0
41
1
10
9.5549374675291
20
-1.23032085487856
30
0
41
1
10
9.54529666122036
20
-1.22504738976886
30
0
41
1
10
9.52444479205923
20
-1.21705646686721
30
0
41
1
10
9.51362185014347
20
-1.21448733193643
30
0
41
1
10
9.50251268699469
20
-1.21314394410842
30
0
0
SPLINE
5
12D
100
AcDbEntity
8
1
62
256
6
ByLayer
370
18
48
1
60
0
100
AcDbSpline
70
4
71
3
72
32
73
28
40
0
40
0
40
0
40
0
40
0.12500000000002
40
0.12500000000002
40
0.25000000000004
40
0.25000000000004
40
0.37500000000006
40
0.37500000000006
40
0.50000000000008
40
0.50000000000008
40
0.562500000000087
40
0.562500000000087
40
0.625000000000095
40
0.625000000000095
40
0.687500000000102
40
0.687500000000102
40
0.75000000000011
40
0.75000000000011
40
0.812500000000117
40
0.812500000000117
40
0.843750000000097
40
0.843750000000097
40
0.875000000000076
40
0.875000000000076
40
0.937500000000038
40
0.937500000000038
40
1
40
1
40
1
40
1
41
1
10
9.55533388601287
20
0.013199999999955
30
0
41
1
10
9.56519181342225
20
-0.0059630820502719
30
0
41
1
10
9.57421490188824
20
-0.0255539657292729
30
0
41
1
10
9.59052354873396
20
-0.0656216765967201
30
0
41
1
10
9.59780065660752
20
-0.0860848282830773
30
0
41
1
10
9.61028438472539
20
-0.127673796535504
30
0
41
1
10
9.6154966640288
20
-0.148797777558911
30
0
41
1
10
9.62336838317111
20
-0.191630249206696
30
0
41
1
10
9.62602629287653
20
-0.213269733632842
30
0
41
1
10
9.62742214770094
20
-0.246007056118401
30
0
41
1
10
9.62744873442216
20
-0.256910558117056
30
0
41
1
10
9.62645410222643
20
-0.27869134411651
30
0
41
1
10
9.62542804643681
20
-0.289609967045521
30
0
41
1
10
9.62208838659177
20
-0.311208969633213
30
0
41
1
10
9.6197883323122
20
-0.321839455948719
30
0
41
1
10
9.61362070533917
20
-0.342673241944681
30
0
41
1
10
9.60974309833981
20
-0.352910296276235
30
0
41
1
10
9.59995429124265
20
-0.372669080150302
30
0
41
1
10
9.59415599458291
20
-0.381968581138551
30
0
41
1
10
9.58378408810762
20
-0.394837092752823
30
0
41
1
10
9.58003158997349
20
-0.398951692721141
30
0
41
1
10
9.57211933172712
20
-0.406565075120057
30
0
41
1
10
9.56793897943373
20
-0.410092919782869
30
0
41
1
10
9.55470478143531
20
-0.419813158656126
30
0
41
1
10
9.54479358472173
20
-0.425178631183542
30
0
41
1
10
9.52426976375898
20
-0.432976260543
30
0
41
1
10
9.51358055408576
20
-0.435517661835007
30
0
41
1
10
9.50251268699469
20
-0.436856055891639
30
0
0
SPLINE
5
12E
100
AcDbEntity
8
1
62
256
6
ByLayer
370
18
48
1
60
0
100
AcDbSpline
70
4
71
3
72
42
73
38
40
0
40
0
40
0
40
0
40
0.0625000000000329
40
0.0625000000000329
40
0.0937500000000513
40
0.0937500000000513
40
0.12500000000007
40
0.12500000000007
40
0.187500000000096
40
0.187500000000096
40
0.250000000000121
40
0.250000000000121
40
0.312500000000147
40
0.312500000000147
40
0.375000000000173
40
0.375000000000173
40
0.437500000000199
40
0.437500000000199
40
0.500000000000224
40
0.500000000000224
40
0.56250000000025
40
0.56250000000025
40
0.625000000000276
40
0.625000000000276
40
0.750000000000329
40
0.750000000000329
40
0.781250000000317
40
0.781250000000317
40
0.812500000000305
40
0.812500000000305
40
0.875000000000235
40
0.875000000000235
40
0.906250000000176
40
0.906250000000176
40
0.937500000000118
40
0.937500000000118
40
1
40
1
40
1
40
1
41
1
10
8.55443184942123
20
-2.25083350996675
30
0
41
1
10
8.55072438193525
20
-2.23484653166747
30
0
41
1
10
8.54975897048143
20
-2.2191197835651
30
0
41
1
10
8.55109616078937
20
-2.19575658685508
30
0
41
1
10
8.55202483669768
20
-2.18801119303441
30
0
41
1
10
8.55468382328306
20
-2.17279980101611
30
0
41
1
10
8.55641577295708
20
-2.16530277394955
30
0
41
1
10
8.5626725536668
20
-2.14308458059116
30
0
41
1
10
8.56820233840799
20
-2.12878975753449
30
0
41
1
10
8.58142562053393
20
-2.10104530971185
30
0
41
1
10
8.58911002480016
20
-2.08763979616032
30
0
41
1
10
8.60620732165279
20
-2.06179651464547
30
0
41
1
10
8.61567145487086
20
-2.04929075690759
30
0
41
1
10
8.63605756219562
20
-2.02528317408908
30
0
41
1
10
8.64698380303258
20
-2.01376743862562
30
0
41
1
10
8.67022961602703
20
-1.99162564270131
30
0
41
1
10
8.68254580756721
20
-1.98101083809405
30
0
41
1
10
8.70829225056443
20
-1.96084148687018
30
0
41
1
10
8.72175361623016
20
-1.95125712436231
30
0
41
1
10
8.74984251610863
20
-1.93308974058996
30
0
41
1
10
8.76437306965119
20
-1.92456920227616
30
0
41
1
10
8.79440707079351
20
-1.9086634186836
30
0
41
1
10
8.80996925040728
20
-1.90125551369653
30
0
41
1
10
8.8575844031426
20
-1.88108825932093
30
0
41
1
10
8.89059957384731
20
-1.87026753279207
30
0
41
1
10
8.93366708453516
20
-1.86072458160194
30
0
41
1
10
8.94237242643129
20
-1.85902004560035
30
0
41
1
10
8.95998205327572
20
-1.8560623968404
30
0
41
1
10
8.96890498666698
20
-1.85480853403959
30
0
41
1
10
8.99565322316084
20
-1.85184652308592
30
0
41
1
10
9.01355394690358
20
-1.85090417376119
30
0
41
1
10
9.04052109599735
20
-1.8514342047433
30
0
41
1
10
9.04952962954303
20
-1.8519374925778
30
0
41
1
10
9.0675907131091
20
-1.85371877639491
30
0
41
1
10
9.07668221770587
20
-1.85500675723648
30
0
41
1
10
9.1034668710989
20
-1.86018702842659
30
0
41
1
10
9.12082346140409
20
-1.86533916442622
30
0
41
1
10
9.13742308290855
20
-1.87306955824295
30
0
0
SPLINE
5
12F
100
AcDbEntity
8
1
62
256
6
ByLayer
370
18
48
1
60
0
100
AcDbSpline
70
4
71
3
72
8
73
4
40
0
40
0
40
0
40
0
40
1
40
1
40
1
40
1
41
1
10
8.55907276614795
20
-2.27083350996676
30
0
41
1
10
8.55752507030553
20
-2.26416770583361
30
0
41
1
10
8.55597808838397
20
-2.25750105023153
30
0
41
1
10
8.55443184942123
20
-2.25083350996675
30
0
0
SPLINE
5
130
100
AcDbEntity
8
1
62
256
6
ByLayer
370
18
48
1
60
0
100
AcDbSpline
70
4
71
3
72
32
73
28
40
0
40
0
40
0
40
0
40
0.125000000000045
40
0.125000000000045
40
0.25000000000009
40
0.25000000000009
40
0.375000000000135
40
0.375000000000135
40
0.50000000000018
40
0.50000000000018
40
0.562500000000177
40
0.562500000000177
40
0.625000000000173
40
0.625000000000173
40
0.687500000000169
40
0.687500000000169
40
0.750000000000165
40
0.750000000000165
40
0.812500000000162
40
0.812500000000162
40
0.84375000000016
40
0.84375000000016
40
0.875000000000158
40
0.875000000000158
40
0.937500000000079
40
0.937500000000079
40
1
40
1
40
1
40
1
41
1
10
9.55533388601287
20
-1.66320000000005
30
0
41
1
10
9.5454759586035
20
-1.6823630820503
30
0
41
1
10
9.53480911529516
20
-1.70104796999019
30
0
41
1
10
9.51179173716673
20
-1.73742714415195
30
0
41
1
10
9.49944752646451
20
-1.75510638509928
30
0
41
1
10
9.47305646325347
20
-1.78908713703115
30
0
41
1
10
9.45901448273628
20
-1.8053920135595
30
0
41
1
10
9.42899650796215
20
-1.83621430555794
30
0
41
1
10
9.41307570062162
20
-1.850690473475
30
0
41
1
10
9.38745893837654
20
-1.87046368142862
30
0
41
1
10
9.37867125856482
20
-1.87669446189807
30
0
41
1
10
9.36049986642706
20
-1.88830402728357
30
0
41
1
10
9.35107996357064
20
-1.89370242246375
30
0
41
1
10
9.33166696031606
20
-1.90334881110186
30
0
41
1
10
9.32172219068647
20
-1.9075790862243
30
0
41
1
10
9.3012369141953
20
-1.91457775233408
30
0
41
1
10
9.29066326648012
20
-1.91735730609045
30
0
41
1
10
9.2688626411921
20
-1.9209486087008
30
0
41
1
10
9.25788249681941
20
-1.92172223655319
30
0
41
1
10
9.24126144812624
20
-1.92100159538796
30
0
41
1
10
9.2356819594799
20
-1.92043852989897
30
0
41
1
10
9.22476810411177
20
-1.91866003038552
30
0
41
1
10
9.21939792149186
20
-1.91744512790896
30
0
41
1
10
9.20355508256125
20
-1.91279589414114
30
0
41
1
10
9.19322072174162
20
-1.90825302134979
30
0
41
1
10
9.1744649752174
20
-1.89701838600229
30
0
41
1
10
9.16590960873975
20
-1.89032895130097
30
0
41
1
10
9.15808311563683
20
-1.88268956585836
30
0
0
SPLINE
5
131
100
AcDbEntity
8
1
62
256
6
ByLayer
370
18
48
1
60
0
100
AcDbSpline
70
4
71
3
72
8
73
4
40
0
40
0
40
0
40
0
40
1
40
1
40
1
40
1
41
1
10
9.15808311563683
20
-1.88268956585836
30
0
41
1
10
9.15119640531177
20
-1.87948331153217
30
0
41
1
10
9.14430972691861
20
-1.87627664764909
30
0
41
1
10
9.13742308290855
20
-1.87306955824295
30
0
0
SPLINE
5
132
100
AcDbEntity
8
1
62
256
6
ByLayer
370
18
48
1
60
0
100
AcDbSpline
70
4
71
3
72
40
73
36
40
0
40
0
40
0
40
0
40
0.0625000000000037
40
0.0625000000000037
40
0.0937500000000056
40
0.0937500000000056
40
0.125000000000007
40
0.125000000000007
40
0.187500000000011
40
0.187500000000011
40
0.250000000000015
40
0.250000000000015
40
0.312500000000019
40
0.312500000000019
40
0.375000000000023
40
0.375000000000023
40
0.437500000000027
40
0.437500000000027
40
0.500000000000031
40
0.500000000000031
40
0.625000000000042
40
0.625000000000042
40
0.687500000000027
40
0.687500000000027
40
0.750000000000012
40
0.750000000000012
40
0.812499999999997
40
0.812499999999997
40
0.874999999999982
40
0.874999999999982
40
0.906249999999974
40
0.906249999999974
40
0.937499999999967
40
0.937499999999967
40
1
40
1
40
1
40
1
41
1
10
8.55443184942123
20
0.600833509966691
30
0
41
1
10
8.55072816136047
20
0.584862828934831
30
0
41
1
10
8.54976108154506
20
0.569151860282631
30
0
41
1
10
8.55109102483254
20
0.545811999181382
30
0
41
1
10
8.55201647747515
20
0.538073890378172
30
0
41
1
10
8.55466780985472
20
0.52287666945449
30
0
41
1
10
8.55639530032079
20
0.515386572021612
30
0
41
1
10
8.56263701352501
20
0.493188791219268
30
0
41
1
10
8.56815519544767
20
0.478905438960083
30
0
41
1
10
8.5813515060641
20
0.451184198016676
30
0
41
1
10
8.58902147213601
20
0.437788395564468
30
0
41
1
10
8.60608681361865
20
0.411964098742857
30
0
41
1
10
8.615533546807
20
0.399467114903217
30
0
41
1
10
8.63588385848041
20
0.375473995834511
30
0
41
1
10
8.64679101434308
20
0.363964820706599
30
0
41
1
10
8.66999601610985
20
0.341834648930359
30
0
41
1
10
8.68229182502074
20
0.331223709796063
30
0
41
1
10
8.70799524368306
20
0.311060546289156
30
0
41
1
10
8.72143241154151
20
0.301479411527026
30
0
41
1
10
8.76349884056367
20
0.274228532961189
30
0
41
1
10
8.79340314131844
20
0.258314346237029
30
0
41
1
10
8.8411415082968
20
0.238032048834555
30
0
41
1
10
8.857456572779
20
0.231915740071514
30
0
41
1
10
8.89075916866051
20
0.221135213914835
30
0
41
1
10
8.90781325114364
20
0.216449633110471
30
0
41
1
10
8.94250389614336
20
0.208770204689472
30
0
41
1
10
8.96015311216493
20
0.205771190383473
30
0
41
1
10
8.9958195230721
20
0.20183466526592
30
0
41
1
10
9.01387488568093
20
0.200890796077175
30
0
41
1
10
9.04097029802051
20
0.2014532123614
30
0
41
1
10
9.04999346625493
20
0.201970810130945
30
0
41
1
10
9.06801821462989
20
0.203773997406728
30
0
41
1
10
9.07704679061868
20
0.205066716119944
30
0
41
1
10
9.10366748841659
20
0.210247493321674
30
0
41
1
10
9.12091951339085
20
0.215383895547546
30
0
41
1
10
9.13742308290855
20
0.223069558242884
30
0
0
SPLINE
5
133
100
AcDbEntity
8
1
62
256
6
ByLayer
370
18
48
1
60
0
100
AcDbSpline
70
4
71
3
72
8
73
4
40
0
40
0
40
0
40
0
40
1
40
1
40
1
40
1
41
1
10
9.13742308290855
20
0.223069558242884
30
0
41
1
10
9.14430972691864
20
0.22627664764903
30
0
41
1
10
9.15119640531179
20
0.229483311532107
30
0
41
1
10
9.15808311563686
20
0.232689565858294
30
0
0
SPLINE
5
134
100
AcDbEntity
8
1
62
256
6
ByLayer
370
18
48
1
60
0
100
AcDbSpline
70
4
71
3
72
31
73
27
40
0
40
0
40
0
40
0
40
0.25000000000002
40
0.25000000000002
40
0.375000000000005
40
0.375000000000005
40
0.49999999999999
40
0.49999999999999
40
0.562499999999953
40
0.562499999999953
40
0.624999999999917
40
0.624999999999917
40
0.68749999999988
40
0.68749999999988
40
0.749999999999843
40
0.749999999999843
40
0.781249999999863
40
0.781249999999863
40
0.812499999999883
40
0.843749999999903
40
0.843749999999903
40
0.874999999999923
40
0.874999999999923
40
0.937499999999961
40
0.937499999999961
40
1
40
1
40
1
40
1
41
1
10
9.55533388601287
20
0.013199999999955
30
0
41
1
10
9.53563166656352
20
0.0514996579505578
30
0
41
1
10
9.5126022466568
20
0.0881707188985956
30
0
41
1
10
9.4730589609494
20
0.13908283951011
30
0
41
1
10
9.45901357751507
20
0.155390979268873
30
0
41
1
10
9.42904384251443
20
0.18616766342592
30
0
41
1
10
9.41310832128588
20
0.200658882854526
30
0
41
1
10
9.38755340906192
20
0.220393945675767
30
0
41
1
10
9.37874023798082
20
0.226647461958038
30
0
41
1
10
9.36055908552478
20
0.238269101576037
30
0
41
1
10
9.35113255961068
20
0.243672116193949
30
0
41
1
10
9.3317833082836
20
0.253295132246848
30
0
41
1
10
9.32188728753914
20
0.257509600712069
30
0
41
1
10
9.30154823280566
20
0.264484170604277
30
0
41
1
10
9.29110708511428
20
0.267249089323627
30
0
41
1
10
9.27490191962832
20
0.269970001099807
30
0
41
1
10
9.26937070432172
20
0.27063875818979
30
0
41
1
10
9.25831322532497
20
0.271393150443117
30
0
41
1
10
9.24726917422493
20
0.271572484883052
30
0
41
1
10
9.23625335865898
20
0.270508502111426
30
0
41
1
10
9.22525270701638
20
0.268760021109245
30
0
41
1
10
9.21975655635708
20
0.26753514329161
30
0
41
1
10
9.20380413343551
20
0.26289809575249
30
0
41
1
10
9.19370830886487
20
0.258509152502654
30
0
41
1
10
9.1745979664191
20
0.247132830423823
30
0
41
1
10
9.16593881069065
20
0.240357455121881
30
0
41
1
10
9.15808311563686
20
0.232689565858294
30
0
0
SPLINE
5
135
100
AcDbEntity
8
1
62
256
6
ByLayer
370
18
48
1
60
0
100
AcDbSpline
70
4
71
3
72
8
73
4
40
0
40
0
40
0
40
0
40
1
40
1
40
1
40
1
41
1
10
8.55907276614795
20
0.620833509966701
30
0
41
1
10
8.55752507030553
20
0.614167705833552
30
0
41
1
10
8.55597808838397
20
0.607501050231463
30
0
41
1
10
8.55443184942123
20
0.600833509966691
30
0
0
SPLINE
5
136
100
AcDbEntity
8
1
62
256
6
ByLayer
370
18
48
1
60
0
100
AcDbSpline
70
4
71
3
72
32
73
28
40
0
40
0
40
0
40
0
40
0.12500000000002
40
0.12500000000002
40
0.250000000000039
40
0.250000000000039
40
0.375000000000059
40
0.375000000000059
40
0.500000000000078
40
0.500000000000078
40
0.562500000000059
40
0.562500000000059
40
0.625000000000039
40
0.625000000000039
40
0.68750000000002
40
0.68750000000002
40
0.75
40
0.75
40
0.812499999999981
40
0.812499999999981
40
0.843749999999984
40
0.843749999999984
40
0.874999999999987
40
0.874999999999987
40
0.937499999999994
40
0.937499999999994
40
1
40
1
40
1
40
1
41
1
10
8.26176617083198
20
-2.50140000000005
30
0
41
1
10
8.28148202565069
20
-2.50140000000005
30
0
41
1
10
8.30104917737813
20
-2.50049400426096
30
0
41
1
10
8.3398670380941
20
-2.49680546755525
30
0
41
1
10
8.35910296622785
20
-2.49402155681619
30
0
41
1
10
8.39689485056994
20
-2.48641334049566
30
0
41
1
10
8.4154528460345
20
-2.4815942360006
30
0
41
1
10
8.45153687852005
20
-2.4695840563513
30
0
41
1
10
8.46901160736039
20
-2.46242073984217
30
0
41
1
10
8.49391732596558
20
-2.44945662531023
30
0
41
1
10
8.5019566780889
20
-2.44478390378106
30
0
41
1
10
8.51739888840899
20
-2.43461268316707
30
0
41
1
10
8.52482935314407
20
-2.42909245541827
30
0
41
1
10
8.53874941172137
20
-2.4171398414687
30
0
41
1
10
8.54521033750393
20
-2.41073963027557
30
0
41
1
10
8.55687718812962
20
-2.39690451038942
30
0
41
1
10
8.56210206461142
20
-2.38944700981423
30
0
41
1
10
8.57079454945301
20
-2.37327952855054
30
0
41
1
10
8.57416603267006
20
-2.36475365541466
30
0
41
1
10
8.57740455349085
20
-2.35116450263519
30
0
41
1
10
8.57817499765292
20
-2.34648683717785
30
0
41
1
10
8.57901063605061
20
-2.33709495526546
30
0
41
1
10
8.57908486521779
20
-2.33235220812614
30
0
41
1
10
8.578242965431
20
-2.31798273548506
30
0
41
1
10
8.57618896972485
20
-2.3080743901663
30
0
41
1
10
8.56946705950975
20
-2.28904212545933
30
0
41
1
10
8.56483375776935
20
-2.27981128946598
30
0
41
1
10
8.55907276614795
20
-2.27083350996676
30
0
0
SPLINE
5
137
100
AcDbEntity
8
1
62
256
6
ByLayer
370
18
48
1
60
0
100
AcDbSpline
70
4
71
3
72
32
73
28
40
0
40
0
40
0
40
0
40
0.12499999999997
40
0.12499999999997
40
0.24999999999994
40
0.24999999999994
40
0.374999999999909
40
0.374999999999909
40
0.499999999999879
40
0.499999999999879
40
0.562499999999888
40
0.562499999999888
40
0.624999999999897
40
0.624999999999897
40
0.687499999999906
40
0.687499999999906
40
0.749999999999915
40
0.749999999999915
40
0.812499999999923
40
0.812499999999923
40
0.843749999999941
40
0.843749999999941
40
0.874999999999958
40
0.874999999999958
40
0.937499999999979
40
0.937499999999979
40
1
40
1
40
1
40
1
41
1
10
8.261766170832
20
0.851399999999956
30
0
41
1
10
8.28148202565069
20
0.851399999999956
30
0
41
1
10
8.3010491773781
20
0.850494004260895
30
0
41
1
10
8.33986703809407
20
0.846805467555185
30
0
41
1
10
8.35910296622791
20
0.844021556816131
30
0
41
1
10
8.39689485056994
20
0.836413340495596
30
0
41
1
10
8.4154528460345
20
0.831594236000541
30
0
41
1
10
8.45153687852002
20
0.819584056351232
30
0
41
1
10
8.46901160736039
20
0.812420739842082
30
0
41
1
10
8.49391732596564
20
0.799456625310171
30
0
41
1
10
8.50195667808887
20
0.794783903780996
30
0
41
1
10
8.51739888840891
20
0.784612683167012
30
0
41
1
10
8.52482935314407
20
0.779092455418208
30
0
41
1
10
8.53874941172137
20
0.767139841468634
30
0
41
1
10
8.54521033750393
20
0.760739630275509
30
0
41
1
10
8.55687718812965
20
0.746904510389356
30
0
41
1
10
8.56210206461148
20
0.739447009814171
30
0
41
1
10
8.57079454945301
20
0.723279528550478
30
0
41
1
10
8.57416603267006
20
0.714753655414597
30
0
41
1
10
8.57740455349088
20
0.701164502635123
30
0
41
1
10
8.57817499765292
20
0.696486837177787
30
0
41
1
10
8.57901063605067
20
0.687094955265394
30
0
41
1
10
8.57908486521779
20
0.682352208126076
30
0
41
1
10
8.578242965431
20
0.667982735484998
30
0
41
1
10
8.57618896972488
20
0.658074390166206
30
0
41
1
10
8.56946705950975
20
0.63904212545927
30
0
41
1
10
8.56483375776932
20
0.62981128946592
30
0
41
1
10
8.55907276614795
20
0.620833509966701
30
0
0
SPLINE
5
138
100
AcDbEntity
8
1
62
256
6
ByLayer
370
18
48
1
60
0
100
AcDbSpline
70
4
71
3
72
40
73
36
40
0
40
0
40
0
40
0
40
0.0624999999999831
40
0.0624999999999831
40
0.0937499999999888
40
0.0937499999999888
40
0.124999999999994
40
0.124999999999994
40
0.187499999999983
40
0.187499999999983
40
0.249999999999972
40
0.249999999999972
40
0.312499999999961
40
0.312499999999961
40
0.37499999999995
40
0.37499999999995
40
0.437499999999939
40
0.437499999999939
40
0.499999999999928
40
0.499999999999928
40
0.624999999999946
40
0.624999999999946
40
0.687499999999954
40
0.687499999999954
40
0.749999999999963
40
0.749999999999963
40
0.812499999999972
40
0.812499999999972
40
0.874999999999981
40
0.874999999999981
40
0.906249999999985
40
0.906249999999985
40
0.937499999999988
40
0.937499999999988
40
1
40
1
40
1
40
1
41
1
10
7.28179956614639
20
0.223069558242884
30
0
41
1
10
7.2902633082673
20
0.215387654585385
30
0
41
1
10
7.30002558343784
20
0.210241550406209
30
0
41
1
10
7.31603065669782
20
0.205054043828454
30
0
41
1
10
7.32160007274888
20
0.20376463111117
30
0
41
1
10
7.33299469138242
20
0.201965549981139
30
0
41
1
10
7.33884104858356
20
0.201448875004246
30
0
41
1
10
7.35678779006531
20
0.200892946231733
30
0
41
1
10
7.36916640388745
20
0.201840126095874
30
0
41
1
10
7.39459461450878
20
0.205783457779859
30
0
41
1
10
7.40761215655704
20
0.208783967900416
30
0
41
1
10
7.43401870767212
20
0.216449643827161
30
0
41
1
10
7.44748116684303
20
0.221140353254441
30
0
41
1
10
7.47462185175061
20
0.231933488793629
30
0
41
1
10
7.48831040807781
20
0.238035827057843
30
0
41
1
10
7.51595134291244
20
0.251542872915422
30
0
41
1
10
7.52989616685073
20
0.25894824875428
30
0
41
1
10
7.55778676431765
20
0.274859698371358
30
0
41
1
10
7.57176817090522
20
0.283382873281795
30
0
41
1
10
7.61383015836088
20
0.310642385924439
30
0
41
1
10
7.64158179417183
20
0.330741194144764
30
0
41
1
10
7.6826599289405
20
0.363970490546961
30
0
41
1
10
7.69618490170046
20
0.375510531336118
30
0
41
1
10
7.72270205010062
20
0.399481465722943
30
0
41
1
10
7.73574717202095
20
0.411960169463839
30
0
41
1
10
7.7610757654997
20
0.437838733870052
30
0
41
1
10
7.77337008500251
20
0.451247271101039
30
0
41
1
10
7.79680182183279
20
0.478967098068693
30
0
41
1
10
7.80796585358729
20
0.493307204936201
30
0
41
1
10
7.82337772522067
20
0.515456727977011
30
0
41
1
10
7.8282860693065
20
0.522938044127983
30
0
41
1
10
7.83756507692706
20
0.538135930273313
30
0
41
1
10
7.84194660393257
20
0.545876731209717
30
0
41
1
10
7.8539231531295
20
0.569163096191488
30
0
41
1
10
7.86046061426845
20
0.584855013893531
30
0
41
1
10
7.86479079963371
20
0.600833509966691
30
0
0
SPLINE
5
139
100
AcDbEntity
8
1
62
256
6
ByLayer
370
18
48
1
60
0
100
AcDbSpline
70
4
71
3
72
8
73
4
40
0
40
0
40
0
40
0
40
1
40
1
40
1
40
1
41
1
10
7.86479079963371
20
0.600833509966691
30
0
41
1
10
7.86659770844068
20
0.607501050231463
30
0
41
1
10
7.86840532562027
20
0.614167705833552
30
0
41
1
10
7.87021362343228
20
0.620833509966701
30
0
0
SPLINE
5
13A
100
AcDbEntity
8
1
62
256
6
ByLayer
370
18
48
1
60
0
100
AcDbSpline
70
4
71
3
72
31
73
27
40
0
40
0
40
0
40
0
40
0.249999999999927
40
0.249999999999927
40
0.37499999999989
40
0.37499999999989
40
0.499999999999854
40
0.499999999999854
40
0.562499999999837
40
0.562499999999837
40
0.62499999999982
40
0.62499999999982
40
0.687499999999804
40
0.687499999999804
40
0.749999999999787
40
0.749999999999787
40
0.781249999999808
40
0.781249999999808
40
0.812499999999828
40
0.843749999999849
40
0.843749999999849
40
0.874999999999869
40
0.874999999999869
40
0.937499999999935
40
0.937499999999935
40
1
40
1
40
1
40
1
41
1
10
8.261766170832
20
0.851399999999956
30
0
41
1
10
8.22236173193329
20
0.851399999999956
30
0
41
1
10
8.18231216996742
20
0.847814836851995
30
0
41
1
10
8.12244358690054
20
0.836413591581902
30
0
41
1
10
8.10248872389806
20
0.831593043193578
30
0
41
1
10
8.06285428738494
20
0.819603824229091
30
0
41
1
10
8.04315214738494
20
0.812434633212007
30
0
41
1
10
8.0140959889695
20
0.799505734126853
30
0
41
1
10
8.00447562282596
20
0.79482134536687
30
0
41
1
10
7.98554995377637
20
0.784646990961846
30
0
41
1
10
7.97618555035135
20
0.779123214818128
30
0
41
1
10
7.9580128415827
20
0.767213087017979
30
0
41
1
10
7.94922409082116
20
0.760846167570548
30
0
41
1
10
7.93235841062614
20
0.747119614375066
30
0
41
1
10
7.92427925030512
20
0.739763166838316
30
0
41
1
10
7.91284687137076
20
0.727764310875784
30
0
41
1
10
7.90912792157957
20
0.723572643611391
30
0
41
1
10
7.90210251036484
20
0.714980209695682
30
0
41
1
10
7.89548901647964
20
0.706188394383474
30
0
41
1
10
7.88976244709465
20
0.696970278847715
30
0
41
1
10
7.88452295358701
20
0.687519494379387
30
0
41
1
10
7.88215052408333
20
0.682672089218926
30
0
41
1
10
7.87601852924203
20
0.668218950631029
30
0
41
1
10
7.87315104110527
20
0.658556542271469
30
0
41
1
10
7.86985589224798
20
0.639189297290983
30
0
41
1
10
7.86948917408409
20
0.629844787058289
30
0
41
1
10
7.87021362343228
20
0.620833509966701
30
0
0
SPLINE
5
13B
100
AcDbEntity
8
1
62
256
6
ByLayer
370
18
48
1
60
0
100
AcDbSpline
70
4
71
3
72
8
73
4
40
0
40
0
40
0
40
0
40
1
40
1
40
1
40
1
41
1
10
7.2712032739434
20
0.232689565858294
30
0
41
1
10
7.27473399061404
20
0.229483311532107
30
0
41
1
10
7.27826606990604
20
0.22627664764903
30
0
41
1
10
7.28179956614639
20
0.223069558242884
30
0
0
SPLINE
5
13C
100
AcDbEntity
8
1
62
256
6
ByLayer
370
18
48
1
60
0
100
AcDbSpline
70
4
71
3
72
8
73
4
40
0
40
0
40
0
40
0
40
1
40
1
40
1
40
1
41
1
10
7.28179956614639
20
-1.87306955824295
30
0
41
1
10
7.27826606990604
20
-1.87627664764909
30
0
41
1
10
7.27473399061401
20
-1.87948331153217
30
0
41
1
10
7.27120327394337
20
-1.88268956585836
30
0
0
SPLINE
5
13D
100
AcDbEntity
8
1
62
256
6
ByLayer
370
18
48
1
60
0
100
AcDbSpline
70
4
71
3
72
31
73
27
40
0
40
0
40
0
40
0
40
0.249999999999809
40
0.249999999999809
40
0.374999999999744
40
0.374999999999744
40
0.49999999999968
40
0.49999999999968
40
0.562499999999686
40
0.562499999999686
40
0.624999999999691
40
0.624999999999691
40
0.687499999999697
40
0.687499999999697
40
0.749999999999702
40
0.749999999999702
40
0.781249999999733
40
0.781249999999733
40
0.812499999999763
40
0.843749999999794
40
0.843749999999794
40
0.874999999999824
40
0.874999999999824
40
0.937499999999912
40
0.937499999999912
40
1
40
1
40
1
40
1
41
1
10
8.26176617083198
20
-2.50140000000005
30
0
41
1
10
8.22236173193329
20
-2.50140000000005
30
0
41
1
10
8.18231216996742
20
-2.49781483685206
30
0
41
1
10
8.12244358690049
20
-2.48641359158197
30
0
41
1
10
8.10248872389803
20
-2.48159304319364
30
0
41
1
10
8.06285428738494
20
-2.46960382422913
30
0
41
1
10
8.04315214738486
20
-2.46243463321207
30
0
41
1
10
8.01409598896947
20
-2.44950573412692
30
0
41
1
10
8.00447562282591
20
-2.44482134536693
30
0
41
1
10
7.98554995377631
20
-2.43464699096191
30
0
41
1
10
7.97618555035132
20
-2.42912321481819
30
0
41
1
10
7.95801284158267
20
-2.41721308701801
30
0
41
1
10
7.94922409082119
20
-2.41084616757061
30
0
41
1
10
7.93235841062614
20
-2.39711961437513
30
0
41
1
10
7.92427925030515
20
-2.38976316683835
30
0
41
1
10
7.91284687137073
20
-2.37776431087585
30
0
41
1
10
7.90912792157957
20
-2.37357264361142
30
0
41
1
10
7.9021025103649
20
-2.36498020969572
30
0
41
1
10
7.89548888393867
20
-2.3561884572477
30
0
41
1
10
7.8897624470946
20
-2.34697027884775
30
0
41
1
10
7.88452295358701
20
-2.33751949437942
30
0
41
1
10
7.88215052408327
20
-2.33267208921896
30
0
41
1
10
7.87601852924206
20
-2.31821895063106
30
0
41
1
10
7.87315104110525
20
-2.3085565422715
30
0
41
1
10
7.86985589224795
20
-2.28918929729102
30
0
41
1
10
7.86948917408409
20
-2.27984478705835
30
0
41
1
10
7.87021362343228
20
-2.27083350996676
30
0
0
SPLINE
5
13E
100
AcDbEntity
8
1
62
256
6
ByLayer
370
18
48
1
60
0
100
AcDbSpline
70
4
71
3
72
8
73
4
40
0
40
0
40
0
40
0
40
1
40
1
40
1
40
1
41
1
10
7.86479079963371
20
-2.25083350996675
30
0
41
1
10
7.86659770844068
20
-2.25750105023153
30
0
41
1
10
7.8684053256203
20
-2.26416770583361
30
0
41
1
10
7.87021362343228
20
-2.27083350996676
30
0
0
SPLINE
5
13F
100
AcDbEntity
8
1
62
256
6
ByLayer
370
18
48
1
60
0
100
AcDbSpline
70
4
71
3
72
40
73
36
40
0
40
0
40
0
40
0
40
0.0312499999999988
40
0.0312499999999988
40
0.0624999999999978
40
0.0624999999999978
40
0.124999999999986
40
0.124999999999986
40
0.15624999999998
40
0.15624999999998
40
0.187499999999975
40
0.187499999999975
40
0.249999999999971
40
0.249999999999971
40
0.312499999999968
40
0.312499999999968
40
0.374999999999964
40
0.374999999999964
40
0.499999999999964
40
0.499999999999964
40
0.624999999999963
40
0.624999999999963
40
0.687499999999964
40
0.687499999999964
40
0.749999999999964
40
0.749999999999964
40
0.812499999999965
40
0.812499999999965
40
0.874999999999966
40
0.874999999999966
40
0.90624999999998
40
0.90624999999998
40
0.937499999999993
40
0.937499999999993
40
1
40
1
40
1
40
1
41
1
10
7.28179956614639
20
-1.87306955824295
30
0
41
1
10
7.28605022850405
20
-1.86921155096366
30
0
41
1
10
7.29065810880851
20
-1.86598808051144
30
0
41
1
10
7.30046642117043
20
-1.86057410081469
30
0
41
1
10
7.30566301569067
20
-1.85839458832453
30
0
41
1
10
7.32171416760946
20
-1.85325329894567
30
0
41
1
10
7.33312525294048
20
-1.8516049265057
30
0
41
1
10
7.35109664003573
20
-1.85108011744725
30
0
41
1
10
7.35723821407851
20
-1.85123955606929
30
0
41
1
10
7.36961586260651
20
-1.85213631705508
30
0
41
1
10
7.37587475800308
20
-1.85287239919168
30
0
41
1
10
7.39485391066734
20
-1.85584037322678
30
0
41
1
10
7.40777553465841
20
-1.85882552576285
30
0
41
1
10
7.43415441501904
20
-1.86649497576218
30
0
41
1
10
7.44767602405432
20
-1.87121248554468
30
0
41
1
10
7.47475871933548
20
-1.88199334074969
30
0
41
1
10
7.48836434150525
20
-1.8880645056401
30
0
41
1
10
7.52941771201915
20
-1.90811873581933
30
0
41
1
10
7.55710551280572
20
-1.92391212278224
30
0
41
1
10
7.61324961898663
20
-1.9602350177006
30
0
41
1
10
7.6412455528536
20
-1.98048611561839
30
0
41
1
10
7.68239765552619
20
-2.01375000357109
30
0
41
1
10
7.69593615042433
20
-2.02529372467285
30
0
41
1
10
7.72248975665204
20
-2.04928163658494
30
0
41
1
10
7.73555258607044
20
-2.06176932794199
30
0
41
1
10
7.76091803357028
20
-2.08766971744066
30
0
41
1
10
7.77323009410998
20
-2.10108965734017
30
0
41
1
10
7.7966973556583
20
-2.12883560114852
30
0
41
1
10
7.80787820861374
20
-2.14318924578717
30
0
41
1
10
7.82331435259255
20
-2.16536169119095
30
0
41
1
10
7.82823040710443
20
-2.17285080097489
30
0
41
1
10
7.83752393137723
20
-2.18806465478465
30
0
41
1
10
7.84191246627211
20
-2.1958139611657
30
0
41
1
10
7.85390812637598
20
-2.21912670698029
30
0
41
1
10
7.86045559564474
20
-2.23483649504215
30
0
41
1
10
7.86479079963371
20
-2.25083350996675
30
0
0
SPLINE
5
140
100
AcDbEntity
8
1
62
256
6
ByLayer
370
18
48
1
60
0
100
AcDbSpline
70
4
71
3
72
31
73
27
40
0
40
0
40
0
40
0
40
0.249999999999978
40
0.249999999999978
40
0.374999999999963
40
0.374999999999963
40
0.499999999999949
40
0.499999999999949
40
0.562499999999943
40
0.562499999999943
40
0.624999999999937
40
0.624999999999937
40
0.687499999999931
40
0.687499999999931
40
0.749999999999925
40
0.749999999999925
40
0.781249999999949
40
0.781249999999949
40
0.812499999999973
40
0.843749999999997
40
0.843749999999997
40
0.875000000000021
40
0.875000000000021
40
0.93750000000001
40
0.93750000000001
40
1
40
1
40
1
40
1
41
1
10
6.96819845565111
20
-1.66320000000002
30
0
41
1
10
6.98790067510049
20
-1.70149965795062
30
0
41
1
10
7.00997727851959
20
-1.73817071889863
30
0
41
1
10
7.04627495449427
20
-1.78908283951017
30
0
41
1
10
7.05892733182969
20
-1.80539097926894
30
0
41
1
10
7.08529216946192
20
-1.83616766342598
30
0
41
1
10
7.09901786011102
20
-1.85065888285459
30
0
41
1
10
7.12037096746985
20
-1.87039394567583
30
0
41
1
10
7.12763072639717
20
-1.8766474619581
30
0
41
1
10
7.14234212987017
20
-1.8882691015761
30
0
41
1
10
7.14984069919603
20
-1.89367211619398
30
0
41
1
10
7.1648994145441
20
-1.90329513224691
30
0
41
1
10
7.17244058717273
20
-1.90750960071213
30
0
41
1
10
7.18752229959787
20
-1.91448417060437
30
0
41
1
10
7.19506312570303
20
-1.91724908932369
30
0
41
1
10
7.20634730167413
20
-1.91997000109987
30
0
41
1
10
7.21012929202482
20
-1.92063875818988
30
0
41
1
10
7.21752854386389
20
-1.92139315044318
30
0
41
1
10
7.22475971386854
20
-1.92157248488314
30
0
41
1
10
7.23161739084944
20
-1.92050850211149
30
0
41
1
10
7.23826462019596
20
-1.91876002110931
30
0
41
1
10
7.24148272328361
20
-1.91753514329167
30
0
41
1
10
7.25049959323587
20
-1.91289809575255
30
0
41
1
10
7.25577047805666
20
-1.90850915250272
30
0
41
1
10
7.26480746935692
20
-1.89713283042389
30
0
41
1
10
7.26840561638323
20
-1.89035745512194
30
0
41
1
10
7.27120327394337
20
-1.88268956585836
30
0
0
SPLINE
5
141
100
AcDbEntity
8
1
62
256
6
ByLayer
370
18
48
1
60
0
100
AcDbSpline
70
4
71
3
72
32
73
28
40
0
40
0
40
0
40
0
40
0.125000000000038
40
0.125000000000038
40
0.250000000000075
40
0.250000000000075
40
0.375000000000113
40
0.375000000000113
40
0.50000000000015
40
0.50000000000015
40
0.56250000000015
40
0.56250000000015
40
0.62500000000015
40
0.62500000000015
40
0.68750000000015
40
0.68750000000015
40
0.75000000000015
40
0.75000000000015
40
0.812500000000149
40
0.812500000000149
40
0.843750000000125
40
0.843750000000125
40
0.8750000000001
40
0.8750000000001
40
0.93750000000005
40
0.93750000000005
40
1
40
1
40
1
40
1
41
1
10
6.96819845565108
20
0.013199999999955
30
0
41
1
10
6.97805638306045
20
0.0323630820502103
30
0
41
1
10
6.98847766627495
20
0.0510479699901225
30
0
41
1
10
7.01047871588693
20
0.0874271441518886
30
0
41
1
10
7.02205214570518
20
0.105106385099191
30
0
41
1
10
7.04627739494259
20
0.139087137031083
30
0
41
1
10
7.05892684674765
20
0.155392013559407
30
0
41
1
10
7.08533349866005
20
0.186214305557883
30
0
41
1
10
7.09904632958933
20
0.200690473474907
30
0
41
1
10
7.12044929490577
20
0.220463681428527
30
0
41
1
10
7.12768714589822
20
0.226694461898006
30
0
41
1
10
7.14238943879218
20
0.238304027283476
30
0
41
1
10
7.14988257698525
20
0.243702422463684
30
0
41
1
10
7.16498901057523
20
0.253348811101802
30
0
41
1
10
7.17256620106991
20
0.25757908622424
30
0
41
1
10
7.18774987977616
20
0.26457775233402
30
0
41
1
10
7.19538119902347
20
0.267357306090389
30
0
41
1
10
7.2105431576129
20
0.270948608700735
30
0
41
1
10
7.21790257299364
20
0.271722236553131
30
0
41
1
10
7.22850237889276
20
0.271001595387901
30
0
41
1
10
7.23196877483883
20
0.270438529898911
30
0
41
1
10
7.23855071275881
20
0.268660030385433
30
0
41
1
10
7.24168969305987
20
0.2674451279089
30
0
41
1
10
7.25063145055265
20
0.262795894141078
30
0
41
1
10
7.25601149174793
20
0.258253021349731
30
0
41
1
10
7.26485956671894
20
0.247018386002225
30
0
41
1
10
7.26841601610698
20
0.240328951300881
30
0
41
1
10
7.27120327394337
20
0.232689565858294
30
0
0
SPLINE
5
142
100
AcDbEntity
8
1
62
256
6
ByLayer
370
18
48
1
60
0
100
AcDbSpline
70
4
71
3
72
40
73
36
40
0
40
0
40
0
40
0
40
0.0624999999999734
40
0.0624999999999734
40
0.0937499999999682
40
0.0937499999999682
40
0.124999999999963
40
0.124999999999963
40
0.187499999999968
40
0.187499999999968
40
0.249999999999972
40
0.249999999999972
40
0.312499999999977
40
0.312499999999977
40
0.374999999999982
40
0.374999999999982
40
0.437499999999986
40
0.437499999999986
40
0.499999999999991
40
0.499999999999991
40
0.625
40
0.625
40
0.687500000000005
40
0.687500000000005
40
0.750000000000009
40
0.750000000000009
40
0.812500000000014
40
0.812500000000014
40
0.875000000000018
40
0.875000000000018
40
0.906250000000013
40
0.906250000000013
40
0.937500000000008
40
0.937500000000008
40
1
40
1
40
1
40
1
41
1
10
6.93697904125264
20
-1.20276395172385
30
0
41
1
10
6.94513059366253
20
-1.19447517434946
30
0
41
1
10
6.95210533468355
20
-1.18391030987647
30
0
41
1
10
6.96144099382803
20
-1.16575795535294
30
0
41
1
10
6.9643563565906
20
-1.15930925926705
30
0
41
1
10
6.96978415433261
20
-1.14591111947337
30
0
41
1
10
6.97230901305133
20
-1.13893769701738
30
0
41
1
10
6.97940867365716
20
-1.11729584498755
30
0
41
1
10
6.98346510266563
20
-1.10206531286426
30
0
41
1
10
6.99057579343398
20
-1.07040074023686
30
0
41
1
10
6.99361516654352
20
-1.05400442766407
30
0
41
1
10
6.99885031130236
20
-1.02051445491571
30
0
41
1
10
7.00105802006169
20
-1.00332676164882
30
0
41
1
10
7.0047516248882
20
-0.968540507040899
30
0
41
1
10
7.0062412339056
20
-0.950928993648802
30
0
41
1
10
7.00860123632998
20
-0.915291776014982
30
0
41
1
10
7.0094685614614
20
-0.897275461041829
30
0
41
1
10
7.0106163400302
20
-0.861200847917843
30
0
41
1
10
7.01089995993476
20
-0.843096538245248
30
0
41
1
10
7.01089763986829
20
-0.788586147036796
30
0
41
1
10
7.00978408160677
20
-0.75257315209231
30
0
41
1
10
7.00624071985206
20
-0.699061558287639
30
0
41
1
10
7.00474640209052
20
-0.681405208735441
30
0
41
1
10
7.00105540834483
20
-0.646653748191937
30
0
41
1
10
6.99885149955316
20
-0.629489463646649
30
0
41
1
10
6.99360456947403
20
-0.595931470819465
30
0
41
1
10
6.99056081142044
20
-0.579523919282451
30
0
41
1
10
6.98344808460897
20
-0.547867567197244
30
0
41
1
10
6.97937281100201
20
-0.53258359114102
30
0
41
1
10
6.97228556059736
20
-0.510996484384407
30
0
41
1
10
6.96976304875545
20
-0.504032766003007
30
0
41
1
10
6.96433337711534
20
-0.490638067133432
30
0
41
1
10
6.96141581831421
20
-0.484189984910273
30
0
41
1
10
6.95209940093156
20
-0.466084397130231
30
0
41
1
10
6.94513458251674
20
-0.455528881654033
30
0
41
1
10
6.93697904125264
20
-0.44723604827621
30
0
0
SPLINE
5
143
100
AcDbEntity
8
1
62
256
6
ByLayer
370
18
48
1
60
0
100
AcDbSpline
70
4
71
3
72
8
73
4
40
0
40
0
40
0
40
0
40
1
40
1
40
1
40
1
41
1
10
6.93697904125264
20
-0.44723604827621
30
0
41
1
10
6.93357587993441
20
-0.443775597417613
30
0
41
1
10
6.9301741182714
20
-0.440315605698601
30
0
41
1
10
6.92677370258554
20
-0.436856055891639
30
0
0
SPLINE
5
144
100
AcDbEntity
8
1
62
256
6
ByLayer
370
18
48
1
60
0
100
AcDbSpline
70
4
71
3
72
31
73
27
40
0
40
0
40
0
40
0
40
0.250000000000001
40
0.250000000000001
40
0.375000000000003
40
0.375000000000003
40
0.500000000000006
40
0.500000000000006
40
0.562500000000003
40
0.562500000000003
40
0.625
40
0.625
40
0.687499999999997
40
0.687499999999997
40
0.749999999999995
40
0.749999999999995
40
0.781249999999995
40
0.781249999999995
40
0.812499999999996
40
0.843749999999997
40
0.843749999999997
40
0.874999999999997
40
0.874999999999997
40
0.937499999999999
40
0.937499999999999
40
1
40
1
40
1
40
1
41
1
10
6.96819845565108
20
0.013199999999955
30
0
41
1
10
6.94849623620172
20
-0.0250996579506193
30
0
41
1
10
6.93099968589877
20
-0.0653558820466174
30
0
41
1
10
6.90905158367298
20
-0.127669247928225
30
0
41
1
10
6.9024456010554
20
-0.14879793607534
30
0
41
1
10
6.89097845085877
20
-0.191563839196874
30
0
41
1
10
6.88610691679753
20
-0.213224249642565
30
0
41
1
10
6.88050476817344
20
-0.245888211548959
30
0
41
1
10
6.87892086703414
20
-0.256826116591213
30
0
41
1
10
6.87644147594912
20
-0.278622110614236
30
0
41
1
10
6.87553962014402
20
-0.289548901375838
30
0
41
1
10
6.87457089471292
20
-0.311082045228915
30
0
41
1
10
6.87450074063793
20
-0.321663433141538
30
0
41
1
10
6.87534544402217
20
-0.342364556229256
30
0
41
1
10
6.87625727059947
20
-0.352485922485357
30
0
41
1
10
6.87856956239369
20
-0.367205690224068
30
0
41
1
10
6.87950721543115
20
-0.372066114578445
30
0
41
1
10
6.8817101696344
20
-0.381412940747481
30
0
41
1
10
6.88423415376053
20
-0.390384027635463
30
0
41
1
10
6.88744446318981
20
-0.398538223263756
30
0
41
1
10
6.89102891017677
20
-0.406240526729874
30
0
41
1
10
6.89301360754666
20
-0.409863054072702
30
0
41
1
10
6.89936625914225
20
-0.419679145121506
30
0
41
1
10
6.90418212570117
20
-0.424952610231202
30
0
41
1
10
6.91496064371688
20
-0.432943533132857
30
0
41
1
10
6.92072257693042
20
-0.435512668063637
30
0
41
1
10
6.92677370258554
20
-0.436856055891639
30
0
0
SPLINE
5
145
100
AcDbEntity
8
1
62
256
6
ByLayer
370
18
48
1
60
0
100
AcDbSpline
70
4
71
3
72
32
73
28
40
0
40
0
40
0
40
0
40
0.125000000000004
40
0.125000000000004
40
0.250000000000007
40
0.250000000000007
40
0.375000000000011
40
0.375000000000011
40
0.500000000000015
40
0.500000000000015
40
0.562500000000024
40
0.562500000000024
40
0.625000000000032
40
0.625000000000032
40
0.687500000000041
40
0.687500000000041
40
0.750000000000049
40
0.750000000000049
40
0.812500000000058
40
0.812500000000058
40
0.843750000000058
40
0.843750000000058
40
0.875000000000059
40
0.875000000000059
40
0.937500000000029
40
0.937500000000029
40
1
40
1
40
1
40
1
41
1
10
6.96819845565111
20
-1.66320000000002
30
0
41
1
10
6.95834052824176
20
-1.64403691794979
30
0
41
1
10
6.94907187968187
20
-1.62444603427079
30
0
41
1
10
6.93174690431979
20
-1.58437832340334
30
0
41
1
10
6.92369901556214
20
-1.56391517171699
30
0
41
1
10
6.90904947347065
20
-1.52232620346453
30
0
41
1
10
6.90244466545505
20
-1.50120222244115
30
0
41
1
10
6.89096162345112
20
-1.45836975079337
30
0
41
1
10
6.88609573733441
20
-1.43673026636719
30
0
41
1
10
6.88048608558125
20
-1.40399294388166
30
0
41
1
10
6.87890967004086
20
-1.39308944188301
30
0
41
1
10
6.87643520299284
20
-1.37130865588355
30
0
41
1
10
6.87553449411917
20
-1.36039003295457
30
0
41
1
10
6.87456758429948
20
-1.33879103036688
30
0
41
1
10
6.87450005944413
20
-1.32816054405131
30
0
41
1
10
6.87536608863223
20
-1.30732675805538
30
0
41
1
10
6.87630136716388
20
-1.29708970372383
30
0
41
1
10
6.87945150756241
20
-1.27733091984976
30
0
41
1
10
6.88162907523014
20
-1.26803141886151
30
0
41
1
10
6.88597973891132
20
-1.25516290724727
30
0
41
1
10
6.88761914434525
20
-1.25104830727889
30
0
41
1
10
6.89119948514343
20
-1.24343492487998
30
0
41
1
10
6.893148635118
20
-1.23990708021719
30
0
41
1
10
6.89948175167854
20
-1.23018684134396
30
0
41
1
10
6.90443862876779
20
-1.22482136881652
30
0
41
1
10
6.91505477817733
20
-1.21702373945709
30
0
41
1
10
6.92074507076097
20
-1.21448233816505
30
0
41
1
10
6.92677370258554
20
-1.21314394410842
30
0
0
SPLINE
5
146
100
AcDbEntity
8
1
62
256
6
ByLayer
370
18
48
1
60
0
100
AcDbSpline
70
4
71
3
72
8
73
4
40
0
40
0
40
0
40
0
40
1
40
1
40
1
40
1
41
1
10
6.92677370258554
20
-1.21314394410842
30
0
41
1
10
6.9301741182714
20
-1.20968439430146
30
0
41
1
10
6.93357587993441
20
-1.20622440258248
30
0
41
1
10
6.93697904125264
20
-1.20276395172385
30
0
0
SPLINE
5
147
100
AcDbEntity
8
1
62
256
6
ByLayer
370
18
48
1
60
0
100
AcDbSpline
70
4
71
2
72
6
73
3
40
0
40
0
40
0
40
1
40
1
40
1
41
1.03186391735993
10
2.82713521185938
20
6.05270327716594
30
0
41
1.03138264657361
10
2.94917877905272
20
6.05270327716597
30
0
41
1.03186391735993
10
3.0709947103919
20
6.04524247085341
30
0
0
SPLINE
5
148
100
AcDbEntity
8
1
62
256
6
ByLayer
370
18
48
1
60
0
100
AcDbSpline
70
4
71
2
72
6
73
3
40
0
40
0
40
0
40
1
40
1
40
1
41
1.03186391735993
10
2.62740930490842
20
5.85270327716593
30
0
41
0.729637973226922
10
2.62740930490842
20
6.05270327716597
30
0
41
1.03186391735993
10
2.82713521185938
20
6.05270327716594
30
0
0
SPLINE
5
149
100
AcDbEntity
8
1
62
256
6
ByLayer
370
18
48
1
60
0
100
AcDbSpline
70
4
71
3
72
8
73
4
40
0
40
0
40
0
40
0
40
1
40
1
40
1
40
1
41
1
10
4.59222663032693
20
5.97939829636667
30
0
41
1
10
4.60514806544802
20
5.9793127960136
30
0
41
1
10
4.61805430575862
20
5.97790370887031
30
0
41
1
10
4.63077342887968
20
5.97512067257415
30
0
0
SPLINE
5
14A
100
AcDbEntity
8
1
62
256
6
ByLayer
370
18
48
1
60
0
100
AcDbSpline
70
4
71
2
72
6
73
3
40
0
40
0
40
0
40
1
40
1
40
1
41
1.03186391735993
10
22.1564145945164
20
4.0547575291466
30
0
41
1.03138264657361
10
22.2782305258557
20
4.04729672283406
30
0
41
1.03186391735993
10
22.400274093049
20
4.04729672283406
30
0
0
SPLINE
5
14B
100
AcDbEntity
8
1
62
256
6
ByLayer
370
18
48
1
60
0
100
AcDbSpline
70
4
71
2
72
6
73
3
40
0
40
0
40
0
40
1
40
1
40
1
41
1.03186391735993
10
22.400274093049
20
4.04729672283406
30
0
41
0.729637973226922
10
22.6
20
4.04729672283406
30
0
41
1.03186391735993
10
22.5999999999999
20
4.24729672283405
30
0
0
SPLINE
5
14C
100
AcDbEntity
8
1
62
256
6
ByLayer
370
18
48
1
60
0
100
AcDbSpline
70
4
71
2
72
6
73
3
40
0
40
0
40
0
40
1
40
1
40
1
41
1.03186391735993
10
22.5999999999999
20
5.85270327716595
30
0
41
0.729637973226922
10
22.6
20
6.05270327716599
30
0
41
1.03186391735993
10
22.400274093049
20
6.05270327716597
30
0
0
SPLINE
5
14D
100
AcDbEntity
8
1
62
256
6
ByLayer
370
18
48
1
60
0
100
AcDbSpline
70
4
71
2
72
6
73
3
40
0
40
0
40
0
40
1
40
1
40
1
41
1.03186391735993
10
22.400274093049
20
6.05270327716597
30
0
41
1.03138264657361
10
22.2782305258557
20
6.052703277166
30
0
41
1.03186391735993
10
22.1564145945164
20
6.04524247085344
30
0
0
SPLINE
5
14E
100
AcDbEntity
8
1
62
256
6
ByLayer
370
18
48
1
60
0
100
AcDbSpline
70
4
71
3
72
8
73
4
40
0
40
0
40
0
40
0
40
1
40
1
40
1
40
1
41
1
10
20.6013119938187
20
5.97939829636661
30
0
41
1
10
20.5875156029294
20
5.97931279601306
30
0
41
1
10
20.5737354357448
20
5.97790370886824
30
0
41
1
10
20.5601550561119
20
5.97512067257188
30
0
0
SPLINE
5
14F
100
AcDbEntity
8
1
62
256
6
ByLayer
370
18
48
1
60
0
100
AcDbSpline
70
4
71
3
72
8
73
4
40
0
40
0
40
0
40
0
40
1
40
1
40
1
40
1
41
1
10
20.5601550561232
20
4.12487932742587
30
0
41
1
10
20.5737355764804
20
4.12209626229117
30
0
41
1
10
20.5875154923384
20
4.12068720467187
30
0
41
1
10
20.6013119938327
20
4.12060170363335
30
0
0
LINE
5
7F
100
AcDbEntity
8
81
62
256
6
ByLayer
370
18
48
1
60
0
100
AcDbLine
10
22.6
20
6.05
30
0
11
27.593148
21
6.05
31
0
39
0
210
0
220
0
230
1
0
LINE
5
80
100
AcDbEntity
8
80
62
256
6
ByLayer
370
18
48
1
60
0
100
AcDbLine
10
0
20
0
30
0
11
-5
21
0
31
0
39
0
210
0
220
0
230
1
0
LINE
5
81
100
AcDbEntity
8
1
62
256
6
ByLayer
370
18
48
1
60
0
100
AcDbLine
10
8.327088
20
0.201185
30
0
11
9.024231
21
0.201185
31
0
39
0
210
0
220
0
230
1
0
LINE
5
82
100
AcDbEntity
8
1
62
256
6
ByLayer
370
18
48
1
60
0
100
AcDbLine
10
9.025024
20
-1.851185
30
0
11
8.327088
21
-1.851185
31
0
39
0
210
0
220
0
230
1
0
LINE
5
83
100
AcDbEntity
8
1
62
256
6
ByLayer
370
18
48
1
60
0
100
AcDbLine
10
7.101032
20
0.201185
30
0
11
7.350021
21
0.201185
31
0
39
0
210
0
220
0
230
1
0
LINE
5
84
100
AcDbEntity
8
1
62
256
6
ByLayer
370
18
48
1
60
0
100
AcDbLine
10
7.350007
20
-1.851185
30
0
11
7.101208
21
-1.851185
31
0
39
0
210
0
220
0
230
1
0
LINE
5
85
100
AcDbEntity
8
1
62
256
6
ByLayer
370
18
48
1
60
0
100
AcDbLine
10
8.170968
20
2.175
30
0
11
7.989372
21
2.175
31
0
39
0
210
0
220
0
230
1
0
LINE
5
86
100
AcDbEntity
8
1
62
256
6
ByLayer
370
18
48
1
60
0
100
AcDbLine
10
7.989372
20
-3.825
30
0
11
8.170968
21
-3.825
31
0
39
0
210
0
220
0
230
1
0
LINE
5
87
100
AcDbEntity
8
1
62
256
6
ByLayer
370
18
48
1
60
0
100
AcDbLine
10
10.956024
20
3.05
30
0
11
10.947296
21
3.96257
31
0
39
0
210
0
220
0
230
1
0
LINE
5
88
100
AcDbEntity
8
1
62
256
6
ByLayer
370
18
48
1
60
0
100
AcDbLine
10
11.241471
20
-4.795697
30
0
11
11.008471
21
-4.982279
31
0
39
0
210
0
220
0
230
1
0
LINE
5
89
100
AcDbEntity
8
1
62
256
6
ByLayer
370
18
48
1
60
0
100
AcDbLine
10
11.241471
20
3.05
30
0
11
11.008376
21
3.05
31
0
39
0
210
0
220
0
230
1
0
LINE
5
8A
100
AcDbEntity
8
1
62
256
6
ByLayer
370
18
48
1
60
0
100
AcDbLine
10
17.913155
20
0.546862
30
0
11
11.241471
21
-4.795697
31
0
39
0
210
0
220
0
230
1
0
LINE
5
8B
100
AcDbEntity
8
1
62
256
6
ByLayer
370
18
48
1
60
0
100
AcDbLine
10
17.913155
20
0.546862
30
0
11
17.913155
21
3.5
31
0
39
0
210
0
220
0
230
1
0
LINE
5
8C
100
AcDbEntity
8
1
62
256
6
ByLayer
370
13
48
1
60
0
100
AcDbLine
10
17.913155
20
3.5
30
0
11
12.102597
21
3.5
31
0
39
0
210
0
220
0
230
1
0
LINE
5
8D
100
AcDbEntity
8
1
62
256
6
ByLayer
370
18
48
1
60
0
100
AcDbLine
10
12.182655
20
3.05
30
0
11
11.241471
21
3.05
31
0
39
0
210
0
220
0
230
1
0
LINE
5
8E
100
AcDbEntity
8
1
62
256
6
ByLayer
370
18
48
1
60
0
100
AcDbLine
10
11.241471
20
3.05
30
0
11
11.241471
21
-4.795697
31
0
39
0
210
0
220
0
230
1
0
LINE
5
8F
100
AcDbEntity
8
1
62
256
6
ByLayer
370
18
48
1
60
0
100
AcDbLine
10
0
20
-5.95
30
0
11
0.468629
21
-5.95
31
0
39
0
210
0
220
0
230
1
0
LINE
5
90
100
AcDbEntity
8
1
62
256
6
ByLayer
370
18
48
1
60
0
100
AcDbLine
10
0
20
-5.95
30
0
11
0
21
5.8
31
0
39
0
210
0
220
0
230
1
0
LINE
5
91
100
AcDbEntity
8
1
62
256
6
ByLayer
370
18
48
1
60
0
100
AcDbLine
10
11.008479
20
-4.982273
30
0
11
10.8
21
-5.149219
31
0
39
0
210
0
220
0
230
1
0
LINE
5
92
100
AcDbEntity
8
1
62
256
6
ByLayer
370
18
48
1
60
0
100
AcDbLine
10
11.008479
20
3.05
30
0
11
10.8
21
3.05
31
0
39
0
210
0
220
0
230
1
0
LINE
5
93
100
AcDbEntity
8
1
62
256
6
ByLayer
370
18
48
1
60
0
100
AcDbLine
10
11.008479
20
-4.982273
30
0
11
11.008479
21
3.05
31
0
39
0
210
0
220
0
230
1
0
LINE
5
94
100
AcDbEntity
8
1
62
256
6
ByLayer
370
18
48
1
60
0
100
AcDbLine
10
0.468629
20
5.8
30
0
11
0
21
5.8
31
0
39
0
210
0
220
0
230
1
0
LINE
5
95
100
AcDbEntity
8
1
62
256
6
ByLayer
370
18
48
1
60
0
100
AcDbLine
10
10.8
20
-1.864531
30
0
11
10.8
21
-2.087077
31
0
39
0
210
0
220
0
230
1
0
LINE
5
96
100
AcDbEntity
8
1
62
256
6
ByLayer
370
18
48
1
60
0
100
AcDbLine
10
0.468629
20
5.8
30
0
11
5
21
5.8
31
0
39
0
210
0
220
0
230
1
0
LINE
5
97
100
AcDbEntity
8
1
62
256
6
ByLayer
370
18
48
1
60
0
100
AcDbLine
10
0.468629
20
-5.95
30
0
11
5
21
-5.95
31
0
39
0
210
0
220
0
230
1
0
LINE
5
98
100
AcDbEntity
8
1
62
256
6
ByLayer
370
13
48
1
60
0
100
AcDbLine
10
0.468629
20
5.8
30
0
11
0.468629
21
-5.95
31
0
39
0
210
0
220
0
230
1
0
LINE
5
99
100
AcDbEntity
8
1
62
256
6
ByLayer
370
18
48
1
60
0
100
AcDbLine
10
9.452812
20
4.3
30
0
11
15.842581
21
4.3
31
0
39
0
210
0
220
0
230
1
0
LINE
5
9A
100
AcDbEntity
8
1
62
256
6
ByLayer
370
18
48
1
60
0
100
AcDbLine
10
9.452812
20
5.8
30
0
11
15.842581
21
5.8
31
0
39
0
210
0
220
0
230
1
0
LINE
5
9B
100
AcDbEntity
8
1
62
256
6
ByLayer
370
18
48
1
60
0
100
AcDbLine
10
16.311865
20
5.098819
30
0
11
16.311865
21
5.001181
31
0
39
0
210
0
220
0
230
1
0
LINE
5
9C
100
AcDbEntity
8
1
62
256
6
ByLayer
370
18
48
1
60
0
100
AcDbLine
10
10.8
20
0.437077
30
0
11
10.8
21
0.214531
31
0
39
0
210
0
220
0
230
1
0
LINE
5
9D
100
AcDbEntity
8
1
62
256
6
ByLayer
370
18
48
1
60
0
100
AcDbLine
10
10.8
20
0.437077
30
0
11
10.8
21
3.5
31
0
39
0
210
0
220
0
230
1
0
LINE
5
9E
100
AcDbEntity
8
1
62
256
6
ByLayer
370
13
48
1
60
0
100
AcDbLine
10
10.8
20
3.5
30
0
11
6.931349
21
3.5
31
0
39
0
210
0
220
0
230
1
0
LINE
5
9F
100
AcDbEntity
8
1
62
256
6
ByLayer
370
18
48
1
60
0
100
AcDbLine
10
8.693501
20
4.3
30
0
11
9.452812
21
4.3
31
0
39
0
210
0
220
0
230
1
0
LINE
5
A0
100
AcDbEntity
8
1
62
256
6
ByLayer
370
18
48
1
60
0
100
AcDbLine
10
6.931349
20
3.5
30
0
11
6.931349
21
2.010488
31
0
39
0
210
0
220
0
230
1
0
LINE
5
A1
100
AcDbEntity
8
1
62
256
6
ByLayer
370
18
48
1
60
0
100
AcDbLine
10
9.452812
20
4.3
30
0
11
9.452812
21
5.8
31
0
39
0
210
0
220
0
230
1
0
LINE
5
A2
100
AcDbEntity
8
1
62
256
6
ByLayer
370
18
48
1
60
0
100
AcDbLine
10
5
20
5.8
30
0
11
9.452812
21
5.8
31
0
39
0
210
0
220
0
230
1
0
LINE
5
A3
100
AcDbEntity
8
1
62
256
6
ByLayer
370
18
48
1
60
0
100
AcDbLine
10
5
20
5.8
30
0
11
5
21
-5.95
31
0
39
0
210
0
220
0
230
1
0
LINE
5
A4
100
AcDbEntity
8
1
62
256
6
ByLayer
370
18
48
1
60
0
100
AcDbLine
10
5
20
-5.95
30
0
11
6.931349
21
-5.95
31
0
39
0
210
0
220
0
230
1
0
LINE
5
A5
100
AcDbEntity
8
1
62
256
6
ByLayer
370
18
48
1
60
0
100
AcDbLine
10
6.931349
20
-3.660488
30
0
11
6.931349
21
-5.95
31
0
39
0
210
0
220
0
230
1
0
LINE
5
A6
100
AcDbEntity
8
1
62
256
6
ByLayer
370
18
48
1
60
0
100
AcDbLine
10
9.8
20
-5.95
30
0
11
6.931349
21
-5.95
31
0
39
0
210
0
220
0
230
1
0
LINE
5
A7
100
AcDbEntity
8
1
62
256
6
ByLayer
370
18
48
1
60
0
100
AcDbLine
10
10.8
20
-5.149219
30
0
11
9.8
21
-5.95
31
0
39
0
210
0
220
0
230
1
0
LINE
5
A8
100
AcDbEntity
8
1
62
256
6
ByLayer
370
18
48
1
60
0
100
AcDbLine
10
10.8
20
-5.149219
30
0
11
10.8
21
-2.087077
31
0
39
0
210
0
220
0
230
1
0
LINE
5
A9
100
AcDbEntity
8
1
62
256
6
ByLayer
370
18
48
1
60
0
100
AcDbLine
10
8.777852
20
-1.213144
30
0
11
8.762615
21
-1.202764
31
0
39
0
210
0
220
0
230
1
0
LINE
5
AA
100
AcDbEntity
8
1
62
256
6
ByLayer
370
18
48
1
60
0
100
AcDbLine
10
8.762615
20
-0.447236
30
0
11
8.777852
21
-0.436856
31
0
39
0
210
0
220
0
230
1
0
LINE
5
AB
100
AcDbEntity
8
1
62
256
6
ByLayer
370
13
48
1
60
0
100
AcDbLine
10
9.482244
20
-1.202764
30
0
11
8.762615
21
-1.202764
31
0
39
0
210
0
220
0
230
1
0
LINE
5
AC
100
AcDbEntity
8
1
62
256
6
ByLayer
370
13
48
1
60
0
100
AcDbLine
10
9.482244
20
-0.447236
30
0
11
8.762615
21
-0.447236
31
0
39
0
210
0
220
0
230
1
0
LINE
5
AD
100
AcDbEntity
8
1
62
256
6
ByLayer
370
18
48
1
60
0
100
AcDbLine
10
9.502513
20
-1.213144
30
0
11
8.777852
21
-1.213144
31
0
39
0
210
0
220
0
230
1
0
LINE
5
AE
100
AcDbEntity
8
1
62
256
6
ByLayer
370
18
48
1
60
0
100
AcDbLine
10
9.502513
20
-0.436856
30
0
11
8.777852
21
-0.436856
31
0
39
0
210
0
220
0
230
1
0
LINE
5
AF
100
AcDbEntity
8
1
62
256
6
ByLayer
370
13
48
1
60
0
100
AcDbLine
10
8.554432
20
0.600834
30
0
11
7.864791
21
0.600834
31
0
39
0
210
0
220
0
230
1
0
LINE
5
B0
100
AcDbEntity
8
1
62
256
6
ByLayer
370
13
48
1
60
0
100
AcDbLine
10
8.554432
20
-2.250834
30
0
11
7.864791
21
-2.250834
31
0
39
0
210
0
220
0
230
1
0
LINE
5
B1
100
AcDbEntity
8
1
62
256
6
ByLayer
370
18
48
1
60
0
100
AcDbLine
10
8.559073
20
-2.270834
30
0
11
7.870215
21
-2.270834
31
0
39
0
210
0
220
0
230
1
0
LINE
5
B2
100
AcDbEntity
8
1
62
256
6
ByLayer
370
18
48
1
60
0
100
AcDbLine
10
8.559073
20
0.620834
30
0
11
7.870215
21
0.620834
31
0
39
0
210
0
220
0
230
1
0
LINE
5
B3
100
AcDbEntity
8
1
62
256
6
ByLayer
370
13
48
1
60
0
100
AcDbLine
10
7.2818
20
0.22307
30
0
11
7.124853
21
0.22307
31
0
39
0
210
0
220
0
230
1
0
LINE
5
B4
100
AcDbEntity
8
1
62
256
6
ByLayer
370
13
48
1
60
0
100
AcDbLine
10
7.2818
20
-1.87307
30
0
11
7.123841
21
-1.87307
31
0
39
0
210
0
220
0
230
1
0
LINE
5
B5
100
AcDbEntity
8
1
62
256
6
ByLayer
370
18
48
1
60
0
100
AcDbLine
10
7.271203
20
-1.88269
30
0
11
7.13619
21
-1.88269
31
0
39
0
210
0
220
0
230
1
0
LINE
5
B6
100
AcDbEntity
8
1
62
256
6
ByLayer
370
18
48
1
60
0
100
AcDbLine
10
7.271203
20
0.23269
30
0
11
7.136858
21
0.23269
31
0
39
0
210
0
220
0
230
1
0
LINE
5
B7
100
AcDbEntity
8
SK1
62
256
6
ByLayer
370
18
48
1
60
0
100
AcDbLine
10
-0.662742
20
5.8
30
0
11
-1.6
21
5.8
31
0
39
0
210
0
220
0
230
1
0
LINE
5
B9
100
AcDbEntity
8
SK1
62
256
6
ByLayer
370
18
48
1
60
0
100
AcDbLine
10
-102.4
20
-5.95
30
0
11
-0.662742
21
-5.95
31
0
39
0
210
0
220
0
230
1
0
LINE
5
BA
100
AcDbEntity
8
SK1
62
256
6
ByLayer
370
18
48
1
60
0
100
AcDbLine
10
-102.4
20
5.95
30
0
11
-2.276387
21
5.95
31
0
39
0
210
0
220
0
230
1
0
LINE
5
BB
100
AcDbEntity
8
SK1
62
256
6
ByLayer
370
18
48
1
60
0
100
AcDbLine
10
-102.4
20
-5.95
30
0
11
-102.4
21
5.95
31
0
39
0
210
0
220
0
230
1
0
LINE
5
BC
100
AcDbEntity
8
SK1
62
256
6
ByLayer
370
18
48
1
60
0
100
AcDbLine
10
-0.662742
20
-5.95
30
0
11
0
21
-5.95
31
0
39
0
210
0
220
0
230
1
0
LINE
5
BD
100
AcDbEntity
8
SK1
62
256
6
ByLayer
370
18
48
1
60
0
100
AcDbLine
10
0
20
-5.95
30
0
11
0
21
5.8
31
0
39
0
210
0
220
0
230
1
0
LINE
5
BE
100
AcDbEntity
8
SK1
62
256
6
ByLayer
370
18
48
1
60
0
100
AcDbLine
10
0
20
5.8
30
0
11
-0.662742
21
5.8
31
0
39
0
210
0
220
0
230
1
0
LINE
5
BF
100
AcDbEntity
8
SK1
62
256
6
ByLayer
370
13
48
1
60
0
100
AcDbLine
10
-0.662742
20
-5.95
30
0
11
-0.662742
21
5.8
31
0
39
0
210
0
220
0
230
1
0
LINE
5
C0
100
AcDbEntity
8
1
62
256
6
ByLayer
370
18
48
1
60
0
100
AcDbLine
10
3.070995
20
6.045242
30
0
11
4.092021
21
5.982708
31
0
39
0
210
0
220
0
230
1
0
LINE
5
C1
100
AcDbEntity
8
1
62
256
6
ByLayer
370
18
48
1
60
0
100
AcDbLine
10
2.627409
20
5.799976
30
0
11
2.627409
21
5.852703
31
0
39
0
210
0
220
0
230
1
0
LINE
5
C2
100
AcDbEntity
8
1
62
256
6
ByLayer
370
18
48
1
60
0
100
AcDbLine
10
4.630773
20
5.975121
30
0
11
4.672114
21
5.966075
31
0
39
0
210
0
220
0
230
1
0
LINE
5
C3
100
AcDbEntity
8
1
62
256
6
ByLayer
370
18
48
1
60
0
100
AcDbLine
10
4.092021
20
5.799985
30
0
11
4.092021
21
5.982708
31
0
39
0
210
0
220
0
230
1
0
LINE
5
C4
100
AcDbEntity
8
1
62
256
6
ByLayer
370
18
48
1
60
0
100
AcDbLine
10
4.092021
20
5.982708
30
0
11
4.592227
21
5.979398
31
0
39
0
210
0
220
0
230
1
0
LINE
5
C5
100
AcDbEntity
8
1
62
256
6
ByLayer
370
18
48
1
60
0
100
AcDbLine
10
22.156415
20
6.045242
30
0
11
21.135388
21
5.982708
31
0
39
0
210
0
220
0
230
1
0
LINE
5
C6
100
AcDbEntity
8
1
62
256
6
ByLayer
370
18
48
1
60
0
100
AcDbLine
10
21.135388
20
4.117292
30
0
11
22.156415
21
4.054758
31
0
39
0
210
0
220
0
230
1
0
LINE
5
C7
100
AcDbEntity
8
1
62
256
6
ByLayer
370
18
48
1
60
0
100
AcDbLine
10
22.6
20
4.247297
30
0
11
22.6
21
5.852703
31
0
39
0
210
0
220
0
230
1
0
LINE
5
C8
100
AcDbEntity
8
1
62
256
6
ByLayer
370
18
48
1
60
0
100
AcDbLine
10
20.560155
20
5.975121
30
0
11
20.516015
21
5.966075
31
0
39
0
210
0
220
0
230
1
0
LINE
5
C9
100
AcDbEntity
8
1
62
256
6
ByLayer
370
18
48
1
60
0
100
AcDbLine
10
20.516015
20
4.133925
30
0
11
20.560155
21
4.124879
31
0
39
0
210
0
220
0
230
1
0
LINE
5
CA
100
AcDbEntity
8
1
62
256
6
ByLayer
370
18
48
1
60
0
100
AcDbLine
10
20.601312
20
4.120602
30
0
11
21.135388
21
4.117292
31
0
39
0
210
0
220
0
230
1
0
LINE
5
CB
100
AcDbEntity
8
1
62
256
6
ByLayer
370
18
48
1
60
0
100
AcDbLine
10
21.135388
20
4.117292
30
0
11
21.135388
21
5.982708
31
0
39
0
210
0
220
0
230
1
0
LINE
5
CC
100
AcDbEntity
8
1
62
256
6
ByLayer
370
18
48
1
60
0
100
AcDbLine
10
21.135388
20
5.982708
30
0
11
20.601312
21
5.979398
31
0
39
0
210
0
220
0
230
1
0
LINE
5
CD
100
AcDbEntity
8
1
62
256
6
ByLayer
370
18
48
1
60
0
100
AcDbLine
10
7.900869
20
5.85
30
0
11
5.257635
21
5.85
31
0
39
0
210
0
220
0
230
1
0
LINE
5
CE
100
AcDbEntity
8
1
62
256
6
ByLayer
370
18
48
1
60
0
100
AcDbLine
10
4.672114
20
5.799979
30
0
11
4.672114
21
5.966075
31
0
39
0
210
0
220
0
230
1
0
LINE
5
CF
100
AcDbEntity
8
1
62
256
6
ByLayer
370
18
48
1
60
0
100
AcDbLine
10
4.672114
20
5.966075
30
0
11
5.0131
21
5.8802
31
0
39
0
210
0
220
0
230
1
0
LINE
5
D0
100
AcDbEntity
8
1
62
256
6
ByLayer
370
13
48
1
60
0
100
AcDbLine
10
19.489289
20
5.05
30
0
11
16.311851
21
5.05
31
0
39
0
210
0
220
0
230
1
0
LINE
5
D1
100
AcDbEntity
8
1
62
256
6
ByLayer
370
13
48
1
60
0
100
AcDbLine
10
16.193254
20
5.247335
30
0
11
18.832882
21
5.247335
31
0
39
0
210
0
220
0
230
1
0
LINE
5
D2
100
AcDbEntity
8
1
62
256
6
ByLayer
370
13
48
1
60
0
100
AcDbLine
10
18.832882
20
4.852665
30
0
11
16.193254
21
4.852665
31
0
39
0
210
0
220
0
230
1
0
LINE
5
D3
100
AcDbEntity
8
1
62
256
6
ByLayer
370
13
48
1
60
0
100
AcDbLine
10
16.184323
20
5.250756
30
0
11
18.788242
21
5.250756
31
0
39
0
210
0
220
0
230
1
0
LINE
5
D4
100
AcDbEntity
8
1
62
256
6
ByLayer
370
13
48
1
60
0
100
AcDbLine
10
16.184323
20
4.849244
30
0
11
18.788242
21
4.849244
31
0
39
0
210
0
220
0
230
1
0
LINE
5
D5
100
AcDbEntity
8
1
62
256
6
ByLayer
370
13
48
1
60
0
100
AcDbLine
10
16.055203
20
4.798976
30
0
11
18.195054
21
4.798976
31
0
39
0
210
0
220
0
230
1
0
LINE
5
D6
100
AcDbEntity
8
1
62
256
6
ByLayer
370
13
48
1
60
0
100
AcDbLine
10
16.055203
20
5.301024
30
0
11
18.195054
21
5.301024
31
0
39
0
210
0
220
0
230
1
0
LINE
5
D7
100
AcDbEntity
8
1
62
256
6
ByLayer
370
13
48
1
60
0
100
AcDbLine
10
16.008429
20
4.682002
30
0
11
17.682345
21
4.682002
31
0
39
0
210
0
220
0
230
1
0
LINE
5
D8
100
AcDbEntity
8
1
62
256
6
ByLayer
370
13
48
1
60
0
100
AcDbLine
10
16.005389
20
5.417998
30
0
11
17.682345
21
5.417998
31
0
39
0
210
0
220
0
230
1
0
LINE
5
D9
100
AcDbEntity
8
1
62
256
6
ByLayer
370
13
48
1
60
0
100
AcDbLine
10
15.897881
20
4.424016
30
0
11
17.254357
21
4.424016
31
0
39
0
210
0
220
0
230
1
0
LINE
5
DA
100
AcDbEntity
8
1
62
256
6
ByLayer
370
18
48
1
60
0
100
AcDbLine
10
17.214516
20
5.85
30
0
11
7.900869
21
5.85
31
0
39
0
210
0
220
0
230
1
0
LINE
5
DB
100
AcDbEntity
8
1
62
256
6
ByLayer
370
18
48
1
60
0
100
AcDbLine
10
7.900869
20
5.85
30
0
11
7.900869
21
5.799998
31
0
39
0
210
0
220
0
230
1
0
LINE
5
DC
100
AcDbEntity
8
1
62
256
6
ByLayer
370
13
48
1
60
0
100
AcDbLine
10
17.214516
20
4.374562
30
0
11
15.875825
21
4.374562
31
0
39
0
210
0
220
0
230
1
0
LINE
5
DD
100
AcDbEntity
8
1
62
256
6
ByLayer
370
18
48
1
60
0
100
AcDbLine
10
11.321742
20
4.25
30
0
11
17.214516
21
4.25
31
0
39
0
210
0
220
0
230
1
0
LINE
5
DE
100
AcDbEntity
8
1
62
256
6
ByLayer
370
18
48
1
60
0
100
AcDbLine
10
20.516015
20
5.966075
30
0
11
20.167346
21
5.8802
31
0
39
0
210
0
220
0
230
1
0
LINE
5
DF
100
AcDbEntity
8
1
62
256
6
ByLayer
370
18
48
1
60
0
100
AcDbLine
10
17.214516
20
5.85
30
0
11
19.917302
21
5.85
31
0
39
0
210
0
220
0
230
1
0
LINE
5
E0
100
AcDbEntity
8
1
62
256
6
ByLayer
370
18
48
1
60
0
100
AcDbLine
10
17.214516
20
5.85
30
0
11
17.214516
21
5.725438
31
0
39
0
210
0
220
0
230
1
0
LINE
5
E1
100
AcDbEntity
8
1
62
256
6
ByLayer
370
18
48
1
60
0
100
AcDbLine
10
17.254357
20
5.675984
30
0
11
17.682345
21
5.417998
31
0
39
0
210
0
220
0
230
1
0
LINE
5
E2
100
AcDbEntity
8
1
62
256
6
ByLayer
370
18
48
1
60
0
100
AcDbLine
10
18.788242
20
5.250756
30
0
11
18.832882
21
5.247335
31
0
39
0
210
0
220
0
230
1
0
LINE
5
E3
100
AcDbEntity
8
1
62
256
6
ByLayer
370
18
48
1
60
0
100
AcDbLine
10
18.832882
20
4.852665
30
0
11
18.788242
21
4.849244
31
0
39
0
210
0
220
0
230
1
0
LINE
5
E4
100
AcDbEntity
8
1
62
256
6
ByLayer
370
18
48
1
60
0
100
AcDbLine
10
17.682345
20
4.682002
30
0
11
17.254357
21
4.424016
31
0
39
0
210
0
220
0
230
1
0
LINE
5
E5
100
AcDbEntity
8
1
62
256
6
ByLayer
370
18
48
1
60
0
100
AcDbLine
10
17.214516
20
4.374562
30
0
11
17.214516
21
4.25
31
0
39
0
210
0
220
0
230
1
0
LINE
5
E6
100
AcDbEntity
8
1
62
256
6
ByLayer
370
18
48
1
60
0
100
AcDbLine
10
19.917302
20
4.25
30
0
11
17.214516
21
4.25
31
0
39
0
210
0
220
0
230
1
0
LINE
5
E7
100
AcDbEntity
8
1
62
256
6
ByLayer
370
18
48
1
60
0
100
AcDbLine
10
20.167346
20
4.2198
30
0
11
20.516015
21
4.133925
31
0
39
0
210
0
220
0
230
1
0
LINE
5
E8
100
AcDbEntity
8
1
62
256
6
ByLayer
370
18
48
1
60
0
100
AcDbLine
10
20.516015
20
4.133925
30
0
11
20.516015
21
5.966075
31
0
39
0
210
0
220
0
230
1
0
LINE
5
E9
100
AcDbEntity
8
1
62
256
6
ByLayer
370
13
48
1
60
0
100
AcDbLine
10
15.874224
20
5.725438
30
0
11
17.214516
21
5.725438
31
0
39
0
210
0
220
0
230
1
0
LINE
5
EA
100
AcDbEntity
8
1
62
256
6
ByLayer
370
13
48
1
60
0
100
AcDbLine
10
17.254357
20
5.675984
30
0
11
15.895386
21
5.675984
31
0
39
0
210
0
220
0
230
1
0
MTEXT
5
150
100
AcDbEntity
8
SK6
62
256
6
ByLayer
370
18
48
1
60
0
100
AcDbMText
10
-72.217926
20
-54.160378
30
0
210
0
220
0
230
1
1
\W0.7233;C2R-RS12-RE11DS
40
3.5
41
0
44
1.084337
50
0
71
7
72
5
7
iso_b_vert
0
DIMENSION
5
155
100
AcDbEntity
8
2
62
256
6
ByLayer
370
18
48
1
60
0
100
AcDbDimension
2
_U0
10
50.35
20
-5.95
30
0
11
50.35
21
0.05
31
0
70
32
71
1
72
1
41
1
210
0
220
0
230
1
3
Standard
100
AcDbAlignedDimension
13
22.6
23
6.05
33
0
14
-102.4
24
-5.95
34
0
50
90
100
AcDbRotatedDimension
1001
ACAD
1000
DSTYLE
1002
{
1070
   371
1070
    13
1070
   372
1070
    13
1070
   170
1070
     0
1070
   144
1040
1.0
1070
   277
1070
     2
1070
   284
1070
     8
1070
   278
1070
    46
1070
   146
1040
1.0
1070
   345
1005
16
1070
   347
1005
16
1070
   346
1005
16
1070
   344
1005
0
1070
   343
1005
0
1070
   172
1070
     1
1070
    76
1070
     0
1070
    75
1070
     0
1070
   282
1070
     0
1070
   281
1070
     0
1070
    71
1070
     0
1070
    74
1070
     0
1070
   279
1070
     0
1070
   173
1070
     1
1070
   340
1005
151
1070
   271
1070
     2
1070
   272
1070
     2
1070
    77
1070
     1
1070
    73
1070
     0
1070
   171
1070
     3
1070
   274
1070
     4
1070
   177
1070
     2
1070
   176
1070
     2
1070
   178
1070
     2
1070
    78
1070
     8
1070
    48
1040
-0.1
1070
    41
1040
3.5
1070
   147
1040
1.75
1070
    42
1040
1.5875
1070
    44
1040
2.0
1070
   140
1040
3.5
1002
}
1001
ACAD_DSTYLE_DIM_LINETYPE
1070
   380
1005
16
1001
ACAD_DSTYLE_DIM_EXT1_LINETYPE
1070
   381
1005
16
1001
ACAD_DSTYLE_DIM_EXT2_LINETYPE
1070
   382
1005
16
0
DIMENSION
5
170
100
AcDbEntity
8
2
62
256
6
ByLayer
370
18
48
1
60
0
100
AcDbDimension
2
_U1
10
42.693148
20
6.05
30
0
11
42.693148
21
5.05
31
0
70
32
71
1
72
1
41
1
210
0
220
0
230
1
3
Standard
100
AcDbAlignedDimension
13
22.6
23
4.05
33
0
14
22.6
24
6.05
34
0
50
90
100
AcDbRotatedDimension
1001
ACAD
1000
DSTYLE
1002
{
1070
   371
1070
    13
1070
   372
1070
    13
1070
   170
1070
     0
1070
   144
1040
1.0
1070
   277
1070
     2
1070
   284
1070
     8
1070
   278
1070
    46
1070
   146
1040
1.0
1070
   345
1005
16
1070
   347
1005
16
1070
   346
1005
16
1070
   344
1005
0
1070
   343
1005
0
1070
   172
1070
     1
1070
    76
1070
     0
1070
    75
1070
     0
1070
   282
1070
     0
1070
   281
1070
     0
1070
    71
1070
     0
1070
    74
1070
     0
1070
   279
1070
     0
1070
   173
1070
     1
1070
   340
1005
151
1070
   271
1070
     2
1070
   272
1070
     2
1070
    77
1070
     1
1070
    73
1070
     0
1070
   171
1070
     3
1070
   274
1070
     4
1070
   177
1070
     2
1070
   176
1070
     2
1070
   178
1070
     2
1070
    78
1070
     8
1070
    48
1040
-0.1
1070
    41
1040
3.5
1070
   147
1040
1.75
1070
    42
1040
1.5875
1070
    44
1040
2.0
1070
   140
1040
3.5
1002
}
1001
ACAD_DSTYLE_DIM_LINETYPE
1070
   380
1005
16
1001
ACAD_DSTYLE_DIM_EXT1_LINETYPE
1070
   381
1005
16
1001
ACAD_DSTYLE_DIM_EXT2_LINETYPE
1070
   382
1005
16
0
DIMENSION
5
189
100
AcDbEntity
8
SK2
62
256
6
ByLayer
370
18
48
1
60
0
100
AcDbDimension
2
_U2
10
-114
20
6.05
30
0
11
-114
21
0.05
31
0
70
32
71
1
72
1
41
1
210
0
220
0
230
1
3
Standard
100
AcDbAlignedDimension
13
-102.4
23
-5.95
33
0
14
-102.4
24
6.05
34
0
50
90
100
AcDbRotatedDimension
1001
ACAD
1000
DSTYLE
1002
{
1070
   371
1070
    13
1070
   372
1070
    13
1070
   170
1070
     0
1070
   144
1040
1.0
1070
   277
1070
     2
1070
   284
1070
     8
1070
   278
1070
    46
1070
   146
1040
1.0
1070
   345
1005
16
1070
   347
1005
16
1070
   346
1005
16
1070
   344
1005
0
1070
   343
1005
0
1070
   172
1070
     1
1070
    76
1070
     0
1070
    75
1070
     0
1070
   282
1070
     0
1070
   281
1070
     0
1070
    71
1070
     0
1070
    74
1070
     0
1070
   279
1070
     0
1070
   173
1070
     1
1070
   340
1005
151
1070
   271
1070
     2
1070
   272
1070
     2
1070
    77
1070
     1
1070
    73
1070
     0
1070
   171
1070
     3
1070
   274
1070
     4
1070
   177
1070
     2
1070
   176
1070
     2
1070
   178
1070
     2
1070
    78
1070
     8
1070
    48
1040
-0.1
1070
    41
1040
3.5
1070
   147
1040
1.75
1070
    42
1040
1.5875
1070
    44
1040
2.0
1070
   140
1040
3.5
1002
}
1001
ACAD_DSTYLE_DIM_LINETYPE
1070
   380
1005
16
1001
ACAD_DSTYLE_DIM_EXT1_LINETYPE
1070
   381
1005
16
1001
ACAD_DSTYLE_DIM_EXT2_LINETYPE
1070
   382
1005
16
0
DIMENSION
5
1A3
100
AcDbEntity
8
2
62
256
6
ByLayer
370
18
48
1
60
0
100
AcDbDimension
2
_U3
10
22.6
20
-17.7
30
0
11
17.1
21
-17.7
31
0
70
32
71
1
72
1
41
1
210
0
220
0
230
1
3
Standard
100
AcDbAlignedDimension
13
11.6
23
4.3
33
0
14
22.6
24
6.05
34
0
50
0
100
AcDbRotatedDimension
1001
ACAD
1000
DSTYLE
1002
{
1070
   371
1070
    13
1070
   372
1070
    13
1070
   170
1070
     0
1070
   144
1040
1.0
1070
   277
1070
     2
1070
   284
1070
     8
1070
   278
1070
    46
1070
   146
1040
1.0
1070
   345
1005
16
1070
   347
1005
16
1070
   346
1005
16
1070
   344
1005
0
1070
   343
1005
0
1070
   172
1070
     1
1070
    76
1070
     0
1070
    75
1070
     0
1070
   282
1070
     0
1070
   281
1070
     0
1070
    71
1070
     0
1070
    74
1070
     0
1070
   279
1070
     0
1070
   173
1070
     1
1070
   340
1005
151
1070
   271
1070
     1
1070
   272
1070
     2
1070
    77
1070
     1
1070
    73
1070
     1
1070
   171
1070
     3
1070
   274
1070
     4
1070
   177
1070
     2
1070
   176
1070
     2
1070
   178
1070
     2
1070
    78
1070
     8
1070
    48
1040
-0.1
1070
    41
1040
3.5
1070
   147
1040
1.75
1070
    42
1040
1.5875
1070
    44
1040
2.0
1070
   140
1040
3.5
1002
}
1001
ACAD_DSTYLE_DIM_LINETYPE
1070
   380
1005
16
1001
ACAD_DSTYLE_DIM_EXT1_LINETYPE
1070
   381
1005
16
1001
ACAD_DSTYLE_DIM_EXT2_LINETYPE
1070
   382
1005
16
0
DIMENSION
5
1BC
100
AcDbEntity
8
SK2
62
256
6
ByLayer
370
18
48
1
60
0
100
AcDbDimension
2
_U4
10
22.6
20
-23.7
30
0
11
-39.9
21
-23.7
31
0
70
32
71
1
72
1
41
1
210
0
220
0
230
1
3
Standard
100
AcDbAlignedDimension
13
-102.4
23
-5.95
33
0
14
22.6
24
6.05
34
0
50
0
100
AcDbRotatedDimension
1001
ACAD
1000
DSTYLE
1002
{
1070
   371
1070
    13
1070
   372
1070
    13
1070
   170
1070
     0
1070
   144
1040
1.0
1070
   277
1070
     2
1070
   284
1070
     8
1070
   278
1070
    46
1070
   146
1040
1.0
1070
   345
1005
16
1070
   347
1005
16
1070
   346
1005
16
1070
   344
1005
0
1070
   343
1005
0
1070
   172
1070
     1
1070
    76
1070
     0
1070
    75
1070
     0
1070
   282
1070
     0
1070
   281
1070
     0
1070
    71
1070
     0
1070
    74
1070
     0
1070
   279
1070
     0
1070
   173
1070
     1
1070
   340
1005
151
1070
   271
1070
     1
1070
   272
1070
     2
1070
    77
1070
     1
1070
    73
1070
     1
1070
   171
1070
     3
1070
   274
1070
     4
1070
   177
1070
     2
1070
   176
1070
     2
1070
   178
1070
     2
1070
    78
1070
     8
1070
    48
1040
-0.1
1070
    41
1040
3.5
1070
   147
1040
1.75
1070
    42
1040
1.5875
1070
    44
1040
2.0
1070
   140
1040
3.5
1002
}
1001
ACAD_DSTYLE_DIM_LINETYPE
1070
   380
1005
16
1001
ACAD_DSTYLE_DIM_EXT1_LINETYPE
1070
   381
1005
16
1001
ACAD_DSTYLE_DIM_EXT2_LINETYPE
1070
   382
1005
16
0
ENDSEC
0
SECTION
2
OBJECTS
0
DICTIONARY
5
243
330
0
100
AcDbDictionary
280
0
281
1
3
ACAD_GROUP
350
244
3
ACAD_MLINESTYLE
350
245
0
DICTIONARY
5
244
330
0
100
AcDbDictionary
280
0
281
1
0
DICTIONARY
5
245
330
0
100
AcDbDictionary
280
0
281
1
3
Standard
350
18
0
MLINESTYLE
5
18
330
245
100
AcDbMlineStyle
2
Standard
70
0
3

62
256
51
90
52
90
71
2
49
-0.5
62
256
6
ByLayer
49
0.5
62
256
6
ByLayer
0
RASTERVARIABLES
5
232
330

100
AcDbRasterVariables
90
0
70
1
71
1
72
1
0
ENDSEC
0
EOF
