0
SECTION
2
HEADER
9
$ACADVER
1
AC1015
9
$DWGCODEPAGE
3
ANSI_1252
9
$HANDSEED
5
24e
9
$ANGBASE
50
0
9
$ANGDIR
70
0
9
$ATTMODE
70
1
9
$AUNITS
70
0
9
$AUPREC
70
0
9
$CECOLOR
62
256
9
$CELTSCALE
40
1
9
$CELTYPE
6
ByLayer
9
$CELWEIGHT
370
18
9
$CLAYER
8
0
9
$CMLJUST
70
0
9
$CMLSCALE
40
1
9
$CMLSTYLE
2
Standard
9
$DIMSTYLE
2
Standard
9
$TEXTSIZE
40
0.2
9
$TEXTSTYLE
7
Standard
9
$LUNITS
70
2
9
$LUPREC
70
4
9
$EXTNAMES
290
1
9
$INSUNITS
70
4
9
$LTSCALE
40
1
9
$LWDISPLAY
290
1
9
$PDMODE
70
0
9
$PDSIZE
40
0
9
$PLINEGEN
70
0
0
ENDSEC
0
SECTION
2
CLASSES
0
CLASS
1
RASTERVARIABLES
2
AcDbRasterVariables
3
ISM
90
0
280
0
281
0
0
ENDSEC
0
SECTION
2
TABLES
0
TABLE
2
VPORT
5
244
100
AcDbSymbolTable
0
VPORT
5
1
100
AcDbSymbolTableRecord
100
AcDbViewportTableRecord
2
*Active
70
0
10
0
20
0
11
1
21
1
12
-1
22
1
13
0
23
0
14
0.5
24
0.5
15
10
25
10
16
0
26
0
36
1
17
0
27
0
37
0
0
ENDTAB
0
TABLE
2
LTYPE
5
245
100
AcDbSymbolTable
0
LTYPE
5
14
100
AcDbSymbolTableRecord
100
AcDbLinetypeTableRecord
70
0
2
ByBlock
3

72
65
73
0
40
0
0
LTYPE
5
15
100
AcDbSymbolTableRecord
100
AcDbLinetypeTableRecord
70
0
2
ByLayer
3

72
65
73
0
40
0
0
LTYPE
5
16
100
AcDbSymbolTableRecord
100
AcDbLinetypeTableRecord
70
0
2
Continuous
3
Solid line
72
65
73
0
40
0
0
LTYPE
5
6E
100
AcDbSymbolTableRecord
100
AcDbLinetypeTableRecord
70
0
2
CENTER
3
____ _ ____ _ ____ _ ____
72
65
73
4
40
47.5
49
22
74
0
49
-8.5
74
0
49
8.5
74
0
49
-8.5
74
0
0
LTYPE
5
6F
100
AcDbSymbolTableRecord
100
AcDbLinetypeTableRecord
70
0
2
DASHED
3
__ __ __ __ __ __ __ __ __
72
65
73
2
40
25.72
49
12.86
74
0
49
-12.86
74
0
0
ENDTAB
0
TABLE
2
LAYER
5
246
100
AcDbSymbolTable
0
LAYER
5
10
100
AcDbSymbolTableRecord
100
AcDbLayerTableRecord
2
0
70
0
62
7
6
Continuous
290
1
370
-3
390
0
0
LAYER
5
71
100
AcDbSymbolTableRecord
100
AcDbLayerTableRecord
2
81
70
0
62
-3
6
Continuous
290
1
370
-3
390
0
0
LAYER
5
73
100
AcDbSymbolTableRecord
100
AcDbLayerTableRecord
2
80
70
0
62
-6
6
Continuous
290
1
370
-3
390
0
0
LAYER
5
75
100
AcDbSymbolTableRecord
100
AcDbLayerTableRecord
2
1
70
0
62
4
6
Continuous
290
1
370
-3
390
0
0
LAYER
5
156
100
AcDbSymbolTableRecord
100
AcDbLayerTableRecord
2
Defpoints
70
0
62
7
6
Continuous
290
0
370
-3
390
0
0
LAYER
5
164
100
AcDbSymbolTableRecord
100
AcDbLayerTableRecord
2
2
70
0
62
7
6
Continuous
290
1
370
-3
390
0
0
LAYER
5
231
100
AcDbSymbolTableRecord
100
AcDbLayerTableRecord
2
SK1
70
0
62
4
6
Continuous
290
1
370
-3
390
0
0
LAYER
5
232
100
AcDbSymbolTableRecord
100
AcDbLayerTableRecord
2
SK6
70
0
62
5
6
Continuous
290
1
370
-3
390
0
0
LAYER
5
233
100
AcDbSymbolTableRecord
100
AcDbLayerTableRecord
2
SK2
70
0
62
7
6
Continuous
290
1
370
-3
390
0
0
ENDTAB
0
TABLE
2
STYLE
5
247
100
AcDbSymbolTable
0
STYLE
5
11
100
AcDbSymbolTableRecord
100
AcDbTextStyleTableRecord
2
Standard
3
txt
70
0
71
0
40
0
41
1
42
0
50
0
0
STYLE
5
14F
100
AcDbSymbolTableRecord
100
AcDbTextStyleTableRecord
2
iso_b_vert
3
simplex.shx
70
0
71
0
40
0
41
1
42
0
50
0
0
STYLE
5
150
100
AcDbSymbolTableRecord
100
AcDbTextStyleTableRecord
2
DWGDirectTextStyle
3
simplex
70
0
71
0
40
0
41
1
42
0
50
0
0
ENDTAB
0
TABLE
2
DIMSTYLE
5
248
100
AcDbSymbolTable
100
AcDbDimStyleTable
0
DIMSTYLE
105
27
100
AcDbSymbolTableRecord
100
AcDbDimStyleTableRecord
2
Standard
70
0
3
<>
41
0.18
42
0.0625
44
0.18
140
0.18
147
0.09
73
0
74
0
77
1
271
2
275
0
278
52
280
0
340
11
0
ENDTAB
0
TABLE
2
VIEW
5
249
100
AcDbSymbolTable
0
ENDTAB
0
TABLE
2
UCS
5
24a
100
AcDbSymbolTable
0
ENDTAB
0
TABLE
2
APPID
5
24b
100
AcDbSymbolTable
0
APPID
5
12
100
AcDbSymbolTableRecord
100
AcDbRegAppTableRecord
2
ACAD
70
0
0
APPID
5
152
100
AcDbSymbolTableRecord
100
AcDbRegAppTableRecord
2
ACAD_DSTYLE_DIMBREAK
70
0
0
APPID
5
1F0
100
AcDbSymbolTableRecord
100
AcDbRegAppTableRecord
2
ACAD_DSTYLE_DIM_LINETYPE
70
0
0
APPID
5
1F1
100
AcDbSymbolTableRecord
100
AcDbRegAppTableRecord
2
ACAD_DSTYLE_DIM_EXT1_LINETYPE
70
0
0
APPID
5
1F2
100
AcDbSymbolTableRecord
100
AcDbRegAppTableRecord
2
ACAD_DSTYLE_DIM_EXT2_LINETYPE
70
0
0
APPID
5
22D
100
AcDbSymbolTableRecord
100
AcDbRegAppTableRecord
2
ACAD_MLEADERVER
70
0
0
ENDTAB
0
TABLE
2
BLOCK_RECORD
5
24c
100
AcDbSymbolTable
0
BLOCK_RECORD
5
1F
100
AcDbSymbolTableRecord
100
AcDbBlockTableRecord
2
*Model_Space
340
0
70
0
0
BLOCK_RECORD
5
1B
100
AcDbSymbolTableRecord
100
AcDbBlockTableRecord
2
*Paper_Space
340
0
70
0
0
BLOCK_RECORD
5
23
100
AcDbSymbolTableRecord
100
AcDbBlockTableRecord
2
*Paper_Space0
340
0
70
0
0
BLOCK_RECORD
5
157
100
AcDbSymbolTableRecord
100
AcDbBlockTableRecord
2
*D1
340
0
70
0
0
BLOCK_RECORD
5
165
100
AcDbSymbolTableRecord
100
AcDbBlockTableRecord
2
_U0
340
0
70
0
0
BLOCK_RECORD
5
171
100
AcDbSymbolTableRecord
100
AcDbBlockTableRecord
2
*D3
340
0
70
0
0
BLOCK_RECORD
5
17E
100
AcDbSymbolTableRecord
100
AcDbBlockTableRecord
2
_U1
340
0
70
0
0
BLOCK_RECORD
5
18A
100
AcDbSymbolTableRecord
100
AcDbBlockTableRecord
2
*D5
340
0
70
0
0
BLOCK_RECORD
5
198
100
AcDbSymbolTableRecord
100
AcDbBlockTableRecord
2
_U2
340
0
70
0
0
BLOCK_RECORD
5
1A4
100
AcDbSymbolTableRecord
100
AcDbBlockTableRecord
2
*D7
340
0
70
0
0
BLOCK_RECORD
5
1B1
100
AcDbSymbolTableRecord
100
AcDbBlockTableRecord
2
_U3
340
0
70
0
0
BLOCK_RECORD
5
1BD
100
AcDbSymbolTableRecord
100
AcDbBlockTableRecord
2
*D9
340
0
70
0
0
BLOCK_RECORD
5
1C9
100
AcDbSymbolTableRecord
100
AcDbBlockTableRecord
2
_U4
340
0
70
0
0
ENDTAB
0
ENDSEC
0
SECTION
2
BLOCKS
0
BLOCK
5
20
100
AcDbEntity
8
0
100
AcDbBlockBegin
2
*Model_Space
70
0
10
0
20
0
30
0
3
*Model_Space
0
ENDBLK
5
21
100
AcDbEntity
8
0
100
AcDbBlockEnd
0
BLOCK
5
1C
100
AcDbEntity
8
0
100
AcDbBlockBegin
2
*Paper_Space
70
0
10
0
20
0
30
0
3
*Paper_Space
0
ENDBLK
5
1D
100
AcDbEntity
8
0
100
AcDbBlockEnd
0
BLOCK
5
24
100
AcDbEntity
8
0
100
AcDbBlockBegin
2
*Paper_Space0
70
0
10
0
20
0
30
0
3
*Paper_Space0
0
ENDBLK
5
25
100
AcDbEntity
8
0
100
AcDbBlockEnd
0
BLOCK
5
158
100
AcDbEntity
8
0
100
AcDbBlockBegin
2
*D1
70
1
10
0
20
0
30
0
3
*D1
0
LINE
5
15A
100
AcDbEntity
8
0
62
256
6
ByLayer
370
-2
48
1
60
0
100
AcDbLine
10
30.1875
20
8.05
30
0
11
58.35
21
8.05
31
0
39
0
210
0
220
0
230
1
0
LINE
5
15B
100
AcDbEntity
8
0
62
256
6
ByLayer
370
-2
48
1
60
0
100
AcDbLine
10
-94.8125
20
-7.95
30
0
11
58.35
21
-7.95
31
0
39
0
210
0
220
0
230
1
0
LINE
5
15C
100
AcDbEntity
8
0
62
256
6
ByLayer
370
-2
48
1
60
0
100
AcDbLine
10
56.35
20
11.55
30
0
11
56.35
21
15.05
31
0
39
0
210
0
220
0
230
1
0
LINE
5
15D
100
AcDbEntity
8
0
62
256
6
ByLayer
370
-2
48
1
60
0
100
AcDbLine
10
56.35
20
-11.45
30
0
11
56.35
21
-14.95
31
0
39
0
210
0
220
0
230
1
0
SOLID
5
15E
100
AcDbEntity
8
0
62
256
6
ByLayer
370
-1
48
1
60
0
100
AcDbTrace
10
55.766667
20
11.55
30
0
11
56.933333
21
11.55
31
0
12
56.35
22
8.05
32
0
13
56.35
23
8.05
33
0
39
0
210
0
220
0
230
1
0
SOLID
5
15F
100
AcDbEntity
8
0
62
256
6
ByLayer
370
-1
48
1
60
0
100
AcDbTrace
10
56.933333
20
-11.45
30
0
11
55.766667
21
-11.45
31
0
12
56.35
22
-7.95
32
0
13
56.35
23
-7.95
33
0
39
0
210
0
220
0
230
1
0
MTEXT
5
160
100
AcDbEntity
8
0
62
256
6
ByLayer
370
18
48
1
60
0
100
AcDbMText
10
49.35
20
0.05
30
0
210
0
220
0
230
1
1
\A1;16
40
3.5
41
0
44
1
50
90
71
5
72
5
7
iso_b_vert
0
POINT
5
161
100
AcDbEntity
8
Defpoints
62
0
6
ByLayer
370
-1
48
1
60
0
100
AcDbPoint
10
28.6
20
8.05
30
0
39
0
210
0
220
0
230
1
50
360
0
POINT
5
162
100
AcDbEntity
8
Defpoints
62
0
6
ByLayer
370
-1
48
1
60
0
100
AcDbPoint
10
-96.4
20
-7.95
30
0
39
0
210
0
220
0
230
1
50
360
0
POINT
5
163
100
AcDbEntity
8
Defpoints
62
0
6
ByLayer
370
-1
48
1
60
0
100
AcDbPoint
10
56.35
20
-7.95
30
0
39
0
210
0
220
0
230
1
50
360
0
ENDBLK
5
159
100
AcDbEntity
8
0
100
AcDbBlockEnd
0
BLOCK
5
16C
100
AcDbEntity
8
0
100
AcDbBlockBegin
2
_U0
70
0
10
0
20
0
30
0
3
_U0
0
MTEXT
5
166
100
AcDbEntity
8
2
62
256
6
ByLayer
370
18
48
1
60
0
100
AcDbMText
10
55.660366
20
-1.445533
30
0
210
0
220
0
230
1
1
\W0.5321;16
40
3.5
41
0
44
1.084337
50
90
71
7
72
5
7
iso_b_vert
0
LINE
5
167
100
AcDbEntity
8
2
62
256
6
ByLayer
370
13
48
1
60
0
100
AcDbLine
10
30.1875
20
8.05
30
0
11
58.35
21
8.05
31
0
39
0
210
0
220
0
230
1
0
LINE
5
168
100
AcDbEntity
8
2
62
256
6
ByLayer
370
13
48
1
60
0
100
AcDbLine
10
-94.8125
20
-7.95
30
0
11
58.35
21
-7.95
31
0
39
0
210
0
220
0
230
1
0
LINE
5
169
100
AcDbEntity
8
2
62
256
6
ByLayer
370
13
48
1
60
0
100
AcDbLine
10
56.35
20
8.05
30
0
11
56.35
21
-7.95
31
0
39
0
210
0
220
0
230
1
0
SOLID
5
16A
100
AcDbEntity
8
2
62
256
6
ByLayer
370
18
48
1
60
0
100
AcDbTrace
10
56.35
20
8.05
30
0
11
56.810784
21
4.550002
31
0
12
55.889216
22
4.549998
32
0
13
55.889216
23
4.549998
33
0
39
0
210
0
220
0
230
1
0
SOLID
5
16B
100
AcDbEntity
8
2
62
256
6
ByLayer
370
18
48
1
60
0
100
AcDbTrace
10
56.35
20
-7.95
30
0
11
55.889216
21
-4.450002
31
0
12
56.810784
22
-4.449998
32
0
13
56.810784
23
-4.449998
33
0
39
0
210
0
220
0
230
1
0
ENDBLK
5
16D
100
AcDbEntity
8
0
100
AcDbBlockEnd
0
BLOCK
5
172
100
AcDbEntity
8
0
100
AcDbBlockBegin
2
*D3
70
1
10
0
20
0
30
0
3
*D3
0
LINE
5
174
100
AcDbEntity
8
0
62
256
6
ByLayer
370
-2
48
1
60
0
100
AcDbLine
10
30.1875
20
6.05
30
0
11
50.693148
21
6.05
31
0
39
0
210
0
220
0
230
1
0
LINE
5
175
100
AcDbEntity
8
0
62
256
6
ByLayer
370
-2
48
1
60
0
100
AcDbLine
10
30.1875
20
8.05
30
0
11
50.693148
21
8.05
31
0
39
0
210
0
220
0
230
1
0
LINE
5
176
100
AcDbEntity
8
0
62
256
6
ByLayer
370
-2
48
1
60
0
100
AcDbLine
10
48.693148
20
2.55
30
0
11
48.693148
21
-0.95
31
0
39
0
210
0
220
0
230
1
0
LINE
5
177
100
AcDbEntity
8
0
62
256
6
ByLayer
370
-2
48
1
60
0
100
AcDbLine
10
48.693148
20
11.55
30
0
11
48.693148
21
15.05
31
0
39
0
210
0
220
0
230
1
0
SOLID
5
178
100
AcDbEntity
8
0
62
256
6
ByLayer
370
-1
48
1
60
0
100
AcDbTrace
10
49.276481
20
2.55
30
0
11
48.109814
21
2.55
31
0
12
48.693148
22
6.05
32
0
13
48.693148
23
6.05
33
0
39
0
210
0
220
0
230
1
0
SOLID
5
179
100
AcDbEntity
8
0
62
256
6
ByLayer
370
-1
48
1
60
0
100
AcDbTrace
10
48.109814
20
11.55
30
0
11
49.276481
21
11.55
31
0
12
48.693148
22
8.05
32
0
13
48.693148
23
8.05
33
0
39
0
210
0
220
0
230
1
0
MTEXT
5
17A
100
AcDbEntity
8
0
62
256
6
ByLayer
370
18
48
1
60
0
100
AcDbMText
10
41.693148
20
7.05
30
0
210
0
220
0
230
1
1
\A1;2
40
3.5
41
0
44
1
50
90
71
5
72
5
7
iso_b_vert
0
POINT
5
17B
100
AcDbEntity
8
Defpoints
62
0
6
ByLayer
370
-1
48
1
60
0
100
AcDbPoint
10
28.6
20
6.05
30
0
39
0
210
0
220
0
230
1
50
360
0
POINT
5
17C
100
AcDbEntity
8
Defpoints
62
0
6
ByLayer
370
-1
48
1
60
0
100
AcDbPoint
10
28.6
20
8.05
30
0
39
0
210
0
220
0
230
1
50
360
0
POINT
5
17D
100
AcDbEntity
8
Defpoints
62
0
6
ByLayer
370
-1
48
1
60
0
100
AcDbPoint
10
48.693148
20
8.05
30
0
39
0
210
0
220
0
230
1
50
360
0
ENDBLK
5
173
100
AcDbEntity
8
0
100
AcDbBlockEnd
0
BLOCK
5
185
100
AcDbEntity
8
0
100
AcDbBlockBegin
2
_U1
70
0
10
0
20
0
30
0
3
_U1
0
MTEXT
5
17F
100
AcDbEntity
8
2
62
256
6
ByLayer
370
18
48
1
60
0
100
AcDbMText
10
48.003514
20
6.424767
30
0
210
0
220
0
230
1
1
\W0.5404;2
40
3.5
41
0
44
1.084337
50
90
71
7
72
5
7
iso_b_vert
0
LINE
5
180
100
AcDbEntity
8
2
62
256
6
ByLayer
370
13
48
1
60
0
100
AcDbLine
10
30.1875
20
6.05
30
0
11
50.693148
21
6.05
31
0
39
0
210
0
220
0
230
1
0
LINE
5
181
100
AcDbEntity
8
2
62
256
6
ByLayer
370
13
48
1
60
0
100
AcDbLine
10
30.1875
20
8.05
30
0
11
50.693148
21
8.05
31
0
39
0
210
0
220
0
230
1
0
LINE
5
182
100
AcDbEntity
8
2
62
256
6
ByLayer
370
13
48
1
60
0
100
AcDbLine
10
48.693148
20
-2.7
30
0
11
48.693148
21
16.8
31
0
39
0
210
0
220
0
230
1
0
SOLID
5
183
100
AcDbEntity
8
2
62
256
6
ByLayer
370
18
48
1
60
0
100
AcDbTrace
10
48.693148
20
6.05
30
0
11
49.153931
21
2.550002
31
0
12
48.232364
22
2.549998
32
0
13
48.232364
23
2.549998
33
0
39
0
210
0
220
0
230
1
0
SOLID
5
184
100
AcDbEntity
8
2
62
256
6
ByLayer
370
18
48
1
60
0
100
AcDbTrace
10
48.693148
20
8.05
30
0
11
48.232364
21
11.549998
31
0
12
49.153931
22
11.550002
32
0
13
49.153931
23
11.550002
33
0
39
0
210
0
220
0
230
1
0
ENDBLK
5
186
100
AcDbEntity
8
0
100
AcDbBlockEnd
0
BLOCK
5
18B
100
AcDbEntity
8
0
100
AcDbBlockBegin
2
*D5
70
1
10
0
20
0
30
0
3
*D5
0
LINE
5
18D
100
AcDbEntity
8
0
62
256
6
ByLayer
370
-2
48
1
60
0
100
AcDbLine
10
-97.9875
20
-7.95
30
0
11
-110
21
-7.95
31
0
39
0
210
0
220
0
230
1
0
LINE
5
18E
100
AcDbEntity
8
0
62
256
6
ByLayer
370
-2
48
1
60
0
100
AcDbLine
10
-97.9875
20
8.05
30
0
11
-110
21
8.05
31
0
39
0
210
0
220
0
230
1
0
LINE
5
18F
100
AcDbEntity
8
0
62
256
6
ByLayer
370
-2
48
1
60
0
100
AcDbLine
10
-108
20
-11.45
30
0
11
-108
21
-14.95
31
0
39
0
210
0
220
0
230
1
0
LINE
5
190
100
AcDbEntity
8
0
62
256
6
ByLayer
370
-2
48
1
60
0
100
AcDbLine
10
-108
20
11.55
30
0
11
-108
21
15.05
31
0
39
0
210
0
220
0
230
1
0
SOLID
5
191
100
AcDbEntity
8
0
62
256
6
ByLayer
370
-1
48
1
60
0
100
AcDbTrace
10
-107.416667
20
-11.45
30
0
11
-108.583333
21
-11.45
31
0
12
-108
22
-7.95
32
0
13
-108
23
-7.95
33
0
39
0
210
0
220
0
230
1
0
SOLID
5
192
100
AcDbEntity
8
0
62
256
6
ByLayer
370
-1
48
1
60
0
100
AcDbTrace
10
-108.583333
20
11.55
30
0
11
-107.416667
21
11.55
31
0
12
-108
22
8.05
32
0
13
-108
23
8.05
33
0
39
0
210
0
220
0
230
1
0
MTEXT
5
193
100
AcDbEntity
8
0
62
256
6
ByLayer
370
18
48
1
60
0
100
AcDbMText
10
-115
20
0.05
30
0
210
0
220
0
230
1
1
\A1;16
40
3.5
41
0
44
1
50
90
71
5
72
5
7
iso_b_vert
0
POINT
5
194
100
AcDbEntity
8
Defpoints
62
0
6
ByLayer
370
-1
48
1
60
0
100
AcDbPoint
10
-96.4
20
-7.95
30
0
39
0
210
0
220
0
230
1
50
360
0
POINT
5
195
100
AcDbEntity
8
Defpoints
62
0
6
ByLayer
370
-1
48
1
60
0
100
AcDbPoint
10
-96.4
20
8.05
30
0
39
0
210
0
220
0
230
1
50
360
0
POINT
5
196
100
AcDbEntity
8
Defpoints
62
0
6
ByLayer
370
-1
48
1
60
0
100
AcDbPoint
10
-108
20
8.05
30
0
39
0
210
0
220
0
230
1
50
360
0
ENDBLK
5
18C
100
AcDbEntity
8
0
100
AcDbBlockEnd
0
BLOCK
5
19F
100
AcDbEntity
8
0
100
AcDbBlockBegin
2
_U2
70
0
10
0
20
0
30
0
3
_U2
0
MTEXT
5
199
100
AcDbEntity
8
SK2
62
256
6
ByLayer
370
18
48
1
60
0
100
AcDbMText
10
-108.689634
20
-1.445533
30
0
210
0
220
0
230
1
1
\W0.5321;16
40
3.5
41
0
44
1.084337
50
90
71
7
72
5
7
iso_b_vert
0
LINE
5
19A
100
AcDbEntity
8
SK2
62
256
6
ByLayer
370
13
48
1
60
0
100
AcDbLine
10
-97.9875
20
-7.95
30
0
11
-110
21
-7.95
31
0
39
0
210
0
220
0
230
1
0
LINE
5
19B
100
AcDbEntity
8
SK2
62
256
6
ByLayer
370
13
48
1
60
0
100
AcDbLine
10
-97.9875
20
8.05
30
0
11
-110
21
8.05
31
0
39
0
210
0
220
0
230
1
0
LINE
5
19C
100
AcDbEntity
8
SK2
62
256
6
ByLayer
370
13
48
1
60
0
100
AcDbLine
10
-108
20
-7.95
30
0
11
-108
21
8.05
31
0
39
0
210
0
220
0
230
1
0
SOLID
5
19D
100
AcDbEntity
8
SK2
62
256
6
ByLayer
370
18
48
1
60
0
100
AcDbTrace
10
-108
20
-7.95
30
0
11
-108.460784
21
-4.450002
31
0
12
-107.539216
22
-4.449998
32
0
13
-107.539216
23
-4.449998
33
0
39
0
210
0
220
0
230
1
0
SOLID
5
19E
100
AcDbEntity
8
SK2
62
256
6
ByLayer
370
18
48
1
60
0
100
AcDbTrace
10
-108
20
8.05
30
0
11
-107.539216
21
4.550002
31
0
12
-108.460784
22
4.549998
32
0
13
-108.460784
23
4.549998
33
0
39
0
210
0
220
0
230
1
0
ENDBLK
5
1A0
100
AcDbEntity
8
0
100
AcDbBlockEnd
0
BLOCK
5
1A5
100
AcDbEntity
8
0
100
AcDbBlockBegin
2
*D7
70
1
10
0
20
0
30
0
3
*D7
0
LINE
5
1A7
100
AcDbEntity
8
0
62
256
6
ByLayer
370
-2
48
1
60
0
100
AcDbLine
10
11.6
20
4.7125
30
0
11
11.6
21
-21.7
31
0
39
0
210
0
220
0
230
1
0
LINE
5
1A8
100
AcDbEntity
8
0
62
256
6
ByLayer
370
-2
48
1
60
0
100
AcDbLine
10
28.6
20
6.4625
30
0
11
28.6
21
-21.7
31
0
39
0
210
0
220
0
230
1
0
LINE
5
1A9
100
AcDbEntity
8
0
62
256
6
ByLayer
370
-2
48
1
60
0
100
AcDbLine
10
8.1
20
-19.7
30
0
11
4.6
21
-19.7
31
0
39
0
210
0
220
0
230
1
0
LINE
5
1AA
100
AcDbEntity
8
0
62
256
6
ByLayer
370
-2
48
1
60
0
100
AcDbLine
10
32.1
20
-19.7
30
0
11
35.6
21
-19.7
31
0
39
0
210
0
220
0
230
1
0
SOLID
5
1AB
100
AcDbEntity
8
0
62
256
6
ByLayer
370
-1
48
1
60
0
100
AcDbTrace
10
8.1
20
-20.283333
30
0
11
8.1
21
-19.116667
31
0
12
11.6
22
-19.7
32
0
13
11.6
23
-19.7
33
0
39
0
210
0
220
0
230
1
0
SOLID
5
1AC
100
AcDbEntity
8
0
62
256
6
ByLayer
370
-1
48
1
60
0
100
AcDbTrace
10
32.1
20
-19.116667
30
0
11
32.1
21
-20.283333
31
0
12
28.6
22
-19.7
32
0
13
28.6
23
-19.7
33
0
39
0
210
0
220
0
230
1
0
MTEXT
5
1AD
100
AcDbEntity
8
0
62
256
6
ByLayer
370
18
48
1
60
0
100
AcDbMText
10
20.1
20
-12.7
30
0
210
0
220
0
230
1
1
\A1;17
40
3.5
41
0
44
1
50
0
71
5
72
5
7
iso_b_vert
0
POINT
5
1AE
100
AcDbEntity
8
Defpoints
62
0
6
ByLayer
370
-1
48
1
60
0
100
AcDbPoint
10
11.6
20
6.3
30
0
39
0
210
0
220
0
230
1
50
360
0
POINT
5
1AF
100
AcDbEntity
8
Defpoints
62
0
6
ByLayer
370
-1
48
1
60
0
100
AcDbPoint
10
28.6
20
8.05
30
0
39
0
210
0
220
0
230
1
50
360
0
POINT
5
1B0
100
AcDbEntity
8
Defpoints
62
0
6
ByLayer
370
-1
48
1
60
0
100
AcDbPoint
10
28.6
20
-19.7
30
0
39
0
210
0
220
0
230
1
50
360
0
ENDBLK
5
1A6
100
AcDbEntity
8
0
100
AcDbBlockEnd
0
BLOCK
5
1B8
100
AcDbEntity
8
0
100
AcDbBlockBegin
2
_U3
70
0
10
0
20
0
30
0
3
_U3
0
MTEXT
5
1B2
100
AcDbEntity
8
2
62
256
6
ByLayer
370
18
48
1
60
0
100
AcDbMText
10
18.632467
20
-18.667366
30
0
210
0
220
0
230
1
1
\W0.5321;17
40
3.5
41
0
44
1.084337
50
0
71
7
72
5
7
iso_b_vert
0
LINE
5
1B3
100
AcDbEntity
8
2
62
256
6
ByLayer
370
13
48
1
60
0
100
AcDbLine
10
11.6
20
4.7125
30
0
11
11.6
21
-21.7
31
0
39
0
210
0
220
0
230
1
0
LINE
5
1B4
100
AcDbEntity
8
2
62
256
6
ByLayer
370
13
48
1
60
0
100
AcDbLine
10
28.6
20
6.4625
30
0
11
28.6
21
-21.7
31
0
39
0
210
0
220
0
230
1
0
LINE
5
1B5
100
AcDbEntity
8
2
62
256
6
ByLayer
370
13
48
1
60
0
100
AcDbLine
10
11.6
20
-19.7
30
0
11
28.6
21
-19.7
31
0
39
0
210
0
220
0
230
1
0
SOLID
5
1B6
100
AcDbEntity
8
2
62
256
6
ByLayer
370
18
48
1
60
0
100
AcDbTrace
10
11.6
20
-19.7
30
0
11
15.099998
21
-19.239216
31
0
12
15.100002
22
-20.160784
32
0
13
15.100002
23
-20.160784
33
0
39
0
210
0
220
0
230
1
0
SOLID
5
1B7
100
AcDbEntity
8
2
62
256
6
ByLayer
370
18
48
1
60
0
100
AcDbTrace
10
28.6
20
-19.7
30
0
11
25.100002
21
-20.160784
31
0
12
25.099998
22
-19.239216
32
0
13
25.099998
23
-19.239216
33
0
39
0
210
0
220
0
230
1
0
ENDBLK
5
1B9
100
AcDbEntity
8
0
100
AcDbBlockEnd
0
BLOCK
5
1BE
100
AcDbEntity
8
0
100
AcDbBlockBegin
2
*D9
70
1
10
0
20
0
30
0
3
*D9
0
LINE
5
1C0
100
AcDbEntity
8
0
62
256
6
ByLayer
370
-2
48
1
60
0
100
AcDbLine
10
-96.4
20
-9.5375
30
0
11
-96.4
21
-27.7
31
0
39
0
210
0
220
0
230
1
0
LINE
5
1C1
100
AcDbEntity
8
0
62
256
6
ByLayer
370
-2
48
1
60
0
100
AcDbLine
10
28.6
20
6.4625
30
0
11
28.6
21
-27.7
31
0
39
0
210
0
220
0
230
1
0
LINE
5
1C2
100
AcDbEntity
8
0
62
256
6
ByLayer
370
-2
48
1
60
0
100
AcDbLine
10
-92.9
20
-25.7
30
0
11
25.1
21
-25.7
31
0
39
0
210
0
220
0
230
1
0
SOLID
5
1C3
100
AcDbEntity
8
0
62
256
6
ByLayer
370
-1
48
1
60
0
100
AcDbTrace
10
-92.9
20
-25.116667
30
0
11
-92.9
21
-26.283333
31
0
12
-96.4
22
-25.7
32
0
13
-96.4
23
-25.7
33
0
39
0
210
0
220
0
230
1
0
SOLID
5
1C4
100
AcDbEntity
8
0
62
256
6
ByLayer
370
-1
48
1
60
0
100
AcDbTrace
10
25.1
20
-26.283333
30
0
11
25.1
21
-25.116667
31
0
12
28.6
22
-25.7
32
0
13
28.6
23
-25.7
33
0
39
0
210
0
220
0
230
1
0
MTEXT
5
1C5
100
AcDbEntity
8
0
62
256
6
ByLayer
370
18
48
1
60
0
100
AcDbMText
10
-33.9
20
-18.7
30
0
210
0
220
0
230
1
1
\A1;125
40
3.5
41
0
44
1
50
0
71
5
72
5
7
iso_b_vert
0
POINT
5
1C6
100
AcDbEntity
8
Defpoints
62
0
6
ByLayer
370
-1
48
1
60
0
100
AcDbPoint
10
-96.4
20
-7.95
30
0
39
0
210
0
220
0
230
1
50
360
0
POINT
5
1C7
100
AcDbEntity
8
Defpoints
62
0
6
ByLayer
370
-1
48
1
60
0
100
AcDbPoint
10
28.6
20
8.05
30
0
39
0
210
0
220
0
230
1
50
360
0
POINT
5
1C8
100
AcDbEntity
8
Defpoints
62
0
6
ByLayer
370
-1
48
1
60
0
100
AcDbPoint
10
28.6
20
-25.7
30
0
39
0
210
0
220
0
230
1
50
360
0
ENDBLK
5
1BF
100
AcDbEntity
8
0
100
AcDbBlockEnd
0
BLOCK
5
1D0
100
AcDbEntity
8
0
100
AcDbBlockBegin
2
_U4
70
0
10
0
20
0
30
0
3
_U4
0
MTEXT
5
1CA
100
AcDbEntity
8
SK2
62
256
6
ByLayer
370
18
48
1
60
0
100
AcDbMText
10
-36.675266
20
-24.667366
30
0
210
0
220
0
230
1
1
\W0.6217;125
40
3.5
41
0
44
1.084337
50
0
71
7
72
5
7
iso_b_vert
0
LINE
5
1CB
100
AcDbEntity
8
SK2
62
256
6
ByLayer
370
13
48
1
60
0
100
AcDbLine
10
-96.4
20
-9.5375
30
0
11
-96.4
21
-27.7
31
0
39
0
210
0
220
0
230
1
0
LINE
5
1CC
100
AcDbEntity
8
SK2
62
256
6
ByLayer
370
13
48
1
60
0
100
AcDbLine
10
28.6
20
6.4625
30
0
11
28.6
21
-27.7
31
0
39
0
210
0
220
0
230
1
0
LINE
5
1CD
100
AcDbEntity
8
SK2
62
256
6
ByLayer
370
13
48
1
60
0
100
AcDbLine
10
-96.4
20
-25.7
30
0
11
28.6
21
-25.7
31
0
39
0
210
0
220
0
230
1
0
SOLID
5
1CE
100
AcDbEntity
8
SK2
62
256
6
ByLayer
370
18
48
1
60
0
100
AcDbTrace
10
-96.4
20
-25.7
30
0
11
-92.900002
21
-25.239216
31
0
12
-92.899998
22
-26.160784
32
0
13
-92.899998
23
-26.160784
33
0
39
0
210
0
220
0
230
1
0
SOLID
5
1CF
100
AcDbEntity
8
SK2
62
256
6
ByLayer
370
18
48
1
60
0
100
AcDbTrace
10
28.6
20
-25.7
30
0
11
25.100002
21
-26.160784
31
0
12
25.099998
22
-25.239216
32
0
13
25.099998
23
-25.239216
33
0
39
0
210
0
220
0
230
1
0
ENDBLK
5
1D1
100
AcDbEntity
8
0
100
AcDbBlockEnd
0
ENDSEC
0
SECTION
2
ENTITIES
0
ARC
5
EE
100
AcDbEntity
8
1
62
256
6
ByLayer
370
18
48
1
60
0
100
AcDbCircle
39
0
10
11.6
20
5.5
30
0
40
0.799999999999952
210
0
220
0
230
1
100
AcDbArc
50
90
51
180
0
ARC
5
EF
100
AcDbEntity
8
SK1
62
256
6
ByLayer
370
18
48
1
60
0
100
AcDbCircle
39
0
10
-1.6
20
9.4
30
0
40
1.6
210
0
220
0
230
1
100
AcDbArc
50
244.992167
51
270
0
ELLIPSE
5
F0
100
AcDbEntity
8
1
62
256
6
ByLayer
370
18
48
1
60
0
100
AcDbEllipse
10
8.534601
20
-0.825
30
0
11
-3.5633858044891
21
4.36374489729782E-16
31
0
210
0
220
0
230
1
40
0.891007
41
0.982423360466027
42
1.1041164684499
0
ELLIPSE
5
F1
100
AcDbEntity
8
1
62
256
6
ByLayer
370
18
48
1
60
0
100
AcDbEllipse
10
8.693501
20
5.5
30
0
11
1.76215141166822
21
0
31
0
210
0
220
0
230
1
40
0.45399
41
1.57079632679487
42
3.14159265358979
0
ELLIPSE
5
F2
100
AcDbEntity
8
1
62
256
6
ByLayer
370
18
48
1
60
0
100
AcDbEllipse
10
8.534601
20
-0.825
30
0
11
-3.5633858044891
21
4.36374489729782E-16
31
0
210
0
220
0
230
1
40
0.891007
41
-1.1041164684499
42
-0.982423360466028
0
ELLIPSE
5
F3
100
AcDbEntity
8
1
62
256
6
ByLayer
370
18
48
1
60
0
100
AcDbEllipse
10
8.12698
20
-0.825
30
0
11
1.94406258669302E-16
21
3.175
31
0
210
0
220
0
230
1
40
0.891007
41
-1.23723367524156
42
-0.0136493779038164
0
ELLIPSE
5
F4
100
AcDbEntity
8
1
62
256
6
ByLayer
370
18
48
1
60
0
100
AcDbEllipse
10
9.86953
20
-0.825
30
0
11
4.53787995752992
21
0
31
0
210
0
220
0
230
1
40
0.851581
41
2.38911365625786
42
2.64074739764266
0
ELLIPSE
5
F5
100
AcDbEntity
8
1
62
256
6
ByLayer
370
18
48
1
60
0
100
AcDbEllipse
10
9.86953
20
-0.825
30
0
11
4.53787995752992
21
0
31
0
210
0
220
0
230
1
40
0.851581
41
-2.64074739764267
42
-2.38911365625786
0
ELLIPSE
5
F6
100
AcDbEntity
8
1
62
256
6
ByLayer
370
18
48
1
60
0
100
AcDbEllipse
10
8.12698
20
-0.825
30
0
11
1.94406258669302E-16
21
3.175
31
0
210
0
220
0
230
1
40
0.891007
41
-3.12794327568598
42
-1.90435897834823
0
ELLIPSE
5
F7
100
AcDbEntity
8
1
62
256
6
ByLayer
370
18
48
1
60
0
100
AcDbEllipse
10
8.204159
20
-0.825
30
0
11
-5.83218776007907E-16
21
-3.175
31
0
210
0
220
0
230
1
40
0.891007
41
1.97959200338251
42
-2.6749127952448
0
ELLIPSE
5
F8
100
AcDbEntity
8
1
62
256
6
ByLayer
370
18
48
1
60
0
100
AcDbEllipse
10
8.204159
20
-0.825
30
0
11
-5.83218776007907E-16
21
-3.175
31
0
210
0
220
0
230
1
40
0.891007
41
-0.466679858344997
42
1.16200065020728
0
ELLIPSE
5
F9
100
AcDbEntity
8
1
62
256
6
ByLayer
370
18
48
1
60
0
100
AcDbEllipse
10
7.48546
20
-0.825
30
0
11
-2.37016436750552E-16
21
-1.2903
31
0
210
0
220
0
230
1
40
0.891007
41
0.225278208583873
42
0.523598775598293
0
ELLIPSE
5
FA
100
AcDbEntity
8
1
62
256
6
ByLayer
370
18
48
1
60
0
100
AcDbEllipse
10
7.48546
20
-0.825
30
0
11
-2.37016436750552E-16
21
-1.2903
31
0
210
0
220
0
230
1
40
0.891007
41
0.523598775598314
42
1.5707963267949
0
ELLIPSE
5
FB
100
AcDbEntity
8
1
62
256
6
ByLayer
370
18
48
1
60
0
100
AcDbEllipse
10
7.48546
20
-0.825
30
0
11
-2.37016436750552E-16
21
-1.2903
31
0
210
0
220
0
230
1
40
0.891007
41
1.57079632679489
42
2.6179938779915
0
ELLIPSE
5
FC
100
AcDbEntity
8
1
62
256
6
ByLayer
370
18
48
1
60
0
100
AcDbEllipse
10
7.48546
20
-0.825
30
0
11
-2.37016436750552E-16
21
-1.2903
31
0
210
0
220
0
230
1
40
0.891007
41
2.6179938779915
42
2.91358193258532
0
ELLIPSE
5
FD
100
AcDbEntity
8
1
62
256
6
ByLayer
370
18
48
1
60
0
100
AcDbEllipse
10
8.80709
20
-0.825
30
0
11
2.41308682021004E-17
21
0.394100000000497
31
0
210
0
220
0
230
1
40
0.436347
41
0.288932900935359
42
1.5707963267949
0
ELLIPSE
5
FE
100
AcDbEntity
8
1
62
256
6
ByLayer
370
18
48
1
60
0
100
AcDbEllipse
10
8.80709
20
-0.825
30
0
11
2.41308682021004E-17
21
0.394100000000497
31
0
210
0
220
0
230
1
40
0.436347
41
1.5707963267949
42
2.85265975265443
0
ELLIPSE
5
FF
100
AcDbEntity
8
1
62
256
6
ByLayer
370
18
48
1
60
0
100
AcDbEllipse
10
8.630102
20
-1.5667
30
0
11
0.166590173381901
21
0.346346854433053
31
0
210
0
220
0
230
1
40
0.458817
41
-2.28436054737897
42
0.137551892608061
0
ELLIPSE
5
100
100
AcDbEntity
8
1
62
256
6
ByLayer
370
18
48
1
60
0
100
AcDbEllipse
10
8.630102
20
-0.0833
30
0
11
0.166590173381902
21
-0.346346854433052
31
0
210
0
220
0
230
1
40
0.458817
41
-0.13755189260807
42
2.28436054737899
0
ELLIPSE
5
101
100
AcDbEntity
8
1
62
256
6
ByLayer
370
18
48
1
60
0
100
AcDbEllipse
10
8.146275
20
0.459575
30
0
11
0.297314427410136
21
-0.208297956712704
31
0
210
0
220
0
230
1
40
0.514259
41
-2.59418204567202
42
-1.5005342256195
0
ELLIPSE
5
102
100
AcDbEntity
8
1
62
256
6
ByLayer
370
18
48
1
60
0
100
AcDbEllipse
10
8.146275
20
0.459575
30
0
11
0.297314427410357
21
-0.208297956711147
31
0
210
0
220
0
230
1
40
0.514259
41
-1.50053422562736
42
-0.579535660856457
0
ELLIPSE
5
103
100
AcDbEntity
8
1
62
256
6
ByLayer
370
18
48
1
60
0
100
AcDbEllipse
10
8.146275
20
-2.109575
30
0
11
0.297314427411999
21
0.208297956712824
31
0
210
0
220
0
230
1
40
0.514259
41
1.50053422562459
42
2.78239765148246
0
ELLIPSE
5
104
100
AcDbEntity
8
1
62
256
6
ByLayer
370
18
48
1
60
0
100
AcDbEllipse
10
8.146275
20
-2.109575
30
0
11
0.297314427410904
21
0.208297956712228
31
0
210
0
220
0
230
1
40
0.514259
41
0.62205805984925
42
1.50053422562393
0
ELLIPSE
5
105
100
AcDbEntity
8
1
62
256
6
ByLayer
370
18
48
1
60
0
100
AcDbEllipse
10
7.989389
20
-0.825
30
0
11
1.83690953073357E-16
21
3
31
0
210
0
220
0
230
1
40
0.891007
41
1.57079640469429
42
3.14159258717256
0
ELLIPSE
5
106
100
AcDbEntity
8
1
62
256
6
ByLayer
370
18
48
1
60
0
100
AcDbEllipse
10
7.989389
20
-0.825
30
0
11
1.83690953073357E-16
21
3
31
0
210
0
220
0
230
1
40
0.891007
41
0
42
1.57079618971731
0
ELLIPSE
5
107
100
AcDbEntity
8
1
62
256
6
ByLayer
370
18
48
1
60
0
100
AcDbEllipse
10
8.261784
20
-0.825
30
0
11
-3.07939513732175E-16
21
-1.6764
31
0
210
0
220
0
230
1
40
0.891007
41
-1.0471975511966
42
-2.97311325402492E-16
0
ELLIPSE
5
108
100
AcDbEntity
8
1
62
256
6
ByLayer
370
18
48
1
60
0
100
AcDbEllipse
10
8.261784
20
-0.825
30
0
11
-3.07939513732175E-16
21
-1.6764
31
0
210
0
220
0
230
1
40
0.891007
41
-2.09439510239319
42
-1.0471975511966
0
ELLIPSE
5
109
100
AcDbEntity
8
1
62
256
6
ByLayer
370
18
48
1
60
0
100
AcDbEllipse
10
8.261784
20
-0.825
30
0
11
-3.07939513732175E-16
21
-1.6764
31
0
210
0
220
0
230
1
40
0.891007
41
3.14159265358979
42
-2.09439510239319
0
ELLIPSE
5
10A
100
AcDbEntity
8
1
62
256
6
ByLayer
370
18
48
1
60
0
100
AcDbEllipse
10
8.261784
20
-0.825
30
0
11
-3.07939513732175E-16
21
-1.6764
31
0
210
0
220
0
230
1
40
0.891007
41
2.09439510239321
42
3.14159265358979
0
ELLIPSE
5
10B
100
AcDbEntity
8
1
62
256
6
ByLayer
370
18
48
1
60
0
100
AcDbEllipse
10
8.261784
20
-0.825
30
0
11
-3.07939513732175E-16
21
-1.6764
31
0
210
0
220
0
230
1
40
0.891007
41
1.04719755119659
42
2.09439510239321
0
ELLIPSE
5
10C
100
AcDbEntity
8
1
62
256
6
ByLayer
370
18
48
1
60
0
100
AcDbEllipse
10
8.261784
20
-0.825
30
0
11
-3.07939513732175E-16
21
-1.6764
31
0
210
0
220
0
230
1
40
0.891007
41
0
42
1.04719755119659
0
ELLIPSE
5
10D
100
AcDbEntity
8
1
62
256
6
ByLayer
370
18
48
1
60
0
100
AcDbEllipse
10
8.261784
20
-0.825
30
0
11
1.83690953073357E-16
21
3
31
0
210
0
220
0
230
1
40
0.891007
41
0
42
6.28318530717959
0
ELLIPSE
5
10E
100
AcDbEntity
8
1
62
256
6
ByLayer
370
18
48
1
60
0
100
AcDbEllipse
10
11.257635
20
8.65
30
0
11
0.898474163593651
21
1.05252237888058E-15
31
0
210
0
220
0
230
1
40
0.890398
41
-1.84644008771698
42
-1.5707963267949
0
ELLIPSE
5
10F
100
AcDbEntity
8
1
62
256
6
ByLayer
370
18
48
1
60
0
100
AcDbEllipse
10
25.917302
20
8.65
30
0
11
0.918716977461907
21
1.07623593178079E-15
31
0
210
0
220
0
230
1
40
0.87078
41
-1.5707963267949
42
-1.29515256583318
0
ELLIPSE
5
110
100
AcDbEntity
8
1
62
256
6
ByLayer
370
18
48
1
60
0
100
AcDbEllipse
10
24.579327
20
7.483936
30
0
11
0.950103706731652
21
1.11300408416053E-15
31
0
210
0
220
0
230
1
40
0.210503
41
-2.80561677258129
42
-1.9871782510836
0
ELLIPSE
5
111
100
AcDbEntity
8
1
62
256
6
ByLayer
370
18
48
1
60
0
100
AcDbEllipse
10
28.037788
20
9.130141
30
0
11
9.50103705903564
21
1.11300408319047E-14
31
0
210
0
220
0
230
1
40
0.210503
41
-1.98717825136911
42
-1.91986217741318
0
ELLIPSE
5
112
100
AcDbEntity
8
1
62
256
6
ByLayer
370
18
48
1
60
0
100
AcDbEllipse
10
24.49168
20
7.05
30
0
11
0.997608892069776
21
1.16865428837037E-15
31
0
210
0
220
0
230
1
40
0.210503
41
0
42
1.22173047639579
0
ELLIPSE
5
113
100
AcDbEntity
8
1
62
256
6
ByLayer
370
18
48
1
60
0
100
AcDbEllipse
10
24.49168
20
7.05
30
0
11
0.997608892069776
21
1.16865428837037E-15
31
0
210
0
220
0
230
1
40
0.210503
41
-1.22173047639579
42
0
0
ELLIPSE
5
114
100
AcDbEntity
8
1
62
256
6
ByLayer
370
18
48
1
60
0
100
AcDbEllipse
10
28.037788
20
4.969859
30
0
11
9.5010370643796
21
1.11300408381649E-14
31
0
210
0
220
0
230
1
40
0.210503
41
1.91986217728527
42
1.9871782511993
0
ELLIPSE
5
115
100
AcDbEntity
8
1
62
256
6
ByLayer
370
18
48
1
60
0
100
AcDbEllipse
10
24.579327
20
6.616064
30
0
11
0.950103706727805
21
1.11300408415603E-15
31
0
210
0
220
0
230
1
40
0.210503
41
1.98717825108209
42
2.80561677258317
0
ELLIPSE
5
116
100
AcDbEntity
8
1
62
256
6
ByLayer
370
18
48
1
60
0
100
AcDbEllipse
10
23.927094
20
6.374562
30
0
11
0.712577780401569
21
8.34753063533726E-16
31
0
210
0
220
0
230
1
40
0.210503
41
2.80561677266515
42
3.14159265358979
0
ELLIPSE
5
117
100
AcDbEntity
8
1
62
256
6
ByLayer
370
18
48
1
60
0
100
AcDbEllipse
10
25.917302
20
5.45
30
0
11
0.918716977490172
21
1.0762359318139E-15
31
0
210
0
220
0
230
1
40
0.87078
41
1.29515256584166
42
1.5707963267949
0
ELLIPSE
5
118
100
AcDbEntity
8
1
62
256
6
ByLayer
370
18
48
1
60
0
100
AcDbEllipse
10
24.933332
20
7.6
30
0
11
7.85307604188964E-18
21
0.128254700253314
31
0
210
0
220
0
230
1
40
0.987688
41
0
42
6.28318530717959
0
ELLIPSE
5
119
100
AcDbEntity
8
1
62
256
6
ByLayer
370
18
48
1
60
0
100
AcDbEllipse
10
23.927094
20
7.725438
30
0
11
0.712577780419619
21
8.34753063554871E-16
31
0
210
0
220
0
230
1
40
0.210503
41
3.14159265358979
42
-2.80561677266948
0
POINT
5
70
100
AcDbEntity
8
81
62
256
6
ByLayer
370
18
48
1
60
0
100
AcDbPoint
10
28.6
20
8.05
30
0
39
0
210
0
220
0
230
1
50
360
0
POINT
5
72
100
AcDbEntity
8
80
62
256
6
ByLayer
370
18
48
1
60
0
100
AcDbPoint
10
0
20
0
30
0
39
0
210
0
220
0
230
1
50
360
0
POINT
5
74
100
AcDbEntity
8
1
62
256
6
ByLayer
370
18
48
1
60
1
100
AcDbPoint
10
28.6
20
8.05
30
0
39
0
210
0
220
0
230
1
50
360
0
POINT
5
76
100
AcDbEntity
8
1
62
256
6
ByLayer
370
18
48
1
60
1
100
AcDbPoint
10
-96.4
20
-7.95
30
0
39
0
210
0
220
0
230
1
50
360
0
POINT
5
77
100
AcDbEntity
8
1
62
256
6
ByLayer
370
18
48
1
60
1
100
AcDbPoint
10
28.6
20
6.05
30
0
39
0
210
0
220
0
230
1
50
360
0
POINT
5
78
100
AcDbEntity
8
1
62
256
6
ByLayer
370
18
48
1
60
1
100
AcDbPoint
10
28.6
20
8.05
30
0
39
0
210
0
220
0
230
1
50
360
0
POINT
5
79
100
AcDbEntity
8
1
62
256
6
ByLayer
370
18
48
1
60
1
100
AcDbPoint
10
-96.4
20
-7.95
30
0
39
0
210
0
220
0
230
1
50
360
0
POINT
5
7A
100
AcDbEntity
8
1
62
256
6
ByLayer
370
18
48
1
60
1
100
AcDbPoint
10
-96.4
20
8.05
30
0
39
0
210
0
220
0
230
1
50
360
0
POINT
5
7B
100
AcDbEntity
8
1
62
256
6
ByLayer
370
18
48
1
60
1
100
AcDbPoint
10
11.6
20
6.3
30
0
39
0
210
0
220
0
230
1
50
360
0
POINT
5
7C
100
AcDbEntity
8
1
62
256
6
ByLayer
370
18
48
1
60
1
100
AcDbPoint
10
28.6
20
8.05
30
0
39
0
210
0
220
0
230
1
50
360
0
POINT
5
7D
100
AcDbEntity
8
1
62
256
6
ByLayer
370
18
48
1
60
1
100
AcDbPoint
10
-96.4
20
-7.95
30
0
39
0
210
0
220
0
230
1
50
360
0
POINT
5
7E
100
AcDbEntity
8
1
62
256
6
ByLayer
370
18
48
1
60
1
100
AcDbPoint
10
28.6
20
8.05
30
0
39
0
210
0
220
0
230
1
50
360
0
SPLINE
5
11A
100
AcDbEntity
8
1
62
256
6
ByLayer
370
18
48
1
60
0
100
AcDbSpline
70
4
71
3
72
8
73
4
40
0
40
0
40
0
40
0
40
1
40
1
40
1
40
1
41
1
10
10.7999999999999
20
0.214531144314577
30
0
41
1
10
10.7999999999999
20
0.17158363902908
30
0
41
1
10
10.7999999999999
20
0.128425110227937
30
0
41
1
10
10.7999999999999
20
0.0850481443145839
30
0
0
SPLINE
5
11B
100
AcDbEntity
8
1
62
256
6
ByLayer
370
18
48
1
60
0
100
AcDbSpline
70
4
71
3
72
8
73
4
40
0
40
0
40
0
40
0
40
1
40
1
40
1
40
1
41
1
10
10.7999999999999
20
-1.73995914430654
30
0
41
1
10
10.7999999999999
20
-1.78184688132032
30
0
41
1
10
10.7999999999999
20
-1.82336404397301
30
0
41
1
10
10.7999999999999
20
-1.86453114431458
30
0
0
SPLINE
5
11C
100
AcDbEntity
8
1
62
256
6
ByLayer
370
18
48
1
60
0
100
AcDbSpline
70
4
71
3
72
12
73
8
40
0
40
0
40
0
40
0
40
0.500000000000002
40
0.500000000000002
40
0.750000000000001
40
0.750000000000001
40
1
40
1
40
1
40
1
41
1
10
22.0556881129212
20
6.79999999999697
30
0
41
1
10
22.0228555530818
20
6.71513323404497
30
0
41
1
10
21.9891118107747
20
6.63070301290608
30
0
41
1
10
21.9362590374969
20
6.50534815694837
30
0
41
1
10
21.9182710637818
20
6.46380017489633
30
0
41
1
10
21.8812863879334
20
6.38134959287046
30
0
41
1
10
21.8622934171862
20
6.34044460556441
30
0
41
1
10
21.8425808724661
20
6.29999999999996
30
0
0
SPLINE
5
11D
100
AcDbEntity
8
1
62
256
6
ByLayer
370
18
48
1
60
0
100
AcDbSpline
70
4
71
3
72
8
73
4
40
0
40
0
40
0
40
0
40
1
40
1
40
1
40
1
41
1
10
22.218124670417
20
6.8621010091006
30
0
41
1
10
22.1641954671001
20
6.84066762087741
30
0
41
1
10
22.1100883116382
20
6.81983727746521
30
0
41
1
10
22.0556881129198
20
6.79999999999961
30
0
0
SPLINE
5
11E
100
AcDbEntity
8
1
62
256
6
ByLayer
370
18
48
1
60
0
100
AcDbSpline
70
4
71
3
72
20
73
16
40
0
40
0
40
0
40
0
40
0.125000000000019
40
0.125000000000019
40
0.250000000000039
40
0.250000000000039
40
0.375000000000058
40
0.375000000000058
40
0.500000000000077
40
0.500000000000077
40
0.625000000000097
40
0.625000000000097
40
0.750000000000116
40
0.750000000000116
40
1
40
1
40
1
40
1
41
1
10
22.311865479143
20
7.00118103894764
30
0
41
1
10
22.3118654791431
20
6.99319594473775
30
0
41
1
10
22.3112424896879
20
6.98533887691218
30
0
41
1
10
22.3088182782481
20
6.96986687192546
30
0
41
1
10
22.3070044140292
20
6.96221469569352
30
0
41
1
10
22.3022254729563
20
6.94731998449853
30
0
41
1
10
22.2993119882643
20
6.9402162065868
30
0
41
1
10
22.2925178783762
20
6.92664277083929
30
0
41
1
10
22.2886061771774
20
6.92013232634247
30
0
41
1
10
22.2799693779054
20
6.90793970006303
30
0
41
1
10
22.2752865153934
20
6.90230131741282
30
0
41
1
10
22.2652539509916
20
6.89186240447759
30
0
41
1
10
22.2598711264944
20
6.88703823016294
30
0
41
1
10
22.2429851640982
20
6.8739678830743
30
0
41
1
10
22.2309137812962
20
6.86718385775478
30
0
41
1
10
22.218124670417
20
6.8621010091006
30
0
0
SPLINE
5
11F
100
AcDbEntity
8
1
62
256
6
ByLayer
370
18
48
1
60
0
100
AcDbSpline
70
4
71
3
72
20
73
16
40
0
40
0
40
0
40
0
40
0.250000000000098
40
0.250000000000098
40
0.375000000000082
40
0.375000000000082
40
0.500000000000066
40
0.500000000000066
40
0.625000000000049
40
0.625000000000049
40
0.750000000000033
40
0.750000000000033
40
0.875000000000016
40
0.875000000000016
40
1
40
1
40
1
40
1
41
1
10
22.2181246704175
20
7.23789899089931
30
0
41
1
10
22.2309328296014
20
7.23280857176957
30
0
41
1
10
22.2429898027917
20
7.22602320941655
30
0
41
1
10
22.2598170774563
20
7.21300625200675
30
0
41
1
10
22.265244654852
20
7.20814677055881
30
0
41
1
10
22.275286106855
20
7.19769960481628
30
0
41
1
10
22.2799400079967
20
7.19208991232756
30
0
41
1
10
22.2884780033375
20
7.18006025003066
30
0
41
1
10
22.2923628988542
20
7.17364112366701
30
0
41
1
10
22.2992692955813
20
7.15989408617133
30
0
41
1
10
22.3021942171541
20
7.15274786986734
30
0
41
1
10
22.306928839245
20
7.13804975223641
30
0
41
1
10
22.3087501529877
20
7.13047606206916
30
0
41
1
10
22.3112269577538
20
7.1148490450548
30
0
41
1
10
22.3118654791463
20
7.10682979241602
30
0
41
1
10
22.3118654791463
20
7.09881896105273
30
0
0
SPLINE
5
120
100
AcDbEntity
8
1
62
256
6
ByLayer
370
18
48
1
60
0
100
AcDbSpline
70
4
71
3
72
8
73
4
40
0
40
0
40
0
40
0
40
1
40
1
40
1
40
1
41
1
10
22.0556881129211
20
7.30000000000004
30
0
41
1
10
22.1100807377119
20
7.28016548440121
30
0
41
1
10
22.1641890881281
20
7.25933491435362
30
0
41
1
10
22.2181246704175
20
7.23789899089931
30
0
0
SPLINE
5
121
100
AcDbEntity
8
1
62
256
6
ByLayer
370
18
48
1
60
0
100
AcDbSpline
70
4
71
3
72
12
73
8
40
0
40
0
40
0
40
0
40
0.250000000000007
40
0.250000000000007
40
0.500000000000006
40
0.500000000000006
40
1
40
1
40
1
40
1
41
1
10
21.8425808724656
20
7.8000000000001
30
0
41
1
10
21.8623272572522
20
7.7594859641232
30
0
41
1
10
21.8813354692123
20
7.71854382109947
30
0
41
1
10
21.9183295424946
20
7.6360666175141
30
0
41
1
10
21.9363114347052
20
7.59452925504576
30
0
41
1
10
21.9891255871195
20
7.46926093432108
30
0
41
1
10
22.0228479921174
20
7.38488630980041
30
0
41
1
10
22.055688112921
20
7.30000000000004
30
0
0
SPLINE
5
122
100
AcDbEntity
8
1
62
256
6
ByLayer
370
18
48
1
60
0
100
AcDbSpline
70
4
71
3
72
8
73
4
40
0
40
0
40
0
40
0
40
1
40
1
40
1
40
1
41
1
10
11.9130591751627
20
6.07275485892728
30
0
41
1
10
11.9165449423468
20
6.0558041399739
30
0
41
1
10
11.9200102930884
20
6.03709444417399
30
0
41
1
10
11.9234475927075
20
6.01596800631214
30
0
0
SPLINE
5
123
100
AcDbEntity
8
1
62
256
6
ByLayer
370
18
48
1
60
0
100
AcDbSpline
70
4
71
3
72
31
73
27
40
0
40
0
40
0
40
0
40
0.16376997715747
40
0.16376997715747
40
0.204712471446834
40
0.204712471446834
40
0.245654965736198
40
0.245654965736198
40
0.327539954314919
40
0.40942494289364
40
0.40942494289364
40
0.450367437183
40
0.450367437183
40
0.491309931472361
40
0.491309931472361
40
0.655079908629835
40
0.655079908629835
40
0.696022402919184
40
0.696022402919184
40
0.736964897208534
40
0.736964897208534
40
0.818849885787232
40
0.818849885787232
40
0.982619862944599
40
0.982619862944599
40
1
40
1
40
1
40
1
41
1
10
20.2543466826877
20
5.50000000000009
30
0
41
1
10
20.2543466826878
20
5.55755127533496
30
0
41
1
10
20.2604837484622
20
5.61383960387548
30
0
41
1
10
20.2753642575563
20
5.68271561152687
30
0
41
1
10
20.2787048673197
20
5.69641575331363
30
0
41
1
10
20.2861192834524
20
5.72366501058787
30
0
41
1
10
20.2902088434939
20
5.73725896882272
30
0
41
1
10
20.3034494657296
20
5.77739356853181
30
0
41
1
10
20.3236740253754
20
5.82922985028685
30
0
41
1
10
20.3487135345686
20
5.87792244064377
30
0
41
1
10
20.3692411271443
20
5.91329923237328
30
0
41
1
10
20.3763756012701
20
5.92490065043214
30
0
41
1
10
20.3912258379955
20
5.94772323516978
30
0
41
1
10
20.3989370119353
20
5.95893314576747
30
0
41
1
10
20.4384943909217
20
6.0134485909243
30
0
41
1
10
20.4736289724901
20
6.05270145835431
30
0
41
1
10
20.5214752233628
20
6.09683959771431
30
0
41
1
10
20.5312429712333
20
6.10541821308402
30
0
41
1
10
20.5511724513892
20
6.12208070105771
30
0
41
1
10
20.5613172280262
20
6.13014848267471
30
0
41
1
10
20.5920590962812
20
6.15341472357042
30
0
41
1
10
20.6130450459998
20
6.1677482599618
30
0
41
1
10
20.6773884417338
20
6.20741923742449
30
0
41
1
10
20.7221334962824
20
6.22945915722011
30
0
41
1
10
20.7735459705333
20
6.24911871499936
30
0
41
1
10
20.7784854816096
20
6.25095205942293
30
0
41
1
10
20.7834317587101
20
6.25273298040838
30
0
0
SPLINE
5
124
100
AcDbEntity
8
1
62
256
6
ByLayer
370
18
48
1
60
0
100
AcDbSpline
70
4
71
3
72
8
73
4
40
0
40
0
40
0
40
0
40
1
40
1
40
1
40
1
41
1
10
11.9234475927149
20
6.01596800632186
30
0
41
1
10
11.9247045893201
20
6.00824221467812
30
0
41
1
10
11.9252708661504
20
5.99957165936641
30
0
41
1
10
11.9252268066151
20
5.98985519032132
30
0
0
SPLINE
5
125
100
AcDbEntity
8
1
62
256
6
ByLayer
370
18
48
1
60
0
100
AcDbSpline
70
4
71
3
72
24
73
20
40
0
40
0
40
0
40
0
40
0.0294458450595419
40
0.0294458450595419
40
0.117678040963212
40
0.117678040963212
40
0.29414243277056
40
0.29414243277056
40
0.382374628674239
40
0.382374628674239
40
0.470606824577919
40
0.470606824577919
40
0.647071216385272
40
0.647071216385272
40
0.73530341228895
40
0.73530341228895
40
0.823535608192629
40
0.823535608192629
40
1
40
1
40
1
40
1
41
1
10
11.9195225230111
20
5.92626732988356
30
0
41
1
10
11.9191282655825
20
5.92347130647437
30
0
41
1
10
11.9187168586452
20
5.92062802004872
30
0
41
1
10
11.9170106827893
20
5.90909145236893
30
0
41
1
10
11.915594047258
20
5.90005676986689
30
0
41
1
10
11.911031303142
20
5.87175251035282
30
0
41
1
10
11.9075717089967
20
5.85128860569847
30
0
41
1
10
11.902154049904
20
5.81793155705464
30
0
41
1
10
11.9003102025808
20
5.80636772231128
30
0
41
1
10
11.896616229327
20
5.78228397783667
30
0
41
1
10
11.8947634836738
20
5.76973629002117
30
0
41
1
10
11.8894284933614
20
5.73145648663424
30
0
41
1
10
11.8861297322289
20
5.70482996276596
30
0
41
1
10
11.881928066165
20
5.66319118288507
30
0
41
1
10
11.8806513125884
20
5.64902730769495
30
0
41
1
10
11.8784009313583
20
5.62010789234347
30
0
41
1
10
11.8774241133425
20
5.60527744903678
30
0
41
1
10
11.87506549381
20
5.56058625904905
30
0
41
1
10
11.874244079832
20
5.53046143862238
30
0
41
1
10
11.8742440798319
20
5.50000000000099
30
0
0
SPLINE
5
126
100
AcDbEntity
8
1
62
256
6
ByLayer
370
18
48
1
60
0
100
AcDbSpline
70
4
71
3
72
15
73
11
40
0
40
0
40
0
40
0
40
0.116633354543563
40
0.116633354543563
40
0.558316677271778
40
0.558316677271778
40
0.668737507953855
40
0.668737507953855
40
0.779158338635932
40
1
40
1
40
1
40
1
41
1
10
12.2011732401073
20
6.25656423509318
30
0
41
1
10
12.1883355633224
20
6.25213405724881
30
0
41
1
10
12.1756736144275
20
6.24738126775071
30
0
41
1
10
12.1158948614333
20
6.22310029078341
30
0
41
1
10
12.0710818210673
20
6.19934271759954
30
0
41
1
10
12.0183172593012
20
6.16367601691013
30
0
41
1
10
12.0079055739733
20
6.15622276855174
30
0
41
1
10
11.9876110695823
20
6.14084507855611
30
0
41
1
10
11.9579114871182
20
6.11704159609241
30
0
41
1
10
11.9304116618482
20
6.09105384790138
30
0
41
1
10
11.9130591751629
20
6.07275485892728
30
0
0
SPLINE
5
127
100
AcDbEntity
8
1
62
256
6
ByLayer
370
18
48
1
60
0
100
AcDbSpline
70
4
71
3
72
40
73
36
40
0
40
0
40
0
40
0
40
0.062499999999996
40
0.062499999999996
40
0.0937499999999951
40
0.0937499999999951
40
0.124999999999994
40
0.124999999999994
40
0.187499999999993
40
0.187499999999993
40
0.249999999999993
40
0.249999999999993
40
0.312499999999992
40
0.312499999999992
40
0.374999999999991
40
0.374999999999991
40
0.43749999999999
40
0.43749999999999
40
0.49999999999999
40
0.49999999999999
40
0.624999999999985
40
0.624999999999985
40
0.687499999999987
40
0.687499999999987
40
0.749999999999989
40
0.749999999999989
40
0.812499999999992
40
0.812499999999992
40
0.874999999999994
40
0.874999999999994
40
0.906249999999996
40
0.906249999999996
40
0.937499999999999
40
0.937499999999999
40
1
40
1
40
1
40
1
41
1
10
9.48226106239844
20
-0.44723604827621
30
0
41
1
10
9.46607775444505
20
-0.455524825650571
30
0
41
1
10
9.45159378549403
20
-0.466089690123596
30
0
41
1
10
9.43157918469359
20
-0.48424204464709
30
0
41
1
10
9.42520662063924
20
-0.490690740732987
30
0
41
1
10
9.41314784587337
20
-0.504088880526666
30
0
41
1
10
9.40743497112186
20
-0.51106230298268
30
0
41
1
10
9.39112457517274
20
-0.532704155012482
30
0
41
1
10
9.38146014038233
20
-0.547934687135779
30
0
41
1
10
9.36410703114069
20
-0.579599259763199
30
0
41
1
10
9.35645125229757
20
-0.595995572335994
30
0
41
1
10
9.34300397779151
20
-0.629485545084322
30
0
41
1
10
9.33718023458573
20
-0.646673238351241
30
0
41
1
10
9.3272930929439
20
-0.681459492959135
30
0
41
1
10
9.32321990103219
20
-0.699071006351261
30
0
41
1
10
9.31670803732095
20
-0.734708223985081
30
0
41
1
10
9.31427733239755
20
-0.752724538958205
30
0
41
1
10
9.31105075335716
20
-0.78879915208222
30
0
41
1
10
9.31024589580358
20
-0.806903461754786
30
0
41
1
10
9.31025245887002
20
-0.861413852963238
30
0
41
1
10
9.31344423049612
20
-0.897426847907752
30
0
41
1
10
9.32322133316086
20
-0.950938441712424
30
0
41
1
10
9.32730719884376
20
-0.968594791264593
30
0
41
1
10
9.33718710006076
20
-1.00334625180813
30
0
41
1
10
9.34300111239457
20
-1.02051053635339
30
0
41
1
10
9.35647828535747
20
-1.0540685291806
30
0
41
1
10
9.3641443203415
20
-1.07047608071758
30
0
41
1
10
9.38150094168373
20
-1.10213243280279
30
0
41
1
10
9.39120832978534
20
-1.11741640885902
30
0
41
1
10
9.40748816079324
20
-1.13900351561563
30
0
41
1
10
9.41319529724859
20
-1.14596723399706
30
0
41
1
10
9.42525710711726
20
-1.15936193286663
30
0
41
1
10
9.43163364628248
20
-1.16581001508979
30
0
41
1
10
9.45160552610179
20
-1.18391560286983
30
0
41
1
10
9.46606983535759
20
-1.194471118346
30
0
41
1
10
9.48226106239844
20
-1.20276395172382
30
0
0
SPLINE
5
128
100
AcDbEntity
8
1
62
256
6
ByLayer
370
18
48
1
60
0
100
AcDbSpline
70
4
71
3
72
8
73
4
40
0
40
0
40
0
40
0
40
1
40
1
40
1
40
1
41
1
10
9.48226106239844
20
-1.20276395172385
30
0
41
1
10
9.4890173714864
20
-1.20622440258245
30
0
41
1
10
9.49577373225054
20
-1.20968439430146
30
0
41
1
10
9.50253014159082
20
-1.21314394410842
30
0
0
SPLINE
5
129
100
AcDbEntity
8
1
62
256
6
ByLayer
370
18
48
1
60
0
100
AcDbSpline
70
4
71
3
72
8
73
4
40
0
40
0
40
0
40
0
40
1
40
1
40
1
40
1
41
1
10
9.50253014159082
20
-0.43685605589161
30
0
41
1
10
9.49577373225054
20
-0.440315605698572
30
0
41
1
10
9.4890173714864
20
-0.443775597417584
30
0
41
1
10
9.48226106239844
20
-0.44723604827621
30
0
0
SPLINE
5
12A
100
AcDbEntity
8
1
62
256
6
ByLayer
370
18
48
1
60
0
100
AcDbSpline
70
4
71
3
72
31
73
27
40
0
40
0
40
0
40
0
40
0.25000000000004
40
0.25000000000004
40
0.375000000000049
40
0.375000000000049
40
0.500000000000058
40
0.500000000000058
40
0.562500000000066
40
0.562500000000066
40
0.625000000000075
40
0.625000000000075
40
0.687500000000083
40
0.687500000000083
40
0.750000000000091
40
0.750000000000091
40
0.781250000000096
40
0.781250000000096
40
0.8125000000001
40
0.843750000000104
40
0.843750000000104
40
0.875000000000108
40
0.875000000000108
40
0.937500000000054
40
0.937500000000054
40
1
40
1
40
1
40
1
41
1
10
9.55535134060898
20
-1.66320000000002
30
0
41
1
10
9.57505356005834
20
-1.62490034204942
30
0
41
1
10
9.59159729387369
20
-1.58464411795344
30
0
41
1
10
9.61029978636685
20
-1.52233075207181
30
0
41
1
10
9.61551276288546
20
-1.50120206392472
30
0
41
1
10
9.62337501571375
20
-1.45843616080319
30
0
41
1
10
9.6260367191955
20
-1.43677575035747
30
0
41
1
10
9.62743706295453
20
-1.4041117884511
30
0
41
1
10
9.62746755193996
20
-1.39317388340885
30
0
41
1
10
9.62647719404205
20
-1.37137788938583
30
0
41
1
10
9.62545109325879
20
-1.36045109862423
30
0
41
1
10
9.622129282711
20
-1.33891795477115
30
0
41
1
10
9.61984458867011
20
-1.3283365668585
30
0
41
1
10
9.61374254297743
20
-1.30763544377078
30
0
41
1
10
9.60993039481397
20
-1.2975140775147
30
0
41
1
10
9.60269711350492
20
-1.28279430977599
30
0
41
1
10
9.60001023551149
20
-1.27793388542162
30
0
41
1
10
9.59414905415059
20
-1.26858705925258
30
0
41
1
10
9.58781218892904
20
-1.2596159723646
30
0
41
1
10
9.58044374091477
20
-1.25146177673628
30
0
41
1
10
9.57250587163165
20
-1.24375947327016
30
0
41
1
10
9.56824312669019
20
-1.24013694592733
30
0
41
1
10
9.55495492212526
20
-1.23032085487856
30
0
41
1
10
9.5453141158165
20
-1.22504738976883
30
0
41
1
10
9.52446224665533
20
-1.21705646686718
30
0
41
1
10
9.51363930473963
20
-1.21448733193643
30
0
41
1
10
9.50253014159082
20
-1.21314394410842
30
0
0
SPLINE
5
12B
100
AcDbEntity
8
1
62
256
6
ByLayer
370
18
48
1
60
0
100
AcDbSpline
70
4
71
3
72
32
73
28
40
0
40
0
40
0
40
0
40
0.124999999999983
40
0.124999999999983
40
0.249999999999966
40
0.249999999999966
40
0.374999999999948
40
0.374999999999948
40
0.499999999999931
40
0.499999999999931
40
0.562499999999922
40
0.562499999999922
40
0.624999999999914
40
0.624999999999914
40
0.687499999999905
40
0.687499999999905
40
0.749999999999896
40
0.749999999999896
40
0.812499999999888
40
0.812499999999888
40
0.843749999999906
40
0.843749999999906
40
0.874999999999925
40
0.874999999999925
40
0.937499999999963
40
0.937499999999963
40
1
40
1
40
1
40
1
41
1
10
9.55535134060898
20
0.0131999999999834
30
0
41
1
10
9.56520926801835
20
-0.0059630820502434
30
0
41
1
10
9.57423235648434
20
-0.0255539657292445
30
0
41
1
10
9.59054100333003
20
-0.0656216765966917
30
0
41
1
10
9.59781811120365
20
-0.0860848282830489
30
0
41
1
10
9.61030183932155
20
-0.127673796535504
30
0
41
1
10
9.61551411862493
20
-0.148797777558883
30
0
41
1
10
9.62338583776722
20
-0.191630249206668
30
0
41
1
10
9.62604374747264
20
-0.213269733632842
30
0
41
1
10
9.6274396022971
20
-0.246007056118373
30
0
41
1
10
9.62746618901832
20
-0.256910558117028
30
0
41
1
10
9.62647155682254
20
-0.278691344116481
30
0
41
1
10
9.62544550103289
20
-0.289609967045493
30
0
41
1
10
9.62210584118793
20
-0.311208969633185
30
0
41
1
10
9.61980578690839
20
-0.321839455948719
30
0
41
1
10
9.61363815993533
20
-0.342673241944681
30
0
41
1
10
9.60976055293588
20
-0.352910296276235
30
0
41
1
10
9.59997174583879
20
-0.372669080150274
30
0
41
1
10
9.59417344917907
20
-0.381968581138523
30
0
41
1
10
9.58380154270372
20
-0.394837092752795
30
0
41
1
10
9.58004904456965
20
-0.398951692721141
30
0
41
1
10
9.57213678632323
20
-0.406565075120057
30
0
41
1
10
9.5679564340299
20
-0.410092919782841
30
0
41
1
10
9.55472223603141
20
-0.419813158656098
30
0
41
1
10
9.54481103931786
20
-0.425178631183513
30
0
41
1
10
9.52428721835511
20
-0.432976260542972
30
0
41
1
10
9.51359800868187
20
-0.435517661835007
30
0
41
1
10
9.50253014159082
20
-0.43685605589161
30
0
0
SPLINE
5
12C
100
AcDbEntity
8
1
62
256
6
ByLayer
370
18
48
1
60
0
100
AcDbSpline
70
4
71
3
72
42
73
38
40
0
40
0
40
0
40
0
40
0.0624999999999757
40
0.0624999999999757
40
0.0937499999999667
40
0.0937499999999667
40
0.124999999999958
40
0.124999999999958
40
0.187499999999948
40
0.187499999999948
40
0.249999999999939
40
0.249999999999939
40
0.312499999999929
40
0.312499999999929
40
0.37499999999992
40
0.37499999999992
40
0.43749999999991
40
0.43749999999991
40
0.4999999999999
40
0.4999999999999
40
0.562499999999891
40
0.562499999999891
40
0.624999999999881
40
0.624999999999881
40
0.749999999999862
40
0.749999999999862
40
0.781249999999867
40
0.781249999999867
40
0.812499999999872
40
0.812499999999872
40
0.874999999999882
40
0.874999999999882
40
0.906249999999911
40
0.906249999999911
40
0.937499999999941
40
0.937499999999941
40
1
40
1
40
1
40
1
41
1
10
8.55444930401734
20
-2.25083350996675
30
0
41
1
10
8.55074183653142
20
-2.23484653166744
30
0
41
1
10
8.5497764250776
20
-2.21911978356508
30
0
41
1
10
8.55111361538553
20
-2.19575658685508
30
0
41
1
10
8.55204229129384
20
-2.18801119303438
30
0
41
1
10
8.55470127787922
20
-2.17279980101608
30
0
41
1
10
8.55643322755327
20
-2.16530277394952
30
0
41
1
10
8.56269000826296
20
-2.14308458059114
30
0
41
1
10
8.56821979300418
20
-2.12878975753446
30
0
41
1
10
8.5814430751301
20
-2.10104530971182
30
0
41
1
10
8.58912747939621
20
-2.08763979616029
30
0
41
1
10
8.60622477624889
20
-2.06179651464544
30
0
41
1
10
8.615688909467
20
-2.04929075690757
30
0
41
1
10
8.63607501679178
20
-2.02528317408905
30
0
41
1
10
8.64700125762869
20
-2.01376743862562
30
0
41
1
10
8.67024707062319
20
-1.99162564270131
30
0
41
1
10
8.68256326216334
20
-1.98101083809402
30
0
41
1
10
8.70830970516056
20
-1.96084148687015
30
0
41
1
10
8.72177107082632
20
-1.95125712436229
30
0
41
1
10
8.74985997070479
20
-1.93308974058996
30
0
41
1
10
8.76439052424729
20
-1.92456920227616
30
0
41
1
10
8.79442452538964
20
-1.90866341868357
30
0
41
1
10
8.80998670500338
20
-1.9012555136965
30
0
41
1
10
8.8576018577387
20
-1.8810882593209
30
0
41
1
10
8.89061702844339
20
-1.87026753279204
30
0
41
1
10
8.93368453913132
20
-1.86072458160191
30
0
41
1
10
8.94238988102742
20
-1.85902004560032
30
0
41
1
10
8.95999950787188
20
-1.85606239684037
30
0
41
1
10
8.96892244126309
20
-1.85480853403956
30
0
41
1
10
8.995670677757
20
-1.85184652308592
30
0
41
1
10
9.01357140149975
20
-1.85090417376119
30
0
41
1
10
9.04053855059345
20
-1.85143420474327
30
0
41
1
10
9.04954708413911
20
-1.85193749257777
30
0
41
1
10
9.06760816770526
20
-1.85371877639491
30
0
41
1
10
9.07669967230203
20
-1.85500675723645
30
0
41
1
10
9.10348432569498
20
-1.86018702842657
30
0
41
1
10
9.12084091600019
20
-1.86533916442622
30
0
41
1
10
9.13744053750469
20
-1.87306955824292
30
0
0
SPLINE
5
12D
100
AcDbEntity
8
1
62
256
6
ByLayer
370
18
48
1
60
0
100
AcDbSpline
70
4
71
3
72
8
73
4
40
0
40
0
40
0
40
0
40
1
40
1
40
1
40
1
41
1
10
8.55909022074408
20
-2.27083350996674
30
0
41
1
10
8.55754252490166
20
-2.26416770583359
30
0
41
1
10
8.5559955429801
20
-2.25750105023153
30
0
41
1
10
8.55444930401734
20
-2.25083350996675
30
0
0
SPLINE
5
12E
100
AcDbEntity
8
1
62
256
6
ByLayer
370
18
48
1
60
0
100
AcDbSpline
70
4
71
3
72
32
73
28
40
0
40
0
40
0
40
0
40
0.12500000000005
40
0.12500000000005
40
0.250000000000101
40
0.250000000000101
40
0.375000000000151
40
0.375000000000151
40
0.500000000000201
40
0.500000000000201
40
0.562500000000195
40
0.562500000000195
40
0.625000000000189
40
0.625000000000189
40
0.687500000000182
40
0.687500000000182
40
0.750000000000176
40
0.750000000000176
40
0.81250000000017
40
0.81250000000017
40
0.843750000000166
40
0.843750000000166
40
0.875000000000163
40
0.875000000000163
40
0.937500000000082
40
0.937500000000082
40
1
40
1
40
1
40
1
41
1
10
9.55535134060898
20
-1.66320000000002
30
0
41
1
10
9.54549341319967
20
-1.68236308205024
30
0
41
1
10
9.53482656989127
20
-1.70104796999016
30
0
41
1
10
9.51180919176286
20
-1.73742714415192
30
0
41
1
10
9.49946498106067
20
-1.75510638509923
30
0
41
1
10
9.4730739178496
20
-1.78908713703112
30
0
41
1
10
9.45903193733236
20
-1.80539201355947
30
0
41
1
10
9.42901396255832
20
-1.83621430555792
30
0
41
1
10
9.41309315521778
20
-1.85069047347497
30
0
41
1
10
9.38747639297262
20
-1.87046368142859
30
0
41
1
10
9.37868871316098
20
-1.87669446189807
30
0
41
1
10
9.36051732102317
20
-1.88830402728354
30
0
41
1
10
9.35109741816683
20
-1.89370242246372
30
0
41
1
10
9.33168441491216
20
-1.90334881110186
30
0
41
1
10
9.32173964528261
20
-1.90757908622427
30
0
41
1
10
9.30125436879149
20
-1.91457775233408
30
0
41
1
10
9.29068072107634
20
-1.91735730609042
30
0
41
1
10
9.26888009578823
20
-1.9209486087008
30
0
41
1
10
9.25789995141548
20
-1.92172223655316
30
0
41
1
10
9.24127890272234
20
-1.92100159538796
30
0
41
1
10
9.23569941407607
20
-1.92043852989897
30
0
41
1
10
9.22478555870791
20
-1.9186600303855
30
0
41
1
10
9.21941537608794
20
-1.91744512790896
30
0
41
1
10
9.20357253715736
20
-1.91279589414114
30
0
41
1
10
9.19323817633773
20
-1.90825302134979
30
0
41
1
10
9.17448242981351
20
-1.89701838600226
30
0
41
1
10
9.16592706333589
20
-1.89032895130094
30
0
41
1
10
9.15810057023299
20
-1.88268956585836
30
0
0
SPLINE
5
12F
100
AcDbEntity
8
1
62
256
6
ByLayer
370
18
48
1
60
0
100
AcDbSpline
70
4
71
3
72
8
73
4
40
0
40
0
40
0
40
0
40
1
40
1
40
1
40
1
41
1
10
9.15810057023299
20
-1.88268956585836
30
0
41
1
10
9.1512138599079
20
-1.87948331153214
30
0
41
1
10
9.14432718151477
20
-1.87627664764909
30
0
41
1
10
9.13744053750469
20
-1.87306955824292
30
0
0
SPLINE
5
130
100
AcDbEntity
8
1
62
256
6
ByLayer
370
18
48
1
60
0
100
AcDbSpline
70
4
71
3
72
40
73
36
40
0
40
0
40
0
40
0
40
0.0625000000000082
40
0.0625000000000082
40
0.0937500000000135
40
0.0937500000000135
40
0.125000000000019
40
0.125000000000019
40
0.187500000000025
40
0.187500000000025
40
0.25000000000003
40
0.25000000000003
40
0.312500000000036
40
0.312500000000036
40
0.375000000000042
40
0.375000000000042
40
0.437500000000048
40
0.437500000000048
40
0.500000000000053
40
0.500000000000053
40
0.625000000000057
40
0.625000000000057
40
0.68750000000004
40
0.68750000000004
40
0.750000000000022
40
0.750000000000022
40
0.812500000000005
40
0.812500000000005
40
0.874999999999988
40
0.874999999999988
40
0.906249999999979
40
0.906249999999979
40
0.93749999999997
40
0.93749999999997
40
1
40
1
40
1
40
1
41
1
10
8.55444930401737
20
0.600833509966719
30
0
41
1
10
8.5507456159566
20
0.584862828934831
30
0
41
1
10
8.54977853614116
20
0.569151860282631
30
0
41
1
10
8.55110847942873
20
0.545811999181382
30
0
41
1
10
8.55203393207128
20
0.5380738903782
30
0
41
1
10
8.55468526445088
20
0.52287666945449
30
0
41
1
10
8.55641275491689
20
0.515386572021612
30
0
41
1
10
8.5626544681212
20
0.493188791219296
30
0
41
1
10
8.56817265004386
20
0.478905438960112
30
0
41
1
10
8.58136896066026
20
0.451184198016705
30
0
41
1
10
8.58903892673214
20
0.437788395564468
30
0
41
1
10
8.60610426821478
20
0.411964098742857
30
0
41
1
10
8.61555100140311
20
0.399467114903217
30
0
41
1
10
8.63590131307657
20
0.37547399583454
30
0
41
1
10
8.64680846893921
20
0.363964820706599
30
0
41
1
10
8.67001347070601
20
0.341834648930387
30
0
41
1
10
8.6823092796169
20
0.331223709796092
30
0
41
1
10
8.70801269827922
20
0.311060546289156
30
0
41
1
10
8.72144986613768
20
0.301479411527026
30
0
41
1
10
8.76351629515977
20
0.274228532961217
30
0
41
1
10
8.79342059591457
20
0.258314346237057
30
0
41
1
10
8.84115896289291
20
0.238032048834583
30
0
41
1
10
8.85747402737513
20
0.231915740071543
30
0
41
1
10
8.89077662325661
20
0.221135213914835
30
0
41
1
10
8.90783070573971
20
0.216449633110471
30
0
41
1
10
8.94252135073947
20
0.2087702046895
30
0
41
1
10
8.96017056676106
20
0.205771190383501
30
0
41
1
10
8.99583697766826
20
0.20183466526592
30
0
41
1
10
9.0138923402771
20
0.200890796077204
30
0
41
1
10
9.04098775261673
20
0.2014532123614
30
0
41
1
10
9.05001092085112
20
0.201970810130973
30
0
41
1
10
9.06803566922602
20
0.203773997406728
30
0
41
1
10
9.07706424521481
20
0.205066716119973
30
0
41
1
10
9.10368494301269
20
0.210247493321702
30
0
41
1
10
9.12093696798689
20
0.215383895547546
30
0
41
1
10
9.13744053750469
20
0.223069558242884
30
0
0
SPLINE
5
131
100
AcDbEntity
8
1
62
256
6
ByLayer
370
18
48
1
60
0
100
AcDbSpline
70
4
71
3
72
8
73
4
40
0
40
0
40
0
40
0
40
1
40
1
40
1
40
1
41
1
10
9.13744053750469
20
0.223069558242884
30
0
41
1
10
9.14432718151477
20
0.226276647649058
30
0
41
1
10
9.1512138599079
20
0.229483311532135
30
0
41
1
10
9.15810057023299
20
0.232689565858323
30
0
0
SPLINE
5
132
100
AcDbEntity
8
1
62
256
6
ByLayer
370
18
48
1
60
0
100
AcDbSpline
70
4
71
3
72
31
73
27
40
0
40
0
40
0
40
0
40
0.249999999999892
40
0.249999999999892
40
0.374999999999861
40
0.374999999999861
40
0.49999999999983
40
0.49999999999983
40
0.562499999999812
40
0.562499999999812
40
0.624999999999794
40
0.624999999999794
40
0.687499999999775
40
0.687499999999775
40
0.749999999999757
40
0.749999999999757
40
0.781249999999787
40
0.781249999999787
40
0.812499999999816
40
0.843749999999846
40
0.843749999999846
40
0.874999999999876
40
0.874999999999876
40
0.937499999999938
40
0.937499999999938
40
1
40
1
40
1
40
1
41
1
10
9.55535134060898
20
0.0131999999999834
30
0
41
1
10
9.53564912115962
20
0.0514996579505862
30
0
41
1
10
9.51261970125293
20
0.0881707188985956
30
0
41
1
10
9.47307641554556
20
0.13908283951011
30
0
41
1
10
9.45903103211117
20
0.155390979268901
30
0
41
1
10
9.42906129711054
20
0.186167663425948
30
0
41
1
10
9.41312577588198
20
0.200658882854555
30
0
41
1
10
9.38757086365808
20
0.220393945675767
30
0
41
1
10
9.37875769257693
20
0.226647461958066
30
0
41
1
10
9.36057654012092
20
0.238269101576037
30
0
41
1
10
9.35115001420678
20
0.243672116193949
30
0
41
1
10
9.33180076287974
20
0.253295132246876
30
0
41
1
10
9.32190474213536
20
0.257509600712069
30
0
41
1
10
9.30156568740182
20
0.264484170604305
30
0
41
1
10
9.29112453971041
20
0.267249089323656
30
0
41
1
10
9.27491937422445
20
0.269970001099836
30
0
41
1
10
9.26938815891782
20
0.270638758189818
30
0
41
1
10
9.25833067992107
20
0.271393150443117
30
0
41
1
10
9.24728663284472
20
0.271572297919249
30
0
41
1
10
9.23627081325515
20
0.270508502111454
30
0
41
1
10
9.22527016161251
20
0.268760021109273
30
0
41
1
10
9.21977401095322
20
0.26753514329161
30
0
41
1
10
9.20382158803159
20
0.262898095752519
30
0
41
1
10
9.19372576346098
20
0.258509152502683
30
0
41
1
10
9.17461542101526
20
0.247132830423851
30
0
41
1
10
9.16595626528675
20
0.240357455121909
30
0
41
1
10
9.15810057023299
20
0.232689565858323
30
0
0
SPLINE
5
133
100
AcDbEntity
8
1
62
256
6
ByLayer
370
18
48
1
60
0
100
AcDbSpline
70
4
71
3
72
8
73
4
40
0
40
0
40
0
40
0
40
1
40
1
40
1
40
1
41
1
10
8.55909022074408
20
0.620833509966701
30
0
41
1
10
8.55754252490166
20
0.614167705833552
30
0
41
1
10
8.5559955429801
20
0.607501050231491
30
0
41
1
10
8.55444930401737
20
0.600833509966719
30
0
0
SPLINE
5
134
100
AcDbEntity
8
1
62
256
6
ByLayer
370
18
48
1
60
0
100
AcDbSpline
70
4
71
3
72
32
73
28
40
0
40
0
40
0
40
0
40
0.124999999999964
40
0.124999999999964
40
0.249999999999927
40
0.249999999999927
40
0.374999999999891
40
0.374999999999891
40
0.499999999999854
40
0.499999999999854
40
0.562499999999865
40
0.562499999999865
40
0.624999999999877
40
0.624999999999877
40
0.687499999999887
40
0.687499999999887
40
0.749999999999899
40
0.749999999999899
40
0.81249999999991
40
0.81249999999991
40
0.843749999999926
40
0.843749999999926
40
0.874999999999942
40
0.874999999999942
40
0.937499999999971
40
0.937499999999971
40
1
40
1
40
1
40
1
41
1
10
8.26178362542811
20
-2.50140000000002
30
0
41
1
10
8.28149948024685
20
-2.50140000000002
30
0
41
1
10
8.30106663197432
20
-2.50049400426093
30
0
41
1
10
8.3398844926902
20
-2.49680546755525
30
0
41
1
10
8.35912042082401
20
-2.49402155681619
30
0
41
1
10
8.3969123051661
20
-2.48641334049563
30
0
41
1
10
8.4154703006306
20
-2.48159423600057
30
0
41
1
10
8.45155433311618
20
-2.46958405635127
30
0
41
1
10
8.46902906195655
20
-2.46242073984215
30
0
41
1
10
8.49393478056174
20
-2.44945662531023
30
0
41
1
10
8.50197413268501
20
-2.44478390378103
30
0
41
1
10
8.5174163430051
20
-2.43461268316705
30
0
41
1
10
8.5248468077402
20
-2.42909245541824
30
0
41
1
10
8.53876686631753
20
-2.41713984146867
30
0
41
1
10
8.54522779210009
20
-2.41073963027557
30
0
41
1
10
8.55689464272575
20
-2.39690451038942
30
0
41
1
10
8.56211951920756
20
-2.38944700981423
30
0
41
1
10
8.5708120040492
20
-2.37327952855051
30
0
41
1
10
8.5741834872662
20
-2.36475365541463
30
0
41
1
10
8.57742200808701
20
-2.35116450263516
30
0
41
1
10
8.57819245224903
20
-2.34648683717782
30
0
41
1
10
8.57902809064677
20
-2.33709495526546
30
0
41
1
10
8.57910231981393
20
-2.33235220812611
30
0
41
1
10
8.57826042002711
20
-2.31798273548503
30
0
41
1
10
8.57620642432101
20
-2.30807439016627
30
0
41
1
10
8.56948451410588
20
-2.2890421254593
30
0
41
1
10
8.56485121236548
20
-2.27981128946595
30
0
41
1
10
8.55909022074408
20
-2.27083350996674
30
0
0
SPLINE
5
135
100
AcDbEntity
8
1
62
256
6
ByLayer
370
18
48
1
60
0
100
AcDbSpline
70
4
71
3
72
32
73
28
40
0
40
0
40
0
40
0
40
0.124999999999969
40
0.124999999999969
40
0.249999999999938
40
0.249999999999938
40
0.374999999999908
40
0.374999999999908
40
0.499999999999877
40
0.499999999999877
40
0.562499999999884
40
0.562499999999884
40
0.62499999999989
40
0.62499999999989
40
0.687499999999897
40
0.687499999999897
40
0.749999999999904
40
0.749999999999904
40
0.812499999999911
40
0.812499999999911
40
0.843749999999927
40
0.843749999999927
40
0.874999999999943
40
0.874999999999943
40
0.937499999999971
40
0.937499999999971
40
1
40
1
40
1
40
1
41
1
10
8.26178362542811
20
0.851399999999984
30
0
41
1
10
8.28149948024682
20
0.851399999999984
30
0
41
1
10
8.30106663197427
20
0.850494004260895
30
0
41
1
10
8.3398844926902
20
0.846805467555214
30
0
41
1
10
8.35912042082401
20
0.844021556816159
30
0
41
1
10
8.39691230516604
20
0.836413340495625
30
0
41
1
10
8.41547030063066
20
0.831594236000569
30
0
41
1
10
8.45155433311618
20
0.819584056351232
30
0
41
1
10
8.46902906195652
20
0.812420739842111
30
0
41
1
10
8.49393478056174
20
0.799456625310199
30
0
41
1
10
8.50197413268501
20
0.794783903780996
30
0
41
1
10
8.51741634300512
20
0.784612683167012
30
0
41
1
10
8.52484680774023
20
0.779092455418208
30
0
41
1
10
8.53876686631753
20
0.767139841468662
30
0
41
1
10
8.54522779210004
20
0.760739630275538
30
0
41
1
10
8.55689464272575
20
0.746904510389385
30
0
41
1
10
8.56211951920758
20
0.739447009814199
30
0
41
1
10
8.57081200404917
20
0.723279528550478
30
0
41
1
10
8.57418348726617
20
0.714753655414597
30
0
41
1
10
8.57742200808701
20
0.701164502635123
30
0
41
1
10
8.57819245224903
20
0.696486837177815
30
0
41
1
10
8.57902809064677
20
0.687094955265422
30
0
41
1
10
8.57910231981396
20
0.682352208126076
30
0
41
1
10
8.57826042002708
20
0.667982735484998
30
0
41
1
10
8.57620642432101
20
0.658074390166234
30
0
41
1
10
8.56948451410588
20
0.63904212545927
30
0
41
1
10
8.56485121236548
20
0.62981128946592
30
0
41
1
10
8.55909022074408
20
0.620833509966701
30
0
0
SPLINE
5
136
100
AcDbEntity
8
1
62
256
6
ByLayer
370
18
48
1
60
0
100
AcDbSpline
70
4
71
3
72
40
73
36
40
0
40
0
40
0
40
0
40
0.0624999999999548
40
0.0624999999999548
40
0.0937499999999463
40
0.0937499999999463
40
0.124999999999938
40
0.124999999999938
40
0.18749999999993
40
0.18749999999993
40
0.249999999999922
40
0.249999999999922
40
0.312499999999914
40
0.312499999999914
40
0.374999999999906
40
0.374999999999906
40
0.437499999999898
40
0.437499999999898
40
0.49999999999989
40
0.49999999999989
40
0.624999999999916
40
0.624999999999916
40
0.687499999999927
40
0.687499999999927
40
0.749999999999938
40
0.749999999999938
40
0.812499999999949
40
0.812499999999949
40
0.87499999999996
40
0.87499999999996
40
0.906249999999968
40
0.906249999999968
40
0.937499999999976
40
0.937499999999976
40
1
40
1
40
1
40
1
41
1
10
7.28181702074252
20
0.223069558242884
30
0
41
1
10
7.29028076286346
20
0.215387654585385
30
0
41
1
10
7.300043038034
20
0.210241550406209
30
0
41
1
10
7.31604811129392
20
0.205054043828483
30
0
41
1
10
7.32161752734496
20
0.20376463111117
30
0
41
1
10
7.3330121459785
20
0.201965549981168
30
0
41
1
10
7.33885850317969
20
0.201448875004274
30
0
41
1
10
7.35680524466142
20
0.200892946231761
30
0
41
1
10
7.36918385848355
20
0.201840126095874
30
0
41
1
10
7.39461206910494
20
0.205783457779887
30
0
41
1
10
7.40762961115314
20
0.208783967900445
30
0
41
1
10
7.43403616226828
20
0.21644964382719
30
0
41
1
10
7.44749862143917
20
0.221140353254469
30
0
41
1
10
7.47463930634677
20
0.231933488793658
30
0
41
1
10
7.48832786267394
20
0.238035827057843
30
0
41
1
10
7.51596879750855
20
0.251542872915422
30
0
41
1
10
7.52991362144687
20
0.25894824875428
30
0
41
1
10
7.55780421891382
20
0.274859698371358
30
0
41
1
10
7.57178562550132
20
0.283382873281795
30
0
41
1
10
7.61384761295699
20
0.310642385924439
30
0
41
1
10
7.64159924876799
20
0.330741194144792
30
0
41
1
10
7.6826773835366
20
0.36397049054699
30
0
41
1
10
7.69620235629657
20
0.375510531336118
30
0
41
1
10
7.72271950469673
20
0.399481465722943
30
0
41
1
10
7.73576462661711
20
0.411960169463867
30
0
41
1
10
7.7610932200958
20
0.437838733870052
30
0
41
1
10
7.77338753959867
20
0.451247271101067
30
0
41
1
10
7.79681927642889
20
0.478967098068722
30
0
41
1
10
7.80798330818348
20
0.493307204936201
30
0
41
1
10
7.82339517981677
20
0.515456727977039
30
0
41
1
10
7.8283035239026
20
0.522938044127983
30
0
41
1
10
7.8375825315232
20
0.538135930273342
30
0
41
1
10
7.84196405852873
20
0.545876731209745
30
0
41
1
10
7.85394060772563
20
0.569163096191488
30
0
41
1
10
7.86047806886455
20
0.584855013893531
30
0
41
1
10
7.86480825422984
20
0.600833509966719
30
0
0
SPLINE
5
137
100
AcDbEntity
8
1
62
256
6
ByLayer
370
18
48
1
60
0
100
AcDbSpline
70
4
71
3
72
8
73
4
40
0
40
0
40
0
40
0
40
1
40
1
40
1
40
1
41
1
10
7.86480825422984
20
0.600833509966719
30
0
41
1
10
7.86661516303684
20
0.607501050231491
30
0
41
1
10
7.86842278021641
20
0.614167705833552
30
0
41
1
10
7.87023107802841
20
0.620833509966701
30
0
0
SPLINE
5
138
100
AcDbEntity
8
1
62
256
6
ByLayer
370
18
48
1
60
0
100
AcDbSpline
70
4
71
3
72
31
73
27
40
0
40
0
40
0
40
0
40
0.250000000000009
40
0.250000000000009
40
0.375000000000012
40
0.375000000000012
40
0.500000000000016
40
0.500000000000016
40
0.562499999999984
40
0.562499999999984
40
0.624999999999951
40
0.624999999999951
40
0.687499999999919
40
0.687499999999919
40
0.749999999999886
40
0.749999999999886
40
0.7812499999999
40
0.7812499999999
40
0.812499999999915
40
0.843749999999929
40
0.843749999999929
40
0.874999999999943
40
0.874999999999943
40
0.937499999999972
40
0.937499999999972
40
1
40
1
40
1
40
1
41
1
10
8.26178362542811
20
0.851399999999984
30
0
41
1
10
8.22237918652942
20
0.851399999999984
30
0
41
1
10
8.18232962456352
20
0.847814836851995
30
0
41
1
10
8.12246104149671
20
0.83641359158193
30
0
41
1
10
8.1025061784942
20
0.831593043193578
30
0
41
1
10
8.0628717419811
20
0.819603824229091
30
0
41
1
10
8.04316960198105
20
0.812434633212007
30
0
41
1
10
8.01411344356563
20
0.799505734126882
30
0
41
1
10
8.00449307742213
20
0.794821345366898
30
0
41
1
10
7.9855674083725
20
0.784646990961846
30
0
41
1
10
7.97620300494742
20
0.779123214818156
30
0
41
1
10
7.95803029617881
20
0.767213087017979
30
0
41
1
10
7.94924154541729
20
0.760846167570548
30
0
41
1
10
7.9323758652223
20
0.747119614375094
30
0
41
1
10
7.92429670490128
20
0.739763166838344
30
0
41
1
10
7.91286432596695
20
0.727764310875813
30
0
41
1
10
7.90914537617573
20
0.723572643611419
30
0
41
1
10
7.902119964961
20
0.714980209695682
30
0
41
1
10
7.8955063385348
20
0.706188457247663
30
0
41
1
10
7.88977990169082
20
0.696970278847715
30
0
41
1
10
7.88454040818317
20
0.687519494379416
30
0
41
1
10
7.88216797867949
20
0.682672089218926
30
0
41
1
10
7.87603598383816
20
0.668218950631029
30
0
41
1
10
7.87316849570141
20
0.658556542271498
30
0
41
1
10
7.86987334684414
20
0.639189297291011
30
0
41
1
10
7.86950662868026
20
0.629844787058317
30
0
41
1
10
7.87023107802838
20
0.620833509966701
30
0
0
SPLINE
5
139
100
AcDbEntity
8
1
62
256
6
ByLayer
370
18
48
1
60
0
100
AcDbSpline
70
4
71
3
72
8
73
4
40
0
40
0
40
0
40
0
40
1
40
1
40
1
40
1
41
1
10
7.2712207285395
20
0.232689565858323
30
0
41
1
10
7.27475144521014
20
0.229483311532107
30
0
41
1
10
7.27828352450217
20
0.226276647649058
30
0
41
1
10
7.28181702074252
20
0.223069558242884
30
0
0
SPLINE
5
13A
100
AcDbEntity
8
1
62
256
6
ByLayer
370
18
48
1
60
0
100
AcDbSpline
70
4
71
3
72
8
73
4
40
0
40
0
40
0
40
0
40
1
40
1
40
1
40
1
41
1
10
7.28181702074252
20
-1.87306955824292
30
0
41
1
10
7.27828352450217
20
-1.87627664764909
30
0
41
1
10
7.27475144521014
20
-1.87948331153214
30
0
41
1
10
7.2712207285395
20
-1.88268956585836
30
0
0
SPLINE
5
13B
100
AcDbEntity
8
1
62
256
6
ByLayer
370
18
48
1
60
0
100
AcDbSpline
70
4
71
3
72
31
73
27
40
0
40
0
40
0
40
0
40
0.250000000000009
40
0.250000000000009
40
0.375000000000013
40
0.375000000000013
40
0.500000000000018
40
0.500000000000018
40
0.562500000000024
40
0.562500000000024
40
0.62500000000003
40
0.62500000000003
40
0.687500000000037
40
0.687500000000037
40
0.750000000000043
40
0.750000000000043
40
0.781250000000046
40
0.781250000000046
40
0.812500000000049
40
0.843750000000052
40
0.843750000000052
40
0.875000000000055
40
0.875000000000055
40
0.937500000000027
40
0.937500000000027
40
1
40
1
40
1
40
1
41
1
10
8.26178362542811
20
-2.50140000000002
30
0
41
1
10
8.22237918652939
20
-2.50140000000002
30
0
41
1
10
8.18232962456352
20
-2.49781483685203
30
0
41
1
10
8.12246104149665
20
-2.48641359158197
30
0
41
1
10
8.10250617849414
20
-2.48159304319361
30
0
41
1
10
8.0628717419811
20
-2.46960382422913
30
0
41
1
10
8.04316960198105
20
-2.46243463321204
30
0
41
1
10
8.01411344356563
20
-2.44950573412689
30
0
41
1
10
8.00449307742207
20
-2.4448213453669
30
0
41
1
10
7.98556740837245
20
-2.43464699096188
30
0
41
1
10
7.97620300494742
20
-2.42912321481816
30
0
41
1
10
7.95803029617878
20
-2.41721308701801
30
0
41
1
10
7.94924154541729
20
-2.41084616757058
30
0
41
1
10
7.93237586522224
20
-2.3971196143751
30
0
41
1
10
7.92429670490117
20
-2.38976316683835
30
0
41
1
10
7.91286432596695
20
-2.37776431087582
30
0
41
1
10
7.90914537617573
20
-2.37357264361142
30
0
41
1
10
7.90211996496103
20
-2.36498020969569
30
0
41
1
10
7.89550633853474
20
-2.35618845724767
30
0
41
1
10
7.88977990169076
20
-2.34697027884772
30
0
41
1
10
7.88454040818317
20
-2.33751949437939
30
0
41
1
10
7.88216797867949
20
-2.33267208921893
30
0
41
1
10
7.87603598383816
20
-2.31821895063104
30
0
41
1
10
7.87316849570141
20
-2.30855654227148
30
0
41
1
10
7.86987334684409
20
-2.28918929729099
30
0
41
1
10
7.8695066286802
20
-2.27984478705832
30
0
41
1
10
7.87023107802838
20
-2.27083350996674
30
0
0
SPLINE
5
13C
100
AcDbEntity
8
1
62
256
6
ByLayer
370
18
48
1
60
0
100
AcDbSpline
70
4
71
3
72
8
73
4
40
0
40
0
40
0
40
0
40
1
40
1
40
1
40
1
41
1
10
7.86480825422984
20
-2.25083350996675
30
0
41
1
10
7.86661516303684
20
-2.25750105023153
30
0
41
1
10
7.86842278021641
20
-2.26416770583359
30
0
41
1
10
7.87023107802838
20
-2.27083350996674
30
0
0
SPLINE
5
13D
100
AcDbEntity
8
1
62
256
6
ByLayer
370
18
48
1
60
0
100
AcDbSpline
70
4
71
3
72
40
73
36
40
0
40
0
40
0
40
0
40
0.03124999999998
40
0.03124999999998
40
0.0624999999999601
40
0.0624999999999601
40
0.124999999999929
40
0.124999999999929
40
0.156249999999929
40
0.156249999999929
40
0.187499999999929
40
0.187499999999929
40
0.249999999999938
40
0.249999999999938
40
0.312499999999947
40
0.312499999999947
40
0.374999999999956
40
0.374999999999956
40
0.49999999999998
40
0.49999999999998
40
0.625000000000004
40
0.625000000000004
40
0.687499999999997
40
0.687499999999997
40
0.74999999999999
40
0.74999999999999
40
0.812499999999983
40
0.812499999999983
40
0.874999999999976
40
0.874999999999976
40
0.906249999999987
40
0.906249999999987
40
0.937499999999999
40
0.937499999999999
40
1
40
1
40
1
40
1
41
1
10
7.28181702074252
20
-1.87306955824292
30
0
41
1
10
7.28606768310021
20
-1.86921155096366
30
0
41
1
10
7.29067556340465
20
-1.86598808051141
30
0
41
1
10
7.30048387576656
20
-1.86057410081469
30
0
41
1
10
7.30568047028675
20
-1.8583945883245
30
0
41
1
10
7.32173162220553
20
-1.85325329894567
30
0
41
1
10
7.33314270753658
20
-1.8516049265057
30
0
41
1
10
7.35111409463192
20
-1.85108011744725
30
0
41
1
10
7.35725566867467
20
-1.85123955606926
30
0
41
1
10
7.36963331720264
20
-1.85213631705508
30
0
41
1
10
7.37589221259921
20
-1.85287239919165
30
0
41
1
10
7.3948713652635
20
-1.85584037322675
30
0
41
1
10
7.40779298925457
20
-1.85882552576283
30
0
41
1
10
7.43417186961517
20
-1.86649497576215
30
0
41
1
10
7.44769347865042
20
-1.87121248554465
30
0
41
1
10
7.47477617393156
20
-1.88199334074969
30
0
41
1
10
7.48838179610141
20
-1.8880645056401
30
0
41
1
10
7.52943516661526
20
-1.9081187358193
30
0
41
1
10
7.55712296740185
20
-1.92391212278221
30
0
41
1
10
7.61326707358276
20
-1.9602350177006
30
0
41
1
10
7.64126300744971
20
-1.98048611561839
30
0
41
1
10
7.68241511012229
20
-2.01375000357109
30
0
41
1
10
7.69595360502046
20
-2.02529372467282
30
0
41
1
10
7.72250721124814
20
-2.04928163658494
30
0
41
1
10
7.73557004066657
20
-2.06176932794199
30
0
41
1
10
7.76093548816641
20
-2.08766971744063
30
0
41
1
10
7.77324754870614
20
-2.10108965734014
30
0
41
1
10
7.79671481025446
20
-2.1288356011485
30
0
41
1
10
7.80789566320988
20
-2.14318924578714
30
0
41
1
10
7.82333180718871
20
-2.16536169119095
30
0
41
1
10
7.82824786170053
20
-2.17285080097486
30
0
41
1
10
7.8375413859734
20
-2.18806465478465
30
0
41
1
10
7.84192992086832
20
-2.19581396116567
30
0
41
1
10
7.85392558097209
20
-2.21912670698026
30
0
41
1
10
7.86047305024084
20
-2.23483649504212
30
0
41
1
10
7.86480825422984
20
-2.25083350996675
30
0
0
SPLINE
5
13E
100
AcDbEntity
8
1
62
256
6
ByLayer
370
18
48
1
60
0
100
AcDbSpline
70
4
71
3
72
31
73
27
40
0
40
0
40
0
40
0
40
0.249999999999963
40
0.249999999999963
40
0.374999999999942
40
0.374999999999942
40
0.499999999999922
40
0.499999999999922
40
0.562499999999916
40
0.562499999999916
40
0.62499999999991
40
0.62499999999991
40
0.687499999999905
40
0.687499999999905
40
0.749999999999899
40
0.749999999999899
40
0.781249999999923
40
0.781249999999923
40
0.812499999999946
40
0.84374999999997
40
0.84374999999997
40
0.874999999999993
40
0.874999999999993
40
0.937499999999997
40
0.937499999999997
40
1
40
1
40
1
40
1
41
1
10
6.96821591024724
20
-1.66320000000002
30
0
41
1
10
6.98791812969662
20
-1.70149965795062
30
0
41
1
10
7.00999473311566
20
-1.73817071889863
30
0
41
1
10
7.04629240909043
20
-1.78908283951014
30
0
41
1
10
7.05894478642583
20
-1.80539097926891
30
0
41
1
10
7.08530962405808
20
-1.83616766342595
30
0
41
1
10
7.09903531470718
20
-1.85065888285459
30
0
41
1
10
7.12038842206601
20
-1.87039394567583
30
0
41
1
10
7.12764818099339
20
-1.8766474619581
30
0
41
1
10
7.14235958446642
20
-1.88826910157607
30
0
41
1
10
7.14985815379214
20
-1.89367211619398
30
0
41
1
10
7.16491686914028
20
-1.90329513224691
30
0
41
1
10
7.17245804176886
20
-1.9075096007121
30
0
41
1
10
7.18753975419403
20
-1.91448417060434
30
0
41
1
10
7.19508058029919
20
-1.91724908932369
30
0
41
1
10
7.20636475627029
20
-1.91997000109987
30
0
41
1
10
7.21014674662092
20
-1.92063875818985
30
0
41
1
10
7.21754599846003
20
-1.92139315044315
30
0
41
1
10
7.22477710948652
20
-1.92157229791928
30
0
41
1
10
7.23163484544563
20
-1.92050850211149
30
0
41
1
10
7.23828207479207
20
-1.91876002110928
30
0
41
1
10
7.24150017787974
20
-1.91753514329164
30
0
41
1
10
7.25051704783198
20
-1.91289809575255
30
0
41
1
10
7.25578793265282
20
-1.90850915250272
30
0
41
1
10
7.26482492395306
20
-1.89713283042386
30
0
41
1
10
7.26842307097934
20
-1.89035745512194
30
0
41
1
10
7.2712207285395
20
-1.88268956585836
30
0
0
SPLINE
5
13F
100
AcDbEntity
8
1
62
256
6
ByLayer
370
18
48
1
60
0
100
AcDbSpline
70
4
71
3
72
32
73
28
40
0
40
0
40
0
40
0
40
0.12499999999998
40
0.12499999999998
40
0.249999999999959
40
0.249999999999959
40
0.374999999999939
40
0.374999999999939
40
0.499999999999918
40
0.499999999999918
40
0.562499999999905
40
0.562499999999905
40
0.624999999999892
40
0.624999999999892
40
0.687499999999879
40
0.687499999999879
40
0.749999999999866
40
0.749999999999866
40
0.812499999999852
40
0.812499999999852
40
0.843749999999871
40
0.843749999999871
40
0.874999999999889
40
0.874999999999889
40
0.937499999999945
40
0.937499999999945
40
1
40
1
40
1
40
1
41
1
10
6.96821591024721
20
0.0131999999999834
30
0
41
1
10
6.97807383765661
20
0.0323630820502387
30
0
41
1
10
6.98849512087108
20
0.0510479699901509
30
0
41
1
10
7.01049617048307
20
0.0874271441518886
30
0
41
1
10
7.02206960030134
20
0.105106385099219
30
0
41
1
10
7.04629484953875
20
0.139087137031112
30
0
41
1
10
7.05894430134381
20
0.155392013559435
30
0
41
1
10
7.08535095325618
20
0.186214305557911
30
0
41
1
10
7.09906378418543
20
0.200690473474935
30
0
41
1
10
7.12046674950187
20
0.220463681428555
30
0
41
1
10
7.12770460049433
20
0.226694461898035
30
0
41
1
10
7.14240689338828
20
0.238304027283505
30
0
41
1
10
7.14990003158147
20
0.243702422463713
30
0
41
1
10
7.16500646517142
20
0.25334881110183
30
0
41
1
10
7.17258365566602
20
0.25757908622424
30
0
41
1
10
7.1877673343723
20
0.264577752334049
30
0
41
1
10
7.19539865361963
20
0.267357306090418
30
0
41
1
10
7.21056061220906
20
0.270948608700763
30
0
41
1
10
7.2179200275898
20
0.271722236553131
30
0
41
1
10
7.22851983348886
20
0.271001595387929
30
0
41
1
10
7.23198622943497
20
0.270438529898939
30
0
41
1
10
7.23856816735491
20
0.268660030385462
30
0
41
1
10
7.24170714765609
20
0.267445127908928
30
0
41
1
10
7.25064890514875
20
0.262795894141078
30
0
41
1
10
7.25602894634409
20
0.258253021349759
30
0
41
1
10
7.26487702131507
20
0.247018386002225
30
0
41
1
10
7.26843347070314
20
0.24032895130091
30
0
41
1
10
7.2712207285395
20
0.232689565858323
30
0
0
SPLINE
5
140
100
AcDbEntity
8
1
62
256
6
ByLayer
370
18
48
1
60
0
100
AcDbSpline
70
4
71
3
72
40
73
36
40
0
40
0
40
0
40
0
40
0.0625000000000155
40
0.0625000000000155
40
0.0937500000000152
40
0.0937500000000152
40
0.125000000000015
40
0.125000000000015
40
0.187500000000014
40
0.187500000000014
40
0.250000000000013
40
0.250000000000013
40
0.312500000000012
40
0.312500000000012
40
0.375000000000011
40
0.375000000000011
40
0.43750000000001
40
0.43750000000001
40
0.500000000000009
40
0.500000000000009
40
0.625000000000008
40
0.625000000000008
40
0.687500000000007
40
0.687500000000007
40
0.750000000000006
40
0.750000000000006
40
0.812500000000005
40
0.812500000000005
40
0.875000000000004
40
0.875000000000004
40
0.906250000000003
40
0.906250000000003
40
0.937500000000001
40
0.937500000000001
40
1
40
1
40
1
40
1
41
1
10
6.93699649584875
20
-1.20276395172382
30
0
41
1
10
6.94514804825869
20
-1.19447517434946
30
0
41
1
10
6.9521227892796
20
-1.18391030987644
30
0
41
1
10
6.96145844842408
20
-1.16575795535292
30
0
41
1
10
6.96437381118676
20
-1.15930925926702
30
0
41
1
10
6.96980160892878
20
-1.14591111947334
30
0
41
1
10
6.97232646764743
20
-1.13893769701735
30
0
41
1
10
6.97942612825335
20
-1.11729584498752
30
0
41
1
10
6.98348255726174
20
-1.10206531286426
30
0
41
1
10
6.99059324803008
20
-1.07040074023683
30
0
41
1
10
6.99363262113962
20
-1.05400442766404
30
0
41
1
10
6.99886776589852
20
-1.02051445491571
30
0
41
1
10
7.00107547465782
20
-1.00332676164879
30
0
41
1
10
7.00476907948433
20
-0.968540507040899
30
0
41
1
10
7.00625868850176
20
-0.950928993648773
30
0
41
1
10
7.00861869092614
20
-0.915291776014953
30
0
41
1
10
7.00948601605756
20
-0.897275461041801
30
0
41
1
10
7.01063379462636
20
-0.861200847917814
30
0
41
1
10
7.01091741453092
20
-0.84309653824522
30
0
41
1
10
7.01091509446437
20
-0.788586147036796
30
0
41
1
10
7.0098015362029
20
-0.752573152092282
30
0
41
1
10
7.00625817444819
20
-0.69906155828761
30
0
41
1
10
7.00476385668668
20
-0.681405208735441
30
0
41
1
10
7.00107286294093
20
-0.646653748191909
30
0
41
1
10
6.99886895414926
20
-0.629489463646649
30
0
41
1
10
6.99362202407013
20
-0.595931470819465
30
0
41
1
10
6.99057826601648
20
-0.579523919282451
30
0
41
1
10
6.98346553920507
20
-0.547867567197244
30
0
41
1
10
6.9793902655982
20
-0.532583591140991
30
0
41
1
10
6.97230301519346
20
-0.510996484384378
30
0
41
1
10
6.96978050335167
20
-0.504032766002979
30
0
41
1
10
6.96435083171153
20
-0.490638067133403
30
0
41
1
10
6.96143327291028
20
-0.484189984910245
30
0
41
1
10
6.95211685552769
20
-0.466084397130203
30
0
41
1
10
6.94515203711296
20
-0.455528881654033
30
0
41
1
10
6.93699649584875
20
-0.44723604827621
30
0
0
SPLINE
5
141
100
AcDbEntity
8
1
62
256
6
ByLayer
370
18
48
1
60
0
100
AcDbSpline
70
4
71
3
72
8
73
4
40
0
40
0
40
0
40
0
40
1
40
1
40
1
40
1
41
1
10
6.93699649584877
20
-0.44723604827621
30
0
41
1
10
6.93359333453054
20
-0.443775597417584
30
0
41
1
10
6.93019157286753
20
-0.440315605698572
30
0
41
1
10
6.92679115718167
20
-0.43685605589161
30
0
0
SPLINE
5
142
100
AcDbEntity
8
1
62
256
6
ByLayer
370
18
48
1
60
0
100
AcDbSpline
70
4
71
3
72
31
73
27
40
0
40
0
40
0
40
0
40
0.249999999999972
40
0.249999999999972
40
0.374999999999962
40
0.374999999999962
40
0.499999999999953
40
0.499999999999953
40
0.562499999999957
40
0.562499999999957
40
0.624999999999962
40
0.624999999999962
40
0.687499999999966
40
0.687499999999966
40
0.74999999999997
40
0.74999999999997
40
0.781249999999971
40
0.781249999999971
40
0.812499999999972
40
0.843749999999973
40
0.843749999999973
40
0.874999999999974
40
0.874999999999974
40
0.937499999999987
40
0.937499999999987
40
1
40
1
40
1
40
1
41
1
10
6.96821591024721
20
0.0131999999999834
30
0
41
1
10
6.94851369079785
20
-0.0250996579505909
30
0
41
1
10
6.93101714049496
20
-0.0653558820466174
30
0
41
1
10
6.90906903826908
20
-0.127669247928225
30
0
41
1
10
6.90246305565151
20
-0.148797936075312
30
0
41
1
10
6.8909959054549
20
-0.191563839196846
30
0
41
1
10
6.88612437139366
20
-0.213224249642565
30
0
41
1
10
6.88052222276957
20
-0.24588821154893
30
0
41
1
10
6.8789383216303
20
-0.256826116591185
30
0
41
1
10
6.87645893054525
20
-0.278622110614208
30
0
41
1
10
6.87555707474013
20
-0.28954890137581
30
0
41
1
10
6.87458834930908
20
-0.311082045228915
30
0
41
1
10
6.87451819523409
20
-0.321663433141538
30
0
41
1
10
6.87536289861839
20
-0.342364556229256
30
0
41
1
10
6.87627472519563
20
-0.352485922485329
30
0
41
1
10
6.87858701698985
20
-0.36720569022404
30
0
41
1
10
6.87952467002731
20
-0.372066114578416
30
0
41
1
10
6.88172762423051
20
-0.381412940747453
30
0
41
1
10
6.88425170939666
20
-0.390383903535792
30
0
41
1
10
6.88746191778591
20
-0.398538223263756
30
0
41
1
10
6.89104636477296
20
-0.406240526729874
30
0
41
1
10
6.89303106214271
20
-0.409863054072702
30
0
41
1
10
6.89938371373836
20
-0.419679145121478
30
0
41
1
10
6.9041995802973
20
-0.424952610231202
30
0
41
1
10
6.91497809831299
20
-0.432943533132828
30
0
41
1
10
6.92074003152652
20
-0.435512668063609
30
0
41
1
10
6.92679115718167
20
-0.43685605589161
30
0
0
SPLINE
5
143
100
AcDbEntity
8
1
62
256
6
ByLayer
370
18
48
1
60
0
100
AcDbSpline
70
4
71
3
72
32
73
28
40
0
40
0
40
0
40
0
40
0.124999999999998
40
0.124999999999998
40
0.249999999999995
40
0.249999999999995
40
0.374999999999993
40
0.374999999999993
40
0.499999999999991
40
0.499999999999991
40
0.562499999999992
40
0.562499999999992
40
0.624999999999993
40
0.624999999999993
40
0.687499999999994
40
0.687499999999994
40
0.749999999999995
40
0.749999999999995
40
0.812499999999996
40
0.812499999999996
40
0.843749999999997
40
0.843749999999997
40
0.874999999999998
40
0.874999999999998
40
0.937499999999999
40
0.937499999999999
40
1
40
1
40
1
40
1
41
1
10
6.96821591024724
20
-1.66320000000002
30
0
41
1
10
6.9583579828379
20
-1.64403691794976
30
0
41
1
10
6.94908933427803
20
-1.62444603427079
30
0
41
1
10
6.93176435891593
20
-1.58437832340334
30
0
41
1
10
6.92371647015835
20
-1.56391517171696
30
0
41
1
10
6.90906692806681
20
-1.52232620346453
30
0
41
1
10
6.90246212005115
20
-1.50120222244115
30
0
41
1
10
6.89097907804728
20
-1.45836975079337
30
0
41
1
10
6.88611319193052
20
-1.43673026636719
30
0
41
1
10
6.88050354017741
20
-1.40399294388166
30
0
41
1
10
6.87892712463702
20
-1.39308944188301
30
0
41
1
10
6.87645265758897
20
-1.37130865588352
30
0
41
1
10
6.87555194871527
20
-1.36039003295454
30
0
41
1
10
6.87458503889565
20
-1.33879103036685
30
0
41
1
10
6.87451751404029
20
-1.32816054405131
30
0
41
1
10
6.8753835432284
20
-1.30732675805535
30
0
41
1
10
6.87631882176004
20
-1.2970897037238
30
0
41
1
10
6.87946896215857
20
-1.27733091984973
30
0
41
1
10
6.8816465298263
20
-1.26803141886148
30
0
41
1
10
6.88599719350748
20
-1.25516290724724
30
0
41
1
10
6.88763659894141
20
-1.25104830727889
30
0
41
1
10
6.89121693973956
20
-1.24343492487998
30
0
41
1
10
6.89316608971416
20
-1.23990708021717
30
0
41
1
10
6.89949920627475
20
-1.23018684134391
30
0
41
1
10
6.90445608336395
20
-1.22482136881649
30
0
41
1
10
6.91507223277347
20
-1.21702373945706
30
0
41
1
10
6.92076252535713
20
-1.21448233816503
30
0
41
1
10
6.92679115718167
20
-1.21314394410842
30
0
0
SPLINE
5
144
100
AcDbEntity
8
1
62
256
6
ByLayer
370
18
48
1
60
0
100
AcDbSpline
70
4
71
3
72
8
73
4
40
0
40
0
40
0
40
0
40
1
40
1
40
1
40
1
41
1
10
6.92679115718167
20
-1.2131439441084
30
0
41
1
10
6.93019157286753
20
-1.20968439430146
30
0
41
1
10
6.93359333453054
20
-1.20622440258245
30
0
41
1
10
6.93699649584875
20
-1.20276395172382
30
0
0
SPLINE
5
145
100
AcDbEntity
8
1
62
256
6
ByLayer
370
18
48
1
60
0
100
AcDbSpline
70
4
71
2
72
6
73
3
40
0
40
0
40
0
40
1
40
1
40
1
41
1.03186391735993
10
8.82713521185942
20
8.05270327716594
30
0
41
1.03138264657361
10
8.94917877905276
20
8.05270327716599
30
0
41
1.03186391735993
10
9.07099471039195
20
8.04524247085344
30
0
0
SPLINE
5
146
100
AcDbEntity
8
1
62
256
6
ByLayer
370
18
48
1
60
0
100
AcDbSpline
70
4
71
2
72
6
73
3
40
0
40
0
40
0
40
1
40
1
40
1
41
1.03186391735993
10
8.62740930490852
20
7.85270327716595
30
0
41
0.729637973226922
10
8.62740930490844
20
8.05270327716595
30
0
41
1.03186391735993
10
8.82713521185942
20
8.05270327716594
30
0
0
SPLINE
5
147
100
AcDbEntity
8
1
62
256
6
ByLayer
370
18
48
1
60
0
100
AcDbSpline
70
4
71
3
72
8
73
4
40
0
40
0
40
0
40
0
40
1
40
1
40
1
40
1
41
1
10
10.5922266303269
20
7.9793982963667
30
0
41
1
10
10.605148065448
20
7.97931279601363
30
0
41
1
10
10.6180543057586
20
7.97790370887031
30
0
41
1
10
10.6307734288797
20
7.97512067257415
30
0
0
SPLINE
5
148
100
AcDbEntity
8
1
62
256
6
ByLayer
370
18
48
1
60
0
100
AcDbSpline
70
4
71
2
72
6
73
3
40
0
40
0
40
0
40
1
40
1
40
1
41
1.03186391735993
10
28.6
20
7.85270327716601
30
0
41
0.729637973226922
10
28.5999999999999
20
8.05270327716599
30
0
41
1.03186391735993
10
28.400274093049
20
8.05270327716597
30
0
0
SPLINE
5
149
100
AcDbEntity
8
1
62
256
6
ByLayer
370
18
48
1
60
0
100
AcDbSpline
70
4
71
2
72
6
73
3
40
0
40
0
40
0
40
1
40
1
40
1
41
1.03186391735993
10
28.400274093049
20
6.04729672283409
30
0
41
0.729637973226922
10
28.6
20
6.04729672283411
30
0
41
1.03186391735993
10
28.6
20
6.24729672283408
30
0
0
SPLINE
5
14A
100
AcDbEntity
8
1
62
256
6
ByLayer
370
18
48
1
60
0
100
AcDbSpline
70
4
71
2
72
6
73
3
40
0
40
0
40
0
40
1
40
1
40
1
41
1.03186391735993
10
28.1564145945165
20
6.05475752914659
30
0
41
1.03138264657361
10
28.2782305258557
20
6.04729672283408
30
0
41
1.03186391735993
10
28.400274093049
20
6.04729672283409
30
0
0
SPLINE
5
14B
100
AcDbEntity
8
1
62
256
6
ByLayer
370
18
48
1
60
0
100
AcDbSpline
70
4
71
2
72
6
73
3
40
0
40
0
40
0
40
1
40
1
40
1
41
1.03186391735993
10
28.400274093049
20
8.05270327716597
30
0
41
1.03138264657361
10
28.2782305258557
20
8.05270327716599
30
0
41
1.03186391735993
10
28.1564145945165
20
8.04524247085344
30
0
0
SPLINE
5
14C
100
AcDbEntity
8
1
62
256
6
ByLayer
370
18
48
1
60
0
100
AcDbSpline
70
4
71
3
72
8
73
4
40
0
40
0
40
0
40
0
40
1
40
1
40
1
40
1
41
1
10
26.6013119938187
20
7.97939829636664
30
0
41
1
10
26.5875156029294
20
7.97931279601309
30
0
41
1
10
26.5737354357448
20
7.97790370886824
30
0
41
1
10
26.5601550561119
20
7.97512067257188
30
0
0
SPLINE
5
14D
100
AcDbEntity
8
1
62
256
6
ByLayer
370
18
48
1
60
0
100
AcDbSpline
70
4
71
3
72
8
73
4
40
0
40
0
40
0
40
0
40
1
40
1
40
1
40
1
41
1
10
26.5601550561233
20
6.1248793274259
30
0
41
1
10
26.5737355764804
20
6.12209626229119
30
0
41
1
10
26.5875154923384
20
6.12068720467187
30
0
41
1
10
26.6013119938327
20
6.12060170363335
30
0
0
LINE
5
7F
100
AcDbEntity
8
81
62
256
6
ByLayer
370
18
48
1
60
0
100
AcDbLine
10
28.6
20
8.05
30
0
11
33.593148
21
8.05
31
0
39
0
210
0
220
0
230
1
0
LINE
5
80
100
AcDbEntity
8
80
62
256
6
ByLayer
370
18
48
1
60
0
100
AcDbLine
10
0
20
0
30
0
11
-5
21
0
31
0
39
0
210
0
220
0
230
1
0
LINE
5
81
100
AcDbEntity
8
1
62
256
6
ByLayer
370
18
48
1
60
0
100
AcDbLine
10
8.322566
20
0.201185
30
0
11
9.024248
21
0.201185
31
0
39
0
210
0
220
0
230
1
0
LINE
5
82
100
AcDbEntity
8
1
62
256
6
ByLayer
370
18
48
1
60
0
100
AcDbLine
10
9.025042
20
-1.851185
30
0
11
8.322566
21
-1.851185
31
0
39
0
210
0
220
0
230
1
0
LINE
5
83
100
AcDbEntity
8
1
62
256
6
ByLayer
370
18
48
1
60
0
100
AcDbLine
10
7.10105
20
0.201185
30
0
11
7.350039
21
0.201185
31
0
39
0
210
0
220
0
230
1
0
LINE
5
84
100
AcDbEntity
8
1
62
256
6
ByLayer
370
18
48
1
60
0
100
AcDbLine
10
7.350024
20
-1.851185
30
0
11
7.101227
21
-1.851185
31
0
39
0
210
0
220
0
230
1
0
LINE
5
85
100
AcDbEntity
8
1
62
256
6
ByLayer
370
18
48
1
60
0
100
AcDbLine
10
7.989389
20
-3.825
30
0
11
8.261784
21
-3.825
31
0
39
0
210
0
220
0
230
1
0
LINE
5
86
100
AcDbEntity
8
1
62
256
6
ByLayer
370
18
48
1
60
0
100
AcDbLine
10
8.261784
20
2.175
30
0
11
7.989389
21
2.175
31
0
39
0
210
0
220
0
230
1
0
LINE
5
87
100
AcDbEntity
8
1
62
256
6
ByLayer
370
18
48
1
60
0
100
AcDbLine
10
0
20
-7.95
30
0
11
0.468629
21
-7.95
31
0
39
0
210
0
220
0
230
1
0
LINE
5
88
100
AcDbEntity
8
1
62
256
6
ByLayer
370
18
48
1
60
0
100
AcDbLine
10
0
20
-7.95
30
0
11
0
21
7.8
31
0
39
0
210
0
220
0
230
1
0
LINE
5
89
100
AcDbEntity
8
1
62
256
6
ByLayer
370
18
48
1
60
0
100
AcDbLine
10
10.979894
20
-7.055666
30
0
11
10.8
21
-7.192021
31
0
39
0
210
0
220
0
230
1
0
LINE
5
8A
100
AcDbEntity
8
1
62
256
6
ByLayer
370
18
48
1
60
0
100
AcDbLine
10
10.979894
20
5.05
30
0
11
10.8
21
5.05
31
0
39
0
210
0
220
0
230
1
0
LINE
5
8B
100
AcDbEntity
8
1
62
256
6
ByLayer
370
18
48
1
60
0
100
AcDbLine
10
10.979894
20
-7.055666
30
0
11
10.979894
21
5.05
31
0
39
0
210
0
220
0
230
1
0
LINE
5
8C
100
AcDbEntity
8
1
62
256
6
ByLayer
370
18
48
1
60
0
100
AcDbLine
10
0.468629
20
7.8
30
0
11
0
21
7.8
31
0
39
0
210
0
220
0
230
1
0
LINE
5
8D
100
AcDbEntity
8
1
62
256
6
ByLayer
370
18
48
1
60
0
100
AcDbLine
10
10.8
20
-1.864531
30
0
11
10.8
21
-2.087077
31
0
39
0
210
0
220
0
230
1
0
LINE
5
8E
100
AcDbEntity
8
1
62
256
6
ByLayer
370
18
48
1
60
0
100
AcDbLine
10
0.468629
20
-7.95
30
0
11
5
21
-7.95
31
0
39
0
210
0
220
0
230
1
0
LINE
5
8F
100
AcDbEntity
8
1
62
256
6
ByLayer
370
18
48
1
60
0
100
AcDbLine
10
0.468629
20
7.8
30
0
11
5
21
7.8
31
0
39
0
210
0
220
0
230
1
0
LINE
5
90
100
AcDbEntity
8
1
62
256
6
ByLayer
370
13
48
1
60
0
100
AcDbLine
10
0.468629
20
7.8
30
0
11
0.468629
21
-7.95
31
0
39
0
210
0
220
0
230
1
0
LINE
5
91
100
AcDbEntity
8
1
62
256
6
ByLayer
370
18
48
1
60
0
100
AcDbLine
10
8.693501
20
6.3
30
0
11
15.452812
21
6.3
31
0
39
0
210
0
220
0
230
1
0
LINE
5
92
100
AcDbEntity
8
1
62
256
6
ByLayer
370
18
48
1
60
0
100
AcDbLine
10
5
20
-7.95
30
0
11
6.931349
21
-7.95
31
0
39
0
210
0
220
0
230
1
0
LINE
5
93
100
AcDbEntity
8
1
62
256
6
ByLayer
370
18
48
1
60
0
100
AcDbLine
10
5
20
7.8
30
0
11
15.452812
21
7.8
31
0
39
0
210
0
220
0
230
1
0
LINE
5
94
100
AcDbEntity
8
1
62
256
6
ByLayer
370
18
48
1
60
0
100
AcDbLine
10
5
20
7.8
30
0
11
5
21
-7.95
31
0
39
0
210
0
220
0
230
1
0
LINE
5
95
100
AcDbEntity
8
1
62
256
6
ByLayer
370
18
48
1
60
0
100
AcDbLine
10
10.8
20
0.437077
30
0
11
10.8
21
0.214531
31
0
39
0
210
0
220
0
230
1
0
LINE
5
96
100
AcDbEntity
8
1
62
256
6
ByLayer
370
18
48
1
60
0
100
AcDbLine
10
6.931349
20
5.5
30
0
11
6.931349
21
2.010488
31
0
39
0
210
0
220
0
230
1
0
LINE
5
97
100
AcDbEntity
8
1
62
256
6
ByLayer
370
18
48
1
60
0
100
AcDbLine
10
10.8
20
0.437077
30
0
11
10.8
21
5.5
31
0
39
0
210
0
220
0
230
1
0
LINE
5
98
100
AcDbEntity
8
1
62
256
6
ByLayer
370
13
48
1
60
0
100
AcDbLine
10
10.8
20
5.5
30
0
11
6.931349
21
5.5
31
0
39
0
210
0
220
0
230
1
0
LINE
5
99
100
AcDbEntity
8
1
62
256
6
ByLayer
370
18
48
1
60
0
100
AcDbLine
10
15.452812
20
6.3
30
0
11
21.842581
21
6.3
31
0
39
0
210
0
220
0
230
1
0
LINE
5
9A
100
AcDbEntity
8
1
62
256
6
ByLayer
370
18
48
1
60
0
100
AcDbLine
10
22.311865
20
7.098819
30
0
11
22.311865
21
7.001181
31
0
39
0
210
0
220
0
230
1
0
LINE
5
9B
100
AcDbEntity
8
1
62
256
6
ByLayer
370
18
48
1
60
0
100
AcDbLine
10
15.452812
20
7.8
30
0
11
21.842581
21
7.8
31
0
39
0
210
0
220
0
230
1
0
LINE
5
9C
100
AcDbEntity
8
1
62
256
6
ByLayer
370
18
48
1
60
0
100
AcDbLine
10
15.452812
20
6.3
30
0
11
15.452812
21
7.8
31
0
39
0
210
0
220
0
230
1
0
LINE
5
9D
100
AcDbEntity
8
1
62
256
6
ByLayer
370
18
48
1
60
0
100
AcDbLine
10
6.931349
20
-3.660488
30
0
11
6.931349
21
-7.95
31
0
39
0
210
0
220
0
230
1
0
LINE
5
9E
100
AcDbEntity
8
1
62
256
6
ByLayer
370
18
48
1
60
0
100
AcDbLine
10
9.8
20
-7.95
30
0
11
6.931349
21
-7.95
31
0
39
0
210
0
220
0
230
1
0
LINE
5
9F
100
AcDbEntity
8
1
62
256
6
ByLayer
370
18
48
1
60
0
100
AcDbLine
10
10.8
20
-7.192021
30
0
11
9.8
21
-7.95
31
0
39
0
210
0
220
0
230
1
0
LINE
5
A0
100
AcDbEntity
8
1
62
256
6
ByLayer
370
18
48
1
60
0
100
AcDbLine
10
10.8
20
-7.192021
30
0
11
10.8
21
-2.087077
31
0
39
0
210
0
220
0
230
1
0
LINE
5
A1
100
AcDbEntity
8
1
62
256
6
ByLayer
370
18
48
1
60
0
100
AcDbLine
10
11.90982
20
6.250009
30
0
11
11.913059
21
6.072755
31
0
39
0
210
0
220
0
230
1
0
LINE
5
A2
100
AcDbEntity
8
1
62
256
6
ByLayer
370
18
48
1
60
0
100
AcDbLine
10
20.254347
20
-0.025828
30
0
11
11.150844
21
-6.926089
31
0
39
0
210
0
220
0
230
1
0
LINE
5
A3
100
AcDbEntity
8
1
62
256
6
ByLayer
370
18
48
1
60
0
100
AcDbLine
10
20.254347
20
-0.025828
30
0
11
20.254347
21
5.5
31
0
39
0
210
0
220
0
230
1
0
LINE
5
A4
100
AcDbEntity
8
1
62
256
6
ByLayer
370
13
48
1
60
0
100
AcDbLine
10
20.254347
20
5.5
30
0
11
11.874244
21
5.5
31
0
39
0
210
0
220
0
230
1
0
LINE
5
A5
100
AcDbEntity
8
1
62
256
6
ByLayer
370
18
48
1
60
0
100
AcDbLine
10
11.874244
20
5.05
30
0
11
11.874244
21
5.5
31
0
39
0
210
0
220
0
230
1
0
LINE
5
A6
100
AcDbEntity
8
1
62
256
6
ByLayer
370
18
48
1
60
0
100
AcDbLine
10
11.874244
20
5.05
30
0
11
11.150844
21
5.05
31
0
39
0
210
0
220
0
230
1
0
LINE
5
A7
100
AcDbEntity
8
1
62
256
6
ByLayer
370
18
48
1
60
0
100
AcDbLine
10
11.150844
20
-6.926089
30
0
11
10.979878
21
-7.055678
31
0
39
0
210
0
220
0
230
1
0
LINE
5
A8
100
AcDbEntity
8
1
62
256
6
ByLayer
370
18
48
1
60
0
100
AcDbLine
10
11.150844
20
5.05
30
0
11
11.150844
21
-6.926089
31
0
39
0
210
0
220
0
230
1
0
LINE
5
A9
100
AcDbEntity
8
1
62
256
6
ByLayer
370
18
48
1
60
0
100
AcDbLine
10
11.150844
20
5.05
30
0
11
10.979889
21
5.05
31
0
39
0
210
0
220
0
230
1
0
LINE
5
AA
100
AcDbEntity
8
1
62
256
6
ByLayer
370
18
48
1
60
0
100
AcDbLine
10
8.773329
20
-1.213144
30
0
11
8.758092
21
-1.202764
31
0
39
0
210
0
220
0
230
1
0
LINE
5
AB
100
AcDbEntity
8
1
62
256
6
ByLayer
370
18
48
1
60
0
100
AcDbLine
10
8.758092
20
-0.447236
30
0
11
8.773329
21
-0.436856
31
0
39
0
210
0
220
0
230
1
0
LINE
5
AC
100
AcDbEntity
8
1
62
256
6
ByLayer
370
13
48
1
60
0
100
AcDbLine
10
9.482261
20
-0.447236
30
0
11
8.758092
21
-0.447236
31
0
39
0
210
0
220
0
230
1
0
LINE
5
AD
100
AcDbEntity
8
1
62
256
6
ByLayer
370
13
48
1
60
0
100
AcDbLine
10
9.482261
20
-1.202764
30
0
11
8.758092
21
-1.202764
31
0
39
0
210
0
220
0
230
1
0
LINE
5
AE
100
AcDbEntity
8
1
62
256
6
ByLayer
370
18
48
1
60
0
100
AcDbLine
10
9.50253
20
-1.213144
30
0
11
8.773329
21
-1.213144
31
0
39
0
210
0
220
0
230
1
0
LINE
5
AF
100
AcDbEntity
8
1
62
256
6
ByLayer
370
18
48
1
60
0
100
AcDbLine
10
9.50253
20
-0.436856
30
0
11
8.773329
21
-0.436856
31
0
39
0
210
0
220
0
230
1
0
LINE
5
B0
100
AcDbEntity
8
1
62
256
6
ByLayer
370
13
48
1
60
0
100
AcDbLine
10
8.554449
20
0.600834
30
0
11
7.864814
21
0.600834
31
0
39
0
210
0
220
0
230
1
0
LINE
5
B1
100
AcDbEntity
8
1
62
256
6
ByLayer
370
13
48
1
60
0
100
AcDbLine
10
8.554449
20
-2.250834
30
0
11
7.864814
21
-2.250834
31
0
39
0
210
0
220
0
230
1
0
LINE
5
B2
100
AcDbEntity
8
1
62
256
6
ByLayer
370
18
48
1
60
0
100
AcDbLine
10
8.55909
20
-2.270834
30
0
11
7.870235
21
-2.270834
31
0
39
0
210
0
220
0
230
1
0
LINE
5
B3
100
AcDbEntity
8
1
62
256
6
ByLayer
370
18
48
1
60
0
100
AcDbLine
10
8.55909
20
0.620834
30
0
11
7.870235
21
0.620834
31
0
39
0
210
0
220
0
230
1
0
LINE
5
B4
100
AcDbEntity
8
1
62
256
6
ByLayer
370
13
48
1
60
0
100
AcDbLine
10
7.281817
20
0.22307
30
0
11
7.124865
21
0.22307
31
0
39
0
210
0
220
0
230
1
0
LINE
5
B5
100
AcDbEntity
8
1
62
256
6
ByLayer
370
13
48
1
60
0
100
AcDbLine
10
7.281817
20
-1.87307
30
0
11
7.123858
21
-1.87307
31
0
39
0
210
0
220
0
230
1
0
LINE
5
B6
100
AcDbEntity
8
1
62
256
6
ByLayer
370
18
48
1
60
0
100
AcDbLine
10
7.271221
20
-1.88269
30
0
11
7.136205
21
-1.88269
31
0
39
0
210
0
220
0
230
1
0
LINE
5
B7
100
AcDbEntity
8
1
62
256
6
ByLayer
370
18
48
1
60
0
100
AcDbLine
10
7.271221
20
0.23269
30
0
11
7.136877
21
0.23269
31
0
39
0
210
0
220
0
230
1
0
LINE
5
B8
100
AcDbEntity
8
SK1
62
256
6
ByLayer
370
18
48
1
60
0
100
AcDbLine
10
-96.4
20
-7.95
30
0
11
-0.662742
21
-7.95
31
0
39
0
210
0
220
0
230
1
0
LINE
5
BA
100
AcDbEntity
8
SK1
62
256
6
ByLayer
370
18
48
1
60
0
100
AcDbLine
10
-0.662742
20
7.8
30
0
11
-1.6
21
7.8
31
0
39
0
210
0
220
0
230
1
0
LINE
5
BB
100
AcDbEntity
8
SK1
62
256
6
ByLayer
370
18
48
1
60
0
100
AcDbLine
10
-96.4
20
-7.95
30
0
11
-96.4
21
7.95
31
0
39
0
210
0
220
0
230
1
0
LINE
5
BC
100
AcDbEntity
8
SK1
62
256
6
ByLayer
370
18
48
1
60
0
100
AcDbLine
10
-96.4
20
7.95
30
0
11
-2.276387
21
7.95
31
0
39
0
210
0
220
0
230
1
0
LINE
5
BD
100
AcDbEntity
8
SK1
62
256
6
ByLayer
370
18
48
1
60
0
100
AcDbLine
10
0
20
-7.95
30
0
11
0
21
7.8
31
0
39
0
210
0
220
0
230
1
0
LINE
5
BE
100
AcDbEntity
8
SK1
62
256
6
ByLayer
370
18
48
1
60
0
100
AcDbLine
10
-0.662742
20
-7.95
30
0
11
0
21
-7.95
31
0
39
0
210
0
220
0
230
1
0
LINE
5
BF
100
AcDbEntity
8
SK1
62
256
6
ByLayer
370
18
48
1
60
0
100
AcDbLine
10
0
20
7.8
30
0
11
-0.662742
21
7.8
31
0
39
0
210
0
220
0
230
1
0
LINE
5
C0
100
AcDbEntity
8
SK1
62
256
6
ByLayer
370
13
48
1
60
0
100
AcDbLine
10
-0.662742
20
-7.95
30
0
11
-0.662742
21
7.8
31
0
39
0
210
0
220
0
230
1
0
LINE
5
C1
100
AcDbEntity
8
1
62
256
6
ByLayer
370
18
48
1
60
0
100
AcDbLine
10
9.070995
20
8.045242
30
0
11
10.092021
21
7.982708
31
0
39
0
210
0
220
0
230
1
0
LINE
5
C2
100
AcDbEntity
8
1
62
256
6
ByLayer
370
18
48
1
60
0
100
AcDbLine
10
8.627409
20
7.799976
30
0
11
8.627409
21
7.852703
31
0
39
0
210
0
220
0
230
1
0
LINE
5
C3
100
AcDbEntity
8
1
62
256
6
ByLayer
370
18
48
1
60
0
100
AcDbLine
10
10.630773
20
7.975121
30
0
11
10.672114
21
7.966075
31
0
39
0
210
0
220
0
230
1
0
LINE
5
C4
100
AcDbEntity
8
1
62
256
6
ByLayer
370
18
48
1
60
0
100
AcDbLine
10
10.092021
20
7.799985
30
0
11
10.092021
21
7.982708
31
0
39
0
210
0
220
0
230
1
0
LINE
5
C5
100
AcDbEntity
8
1
62
256
6
ByLayer
370
18
48
1
60
0
100
AcDbLine
10
10.092021
20
7.982708
30
0
11
10.592227
21
7.979398
31
0
39
0
210
0
220
0
230
1
0
LINE
5
C6
100
AcDbEntity
8
1
62
256
6
ByLayer
370
18
48
1
60
0
100
AcDbLine
10
28.156415
20
8.045242
30
0
11
27.135388
21
7.982708
31
0
39
0
210
0
220
0
230
1
0
LINE
5
C7
100
AcDbEntity
8
1
62
256
6
ByLayer
370
18
48
1
60
0
100
AcDbLine
10
27.135388
20
6.117292
30
0
11
28.156415
21
6.054758
31
0
39
0
210
0
220
0
230
1
0
LINE
5
C8
100
AcDbEntity
8
1
62
256
6
ByLayer
370
18
48
1
60
0
100
AcDbLine
10
28.6
20
6.247297
30
0
11
28.6
21
7.852703
31
0
39
0
210
0
220
0
230
1
0
LINE
5
C9
100
AcDbEntity
8
1
62
256
6
ByLayer
370
18
48
1
60
0
100
AcDbLine
10
26.560155
20
7.975121
30
0
11
26.516015
21
7.966075
31
0
39
0
210
0
220
0
230
1
0
LINE
5
CA
100
AcDbEntity
8
1
62
256
6
ByLayer
370
18
48
1
60
0
100
AcDbLine
10
26.516015
20
6.133925
30
0
11
26.560155
21
6.124879
31
0
39
0
210
0
220
0
230
1
0
LINE
5
CB
100
AcDbEntity
8
1
62
256
6
ByLayer
370
18
48
1
60
0
100
AcDbLine
10
26.601312
20
6.120602
30
0
11
27.135388
21
6.117292
31
0
39
0
210
0
220
0
230
1
0
LINE
5
CC
100
AcDbEntity
8
1
62
256
6
ByLayer
370
18
48
1
60
0
100
AcDbLine
10
27.135388
20
6.117292
30
0
11
27.135388
21
7.982708
31
0
39
0
210
0
220
0
230
1
0
LINE
5
CD
100
AcDbEntity
8
1
62
256
6
ByLayer
370
18
48
1
60
0
100
AcDbLine
10
27.135388
20
7.982708
30
0
11
26.601312
21
7.979398
31
0
39
0
210
0
220
0
230
1
0
LINE
5
CE
100
AcDbEntity
8
1
62
256
6
ByLayer
370
18
48
1
60
0
100
AcDbLine
10
11.321651
20
6.25
30
0
11
13.900869
21
6.25
31
0
39
0
210
0
220
0
230
1
0
LINE
5
CF
100
AcDbEntity
8
1
62
256
6
ByLayer
370
18
48
1
60
0
100
AcDbLine
10
13.900869
20
7.85
30
0
11
11.257635
21
7.85
31
0
39
0
210
0
220
0
230
1
0
LINE
5
D0
100
AcDbEntity
8
1
62
256
6
ByLayer
370
18
48
1
60
0
100
AcDbLine
10
10.672114
20
7.799979
30
0
11
10.672114
21
7.966075
31
0
39
0
210
0
220
0
230
1
0
LINE
5
D1
100
AcDbEntity
8
1
62
256
6
ByLayer
370
18
48
1
60
0
100
AcDbLine
10
10.672114
20
7.966075
30
0
11
11.0131
21
7.8802
31
0
39
0
210
0
220
0
230
1
0
LINE
5
D2
100
AcDbEntity
8
1
62
256
6
ByLayer
370
13
48
1
60
0
100
AcDbLine
10
25.489289
20
7.05
30
0
11
22.311851
21
7.05
31
0
39
0
210
0
220
0
230
1
0
LINE
5
D3
100
AcDbEntity
8
1
62
256
6
ByLayer
370
13
48
1
60
0
100
AcDbLine
10
22.193254
20
7.247335
30
0
11
24.832882
21
7.247335
31
0
39
0
210
0
220
0
230
1
0
LINE
5
D4
100
AcDbEntity
8
1
62
256
6
ByLayer
370
13
48
1
60
0
100
AcDbLine
10
24.832882
20
6.852665
30
0
11
22.193254
21
6.852665
31
0
39
0
210
0
220
0
230
1
0
LINE
5
D5
100
AcDbEntity
8
1
62
256
6
ByLayer
370
13
48
1
60
0
100
AcDbLine
10
22.184323
20
7.250756
30
0
11
24.788242
21
7.250756
31
0
39
0
210
0
220
0
230
1
0
LINE
5
D6
100
AcDbEntity
8
1
62
256
6
ByLayer
370
13
48
1
60
0
100
AcDbLine
10
22.184323
20
6.849244
30
0
11
24.788242
21
6.849244
31
0
39
0
210
0
220
0
230
1
0
LINE
5
D7
100
AcDbEntity
8
1
62
256
6
ByLayer
370
13
48
1
60
0
100
AcDbLine
10
22.055203
20
6.798976
30
0
11
24.195054
21
6.798976
31
0
39
0
210
0
220
0
230
1
0
LINE
5
D8
100
AcDbEntity
8
1
62
256
6
ByLayer
370
13
48
1
60
0
100
AcDbLine
10
22.055203
20
7.301024
30
0
11
24.195054
21
7.301024
31
0
39
0
210
0
220
0
230
1
0
LINE
5
D9
100
AcDbEntity
8
1
62
256
6
ByLayer
370
13
48
1
60
0
100
AcDbLine
10
22.005389
20
7.417998
30
0
11
23.682345
21
7.417998
31
0
39
0
210
0
220
0
230
1
0
LINE
5
DA
100
AcDbEntity
8
1
62
256
6
ByLayer
370
13
48
1
60
0
100
AcDbLine
10
22.008429
20
6.682002
30
0
11
23.682345
21
6.682002
31
0
39
0
210
0
220
0
230
1
0
LINE
5
DB
100
AcDbEntity
8
1
62
256
6
ByLayer
370
18
48
1
60
0
100
AcDbLine
10
23.214516
20
7.85
30
0
11
13.900869
21
7.85
31
0
39
0
210
0
220
0
230
1
0
LINE
5
DC
100
AcDbEntity
8
1
62
256
6
ByLayer
370
18
48
1
60
0
100
AcDbLine
10
13.900869
20
7.85
30
0
11
13.900869
21
7.799998
31
0
39
0
210
0
220
0
230
1
0
LINE
5
DD
100
AcDbEntity
8
1
62
256
6
ByLayer
370
18
48
1
60
0
100
AcDbLine
10
13.900869
20
6.25
30
0
11
23.214516
21
6.25
31
0
39
0
210
0
220
0
230
1
0
LINE
5
DE
100
AcDbEntity
8
1
62
256
6
ByLayer
370
18
48
1
60
0
100
AcDbLine
10
13.900869
20
6.300002
30
0
11
13.900869
21
6.25
31
0
39
0
210
0
220
0
230
1
0
LINE
5
DF
100
AcDbEntity
8
1
62
256
6
ByLayer
370
13
48
1
60
0
100
AcDbLine
10
21.897881
20
6.424016
30
0
11
23.254357
21
6.424016
31
0
39
0
210
0
220
0
230
1
0
LINE
5
E0
100
AcDbEntity
8
1
62
256
6
ByLayer
370
13
48
1
60
0
100
AcDbLine
10
23.214516
20
6.374562
30
0
11
21.875825
21
6.374562
31
0
39
0
210
0
220
0
230
1
0
LINE
5
E1
100
AcDbEntity
8
1
62
256
6
ByLayer
370
18
48
1
60
0
100
AcDbLine
10
26.516015
20
7.966075
30
0
11
26.167346
21
7.8802
31
0
39
0
210
0
220
0
230
1
0
LINE
5
E2
100
AcDbEntity
8
1
62
256
6
ByLayer
370
18
48
1
60
0
100
AcDbLine
10
23.214516
20
7.85
30
0
11
25.917302
21
7.85
31
0
39
0
210
0
220
0
230
1
0
LINE
5
E3
100
AcDbEntity
8
1
62
256
6
ByLayer
370
18
48
1
60
0
100
AcDbLine
10
23.214516
20
7.85
30
0
11
23.214516
21
7.725438
31
0
39
0
210
0
220
0
230
1
0
LINE
5
E4
100
AcDbEntity
8
1
62
256
6
ByLayer
370
18
48
1
60
0
100
AcDbLine
10
23.254357
20
7.675984
30
0
11
23.682345
21
7.417998
31
0
39
0
210
0
220
0
230
1
0
LINE
5
E5
100
AcDbEntity
8
1
62
256
6
ByLayer
370
18
48
1
60
0
100
AcDbLine
10
24.788242
20
7.250756
30
0
11
24.832882
21
7.247335
31
0
39
0
210
0
220
0
230
1
0
LINE
5
E6
100
AcDbEntity
8
1
62
256
6
ByLayer
370
18
48
1
60
0
100
AcDbLine
10
24.832882
20
6.852665
30
0
11
24.788242
21
6.849244
31
0
39
0
210
0
220
0
230
1
0
LINE
5
E7
100
AcDbEntity
8
1
62
256
6
ByLayer
370
18
48
1
60
0
100
AcDbLine
10
23.682345
20
6.682002
30
0
11
23.254357
21
6.424016
31
0
39
0
210
0
220
0
230
1
0
LINE
5
E8
100
AcDbEntity
8
1
62
256
6
ByLayer
370
18
48
1
60
0
100
AcDbLine
10
23.214516
20
6.374562
30
0
11
23.214516
21
6.25
31
0
39
0
210
0
220
0
230
1
0
LINE
5
E9
100
AcDbEntity
8
1
62
256
6
ByLayer
370
18
48
1
60
0
100
AcDbLine
10
25.917302
20
6.25
30
0
11
23.214516
21
6.25
31
0
39
0
210
0
220
0
230
1
0
LINE
5
EA
100
AcDbEntity
8
1
62
256
6
ByLayer
370
18
48
1
60
0
100
AcDbLine
10
26.167346
20
6.2198
30
0
11
26.516015
21
6.133925
31
0
39
0
210
0
220
0
230
1
0
LINE
5
EB
100
AcDbEntity
8
1
62
256
6
ByLayer
370
18
48
1
60
0
100
AcDbLine
10
26.516015
20
6.133925
30
0
11
26.516015
21
7.966075
31
0
39
0
210
0
220
0
230
1
0
LINE
5
EC
100
AcDbEntity
8
1
62
256
6
ByLayer
370
13
48
1
60
0
100
AcDbLine
10
21.874224
20
7.725438
30
0
11
23.214516
21
7.725438
31
0
39
0
210
0
220
0
230
1
0
LINE
5
ED
100
AcDbEntity
8
1
62
256
6
ByLayer
370
13
48
1
60
0
100
AcDbLine
10
23.254357
20
7.675984
30
0
11
21.895386
21
7.675984
31
0
39
0
210
0
220
0
230
1
0
MTEXT
5
14E
100
AcDbEntity
8
SK6
62
256
6
ByLayer
370
18
48
1
60
0
100
AcDbMText
10
-66.217926
20
-54.160378
30
0
210
0
220
0
230
1
1
\W0.7401;C2R-RS16-RE17DS
40
3.5
41
0
44
1.084337
50
0
71
7
72
5
7
iso_b_vert
0
DIMENSION
5
153
100
AcDbEntity
8
2
62
256
6
ByLayer
370
18
48
1
60
0
100
AcDbDimension
2
_U0
10
56.35
20
-7.95
30
0
11
56.35
21
0.05
31
0
70
32
71
1
72
1
41
1
210
0
220
0
230
1
3
Standard
100
AcDbAlignedDimension
13
28.6
23
8.05
33
0
14
-96.4
24
-7.95
34
0
50
90
100
AcDbRotatedDimension
1001
ACAD
1000
DSTYLE
1002
{
1070
   371
1070
    13
1070
   372
1070
    13
1070
   170
1070
     0
1070
   144
1040
1.0
1070
   277
1070
     2
1070
   284
1070
     8
1070
   278
1070
    46
1070
   146
1040
1.0
1070
   345
1005
16
1070
   347
1005
16
1070
   346
1005
16
1070
   344
1005
0
1070
   343
1005
0
1070
   172
1070
     1
1070
    76
1070
     0
1070
    75
1070
     0
1070
   282
1070
     0
1070
   281
1070
     0
1070
    71
1070
     0
1070
    74
1070
     0
1070
   279
1070
     0
1070
   173
1070
     1
1070
   340
1005
14F
1070
   271
1070
     2
1070
   272
1070
     2
1070
    77
1070
     1
1070
    73
1070
     0
1070
   171
1070
     3
1070
   274
1070
     4
1070
   177
1070
     2
1070
   176
1070
     2
1070
   178
1070
     2
1070
    78
1070
     8
1070
    48
1040
-0.1
1070
    41
1040
3.5
1070
   147
1040
1.75
1070
    42
1040
1.5875
1070
    44
1040
2.0
1070
   140
1040
3.5
1002
}
1001
ACAD_DSTYLE_DIM_LINETYPE
1070
   380
1005
16
1001
ACAD_DSTYLE_DIM_EXT1_LINETYPE
1070
   381
1005
16
1001
ACAD_DSTYLE_DIM_EXT2_LINETYPE
1070
   382
1005
16
0
DIMENSION
5
16E
100
AcDbEntity
8
2
62
256
6
ByLayer
370
18
48
1
60
0
100
AcDbDimension
2
_U1
10
48.693148
20
8.05
30
0
11
48.693148
21
7.05
31
0
70
32
71
1
72
1
41
1
210
0
220
0
230
1
3
Standard
100
AcDbAlignedDimension
13
28.6
23
6.05
33
0
14
28.6
24
8.05
34
0
50
90
100
AcDbRotatedDimension
1001
ACAD
1000
DSTYLE
1002
{
1070
   371
1070
    13
1070
   372
1070
    13
1070
   170
1070
     0
1070
   144
1040
1.0
1070
   277
1070
     2
1070
   284
1070
     8
1070
   278
1070
    46
1070
   146
1040
1.0
1070
   345
1005
16
1070
   347
1005
16
1070
   346
1005
16
1070
   344
1005
0
1070
   343
1005
0
1070
   172
1070
     1
1070
    76
1070
     0
1070
    75
1070
     0
1070
   282
1070
     0
1070
   281
1070
     0
1070
    71
1070
     0
1070
    74
1070
     0
1070
   279
1070
     0
1070
   173
1070
     1
1070
   340
1005
14F
1070
   271
1070
     2
1070
   272
1070
     2
1070
    77
1070
     1
1070
    73
1070
     0
1070
   171
1070
     3
1070
   274
1070
     4
1070
   177
1070
     2
1070
   176
1070
     2
1070
   178
1070
     2
1070
    78
1070
     8
1070
    48
1040
-0.1
1070
    41
1040
3.5
1070
   147
1040
1.75
1070
    42
1040
1.5875
1070
    44
1040
2.0
1070
   140
1040
3.5
1002
}
1001
ACAD_DSTYLE_DIM_LINETYPE
1070
   380
1005
16
1001
ACAD_DSTYLE_DIM_EXT1_LINETYPE
1070
   381
1005
16
1001
ACAD_DSTYLE_DIM_EXT2_LINETYPE
1070
   382
1005
16
0
DIMENSION
5
187
100
AcDbEntity
8
SK2
62
256
6
ByLayer
370
18
48
1
60
0
100
AcDbDimension
2
_U2
10
-108
20
8.05
30
0
11
-108
21
0.05
31
0
70
32
71
1
72
1
41
1
210
0
220
0
230
1
3
Standard
100
AcDbAlignedDimension
13
-96.4
23
-7.95
33
0
14
-96.4
24
8.05
34
0
50
90
100
AcDbRotatedDimension
1001
ACAD
1000
DSTYLE
1002
{
1070
   371
1070
    13
1070
   372
1070
    13
1070
   170
1070
     0
1070
   144
1040
1.0
1070
   277
1070
     2
1070
   284
1070
     8
1070
   278
1070
    46
1070
   146
1040
1.0
1070
   345
1005
16
1070
   347
1005
16
1070
   346
1005
16
1070
   344
1005
0
1070
   343
1005
0
1070
   172
1070
     1
1070
    76
1070
     0
1070
    75
1070
     0
1070
   282
1070
     0
1070
   281
1070
     0
1070
    71
1070
     0
1070
    74
1070
     0
1070
   279
1070
     0
1070
   173
1070
     1
1070
   340
1005
14F
1070
   271
1070
     2
1070
   272
1070
     2
1070
    77
1070
     1
1070
    73
1070
     0
1070
   171
1070
     3
1070
   274
1070
     4
1070
   177
1070
     2
1070
   176
1070
     2
1070
   178
1070
     2
1070
    78
1070
     8
1070
    48
1040
-0.1
1070
    41
1040
3.5
1070
   147
1040
1.75
1070
    42
1040
1.5875
1070
    44
1040
2.0
1070
   140
1040
3.5
1002
}
1001
ACAD_DSTYLE_DIM_LINETYPE
1070
   380
1005
16
1001
ACAD_DSTYLE_DIM_EXT1_LINETYPE
1070
   381
1005
16
1001
ACAD_DSTYLE_DIM_EXT2_LINETYPE
1070
   382
1005
16
0
DIMENSION
5
1A1
100
AcDbEntity
8
2
62
256
6
ByLayer
370
18
48
1
60
0
100
AcDbDimension
2
_U3
10
28.6
20
-19.7
30
0
11
20.1
21
-19.7
31
0
70
32
71
1
72
1
41
1
210
0
220
0
230
1
3
Standard
100
AcDbAlignedDimension
13
11.6
23
6.3
33
0
14
28.6
24
8.05
34
0
50
0
100
AcDbRotatedDimension
1001
ACAD
1000
DSTYLE
1002
{
1070
   371
1070
    13
1070
   372
1070
    13
1070
   170
1070
     0
1070
   144
1040
1.0
1070
   277
1070
     2
1070
   284
1070
     8
1070
   278
1070
    46
1070
   146
1040
1.0
1070
   345
1005
16
1070
   347
1005
16
1070
   346
1005
16
1070
   344
1005
0
1070
   343
1005
0
1070
   172
1070
     1
1070
    76
1070
     0
1070
    75
1070
     0
1070
   282
1070
     0
1070
   281
1070
     0
1070
    71
1070
     0
1070
    74
1070
     0
1070
   279
1070
     0
1070
   173
1070
     1
1070
   340
1005
14F
1070
   271
1070
     1
1070
   272
1070
     2
1070
    77
1070
     1
1070
    73
1070
     1
1070
   171
1070
     3
1070
   274
1070
     4
1070
   177
1070
     2
1070
   176
1070
     2
1070
   178
1070
     2
1070
    78
1070
     8
1070
    48
1040
-0.1
1070
    41
1040
3.5
1070
   147
1040
1.75
1070
    42
1040
1.5875
1070
    44
1040
2.0
1070
   140
1040
3.5
1002
}
1001
ACAD_DSTYLE_DIM_LINETYPE
1070
   380
1005
16
1001
ACAD_DSTYLE_DIM_EXT1_LINETYPE
1070
   381
1005
16
1001
ACAD_DSTYLE_DIM_EXT2_LINETYPE
1070
   382
1005
16
0
DIMENSION
5
1BA
100
AcDbEntity
8
SK2
62
256
6
ByLayer
370
18
48
1
60
0
100
AcDbDimension
2
_U4
10
28.6
20
-25.7
30
0
11
-33.9
21
-25.7
31
0
70
32
71
1
72
1
41
1
210
0
220
0
230
1
3
Standard
100
AcDbAlignedDimension
13
-96.4
23
-7.95
33
0
14
28.6
24
8.05
34
0
50
0
100
AcDbRotatedDimension
1001
ACAD
1000
DSTYLE
1002
{
1070
   371
1070
    13
1070
   372
1070
    13
1070
   170
1070
     0
1070
   144
1040
1.0
1070
   277
1070
     2
1070
   284
1070
     8
1070
   278
1070
    46
1070
   146
1040
1.0
1070
   345
1005
16
1070
   347
1005
16
1070
   346
1005
16
1070
   344
1005
0
1070
   343
1005
0
1070
   172
1070
     1
1070
    76
1070
     0
1070
    75
1070
     0
1070
   282
1070
     0
1070
   281
1070
     0
1070
    71
1070
     0
1070
    74
1070
     0
1070
   279
1070
     0
1070
   173
1070
     1
1070
   340
1005
14F
1070
   271
1070
     1
1070
   272
1070
     2
1070
    77
1070
     1
1070
    73
1070
     1
1070
   171
1070
     3
1070
   274
1070
     4
1070
   177
1070
     2
1070
   176
1070
     2
1070
   178
1070
     2
1070
    78
1070
     8
1070
    48
1040
-0.1
1070
    41
1040
3.5
1070
   147
1040
1.75
1070
    42
1040
1.5875
1070
    44
1040
2.0
1070
   140
1040
3.5
1002
}
1001
ACAD_DSTYLE_DIM_LINETYPE
1070
   380
1005
16
1001
ACAD_DSTYLE_DIM_EXT1_LINETYPE
1070
   381
1005
16
1001
ACAD_DSTYLE_DIM_EXT2_LINETYPE
1070
   382
1005
16
0
ENDSEC
0
SECTION
2
OBJECTS
0
DICTIONARY
5
241
330
0
100
AcDbDictionary
280
0
281
1
3
ACAD_GROUP
350
242
3
ACAD_MLINESTYLE
350
243
0
DICTIONARY
5
242
330
0
100
AcDbDictionary
280
0
281
1
0
DICTIONARY
5
243
330
0
100
AcDbDictionary
280
0
281
1
3
Standard
350
18
0
MLINESTYLE
5
18
330
243
100
AcDbMlineStyle
2
Standard
70
0
3

62
256
51
90
52
90
71
2
49
-0.5
62
256
6
ByLayer
49
0.5
62
256
6
ByLayer
0
RASTERVARIABLES
5
230
330

100
AcDbRasterVariables
90
0
70
1
71
1
72
1
0
ENDSEC
0
EOF
