0
SECTION
2
HEADER
9
$ACADVER
1
AC1015
9
$DWGCODEPAGE
3
ANSI_1252
9
$HANDSEED
5
25a
9
$ANGBASE
50
0
9
$ANGDIR
70
0
9
$ATTMODE
70
1
9
$AUNITS
70
0
9
$AUPREC
70
0
9
$CECOLOR
62
256
9
$CELTSCALE
40
1
9
$CELTYPE
6
ByLayer
9
$CELWEIGHT
370
18
9
$CLAYER
8
0
9
$CMLJUST
70
0
9
$CMLSCALE
40
1
9
$CMLSTYLE
2
Standard
9
$DIMSTYLE
2
Standard
9
$TEXTSIZE
40
0.2
9
$TEXTSTYLE
7
Standard
9
$LUNITS
70
2
9
$LUPREC
70
4
9
$EXTNAMES
290
1
9
$INSUNITS
70
4
9
$LTSCALE
40
1
9
$LWDISPLAY
290
1
9
$PDMODE
70
0
9
$PDSIZE
40
0
9
$PLINEGEN
70
0
0
ENDSEC
0
SECTION
2
CLASSES
0
CLASS
1
RASTERVARIABLES
2
AcDbRasterVariables
3
ISM
90
0
280
0
281
0
0
ENDSEC
0
SECTION
2
TABLES
0
TABLE
2
VPORT
5
250
100
AcDbSymbolTable
0
VPORT
5
1
100
AcDbSymbolTableRecord
100
AcDbViewportTableRecord
2
*Active
70
0
10
0
20
0
11
1
21
1
12
-1
22
1
13
0
23
0
14
0.5
24
0.5
15
10
25
10
16
0
26
0
36
1
17
0
27
0
37
0
0
ENDTAB
0
TABLE
2
LTYPE
5
251
100
AcDbSymbolTable
0
LTYPE
5
14
100
AcDbSymbolTableRecord
100
AcDbLinetypeTableRecord
70
0
2
ByBlock
3

72
65
73
0
40
0
0
LTYPE
5
15
100
AcDbSymbolTableRecord
100
AcDbLinetypeTableRecord
70
0
2
ByLayer
3

72
65
73
0
40
0
0
LTYPE
5
16
100
AcDbSymbolTableRecord
100
AcDbLinetypeTableRecord
70
0
2
Continuous
3
Solid line
72
65
73
0
40
0
0
LTYPE
5
6E
100
AcDbSymbolTableRecord
100
AcDbLinetypeTableRecord
70
0
2
CENTER
3
____ _ ____ _ ____ _ ____
72
65
73
4
40
47.5
49
22
74
0
49
-8.5
74
0
49
8.5
74
0
49
-8.5
74
0
0
LTYPE
5
6F
100
AcDbSymbolTableRecord
100
AcDbLinetypeTableRecord
70
0
2
DASHED
3
__ __ __ __ __ __ __ __ __
72
65
73
2
40
25.72
49
12.86
74
0
49
-12.86
74
0
0
ENDTAB
0
TABLE
2
LAYER
5
252
100
AcDbSymbolTable
0
LAYER
5
10
100
AcDbSymbolTableRecord
100
AcDbLayerTableRecord
2
0
70
0
62
7
6
Continuous
290
1
370
-3
390
0
0
LAYER
5
71
100
AcDbSymbolTableRecord
100
AcDbLayerTableRecord
2
81
70
0
62
-3
6
Continuous
290
1
370
-3
390
0
0
LAYER
5
73
100
AcDbSymbolTableRecord
100
AcDbLayerTableRecord
2
80
70
0
62
-6
6
Continuous
290
1
370
-3
390
0
0
LAYER
5
75
100
AcDbSymbolTableRecord
100
AcDbLayerTableRecord
2
1
70
0
62
4
6
Continuous
290
1
370
-3
390
0
0
LAYER
5
162
100
AcDbSymbolTableRecord
100
AcDbLayerTableRecord
2
Defpoints
70
0
62
7
6
Continuous
290
0
370
-3
390
0
0
LAYER
5
170
100
AcDbSymbolTableRecord
100
AcDbLayerTableRecord
2
2
70
0
62
7
6
Continuous
290
1
370
-3
390
0
0
LAYER
5
23d
100
AcDbSymbolTableRecord
100
AcDbLayerTableRecord
2
SK1
70
0
62
4
6
Continuous
290
1
370
-3
390
0
0
LAYER
5
23e
100
AcDbSymbolTableRecord
100
AcDbLayerTableRecord
2
SK6
70
0
62
5
6
Continuous
290
1
370
-3
390
0
0
LAYER
5
23f
100
AcDbSymbolTableRecord
100
AcDbLayerTableRecord
2
SK2
70
0
62
7
6
Continuous
290
1
370
-3
390
0
0
ENDTAB
0
TABLE
2
STYLE
5
253
100
AcDbSymbolTable
0
STYLE
5
11
100
AcDbSymbolTableRecord
100
AcDbTextStyleTableRecord
2
Standard
3
txt
70
0
71
0
40
0
41
1
42
0
50
0
0
STYLE
5
15B
100
AcDbSymbolTableRecord
100
AcDbTextStyleTableRecord
2
iso_b_vert
3
simplex.shx
70
0
71
0
40
0
41
1
42
0
50
0
0
STYLE
5
15C
100
AcDbSymbolTableRecord
100
AcDbTextStyleTableRecord
2
DWGDirectTextStyle
3
simplex
70
0
71
0
40
0
41
1
42
0
50
0
0
ENDTAB
0
TABLE
2
DIMSTYLE
5
254
100
AcDbSymbolTable
100
AcDbDimStyleTable
0
DIMSTYLE
105
27
100
AcDbSymbolTableRecord
100
AcDbDimStyleTableRecord
2
Standard
70
0
3
<>
41
0.18
42
0.0625
44
0.18
140
0.18
147
0.09
73
0
74
0
77
1
271
2
275
0
278
52
280
0
340
11
0
ENDTAB
0
TABLE
2
VIEW
5
255
100
AcDbSymbolTable
0
ENDTAB
0
TABLE
2
UCS
5
256
100
AcDbSymbolTable
0
ENDTAB
0
TABLE
2
APPID
5
257
100
AcDbSymbolTable
0
APPID
5
12
100
AcDbSymbolTableRecord
100
AcDbRegAppTableRecord
2
ACAD
70
0
0
APPID
5
15E
100
AcDbSymbolTableRecord
100
AcDbRegAppTableRecord
2
ACAD_DSTYLE_DIMBREAK
70
0
0
APPID
5
1FC
100
AcDbSymbolTableRecord
100
AcDbRegAppTableRecord
2
ACAD_DSTYLE_DIM_LINETYPE
70
0
0
APPID
5
1FD
100
AcDbSymbolTableRecord
100
AcDbRegAppTableRecord
2
ACAD_DSTYLE_DIM_EXT1_LINETYPE
70
0
0
APPID
5
1FE
100
AcDbSymbolTableRecord
100
AcDbRegAppTableRecord
2
ACAD_DSTYLE_DIM_EXT2_LINETYPE
70
0
0
APPID
5
239
100
AcDbSymbolTableRecord
100
AcDbRegAppTableRecord
2
ACAD_MLEADERVER
70
0
0
ENDTAB
0
TABLE
2
BLOCK_RECORD
5
258
100
AcDbSymbolTable
0
BLOCK_RECORD
5
1F
100
AcDbSymbolTableRecord
100
AcDbBlockTableRecord
2
*Model_Space
340
0
70
0
0
BLOCK_RECORD
5
1B
100
AcDbSymbolTableRecord
100
AcDbBlockTableRecord
2
*Paper_Space
340
0
70
0
0
BLOCK_RECORD
5
23
100
AcDbSymbolTableRecord
100
AcDbBlockTableRecord
2
*Paper_Space0
340
0
70
0
0
BLOCK_RECORD
5
163
100
AcDbSymbolTableRecord
100
AcDbBlockTableRecord
2
*D1
340
0
70
0
0
BLOCK_RECORD
5
171
100
AcDbSymbolTableRecord
100
AcDbBlockTableRecord
2
_U0
340
0
70
0
0
BLOCK_RECORD
5
17D
100
AcDbSymbolTableRecord
100
AcDbBlockTableRecord
2
*D3
340
0
70
0
0
BLOCK_RECORD
5
18A
100
AcDbSymbolTableRecord
100
AcDbBlockTableRecord
2
_U1
340
0
70
0
0
BLOCK_RECORD
5
196
100
AcDbSymbolTableRecord
100
AcDbBlockTableRecord
2
*D5
340
0
70
0
0
BLOCK_RECORD
5
1A4
100
AcDbSymbolTableRecord
100
AcDbBlockTableRecord
2
_U2
340
0
70
0
0
BLOCK_RECORD
5
1B0
100
AcDbSymbolTableRecord
100
AcDbBlockTableRecord
2
*D7
340
0
70
0
0
BLOCK_RECORD
5
1BD
100
AcDbSymbolTableRecord
100
AcDbBlockTableRecord
2
_U3
340
0
70
0
0
BLOCK_RECORD
5
1C9
100
AcDbSymbolTableRecord
100
AcDbBlockTableRecord
2
*D9
340
0
70
0
0
BLOCK_RECORD
5
1D5
100
AcDbSymbolTableRecord
100
AcDbBlockTableRecord
2
_U4
340
0
70
0
0
ENDTAB
0
ENDSEC
0
SECTION
2
BLOCKS
0
BLOCK
5
20
100
AcDbEntity
8
0
100
AcDbBlockBegin
2
*Model_Space
70
0
10
0
20
0
30
0
3
*Model_Space
0
ENDBLK
5
21
100
AcDbEntity
8
0
100
AcDbBlockEnd
0
BLOCK
5
1C
100
AcDbEntity
8
0
100
AcDbBlockBegin
2
*Paper_Space
70
0
10
0
20
0
30
0
3
*Paper_Space
0
ENDBLK
5
1D
100
AcDbEntity
8
0
100
AcDbBlockEnd
0
BLOCK
5
24
100
AcDbEntity
8
0
100
AcDbBlockBegin
2
*Paper_Space0
70
0
10
0
20
0
30
0
3
*Paper_Space0
0
ENDBLK
5
25
100
AcDbEntity
8
0
100
AcDbBlockEnd
0
BLOCK
5
164
100
AcDbEntity
8
0
100
AcDbBlockBegin
2
*D1
70
1
10
0
20
0
30
0
3
*D1
0
LINE
5
166
100
AcDbEntity
8
0
62
256
6
ByLayer
370
-2
48
1
60
0
100
AcDbLine
10
30.1875
20
-8.0375
30
0
11
63.693148
21
-8.0375
31
0
39
0
210
0
220
0
230
1
0
LINE
5
167
100
AcDbEntity
8
0
62
256
6
ByLayer
370
-2
48
1
60
0
100
AcDbLine
10
-39.8125
20
7.9625
30
0
11
63.693148
21
7.9625
31
0
39
0
210
0
220
0
230
1
0
LINE
5
168
100
AcDbEntity
8
0
62
256
6
ByLayer
370
-2
48
1
60
0
100
AcDbLine
10
61.693148
20
-11.5375
30
0
11
61.693148
21
-15.0375
31
0
39
0
210
0
220
0
230
1
0
LINE
5
169
100
AcDbEntity
8
0
62
256
6
ByLayer
370
-2
48
1
60
0
100
AcDbLine
10
61.693148
20
11.4625
30
0
11
61.693148
21
14.9625
31
0
39
0
210
0
220
0
230
1
0
SOLID
5
16A
100
AcDbEntity
8
0
62
256
6
ByLayer
370
-1
48
1
60
0
100
AcDbTrace
10
62.276481
20
-11.5375
30
0
11
61.109814
21
-11.5375
31
0
12
61.693148
22
-8.0375
32
0
13
61.693148
23
-8.0375
33
0
39
0
210
0
220
0
230
1
0
SOLID
5
16B
100
AcDbEntity
8
0
62
256
6
ByLayer
370
-1
48
1
60
0
100
AcDbTrace
10
61.109814
20
11.4625
30
0
11
62.276481
21
11.4625
31
0
12
61.693148
22
7.9625
32
0
13
61.693148
23
7.9625
33
0
39
0
210
0
220
0
230
1
0
MTEXT
5
16C
100
AcDbEntity
8
0
62
256
6
ByLayer
370
18
48
1
60
0
100
AcDbMText
10
54.693148
20
-0.0375
30
0
210
0
220
0
230
1
1
\A1;16
40
3.5
41
0
44
1
50
90
71
5
72
5
7
iso_b_vert
0
POINT
5
16D
100
AcDbEntity
8
Defpoints
62
0
6
ByLayer
370
-1
48
1
60
0
100
AcDbPoint
10
28.6
20
-8.0375
30
0
39
0
210
0
220
0
230
1
50
360
0
POINT
5
16E
100
AcDbEntity
8
Defpoints
62
0
6
ByLayer
370
-1
48
1
60
0
100
AcDbPoint
10
-41.4
20
7.9625
30
0
39
0
210
0
220
0
230
1
50
360
0
POINT
5
16F
100
AcDbEntity
8
Defpoints
62
0
6
ByLayer
370
-1
48
1
60
0
100
AcDbPoint
10
61.693148
20
7.9625
30
0
39
0
210
0
220
0
230
1
50
360
0
ENDBLK
5
165
100
AcDbEntity
8
0
100
AcDbBlockEnd
0
BLOCK
5
178
100
AcDbEntity
8
0
100
AcDbBlockBegin
2
_U0
70
0
10
0
20
0
30
0
3
_U0
0
MTEXT
5
172
100
AcDbEntity
8
2
62
256
6
ByLayer
370
18
48
1
60
0
100
AcDbMText
10
61.003514
20
-1.533033
30
0
210
0
220
0
230
1
1
\W0.5321;16
40
3.5
41
0
44
1.084337
50
90
71
7
72
5
7
iso_b_vert
0
LINE
5
173
100
AcDbEntity
8
2
62
256
6
ByLayer
370
13
48
1
60
0
100
AcDbLine
10
30.1875
20
-8.0375
30
0
11
63.693148
21
-8.0375
31
0
39
0
210
0
220
0
230
1
0
LINE
5
174
100
AcDbEntity
8
2
62
256
6
ByLayer
370
13
48
1
60
0
100
AcDbLine
10
-39.8125
20
7.9625
30
0
11
63.693148
21
7.9625
31
0
39
0
210
0
220
0
230
1
0
LINE
5
175
100
AcDbEntity
8
2
62
256
6
ByLayer
370
13
48
1
60
0
100
AcDbLine
10
61.693148
20
-8.0375
30
0
11
61.693148
21
7.9625
31
0
39
0
210
0
220
0
230
1
0
SOLID
5
176
100
AcDbEntity
8
2
62
256
6
ByLayer
370
18
48
1
60
0
100
AcDbTrace
10
61.693148
20
-8.0375
30
0
11
61.232364
21
-4.537502
31
0
12
62.153931
22
-4.537498
32
0
13
62.153931
23
-4.537498
33
0
39
0
210
0
220
0
230
1
0
SOLID
5
177
100
AcDbEntity
8
2
62
256
6
ByLayer
370
18
48
1
60
0
100
AcDbTrace
10
61.693148
20
7.9625
30
0
11
62.153931
21
4.462502
31
0
12
61.232364
22
4.462498
32
0
13
61.232364
23
4.462498
33
0
39
0
210
0
220
0
230
1
0
ENDBLK
5
179
100
AcDbEntity
8
0
100
AcDbBlockEnd
0
BLOCK
5
17E
100
AcDbEntity
8
0
100
AcDbBlockBegin
2
*D3
70
1
10
0
20
0
30
0
3
*D3
0
LINE
5
180
100
AcDbEntity
8
0
62
256
6
ByLayer
370
-2
48
1
60
0
100
AcDbLine
10
30.1875
20
-5.0375
30
0
11
51.693148
21
-5.0375
31
0
39
0
210
0
220
0
230
1
0
LINE
5
181
100
AcDbEntity
8
0
62
256
6
ByLayer
370
-2
48
1
60
0
100
AcDbLine
10
30.1875
20
-8.0375
30
0
11
51.693148
21
-8.0375
31
0
39
0
210
0
220
0
230
1
0
LINE
5
182
100
AcDbEntity
8
0
62
256
6
ByLayer
370
-2
48
1
60
0
100
AcDbLine
10
49.693148
20
-1.5375
30
0
11
49.693148
21
1.9625
31
0
39
0
210
0
220
0
230
1
0
LINE
5
183
100
AcDbEntity
8
0
62
256
6
ByLayer
370
-2
48
1
60
0
100
AcDbLine
10
49.693148
20
-11.5375
30
0
11
49.693148
21
-15.0375
31
0
39
0
210
0
220
0
230
1
0
SOLID
5
184
100
AcDbEntity
8
0
62
256
6
ByLayer
370
-1
48
1
60
0
100
AcDbTrace
10
49.109814
20
-1.5375
30
0
11
50.276481
21
-1.5375
31
0
12
49.693148
22
-5.0375
32
0
13
49.693148
23
-5.0375
33
0
39
0
210
0
220
0
230
1
0
SOLID
5
185
100
AcDbEntity
8
0
62
256
6
ByLayer
370
-1
48
1
60
0
100
AcDbTrace
10
50.276481
20
-11.5375
30
0
11
49.109814
21
-11.5375
31
0
12
49.693148
22
-8.0375
32
0
13
49.693148
23
-8.0375
33
0
39
0
210
0
220
0
230
1
0
MTEXT
5
186
100
AcDbEntity
8
0
62
256
6
ByLayer
370
18
48
1
60
0
100
AcDbMText
10
42.693148
20
-6.5375
30
0
210
0
220
0
230
1
1
\A1;3
40
3.5
41
0
44
1
50
90
71
5
72
5
7
iso_b_vert
0
POINT
5
187
100
AcDbEntity
8
Defpoints
62
0
6
ByLayer
370
-1
48
1
60
0
100
AcDbPoint
10
28.6
20
-5.0375
30
0
39
0
210
0
220
0
230
1
50
360
0
POINT
5
188
100
AcDbEntity
8
Defpoints
62
0
6
ByLayer
370
-1
48
1
60
0
100
AcDbPoint
10
28.6
20
-8.0375
30
0
39
0
210
0
220
0
230
1
50
360
0
POINT
5
189
100
AcDbEntity
8
Defpoints
62
0
6
ByLayer
370
-1
48
1
60
0
100
AcDbPoint
10
49.693148
20
-8.0375
30
0
39
0
210
0
220
0
230
1
50
360
0
ENDBLK
5
17F
100
AcDbEntity
8
0
100
AcDbBlockEnd
0
BLOCK
5
191
100
AcDbEntity
8
0
100
AcDbBlockBegin
2
_U1
70
0
10
0
20
0
30
0
3
_U1
0
MTEXT
5
18B
100
AcDbEntity
8
2
62
256
6
ByLayer
370
18
48
1
60
0
100
AcDbMText
10
49.003514
20
-7.162733
30
0
210
0
220
0
230
1
1
\W0.5404;3
40
3.5
41
0
44
1.084337
50
90
71
7
72
5
7
iso_b_vert
0
LINE
5
18C
100
AcDbEntity
8
2
62
256
6
ByLayer
370
13
48
1
60
0
100
AcDbLine
10
30.1875
20
-5.0375
30
0
11
51.693148
21
-5.0375
31
0
39
0
210
0
220
0
230
1
0
LINE
5
18D
100
AcDbEntity
8
2
62
256
6
ByLayer
370
13
48
1
60
0
100
AcDbLine
10
30.1875
20
-8.0375
30
0
11
51.693148
21
-8.0375
31
0
39
0
210
0
220
0
230
1
0
LINE
5
18E
100
AcDbEntity
8
2
62
256
6
ByLayer
370
13
48
1
60
0
100
AcDbLine
10
49.693148
20
3.7125
30
0
11
49.693148
21
-16.7875
31
0
39
0
210
0
220
0
230
1
0
SOLID
5
18F
100
AcDbEntity
8
2
62
256
6
ByLayer
370
18
48
1
60
0
100
AcDbTrace
10
49.693148
20
-5.0375
30
0
11
49.232364
21
-1.537502
31
0
12
50.153931
22
-1.537498
32
0
13
50.153931
23
-1.537498
33
0
39
0
210
0
220
0
230
1
0
SOLID
5
190
100
AcDbEntity
8
2
62
256
6
ByLayer
370
18
48
1
60
0
100
AcDbTrace
10
49.693148
20
-8.0375
30
0
11
50.153931
21
-11.537498
31
0
12
49.232364
22
-11.537502
32
0
13
49.232364
23
-11.537502
33
0
39
0
210
0
220
0
230
1
0
ENDBLK
5
192
100
AcDbEntity
8
0
100
AcDbBlockEnd
0
BLOCK
5
197
100
AcDbEntity
8
0
100
AcDbBlockBegin
2
*D5
70
1
10
0
20
0
30
0
3
*D5
0
LINE
5
199
100
AcDbEntity
8
0
62
256
6
ByLayer
370
-2
48
1
60
0
100
AcDbLine
10
-42.9875
20
7.9625
30
0
11
-55
21
7.9625
31
0
39
0
210
0
220
0
230
1
0
LINE
5
19A
100
AcDbEntity
8
0
62
256
6
ByLayer
370
-2
48
1
60
0
100
AcDbLine
10
-42.9875
20
-8.0375
30
0
11
-55
21
-8.0375
31
0
39
0
210
0
220
0
230
1
0
LINE
5
19B
100
AcDbEntity
8
0
62
256
6
ByLayer
370
-2
48
1
60
0
100
AcDbLine
10
-53
20
11.4625
30
0
11
-53
21
14.9625
31
0
39
0
210
0
220
0
230
1
0
LINE
5
19C
100
AcDbEntity
8
0
62
256
6
ByLayer
370
-2
48
1
60
0
100
AcDbLine
10
-53
20
-11.5375
30
0
11
-53
21
-15.0375
31
0
39
0
210
0
220
0
230
1
0
SOLID
5
19D
100
AcDbEntity
8
0
62
256
6
ByLayer
370
-1
48
1
60
0
100
AcDbTrace
10
-53.583333
20
11.4625
30
0
11
-52.416667
21
11.4625
31
0
12
-53
22
7.9625
32
0
13
-53
23
7.9625
33
0
39
0
210
0
220
0
230
1
0
SOLID
5
19E
100
AcDbEntity
8
0
62
256
6
ByLayer
370
-1
48
1
60
0
100
AcDbTrace
10
-52.416667
20
-11.5375
30
0
11
-53.583333
21
-11.5375
31
0
12
-53
22
-8.0375
32
0
13
-53
23
-8.0375
33
0
39
0
210
0
220
0
230
1
0
MTEXT
5
19F
100
AcDbEntity
8
0
62
256
6
ByLayer
370
18
48
1
60
0
100
AcDbMText
10
-60
20
-0.0375
30
0
210
0
220
0
230
1
1
\A1;16
40
3.5
41
0
44
1
50
90
71
5
72
5
7
iso_b_vert
0
POINT
5
1A0
100
AcDbEntity
8
Defpoints
62
0
6
ByLayer
370
-1
48
1
60
0
100
AcDbPoint
10
-41.4
20
7.9625
30
0
39
0
210
0
220
0
230
1
50
360
0
POINT
5
1A1
100
AcDbEntity
8
Defpoints
62
0
6
ByLayer
370
-1
48
1
60
0
100
AcDbPoint
10
-41.4
20
-8.0375
30
0
39
0
210
0
220
0
230
1
50
360
0
POINT
5
1A2
100
AcDbEntity
8
Defpoints
62
0
6
ByLayer
370
-1
48
1
60
0
100
AcDbPoint
10
-53
20
-8.0375
30
0
39
0
210
0
220
0
230
1
50
360
0
ENDBLK
5
198
100
AcDbEntity
8
0
100
AcDbBlockEnd
0
BLOCK
5
1AB
100
AcDbEntity
8
0
100
AcDbBlockBegin
2
_U2
70
0
10
0
20
0
30
0
3
_U2
0
MTEXT
5
1A5
100
AcDbEntity
8
SK2
62
256
6
ByLayer
370
18
48
1
60
0
100
AcDbMText
10
-53.689634
20
-1.533033
30
0
210
0
220
0
230
1
1
\W0.5321;16
40
3.5
41
0
44
1.084337
50
90
71
7
72
5
7
iso_b_vert
0
LINE
5
1A6
100
AcDbEntity
8
SK2
62
256
6
ByLayer
370
13
48
1
60
0
100
AcDbLine
10
-42.9875
20
7.9625
30
0
11
-55
21
7.9625
31
0
39
0
210
0
220
0
230
1
0
LINE
5
1A7
100
AcDbEntity
8
SK2
62
256
6
ByLayer
370
13
48
1
60
0
100
AcDbLine
10
-42.9875
20
-8.0375
30
0
11
-55
21
-8.0375
31
0
39
0
210
0
220
0
230
1
0
LINE
5
1A8
100
AcDbEntity
8
SK2
62
256
6
ByLayer
370
13
48
1
60
0
100
AcDbLine
10
-53
20
7.9625
30
0
11
-53
21
-8.0375
31
0
39
0
210
0
220
0
230
1
0
SOLID
5
1A9
100
AcDbEntity
8
SK2
62
256
6
ByLayer
370
18
48
1
60
0
100
AcDbTrace
10
-53
20
7.9625
30
0
11
-52.539216
21
4.462502
31
0
12
-53.460784
22
4.462498
32
0
13
-53.460784
23
4.462498
33
0
39
0
210
0
220
0
230
1
0
SOLID
5
1AA
100
AcDbEntity
8
SK2
62
256
6
ByLayer
370
18
48
1
60
0
100
AcDbTrace
10
-53
20
-8.0375
30
0
11
-53.460784
21
-4.537502
31
0
12
-52.539216
22
-4.537498
32
0
13
-52.539216
23
-4.537498
33
0
39
0
210
0
220
0
230
1
0
ENDBLK
5
1AC
100
AcDbEntity
8
0
100
AcDbBlockEnd
0
BLOCK
5
1B1
100
AcDbEntity
8
0
100
AcDbBlockBegin
2
*D7
70
1
10
0
20
0
30
0
3
*D7
0
LINE
5
1B3
100
AcDbEntity
8
0
62
256
6
ByLayer
370
-2
48
1
60
0
100
AcDbLine
10
11.6
20
-3.775
30
0
11
11.6
21
16.2125
31
0
39
0
210
0
220
0
230
1
0
LINE
5
1B4
100
AcDbEntity
8
0
62
256
6
ByLayer
370
-2
48
1
60
0
100
AcDbLine
10
28.6
20
-6.45
30
0
11
28.6
21
16.2125
31
0
39
0
210
0
220
0
230
1
0
LINE
5
1B5
100
AcDbEntity
8
0
62
256
6
ByLayer
370
-2
48
1
60
0
100
AcDbLine
10
8.1
20
14.2125
30
0
11
4.6
21
14.2125
31
0
39
0
210
0
220
0
230
1
0
LINE
5
1B6
100
AcDbEntity
8
0
62
256
6
ByLayer
370
-2
48
1
60
0
100
AcDbLine
10
32.1
20
14.2125
30
0
11
35.6
21
14.2125
31
0
39
0
210
0
220
0
230
1
0
SOLID
5
1B7
100
AcDbEntity
8
0
62
256
6
ByLayer
370
-1
48
1
60
0
100
AcDbTrace
10
8.1
20
13.629167
30
0
11
8.1
21
14.795833
31
0
12
11.6
22
14.2125
32
0
13
11.6
23
14.2125
33
0
39
0
210
0
220
0
230
1
0
SOLID
5
1B8
100
AcDbEntity
8
0
62
256
6
ByLayer
370
-1
48
1
60
0
100
AcDbTrace
10
32.1
20
14.795833
30
0
11
32.1
21
13.629167
31
0
12
28.6
22
14.2125
32
0
13
28.6
23
14.2125
33
0
39
0
210
0
220
0
230
1
0
MTEXT
5
1B9
100
AcDbEntity
8
0
62
256
6
ByLayer
370
18
48
1
60
0
100
AcDbMText
10
20.1
20
21.2125
30
0
210
0
220
0
230
1
1
\A1;17
40
3.5
41
0
44
1
50
0
71
5
72
5
7
iso_b_vert
0
POINT
5
1BA
100
AcDbEntity
8
Defpoints
62
0
6
ByLayer
370
-1
48
1
60
0
100
AcDbPoint
10
11.6
20
-5.3625
30
0
39
0
210
0
220
0
230
1
50
360
0
POINT
5
1BB
100
AcDbEntity
8
Defpoints
62
0
6
ByLayer
370
-1
48
1
60
0
100
AcDbPoint
10
28.6
20
-8.0375
30
0
39
0
210
0
220
0
230
1
50
360
0
POINT
5
1BC
100
AcDbEntity
8
Defpoints
62
0
6
ByLayer
370
-1
48
1
60
0
100
AcDbPoint
10
28.6
20
14.2125
30
0
39
0
210
0
220
0
230
1
50
360
0
ENDBLK
5
1B2
100
AcDbEntity
8
0
100
AcDbBlockEnd
0
BLOCK
5
1C4
100
AcDbEntity
8
0
100
AcDbBlockBegin
2
_U3
70
0
10
0
20
0
30
0
3
_U3
0
MTEXT
5
1BE
100
AcDbEntity
8
2
62
256
6
ByLayer
370
18
48
1
60
0
100
AcDbMText
10
18.632467
20
15.245134
30
0
210
0
220
0
230
1
1
\W0.5321;17
40
3.5
41
0
44
1.084337
50
0
71
7
72
5
7
iso_b_vert
0
LINE
5
1BF
100
AcDbEntity
8
2
62
256
6
ByLayer
370
13
48
1
60
0
100
AcDbLine
10
11.6
20
-3.775
30
0
11
11.6
21
16.2125
31
0
39
0
210
0
220
0
230
1
0
LINE
5
1C0
100
AcDbEntity
8
2
62
256
6
ByLayer
370
13
48
1
60
0
100
AcDbLine
10
28.6
20
-6.45
30
0
11
28.6
21
16.2125
31
0
39
0
210
0
220
0
230
1
0
LINE
5
1C1
100
AcDbEntity
8
2
62
256
6
ByLayer
370
13
48
1
60
0
100
AcDbLine
10
11.6
20
14.2125
30
0
11
28.6
21
14.2125
31
0
39
0
210
0
220
0
230
1
0
SOLID
5
1C2
100
AcDbEntity
8
2
62
256
6
ByLayer
370
18
48
1
60
0
100
AcDbTrace
10
11.6
20
14.2125
30
0
11
15.099998
21
14.673284
31
0
12
15.100002
22
13.751716
32
0
13
15.100002
23
13.751716
33
0
39
0
210
0
220
0
230
1
0
SOLID
5
1C3
100
AcDbEntity
8
2
62
256
6
ByLayer
370
18
48
1
60
0
100
AcDbTrace
10
28.6
20
14.2125
30
0
11
25.100002
21
13.751716
31
0
12
25.099998
22
14.673284
32
0
13
25.099998
23
14.673284
33
0
39
0
210
0
220
0
230
1
0
ENDBLK
5
1C5
100
AcDbEntity
8
0
100
AcDbBlockEnd
0
BLOCK
5
1CA
100
AcDbEntity
8
0
100
AcDbBlockBegin
2
*D9
70
1
10
0
20
0
30
0
3
*D9
0
LINE
5
1CC
100
AcDbEntity
8
0
62
256
6
ByLayer
370
-2
48
1
60
0
100
AcDbLine
10
-41.4
20
9.55
30
0
11
-41.4
21
32.2125
31
0
39
0
210
0
220
0
230
1
0
LINE
5
1CD
100
AcDbEntity
8
0
62
256
6
ByLayer
370
-2
48
1
60
0
100
AcDbLine
10
28.6
20
-6.45
30
0
11
28.6
21
32.2125
31
0
39
0
210
0
220
0
230
1
0
LINE
5
1CE
100
AcDbEntity
8
0
62
256
6
ByLayer
370
-2
48
1
60
0
100
AcDbLine
10
-37.9
20
30.2125
30
0
11
25.1
21
30.2125
31
0
39
0
210
0
220
0
230
1
0
SOLID
5
1CF
100
AcDbEntity
8
0
62
256
6
ByLayer
370
-1
48
1
60
0
100
AcDbTrace
10
-37.9
20
30.795833
30
0
11
-37.9
21
29.629167
31
0
12
-41.4
22
30.2125
32
0
13
-41.4
23
30.2125
33
0
39
0
210
0
220
0
230
1
0
SOLID
5
1D0
100
AcDbEntity
8
0
62
256
6
ByLayer
370
-1
48
1
60
0
100
AcDbTrace
10
25.1
20
29.629167
30
0
11
25.1
21
30.795833
31
0
12
28.6
22
30.2125
32
0
13
28.6
23
30.2125
33
0
39
0
210
0
220
0
230
1
0
MTEXT
5
1D1
100
AcDbEntity
8
0
62
256
6
ByLayer
370
18
48
1
60
0
100
AcDbMText
10
-6.4
20
37.2125
30
0
210
0
220
0
230
1
1
\A1;70
40
3.5
41
0
44
1
50
0
71
5
72
5
7
iso_b_vert
0
POINT
5
1D2
100
AcDbEntity
8
Defpoints
62
0
6
ByLayer
370
-1
48
1
60
0
100
AcDbPoint
10
-41.4
20
7.9625
30
0
39
0
210
0
220
0
230
1
50
360
0
POINT
5
1D3
100
AcDbEntity
8
Defpoints
62
0
6
ByLayer
370
-1
48
1
60
0
100
AcDbPoint
10
28.6
20
-8.0375
30
0
39
0
210
0
220
0
230
1
50
360
0
POINT
5
1D4
100
AcDbEntity
8
Defpoints
62
0
6
ByLayer
370
-1
48
1
60
0
100
AcDbPoint
10
28.6
20
30.2125
30
0
39
0
210
0
220
0
230
1
50
360
0
ENDBLK
5
1CB
100
AcDbEntity
8
0
100
AcDbBlockEnd
0
BLOCK
5
1DC
100
AcDbEntity
8
0
100
AcDbBlockBegin
2
_U4
70
0
10
0
20
0
30
0
3
_U4
0
MTEXT
5
1D6
100
AcDbEntity
8
SK2
62
256
6
ByLayer
370
18
48
1
60
0
100
AcDbMText
10
-8.304966
20
31.245134
30
0
210
0
220
0
230
1
1
\W0.6740;70
40
3.5
41
0
44
1.084337
50
0
71
7
72
5
7
iso_b_vert
0
LINE
5
1D7
100
AcDbEntity
8
SK2
62
256
6
ByLayer
370
13
48
1
60
0
100
AcDbLine
10
-41.4
20
9.55
30
0
11
-41.4
21
32.2125
31
0
39
0
210
0
220
0
230
1
0
LINE
5
1D8
100
AcDbEntity
8
SK2
62
256
6
ByLayer
370
13
48
1
60
0
100
AcDbLine
10
28.6
20
-6.45
30
0
11
28.6
21
32.2125
31
0
39
0
210
0
220
0
230
1
0
LINE
5
1D9
100
AcDbEntity
8
SK2
62
256
6
ByLayer
370
13
48
1
60
0
100
AcDbLine
10
-41.4
20
30.2125
30
0
11
28.6
21
30.2125
31
0
39
0
210
0
220
0
230
1
0
SOLID
5
1DA
100
AcDbEntity
8
SK2
62
256
6
ByLayer
370
18
48
1
60
0
100
AcDbTrace
10
-41.4
20
30.2125
30
0
11
-37.900002
21
30.673284
31
0
12
-37.899998
22
29.751716
32
0
13
-37.899998
23
29.751716
33
0
39
0
210
0
220
0
230
1
0
SOLID
5
1DB
100
AcDbEntity
8
SK2
62
256
6
ByLayer
370
18
48
1
60
0
100
AcDbTrace
10
28.6
20
30.2125
30
0
11
25.100002
21
29.751716
31
0
12
25.099998
22
30.673284
32
0
13
25.099998
23
30.673284
33
0
39
0
210
0
220
0
230
1
0
ENDBLK
5
1DD
100
AcDbEntity
8
0
100
AcDbBlockEnd
0
ENDSEC
0
SECTION
2
ENTITIES
0
ARC
5
FA
100
AcDbEntity
8
1
62
256
6
ByLayer
370
18
48
1
60
0
100
AcDbCircle
39
0
10
11.6
20
-4.5625
30
0
40
0.800000000000048
210
0
220
0
230
1
100
AcDbArc
50
180
51
270
0
ARC
5
FB
100
AcDbEntity
8
SK1
62
256
6
ByLayer
370
18
48
1
60
0
100
AcDbCircle
39
0
10
-1.6
20
-9.3125
30
0
40
1.6
210
0
220
0
230
1
100
AcDbArc
50
90
51
122.461745
0
ELLIPSE
5
FC
100
AcDbEntity
8
1
62
256
6
ByLayer
370
18
48
1
60
0
100
AcDbEllipse
10
8.12698
20
1.3
30
0
11
1.94406258669302E-16
21
3.175
31
0
210
0
220
0
230
1
40
0.891007
41
-1.23723367524156
42
-0.0136493779038163
0
ELLIPSE
5
FD
100
AcDbEntity
8
1
62
256
6
ByLayer
370
18
48
1
60
0
100
AcDbEllipse
10
8.204159
20
1.3
30
0
11
-5.83218776007907E-16
21
-3.175
31
0
210
0
220
0
230
1
40
0.891007
41
-0.466679858345006
42
1.16200065020728
0
ELLIPSE
5
FE
100
AcDbEntity
8
1
62
256
6
ByLayer
370
18
48
1
60
0
100
AcDbEllipse
10
8.12698
20
1.3
30
0
11
1.94406258669302E-16
21
3.175
31
0
210
0
220
0
230
1
40
0.891007
41
-3.12794327568598
42
-1.90435897834823
0
ELLIPSE
5
FF
100
AcDbEntity
8
1
62
256
6
ByLayer
370
18
48
1
60
0
100
AcDbEllipse
10
8.204159
20
1.3
30
0
11
-5.83218776007907E-16
21
-3.175
31
0
210
0
220
0
230
1
40
0.891007
41
1.97959200338251
42
-2.67491279524479
0
ELLIPSE
5
100
100
AcDbEntity
8
1
62
256
6
ByLayer
370
18
48
1
60
0
100
AcDbEllipse
10
8.693501
20
-4.5625
30
0
11
1.76215141166822
21
0
31
0
210
0
220
0
230
1
40
0.45399
41
3.14159265358979
42
-1.57079632679487
0
ELLIPSE
5
101
100
AcDbEntity
8
1
62
256
6
ByLayer
370
18
48
1
60
0
100
AcDbEllipse
10
8.534601
20
1.3
30
0
11
-3.5633858044891
21
4.36374489729782E-16
31
0
210
0
220
0
230
1
40
0.891007
41
0.982423360466024
42
1.10411646844989
0
ELLIPSE
5
102
100
AcDbEntity
8
1
62
256
6
ByLayer
370
18
48
1
60
0
100
AcDbEllipse
10
9.86953
20
1.3
30
0
11
4.53787995752994
21
0
31
0
210
0
220
0
230
1
40
0.851581
41
2.38911365625786
42
2.64074739764267
0
ELLIPSE
5
103
100
AcDbEntity
8
1
62
256
6
ByLayer
370
18
48
1
60
0
100
AcDbEllipse
10
9.86953
20
1.3
30
0
11
4.53787995752994
21
0
31
0
210
0
220
0
230
1
40
0.851581
41
-2.64074739764267
42
-2.38911365625786
0
ELLIPSE
5
104
100
AcDbEntity
8
1
62
256
6
ByLayer
370
18
48
1
60
0
100
AcDbEllipse
10
8.534601
20
1.3
30
0
11
-3.5633858044891
21
4.36374489729782E-16
31
0
210
0
220
0
230
1
40
0.891007
41
-1.10411646844989
42
-0.982423360466024
0
ELLIPSE
5
105
100
AcDbEntity
8
1
62
256
6
ByLayer
370
18
48
1
60
0
100
AcDbEllipse
10
12.354431
20
-4.5875
30
0
11
0.888476110447318
21
1.04081010588693E-15
31
0
210
0
220
0
230
1
40
0.900418
41
-1.84644008773561
42
-1.5707963267949
0
ELLIPSE
5
106
100
AcDbEntity
8
1
62
256
6
ByLayer
370
18
48
1
60
0
100
AcDbEllipse
10
24.793482
20
-4.5875
30
0
11
0.905049914879045
21
1.06022557800002E-15
31
0
210
0
220
0
230
1
40
0.883929
41
-1.5707963267949
42
-1.29515256583675
0
ELLIPSE
5
107
100
AcDbEntity
8
1
62
256
6
ByLayer
370
18
48
1
60
0
100
AcDbEllipse
10
24.659382
20
-6.103564
30
0
11
1.14316909623947
21
1.33917157041469E-15
31
0
210
0
220
0
230
1
40
0.174952
41
-2.80561677258068
42
-1.98717825108419
0
ELLIPSE
5
108
100
AcDbEntity
8
1
62
256
6
ByLayer
370
18
48
1
60
0
100
AcDbEllipse
10
28.820617
20
-4.457359
30
0
11
11.4316909868243
21
2.67952115982285E-09
31
0
210
0
220
0
230
1
40
0.174952
41
-1.98717825170941
42
-1.91986217794545
0
ELLIPSE
5
109
100
AcDbEntity
8
1
62
256
6
ByLayer
370
18
48
1
60
0
100
AcDbEllipse
10
24.553924
20
-6.5375
30
0
11
1.20032755105169
21
1.40613014893571E-15
31
0
210
0
220
0
230
1
40
0.174952
41
0
42
1.22173047639569
0
ELLIPSE
5
10A
100
AcDbEntity
8
1
62
256
6
ByLayer
370
18
48
1
60
0
100
AcDbEllipse
10
24.553924
20
-6.5375
30
0
11
1.20032755105071
21
1.40613014893456E-15
31
0
210
0
220
0
230
1
40
0.174952
41
-1.22173047639618
42
0
0
ELLIPSE
5
10B
100
AcDbEntity
8
1
62
256
6
ByLayer
370
18
48
1
60
0
100
AcDbEllipse
10
28.820617
20
-8.617641
30
0
11
11.4316909710278
21
1.33917157142601E-14
31
0
210
0
220
0
230
1
40
0.174952
41
1.91986217701532
42
1.9871782508492
0
ELLIPSE
5
10C
100
AcDbEntity
8
1
62
256
6
ByLayer
370
18
48
1
60
0
100
AcDbEllipse
10
24.659382
20
-6.971436
30
0
11
1.14316909624139
21
1.33917157041693E-15
31
0
210
0
220
0
230
1
40
0.174952
41
1.98717825108485
42
2.80561677257998
0
ELLIPSE
5
10D
100
AcDbEntity
8
1
62
256
6
ByLayer
370
18
48
1
60
0
100
AcDbEllipse
10
23.175989
20
-7.562938
30
0
11
0.857376822274503
21
1.00437867792218E-15
31
0
210
0
220
0
230
1
40
0.174952
41
2.80561677259988
42
3.14159265358979
0
ELLIPSE
5
10E
100
AcDbEntity
8
1
62
256
6
ByLayer
370
18
48
1
60
0
100
AcDbEllipse
10
24.793482
20
-8.4875
30
0
11
0.905049914949797
21
1.0602255780829E-15
31
0
210
0
220
0
230
1
40
0.883929
41
1.29515256585849
42
1.5707963267949
0
ELLIPSE
5
10F
100
AcDbEntity
8
1
62
256
6
ByLayer
370
18
48
1
60
0
100
AcDbEllipse
10
24.13176
20
-5.7875
30
0
11
-2.3287088041805E-17
21
-0.126773189709051
31
0
210
0
220
0
230
1
40
0.992546
41
0
42
6.28318530717959
0
ELLIPSE
5
110
100
AcDbEntity
8
1
62
256
6
ByLayer
370
18
48
1
60
0
100
AcDbEllipse
10
23.175989
20
-5.512062
30
0
11
0.857376822096042
21
1.00437867771312E-15
31
0
210
0
220
0
230
1
40
0.174952
41
3.14159265358979
42
-2.80561677256433
0
ELLIPSE
5
111
100
AcDbEntity
8
1
62
256
6
ByLayer
370
18
48
1
60
0
100
AcDbEllipse
10
7.48546
20
1.3
30
0
11
-2.37016436750552E-16
21
-1.2903
31
0
210
0
220
0
230
1
40
0.891007
41
2.61799387799149
42
2.91430174732685
0
ELLIPSE
5
112
100
AcDbEntity
8
1
62
256
6
ByLayer
370
18
48
1
60
0
100
AcDbEllipse
10
7.48546
20
1.3
30
0
11
-2.37016436750552E-16
21
-1.2903
31
0
210
0
220
0
230
1
40
0.891007
41
0.224787314505948
42
0.523598775598304
0
ELLIPSE
5
113
100
AcDbEntity
8
1
62
256
6
ByLayer
370
18
48
1
60
0
100
AcDbEllipse
10
7.48546
20
1.3
30
0
11
-2.37016436750552E-16
21
-1.2903
31
0
210
0
220
0
230
1
40
0.891007
41
0.523598775598303
42
1.5707963267949
0
ELLIPSE
5
114
100
AcDbEntity
8
1
62
256
6
ByLayer
370
18
48
1
60
0
100
AcDbEllipse
10
7.48546
20
1.3
30
0
11
7.90054789168507E-17
21
1.2903
31
0
210
0
220
0
230
1
40
0.891007
41
-1.5707963267949
42
-0.523598775598304
0
ELLIPSE
5
115
100
AcDbEntity
8
1
62
256
6
ByLayer
370
18
48
1
60
0
100
AcDbEllipse
10
8.80709
20
1.3
30
0
11
2.41308682020554E-17
21
0.394099999999763
31
0
210
0
220
0
230
1
40
0.436347
41
0.288932900934011
42
1.5707963267949
0
ELLIPSE
5
116
100
AcDbEntity
8
1
62
256
6
ByLayer
370
18
48
1
60
0
100
AcDbEllipse
10
8.80709
20
1.3
30
0
11
2.41308682019392E-17
21
0.394099999997864
31
0
210
0
220
0
230
1
40
0.436347
41
1.5707963267949
42
2.85265975266012
0
ELLIPSE
5
117
100
AcDbEntity
8
1
62
256
6
ByLayer
370
18
48
1
60
0
100
AcDbEllipse
10
8.630102
20
0.5583
30
0
11
0.166590173381901
21
0.346346854433053
31
0
210
0
220
0
230
1
40
0.458817
41
-2.28436054737898
42
0.137551892608074
0
ELLIPSE
5
118
100
AcDbEntity
8
1
62
256
6
ByLayer
370
18
48
1
60
0
100
AcDbEllipse
10
8.630102
20
2.0417
30
0
11
0.166590173381904
21
-0.346346854433049
31
0
210
0
220
0
230
1
40
0.458817
41
-0.137551892608071
42
2.28436054737899
0
ELLIPSE
5
119
100
AcDbEntity
8
1
62
256
6
ByLayer
370
18
48
1
60
0
100
AcDbEllipse
10
8.146275
20
0.015425
30
0
11
0.297314427411271
21
0.208297956713056
31
0
210
0
220
0
230
1
40
0.514259
41
0.622058059848107
42
1.50053422562138
0
ELLIPSE
5
11A
100
AcDbEntity
8
1
62
256
6
ByLayer
370
18
48
1
60
0
100
AcDbEllipse
10
8.146275
20
0.015425
30
0
11
0.297314427411472
21
0.208297956712781
31
0
210
0
220
0
230
1
40
0.514259
41
1.50053422562334
42
2.629555672326
0
ELLIPSE
5
11B
100
AcDbEntity
8
1
62
256
6
ByLayer
370
18
48
1
60
0
100
AcDbEllipse
10
8.146275
20
2.584575
30
0
11
0.297314427411257
21
-0.208297956712786
31
0
210
0
220
0
230
1
40
0.514259
41
-2.78239765148248
42
-1.50053422562252
0
ELLIPSE
5
11C
100
AcDbEntity
8
1
62
256
6
ByLayer
370
18
48
1
60
0
100
AcDbEllipse
10
8.146275
20
2.584575
30
0
11
0.297314427411073
21
-0.208297956712628
31
0
210
0
220
0
230
1
40
0.514259
41
-1.50053422562277
42
-0.579535660854571
0
ELLIPSE
5
11D
100
AcDbEntity
8
1
62
256
6
ByLayer
370
18
48
1
60
0
100
AcDbEllipse
10
7.989389
20
1.3
30
0
11
1.83690953073357E-16
21
3
31
0
210
0
220
0
230
1
40
0.891007
41
0
42
-3.14159258717258
0
ELLIPSE
5
11E
100
AcDbEntity
8
1
62
256
6
ByLayer
370
18
48
1
60
0
100
AcDbEllipse
10
8.261784
20
1.3
30
0
11
-3.07939513732175E-16
21
-1.6764
31
0
210
0
220
0
230
1
40
0.891007
41
2.0943951023932
42
3.14159265358979
0
ELLIPSE
5
11F
100
AcDbEntity
8
1
62
256
6
ByLayer
370
18
48
1
60
0
100
AcDbEllipse
10
8.261784
20
1.3
30
0
11
-3.07939513732175E-16
21
-1.6764
31
0
210
0
220
0
230
1
40
0.891007
41
1.0471975511966
42
2.0943951023932
0
ELLIPSE
5
120
100
AcDbEntity
8
1
62
256
6
ByLayer
370
18
48
1
60
0
100
AcDbEllipse
10
8.261784
20
1.3
30
0
11
-3.07939513732175E-16
21
-1.6764
31
0
210
0
220
0
230
1
40
0.891007
41
0
42
1.0471975511966
0
ELLIPSE
5
121
100
AcDbEntity
8
1
62
256
6
ByLayer
370
18
48
1
60
0
100
AcDbEllipse
10
8.261784
20
1.3
30
0
11
-3.07939513732175E-16
21
-1.6764
31
0
210
0
220
0
230
1
40
0.891007
41
-1.04719755119659
42
-2.97311325402492E-16
0
ELLIPSE
5
122
100
AcDbEntity
8
1
62
256
6
ByLayer
370
18
48
1
60
0
100
AcDbEllipse
10
8.261784
20
1.3
30
0
11
-3.07939513732175E-16
21
-1.6764
31
0
210
0
220
0
230
1
40
0.891007
41
-2.09439510239319
42
-1.04719755119659
0
ELLIPSE
5
123
100
AcDbEntity
8
1
62
256
6
ByLayer
370
18
48
1
60
0
100
AcDbEllipse
10
8.261784
20
1.3
30
0
11
-3.07939513732175E-16
21
-1.6764
31
0
210
0
220
0
230
1
40
0.891007
41
3.14159265358979
42
-2.09439510239319
0
ELLIPSE
5
124
100
AcDbEntity
8
1
62
256
6
ByLayer
370
18
48
1
60
0
100
AcDbEllipse
10
8.261784
20
1.3
30
0
11
1.83690953073357E-16
21
3
31
0
210
0
220
0
230
1
40
0.891007
41
0
42
6.28318530717959
0
POINT
5
70
100
AcDbEntity
8
81
62
256
6
ByLayer
370
18
48
1
60
0
100
AcDbPoint
10
28.6
20
-8.0375
30
0
39
0
210
0
220
0
230
1
50
360
0
POINT
5
72
100
AcDbEntity
8
80
62
256
6
ByLayer
370
18
48
1
60
0
100
AcDbPoint
10
0
20
0
30
0
39
0
210
0
220
0
230
1
50
360
0
POINT
5
74
100
AcDbEntity
8
1
62
256
6
ByLayer
370
18
48
1
60
1
100
AcDbPoint
10
28.6
20
-8.0375
30
0
39
0
210
0
220
0
230
1
50
360
0
POINT
5
76
100
AcDbEntity
8
1
62
256
6
ByLayer
370
18
48
1
60
1
100
AcDbPoint
10
-41.4
20
7.9625
30
0
39
0
210
0
220
0
230
1
50
360
0
POINT
5
77
100
AcDbEntity
8
1
62
256
6
ByLayer
370
18
48
1
60
1
100
AcDbPoint
10
28.6
20
-5.0375
30
0
39
0
210
0
220
0
230
1
50
360
0
POINT
5
78
100
AcDbEntity
8
1
62
256
6
ByLayer
370
18
48
1
60
1
100
AcDbPoint
10
28.6
20
-8.0375
30
0
39
0
210
0
220
0
230
1
50
360
0
POINT
5
79
100
AcDbEntity
8
1
62
256
6
ByLayer
370
18
48
1
60
1
100
AcDbPoint
10
-41.4
20
7.9625
30
0
39
0
210
0
220
0
230
1
50
360
0
POINT
5
7A
100
AcDbEntity
8
1
62
256
6
ByLayer
370
18
48
1
60
1
100
AcDbPoint
10
-41.4
20
-8.0375
30
0
39
0
210
0
220
0
230
1
50
360
0
POINT
5
7B
100
AcDbEntity
8
1
62
256
6
ByLayer
370
18
48
1
60
1
100
AcDbPoint
10
11.6
20
-5.3625
30
0
39
0
210
0
220
0
230
1
50
360
0
POINT
5
7C
100
AcDbEntity
8
1
62
256
6
ByLayer
370
18
48
1
60
1
100
AcDbPoint
10
28.6
20
-8.0375
30
0
39
0
210
0
220
0
230
1
50
360
0
POINT
5
7D
100
AcDbEntity
8
1
62
256
6
ByLayer
370
18
48
1
60
1
100
AcDbPoint
10
-41.4
20
7.9625
30
0
39
0
210
0
220
0
230
1
50
360
0
POINT
5
7E
100
AcDbEntity
8
1
62
256
6
ByLayer
370
18
48
1
60
1
100
AcDbPoint
10
28.6
20
-8.0375
30
0
39
0
210
0
220
0
230
1
50
360
0
SPLINE
5
125
100
AcDbEntity
8
1
62
256
6
ByLayer
370
18
48
1
60
0
100
AcDbSpline
70
4
71
3
72
8
73
4
40
0
40
0
40
0
40
0
40
1
40
1
40
1
40
1
41
1
10
10.8
20
2.33953114431461
30
0
41
1
10
10.8
20
2.2970127645157
30
0
41
1
10
10.8
20
2.25412096416733
30
0
41
1
10
10.8
20
2.21083314431465
30
0
0
SPLINE
5
126
100
AcDbEntity
8
1
62
256
6
ByLayer
370
18
48
1
60
0
100
AcDbSpline
70
4
71
3
72
8
73
4
40
0
40
0
40
0
40
0
40
1
40
1
40
1
40
1
41
1
10
10.8
20
0.377813855692239
30
0
41
1
10
10.8
20
0.338521695699427
30
0
41
1
10
10.8
20
0.299408537618433
30
0
41
1
10
10.8
20
0.260468855685417
30
0
0
SPLINE
5
127
100
AcDbEntity
8
1
62
256
6
ByLayer
370
18
48
1
60
0
100
AcDbSpline
70
4
71
3
72
12
73
8
40
0
40
0
40
0
40
0
40
0.250000000000007
40
0.250000000000007
40
0.500000000000014
40
0.500000000000014
40
1
40
1
40
1
40
1
41
1
10
21.8003436392163
20
-7.37102697790127
30
0
41
1
10
21.8249135272169
20
-7.32433450160994
30
0
41
1
10
21.84813498888
20
-7.27684933216008
30
0
41
1
10
21.8929221265549
20
-7.18090561420274
30
0
41
1
10
21.9144735266609
20
-7.13243867338448
30
0
41
1
10
21.9774207942822
20
-6.98603440429471
30
0
41
1
10
22.0171491738274
20
-6.88711681757755
30
0
41
1
10
22.0556881129214
20
-6.78750000000002
30
0
0
SPLINE
5
128
100
AcDbEntity
8
1
62
256
6
ByLayer
370
18
48
1
60
0
100
AcDbSpline
70
4
71
3
72
8
73
4
40
0
40
0
40
0
40
0
40
1
40
1
40
1
40
1
41
1
10
22.2181246704179
20
-6.72539899089929
30
0
41
1
10
22.1641890881284
20
-6.7468349143536
30
0
41
1
10
22.1100807377123
20
-6.76766548440119
30
0
41
1
10
22.0556881129215
20
-6.78750000000002
30
0
0
SPLINE
5
129
100
AcDbEntity
8
1
62
256
6
ByLayer
370
18
48
1
60
0
100
AcDbSpline
70
4
71
3
72
20
73
16
40
0
40
0
40
0
40
0
40
0.124999999999978
40
0.124999999999978
40
0.249999999999955
40
0.249999999999955
40
0.374999999999933
40
0.374999999999933
40
0.49999999999991
40
0.49999999999991
40
0.624999999999888
40
0.624999999999888
40
0.749999999999865
40
0.749999999999865
40
1
40
1
40
1
40
1
41
1
10
22.3118654791466
20
-6.58631896105271
30
0
41
1
10
22.3118654791466
20
-6.59432979241598
30
0
41
1
10
22.3112269577541
20
-6.60234904505475
30
0
41
1
10
22.308750152988
20
-6.61797606206912
30
0
41
1
10
22.3069288392453
20
-6.6255497522364
30
0
41
1
10
22.3021942171545
20
-6.64024786986732
30
0
41
1
10
22.2992692955816
20
-6.64739408617132
30
0
41
1
10
22.2923628988545
20
-6.66114112366699
30
0
41
1
10
22.2884780033378
20
-6.66756025003062
30
0
41
1
10
22.2799400079971
20
-6.67958991232754
30
0
41
1
10
22.2752861068554
20
-6.68519960481626
30
0
41
1
10
22.2652446548523
20
-6.6956467705588
30
0
41
1
10
22.2598170774567
20
-6.70050625200673
30
0
41
1
10
22.2429898027921
20
-6.71352320941654
30
0
41
1
10
22.2309328296019
20
-6.72030857176958
30
0
41
1
10
22.2181246704179
20
-6.72539899089932
30
0
0
SPLINE
5
12A
100
AcDbEntity
8
1
62
256
6
ByLayer
370
18
48
1
60
0
100
AcDbSpline
70
4
71
3
72
20
73
16
40
0
40
0
40
0
40
0
40
0.250000000000116
40
0.250000000000116
40
0.375000000000097
40
0.375000000000097
40
0.500000000000077
40
0.500000000000077
40
0.625000000000058
40
0.625000000000058
40
0.750000000000039
40
0.750000000000039
40
0.875000000000019
40
0.875000000000019
40
1
40
1
40
1
40
1
41
1
10
22.2181246704174
20
-6.34960100910058
30
0
41
1
10
22.2309137812966
20
-6.35468385775476
30
0
41
1
10
22.2429851640986
20
-6.36146788307428
30
0
41
1
10
22.2598711264947
20
-6.37453823016293
30
0
41
1
10
22.265253950992
20
-6.37936240447758
30
0
41
1
10
22.2752865153937
20
-6.3898013174128
30
0
41
1
10
22.2799693779057
20
-6.39543970006301
30
0
41
1
10
22.2886061771777
20
-6.40763232634245
30
0
41
1
10
22.2925178783765
20
-6.41414277083928
30
0
41
1
10
22.2993119882646
20
-6.42771620658678
30
0
41
1
10
22.3022254729567
20
-6.43481998449852
30
0
41
1
10
22.3070044140295
20
-6.4497146956935
30
0
41
1
10
22.3088182782484
20
-6.45736687192544
30
0
41
1
10
22.3112424896883
20
-6.47283887691216
30
0
41
1
10
22.3118654791434
20
-6.48069594473773
30
0
41
1
10
22.3118654791434
20
-6.48868103894762
30
0
0
SPLINE
5
12B
100
AcDbEntity
8
1
62
256
6
ByLayer
370
18
48
1
60
0
100
AcDbSpline
70
4
71
3
72
8
73
4
40
0
40
0
40
0
40
0
40
1
40
1
40
1
40
1
41
1
10
22.2181246704174
20
-6.34960100910058
30
0
41
1
10
22.1641954671008
20
-6.32816762087757
30
0
41
1
10
22.1100883116394
20
-6.30733727746551
30
0
41
1
10
22.0556881129214
20
-6.28750000000002
30
0
0
SPLINE
5
12C
100
AcDbEntity
8
1
62
256
6
ByLayer
370
18
48
1
60
0
100
AcDbSpline
70
4
71
3
72
12
73
8
40
0
40
0
40
0
40
0
40
0.249999999999991
40
0.249999999999991
40
0.499999999999983
40
0.499999999999983
40
1
40
1
40
1
40
1
41
1
10
21.8003436392156
20
-5.70397302209921
30
0
41
1
10
21.824939047754
20
-5.75071399747625
30
0
41
1
10
21.8481731038832
20
-5.79822920029022
30
0
41
1
10
21.8929736863425
20
-5.89420796235666
30
0
41
1
10
21.9145256123292
20
-5.94267982510678
30
0
41
1
10
21.97746425748
20
-6.08907197998658
30
0
41
1
10
22.0171735710123
20
-6.18794624513177
30
0
41
1
10
22.0556881129215
20
-6.28749999999999
30
0
0
SPLINE
5
12D
100
AcDbEntity
8
1
62
256
6
ByLayer
370
18
48
1
60
0
100
AcDbSpline
70
4
71
3
72
8
73
4
40
0
40
0
40
0
40
0
40
1
40
1
40
1
40
1
41
1
10
11.9216689561394
20
-5.08917095840025
30
0
41
1
10
11.9222626454327
20
-5.08567313086098
30
0
41
1
10
11.9228555407077
20
-5.08210689473358
30
0
41
1
10
11.9234475927075
20
-5.07846800631202
30
0
0
SPLINE
5
12E
100
AcDbEntity
8
1
62
256
6
ByLayer
370
18
48
1
60
0
100
AcDbSpline
70
4
71
3
72
24
73
20
40
0
40
0
40
0
40
0
40
0.176464391805927
40
0.176464391805927
40
0.264696587708891
40
0.264696587708891
40
0.352928783611854
40
0.352928783611854
40
0.529393175417789
40
0.529393175417789
40
0.617625371320756
40
0.617625371320756
40
0.705857567223724
40
0.705857567223724
40
0.882321959029678
40
0.882321959029678
40
0.970554154932656
40
0.970554154932656
40
1
40
1
40
1
40
1
41
1
10
11.8742440798319
20
-4.56250000000094
30
0
41
1
10
11.8742440798319
20
-4.5929614386223
30
0
41
1
10
11.87506549381
20
-4.62308625904899
30
0
41
1
10
11.8774241133425
20
-4.66777744903669
30
0
41
1
10
11.8784009313583
20
-4.68260789234338
30
0
41
1
10
11.8806513125884
20
-4.71152730769487
30
0
41
1
10
11.8819280661649
20
-4.72569118288496
30
0
41
1
10
11.8861297322289
20
-4.76732996276584
30
0
41
1
10
11.8894284933614
20
-4.79395648663413
30
0
41
1
10
11.8947634836739
20
-4.83223629002106
30
0
41
1
10
11.8966162293271
20
-4.84478397783656
30
0
41
1
10
11.9003102025808
20
-4.86886772231114
30
0
41
1
10
11.902154049904
20
-4.88043155705452
30
0
41
1
10
11.9075717089967
20
-4.91378860569833
30
0
41
1
10
11.9110313031419
20
-4.93425251035268
30
0
41
1
10
11.9155940472579
20
-4.96255676986672
30
0
41
1
10
11.9170106827893
20
-4.97159145236878
30
0
41
1
10
11.9187168586453
20
-4.98312802004935
30
0
41
1
10
11.9191282655827
20
-4.98597130647576
30
0
41
1
10
11.9195225230114
20
-4.98876732988566
30
0
0
SPLINE
5
12F
100
AcDbEntity
8
1
62
256
6
ByLayer
370
18
48
1
60
0
100
AcDbSpline
70
4
71
3
72
8
73
4
40
0
40
0
40
0
40
0
40
1
40
1
40
1
40
1
41
1
10
11.9252268066151
20
-5.05235519031882
30
0
41
1
10
11.9252708661504
20
-5.06207165936485
30
0
41
1
10
11.9247045893201
20
-5.07074221467732
30
0
41
1
10
11.9234475927148
20
-5.07846800632169
30
0
0
SPLINE
5
130
100
AcDbEntity
8
1
62
256
6
ByLayer
370
18
48
1
60
0
100
AcDbSpline
70
4
71
3
72
38
73
34
40
0
40
0
40
0
40
0
40
0.0156250000000057
40
0.0156250000000057
40
0.0312500000000114
40
0.0625000000000099
40
0.0625000000000099
40
0.125000000000007
40
0.125000000000007
40
0.250000000000001
40
0.250000000000001
40
0.374999999999995
40
0.374999999999995
40
0.437499999999998
40
0.437499999999998
40
0.468749999999999
40
0.468749999999999
40
0.5
40
0.5
40
0.625000000000014
40
0.625000000000014
40
0.656250000000014
40
0.656250000000014
40
0.687500000000015
40
0.687500000000015
40
0.750000000000008
40
0.812500000000002
40
0.812500000000002
40
0.84375
40
0.84375
40
0.874999999999999
40
0.874999999999999
40
1
40
1
40
1
40
1
41
1
10
21.0543466826879
20
-5.36250000000007
30
0
41
1
10
21.0483269836644
20
-5.36250000000007
30
0
41
1
10
21.0422275936936
20
-5.36243129368233
30
0
41
1
10
21.0300739413176
20
-5.36215478861615
30
0
41
1
10
21.0118698576952
20
-5.36153272589587
30
0
41
1
10
20.9937444333322
20
-5.36029305003419
30
0
41
1
10
20.9575977246251
20
-5.35699680449446
30
0
41
1
10
20.9336385463864
20
-5.3537117731457
30
0
41
1
10
20.8621792539143
20
-5.34058596944899
30
0
41
1
10
20.815093081434
20
-5.32750586766431
30
0
41
1
10
20.7221334962826
20
-5.29195915722008
30
0
41
1
10
20.677388441734
20
-5.26991923742443
30
0
41
1
10
20.6130450459999
20
-5.23024825996177
30
0
41
1
10
20.5920590962814
20
-5.21591472357039
30
0
41
1
10
20.5613172280264
20
-5.19264848267468
30
0
41
1
10
20.5511724513895
20
-5.18458070105768
30
0
41
1
10
20.5312429712335
20
-5.16791821308399
30
0
41
1
10
20.521475223363
20
-5.15933959771428
30
0
41
1
10
20.4736289724904
20
-5.11520145835428
30
0
41
1
10
20.438494390922
20
-5.07594859092427
30
0
41
1
10
20.3989370119355
20
-5.02143314576745
30
0
41
1
10
20.3912258379956
20
-5.01022323516972
30
0
41
1
10
20.3763756012703
20
-4.98740065043208
30
0
41
1
10
20.3692411271445
20
-4.97579923237325
30
0
41
1
10
20.3487135345687
20
-4.94042244064374
30
0
41
1
10
20.3236747012471
20
-4.89172941128368
30
0
41
1
10
20.3034494657298
20
-4.83989356853178
30
0
41
1
10
20.2902088434941
20
-4.79975896882266
30
0
41
1
10
20.2861192834526
20
-4.78616501058784
30
0
41
1
10
20.2787048673199
20
-4.7589157533136
30
0
41
1
10
20.2753642575565
20
-4.74521561152685
30
0
41
1
10
20.2604837484623
20
-4.67633960387545
30
0
41
1
10
20.2543466826879
20
-4.62005127533493
30
0
41
1
10
20.2543466826879
20
-4.56250000000003
30
0
0
SPLINE
5
131
100
AcDbEntity
8
1
62
256
6
ByLayer
370
18
48
1
60
0
100
AcDbSpline
70
4
71
3
72
21
73
17
40
0
40
0
40
0
40
0
40
0.250000000000035
40
0.250000000000035
40
0.312500000000043
40
0.312500000000043
40
0.375000000000052
40
0.375000000000052
40
0.500000000000043
40
0.625000000000033
40
0.625000000000033
40
0.687500000000032
40
0.687500000000032
40
0.75000000000003
40
0.75000000000003
40
1
40
1
40
1
40
1
41
1
10
12.5146159055012
20
-5.3625000000001
30
0
41
1
10
12.4574187501093
20
-5.3625000000001
30
0
41
1
10
12.4008744999439
20
-5.35687351944372
30
0
41
1
10
12.3310673611854
20
-5.3423157489465
30
0
41
1
10
12.3171500480354
20
-5.33902403255203
30
0
41
1
10
12.2894071012392
20
-5.33165054184465
30
0
41
1
10
12.2756286038461
20
-5.32757836613757
30
0
41
1
10
12.2350019011649
20
-5.31433762466096
30
0
41
1
10
12.1823787638862
20
-5.29387004915168
30
0
41
1
10
12.1328194346006
20
-5.26782654483546
30
0
41
1
10
12.0968282302457
20
-5.24614950163561
30
0
41
1
10
12.0850279610596
20
-5.23856565947096
30
0
41
1
10
12.0618313708795
20
-5.22266281603032
30
0
41
1
10
12.0504128371789
20
-5.2143233168953
30
0
41
1
10
11.9950970124968
20
-5.17132268587053
30
0
41
1
10
11.9559013605498
20
-5.13244426728181
30
0
41
1
10
11.9216689561398
20
-5.08917095840027
30
0
0
SPLINE
5
132
100
AcDbEntity
8
1
62
256
6
ByLayer
370
18
48
1
60
0
100
AcDbSpline
70
4
71
2
72
6
73
3
40
0
40
0
40
0
40
1
40
1
40
1
41
1.03186391735993
10
8.62742355640306
20
-7.8406513524259
30
0
41
0.729637973226922
10
8.62742355640308
20
-8.04065135242592
30
0
41
1.03186391735993
10
8.82714946335398
20
-8.04065135242589
30
0
0
SPLINE
5
133
100
AcDbEntity
8
1
62
256
6
ByLayer
370
18
48
1
60
0
100
AcDbSpline
70
4
71
2
72
6
73
3
40
0
40
0
40
0
40
1
40
1
40
1
41
1.03186391735993
10
8.82714946335398
20
-8.04065135242589
30
0
41
1.03138264657361
10
8.94919303054734
20
-8.04065135242592
30
0
41
1.03186391735993
10
9.07100896188654
20
-8.03319054611336
30
0
0
SPLINE
5
134
100
AcDbEntity
8
1
62
256
6
ByLayer
370
18
48
1
60
0
100
AcDbSpline
70
4
71
2
72
6
73
3
40
0
40
0
40
0
40
1
40
1
40
1
41
1.03186391735993
10
28.4002683680595
20
-5.03434864757418
30
0
41
0.729637973226922
10
28.5999942750104
20
-5.03434864757418
30
0
41
1.03186391735993
10
28.5999942750104
20
-5.23434864757417
30
0
0
SPLINE
5
135
100
AcDbEntity
8
1
62
256
6
ByLayer
370
18
48
1
60
0
100
AcDbSpline
70
4
71
2
72
6
73
3
40
0
40
0
40
0
40
1
40
1
40
1
41
1.03186391735993
10
28.4002683680595
20
-8.04065135242586
30
0
41
1.03138264657361
10
28.2782248008662
20
-8.04065135242586
30
0
41
1.03186391735993
10
28.1564088695269
20
-8.03319054611333
30
0
0
SPLINE
5
136
100
AcDbEntity
8
1
62
256
6
ByLayer
370
18
48
1
60
0
100
AcDbSpline
70
4
71
2
72
6
73
3
40
0
40
0
40
0
40
1
40
1
40
1
41
1.03186391735993
10
28.5999942750104
20
-7.84065135242587
30
0
41
0.729637973226922
10
28.5999942750104
20
-8.04065135242586
30
0
41
1.03186391735993
10
28.4002683680595
20
-8.04065135242586
30
0
0
SPLINE
5
137
100
AcDbEntity
8
1
62
256
6
ByLayer
370
18
48
1
60
0
100
AcDbSpline
70
4
71
2
72
6
73
3
40
0
40
0
40
0
40
1
40
1
40
1
41
1.03186391735993
10
28.1564088695269
20
-5.04180945388671
30
0
41
1.03138264657361
10
28.2782248008662
20
-5.03434864757418
30
0
41
1.03186391735993
10
28.4002683680595
20
-5.03434864757418
30
0
0
SPLINE
5
138
100
AcDbEntity
8
1
62
256
6
ByLayer
370
18
48
1
60
0
100
AcDbSpline
70
4
71
3
72
8
73
4
40
0
40
0
40
0
40
0
40
1
40
1
40
1
40
1
41
1
10
11.1368020171982
20
-7.96206146176073
30
0
41
1
10
11.1498342112687
20
-7.96150040538751
30
0
41
1
10
11.1627918172097
20
-7.95959913579716
30
0
41
1
10
11.1754515880164
20
-7.95637497521801
30
0
0
SPLINE
5
139
100
AcDbEntity
8
1
62
256
6
ByLayer
370
18
48
1
60
0
100
AcDbSpline
70
4
71
3
72
8
73
4
40
0
40
0
40
0
40
0
40
1
40
1
40
1
40
1
41
1
10
11.1754515880141
20
-5.11862502478147
30
0
41
1
10
11.1627918031188
20
-5.11540086061447
30
0
41
1
10
11.149834225596
20
-5.11349959522926
30
0
41
1
10
11.1368020171913
20
-5.11293853823906
30
0
0
SPLINE
5
13A
100
AcDbEntity
8
1
62
256
6
ByLayer
370
18
48
1
60
0
100
AcDbSpline
70
4
71
3
72
8
73
4
40
0
40
0
40
0
40
0
40
1
40
1
40
1
40
1
41
1
10
25.9944536226635
20
-5.11862502478203
30
0
41
1
10
26.0073496196379
20
-5.11540084711075
30
0
41
1
10
26.0205487997322
20
-5.11349959761995
30
0
41
1
10
26.0338241700198
20
-5.11293853823935
30
0
0
SPLINE
5
13B
100
AcDbEntity
8
1
62
256
6
ByLayer
370
18
48
1
60
0
100
AcDbSpline
70
4
71
3
72
8
73
4
40
0
40
0
40
0
40
0
40
1
40
1
40
1
40
1
41
1
10
26.0338241700268
20
-7.96206146176098
30
0
41
1
10
26.0205487845641
20
-7.96150040173916
30
0
41
1
10
26.0073496345483
20
-7.95959915661686
30
0
41
1
10
25.9944536226659
20
-7.95637497521861
30
0
0
SPLINE
5
13C
100
AcDbEntity
8
1
62
256
6
ByLayer
370
18
48
1
60
0
100
AcDbSpline
70
4
71
3
72
40
73
36
40
0
40
0
40
0
40
0
40
0.0624999999999849
40
0.0624999999999849
40
0.0937499999999862
40
0.0937499999999862
40
0.124999999999988
40
0.124999999999988
40
0.187499999999986
40
0.187499999999986
40
0.249999999999985
40
0.249999999999985
40
0.312499999999984
40
0.312499999999984
40
0.374999999999983
40
0.374999999999983
40
0.437499999999982
40
0.437499999999982
40
0.499999999999981
40
0.499999999999981
40
0.624999999999981
40
0.624999999999981
40
0.68749999999998
40
0.68749999999998
40
0.749999999999978
40
0.749999999999978
40
0.812499999999977
40
0.812499999999977
40
0.874999999999975
40
0.874999999999975
40
0.906249999999982
40
0.906249999999982
40
0.937499999999989
40
0.937499999999989
40
1
40
1
40
1
40
1
41
1
10
9.48226106239846
20
1.67776395172385
30
0
41
1
10
9.46607775444508
20
1.66947517434946
30
0
41
1
10
9.45159378549408
20
1.65891030987646
30
0
41
1
10
9.43157918469367
20
1.64075795535294
30
0
41
1
10
9.42520662063933
20
1.63430925926704
30
0
41
1
10
9.41314784587345
20
1.62091111947336
30
0
41
1
10
9.40743497112189
20
1.61393769701738
30
0
41
1
10
9.39112457517282
20
1.59229584498755
30
0
41
1
10
9.38146014038242
20
1.57706531286425
30
0
41
1
10
9.36410703114078
20
1.54540074023683
30
0
41
1
10
9.35645125229766
20
1.52900442766406
30
0
41
1
10
9.3430039777916
20
1.49551445491571
30
0
41
1
10
9.33718023458584
20
1.47832676164879
30
0
41
1
10
9.32729309294399
20
1.44354050704089
30
0
41
1
10
9.32321990103227
20
1.42592899364877
30
0
41
1
10
9.31670803732104
20
1.39029177601498
30
0
41
1
10
9.31427733239761
20
1.37227546104182
30
0
41
1
10
9.31105075335722
20
1.33620084791781
30
0
41
1
10
9.31024589580363
20
1.31809653824524
30
0
41
1
10
9.31025245887005
20
1.26358614703679
30
0
41
1
10
9.31344423049617
20
1.22757315209228
30
0
41
1
10
9.32322133316086
20
1.17406155828761
30
0
41
1
10
9.32730719884381
20
1.15640520873544
30
0
41
1
10
9.33718710006079
20
1.1216537481919
30
0
41
1
10
9.34300111239466
20
1.10448946364664
30
0
41
1
10
9.35647828535747
20
1.07093147081946
30
0
41
1
10
9.36414432034152
20
1.05452391928244
30
0
41
1
10
9.38150094168378
20
1.02286756719724
30
0
41
1
10
9.39120832978537
20
1.00758359114101
30
0
41
1
10
9.40748816079326
20
0.985996484384401
30
0
41
1
10
9.41319529724865
20
0.979032766003002
30
0
41
1
10
9.42525710711729
20
0.965638067133426
30
0
41
1
10
9.43163364628251
20
0.959189984910267
30
0
41
1
10
9.45160552610182
20
0.941084397130226
30
0
41
1
10
9.46606983535762
20
0.930528881654027
30
0
41
1
10
9.48226106239846
20
0.922236048276204
30
0
0
SPLINE
5
13D
100
AcDbEntity
8
1
62
256
6
ByLayer
370
18
48
1
60
0
100
AcDbSpline
70
4
71
3
72
8
73
4
40
0
40
0
40
0
40
0
40
1
40
1
40
1
40
1
41
1
10
9.48226106239846
20
0.922236048276204
30
0
41
1
10
9.48901737148643
20
0.918775597417579
30
0
41
1
10
9.49577373225057
20
0.915315605698595
30
0
41
1
10
9.50253014159088
20
0.911856055891633
30
0
0
SPLINE
5
13E
100
AcDbEntity
8
1
62
256
6
ByLayer
370
18
48
1
60
0
100
AcDbSpline
70
4
71
3
72
8
73
4
40
0
40
0
40
0
40
0
40
1
40
1
40
1
40
1
41
1
10
9.50253014159088
20
1.68814394410842
30
0
41
1
10
9.49577373225057
20
1.68468439430146
30
0
41
1
10
9.48901737148643
20
1.68122440258244
30
0
41
1
10
9.48226106239846
20
1.67776395172385
30
0
0
SPLINE
5
13F
100
AcDbEntity
8
1
62
256
6
ByLayer
370
18
48
1
60
0
100
AcDbSpline
70
4
71
3
72
31
73
27
40
0
40
0
40
0
40
0
40
0.250000000000005
40
0.250000000000005
40
0.375000000000004
40
0.375000000000004
40
0.500000000000003
40
0.500000000000003
40
0.562500000000003
40
0.562500000000003
40
0.625000000000003
40
0.625000000000003
40
0.687500000000003
40
0.687500000000003
40
0.750000000000003
40
0.750000000000003
40
0.781250000000004
40
0.781250000000004
40
0.812500000000004
40
0.843750000000004
40
0.843750000000004
40
0.875000000000004
40
0.875000000000004
40
0.937500000000002
40
0.937500000000002
40
1
40
1
40
1
40
1
41
1
10
9.55535134060904
20
0.461800000000039
30
0
41
1
10
9.57505356005839
20
0.500099657950614
30
0
41
1
10
9.59159729387372
20
0.540355882046612
30
0
41
1
10
9.61029978636691
20
0.602669247928219
30
0
41
1
10
9.61551276288554
20
0.623797936075306
30
0
41
1
10
9.6233750157138
20
0.666563839196868
30
0
41
1
10
9.62603671919555
20
0.688224249642559
30
0
41
1
10
9.62743706295456
20
0.720888211548925
30
0
41
1
10
9.62746755193999
20
0.731826116591208
30
0
41
1
10
9.62647719404205
20
0.753622110614202
30
0
41
1
10
9.62545109325882
20
0.764548901375832
30
0
41
1
10
9.622129282711
20
0.786082045228909
30
0
41
1
10
9.61984458867016
20
0.796663433141532
30
0
41
1
10
9.61374254297743
20
0.817364556229251
30
0
41
1
10
9.60993039481397
20
0.827485922485351
30
0
41
1
10
9.60269711350495
20
0.842205690224034
30
0
41
1
10
9.60001023551152
20
0.847066114578439
30
0
41
1
10
9.59414905415065
20
0.856412940747475
30
0
41
1
10
9.58781203293464
20
0.865383903535786
30
0
41
1
10
9.5804437409148
20
0.873538223263751
30
0
41
1
10
9.57250587163168
20
0.881240526729869
30
0
41
1
10
9.56824312669022
20
0.884863054072696
30
0
41
1
10
9.55495492212529
20
0.894679145121501
30
0
41
1
10
9.54531411581652
20
0.899952610231196
30
0
41
1
10
9.52446224665539
20
0.907943533132851
30
0
41
1
10
9.51363930473966
20
0.910512668063603
30
0
41
1
10
9.50253014159088
20
0.911856055891633
30
0
0
SPLINE
5
140
100
AcDbEntity
8
1
62
256
6
ByLayer
370
18
48
1
60
0
100
AcDbSpline
70
4
71
3
72
32
73
28
40
0
40
0
40
0
40
0
40
0.124999999999986
40
0.124999999999986
40
0.249999999999972
40
0.249999999999972
40
0.374999999999958
40
0.374999999999958
40
0.499999999999944
40
0.499999999999944
40
0.562499999999934
40
0.562499999999934
40
0.624999999999924
40
0.624999999999924
40
0.687499999999913
40
0.687499999999913
40
0.749999999999903
40
0.749999999999903
40
0.812499999999893
40
0.812499999999893
40
0.843749999999901
40
0.843749999999901
40
0.87499999999991
40
0.87499999999991
40
0.937499999999955
40
0.937499999999955
40
1
40
1
40
1
40
1
41
1
10
9.55535134060904
20
2.13820000000004
30
0
41
1
10
9.56520926801838
20
2.11903691794979
30
0
41
1
10
9.5742323564844
20
2.09944603427081
30
0
41
1
10
9.59054100333009
20
2.05937832340334
30
0
41
1
10
9.59781811120371
20
2.03891517171698
30
0
41
1
10
9.61030183932158
20
1.99732620346455
30
0
41
1
10
9.61551411862499
20
1.97620222244115
30
0
41
1
10
9.6233858377673
20
1.93336975079336
30
0
41
1
10
9.62604374747272
20
1.91173026636722
30
0
41
1
10
9.62743960229713
20
1.87899294388166
30
0
41
1
10
9.62746618901835
20
1.868089441883
30
0
41
1
10
9.62647155682257
20
1.84630865588355
30
0
41
1
10
9.62544550103294
20
1.83539003295453
30
0
41
1
10
9.62210584118796
20
1.81379103036684
30
0
41
1
10
9.61980578690839
20
1.80316054405131
30
0
41
1
10
9.61363815993539
20
1.78232675805535
30
0
41
1
10
9.60976055293597
20
1.77208970372379
30
0
41
1
10
9.59997174583879
20
1.75233091984975
30
0
41
1
10
9.59417344917912
20
1.74303141886151
30
0
41
1
10
9.58380154270381
20
1.73016290724723
30
0
41
1
10
9.58004904456968
20
1.72604830727889
30
0
41
1
10
9.57213678632328
20
1.71843492487997
30
0
41
1
10
9.56795643402992
20
1.71490708021719
30
0
41
1
10
9.55472223603149
20
1.70518684134393
30
0
41
1
10
9.54481103931789
20
1.69982136881651
30
0
41
1
10
9.52428721835514
20
1.69202373945706
30
0
41
1
10
9.51359800868192
20
1.68948233816505
30
0
41
1
10
9.50253014159088
20
1.68814394410842
30
0
0
SPLINE
5
141
100
AcDbEntity
8
1
62
256
6
ByLayer
370
18
48
1
60
0
100
AcDbSpline
70
4
71
3
72
8
73
4
40
0
40
0
40
0
40
0
40
1
40
1
40
1
40
1
41
1
10
9.13744053750472
20
2.34806955824294
30
0
41
1
10
9.1443271815148
20
2.35127664764909
30
0
41
1
10
9.15121385990795
20
2.35448331153216
30
0
41
1
10
9.15810057023302
20
2.35768956585835
30
0
0
SPLINE
5
142
100
AcDbEntity
8
1
62
256
6
ByLayer
370
18
48
1
60
0
100
AcDbSpline
70
4
71
3
72
31
73
27
40
0
40
0
40
0
40
0
40
0.249999999999944
40
0.249999999999944
40
0.374999999999905
40
0.374999999999905
40
0.499999999999866
40
0.499999999999866
40
0.562499999999863
40
0.562499999999863
40
0.624999999999861
40
0.624999999999861
40
0.687499999999859
40
0.687499999999859
40
0.749999999999856
40
0.749999999999856
40
0.781249999999874
40
0.781249999999874
40
0.812499999999892
40
0.843749999999909
40
0.843749999999909
40
0.874999999999927
40
0.874999999999927
40
0.937499999999963
40
0.937499999999963
40
1
40
1
40
1
40
1
41
1
10
9.55535134060904
20
2.13820000000004
30
0
41
1
10
9.53564912115968
20
2.17649965795062
30
0
41
1
10
9.51261970125293
20
2.21317071889862
30
0
41
1
10
9.47307641554556
20
2.26408283951017
30
0
41
1
10
9.4590310321112
20
2.28039097926893
30
0
41
1
10
9.42906129711059
20
2.31116766342598
30
0
41
1
10
9.41312577588204
20
2.32565888285458
30
0
41
1
10
9.38757086365814
20
2.34539394567582
30
0
41
1
10
9.37875769257695
20
2.3516474619581
30
0
41
1
10
9.36057654012095
20
2.36326910157609
30
0
41
1
10
9.35115001420684
20
2.36867211619401
30
0
41
1
10
9.33180076287979
20
2.37829513224691
30
0
41
1
10
9.32190474213536
20
2.38250960071213
30
0
41
1
10
9.30156568740182
20
2.38948417060433
30
0
41
1
10
9.29112453971044
20
2.39224908932368
30
0
41
1
10
9.27491937422448
20
2.39497000109986
30
0
41
1
10
9.26938815891788
20
2.39563875818985
30
0
41
1
10
9.25833067992113
20
2.39639315044317
30
0
41
1
10
9.24728662882103
20
2.39657248488311
30
0
41
1
10
9.2362708132552
20
2.39550850211148
30
0
41
1
10
9.22527016161254
20
2.3937600211093
30
0
41
1
10
9.21977401095322
20
2.39253514329167
30
0
41
1
10
9.20382158803164
20
2.38789809575255
30
0
41
1
10
9.19372576346103
20
2.38350915250271
30
0
41
1
10
9.17461542101532
20
2.37213283042388
30
0
41
1
10
9.16595626528678
20
2.36535745512194
30
0
41
1
10
9.15810057023302
20
2.35768956585835
30
0
0
SPLINE
5
143
100
AcDbEntity
8
1
62
256
6
ByLayer
370
18
48
1
60
0
100
AcDbSpline
70
4
71
3
72
8
73
4
40
0
40
0
40
0
40
0
40
1
40
1
40
1
40
1
41
1
10
8.5544493040174
20
2.72583350996675
30
0
41
1
10
8.55599554298016
20
2.73250105023152
30
0
41
1
10
8.55754252490169
20
2.73916770583361
30
0
41
1
10
8.55909022074414
20
2.74583350996676
30
0
0
SPLINE
5
144
100
AcDbEntity
8
1
62
256
6
ByLayer
370
18
48
1
60
0
100
AcDbSpline
70
4
71
3
72
40
73
36
40
0
40
0
40
0
40
0
40
0.0312500000000199
40
0.0312500000000199
40
0.0625000000000397
40
0.0625000000000397
40
0.125000000000079
40
0.125000000000079
40
0.156250000000087
40
0.156250000000087
40
0.187500000000094
40
0.187500000000094
40
0.250000000000085
40
0.250000000000085
40
0.312500000000076
40
0.312500000000076
40
0.375000000000068
40
0.375000000000068
40
0.500000000000046
40
0.500000000000046
40
0.625000000000025
40
0.625000000000025
40
0.687500000000019
40
0.687500000000019
40
0.750000000000013
40
0.750000000000013
40
0.812500000000008
40
0.812500000000008
40
0.875000000000002
40
0.875000000000002
40
0.906250000000002
40
0.906250000000002
40
0.937500000000002
40
0.937500000000002
40
1
40
1
40
1
40
1
41
1
10
9.13744053750472
20
2.34806955824294
30
0
41
1
10
9.12915616517961
20
2.34421155096365
30
0
41
1
10
9.12062870441346
20
2.34098808051144
30
0
41
1
10
9.10317737824434
20
2.33557410081468
30
0
41
1
10
9.09426475789957
20
2.33339458832452
30
0
41
1
10
9.06753461045804
20
2.32825329894567
30
0
41
1
10
9.04954049391478
20
2.32660492650569
30
0
41
1
10
9.02236353191816
20
2.32608011744725
30
0
41
1
10
9.01326554410556
20
2.32623955606925
30
0
41
1
10
8.99527285363715
20
2.32713631705508
30
0
41
1
10
8.98634325792844
20
2.32787239919168
30
0
41
1
10
8.95973510782571
20
2.33084037322678
30
0
41
1
10
8.94223580929472
20
2.33382552576285
30
0
41
1
10
8.90766198552333
20
2.34149497576217
30
0
41
1
10
8.8905133842996
20
2.34621248554467
30
0
41
1
10
8.85725919877237
20
2.35699334074968
30
0
41
1
10
8.84109077319991
20
2.3630645056401
30
0
41
1
10
8.79386467580215
20
2.38311873581932
30
0
41
1
10
8.76406967686313
20
2.39891212278221
30
0
41
1
10
8.70787027189928
20
2.43523501770059
30
0
41
1
10
8.68194690276678
20
2.45548611561839
30
0
41
1
10
8.64701713040276
20
2.48875000357108
30
0
41
1
10
8.63606601193177
20
2.50029372467284
30
0
41
1
10
8.61569669981941
20
2.52428163658493
30
0
41
1
10
8.60624267819114
20
2.53676932794198
30
0
41
1
10
8.58910776833233
20
2.56266971744066
30
0
41
1
10
8.58141912211028
20
2.57608965734016
30
0
41
1
10
8.56820076914346
20
2.60383560114849
30
0
41
1
10
8.56265546674658
20
2.61818924578716
30
0
41
1
10
8.55641918878419
20
2.64036169119095
30
0
41
1
10
8.55469043010061
20
2.64785080097488
30
0
41
1
10
8.55203489224053
20
2.66306465478465
30
0
41
1
10
8.55110866018293
20
2.67081396116569
30
0
41
1
10
8.54977938471421
20
2.69412670698028
30
0
41
1
10
8.5507395089833
20
2.70983649504214
30
0
41
1
10
8.5544493040174
20
2.72583350996675
30
0
0
SPLINE
5
145
100
AcDbEntity
8
1
62
256
6
ByLayer
370
18
48
1
60
0
100
AcDbSpline
70
4
71
3
72
40
73
36
40
0
40
0
40
0
40
0
40
0.0625000000000014
40
0.0625000000000014
40
0.0937499999999905
40
0.0937499999999905
40
0.124999999999979
40
0.124999999999979
40
0.187499999999981
40
0.187499999999981
40
0.249999999999983
40
0.249999999999983
40
0.312499999999984
40
0.312499999999984
40
0.374999999999986
40
0.374999999999986
40
0.437499999999988
40
0.437499999999988
40
0.499999999999989
40
0.499999999999989
40
0.624999999999997
40
0.624999999999997
40
0.6875
40
0.6875
40
0.750000000000002
40
0.750000000000002
40
0.812500000000004
40
0.812500000000004
40
0.875000000000006
40
0.875000000000006
40
0.906250000000005
40
0.906250000000005
40
0.937500000000003
40
0.937500000000003
40
1
40
1
40
1
40
1
41
1
10
9.13744053750472
20
0.251930441757111
30
0
41
1
10
9.12094503984034
20
0.259612345414609
30
0
41
1
10
9.10367353673976
20
0.264758449593785
30
0
41
1
10
9.07698952182383
20
0.26994595617154
30
0
41
1
10
9.06796290448105
20
0.271235368888824
30
0
41
1
10
9.04993730882367
20
0.273034450018855
30
0
41
1
10
9.04090293558968
20
0.27355112499572
30
0
41
1
10
9.0137454587647
20
0.274107053768233
30
0
41
1
10
8.99575883916063
20
0.27315987390412
30
0
41
1
10
8.96008821006592
20
0.269216542220136
30
0
41
1
10
8.94245426228417
20
0.266216032099578
30
0
41
1
10
8.90783558142184
20
0.258550356172833
30
0
41
1
10
8.89075708780453
20
0.253859646745553
30
0
41
1
10
8.85742286608158
20
0.243066511206337
30
0
41
1
10
8.84115072686009
20
0.236964172942152
30
0
41
1
10
8.80935793073857
20
0.223457127084572
30
0
41
1
10
8.79384972700834
20
0.216051751245715
30
0
41
1
10
8.76388032906979
20
0.200140301628636
30
0
41
1
10
8.74937768483321
20
0.191617126718199
30
0
41
1
10
8.70731994037746
20
0.164357614075556
30
0
41
1
10
8.68164651793111
20
0.14425880585523
30
0
41
1
10
8.64680212407242
20
0.111029509453033
30
0
41
1
10
8.6358686992339
20
0.0994894686639043
30
0
41
1
10
8.61554045830499
20
0.0755185342770517
30
0
41
1
10
8.60610543992684
20
0.0630398305361553
30
0
41
1
10
8.58900708933177
20
0.0371612661299423
30
0
41
1
10
8.58133504675945
20
0.0237527288989554
30
0
41
1
10
8.56814720445996
20
-0.0039670980686992
30
0
41
1
10
8.56261528720009
20
-0.0183072049362067
30
0
41
1
10
8.55639599616995
20
-0.0404567279770447
30
0
41
1
10
8.55467227669766
20
-0.0479380441279886
30
0
41
1
10
8.55202540730565
20
-0.0631359302733188
30
0
41
1
10
8.55110286066412
20
-0.0708767312097223
30
0
41
1
10
8.54978177390385
20
-0.0941630961914939
30
0
41
1
10
8.55074380360597
20
-0.109855013893537
30
0
41
1
10
8.5544493040174
20
-0.125833509966697
30
0
0
SPLINE
5
146
100
AcDbEntity
8
1
62
256
6
ByLayer
370
18
48
1
60
0
100
AcDbSpline
70
4
71
3
72
8
73
4
40
0
40
0
40
0
40
0
40
1
40
1
40
1
40
1
41
1
10
8.5544493040174
20
-0.125833509966697
30
0
41
1
10
8.55599554298016
20
-0.132501050231468
30
0
41
1
10
8.55754252490169
20
-0.139167705833557
30
0
41
1
10
8.55909022074414
20
-0.145833509966707
30
0
0
SPLINE
5
147
100
AcDbEntity
8
1
62
256
6
ByLayer
370
18
48
1
60
0
100
AcDbSpline
70
4
71
3
72
32
73
28
40
0
40
0
40
0
40
0
40
0.125000000000024
40
0.125000000000024
40
0.250000000000048
40
0.250000000000048
40
0.375000000000073
40
0.375000000000073
40
0.500000000000097
40
0.500000000000097
40
0.562500000000094
40
0.562500000000094
40
0.625000000000091
40
0.625000000000091
40
0.687500000000088
40
0.687500000000088
40
0.750000000000085
40
0.750000000000085
40
0.812500000000082
40
0.812500000000082
40
0.843750000000081
40
0.843750000000081
40
0.875000000000079
40
0.875000000000079
40
0.93750000000004
40
0.93750000000004
40
1
40
1
40
1
40
1
41
1
10
9.55535134060904
20
0.461800000000039
30
0
41
1
10
9.54549341319969
20
0.442636917949784
30
0
41
1
10
9.53482656989132
20
0.423952030009872
30
0
41
1
10
9.51180919176289
20
0.387572855848106
30
0
41
1
10
9.4994649810607
20
0.369893614900803
30
0
41
1
10
9.47307391784966
20
0.335912862968911
30
0
41
1
10
9.45903193733241
20
0.319607986440587
30
0
41
1
10
9.42901396255837
20
0.288785694442112
30
0
41
1
10
9.41309315521784
20
0.274309526525087
30
0
41
1
10
9.3874763929727
20
0.254536318571468
30
0
41
1
10
9.37868871316101
20
0.248305538101988
30
0
41
1
10
9.36051732102325
20
0.23669597271649
30
0
41
1
10
9.35109741816683
20
0.23129757753631
30
0
41
1
10
9.33168441491222
20
0.221651188898193
30
0
41
1
10
9.32173964528263
20
0.217420913775754
30
0
41
1
10
9.30125436879146
20
0.210422247665974
30
0
41
1
10
9.29068072107634
20
0.207642693909605
30
0
41
1
10
9.26888009578826
20
0.204051391299259
30
0
41
1
10
9.25789995141557
20
0.203277763446863
30
0
41
1
10
9.2412789027224
20
0.203998404612094
30
0
41
1
10
9.23569941407612
20
0.204561470101083
30
0
41
1
10
9.22478555870794
20
0.206339969614532
30
0
41
1
10
9.21941537608799
20
0.207554872091094
30
0
41
1
10
9.20357253715744
20
0.212204105858916
30
0
41
1
10
9.19323817633781
20
0.216746978650264
30
0
41
1
10
9.17448242981354
20
0.22798161399777
30
0
41
1
10
9.16592706333594
20
0.234671048699084
30
0
41
1
10
9.15810057023302
20
0.2423104341417
30
0
0
SPLINE
5
148
100
AcDbEntity
8
1
62
256
6
ByLayer
370
18
48
1
60
0
100
AcDbSpline
70
4
71
3
72
8
73
4
40
0
40
0
40
0
40
0
40
1
40
1
40
1
40
1
41
1
10
9.15810057023302
20
0.2423104341417
30
0
41
1
10
9.15121385990795
20
0.245516688467887
30
0
41
1
10
9.1443271815148
20
0.248723352350936
30
0
41
1
10
9.13744053750472
20
0.251930441757111
30
0
0
SPLINE
5
149
100
AcDbEntity
8
1
62
256
6
ByLayer
370
18
48
1
60
0
100
AcDbSpline
70
4
71
3
72
31
73
27
40
0
40
0
40
0
40
0
40
0.249999999999975
40
0.249999999999975
40
0.374999999999963
40
0.374999999999963
40
0.499999999999951
40
0.499999999999951
40
0.56249999999996
40
0.56249999999996
40
0.624999999999969
40
0.624999999999969
40
0.687499999999979
40
0.687499999999979
40
0.749999999999988
40
0.749999999999988
40
0.781249999999991
40
0.781249999999991
40
0.812499999999993
40
0.843749999999996
40
0.843749999999996
40
0.874999999999998
40
0.874999999999998
40
0.937499999999999
40
0.937499999999999
40
1
40
1
40
1
40
1
41
1
10
8.26178362542817
20
2.97640000000001
30
0
41
1
10
8.30118806432688
20
2.97640000000001
30
0
41
1
10
8.3402848098051
20
2.97281483685205
30
0
41
1
10
8.39690778313934
20
2.96141359158196
30
0
41
1
10
8.41546964004286
20
2.95659304319364
30
0
41
1
10
8.45149917918755
20
2.94460382422912
30
0
41
1
10
8.46899148860817
20
2.93743463321203
30
0
41
1
10
8.49384584215852
20
2.92450573412691
30
0
41
1
10
8.50191279614822
20
2.9198213453669
30
0
41
1
10
8.51736871621478
20
2.90964699096188
30
0
41
1
10
8.52480516305155
20
2.90412321481818
30
0
41
1
10
8.53868733584127
20
2.89221308701801
30
0
41
1
10
8.54512123848693
20
2.88584616757058
30
0
41
1
10
8.55672957637358
20
2.87211961437509
30
0
41
1
10
8.56190841510838
20
2.86476316683834
30
0
41
1
10
8.56841980452788
20
2.85276431087581
30
0
41
1
10
8.5703895293631
20
2.84857264361142
30
0
41
1
10
8.57375671342012
20
2.83998020969571
30
0
41
1
10
8.57655727125552
20
2.8311883943835
30
0
41
1
10
8.57812575700999
20
2.82197027884772
30
0
41
1
10
8.57901182822147
20
2.81251949437942
30
0
41
1
10
8.57910621015347
20
2.80767208921895
30
0
41
1
10
8.57830265202546
20
2.79321895063106
30
0
41
1
10
8.57634520041242
20
2.7835565422715
30
0
41
1
10
8.56956699812423
20
2.76418929729101
30
0
41
1
10
8.56487270758592
20
2.75484478705835
30
0
41
1
10
8.55909022074414
20
2.74583350996676
30
0
0
SPLINE
5
14A
100
AcDbEntity
8
1
62
256
6
ByLayer
370
18
48
1
60
0
100
AcDbSpline
70
4
71
3
72
31
73
27
40
0
40
0
40
0
40
0
40
0.249999999999985
40
0.249999999999985
40
0.374999999999983
40
0.374999999999983
40
0.499999999999981
40
0.499999999999981
40
0.562499999999993
40
0.562499999999993
40
0.625000000000005
40
0.625000000000005
40
0.687500000000016
40
0.687500000000016
40
0.750000000000028
40
0.750000000000028
40
0.781250000000024
40
0.781250000000024
40
0.812500000000021
40
0.843750000000017
40
0.843750000000017
40
0.875000000000013
40
0.875000000000013
40
0.937500000000007
40
0.937500000000007
40
1
40
1
40
1
40
1
41
1
10
8.26178362542817
20
-0.37639999999999
30
0
41
1
10
8.30118806432688
20
-0.37639999999999
30
0
41
1
10
8.3402848098051
20
-0.372814836852001
30
0
41
1
10
8.39690778313931
20
-0.361413591581908
30
0
41
1
10
8.41546964004286
20
-0.356593043193584
30
0
41
1
10
8.45149917918752
20
-0.344603824229097
30
0
41
1
10
8.46899148860811
20
-0.337434633212013
30
0
41
1
10
8.49384584215852
20
-0.324505734126859
30
0
41
1
10
8.50191279614819
20
-0.319821345366876
30
0
41
1
10
8.51736871621475
20
-0.309646990961852
30
0
41
1
10
8.5248051630515
20
-0.304123214818134
30
0
41
1
10
8.53868733584127
20
-0.292213087017984
30
0
41
1
10
8.54512123848693
20
-0.285846167570554
30
0
41
1
10
8.55672957637358
20
-0.2721196143751
30
0
41
1
10
8.56190841510838
20
-0.264763166838321
30
0
41
1
10
8.56841980452785
20
-0.25276431087579
30
0
41
1
10
8.5703895293631
20
-0.248572643611396
30
0
41
1
10
8.57375671342012
20
-0.239980209695688
30
0
41
1
10
8.57655727125552
20
-0.23118839438348
30
0
41
1
10
8.57812575700999
20
-0.221970278847721
30
0
41
1
10
8.57901182822147
20
-0.212519494379393
30
0
41
1
10
8.57910621015347
20
-0.207672089218931
30
0
41
1
10
8.57830265202546
20
-0.193218950631035
30
0
41
1
10
8.57634520041242
20
-0.183556542271475
30
0
41
1
10
8.56956699812429
20
-0.164189297291017
30
0
41
1
10
8.56487270758595
20
-0.154844787058295
30
0
41
1
10
8.55909022074414
20
-0.145833509966707
30
0
0
SPLINE
5
14B
100
AcDbEntity
8
1
62
256
6
ByLayer
370
18
48
1
60
0
100
AcDbSpline
70
4
71
3
72
42
73
38
40
0
40
0
40
0
40
0
40
0.0625000000000074
40
0.0625000000000074
40
0.0937500000000074
40
0.0937500000000074
40
0.125000000000007
40
0.125000000000007
40
0.18750000000001
40
0.18750000000001
40
0.250000000000012
40
0.250000000000012
40
0.312500000000014
40
0.312500000000014
40
0.375000000000017
40
0.375000000000017
40
0.437500000000019
40
0.437500000000019
40
0.500000000000022
40
0.500000000000022
40
0.562500000000024
40
0.562500000000024
40
0.625000000000027
40
0.625000000000027
40
0.750000000000043
40
0.750000000000043
40
0.781250000000035
40
0.781250000000035
40
0.812500000000026
40
0.812500000000026
40
0.87500000000001
40
0.87500000000001
40
0.906250000000001
40
0.906250000000001
40
0.937499999999993
40
0.937499999999993
40
1
40
1
40
1
40
1
41
1
10
7.86480825422987
20
2.72583350996675
30
0
41
1
10
7.86047577017448
20
2.70984653166747
30
0
41
1
10
7.85392479673456
20
2.6941197835651
30
0
41
1
10
7.84189900415464
20
2.67075658685508
30
0
41
1
10
7.83751029321488
20
2.66301119303441
30
0
41
1
10
7.82821513226767
20
2.64779980101611
30
0
41
1
10
7.82329278729699
20
2.64030277394954
30
0
41
1
10
7.80781877169602
20
2.61808458059116
30
0
41
1
10
7.79667813003769
20
2.60378975753449
30
0
41
1
10
7.77320793919003
20
2.57604530971184
30
0
41
1
10
7.76090624361072
20
2.56263979616031
30
0
41
1
10
7.73559660711865
20
2.53679651464546
30
0
41
1
10
7.72251733743448
20
2.52429075690759
30
0
41
1
10
7.69594189559371
20
2.50028317408905
30
0
41
1
10
7.68243513221151
20
2.48876743862562
30
0
41
1
10
7.65504571016169
20
2.4666256427013
30
0
41
1
10
7.64117152559459
20
2.45601083809404
30
0
41
1
10
7.61335901500516
20
2.43584148687017
30
0
41
1
10
7.59938381718635
20
2.42625712436231
30
0
41
1
10
7.57131486932192
20
2.40808974058996
30
0
41
1
10
7.55731788868974
20
2.39956920227616
30
0
41
1
10
7.52939064186251
20
2.3836634186836
30
0
41
1
10
7.51541073006464
20
2.37625551369652
30
0
41
1
10
7.47404858091724
20
2.35608825932093
30
0
41
1
10
7.44717264767442
20
2.34526753279206
30
0
41
1
10
7.41431839743424
20
2.33572458160191
30
0
41
1
10
7.40778475661497
20
2.33402004560031
30
0
41
1
10
7.39478951180507
20
2.3310623968404
30
0
41
1
10
7.38831520264327
20
2.32980853403959
30
0
41
1
10
7.36924528556497
20
2.32684652308592
30
0
41
1
10
7.35692579061853
20
2.32590417376119
30
0
41
1
10
7.33909661105199
20
2.32643420474329
30
0
41
1
10
7.33326265001116
20
2.3269374925778
30
0
41
1
10
7.32183809467764
20
2.32871877639491
30
0
41
1
10
7.31622498500505
20
2.33000675723645
30
0
41
1
10
7.3001506112391
20
2.33518702842656
30
0
41
1
10
7.29033418818892
20
2.34033916442621
30
0
41
1
10
7.28181702074255
20
2.34806955824294
30
0
0
SPLINE
5
14C
100
AcDbEntity
8
1
62
256
6
ByLayer
370
18
48
1
60
0
100
AcDbSpline
70
4
71
3
72
8
73
4
40
0
40
0
40
0
40
0
40
1
40
1
40
1
40
1
41
1
10
7.87023107802844
20
2.74583350996676
30
0
41
1
10
7.86842278021646
20
2.73916770583361
30
0
41
1
10
7.86661516303687
20
2.73250105023152
30
0
41
1
10
7.86480825422987
20
2.72583350996675
30
0
0
SPLINE
5
14D
100
AcDbEntity
8
1
62
256
6
ByLayer
370
18
48
1
60
0
100
AcDbSpline
70
4
71
3
72
32
73
28
40
0
40
0
40
0
40
0
40
0.124999999999993
40
0.124999999999993
40
0.249999999999985
40
0.249999999999985
40
0.374999999999977
40
0.374999999999977
40
0.49999999999997
40
0.49999999999997
40
0.562499999999983
40
0.562499999999983
40
0.624999999999996
40
0.624999999999996
40
0.687500000000009
40
0.687500000000009
40
0.750000000000023
40
0.750000000000023
40
0.812500000000036
40
0.812500000000036
40
0.843750000000032
40
0.843750000000032
40
0.875000000000028
40
0.875000000000028
40
0.937500000000014
40
0.937500000000014
40
1
40
1
40
1
40
1
41
1
10
8.26178362542817
20
2.97640000000001
30
0
41
1
10
8.24206777060942
20
2.97640000000001
30
0
41
1
10
8.22225505878814
20
2.97549400426095
30
0
41
1
10
8.18242086955578
20
2.97180546755524
30
0
41
1
10
8.16241416053805
20
2.96902155681619
30
0
41
1
10
8.12245646222229
20
2.96141334049565
30
0
41
1
10
8.10250593804554
20
2.9565942360006
30
0
41
1
10
8.06281058269835
20
2.94458405635126
30
0
41
1
10
8.04312787744672
20
2.93742073984214
30
0
41
1
10
8.01400836191283
20
2.92445662531023
30
0
41
1
10
8.00441918097036
20
2.91978390378105
30
0
41
1
10
7.98550787140644
20
2.90961268316707
30
0
41
1
10
7.97615064200804
20
2.90409245541827
30
0
41
1
10
7.95792401376607
20
2.89213984146869
30
0
41
1
10
7.94909550884859
20
2.88573963027557
30
0
41
1
10
7.93212706043798
20
2.87190451038941
30
0
41
1
10
7.92395985548839
20
2.86444700981423
30
0
41
1
10
7.90862870394818
20
2.84827952855051
30
0
41
1
10
7.90163649173917
20
2.83975365541465
30
0
41
1
10
7.89237672812425
20
2.82616450263518
30
0
41
1
10
7.88949319126201
20
2.82148683717784
30
0
41
1
10
7.8843256354161
20
2.81209495526545
30
0
41
1
10
7.88202020393013
20
2.80735220812611
30
0
41
1
10
7.87596102227906
20
2.79298273548505
30
0
41
1
10
7.87306069836083
20
2.78307439016626
30
0
41
1
10
7.86987493702273
20
2.76404212545933
30
0
41
1
10
7.86950932167358
20
2.75481128946598
30
0
41
1
10
7.87023107802844
20
2.74583350996676
30
0
0
SPLINE
5
14E
100
AcDbEntity
8
1
62
256
6
ByLayer
370
18
48
1
60
0
100
AcDbSpline
70
4
71
3
72
8
73
4
40
0
40
0
40
0
40
0
40
1
40
1
40
1
40
1
41
1
10
7.27122072853953
20
2.35768956585835
30
0
41
1
10
7.27475144521017
20
2.35448331153216
30
0
41
1
10
7.2782835245022
20
2.35127664764909
30
0
41
1
10
7.28181702074255
20
2.34806955824294
30
0
0
SPLINE
5
14F
100
AcDbEntity
8
1
62
256
6
ByLayer
370
18
48
1
60
0
100
AcDbSpline
70
4
71
3
72
40
73
36
40
0
40
0
40
0
40
0
40
0.0624999999999892
40
0.0624999999999892
40
0.0937499999999865
40
0.0937499999999865
40
0.124999999999984
40
0.124999999999984
40
0.187499999999987
40
0.187499999999987
40
0.24999999999999
40
0.24999999999999
40
0.312499999999993
40
0.312499999999993
40
0.374999999999996
40
0.374999999999996
40
0.437499999999999
40
0.437499999999999
40
0.500000000000004
40
0.500000000000004
40
0.625000000000018
40
0.625000000000018
40
0.687500000000017
40
0.687500000000017
40
0.750000000000015
40
0.750000000000015
40
0.812500000000014
40
0.812500000000014
40
0.875000000000012
40
0.875000000000012
40
0.906250000000012
40
0.906250000000012
40
0.937500000000011
40
0.937500000000011
40
1
40
1
40
1
40
1
41
1
10
7.86480825422987
20
-0.125833509966697
30
0
41
1
10
7.86048018674711
20
-0.109862828934837
30
0
41
1
10
7.85393803863258
20
-0.0941518602826363
30
0
41
1
10
7.84192915368911
20
-0.0708119991813874
30
0
41
1
10
7.83754649975481
20
-0.0630738903781776
30
0
41
1
10
7.82826419035135
20
-0.0478766694544959
30
0
41
1
10
7.82334868385246
20
-0.0403865720216174
30
0
41
1
10
7.80789623530498
20
-0.0181887912192735
30
0
41
1
10
7.79677004760035
20
-0.0039054389601176
30
0
41
1
10
7.77333131851063
20
0.0238158019833179
30
0
41
1
10
7.76104494670517
20
0.0372116044355266
30
0
41
1
10
7.73576747547531
20
0.0630359012571375
30
0
41
1
10
7.72270470784056
20
0.0755328850967771
30
0
41
1
10
7.69616085935178
20
0.0995260041654547
30
0
41
1
10
7.68267012059482
20
0.111035179293396
30
0
41
1
10
7.65531325754117
20
0.133165351069636
30
0
41
1
10
7.64145406883833
20
0.143776290203931
30
0
41
1
10
7.61367184970439
20
0.163939453710839
30
0
41
1
10
7.59971344419685
20
0.173520588472968
30
0
41
1
10
7.55765125817467
20
0.200771467038777
30
0
41
1
10
7.52982517078451
20
0.216685653762966
30
0
41
1
10
7.48832054471612
20
0.23696795116544
30
0
41
1
10
7.47459702815533
20
0.24308425992848
30
0
41
1
10
7.44748333974511
20
0.25386478608516
30
0
41
1
10
7.43403936080415
20
0.258550366889523
30
0
41
1
10
7.40757895868816
20
0.266229795310522
30
0
41
1
10
7.39455201959697
20
0.269228809616521
30
0
41
1
10
7.36912950322065
20
0.273165334734074
30
0
41
1
10
7.3567062551065
20
0.274109203922819
30
0
41
1
10
7.33880342337005
20
0.273546787638594
30
0
41
1
10
7.3329648797492
20
0.27302918986905
30
0
41
1
10
7.3215722696028
20
0.271226002593267
30
0
41
1
10
7.31600267397801
20
0.269933283880022
30
0
41
1
10
7.30003743861681
20
0.26475250667832
30
0
41
1
10
7.29028490448363
20
0.259616104452448
30
0
41
1
10
7.28181702074258
20
0.251930441757111
30
0
0
SPLINE
5
150
100
AcDbEntity
8
1
62
256
6
ByLayer
370
18
48
1
60
0
100
AcDbSpline
70
4
71
3
72
8
73
4
40
0
40
0
40
0
40
0
40
1
40
1
40
1
40
1
41
1
10
7.28181702074258
20
0.251930441757111
30
0
41
1
10
7.27828352450223
20
0.248723352350964
30
0
41
1
10
7.2747514452102
20
0.245516688467887
30
0
41
1
10
7.27122072853956
20
0.2423104341417
30
0
0
SPLINE
5
151
100
AcDbEntity
8
1
62
256
6
ByLayer
370
18
48
1
60
0
100
AcDbSpline
70
4
71
3
72
32
73
28
40
0
40
0
40
0
40
0
40
0.124999999999987
40
0.124999999999987
40
0.249999999999973
40
0.249999999999973
40
0.37499999999996
40
0.37499999999996
40
0.499999999999947
40
0.499999999999947
40
0.562499999999942
40
0.562499999999942
40
0.624999999999937
40
0.624999999999937
40
0.687499999999932
40
0.687499999999932
40
0.749999999999927
40
0.749999999999927
40
0.812499999999923
40
0.812499999999923
40
0.843749999999933
40
0.843749999999933
40
0.874999999999943
40
0.874999999999943
40
0.937499999999971
40
0.937499999999971
40
1
40
1
40
1
40
1
41
1
10
8.26178362542817
20
-0.37639999999999
30
0
41
1
10
8.24206777060945
20
-0.37639999999999
30
0
41
1
10
8.22225505878814
20
-0.375494004260901
30
0
41
1
10
8.18242086955581
20
-0.37180546755522
30
0
41
1
10
8.16241416053805
20
-0.369021556816136
30
0
41
1
10
8.12245646222229
20
-0.361413340495602
30
0
41
1
10
8.10250593804554
20
-0.356594236000547
30
0
41
1
10
8.06281058269838
20
-0.344584056351238
30
0
41
1
10
8.04312787744672
20
-0.337420739842116
30
0
41
1
10
8.0140083619128
20
-0.324456625310177
30
0
41
1
10
8.00441918097036
20
-0.319783903781001
30
0
41
1
10
7.98550787140644
20
-0.309612683167018
30
0
41
1
10
7.97615064200804
20
-0.304092455418214
30
0
41
1
10
7.95792401376605
20
-0.292139841468639
30
0
41
1
10
7.94909550884856
20
-0.285739630275543
30
0
41
1
10
7.93212706043801
20
-0.271904510389362
30
0
41
1
10
7.92395985548842
20
-0.264447009814177
30
0
41
1
10
7.90862870394818
20
-0.248279528550483
30
0
41
1
10
7.9016364917392
20
-0.239753655414603
30
0
41
1
10
7.89237672812425
20
-0.226164502635129
30
0
41
1
10
7.88949319126201
20
-0.221486837177792
30
0
41
1
10
7.8843256354161
20
-0.212094955265428
30
0
41
1
10
7.88202020393013
20
-0.207352208126082
30
0
41
1
10
7.87596102227908
20
-0.192982735485003
30
0
41
1
10
7.87306069836086
20
-0.18307439016624
30
0
41
1
10
7.86987493702273
20
-0.164042125459275
30
0
41
1
10
7.86950932167358
20
-0.154811289465926
30
0
41
1
10
7.87023107802844
20
-0.145833509966707
30
0
0
SPLINE
5
152
100
AcDbEntity
8
1
62
256
6
ByLayer
370
18
48
1
60
0
100
AcDbSpline
70
4
71
3
72
8
73
4
40
0
40
0
40
0
40
0
40
1
40
1
40
1
40
1
41
1
10
7.87023107802844
20
-0.145833509966707
30
0
41
1
10
7.86842278021646
20
-0.139167705833557
30
0
41
1
10
7.86661516303687
20
-0.132501050231468
30
0
41
1
10
7.86480825422987
20
-0.125833509966697
30
0
0
SPLINE
5
153
100
AcDbEntity
8
1
62
256
6
ByLayer
370
18
48
1
60
0
100
AcDbSpline
70
4
71
3
72
31
73
27
40
0
40
0
40
0
40
0
40
0.250000000000027
40
0.250000000000027
40
0.375000000000039
40
0.375000000000039
40
0.500000000000051
40
0.500000000000051
40
0.562500000000058
40
0.562500000000058
40
0.625000000000066
40
0.625000000000066
40
0.687500000000073
40
0.687500000000073
40
0.75000000000008
40
0.75000000000008
40
0.781250000000071
40
0.781250000000071
40
0.812500000000061
40
0.843750000000051
40
0.843750000000051
40
0.875000000000041
40
0.875000000000041
40
0.937500000000021
40
0.937500000000021
40
1
40
1
40
1
40
1
41
1
10
6.9682159102473
20
0.461800000000011
30
0
41
1
10
6.98791812969665
20
0.423500342049408
30
0
41
1
10
7.00999473311572
20
0.386829281101399
30
0
41
1
10
7.04629240909046
20
0.335917160489885
30
0
41
1
10
7.05894478642588
20
0.319609020731122
30
0
41
1
10
7.08530962405811
20
0.288832336574075
30
0
41
1
10
7.09903531470721
20
0.274341117145468
30
0
41
1
10
7.12038842206604
20
0.254606054324228
30
0
41
1
10
7.12764818099336
20
0.248352538041956
30
0
41
1
10
7.14235958446636
20
0.236730898423957
30
0
41
1
10
7.1498581537922
20
0.231327883806045
30
0
41
1
10
7.16491686914028
20
0.221704867753147
30
0
41
1
10
7.17245804176889
20
0.217490399287925
30
0
41
1
10
7.18753975419406
20
0.210515829395689
30
0
41
1
10
7.19508058029919
20
0.207750910676367
30
0
41
1
10
7.20636475627032
20
0.205029998900187
30
0
41
1
10
7.21014674662101
20
0.204361241810176
30
0
41
1
10
7.21754599846005
20
0.203606849556877
30
0
41
1
10
7.22477710948661
20
0.203427702080773
30
0
41
1
10
7.2316348454456
20
0.204491497888569
30
0
41
1
10
7.23828207479212
20
0.20623997889075
30
0
41
1
10
7.24150017787977
20
0.207464856708384
30
0
41
1
10
7.25051704783203
20
0.212101904247504
30
0
41
1
10
7.25578793265285
20
0.21649084749734
30
0
41
1
10
7.26482492395311
20
0.227867169576172
30
0
41
1
10
7.26842307097937
20
0.234642544878113
30
0
41
1
10
7.27122072853956
20
0.2423104341417
30
0
0
SPLINE
5
154
100
AcDbEntity
8
1
62
256
6
ByLayer
370
18
48
1
60
0
100
AcDbSpline
70
4
71
3
72
32
73
28
40
0
40
0
40
0
40
0
40
0.125
40
0.125
40
0.25
40
0.25
40
0.375
40
0.375
40
0.5
40
0.5
40
0.5625
40
0.5625
40
0.625
40
0.625
40
0.6875
40
0.6875
40
0.75
40
0.75
40
0.812500000000001
40
0.812500000000001
40
0.84375
40
0.84375
40
0.875
40
0.875
40
0.9375
40
0.9375
40
1
40
1
40
1
40
1
41
1
10
6.96821591024727
20
2.13820000000001
30
0
41
1
10
6.97807383765661
20
2.15736308205027
30
0
41
1
10
6.98849512087108
20
2.17604796999018
30
0
41
1
10
7.01049617048315
20
2.21242714415195
30
0
41
1
10
7.02206960030136
20
2.23010638509925
30
0
41
1
10
7.04629484953875
20
2.26408713703114
30
0
41
1
10
7.05894430134381
20
2.28039201355946
30
0
41
1
10
7.08535095325618
20
2.31121430555794
30
0
41
1
10
7.09906378418546
20
2.32569047347499
30
0
41
1
10
7.1204667495019
20
2.34546368142858
30
0
41
1
10
7.12770460049438
20
2.35169446189806
30
0
41
1
10
7.14240689338837
20
2.36330402728353
30
0
41
1
10
7.14990003158144
20
2.36870242246374
30
0
41
1
10
7.16500646517139
20
2.37834881110186
30
0
41
1
10
7.17258365566607
20
2.3825790862243
30
0
41
1
10
7.18776733437235
20
2.38957775233408
30
0
41
1
10
7.19539865361963
20
2.39235730609045
30
0
41
1
10
7.21056061220909
20
2.39594860870079
30
0
41
1
10
7.21792002758983
20
2.39672223655319
30
0
41
1
10
7.22851983348892
20
2.39600159538796
30
0
41
1
10
7.23198622943499
20
2.39543852989897
30
0
41
1
10
7.23856816735497
20
2.39366003038549
30
0
41
1
10
7.24170714765609
20
2.39244512790896
30
0
41
1
10
7.25064890514878
20
2.38779589414114
30
0
41
1
10
7.25602894634409
20
2.38325302134979
30
0
41
1
10
7.2648770213151
20
2.37201838600228
30
0
41
1
10
7.26843347070314
20
2.36532895130094
30
0
41
1
10
7.27122072853956
20
2.35768956585835
30
0
0
SPLINE
5
155
100
AcDbEntity
8
1
62
256
6
ByLayer
370
18
48
1
60
0
100
AcDbSpline
70
4
71
3
72
40
73
36
40
0
40
0
40
0
40
0
40
0.062500000000005
40
0.062500000000005
40
0.0937500000000084
40
0.0937500000000084
40
0.125000000000012
40
0.125000000000012
40
0.18750000000001
40
0.18750000000001
40
0.250000000000009
40
0.250000000000009
40
0.312500000000007
40
0.312500000000007
40
0.375000000000006
40
0.375000000000006
40
0.437500000000005
40
0.437500000000005
40
0.500000000000003
40
0.500000000000003
40
0.624999999999997
40
0.624999999999997
40
0.687499999999994
40
0.687499999999994
40
0.749999999999991
40
0.749999999999991
40
0.812499999999988
40
0.812499999999988
40
0.874999999999985
40
0.874999999999985
40
0.906249999999987
40
0.906249999999987
40
0.937499999999988
40
0.937499999999988
40
1
40
1
40
1
40
1
41
1
10
6.9369964958488
20
0.922236048276204
30
0
41
1
10
6.94514804825869
20
0.930524825650565
30
0
41
1
10
6.95212278927974
20
0.94108969012359
30
0
41
1
10
6.96145844842414
20
0.959242044647112
30
0
41
1
10
6.96437381118679
20
0.96569074073301
30
0
41
1
10
6.9698016089288
20
0.979088880526689
30
0
41
1
10
6.97232646764746
20
0.986062302982674
30
0
41
1
10
6.97942612825335
20
1.0077041550125
30
0
41
1
10
6.98348255726179
20
1.0229346871358
30
0
41
1
10
6.99059324803014
20
1.05459925976319
30
0
41
1
10
6.99363262113971
20
1.07099557233599
30
0
41
1
10
6.99886776589855
20
1.10448554508434
30
0
41
1
10
7.00107547465785
20
1.12167323835123
30
0
41
1
10
7.00476907948436
20
1.15645949295916
30
0
41
1
10
7.00625868850179
20
1.17407100635125
30
0
41
1
10
7.00861869092611
20
1.20970822398507
30
0
41
1
10
7.00948601605759
20
1.22772453895823
30
0
41
1
10
7.01063379462644
20
1.26379915208221
30
0
41
1
10
7.01091741453095
20
1.28190346175481
30
0
41
1
10
7.01091509446445
20
1.33641385296326
30
0
41
1
10
7.00980153620296
20
1.37242684790775
30
0
41
1
10
7.00625817444822
20
1.42593844171242
30
0
41
1
10
7.00476385668671
20
1.44359479126462
30
0
41
1
10
7.00107286294099
20
1.47834625180812
30
0
41
1
10
6.99886895414929
20
1.49551053635341
30
0
41
1
10
6.99362202407019
20
1.52906852918059
30
0
41
1
10
6.9905782660166
20
1.54547608071758
30
0
41
1
10
6.98346553920513
20
1.57713243280278
30
0
41
1
10
6.97939026559823
20
1.59241640885904
30
0
41
1
10
6.97230301519352
20
1.61400351561565
30
0
41
1
10
6.9697805033517
20
1.62096723399705
30
0
41
1
10
6.96435083171159
20
1.63436193286663
30
0
41
1
10
6.96143327291034
20
1.64081001508978
30
0
41
1
10
6.95211685552772
20
1.65891560286983
30
0
41
1
10
6.94515203711293
20
1.66947111834602
30
0
41
1
10
6.9369964958488
20
1.67776395172385
30
0
0
SPLINE
5
156
100
AcDbEntity
8
1
62
256
6
ByLayer
370
18
48
1
60
0
100
AcDbSpline
70
4
71
3
72
8
73
4
40
0
40
0
40
0
40
0
40
1
40
1
40
1
40
1
41
1
10
6.9369964958488
20
1.67776395172385
30
0
41
1
10
6.93359333453057
20
1.68122440258244
30
0
41
1
10
6.93019157286759
20
1.68468439430146
30
0
41
1
10
6.9267911571817
20
1.68814394410842
30
0
0
SPLINE
5
157
100
AcDbEntity
8
1
62
256
6
ByLayer
370
18
48
1
60
0
100
AcDbSpline
70
4
71
3
72
31
73
27
40
0
40
0
40
0
40
0
40
0.249999999999986
40
0.249999999999986
40
0.374999999999981
40
0.374999999999981
40
0.499999999999976
40
0.499999999999976
40
0.562499999999971
40
0.562499999999971
40
0.624999999999966
40
0.624999999999966
40
0.687499999999961
40
0.687499999999961
40
0.749999999999956
40
0.749999999999956
40
0.781249999999954
40
0.781249999999954
40
0.812499999999951
40
0.843749999999949
40
0.843749999999949
40
0.874999999999946
40
0.874999999999946
40
0.937499999999973
40
0.937499999999973
40
1
40
1
40
1
40
1
41
1
10
6.96821591024727
20
2.13820000000001
30
0
41
1
10
6.94851369079794
20
2.09990034204944
30
0
41
1
10
6.93101714049496
20
2.05964411795344
30
0
41
1
10
6.90906903826914
20
1.99733075207183
30
0
41
1
10
6.90246305565157
20
1.97620206392475
30
0
41
1
10
6.89099590545493
20
1.93343616080318
30
0
41
1
10
6.88612437139366
20
1.91177575035749
30
0
41
1
10
6.88052222276963
20
1.87911178845113
30
0
41
1
10
6.87893832163033
20
1.86817388340884
30
0
41
1
10
6.87645893054528
20
1.84637788938582
30
0
41
1
10
6.87555707474019
20
1.83545109862422
30
0
41
1
10
6.87458834930911
20
1.81391795477114
30
0
41
1
10
6.87451819523409
20
1.80333656685852
30
0
41
1
10
6.87536289861842
20
1.7826354437708
30
0
41
1
10
6.87627472519569
20
1.7725140775147
30
0
41
1
10
6.87858701698988
20
1.75779430977602
30
0
41
1
10
6.87952467002731
20
1.75293388542161
30
0
41
1
10
6.88172762423054
20
1.7435870592526
30
0
41
1
10
6.88425170939666
20
1.73461609646426
30
0
41
1
10
6.88746191778603
20
1.7264617767363
30
0
41
1
10
6.89104636477296
20
1.71875947327018
30
0
41
1
10
6.89303106214277
20
1.71513694592736
30
0
41
1
10
6.89938371373842
20
1.70532085487855
30
0
41
1
10
6.90419958029733
20
1.70004738976886
30
0
41
1
10
6.91497809831304
20
1.6920564668672
30
0
41
1
10
6.92074003152655
20
1.68948733193642
30
0
41
1
10
6.9267911571817
20
1.68814394410842
30
0
0
SPLINE
5
158
100
AcDbEntity
8
1
62
256
6
ByLayer
370
18
48
1
60
0
100
AcDbSpline
70
4
71
3
72
32
73
28
40
0
40
0
40
0
40
0
40
0.124999999999998
40
0.124999999999998
40
0.249999999999996
40
0.249999999999996
40
0.374999999999994
40
0.374999999999994
40
0.499999999999992
40
0.499999999999992
40
0.56249999999999
40
0.56249999999999
40
0.624999999999988
40
0.624999999999988
40
0.687499999999987
40
0.687499999999987
40
0.749999999999985
40
0.749999999999985
40
0.812499999999983
40
0.812499999999983
40
0.843749999999986
40
0.843749999999986
40
0.874999999999989
40
0.874999999999989
40
0.937499999999994
40
0.937499999999994
40
1
40
1
40
1
40
1
41
1
10
6.9682159102473
20
0.461800000000011
30
0
41
1
10
6.95835798283795
20
0.480963082050266
30
0
41
1
10
6.94908933427803
20
0.500553965729239
30
0
41
1
10
6.93176435891596
20
0.540621676596686
30
0
41
1
10
6.92371647015838
20
0.561084828283072
30
0
41
1
10
6.90906692806684
20
0.602673796535498
30
0
41
1
10
6.90246212005124
20
0.623797777558877
30
0
41
1
10
6.89097907804731
20
0.666630249206662
30
0
41
1
10
6.88611319193058
20
0.688269733632836
30
0
41
1
10
6.88050354017747
20
0.721007056118367
30
0
41
1
10
6.87892712463704
20
0.731910558117022
30
0
41
1
10
6.87645265758903
20
0.753691344116504
30
0
41
1
10
6.87555194871535
20
0.764609967045487
30
0
41
1
10
6.87458503889565
20
0.786208969633179
30
0
41
1
10
6.87451751404032
20
0.796839455948714
30
0
41
1
10
6.87538354322845
20
0.817673241944675
30
0
41
1
10
6.87631882176007
20
0.827910296276229
30
0
41
1
10
6.8794689621586
20
0.847669080150297
30
0
41
1
10
6.8816465298263
20
0.856968581138545
30
0
41
1
10
6.88599719350751
20
0.869837092752789
30
0
41
1
10
6.88763659894141
20
0.873951692721135
30
0
41
1
10
6.89121693973962
20
0.881565075120051
30
0
41
1
10
6.89316608971419
20
0.885092919782863
30
0
41
1
10
6.89949920627475
20
0.894813158656092
30
0
41
1
10
6.90445608336401
20
0.900178631183536
30
0
41
1
10
6.9150722327735
20
0.907976260542966
30
0
41
1
10
6.92076252535719
20
0.910517661835001
30
0
41
1
10
6.9267911571817
20
0.911856055891633
30
0
0
SPLINE
5
159
100
AcDbEntity
8
1
62
256
6
ByLayer
370
18
48
1
60
0
100
AcDbSpline
70
4
71
3
72
8
73
4
40
0
40
0
40
0
40
0
40
1
40
1
40
1
40
1
41
1
10
6.9267911571817
20
0.911856055891633
30
0
41
1
10
6.93019157286759
20
0.915315605698595
30
0
41
1
10
6.93359333453057
20
0.918775597417607
30
0
41
1
10
6.9369964958488
20
0.922236048276204
30
0
0
LINE
5
7F
100
AcDbEntity
8
80
62
256
6
ByLayer
370
18
48
1
60
0
100
AcDbLine
10
0
20
0
30
0
11
-5
21
0
31
0
39
0
210
0
220
0
230
1
0
LINE
5
80
100
AcDbEntity
8
81
62
256
6
ByLayer
370
18
48
1
60
0
100
AcDbLine
10
28.6
20
-8.0375
30
0
11
33.593148
21
-8.0375
31
0
39
0
210
0
220
0
230
1
0
LINE
5
81
100
AcDbEntity
8
1
62
256
6
ByLayer
370
18
48
1
60
0
100
AcDbLine
10
9.02425
20
0.273815
30
0
11
8.322566
21
0.273815
31
0
39
0
210
0
220
0
230
1
0
LINE
5
82
100
AcDbEntity
8
1
62
256
6
ByLayer
370
18
48
1
60
0
100
AcDbLine
10
8.322566
20
2.326185
30
0
11
9.024236
21
2.326185
31
0
39
0
210
0
220
0
230
1
0
LINE
5
83
100
AcDbEntity
8
1
62
256
6
ByLayer
370
18
48
1
60
0
100
AcDbLine
10
7.350036
20
0.273815
30
0
11
7.101224
21
0.273815
31
0
39
0
210
0
220
0
230
1
0
LINE
5
84
100
AcDbEntity
8
1
62
256
6
ByLayer
370
18
48
1
60
0
100
AcDbLine
10
7.101056
20
2.326185
30
0
11
7.35083
21
2.326185
31
0
39
0
210
0
220
0
230
1
0
LINE
5
85
100
AcDbEntity
8
1
62
256
6
ByLayer
370
18
48
1
60
0
100
AcDbLine
10
7.989389
20
-1.7
30
0
11
8.261784
21
-1.7
31
0
39
0
210
0
220
0
230
1
0
LINE
5
86
100
AcDbEntity
8
1
62
256
6
ByLayer
370
18
48
1
60
0
100
AcDbLine
10
8.261784
20
4.3
30
0
11
7.989389
21
4.3
31
0
39
0
210
0
220
0
230
1
0
LINE
5
87
100
AcDbEntity
8
1
62
256
6
ByLayer
370
18
48
1
60
0
100
AcDbLine
10
0
20
-7.7125
30
0
11
0.468629
21
-7.7125
31
0
39
0
210
0
220
0
230
1
0
LINE
5
88
100
AcDbEntity
8
1
62
256
6
ByLayer
370
18
48
1
60
0
100
AcDbLine
10
0
20
-7.7125
30
0
11
0
21
7.9625
31
0
39
0
210
0
220
0
230
1
0
LINE
5
89
100
AcDbEntity
8
1
62
256
6
ByLayer
370
18
48
1
60
0
100
AcDbLine
10
10.8
20
7.253723
30
0
11
10.979894
21
7.126219
31
0
39
0
210
0
220
0
230
1
0
LINE
5
8A
100
AcDbEntity
8
1
62
256
6
ByLayer
370
18
48
1
60
0
100
AcDbLine
10
10.8
20
-4.2875
30
0
11
10.979894
21
-4.2875
31
0
39
0
210
0
220
0
230
1
0
LINE
5
8B
100
AcDbEntity
8
1
62
256
6
ByLayer
370
18
48
1
60
0
100
AcDbLine
10
10.979894
20
-4.2875
30
0
11
10.979894
21
7.126219
31
0
39
0
210
0
220
0
230
1
0
LINE
5
8C
100
AcDbEntity
8
1
62
256
6
ByLayer
370
18
48
1
60
0
100
AcDbLine
10
0.468629
20
7.9625
30
0
11
0
21
7.9625
31
0
39
0
210
0
220
0
230
1
0
LINE
5
8D
100
AcDbEntity
8
1
62
256
6
ByLayer
370
18
48
1
60
0
100
AcDbLine
10
10.8
20
-4.5625
30
0
11
10.8
21
0.037923
31
0
39
0
210
0
220
0
230
1
0
LINE
5
8E
100
AcDbEntity
8
1
62
256
6
ByLayer
370
18
48
1
60
0
100
AcDbLine
10
5
20
7.9625
30
0
11
0.468629
21
7.9625
31
0
39
0
210
0
220
0
230
1
0
LINE
5
8F
100
AcDbEntity
8
1
62
256
6
ByLayer
370
13
48
1
60
0
100
AcDbLine
10
0.468629
20
7.9625
30
0
11
0.468629
21
-7.7125
31
0
39
0
210
0
220
0
230
1
0
LINE
5
90
100
AcDbEntity
8
1
62
256
6
ByLayer
370
18
48
1
60
0
100
AcDbLine
10
5
20
-7.7125
30
0
11
0.468629
21
-7.7125
31
0
39
0
210
0
220
0
230
1
0
LINE
5
91
100
AcDbEntity
8
1
62
256
6
ByLayer
370
18
48
1
60
0
100
AcDbLine
10
10.8
20
2.562077
30
0
11
10.8
21
2.339531
31
0
39
0
210
0
220
0
230
1
0
LINE
5
92
100
AcDbEntity
8
1
62
256
6
ByLayer
370
18
48
1
60
0
100
AcDbLine
10
10.8
20
0.260469
30
0
11
10.8
21
0.037923
31
0
39
0
210
0
220
0
230
1
0
LINE
5
93
100
AcDbEntity
8
1
62
256
6
ByLayer
370
13
48
1
60
0
100
AcDbLine
10
6.931349
20
-4.5625
30
0
11
10.8
21
-4.5625
31
0
39
0
210
0
220
0
230
1
0
LINE
5
94
100
AcDbEntity
8
1
62
256
6
ByLayer
370
18
48
1
60
0
100
AcDbLine
10
21.620658
20
-5.3625
30
0
11
15.412804
21
-5.3625
31
0
39
0
210
0
220
0
230
1
0
LINE
5
95
100
AcDbEntity
8
1
62
256
6
ByLayer
370
18
48
1
60
0
100
AcDbLine
10
21.620658
20
-7.7125
30
0
11
15.412804
21
-7.7125
31
0
39
0
210
0
220
0
230
1
0
LINE
5
96
100
AcDbEntity
8
1
62
256
6
ByLayer
370
18
48
1
60
0
100
AcDbLine
10
21.800344
20
-7.371027
30
0
11
21.620658
21
-7.7125
31
0
39
0
210
0
220
0
230
1
0
LINE
5
97
100
AcDbEntity
8
1
62
256
6
ByLayer
370
18
48
1
60
0
100
AcDbLine
10
22.311865
20
-6.488681
30
0
11
22.311865
21
-6.586319
31
0
39
0
210
0
220
0
230
1
0
LINE
5
98
100
AcDbEntity
8
1
62
256
6
ByLayer
370
18
48
1
60
0
100
AcDbLine
10
21.620658
20
-5.3625
30
0
11
21.800344
21
-5.703973
31
0
39
0
210
0
220
0
230
1
0
LINE
5
99
100
AcDbEntity
8
1
62
256
6
ByLayer
370
18
48
1
60
0
100
AcDbLine
10
6.931349
20
7.9625
30
0
11
9.8
21
7.9625
31
0
39
0
210
0
220
0
230
1
0
LINE
5
9A
100
AcDbEntity
8
1
62
256
6
ByLayer
370
18
48
1
60
0
100
AcDbLine
10
10.8
20
2.562077
30
0
11
10.8
21
7.253723
31
0
39
0
210
0
220
0
230
1
0
LINE
5
9B
100
AcDbEntity
8
1
62
256
6
ByLayer
370
18
48
1
60
0
100
AcDbLine
10
9.8
20
7.9625
30
0
11
10.8
21
7.253723
31
0
39
0
210
0
220
0
230
1
0
LINE
5
9C
100
AcDbEntity
8
1
62
256
6
ByLayer
370
18
48
1
60
0
100
AcDbLine
10
6.931349
20
7.9625
30
0
11
6.931349
21
4.135488
31
0
39
0
210
0
220
0
230
1
0
LINE
5
9D
100
AcDbEntity
8
1
62
256
6
ByLayer
370
18
48
1
60
0
100
AcDbLine
10
6.931349
20
7.9625
30
0
11
5
21
7.9625
31
0
39
0
210
0
220
0
230
1
0
LINE
5
9E
100
AcDbEntity
8
1
62
256
6
ByLayer
370
18
48
1
60
0
100
AcDbLine
10
5
20
7.9625
30
0
11
5
21
-7.7125
31
0
39
0
210
0
220
0
230
1
0
LINE
5
9F
100
AcDbEntity
8
1
62
256
6
ByLayer
370
18
48
1
60
0
100
AcDbLine
10
15.412804
20
-7.7125
30
0
11
5
21
-7.7125
31
0
39
0
210
0
220
0
230
1
0
LINE
5
A0
100
AcDbEntity
8
1
62
256
6
ByLayer
370
18
48
1
60
0
100
AcDbLine
10
15.412804
20
-7.7125
30
0
11
15.412804
21
-5.3625
31
0
39
0
210
0
220
0
230
1
0
LINE
5
A1
100
AcDbEntity
8
1
62
256
6
ByLayer
370
18
48
1
60
0
100
AcDbLine
10
15.412804
20
-5.3625
30
0
11
8.693501
21
-5.3625
31
0
39
0
210
0
220
0
230
1
0
LINE
5
A2
100
AcDbEntity
8
1
62
256
6
ByLayer
370
18
48
1
60
0
100
AcDbLine
10
6.931349
20
-1.535488
30
0
11
6.931349
21
-4.5625
31
0
39
0
210
0
220
0
230
1
0
LINE
5
A3
100
AcDbEntity
8
1
62
256
6
ByLayer
370
18
48
1
60
0
100
AcDbLine
10
11.921669
20
-5.089171
30
0
11
11.917676
21
-5.30766
31
0
39
0
210
0
220
0
230
1
0
LINE
5
A4
100
AcDbEntity
8
1
62
256
6
ByLayer
370
18
48
1
60
0
100
AcDbLine
10
21.620608
20
-7.7125
30
0
11
22.751548
21
-7.7125
31
0
39
0
210
0
220
0
230
1
0
LINE
5
A5
100
AcDbEntity
8
1
62
256
6
ByLayer
370
18
48
1
60
0
100
AcDbLine
10
21.620608
20
-5.3625
30
0
11
22.751548
21
-5.3625
31
0
39
0
210
0
220
0
230
1
0
LINE
5
A6
100
AcDbEntity
8
1
62
256
6
ByLayer
370
18
48
1
60
0
100
AcDbLine
10
22.751548
20
-5.3625
30
0
11
23.666069
21
-5.3625
31
0
39
0
210
0
220
0
230
1
0
LINE
5
A7
100
AcDbEntity
8
1
62
256
6
ByLayer
370
18
48
1
60
0
100
AcDbLine
10
22.750854
20
-5.387504
30
0
11
22.751548
21
-5.3625
31
0
39
0
210
0
220
0
230
1
0
LINE
5
A8
100
AcDbEntity
8
1
62
256
6
ByLayer
370
18
48
1
60
0
100
AcDbLine
10
22.751548
20
-7.7125
30
0
11
23.666069
21
-7.7125
31
0
39
0
210
0
220
0
230
1
0
LINE
5
A9
100
AcDbEntity
8
1
62
256
6
ByLayer
370
18
48
1
60
0
100
AcDbLine
10
22.751548
20
-7.7125
30
0
11
22.750854
21
-7.687496
31
0
39
0
210
0
220
0
230
1
0
LINE
5
AA
100
AcDbEntity
8
1
62
256
6
ByLayer
370
18
48
1
60
0
100
AcDbLine
10
23.666069
20
-7.7125
30
0
11
25.018011
21
-7.7125
31
0
39
0
210
0
220
0
230
1
0
LINE
5
AB
100
AcDbEntity
8
1
62
256
6
ByLayer
370
18
48
1
60
0
100
AcDbLine
10
23.666069
20
-7.7125
30
0
11
23.665375
21
-7.687496
31
0
39
0
210
0
220
0
230
1
0
LINE
5
AC
100
AcDbEntity
8
1
62
256
6
ByLayer
370
18
48
1
60
0
100
AcDbLine
10
23.666069
20
-5.3625
30
0
11
25.018011
21
-5.3625
31
0
39
0
210
0
220
0
230
1
0
LINE
5
AD
100
AcDbEntity
8
1
62
256
6
ByLayer
370
18
48
1
60
0
100
AcDbLine
10
23.665375
20
-5.387504
30
0
11
23.666069
21
-5.3625
31
0
39
0
210
0
220
0
230
1
0
LINE
5
AE
100
AcDbEntity
8
1
62
256
6
ByLayer
370
18
48
1
60
0
100
AcDbLine
10
11.150844
20
-4.2875
30
0
11
11.874244
21
-4.2875
31
0
39
0
210
0
220
0
230
1
0
LINE
5
AF
100
AcDbEntity
8
1
62
256
6
ByLayer
370
18
48
1
60
0
100
AcDbLine
10
11.150844
20
7.005054
30
0
11
20.254347
21
0.552704
31
0
39
0
210
0
220
0
230
1
0
LINE
5
B0
100
AcDbEntity
8
1
62
256
6
ByLayer
370
18
48
1
60
0
100
AcDbLine
10
11.874244
20
-4.5625
30
0
11
11.874244
21
-4.2875
31
0
39
0
210
0
220
0
230
1
0
LINE
5
B1
100
AcDbEntity
8
1
62
256
6
ByLayer
370
13
48
1
60
0
100
AcDbLine
10
11.874244
20
-4.5625
30
0
11
20.254347
21
-4.5625
31
0
39
0
210
0
220
0
230
1
0
LINE
5
B2
100
AcDbEntity
8
1
62
256
6
ByLayer
370
18
48
1
60
0
100
AcDbLine
10
20.254347
20
-4.5625
30
0
11
20.254347
21
0.552704
31
0
39
0
210
0
220
0
230
1
0
LINE
5
B3
100
AcDbEntity
8
1
62
256
6
ByLayer
370
18
48
1
60
0
100
AcDbLine
10
10.979889
20
-4.2875
30
0
11
11.150844
21
-4.2875
31
0
39
0
210
0
220
0
230
1
0
LINE
5
B4
100
AcDbEntity
8
1
62
256
6
ByLayer
370
18
48
1
60
0
100
AcDbLine
10
10.979878
20
7.12623
30
0
11
11.150844
21
7.005054
31
0
39
0
210
0
220
0
230
1
0
LINE
5
B5
100
AcDbEntity
8
1
62
256
6
ByLayer
370
18
48
1
60
0
100
AcDbLine
10
11.150844
20
7.005054
30
0
11
11.150844
21
-4.2875
31
0
39
0
210
0
220
0
230
1
0
LINE
5
B6
100
AcDbEntity
8
1
62
256
6
ByLayer
370
18
48
1
60
0
100
AcDbLine
10
9.071009
20
-8.033191
30
0
11
10.016496
21
-7.975283
31
0
39
0
210
0
220
0
230
1
0
LINE
5
B7
100
AcDbEntity
8
1
62
256
6
ByLayer
370
18
48
1
60
0
100
AcDbLine
10
8.627424
20
-7.712495
30
0
11
8.627424
21
-7.840651
31
0
39
0
210
0
220
0
230
1
0
LINE
5
B8
100
AcDbEntity
8
1
62
256
6
ByLayer
370
18
48
1
60
0
100
AcDbLine
10
10.016496
20
-7.975283
30
0
11
10.748126
21
-7.978795
31
0
39
0
210
0
220
0
230
1
0
LINE
5
B9
100
AcDbEntity
8
1
62
256
6
ByLayer
370
18
48
1
60
0
100
AcDbLine
10
10.016496
20
-7.975283
30
0
11
10.016496
21
-7.712483
31
0
39
0
210
0
220
0
230
1
0
LINE
5
BA
100
AcDbEntity
8
1
62
256
6
ByLayer
370
18
48
1
60
0
100
AcDbLine
10
27.210922
20
-5.099717
30
0
11
28.156409
21
-5.041809
31
0
39
0
210
0
220
0
230
1
0
LINE
5
BB
100
AcDbEntity
8
1
62
256
6
ByLayer
370
18
48
1
60
0
100
AcDbLine
10
28.156409
20
-8.033191
30
0
11
27.210922
21
-7.975283
31
0
39
0
210
0
220
0
230
1
0
LINE
5
BC
100
AcDbEntity
8
1
62
256
6
ByLayer
370
18
48
1
60
0
100
AcDbLine
10
28.599994
20
-5.234349
30
0
11
28.599994
21
-7.840651
31
0
39
0
210
0
220
0
230
1
0
LINE
5
BD
100
AcDbEntity
8
1
62
256
6
ByLayer
370
18
48
1
60
0
100
AcDbLine
10
26.429751
20
-5.096205
30
0
11
27.210922
21
-5.099717
31
0
39
0
210
0
220
0
230
1
0
LINE
5
BE
100
AcDbEntity
8
1
62
256
6
ByLayer
370
18
48
1
60
0
100
AcDbLine
10
27.210922
20
-7.975283
30
0
11
26.429751
21
-7.978795
31
0
39
0
210
0
220
0
230
1
0
LINE
5
BF
100
AcDbEntity
8
1
62
256
6
ByLayer
370
18
48
1
60
0
100
AcDbLine
10
27.210922
20
-7.975283
30
0
11
27.210922
21
-5.099717
31
0
39
0
210
0
220
0
230
1
0
LINE
5
C0
100
AcDbEntity
8
1
62
256
6
ByLayer
370
18
48
1
60
0
100
AcDbLine
10
11.136802
20
-5.112939
30
0
11
11.014521
21
-5.107674
31
0
39
0
210
0
220
0
230
1
0
LINE
5
C1
100
AcDbEntity
8
1
62
256
6
ByLayer
370
18
48
1
60
0
100
AcDbLine
10
10.748126
20
-7.978795
30
0
11
10.748126
21
-7.71247
31
0
39
0
210
0
220
0
230
1
0
LINE
5
C2
100
AcDbEntity
8
1
62
256
6
ByLayer
370
18
48
1
60
0
100
AcDbLine
10
10.748126
20
-7.978795
30
0
11
11.136802
21
-7.962061
31
0
39
0
210
0
220
0
230
1
0
LINE
5
C3
100
AcDbEntity
8
1
62
256
6
ByLayer
370
18
48
1
60
0
100
AcDbLine
10
11.175452
20
-7.956375
30
0
11
12.112617
21
-7.7177
31
0
39
0
210
0
220
0
230
1
0
LINE
5
C4
100
AcDbEntity
8
1
62
256
6
ByLayer
370
18
48
1
60
0
100
AcDbLine
10
12.112617
20
-5.3573
30
0
11
11.175452
21
-5.118625
31
0
39
0
210
0
220
0
230
1
0
LINE
5
C5
100
AcDbEntity
8
1
62
256
6
ByLayer
370
13
48
1
60
0
100
AcDbLine
10
25.754251
20
-6.5375
30
0
11
22.311708
21
-6.5375
31
0
39
0
210
0
220
0
230
1
0
LINE
5
C6
100
AcDbEntity
8
1
62
256
6
ByLayer
370
13
48
1
60
0
100
AcDbLine
10
22.193258
20
-6.340165
30
0
11
24.96446
21
-6.340165
31
0
39
0
210
0
220
0
230
1
0
LINE
5
C7
100
AcDbEntity
8
1
62
256
6
ByLayer
370
13
48
1
60
0
100
AcDbLine
10
24.96446
20
-6.734835
30
0
11
22.193258
21
-6.734835
31
0
39
0
210
0
220
0
230
1
0
LINE
5
C8
100
AcDbEntity
8
1
62
256
6
ByLayer
370
13
48
1
60
0
100
AcDbLine
10
22.18441
20
-6.336744
30
0
11
24.910749
21
-6.336744
31
0
39
0
210
0
220
0
230
1
0
LINE
5
C9
100
AcDbEntity
8
1
62
256
6
ByLayer
370
13
48
1
60
0
100
AcDbLine
10
22.18441
20
-6.738256
30
0
11
24.910749
21
-6.738256
31
0
39
0
210
0
220
0
230
1
0
LINE
5
CA
100
AcDbEntity
8
1
62
256
6
ByLayer
370
13
48
1
60
0
100
AcDbLine
10
22.055192
20
-6.286476
30
0
11
24.197022
21
-6.286476
31
0
39
0
210
0
220
0
230
1
0
LINE
5
CB
100
AcDbEntity
8
1
62
256
6
ByLayer
370
13
48
1
60
0
100
AcDbLine
10
22.055192
20
-6.788524
30
0
11
24.197022
21
-6.788524
31
0
39
0
210
0
220
0
230
1
0
LINE
5
CC
100
AcDbEntity
8
1
62
256
6
ByLayer
370
13
48
1
60
0
100
AcDbLine
10
22.003918
20
-6.905498
30
0
11
23.580128
21
-6.905498
31
0
39
0
210
0
220
0
230
1
0
LINE
5
CD
100
AcDbEntity
8
1
62
256
6
ByLayer
370
13
48
1
60
0
100
AcDbLine
10
22.003918
20
-6.169502
30
0
11
23.580128
21
-6.169502
31
0
39
0
210
0
220
0
230
1
0
LINE
5
CE
100
AcDbEntity
8
1
62
256
6
ByLayer
370
13
48
1
60
0
100
AcDbLine
10
21.725303
20
-7.513484
30
0
11
22.366549
21
-7.513484
31
0
39
0
210
0
220
0
230
1
0
LINE
5
CF
100
AcDbEntity
8
1
62
256
6
ByLayer
370
18
48
1
60
0
100
AcDbLine
10
22.318612
20
-7.6875
30
0
11
24.793482
21
-7.6875
31
0
39
0
210
0
220
0
230
1
0
LINE
5
D0
100
AcDbEntity
8
1
62
256
6
ByLayer
370
18
48
1
60
0
100
AcDbLine
10
24.793482
20
-5.3875
30
0
11
22.318612
21
-5.3875
31
0
39
0
210
0
220
0
230
1
0
LINE
5
D1
100
AcDbEntity
8
1
62
256
6
ByLayer
370
18
48
1
60
0
100
AcDbLine
10
25.039806
20
-5.3573
30
0
11
25.994454
21
-5.118625
31
0
39
0
210
0
220
0
230
1
0
LINE
5
D2
100
AcDbEntity
8
1
62
256
6
ByLayer
370
18
48
1
60
0
100
AcDbLine
10
23.580128
20
-6.169502
30
0
11
22.366549
21
-5.561516
31
0
39
0
210
0
220
0
230
1
0
LINE
5
D3
100
AcDbEntity
8
1
62
256
6
ByLayer
370
18
48
1
60
0
100
AcDbLine
10
24.96446
20
-6.340165
30
0
11
24.910749
21
-6.336744
31
0
39
0
210
0
220
0
230
1
0
LINE
5
D4
100
AcDbEntity
8
1
62
256
6
ByLayer
370
18
48
1
60
0
100
AcDbLine
10
24.910749
20
-6.738256
30
0
11
24.96446
21
-6.734835
31
0
39
0
210
0
220
0
230
1
0
LINE
5
D5
100
AcDbEntity
8
1
62
256
6
ByLayer
370
18
48
1
60
0
100
AcDbLine
10
22.366549
20
-7.513484
30
0
11
23.580128
21
-6.905498
31
0
39
0
210
0
220
0
230
1
0
LINE
5
D6
100
AcDbEntity
8
1
62
256
6
ByLayer
370
18
48
1
60
0
100
AcDbLine
10
25.994454
20
-7.956375
30
0
11
25.039806
21
-7.7177
31
0
39
0
210
0
220
0
230
1
0
LINE
5
D7
100
AcDbEntity
8
1
62
256
6
ByLayer
370
18
48
1
60
0
100
AcDbLine
10
26.429751
20
-7.978795
30
0
11
26.033824
21
-7.962061
31
0
39
0
210
0
220
0
230
1
0
LINE
5
D8
100
AcDbEntity
8
1
62
256
6
ByLayer
370
18
48
1
60
0
100
AcDbLine
10
26.429751
20
-7.978795
30
0
11
26.429751
21
-5.096205
31
0
39
0
210
0
220
0
230
1
0
LINE
5
D9
100
AcDbEntity
8
1
62
256
6
ByLayer
370
18
48
1
60
0
100
AcDbLine
10
26.033824
20
-5.112939
30
0
11
26.429751
21
-5.096205
31
0
39
0
210
0
220
0
230
1
0
LINE
5
DA
100
AcDbEntity
8
1
62
256
6
ByLayer
370
13
48
1
60
0
100
AcDbLine
10
22.366549
20
-5.561516
30
0
11
21.725303
21
-5.561516
31
0
39
0
210
0
220
0
230
1
0
LINE
5
DB
100
AcDbEntity
8
1
62
256
6
ByLayer
370
18
48
1
60
0
100
AcDbLine
10
21.633785
20
-7.6875
30
0
11
22.318612
21
-7.6875
31
0
39
0
210
0
220
0
230
1
0
LINE
5
DC
100
AcDbEntity
8
1
62
256
6
ByLayer
370
18
48
1
60
0
100
AcDbLine
10
22.318612
20
-7.6875
30
0
11
22.318612
21
-7.562938
31
0
39
0
210
0
220
0
230
1
0
LINE
5
DD
100
AcDbEntity
8
1
62
256
6
ByLayer
370
13
48
1
60
0
100
AcDbLine
10
22.318612
20
-7.562938
30
0
11
21.699242
21
-7.562938
31
0
39
0
210
0
220
0
230
1
0
LINE
5
DE
100
AcDbEntity
8
1
62
256
6
ByLayer
370
13
48
1
60
0
100
AcDbLine
10
21.699242
20
-5.512062
30
0
11
22.318612
21
-5.512062
31
0
39
0
210
0
220
0
230
1
0
LINE
5
DF
100
AcDbEntity
8
1
62
256
6
ByLayer
370
18
48
1
60
0
100
AcDbLine
10
22.318612
20
-5.512062
30
0
11
22.318612
21
-5.3875
31
0
39
0
210
0
220
0
230
1
0
LINE
5
E0
100
AcDbEntity
8
1
62
256
6
ByLayer
370
18
48
1
60
0
100
AcDbLine
10
22.318612
20
-5.3875
30
0
11
21.633785
21
-5.3875
31
0
39
0
210
0
220
0
230
1
0
LINE
5
E1
100
AcDbEntity
8
SK1
62
256
6
ByLayer
370
18
48
1
60
0
100
AcDbLine
10
-0.662742
20
7.9625
30
0
11
-38.4
21
7.9625
31
0
39
0
210
0
220
0
230
1
0
LINE
5
E3
100
AcDbEntity
8
SK1
62
256
6
ByLayer
370
18
48
1
60
0
100
AcDbLine
10
-1.6
20
-7.7125
30
0
11
-0.662742
21
-7.7125
31
0
39
0
210
0
220
0
230
1
0
LINE
5
E4
100
AcDbEntity
8
SK1
62
256
6
ByLayer
370
18
48
1
60
0
100
AcDbLine
10
-41.4
20
4.9625
30
0
11
-38.4
21
7.9625
31
0
39
0
210
0
220
0
230
1
0
LINE
5
E5
100
AcDbEntity
8
SK1
62
256
6
ByLayer
370
18
48
1
60
0
100
AcDbLine
10
-41.4
20
-4.9625
30
0
11
-41.4
21
4.9625
31
0
39
0
210
0
220
0
230
1
0
LINE
5
E6
100
AcDbEntity
8
SK1
62
256
6
ByLayer
370
18
48
1
60
0
100
AcDbLine
10
-41.4
20
-4.9625
30
0
11
-38.4
21
-7.9625
31
0
39
0
210
0
220
0
230
1
0
LINE
5
E7
100
AcDbEntity
8
SK1
62
256
6
ByLayer
370
18
48
1
60
0
100
AcDbLine
10
-2.458778
20
-7.9625
30
0
11
-38.4
21
-7.9625
31
0
39
0
210
0
220
0
230
1
0
LINE
5
E8
100
AcDbEntity
8
SK1
62
256
6
ByLayer
370
18
48
1
60
0
100
AcDbLine
10
-0.662742
20
-7.7125
30
0
11
0
21
-7.7125
31
0
39
0
210
0
220
0
230
1
0
LINE
5
E9
100
AcDbEntity
8
SK1
62
256
6
ByLayer
370
18
48
1
60
0
100
AcDbLine
10
0
20
-7.7125
30
0
11
0
21
7.9625
31
0
39
0
210
0
220
0
230
1
0
LINE
5
EA
100
AcDbEntity
8
SK1
62
256
6
ByLayer
370
18
48
1
60
0
100
AcDbLine
10
0
20
7.9625
30
0
11
-0.662742
21
7.9625
31
0
39
0
210
0
220
0
230
1
0
LINE
5
EB
100
AcDbEntity
8
SK1
62
256
6
ByLayer
370
13
48
1
60
0
100
AcDbLine
10
-0.662742
20
-7.7125
30
0
11
-0.662742
21
7.9625
31
0
39
0
210
0
220
0
230
1
0
LINE
5
EC
100
AcDbEntity
8
1
62
256
6
ByLayer
370
18
48
1
60
0
100
AcDbLine
10
8.773329
20
0.911856
30
0
11
8.758092
21
0.922236
31
0
39
0
210
0
220
0
230
1
0
LINE
5
ED
100
AcDbEntity
8
1
62
256
6
ByLayer
370
18
48
1
60
0
100
AcDbLine
10
8.758092
20
1.677764
30
0
11
8.773329
21
1.688144
31
0
39
0
210
0
220
0
230
1
0
LINE
5
EE
100
AcDbEntity
8
1
62
256
6
ByLayer
370
13
48
1
60
0
100
AcDbLine
10
9.482261
20
1.677764
30
0
11
8.758092
21
1.677764
31
0
39
0
210
0
220
0
230
1
0
LINE
5
EF
100
AcDbEntity
8
1
62
256
6
ByLayer
370
13
48
1
60
0
100
AcDbLine
10
9.482261
20
0.922236
30
0
11
8.758092
21
0.922236
31
0
39
0
210
0
220
0
230
1
0
LINE
5
F0
100
AcDbEntity
8
1
62
256
6
ByLayer
370
18
48
1
60
0
100
AcDbLine
10
9.50253
20
0.911856
30
0
11
8.773329
21
0.911856
31
0
39
0
210
0
220
0
230
1
0
LINE
5
F1
100
AcDbEntity
8
1
62
256
6
ByLayer
370
18
48
1
60
0
100
AcDbLine
10
9.50253
20
1.688144
30
0
11
8.773329
21
1.688144
31
0
39
0
210
0
220
0
230
1
0
LINE
5
F2
100
AcDbEntity
8
1
62
256
6
ByLayer
370
13
48
1
60
0
100
AcDbLine
10
8.554449
20
-0.125834
30
0
11
7.864814
21
-0.125834
31
0
39
0
210
0
220
0
230
1
0
LINE
5
F3
100
AcDbEntity
8
1
62
256
6
ByLayer
370
13
48
1
60
0
100
AcDbLine
10
8.554449
20
2.725834
30
0
11
7.864814
21
2.725834
31
0
39
0
210
0
220
0
230
1
0
LINE
5
F4
100
AcDbEntity
8
1
62
256
6
ByLayer
370
18
48
1
60
0
100
AcDbLine
10
8.55909
20
2.745834
30
0
11
7.870235
21
2.745834
31
0
39
0
210
0
220
0
230
1
0
LINE
5
F5
100
AcDbEntity
8
1
62
256
6
ByLayer
370
18
48
1
60
0
100
AcDbLine
10
8.55909
20
-0.145834
30
0
11
7.870235
21
-0.145834
31
0
39
0
210
0
220
0
230
1
0
LINE
5
F6
100
AcDbEntity
8
1
62
256
6
ByLayer
370
13
48
1
60
0
100
AcDbLine
10
7.281817
20
0.25193
30
0
11
7.123858
21
0.25193
31
0
39
0
210
0
220
0
230
1
0
LINE
5
F7
100
AcDbEntity
8
1
62
256
6
ByLayer
370
13
48
1
60
0
100
AcDbLine
10
7.281817
20
2.34807
30
0
11
7.124865
21
2.34807
31
0
39
0
210
0
220
0
230
1
0
LINE
5
F8
100
AcDbEntity
8
1
62
256
6
ByLayer
370
18
48
1
60
0
100
AcDbLine
10
7.271221
20
0.24231
30
0
11
7.136205
21
0.24231
31
0
39
0
210
0
220
0
230
1
0
LINE
5
F9
100
AcDbEntity
8
1
62
256
6
ByLayer
370
18
48
1
60
0
100
AcDbLine
10
7.271221
20
2.35769
30
0
11
7.136877
21
2.35769
31
0
39
0
210
0
220
0
230
1
0
MTEXT
5
15A
100
AcDbEntity
8
SK6
62
256
6
ByLayer
370
18
48
1
60
0
100
AcDbMText
10
-38.717926
20
-54.262079
30
0
210
0
220
0
230
1
1
\W0.7498;C2R-QS16-LG17DS
40
3.5
41
0
44
1.084337
50
0
71
7
72
5
7
iso_b_vert
0
DIMENSION
5
15F
100
AcDbEntity
8
2
62
256
6
ByLayer
370
18
48
1
60
0
100
AcDbDimension
2
_U0
10
61.693148
20
7.9625
30
0
11
61.693148
21
-0.0375
31
0
70
32
71
1
72
1
41
1
210
0
220
0
230
1
3
Standard
100
AcDbAlignedDimension
13
28.6
23
-8.0375
33
0
14
-41.4
24
7.9625
34
0
50
90
100
AcDbRotatedDimension
1001
ACAD
1000
DSTYLE
1002
{
1070
   371
1070
    13
1070
   372
1070
    13
1070
   170
1070
     0
1070
   144
1040
1.0
1070
   277
1070
     2
1070
   284
1070
     8
1070
   278
1070
    46
1070
   146
1040
1.0
1070
   345
1005
16
1070
   347
1005
16
1070
   346
1005
16
1070
   344
1005
0
1070
   343
1005
0
1070
   172
1070
     1
1070
    76
1070
     0
1070
    75
1070
     0
1070
   282
1070
     0
1070
   281
1070
     0
1070
    71
1070
     0
1070
    74
1070
     0
1070
   279
1070
     0
1070
   173
1070
     1
1070
   340
1005
15B
1070
   271
1070
     2
1070
   272
1070
     2
1070
    77
1070
     1
1070
    73
1070
     0
1070
   171
1070
     3
1070
   274
1070
     4
1070
   177
1070
     2
1070
   176
1070
     2
1070
   178
1070
     2
1070
    78
1070
     8
1070
    48
1040
-0.1
1070
    41
1040
3.5
1070
   147
1040
1.75
1070
    42
1040
1.5875
1070
    44
1040
2.0
1070
   140
1040
3.5
1002
}
1001
ACAD_DSTYLE_DIM_LINETYPE
1070
   380
1005
16
1001
ACAD_DSTYLE_DIM_EXT1_LINETYPE
1070
   381
1005
16
1001
ACAD_DSTYLE_DIM_EXT2_LINETYPE
1070
   382
1005
16
0
DIMENSION
5
17A
100
AcDbEntity
8
2
62
256
6
ByLayer
370
18
48
1
60
0
100
AcDbDimension
2
_U1
10
49.693148
20
-8.0375
30
0
11
49.693148
21
-6.5375
31
0
70
32
71
1
72
1
41
1
210
0
220
0
230
1
3
Standard
100
AcDbAlignedDimension
13
28.6
23
-5.0375
33
0
14
28.6
24
-8.0375
34
0
50
90
100
AcDbRotatedDimension
1001
ACAD
1000
DSTYLE
1002
{
1070
   371
1070
    13
1070
   372
1070
    13
1070
   170
1070
     0
1070
   144
1040
1.0
1070
   277
1070
     2
1070
   284
1070
     8
1070
   278
1070
    46
1070
   146
1040
1.0
1070
   345
1005
16
1070
   347
1005
16
1070
   346
1005
16
1070
   344
1005
0
1070
   343
1005
0
1070
   172
1070
     1
1070
    76
1070
     0
1070
    75
1070
     0
1070
   282
1070
     0
1070
   281
1070
     0
1070
    71
1070
     0
1070
    74
1070
     0
1070
   279
1070
     0
1070
   173
1070
     1
1070
   340
1005
15B
1070
   271
1070
     2
1070
   272
1070
     2
1070
    77
1070
     1
1070
    73
1070
     0
1070
   171
1070
     3
1070
   274
1070
     4
1070
   177
1070
     2
1070
   176
1070
     2
1070
   178
1070
     2
1070
    78
1070
     8
1070
    48
1040
-0.1
1070
    41
1040
3.5
1070
   147
1040
1.75
1070
    42
1040
1.5875
1070
    44
1040
2.0
1070
   140
1040
3.5
1002
}
1001
ACAD_DSTYLE_DIM_LINETYPE
1070
   380
1005
16
1001
ACAD_DSTYLE_DIM_EXT1_LINETYPE
1070
   381
1005
16
1001
ACAD_DSTYLE_DIM_EXT2_LINETYPE
1070
   382
1005
16
0
DIMENSION
5
193
100
AcDbEntity
8
SK2
62
256
6
ByLayer
370
18
48
1
60
0
100
AcDbDimension
2
_U2
10
-53
20
-8.0375
30
0
11
-53
21
-0.0375
31
0
70
32
71
1
72
1
41
1
210
0
220
0
230
1
3
Standard
100
AcDbAlignedDimension
13
-41.4
23
7.9625
33
0
14
-41.4
24
-8.0375
34
0
50
90
100
AcDbRotatedDimension
1001
ACAD
1000
DSTYLE
1002
{
1070
   371
1070
    13
1070
   372
1070
    13
1070
   170
1070
     0
1070
   144
1040
1.0
1070
   277
1070
     2
1070
   284
1070
     8
1070
   278
1070
    46
1070
   146
1040
1.0
1070
   345
1005
16
1070
   347
1005
16
1070
   346
1005
16
1070
   344
1005
0
1070
   343
1005
0
1070
   172
1070
     1
1070
    76
1070
     0
1070
    75
1070
     0
1070
   282
1070
     0
1070
   281
1070
     0
1070
    71
1070
     0
1070
    74
1070
     0
1070
   279
1070
     0
1070
   173
1070
     1
1070
   340
1005
15B
1070
   271
1070
     2
1070
   272
1070
     2
1070
    77
1070
     1
1070
    73
1070
     0
1070
   171
1070
     3
1070
   274
1070
     4
1070
   177
1070
     2
1070
   176
1070
     2
1070
   178
1070
     2
1070
    78
1070
     8
1070
    48
1040
-0.1
1070
    41
1040
3.5
1070
   147
1040
1.75
1070
    42
1040
1.5875
1070
    44
1040
2.0
1070
   140
1040
3.5
1002
}
1001
ACAD_DSTYLE_DIM_LINETYPE
1070
   380
1005
16
1001
ACAD_DSTYLE_DIM_EXT1_LINETYPE
1070
   381
1005
16
1001
ACAD_DSTYLE_DIM_EXT2_LINETYPE
1070
   382
1005
16
0
DIMENSION
5
1AD
100
AcDbEntity
8
2
62
256
6
ByLayer
370
18
48
1
60
0
100
AcDbDimension
2
_U3
10
28.6
20
14.2125
30
0
11
20.1
21
14.2125
31
0
70
32
71
1
72
1
41
1
210
0
220
0
230
1
3
Standard
100
AcDbAlignedDimension
13
11.6
23
-5.3625
33
0
14
28.6
24
-8.0375
34
0
50
0
100
AcDbRotatedDimension
1001
ACAD
1000
DSTYLE
1002
{
1070
   371
1070
    13
1070
   372
1070
    13
1070
   170
1070
     0
1070
   144
1040
1.0
1070
   277
1070
     2
1070
   284
1070
     8
1070
   278
1070
    46
1070
   146
1040
1.0
1070
   345
1005
16
1070
   347
1005
16
1070
   346
1005
16
1070
   344
1005
0
1070
   343
1005
0
1070
   172
1070
     1
1070
    76
1070
     0
1070
    75
1070
     0
1070
   282
1070
     0
1070
   281
1070
     0
1070
    71
1070
     0
1070
    74
1070
     0
1070
   279
1070
     0
1070
   173
1070
     1
1070
   340
1005
15B
1070
   271
1070
     1
1070
   272
1070
     2
1070
    77
1070
     1
1070
    73
1070
     1
1070
   171
1070
     3
1070
   274
1070
     4
1070
   177
1070
     2
1070
   176
1070
     2
1070
   178
1070
     2
1070
    78
1070
     8
1070
    48
1040
-0.1
1070
    41
1040
3.5
1070
   147
1040
1.75
1070
    42
1040
1.5875
1070
    44
1040
2.0
1070
   140
1040
3.5
1002
}
1001
ACAD_DSTYLE_DIM_LINETYPE
1070
   380
1005
16
1001
ACAD_DSTYLE_DIM_EXT1_LINETYPE
1070
   381
1005
16
1001
ACAD_DSTYLE_DIM_EXT2_LINETYPE
1070
   382
1005
16
0
DIMENSION
5
1C6
100
AcDbEntity
8
SK2
62
256
6
ByLayer
370
18
48
1
60
0
100
AcDbDimension
2
_U4
10
28.6
20
30.2125
30
0
11
-6.4
21
30.2125
31
0
70
32
71
1
72
1
41
1
210
0
220
0
230
1
3
Standard
100
AcDbAlignedDimension
13
-41.4
23
7.9625
33
0
14
28.6
24
-8.0375
34
0
50
0
100
AcDbRotatedDimension
1001
ACAD
1000
DSTYLE
1002
{
1070
   371
1070
    13
1070
   372
1070
    13
1070
   170
1070
     0
1070
   144
1040
1.0
1070
   277
1070
     2
1070
   284
1070
     8
1070
   278
1070
    46
1070
   146
1040
1.0
1070
   345
1005
16
1070
   347
1005
16
1070
   346
1005
16
1070
   344
1005
0
1070
   343
1005
0
1070
   172
1070
     1
1070
    76
1070
     0
1070
    75
1070
     0
1070
   282
1070
     0
1070
   281
1070
     0
1070
    71
1070
     0
1070
    74
1070
     0
1070
   279
1070
     0
1070
   173
1070
     1
1070
   340
1005
15B
1070
   271
1070
     1
1070
   272
1070
     2
1070
    77
1070
     1
1070
    73
1070
     1
1070
   171
1070
     3
1070
   274
1070
     4
1070
   177
1070
     2
1070
   176
1070
     2
1070
   178
1070
     2
1070
    78
1070
     8
1070
    48
1040
-0.1
1070
    41
1040
3.5
1070
   147
1040
1.75
1070
    42
1040
1.5875
1070
    44
1040
2.0
1070
   140
1040
3.5
1002
}
1001
ACAD_DSTYLE_DIM_LINETYPE
1070
   380
1005
16
1001
ACAD_DSTYLE_DIM_EXT1_LINETYPE
1070
   381
1005
16
1001
ACAD_DSTYLE_DIM_EXT2_LINETYPE
1070
   382
1005
16
0
ENDSEC
0
SECTION
2
OBJECTS
0
DICTIONARY
5
24d
330
0
100
AcDbDictionary
280
0
281
1
3
ACAD_GROUP
350
24e
3
ACAD_MLINESTYLE
350
24f
0
DICTIONARY
5
24e
330
0
100
AcDbDictionary
280
0
281
1
0
DICTIONARY
5
24f
330
0
100
AcDbDictionary
280
0
281
1
3
Standard
350
18
0
MLINESTYLE
5
18
330
24f
100
AcDbMlineStyle
2
Standard
70
0
3

62
256
51
90
52
90
71
2
49
-0.5
62
256
6
ByLayer
49
0.5
62
256
6
ByLayer
0
RASTERVARIABLES
5
23c
330

100
AcDbRasterVariables
90
0
70
1
71
1
72
1
0
ENDSEC
0
EOF
