0
SECTION
2
HEADER
9
$ACADVER
1
AC1015
9
$DWGCODEPAGE
3
ANSI_1252
9
$HANDSEED
5
24f
9
$ANGBASE
50
0
9
$ANGDIR
70
0
9
$ATTMODE
70
1
9
$AUNITS
70
0
9
$AUPREC
70
0
9
$CECOLOR
62
256
9
$CELTSCALE
40
1
9
$CELTYPE
6
ByLayer
9
$CELWEIGHT
370
18
9
$CLAYER
8
0
9
$CMLJUST
70
0
9
$CMLSCALE
40
1
9
$CMLSTYLE
2
Standard
9
$DIMSTYLE
2
Standard
9
$TEXTSIZE
40
0.2
9
$TEXTSTYLE
7
Standard
9
$LUNITS
70
2
9
$LUPREC
70
4
9
$EXTNAMES
290
1
9
$INSUNITS
70
4
9
$LTSCALE
40
1
9
$LWDISPLAY
290
1
9
$PDMODE
70
0
9
$PDSIZE
40
0
9
$PLINEGEN
70
0
0
ENDSEC
0
SECTION
2
CLASSES
0
CLASS
1
RASTERVARIABLES
2
AcDbRasterVariables
3
ISM
90
0
280
0
281
0
0
ENDSEC
0
SECTION
2
TABLES
0
TABLE
2
VPORT
5
245
100
AcDbSymbolTable
0
VPORT
5
1
100
AcDbSymbolTableRecord
100
AcDbViewportTableRecord
2
*Active
70
0
10
0
20
0
11
1
21
1
12
-1
22
1
13
0
23
0
14
0.5
24
0.5
15
10
25
10
16
0
26
0
36
1
17
0
27
0
37
0
0
ENDTAB
0
TABLE
2
LTYPE
5
246
100
AcDbSymbolTable
0
LTYPE
5
14
100
AcDbSymbolTableRecord
100
AcDbLinetypeTableRecord
70
0
2
ByBlock
3

72
65
73
0
40
0
0
LTYPE
5
15
100
AcDbSymbolTableRecord
100
AcDbLinetypeTableRecord
70
0
2
ByLayer
3

72
65
73
0
40
0
0
LTYPE
5
16
100
AcDbSymbolTableRecord
100
AcDbLinetypeTableRecord
70
0
2
Continuous
3
Solid line
72
65
73
0
40
0
0
LTYPE
5
6E
100
AcDbSymbolTableRecord
100
AcDbLinetypeTableRecord
70
0
2
CENTER
3
____ _ ____ _ ____ _ ____
72
65
73
4
40
47.5
49
22
74
0
49
-8.5
74
0
49
8.5
74
0
49
-8.5
74
0
0
LTYPE
5
6F
100
AcDbSymbolTableRecord
100
AcDbLinetypeTableRecord
70
0
2
DASHED
3
__ __ __ __ __ __ __ __ __
72
65
73
2
40
25.72
49
12.86
74
0
49
-12.86
74
0
0
ENDTAB
0
TABLE
2
LAYER
5
247
100
AcDbSymbolTable
0
LAYER
5
10
100
AcDbSymbolTableRecord
100
AcDbLayerTableRecord
2
0
70
0
62
7
6
Continuous
290
1
370
-3
390
0
0
LAYER
5
71
100
AcDbSymbolTableRecord
100
AcDbLayerTableRecord
2
81
70
0
62
-3
6
Continuous
290
1
370
-3
390
0
0
LAYER
5
73
100
AcDbSymbolTableRecord
100
AcDbLayerTableRecord
2
80
70
0
62
-6
6
Continuous
290
1
370
-3
390
0
0
LAYER
5
75
100
AcDbSymbolTableRecord
100
AcDbLayerTableRecord
2
1
70
0
62
4
6
Continuous
290
1
370
-3
390
0
0
LAYER
5
157
100
AcDbSymbolTableRecord
100
AcDbLayerTableRecord
2
Defpoints
70
0
62
7
6
Continuous
290
0
370
-3
390
0
0
LAYER
5
165
100
AcDbSymbolTableRecord
100
AcDbLayerTableRecord
2
2
70
0
62
7
6
Continuous
290
1
370
-3
390
0
0
LAYER
5
232
100
AcDbSymbolTableRecord
100
AcDbLayerTableRecord
2
SK1
70
0
62
4
6
Continuous
290
1
370
-3
390
0
0
LAYER
5
233
100
AcDbSymbolTableRecord
100
AcDbLayerTableRecord
2
SK6
70
0
62
5
6
Continuous
290
1
370
-3
390
0
0
LAYER
5
234
100
AcDbSymbolTableRecord
100
AcDbLayerTableRecord
2
SK2
70
0
62
7
6
Continuous
290
1
370
-3
390
0
0
ENDTAB
0
TABLE
2
STYLE
5
248
100
AcDbSymbolTable
0
STYLE
5
11
100
AcDbSymbolTableRecord
100
AcDbTextStyleTableRecord
2
Standard
3
txt
70
0
71
0
40
0
41
1
42
0
50
0
0
STYLE
5
150
100
AcDbSymbolTableRecord
100
AcDbTextStyleTableRecord
2
iso_b_vert
3
simplex.shx
70
0
71
0
40
0
41
1
42
0
50
0
0
STYLE
5
151
100
AcDbSymbolTableRecord
100
AcDbTextStyleTableRecord
2
DWGDirectTextStyle
3
simplex
70
0
71
0
40
0
41
1
42
0
50
0
0
ENDTAB
0
TABLE
2
DIMSTYLE
5
249
100
AcDbSymbolTable
100
AcDbDimStyleTable
0
DIMSTYLE
105
27
100
AcDbSymbolTableRecord
100
AcDbDimStyleTableRecord
2
Standard
70
0
3
<>
41
0.18
42
0.0625
44
0.18
140
0.18
147
0.09
73
0
74
0
77
1
271
2
275
0
278
52
280
0
340
11
0
ENDTAB
0
TABLE
2
VIEW
5
24a
100
AcDbSymbolTable
0
ENDTAB
0
TABLE
2
UCS
5
24b
100
AcDbSymbolTable
0
ENDTAB
0
TABLE
2
APPID
5
24c
100
AcDbSymbolTable
0
APPID
5
12
100
AcDbSymbolTableRecord
100
AcDbRegAppTableRecord
2
ACAD
70
0
0
APPID
5
153
100
AcDbSymbolTableRecord
100
AcDbRegAppTableRecord
2
ACAD_DSTYLE_DIMBREAK
70
0
0
APPID
5
1F1
100
AcDbSymbolTableRecord
100
AcDbRegAppTableRecord
2
ACAD_DSTYLE_DIM_LINETYPE
70
0
0
APPID
5
1F2
100
AcDbSymbolTableRecord
100
AcDbRegAppTableRecord
2
ACAD_DSTYLE_DIM_EXT1_LINETYPE
70
0
0
APPID
5
1F3
100
AcDbSymbolTableRecord
100
AcDbRegAppTableRecord
2
ACAD_DSTYLE_DIM_EXT2_LINETYPE
70
0
0
APPID
5
22E
100
AcDbSymbolTableRecord
100
AcDbRegAppTableRecord
2
ACAD_MLEADERVER
70
0
0
ENDTAB
0
TABLE
2
BLOCK_RECORD
5
24d
100
AcDbSymbolTable
0
BLOCK_RECORD
5
1F
100
AcDbSymbolTableRecord
100
AcDbBlockTableRecord
2
*Model_Space
340
0
70
0
0
BLOCK_RECORD
5
1B
100
AcDbSymbolTableRecord
100
AcDbBlockTableRecord
2
*Paper_Space
340
0
70
0
0
BLOCK_RECORD
5
23
100
AcDbSymbolTableRecord
100
AcDbBlockTableRecord
2
*Paper_Space0
340
0
70
0
0
BLOCK_RECORD
5
158
100
AcDbSymbolTableRecord
100
AcDbBlockTableRecord
2
*D1
340
0
70
0
0
BLOCK_RECORD
5
166
100
AcDbSymbolTableRecord
100
AcDbBlockTableRecord
2
_U0
340
0
70
0
0
BLOCK_RECORD
5
172
100
AcDbSymbolTableRecord
100
AcDbBlockTableRecord
2
*D3
340
0
70
0
0
BLOCK_RECORD
5
17F
100
AcDbSymbolTableRecord
100
AcDbBlockTableRecord
2
_U1
340
0
70
0
0
BLOCK_RECORD
5
18B
100
AcDbSymbolTableRecord
100
AcDbBlockTableRecord
2
*D5
340
0
70
0
0
BLOCK_RECORD
5
199
100
AcDbSymbolTableRecord
100
AcDbBlockTableRecord
2
_U2
340
0
70
0
0
BLOCK_RECORD
5
1A5
100
AcDbSymbolTableRecord
100
AcDbBlockTableRecord
2
*D7
340
0
70
0
0
BLOCK_RECORD
5
1B2
100
AcDbSymbolTableRecord
100
AcDbBlockTableRecord
2
_U3
340
0
70
0
0
BLOCK_RECORD
5
1BE
100
AcDbSymbolTableRecord
100
AcDbBlockTableRecord
2
*D9
340
0
70
0
0
BLOCK_RECORD
5
1CA
100
AcDbSymbolTableRecord
100
AcDbBlockTableRecord
2
_U4
340
0
70
0
0
ENDTAB
0
ENDSEC
0
SECTION
2
BLOCKS
0
BLOCK
5
20
100
AcDbEntity
8
0
100
AcDbBlockBegin
2
*Model_Space
70
0
10
0
20
0
30
0
3
*Model_Space
0
ENDBLK
5
21
100
AcDbEntity
8
0
100
AcDbBlockEnd
0
BLOCK
5
1C
100
AcDbEntity
8
0
100
AcDbBlockBegin
2
*Paper_Space
70
0
10
0
20
0
30
0
3
*Paper_Space
0
ENDBLK
5
1D
100
AcDbEntity
8
0
100
AcDbBlockEnd
0
BLOCK
5
24
100
AcDbEntity
8
0
100
AcDbBlockBegin
2
*Paper_Space0
70
0
10
0
20
0
30
0
3
*Paper_Space0
0
ENDBLK
5
25
100
AcDbEntity
8
0
100
AcDbBlockEnd
0
BLOCK
5
159
100
AcDbEntity
8
0
100
AcDbBlockBegin
2
*D1
70
1
10
0
20
0
30
0
3
*D1
0
LINE
5
15B
100
AcDbEntity
8
0
62
256
6
ByLayer
370
-2
48
1
60
0
100
AcDbLine
10
30.1875
20
-8.0375
30
0
11
63.693148
21
-8.0375
31
0
39
0
210
0
220
0
230
1
0
LINE
5
15C
100
AcDbEntity
8
0
62
256
6
ByLayer
370
-2
48
1
60
0
100
AcDbLine
10
-39.8125
20
7.9625
30
0
11
63.693148
21
7.9625
31
0
39
0
210
0
220
0
230
1
0
LINE
5
15D
100
AcDbEntity
8
0
62
256
6
ByLayer
370
-2
48
1
60
0
100
AcDbLine
10
61.693148
20
-11.5375
30
0
11
61.693148
21
-15.0375
31
0
39
0
210
0
220
0
230
1
0
LINE
5
15E
100
AcDbEntity
8
0
62
256
6
ByLayer
370
-2
48
1
60
0
100
AcDbLine
10
61.693148
20
11.4625
30
0
11
61.693148
21
14.9625
31
0
39
0
210
0
220
0
230
1
0
SOLID
5
15F
100
AcDbEntity
8
0
62
256
6
ByLayer
370
-1
48
1
60
0
100
AcDbTrace
10
62.276481
20
-11.5375
30
0
11
61.109814
21
-11.5375
31
0
12
61.693148
22
-8.0375
32
0
13
61.693148
23
-8.0375
33
0
39
0
210
0
220
0
230
1
0
SOLID
5
160
100
AcDbEntity
8
0
62
256
6
ByLayer
370
-1
48
1
60
0
100
AcDbTrace
10
61.109814
20
11.4625
30
0
11
62.276481
21
11.4625
31
0
12
61.693148
22
7.9625
32
0
13
61.693148
23
7.9625
33
0
39
0
210
0
220
0
230
1
0
MTEXT
5
161
100
AcDbEntity
8
0
62
256
6
ByLayer
370
18
48
1
60
0
100
AcDbMText
10
54.693148
20
-0.0375
30
0
210
0
220
0
230
1
1
\A1;16
40
3.5
41
0
44
1
50
90
71
5
72
5
7
iso_b_vert
0
POINT
5
162
100
AcDbEntity
8
Defpoints
62
0
6
ByLayer
370
-1
48
1
60
0
100
AcDbPoint
10
28.6
20
-8.0375
30
0
39
0
210
0
220
0
230
1
50
360
0
POINT
5
163
100
AcDbEntity
8
Defpoints
62
0
6
ByLayer
370
-1
48
1
60
0
100
AcDbPoint
10
-41.4
20
7.9625
30
0
39
0
210
0
220
0
230
1
50
360
0
POINT
5
164
100
AcDbEntity
8
Defpoints
62
0
6
ByLayer
370
-1
48
1
60
0
100
AcDbPoint
10
61.693148
20
7.9625
30
0
39
0
210
0
220
0
230
1
50
360
0
ENDBLK
5
15A
100
AcDbEntity
8
0
100
AcDbBlockEnd
0
BLOCK
5
16D
100
AcDbEntity
8
0
100
AcDbBlockBegin
2
_U0
70
0
10
0
20
0
30
0
3
_U0
0
MTEXT
5
167
100
AcDbEntity
8
2
62
256
6
ByLayer
370
18
48
1
60
0
100
AcDbMText
10
61.003514
20
-1.533033
30
0
210
0
220
0
230
1
1
\W0.5321;16
40
3.5
41
0
44
1.084337
50
90
71
7
72
5
7
iso_b_vert
0
LINE
5
168
100
AcDbEntity
8
2
62
256
6
ByLayer
370
13
48
1
60
0
100
AcDbLine
10
30.1875
20
-8.0375
30
0
11
63.693148
21
-8.0375
31
0
39
0
210
0
220
0
230
1
0
LINE
5
169
100
AcDbEntity
8
2
62
256
6
ByLayer
370
13
48
1
60
0
100
AcDbLine
10
-39.8125
20
7.9625
30
0
11
63.693148
21
7.9625
31
0
39
0
210
0
220
0
230
1
0
LINE
5
16A
100
AcDbEntity
8
2
62
256
6
ByLayer
370
13
48
1
60
0
100
AcDbLine
10
61.693148
20
-8.0375
30
0
11
61.693148
21
7.9625
31
0
39
0
210
0
220
0
230
1
0
SOLID
5
16B
100
AcDbEntity
8
2
62
256
6
ByLayer
370
18
48
1
60
0
100
AcDbTrace
10
61.693148
20
-8.0375
30
0
11
61.232364
21
-4.537502
31
0
12
62.153931
22
-4.537498
32
0
13
62.153931
23
-4.537498
33
0
39
0
210
0
220
0
230
1
0
SOLID
5
16C
100
AcDbEntity
8
2
62
256
6
ByLayer
370
18
48
1
60
0
100
AcDbTrace
10
61.693148
20
7.9625
30
0
11
62.153931
21
4.462502
31
0
12
61.232364
22
4.462498
32
0
13
61.232364
23
4.462498
33
0
39
0
210
0
220
0
230
1
0
ENDBLK
5
16E
100
AcDbEntity
8
0
100
AcDbBlockEnd
0
BLOCK
5
173
100
AcDbEntity
8
0
100
AcDbBlockBegin
2
*D3
70
1
10
0
20
0
30
0
3
*D3
0
LINE
5
175
100
AcDbEntity
8
0
62
256
6
ByLayer
370
-2
48
1
60
0
100
AcDbLine
10
30.1875
20
-5.5375
30
0
11
51.693148
21
-5.5375
31
0
39
0
210
0
220
0
230
1
0
LINE
5
176
100
AcDbEntity
8
0
62
256
6
ByLayer
370
-2
48
1
60
0
100
AcDbLine
10
30.1875
20
-8.0375
30
0
11
51.693148
21
-8.0375
31
0
39
0
210
0
220
0
230
1
0
LINE
5
177
100
AcDbEntity
8
0
62
256
6
ByLayer
370
-2
48
1
60
0
100
AcDbLine
10
49.693148
20
-2.0375
30
0
11
49.693148
21
1.4625
31
0
39
0
210
0
220
0
230
1
0
LINE
5
178
100
AcDbEntity
8
0
62
256
6
ByLayer
370
-2
48
1
60
0
100
AcDbLine
10
49.693148
20
-11.5375
30
0
11
49.693148
21
-15.0375
31
0
39
0
210
0
220
0
230
1
0
SOLID
5
179
100
AcDbEntity
8
0
62
256
6
ByLayer
370
-1
48
1
60
0
100
AcDbTrace
10
49.109814
20
-2.0375
30
0
11
50.276481
21
-2.0375
31
0
12
49.693148
22
-5.5375
32
0
13
49.693148
23
-5.5375
33
0
39
0
210
0
220
0
230
1
0
SOLID
5
17A
100
AcDbEntity
8
0
62
256
6
ByLayer
370
-1
48
1
60
0
100
AcDbTrace
10
50.276481
20
-11.5375
30
0
11
49.109814
21
-11.5375
31
0
12
49.693148
22
-8.0375
32
0
13
49.693148
23
-8.0375
33
0
39
0
210
0
220
0
230
1
0
MTEXT
5
17B
100
AcDbEntity
8
0
62
256
6
ByLayer
370
18
48
1
60
0
100
AcDbMText
10
42.693148
20
-6.7875
30
0
210
0
220
0
230
1
1
\A1;2.5
40
3.5
41
0
44
1
50
90
71
5
72
5
7
iso_b_vert
0
POINT
5
17C
100
AcDbEntity
8
Defpoints
62
0
6
ByLayer
370
-1
48
1
60
0
100
AcDbPoint
10
28.6
20
-5.5375
30
0
39
0
210
0
220
0
230
1
50
360
0
POINT
5
17D
100
AcDbEntity
8
Defpoints
62
0
6
ByLayer
370
-1
48
1
60
0
100
AcDbPoint
10
28.6
20
-8.0375
30
0
39
0
210
0
220
0
230
1
50
360
0
POINT
5
17E
100
AcDbEntity
8
Defpoints
62
0
6
ByLayer
370
-1
48
1
60
0
100
AcDbPoint
10
49.693148
20
-8.0375
30
0
39
0
210
0
220
0
230
1
50
360
0
ENDBLK
5
174
100
AcDbEntity
8
0
100
AcDbBlockEnd
0
BLOCK
5
186
100
AcDbEntity
8
0
100
AcDbBlockBegin
2
_U1
70
0
10
0
20
0
30
0
3
_U1
0
MTEXT
5
180
100
AcDbEntity
8
2
62
256
6
ByLayer
370
18
48
1
60
0
100
AcDbMText
10
49.003514
20
-9.429466
30
0
210
0
220
0
230
1
1
\W0.7121;2.5
40
3.5
41
0
44
1.084337
50
90
71
7
72
5
7
iso_b_vert
0
LINE
5
181
100
AcDbEntity
8
2
62
256
6
ByLayer
370
13
48
1
60
0
100
AcDbLine
10
30.1875
20
-5.5375
30
0
11
51.693148
21
-5.5375
31
0
39
0
210
0
220
0
230
1
0
LINE
5
182
100
AcDbEntity
8
2
62
256
6
ByLayer
370
13
48
1
60
0
100
AcDbLine
10
30.1875
20
-8.0375
30
0
11
51.693148
21
-8.0375
31
0
39
0
210
0
220
0
230
1
0
LINE
5
183
100
AcDbEntity
8
2
62
256
6
ByLayer
370
13
48
1
60
0
100
AcDbLine
10
49.693148
20
3.2125
30
0
11
49.693148
21
-16.7875
31
0
39
0
210
0
220
0
230
1
0
SOLID
5
184
100
AcDbEntity
8
2
62
256
6
ByLayer
370
18
48
1
60
0
100
AcDbTrace
10
49.693148
20
-5.5375
30
0
11
49.232364
21
-2.037502
31
0
12
50.153931
22
-2.037498
32
0
13
50.153931
23
-2.037498
33
0
39
0
210
0
220
0
230
1
0
SOLID
5
185
100
AcDbEntity
8
2
62
256
6
ByLayer
370
18
48
1
60
0
100
AcDbTrace
10
49.693148
20
-8.0375
30
0
11
50.153931
21
-11.537498
31
0
12
49.232364
22
-11.537502
32
0
13
49.232364
23
-11.537502
33
0
39
0
210
0
220
0
230
1
0
ENDBLK
5
187
100
AcDbEntity
8
0
100
AcDbBlockEnd
0
BLOCK
5
18C
100
AcDbEntity
8
0
100
AcDbBlockBegin
2
*D5
70
1
10
0
20
0
30
0
3
*D5
0
LINE
5
18E
100
AcDbEntity
8
0
62
256
6
ByLayer
370
-2
48
1
60
0
100
AcDbLine
10
-42.9875
20
7.9625
30
0
11
-55
21
7.9625
31
0
39
0
210
0
220
0
230
1
0
LINE
5
18F
100
AcDbEntity
8
0
62
256
6
ByLayer
370
-2
48
1
60
0
100
AcDbLine
10
-42.9875
20
-8.0375
30
0
11
-55
21
-8.0375
31
0
39
0
210
0
220
0
230
1
0
LINE
5
190
100
AcDbEntity
8
0
62
256
6
ByLayer
370
-2
48
1
60
0
100
AcDbLine
10
-53
20
11.4625
30
0
11
-53
21
14.9625
31
0
39
0
210
0
220
0
230
1
0
LINE
5
191
100
AcDbEntity
8
0
62
256
6
ByLayer
370
-2
48
1
60
0
100
AcDbLine
10
-53
20
-11.5375
30
0
11
-53
21
-15.0375
31
0
39
0
210
0
220
0
230
1
0
SOLID
5
192
100
AcDbEntity
8
0
62
256
6
ByLayer
370
-1
48
1
60
0
100
AcDbTrace
10
-53.583333
20
11.4625
30
0
11
-52.416667
21
11.4625
31
0
12
-53
22
7.9625
32
0
13
-53
23
7.9625
33
0
39
0
210
0
220
0
230
1
0
SOLID
5
193
100
AcDbEntity
8
0
62
256
6
ByLayer
370
-1
48
1
60
0
100
AcDbTrace
10
-52.416667
20
-11.5375
30
0
11
-53.583333
21
-11.5375
31
0
12
-53
22
-8.0375
32
0
13
-53
23
-8.0375
33
0
39
0
210
0
220
0
230
1
0
MTEXT
5
194
100
AcDbEntity
8
0
62
256
6
ByLayer
370
18
48
1
60
0
100
AcDbMText
10
-60
20
-0.0375
30
0
210
0
220
0
230
1
1
\A1;16
40
3.5
41
0
44
1
50
90
71
5
72
5
7
iso_b_vert
0
POINT
5
195
100
AcDbEntity
8
Defpoints
62
0
6
ByLayer
370
-1
48
1
60
0
100
AcDbPoint
10
-41.4
20
7.9625
30
0
39
0
210
0
220
0
230
1
50
360
0
POINT
5
196
100
AcDbEntity
8
Defpoints
62
0
6
ByLayer
370
-1
48
1
60
0
100
AcDbPoint
10
-41.4
20
-8.0375
30
0
39
0
210
0
220
0
230
1
50
360
0
POINT
5
197
100
AcDbEntity
8
Defpoints
62
0
6
ByLayer
370
-1
48
1
60
0
100
AcDbPoint
10
-53
20
-8.0375
30
0
39
0
210
0
220
0
230
1
50
360
0
ENDBLK
5
18D
100
AcDbEntity
8
0
100
AcDbBlockEnd
0
BLOCK
5
1A0
100
AcDbEntity
8
0
100
AcDbBlockBegin
2
_U2
70
0
10
0
20
0
30
0
3
_U2
0
MTEXT
5
19A
100
AcDbEntity
8
SK2
62
256
6
ByLayer
370
18
48
1
60
0
100
AcDbMText
10
-53.689634
20
-1.533033
30
0
210
0
220
0
230
1
1
\W0.5321;16
40
3.5
41
0
44
1.084337
50
90
71
7
72
5
7
iso_b_vert
0
LINE
5
19B
100
AcDbEntity
8
SK2
62
256
6
ByLayer
370
13
48
1
60
0
100
AcDbLine
10
-42.9875
20
7.9625
30
0
11
-55
21
7.9625
31
0
39
0
210
0
220
0
230
1
0
LINE
5
19C
100
AcDbEntity
8
SK2
62
256
6
ByLayer
370
13
48
1
60
0
100
AcDbLine
10
-42.9875
20
-8.0375
30
0
11
-55
21
-8.0375
31
0
39
0
210
0
220
0
230
1
0
LINE
5
19D
100
AcDbEntity
8
SK2
62
256
6
ByLayer
370
13
48
1
60
0
100
AcDbLine
10
-53
20
7.9625
30
0
11
-53
21
-8.0375
31
0
39
0
210
0
220
0
230
1
0
SOLID
5
19E
100
AcDbEntity
8
SK2
62
256
6
ByLayer
370
18
48
1
60
0
100
AcDbTrace
10
-53
20
7.9625
30
0
11
-52.539216
21
4.462502
31
0
12
-53.460784
22
4.462498
32
0
13
-53.460784
23
4.462498
33
0
39
0
210
0
220
0
230
1
0
SOLID
5
19F
100
AcDbEntity
8
SK2
62
256
6
ByLayer
370
18
48
1
60
0
100
AcDbTrace
10
-53
20
-8.0375
30
0
11
-53.460784
21
-4.537502
31
0
12
-52.539216
22
-4.537498
32
0
13
-52.539216
23
-4.537498
33
0
39
0
210
0
220
0
230
1
0
ENDBLK
5
1A1
100
AcDbEntity
8
0
100
AcDbBlockEnd
0
BLOCK
5
1A6
100
AcDbEntity
8
0
100
AcDbBlockBegin
2
*D7
70
1
10
0
20
0
30
0
3
*D7
0
LINE
5
1A8
100
AcDbEntity
8
0
62
256
6
ByLayer
370
-2
48
1
60
0
100
AcDbLine
10
11.6
20
-4.2
30
0
11
11.6
21
16.2125
31
0
39
0
210
0
220
0
230
1
0
LINE
5
1A9
100
AcDbEntity
8
0
62
256
6
ByLayer
370
-2
48
1
60
0
100
AcDbLine
10
28.6
20
-6.45
30
0
11
28.6
21
16.2125
31
0
39
0
210
0
220
0
230
1
0
LINE
5
1AA
100
AcDbEntity
8
0
62
256
6
ByLayer
370
-2
48
1
60
0
100
AcDbLine
10
8.1
20
14.2125
30
0
11
4.6
21
14.2125
31
0
39
0
210
0
220
0
230
1
0
LINE
5
1AB
100
AcDbEntity
8
0
62
256
6
ByLayer
370
-2
48
1
60
0
100
AcDbLine
10
32.1
20
14.2125
30
0
11
35.6
21
14.2125
31
0
39
0
210
0
220
0
230
1
0
SOLID
5
1AC
100
AcDbEntity
8
0
62
256
6
ByLayer
370
-1
48
1
60
0
100
AcDbTrace
10
8.1
20
13.629167
30
0
11
8.1
21
14.795833
31
0
12
11.6
22
14.2125
32
0
13
11.6
23
14.2125
33
0
39
0
210
0
220
0
230
1
0
SOLID
5
1AD
100
AcDbEntity
8
0
62
256
6
ByLayer
370
-1
48
1
60
0
100
AcDbTrace
10
32.1
20
14.795833
30
0
11
32.1
21
13.629167
31
0
12
28.6
22
14.2125
32
0
13
28.6
23
14.2125
33
0
39
0
210
0
220
0
230
1
0
MTEXT
5
1AE
100
AcDbEntity
8
0
62
256
6
ByLayer
370
18
48
1
60
0
100
AcDbMText
10
20.1
20
21.2125
30
0
210
0
220
0
230
1
1
\A1;17
40
3.5
41
0
44
1
50
0
71
5
72
5
7
iso_b_vert
0
POINT
5
1AF
100
AcDbEntity
8
Defpoints
62
0
6
ByLayer
370
-1
48
1
60
0
100
AcDbPoint
10
11.6
20
-5.7875
30
0
39
0
210
0
220
0
230
1
50
360
0
POINT
5
1B0
100
AcDbEntity
8
Defpoints
62
0
6
ByLayer
370
-1
48
1
60
0
100
AcDbPoint
10
28.6
20
-8.0375
30
0
39
0
210
0
220
0
230
1
50
360
0
POINT
5
1B1
100
AcDbEntity
8
Defpoints
62
0
6
ByLayer
370
-1
48
1
60
0
100
AcDbPoint
10
28.6
20
14.2125
30
0
39
0
210
0
220
0
230
1
50
360
0
ENDBLK
5
1A7
100
AcDbEntity
8
0
100
AcDbBlockEnd
0
BLOCK
5
1B9
100
AcDbEntity
8
0
100
AcDbBlockBegin
2
_U3
70
0
10
0
20
0
30
0
3
_U3
0
MTEXT
5
1B3
100
AcDbEntity
8
2
62
256
6
ByLayer
370
18
48
1
60
0
100
AcDbMText
10
18.632467
20
15.245134
30
0
210
0
220
0
230
1
1
\W0.5321;17
40
3.5
41
0
44
1.084337
50
0
71
7
72
5
7
iso_b_vert
0
LINE
5
1B4
100
AcDbEntity
8
2
62
256
6
ByLayer
370
13
48
1
60
0
100
AcDbLine
10
11.6
20
-4.2
30
0
11
11.6
21
16.2125
31
0
39
0
210
0
220
0
230
1
0
LINE
5
1B5
100
AcDbEntity
8
2
62
256
6
ByLayer
370
13
48
1
60
0
100
AcDbLine
10
28.6
20
-6.45
30
0
11
28.6
21
16.2125
31
0
39
0
210
0
220
0
230
1
0
LINE
5
1B6
100
AcDbEntity
8
2
62
256
6
ByLayer
370
13
48
1
60
0
100
AcDbLine
10
11.6
20
14.2125
30
0
11
28.6
21
14.2125
31
0
39
0
210
0
220
0
230
1
0
SOLID
5
1B7
100
AcDbEntity
8
2
62
256
6
ByLayer
370
18
48
1
60
0
100
AcDbTrace
10
11.6
20
14.2125
30
0
11
15.099998
21
14.673284
31
0
12
15.100002
22
13.751716
32
0
13
15.100002
23
13.751716
33
0
39
0
210
0
220
0
230
1
0
SOLID
5
1B8
100
AcDbEntity
8
2
62
256
6
ByLayer
370
18
48
1
60
0
100
AcDbTrace
10
28.6
20
14.2125
30
0
11
25.100002
21
13.751716
31
0
12
25.099998
22
14.673284
32
0
13
25.099998
23
14.673284
33
0
39
0
210
0
220
0
230
1
0
ENDBLK
5
1BA
100
AcDbEntity
8
0
100
AcDbBlockEnd
0
BLOCK
5
1BF
100
AcDbEntity
8
0
100
AcDbBlockBegin
2
*D9
70
1
10
0
20
0
30
0
3
*D9
0
LINE
5
1C1
100
AcDbEntity
8
0
62
256
6
ByLayer
370
-2
48
1
60
0
100
AcDbLine
10
-41.4
20
9.55
30
0
11
-41.4
21
32.2125
31
0
39
0
210
0
220
0
230
1
0
LINE
5
1C2
100
AcDbEntity
8
0
62
256
6
ByLayer
370
-2
48
1
60
0
100
AcDbLine
10
28.6
20
-6.45
30
0
11
28.6
21
32.2125
31
0
39
0
210
0
220
0
230
1
0
LINE
5
1C3
100
AcDbEntity
8
0
62
256
6
ByLayer
370
-2
48
1
60
0
100
AcDbLine
10
-37.9
20
30.2125
30
0
11
25.1
21
30.2125
31
0
39
0
210
0
220
0
230
1
0
SOLID
5
1C4
100
AcDbEntity
8
0
62
256
6
ByLayer
370
-1
48
1
60
0
100
AcDbTrace
10
-37.9
20
30.795833
30
0
11
-37.9
21
29.629167
31
0
12
-41.4
22
30.2125
32
0
13
-41.4
23
30.2125
33
0
39
0
210
0
220
0
230
1
0
SOLID
5
1C5
100
AcDbEntity
8
0
62
256
6
ByLayer
370
-1
48
1
60
0
100
AcDbTrace
10
25.1
20
29.629167
30
0
11
25.1
21
30.795833
31
0
12
28.6
22
30.2125
32
0
13
28.6
23
30.2125
33
0
39
0
210
0
220
0
230
1
0
MTEXT
5
1C6
100
AcDbEntity
8
0
62
256
6
ByLayer
370
18
48
1
60
0
100
AcDbMText
10
-6.4
20
37.2125
30
0
210
0
220
0
230
1
1
\A1;70
40
3.5
41
0
44
1
50
0
71
5
72
5
7
iso_b_vert
0
POINT
5
1C7
100
AcDbEntity
8
Defpoints
62
0
6
ByLayer
370
-1
48
1
60
0
100
AcDbPoint
10
-41.4
20
7.9625
30
0
39
0
210
0
220
0
230
1
50
360
0
POINT
5
1C8
100
AcDbEntity
8
Defpoints
62
0
6
ByLayer
370
-1
48
1
60
0
100
AcDbPoint
10
28.6
20
-8.0375
30
0
39
0
210
0
220
0
230
1
50
360
0
POINT
5
1C9
100
AcDbEntity
8
Defpoints
62
0
6
ByLayer
370
-1
48
1
60
0
100
AcDbPoint
10
28.6
20
30.2125
30
0
39
0
210
0
220
0
230
1
50
360
0
ENDBLK
5
1C0
100
AcDbEntity
8
0
100
AcDbBlockEnd
0
BLOCK
5
1D1
100
AcDbEntity
8
0
100
AcDbBlockBegin
2
_U4
70
0
10
0
20
0
30
0
3
_U4
0
MTEXT
5
1CB
100
AcDbEntity
8
SK2
62
256
6
ByLayer
370
18
48
1
60
0
100
AcDbMText
10
-8.304966
20
31.245134
30
0
210
0
220
0
230
1
1
\W0.6740;70
40
3.5
41
0
44
1.084337
50
0
71
7
72
5
7
iso_b_vert
0
LINE
5
1CC
100
AcDbEntity
8
SK2
62
256
6
ByLayer
370
13
48
1
60
0
100
AcDbLine
10
-41.4
20
9.55
30
0
11
-41.4
21
32.2125
31
0
39
0
210
0
220
0
230
1
0
LINE
5
1CD
100
AcDbEntity
8
SK2
62
256
6
ByLayer
370
13
48
1
60
0
100
AcDbLine
10
28.6
20
-6.45
30
0
11
28.6
21
32.2125
31
0
39
0
210
0
220
0
230
1
0
LINE
5
1CE
100
AcDbEntity
8
SK2
62
256
6
ByLayer
370
13
48
1
60
0
100
AcDbLine
10
-41.4
20
30.2125
30
0
11
28.6
21
30.2125
31
0
39
0
210
0
220
0
230
1
0
SOLID
5
1CF
100
AcDbEntity
8
SK2
62
256
6
ByLayer
370
18
48
1
60
0
100
AcDbTrace
10
-41.4
20
30.2125
30
0
11
-37.900002
21
30.673284
31
0
12
-37.899998
22
29.751716
32
0
13
-37.899998
23
29.751716
33
0
39
0
210
0
220
0
230
1
0
SOLID
5
1D0
100
AcDbEntity
8
SK2
62
256
6
ByLayer
370
18
48
1
60
0
100
AcDbTrace
10
28.6
20
30.2125
30
0
11
25.100002
21
29.751716
31
0
12
25.099998
22
30.673284
32
0
13
25.099998
23
30.673284
33
0
39
0
210
0
220
0
230
1
0
ENDBLK
5
1D2
100
AcDbEntity
8
0
100
AcDbBlockEnd
0
ENDSEC
0
SECTION
2
ENTITIES
0
ARC
5
EF
100
AcDbEntity
8
1
62
256
6
ByLayer
370
18
48
1
60
0
100
AcDbCircle
39
0
10
11.6
20
-4.9875
30
0
40
0.799999999999971
210
0
220
0
230
1
100
AcDbArc
50
180
51
270
0
ARC
5
F0
100
AcDbEntity
8
SK1
62
256
6
ByLayer
370
18
48
1
60
0
100
AcDbCircle
39
0
10
-1.6
20
-9.3875
30
0
40
1.6
210
0
220
0
230
1
100
AcDbArc
50
90
51
117.048111
0
ELLIPSE
5
F1
100
AcDbEntity
8
1
62
256
6
ByLayer
370
18
48
1
60
0
100
AcDbEllipse
10
8.204159
20
1.0875
30
0
11
-5.83218776007907E-16
21
-3.175
31
0
210
0
220
0
230
1
40
0.891007
41
-0.466679858345003
42
1.16200065020728
0
ELLIPSE
5
F2
100
AcDbEntity
8
1
62
256
6
ByLayer
370
18
48
1
60
0
100
AcDbEllipse
10
8.12698
20
1.0875
30
0
11
1.94406258669302E-16
21
3.175
31
0
210
0
220
0
230
1
40
0.891007
41
-3.12794327568598
42
-1.90435897834823
0
ELLIPSE
5
F3
100
AcDbEntity
8
1
62
256
6
ByLayer
370
18
48
1
60
0
100
AcDbEllipse
10
8.12698
20
1.0875
30
0
11
1.94406258669302E-16
21
3.175
31
0
210
0
220
0
230
1
40
0.891007
41
-1.23723367524156
42
-0.0136493779038203
0
ELLIPSE
5
F4
100
AcDbEntity
8
1
62
256
6
ByLayer
370
18
48
1
60
0
100
AcDbEllipse
10
8.204159
20
1.0875
30
0
11
-5.83218776007907E-16
21
-3.175
31
0
210
0
220
0
230
1
40
0.891007
41
1.97959200338251
42
-2.67491279524479
0
ELLIPSE
5
F5
100
AcDbEntity
8
1
62
256
6
ByLayer
370
18
48
1
60
0
100
AcDbEllipse
10
8.693501
20
-4.9875
30
0
11
1.76215141166822
21
0
31
0
210
0
220
0
230
1
40
0.45399
41
3.14159265358979
42
-1.57079632679488
0
ELLIPSE
5
F6
100
AcDbEntity
8
1
62
256
6
ByLayer
370
18
48
1
60
0
100
AcDbEllipse
10
8.534601
20
1.0875
30
0
11
-3.5633858044891
21
4.36374489729782E-16
31
0
210
0
220
0
230
1
40
0.891007
41
0.982423360466024
42
1.10411646844989
0
ELLIPSE
5
F7
100
AcDbEntity
8
1
62
256
6
ByLayer
370
18
48
1
60
0
100
AcDbEllipse
10
9.86953
20
1.0875
30
0
11
4.53787995752994
21
0
31
0
210
0
220
0
230
1
40
0.851581
41
2.38911365625787
42
2.64074739764267
0
ELLIPSE
5
F8
100
AcDbEntity
8
1
62
256
6
ByLayer
370
18
48
1
60
0
100
AcDbEllipse
10
9.86953
20
1.0875
30
0
11
4.53787995752994
21
0
31
0
210
0
220
0
230
1
40
0.851581
41
-2.64074739764268
42
-2.38911365625786
0
ELLIPSE
5
F9
100
AcDbEntity
8
1
62
256
6
ByLayer
370
18
48
1
60
0
100
AcDbEllipse
10
8.534601
20
1.0875
30
0
11
-3.5633858044891
21
4.36374489729782E-16
31
0
210
0
220
0
230
1
40
0.891007
41
-1.10411646844989
42
-0.982423360466024
0
ELLIPSE
5
FA
100
AcDbEntity
8
1
62
256
6
ByLayer
370
18
48
1
60
0
100
AcDbEllipse
10
7.48546
20
1.0875
30
0
11
-2.37016436750552E-16
21
-1.2903
31
0
210
0
220
0
230
1
40
0.891007
41
2.61799387799149
42
2.91430174732685
0
ELLIPSE
5
FB
100
AcDbEntity
8
1
62
256
6
ByLayer
370
18
48
1
60
0
100
AcDbEllipse
10
7.48546
20
1.0875
30
0
11
-2.37016436750552E-16
21
-1.2903
31
0
210
0
220
0
230
1
40
0.891007
41
0.224787314505944
42
0.523598775598298
0
ELLIPSE
5
FC
100
AcDbEntity
8
1
62
256
6
ByLayer
370
18
48
1
60
0
100
AcDbEllipse
10
7.48546
20
1.0875
30
0
11
-2.37016436750552E-16
21
-1.2903
31
0
210
0
220
0
230
1
40
0.891007
41
0.523598775598303
42
1.5707963267949
0
ELLIPSE
5
FD
100
AcDbEntity
8
1
62
256
6
ByLayer
370
18
48
1
60
0
100
AcDbEllipse
10
7.48546
20
1.0875
30
0
11
7.90054789168507E-17
21
1.2903
31
0
210
0
220
0
230
1
40
0.891007
41
-1.5707963267949
42
-0.5235987755983
0
ELLIPSE
5
FE
100
AcDbEntity
8
1
62
256
6
ByLayer
370
18
48
1
60
0
100
AcDbEllipse
10
8.80709
20
1.0875
30
0
11
2.41308682020914E-17
21
0.39410000000035
31
0
210
0
220
0
230
1
40
0.436347
41
0.288932900934848
42
1.5707963267949
0
ELLIPSE
5
FF
100
AcDbEntity
8
1
62
256
6
ByLayer
370
18
48
1
60
0
100
AcDbEllipse
10
8.80709
20
1.0875
30
0
11
2.41308682019392E-17
21
0.394099999997864
31
0
210
0
220
0
230
1
40
0.436347
41
1.5707963267949
42
2.85265975266012
0
ELLIPSE
5
100
100
AcDbEntity
8
1
62
256
6
ByLayer
370
18
48
1
60
0
100
AcDbEllipse
10
8.630102
20
0.3458
30
0
11
0.166590173381901
21
0.346346854433053
31
0
210
0
220
0
230
1
40
0.458817
41
-2.28436054737898
42
0.137551892608075
0
ELLIPSE
5
101
100
AcDbEntity
8
1
62
256
6
ByLayer
370
18
48
1
60
0
100
AcDbEllipse
10
8.630102
20
1.8292
30
0
11
0.166590173381903
21
-0.346346854433051
31
0
210
0
220
0
230
1
40
0.458817
41
-0.137551892608083
42
2.28436054737899
0
ELLIPSE
5
102
100
AcDbEntity
8
1
62
256
6
ByLayer
370
18
48
1
60
0
100
AcDbEllipse
10
8.146275
20
-0.197075
30
0
11
0.297314427410951
21
0.208297956712363
31
0
210
0
220
0
230
1
40
0.514259
41
0.622058059849119
42
1.50053422562355
0
ELLIPSE
5
103
100
AcDbEntity
8
1
62
256
6
ByLayer
370
18
48
1
60
0
100
AcDbEllipse
10
8.146275
20
-0.197075
30
0
11
0.297314427409907
21
0.208297956712694
31
0
210
0
220
0
230
1
40
0.514259
41
1.50053422561852
42
2.62955567232448
0
ELLIPSE
5
104
100
AcDbEntity
8
1
62
256
6
ByLayer
370
18
48
1
60
0
100
AcDbEllipse
10
8.146275
20
2.372075
30
0
11
0.297314427412448
21
-0.208297956712867
31
0
210
0
220
0
230
1
40
0.514259
41
-2.78239765148305
42
-1.50053422562613
0
ELLIPSE
5
105
100
AcDbEntity
8
1
62
256
6
ByLayer
370
18
48
1
60
0
100
AcDbEllipse
10
8.146275
20
2.372075
30
0
11
0.297314427411027
21
-0.208297956712525
31
0
210
0
220
0
230
1
40
0.514259
41
-1.50053422562306
42
-0.579535660854665
0
ELLIPSE
5
106
100
AcDbEntity
8
1
62
256
6
ByLayer
370
18
48
1
60
0
100
AcDbEllipse
10
7.989389
20
1.0875
30
0
11
1.83690953073357E-16
21
3
31
0
210
0
220
0
230
1
40
0.891007
41
0
42
-3.14159258717258
0
ELLIPSE
5
107
100
AcDbEntity
8
1
62
256
6
ByLayer
370
18
48
1
60
0
100
AcDbEllipse
10
8.261784
20
1.0875
30
0
11
-3.07939513732175E-16
21
-1.6764
31
0
210
0
220
0
230
1
40
0.891007
41
2.0943951023932
42
3.14159265358979
0
ELLIPSE
5
108
100
AcDbEntity
8
1
62
256
6
ByLayer
370
18
48
1
60
0
100
AcDbEllipse
10
8.261784
20
1.0875
30
0
11
-3.07939513732175E-16
21
-1.6764
31
0
210
0
220
0
230
1
40
0.891007
41
1.0471975511966
42
2.0943951023932
0
ELLIPSE
5
109
100
AcDbEntity
8
1
62
256
6
ByLayer
370
18
48
1
60
0
100
AcDbEllipse
10
8.261784
20
1.0875
30
0
11
-3.07939513732175E-16
21
-1.6764
31
0
210
0
220
0
230
1
40
0.891007
41
0
42
1.0471975511966
0
ELLIPSE
5
10A
100
AcDbEntity
8
1
62
256
6
ByLayer
370
18
48
1
60
0
100
AcDbEllipse
10
8.261784
20
1.0875
30
0
11
-3.07939513732175E-16
21
-1.6764
31
0
210
0
220
0
230
1
40
0.891007
41
-1.04719755119659
42
-2.97311325402492E-16
0
ELLIPSE
5
10B
100
AcDbEntity
8
1
62
256
6
ByLayer
370
18
48
1
60
0
100
AcDbEllipse
10
8.261784
20
1.0875
30
0
11
-3.07939513732175E-16
21
-1.6764
31
0
210
0
220
0
230
1
40
0.891007
41
-2.09439510239319
42
-1.04719755119659
0
ELLIPSE
5
10C
100
AcDbEntity
8
1
62
256
6
ByLayer
370
18
48
1
60
0
100
AcDbEllipse
10
8.261784
20
1.0875
30
0
11
-3.07939513732175E-16
21
-1.6764
31
0
210
0
220
0
230
1
40
0.891007
41
3.14159265358979
42
-2.09439510239319
0
ELLIPSE
5
10D
100
AcDbEntity
8
1
62
256
6
ByLayer
370
18
48
1
60
0
100
AcDbEllipse
10
8.261784
20
1.0875
30
0
11
1.83690953073357E-16
21
3
31
0
210
0
220
0
230
1
40
0.891007
41
0
42
6.28318530717959
0
ELLIPSE
5
10E
100
AcDbEntity
8
1
62
256
6
ByLayer
370
18
48
1
60
0
100
AcDbEllipse
10
11.890539
20
-8.5875
30
0
11
0.89847416350954
21
1.05252237878205E-15
31
0
210
0
220
0
230
1
40
0.890398
41
1.5707963267949
42
1.84644008774295
0
ELLIPSE
5
10F
100
AcDbEntity
8
1
62
256
6
ByLayer
370
18
48
1
60
0
100
AcDbEllipse
10
11.890539
20
-4.9875
30
0
11
0.898474163537532
21
1.05252237881484E-15
31
0
210
0
220
0
230
1
40
0.890398
41
-1.84644008773428
42
-1.5707963267949
0
ELLIPSE
5
110
100
AcDbEntity
8
1
62
256
6
ByLayer
370
18
48
1
60
0
100
AcDbEllipse
10
25.261887
20
-4.9875
30
0
11
0.918716977516652
21
1.07623593184492E-15
31
0
210
0
220
0
230
1
40
0.87078
41
-1.5707963267949
42
-1.29515256584969
0
ELLIPSE
5
111
100
AcDbEntity
8
1
62
256
6
ByLayer
370
18
48
1
60
0
100
AcDbEllipse
10
23.961552
20
-5.912062
30
0
11
0.712577779882902
21
8.34753062926131E-16
31
0
210
0
220
0
230
1
40
0.210503
41
3.14159265358979
42
-2.805616772541
0
ELLIPSE
5
112
100
AcDbEntity
8
1
62
256
6
ByLayer
370
18
48
1
60
0
100
AcDbEllipse
10
24.945577
20
-6.353564
30
0
11
0.950103706734886
21
1.11300408416432E-15
31
0
210
0
220
0
230
1
40
0.210503
41
-2.80561677258001
42
-1.987178251085
0
ELLIPSE
5
113
100
AcDbEntity
8
1
62
256
6
ByLayer
370
18
48
1
60
0
100
AcDbEllipse
10
28.404038
20
-4.707359
30
0
11
9.50103709764374
21
4.03412109892402E-09
31
0
210
0
220
0
230
1
40
0.210503
41
-1.98717825203041
42
-1.91986217832915
0
ELLIPSE
5
114
100
AcDbEntity
8
1
62
256
6
ByLayer
370
18
48
1
60
0
100
AcDbEllipse
10
24.85793
20
-6.7875
30
0
11
0.997608892069386
21
1.16865428836991E-15
31
0
210
0
220
0
230
1
40
0.210503
41
0
42
1.22173047639604
0
ELLIPSE
5
115
100
AcDbEntity
8
1
62
256
6
ByLayer
370
18
48
1
60
0
100
AcDbEllipse
10
24.85793
20
-6.7875
30
0
11
0.997608892069385
21
1.16865428836991E-15
31
0
210
0
220
0
230
1
40
0.210503
41
-1.22173047639605
42
0
0
ELLIPSE
5
116
100
AcDbEntity
8
1
62
256
6
ByLayer
370
18
48
1
60
0
100
AcDbEllipse
10
28.404038
20
-8.867641
30
0
11
9.50103702707368
21
5.34745874928513E-09
31
0
210
0
220
0
230
1
40
0.210503
41
1.91986217569421
42
1.98717824983583
0
ELLIPSE
5
117
100
AcDbEntity
8
1
62
256
6
ByLayer
370
18
48
1
60
0
100
AcDbEllipse
10
24.945577
20
-7.221436
30
0
11
0.950103706728342
21
1.11300408415666E-15
31
0
210
0
220
0
230
1
40
0.210503
41
1.9871782510821
42
2.80561677258236
0
ELLIPSE
5
118
100
AcDbEntity
8
1
62
256
6
ByLayer
370
18
48
1
60
0
100
AcDbEllipse
10
25.261887
20
-8.5875
30
0
11
0.918716977546055
21
1.07623593187937E-15
31
0
210
0
220
0
230
1
40
0.87078
41
1.29515256585859
42
1.5707963267949
0
ELLIPSE
5
119
100
AcDbEntity
8
1
62
256
6
ByLayer
370
18
48
1
60
0
100
AcDbEllipse
10
24.475438
20
-6.1375
30
0
11
7.85307604188958E-18
21
0.128254700253313
31
0
210
0
220
0
230
1
40
0.987688
41
0
42
6.28318530717959
0
ELLIPSE
5
11A
100
AcDbEntity
8
1
62
256
6
ByLayer
370
18
48
1
60
0
100
AcDbEllipse
10
23.961552
20
-7.662938
30
0
11
0.712577779828882
21
8.34753062862849E-16
31
0
210
0
220
0
230
1
40
0.210503
41
2.80561677252806
42
3.14159265358979
0
POINT
5
70
100
AcDbEntity
8
81
62
256
6
ByLayer
370
18
48
1
60
0
100
AcDbPoint
10
28.6
20
-8.0375
30
0
39
0
210
0
220
0
230
1
50
360
0
POINT
5
72
100
AcDbEntity
8
80
62
256
6
ByLayer
370
18
48
1
60
0
100
AcDbPoint
10
0
20
0
30
0
39
0
210
0
220
0
230
1
50
360
0
POINT
5
74
100
AcDbEntity
8
1
62
256
6
ByLayer
370
18
48
1
60
1
100
AcDbPoint
10
28.6
20
-8.0375
30
0
39
0
210
0
220
0
230
1
50
360
0
POINT
5
76
100
AcDbEntity
8
1
62
256
6
ByLayer
370
18
48
1
60
1
100
AcDbPoint
10
-41.4
20
7.9625
30
0
39
0
210
0
220
0
230
1
50
360
0
POINT
5
77
100
AcDbEntity
8
1
62
256
6
ByLayer
370
18
48
1
60
1
100
AcDbPoint
10
28.6
20
-5.5375
30
0
39
0
210
0
220
0
230
1
50
360
0
POINT
5
78
100
AcDbEntity
8
1
62
256
6
ByLayer
370
18
48
1
60
1
100
AcDbPoint
10
28.6
20
-8.0375
30
0
39
0
210
0
220
0
230
1
50
360
0
POINT
5
79
100
AcDbEntity
8
1
62
256
6
ByLayer
370
18
48
1
60
1
100
AcDbPoint
10
-41.4
20
7.9625
30
0
39
0
210
0
220
0
230
1
50
360
0
POINT
5
7A
100
AcDbEntity
8
1
62
256
6
ByLayer
370
18
48
1
60
1
100
AcDbPoint
10
-41.4
20
-8.0375
30
0
39
0
210
0
220
0
230
1
50
360
0
POINT
5
7B
100
AcDbEntity
8
1
62
256
6
ByLayer
370
18
48
1
60
1
100
AcDbPoint
10
11.6
20
-5.7875
30
0
39
0
210
0
220
0
230
1
50
360
0
POINT
5
7C
100
AcDbEntity
8
1
62
256
6
ByLayer
370
18
48
1
60
1
100
AcDbPoint
10
28.6
20
-8.0375
30
0
39
0
210
0
220
0
230
1
50
360
0
POINT
5
7D
100
AcDbEntity
8
1
62
256
6
ByLayer
370
18
48
1
60
1
100
AcDbPoint
10
-41.4
20
7.9625
30
0
39
0
210
0
220
0
230
1
50
360
0
POINT
5
7E
100
AcDbEntity
8
1
62
256
6
ByLayer
370
18
48
1
60
1
100
AcDbPoint
10
28.6
20
-8.0375
30
0
39
0
210
0
220
0
230
1
50
360
0
SPLINE
5
11B
100
AcDbEntity
8
1
62
256
6
ByLayer
370
18
48
1
60
0
100
AcDbSpline
70
4
71
3
72
8
73
4
40
0
40
0
40
0
40
0
40
1
40
1
40
1
40
1
41
1
10
10.8
20
2.1270311443146
30
0
41
1
10
10.7999999999999
20
2.08451276451569
30
0
41
1
10
10.7999999999999
20
2.04162096416732
30
0
41
1
10
10.7999999999999
20
1.99833314431461
30
0
0
SPLINE
5
11C
100
AcDbEntity
8
1
62
256
6
ByLayer
370
18
48
1
60
0
100
AcDbSpline
70
4
71
3
72
8
73
4
40
0
40
0
40
0
40
0
40
1
40
1
40
1
40
1
41
1
10
10.8
20
0.165313855694734
30
0
41
1
10
10.8
20
0.12602169570107
30
0
41
1
10
10.8
20
0.08690853761928
30
0
41
1
10
10.8
20
0.0479688556854398
30
0
0
SPLINE
5
11D
100
AcDbEntity
8
1
62
256
6
ByLayer
370
18
48
1
60
0
100
AcDbSpline
70
4
71
3
72
12
73
8
40
0
40
0
40
0
40
0
40
0.249999999999999
40
0.249999999999999
40
0.499999999999998
40
0.499999999999998
40
1
40
1
40
1
40
1
41
1
10
21.8003436392156
20
-7.6210269779009
30
0
41
1
10
21.8249566849095
20
-7.57425248497321
30
0
41
1
10
21.8481994228115
20
-7.52671656841434
30
0
41
1
10
21.8930092667317
20
-7.43071365563617
30
0
41
1
10
21.9145615452561
20
-7.38223842038897
30
0
41
1
10
21.9774942225732
20
-7.23585467087949
30
0
41
1
10
22.0171903842599
20
-7.13701029538902
30
0
41
1
10
22.0556881129214
20
-7.03750000000002
30
0
0
SPLINE
5
11E
100
AcDbEntity
8
1
62
256
6
ByLayer
370
18
48
1
60
0
100
AcDbSpline
70
4
71
3
72
8
73
4
40
0
40
0
40
0
40
0
40
1
40
1
40
1
40
1
41
1
10
22.2181246704179
20
-6.97539899089929
30
0
41
1
10
22.1641890881284
20
-6.9968349143536
30
0
41
1
10
22.1100807377123
20
-7.01766548440119
30
0
41
1
10
22.0556881129215
20
-7.03750000000002
30
0
0
SPLINE
5
11F
100
AcDbEntity
8
1
62
256
6
ByLayer
370
18
48
1
60
0
100
AcDbSpline
70
4
71
3
72
20
73
16
40
0
40
0
40
0
40
0
40
0.124999999999981
40
0.124999999999981
40
0.249999999999961
40
0.249999999999961
40
0.374999999999942
40
0.374999999999942
40
0.499999999999922
40
0.499999999999922
40
0.624999999999903
40
0.624999999999903
40
0.749999999999883
40
0.749999999999883
40
1
40
1
40
1
40
1
41
1
10
22.3118654791466
20
-6.83631896105271
30
0
41
1
10
22.3118654791466
20
-6.84432979241598
30
0
41
1
10
22.3112269577541
20
-6.85234904505475
30
0
41
1
10
22.3087501529881
20
-6.86797606206912
30
0
41
1
10
22.3069288392453
20
-6.8755497522364
30
0
41
1
10
22.3021942171545
20
-6.89024786986732
30
0
41
1
10
22.2992692955816
20
-6.89739408617132
30
0
41
1
10
22.2923628988545
20
-6.91114112366699
30
0
41
1
10
22.2884780033378
20
-6.91756025003065
30
0
41
1
10
22.2799400079971
20
-6.92958991232754
30
0
41
1
10
22.2752861068554
20
-6.93519960481626
30
0
41
1
10
22.2652446548523
20
-6.9456467705588
30
0
41
1
10
22.2598170774567
20
-6.95050625200673
30
0
41
1
10
22.2429898027921
20
-6.96352320941654
30
0
41
1
10
22.2309328296018
20
-6.97030857176958
30
0
41
1
10
22.2181246704179
20
-6.97539899089929
30
0
0
SPLINE
5
120
100
AcDbEntity
8
1
62
256
6
ByLayer
370
18
48
1
60
0
100
AcDbSpline
70
4
71
3
72
20
73
16
40
0
40
0
40
0
40
0
40
0.249999999999895
40
0.249999999999895
40
0.374999999999913
40
0.374999999999913
40
0.49999999999993
40
0.49999999999993
40
0.624999999999948
40
0.624999999999948
40
0.749999999999965
40
0.749999999999965
40
0.874999999999982
40
0.874999999999982
40
1
40
1
40
1
40
1
41
1
10
22.2181246704174
20
-6.59960100910058
30
0
41
1
10
22.2309137812966
20
-6.60468385775476
30
0
41
1
10
22.2429851640986
20
-6.61146788307428
30
0
41
1
10
22.2598711264947
20
-6.6245382301629
30
0
41
1
10
22.265253950992
20
-6.62936240447758
30
0
41
1
10
22.2752865153937
20
-6.6398013174128
30
0
41
1
10
22.2799693779058
20
-6.64543970006301
30
0
41
1
10
22.2886061771777
20
-6.65763232634245
30
0
41
1
10
22.2925178783765
20
-6.66414277083928
30
0
41
1
10
22.2993119882646
20
-6.67771620658678
30
0
41
1
10
22.3022254729567
20
-6.68481998449852
30
0
41
1
10
22.3070044140296
20
-6.6997146956935
30
0
41
1
10
22.3088182782484
20
-6.70736687192544
30
0
41
1
10
22.3112424896883
20
-6.72283887691216
30
0
41
1
10
22.3118654791434
20
-6.7306959447377
30
0
41
1
10
22.3118654791434
20
-6.73868103894762
30
0
0
SPLINE
5
121
100
AcDbEntity
8
1
62
256
6
ByLayer
370
18
48
1
60
0
100
AcDbSpline
70
4
71
3
72
8
73
4
40
0
40
0
40
0
40
0
40
1
40
1
40
1
40
1
41
1
10
22.2181246704174
20
-6.59960100910058
30
0
41
1
10
22.1641954671009
20
-6.57816762087757
30
0
41
1
10
22.1100883116394
20
-6.55733727746551
30
0
41
1
10
22.0556881129215
20
-6.53750000000005
30
0
0
SPLINE
5
122
100
AcDbEntity
8
1
62
256
6
ByLayer
370
18
48
1
60
0
100
AcDbSpline
70
4
71
3
72
12
73
8
40
0
40
0
40
0
40
0
40
0.250000000000001
40
0.250000000000001
40
0.500000000000002
40
0.500000000000002
40
1
40
1
40
1
40
1
41
1
10
21.8003436392156
20
-5.95397302209912
30
0
41
1
10
21.8248936691537
20
-6.0006277602406
30
0
41
1
10
21.8481053044932
20
-6.04808951013538
30
0
41
1
10
21.8928819446757
20
-6.14400587866911
30
0
41
1
10
21.9144329226186
20
-6.19246895510744
30
0
41
1
10
21.9773868889435
20
-6.33888261081049
30
0
41
1
10
22.0171301333288
20
-6.43783396586596
30
0
41
1
10
22.0556881129215
20
-6.53750000000005
30
0
0
SPLINE
5
123
100
AcDbEntity
8
1
62
256
6
ByLayer
370
18
48
1
60
0
100
AcDbSpline
70
4
71
3
72
8
73
4
40
0
40
0
40
0
40
0
40
1
40
1
40
1
40
1
41
1
10
11.9181018652103
20
-5.53434422853684
30
0
41
1
10
11.9198905249438
20
-5.52463374904605
30
0
41
1
10
11.9216728335232
20
-5.51437608642757
30
0
41
1
10
11.9234475927075
20
-5.503468006312
30
0
0
SPLINE
5
124
100
AcDbEntity
8
1
62
256
6
ByLayer
370
18
48
1
60
0
100
AcDbSpline
70
4
71
3
72
24
73
20
40
0
40
0
40
0
40
0
40
0.176464391805898
40
0.176464391805898
40
0.264696587708847
40
0.264696587708847
40
0.352928783611797
40
0.352928783611797
40
0.529393175417695
40
0.529393175417695
40
0.617625371320644
40
0.617625371320644
40
0.705857567223593
40
0.705857567223593
40
0.882321959029511
40
0.882321959029511
40
0.970554154932471
40
0.970554154932471
40
1
40
1
40
1
40
1
41
1
10
11.8742440798319
20
-4.98750000000092
30
0
41
1
10
11.8742440798319
20
-5.01796143862228
30
0
41
1
10
11.87506549381
20
-5.04808625904894
30
0
41
1
10
11.8774241133425
20
-5.09277744903667
30
0
41
1
10
11.8784009313583
20
-5.10760789234337
30
0
41
1
10
11.8806513125884
20
-5.13652730769485
30
0
41
1
10
11.8819280661649
20
-5.15069118288494
30
0
41
1
10
11.8861297322289
20
-5.19232996276583
30
0
41
1
10
11.8894284933614
20
-5.21895648663411
30
0
41
1
10
11.8947634836738
20
-5.25723629002101
30
0
41
1
10
11.8966162293271
20
-5.26978397783654
30
0
41
1
10
11.9003102025808
20
-5.29386772231112
30
0
41
1
10
11.902154049904
20
-5.30543155705448
30
0
41
1
10
11.9075717089967
20
-5.33878860569831
30
0
41
1
10
11.9110313031419
20
-5.35925251035266
30
0
41
1
10
11.915594047258
20
-5.38755676986671
30
0
41
1
10
11.9170106827893
20
-5.39659145236877
30
0
41
1
10
11.9187168586453
20
-5.40812802004936
30
0
41
1
10
11.9191282655826
20
-5.41097130647577
30
0
41
1
10
11.9195225230113
20
-5.4137673298857
30
0
0
SPLINE
5
125
100
AcDbEntity
8
1
62
256
6
ByLayer
370
18
48
1
60
0
100
AcDbSpline
70
4
71
3
72
8
73
4
40
0
40
0
40
0
40
0
40
1
40
1
40
1
40
1
41
1
10
11.9252268066151
20
-5.47735519032676
30
0
41
1
10
11.9252708661501
20
-5.48707165936958
30
0
41
1
10
11.9247045893198
20
-5.49574221467941
30
0
41
1
10
11.9234475927148
20
-5.50346800632167
30
0
0
SPLINE
5
126
100
AcDbEntity
8
1
62
256
6
ByLayer
370
18
48
1
60
0
100
AcDbSpline
70
4
71
3
72
38
73
34
40
0
40
0
40
0
40
0
40
0.0156250000000053
40
0.0156250000000053
40
0.0312500000000107
40
0.0625000000000085
40
0.0625000000000085
40
0.125000000000004
40
0.125000000000004
40
0.249999999999995
40
0.249999999999995
40
0.374999999999987
40
0.374999999999987
40
0.437499999999982
40
0.437499999999982
40
0.46874999999998
40
0.46874999999998
40
0.499999999999978
40
0.499999999999978
40
0.624999999999977
40
0.624999999999977
40
0.656249999999975
40
0.656249999999975
40
0.687499999999973
40
0.687499999999973
40
0.749999999999975
40
0.812499999999978
40
0.812499999999978
40
0.843749999999981
40
0.843749999999981
40
0.874999999999984
40
0.874999999999984
40
1
40
1
40
1
40
1
41
1
10
21.0543466826879
20
-5.78750000000008
30
0
41
1
10
21.0483269836616
20
-5.78750000000008
30
0
41
1
10
21.0422275936927
20
-5.78743129368232
30
0
41
1
10
21.0300739413172
20
-5.78715478861614
30
0
41
1
10
21.011869857695
20
-5.78653272589585
30
0
41
1
10
20.993744433332
20
-5.78529305003417
30
0
41
1
10
20.957597724625
20
-5.78199680449447
30
0
41
1
10
20.9336385463863
20
-5.77871177314569
30
0
41
1
10
20.8621792539143
20
-5.76558596944901
30
0
41
1
10
20.815093081434
20
-5.7525058676643
30
0
41
1
10
20.7221334962826
20
-5.71695915722006
30
0
41
1
10
20.677388441734
20
-5.69491923742444
30
0
41
1
10
20.6130450459999
20
-5.65524825996175
30
0
41
1
10
20.5920590962814
20
-5.64091472357038
30
0
41
1
10
20.5613172280263
20
-5.61764848267467
30
0
41
1
10
20.5511724513894
20
-5.60958070105767
30
0
41
1
10
20.5312429712335
20
-5.59291821308398
30
0
41
1
10
20.521475223363
20
-5.58433959771426
30
0
41
1
10
20.4736289724903
20
-5.54020145835426
30
0
41
1
10
20.438494390922
20
-5.50094859092428
30
0
41
1
10
20.3989370119355
20
-5.44643314576746
30
0
41
1
10
20.3912258379956
20
-5.43522323516973
30
0
41
1
10
20.3763756012703
20
-5.41240065043209
30
0
41
1
10
20.3692411271445
20
-5.40079923237326
30
0
41
1
10
20.3487135345687
20
-5.36542244064376
30
0
41
1
10
20.3236740253756
20
-5.31672985028683
30
0
41
1
10
20.3034494657298
20
-5.26489356853179
30
0
41
1
10
20.2902088434941
20
-5.22475896882267
30
0
41
1
10
20.2861192834526
20
-5.21116501058785
30
0
41
1
10
20.2787048673199
20
-5.18391575331358
30
0
41
1
10
20.2753642575565
20
-5.17021561152686
30
0
41
1
10
20.2604837484623
20
-5.10133960387546
30
0
41
1
10
20.2543466826879
20
-5.04505127533494
30
0
41
1
10
20.2543466826879
20
-4.98750000000004
30
0
0
SPLINE
5
127
100
AcDbEntity
8
1
62
256
6
ByLayer
370
18
48
1
60
0
100
AcDbSpline
70
4
71
3
72
19
73
15
40
0
40
0
40
0
40
0
40
0.249999999999952
40
0.249999999999952
40
0.312499999999941
40
0.312499999999941
40
0.37499999999993
40
0.37499999999993
40
0.499999999999939
40
0.624999999999947
40
0.624999999999947
40
0.749999999999956
40
0.749999999999956
40
1
40
1
40
1
40
1
41
1
10
12.4941792670505
20
-5.78750000000008
30
0
41
1
10
12.4393043579057
20
-5.78750000000008
30
0
41
1
10
12.3850273846237
20
-5.78230529646464
30
0
41
1
10
12.3179763941448
20
-5.76890320958483
30
0
41
1
10
12.3046063385323
20
-5.76587404527365
30
0
41
1
10
12.2779493857602
20
-5.75909325871496
30
0
41
1
10
12.2646481571532
20
-5.75533425441961
30
0
41
1
10
12.2254144892254
20
-5.74311090071316
30
0
41
1
10
12.1745267730678
20
-5.72421249421512
30
0
41
1
10
12.1264496758147
20
-5.70018057948928
30
0
41
1
10
12.0798038697946
20
-5.6735344557332
30
0
41
1
10
12.0571600669173
20
-5.65887807692963
30
0
41
1
10
11.9917132832714
20
-5.61095038848305
30
0
41
1
10
11.9526632185932
20
-5.57473574012584
30
0
41
1
10
11.918101865211
20
-5.53434422853664
30
0
0
SPLINE
5
128
100
AcDbEntity
8
1
62
256
6
ByLayer
370
18
48
1
60
0
100
AcDbSpline
70
4
71
3
72
40
73
36
40
0
40
0
40
0
40
0
40
0.0624999999999849
40
0.0624999999999849
40
0.0937499999999862
40
0.0937499999999862
40
0.124999999999988
40
0.124999999999988
40
0.187499999999986
40
0.187499999999986
40
0.249999999999985
40
0.249999999999985
40
0.312499999999984
40
0.312499999999984
40
0.374999999999983
40
0.374999999999983
40
0.437499999999982
40
0.437499999999982
40
0.499999999999981
40
0.499999999999981
40
0.624999999999981
40
0.624999999999981
40
0.68749999999998
40
0.68749999999998
40
0.749999999999978
40
0.749999999999978
40
0.812499999999977
40
0.812499999999977
40
0.874999999999975
40
0.874999999999975
40
0.906249999999982
40
0.906249999999982
40
0.937499999999989
40
0.937499999999989
40
1
40
1
40
1
40
1
41
1
10
9.48226106239846
20
1.46526395172384
30
0
41
1
10
9.46607775444508
20
1.45697517434948
30
0
41
1
10
9.45159378549408
20
1.44641030987645
30
0
41
1
10
9.43157918469367
20
1.42825795535296
30
0
41
1
10
9.42520662063933
20
1.42180925926706
30
0
41
1
10
9.41314784587345
20
1.40841111947336
30
0
41
1
10
9.40743497112189
20
1.40143769701737
30
0
41
1
10
9.39112457517282
20
1.37979584498754
30
0
41
1
10
9.38146014038242
20
1.36456531286427
30
0
41
1
10
9.36410703114078
20
1.33290074023685
30
0
41
1
10
9.35645125229766
20
1.31650442766406
30
0
41
1
10
9.3430039777916
20
1.2830144549157
30
0
41
1
10
9.33718023458584
20
1.26582676164881
30
0
41
1
10
9.32729309294399
20
1.23104050704092
30
0
41
1
10
9.32321990103227
20
1.21342899364879
30
0
41
1
10
9.31670803732104
20
1.17779177601497
30
0
41
1
10
9.31427733239761
20
1.15977546104185
30
0
41
1
10
9.31105075335722
20
1.12370084791783
30
0
41
1
10
9.31024589580363
20
1.10559653824524
30
0
41
1
10
9.31025245887005
20
1.05108614703681
30
0
41
1
10
9.31344423049617
20
1.0150731520923
30
0
41
1
10
9.32322133316086
20
0.961561558287627
30
0
41
1
10
9.32730719884381
20
0.943905208735458
30
0
41
1
10
9.33718710006079
20
0.909153748191926
30
0
41
1
10
9.34300111239466
20
0.891989463646638
30
0
41
1
10
9.35647828535747
20
0.858431470819454
30
0
41
1
10
9.36414432034152
20
0.842023919282468
30
0
41
1
10
9.38150094168378
20
0.810367567197261
30
0
41
1
10
9.39120832978537
20
0.795083591141037
30
0
41
1
10
9.40748816079326
20
0.773496484384395
30
0
41
1
10
9.41319529724865
20
0.766532766002996
30
0
41
1
10
9.42525710711729
20
0.75313806713342
30
0
41
1
10
9.43163364628251
20
0.746689984910262
30
0
41
1
10
9.45160552610182
20
0.72858439713022
30
0
41
1
10
9.46606983535762
20
0.71802888165405
30
0
41
1
10
9.48226106239846
20
0.709736048276227
30
0
0
SPLINE
5
129
100
AcDbEntity
8
1
62
256
6
ByLayer
370
18
48
1
60
0
100
AcDbSpline
70
4
71
3
72
8
73
4
40
0
40
0
40
0
40
0
40
1
40
1
40
1
40
1
41
1
10
9.48226106239846
20
0.709736048276227
30
0
41
1
10
9.48901737148643
20
0.706275597417601
30
0
41
1
10
9.49577373225057
20
0.702815605698589
30
0
41
1
10
9.50253014159088
20
0.699356055891627
30
0
0
SPLINE
5
12A
100
AcDbEntity
8
1
62
256
6
ByLayer
370
18
48
1
60
0
100
AcDbSpline
70
4
71
3
72
8
73
4
40
0
40
0
40
0
40
0
40
1
40
1
40
1
40
1
41
1
10
9.50253014159088
20
1.47564394410844
30
0
41
1
10
9.49577373225057
20
1.47218439430148
30
0
41
1
10
9.48901737148643
20
1.46872440258247
30
0
41
1
10
9.48226106239846
20
1.46526395172384
30
0
0
SPLINE
5
12B
100
AcDbEntity
8
1
62
256
6
ByLayer
370
18
48
1
60
0
100
AcDbSpline
70
4
71
3
72
31
73
27
40
0
40
0
40
0
40
0
40
0.250000000000005
40
0.250000000000005
40
0.375000000000004
40
0.375000000000004
40
0.500000000000003
40
0.500000000000003
40
0.562500000000003
40
0.562500000000003
40
0.625000000000003
40
0.625000000000003
40
0.687500000000003
40
0.687500000000003
40
0.750000000000003
40
0.750000000000003
40
0.781250000000004
40
0.781250000000004
40
0.812500000000004
40
0.843750000000004
40
0.843750000000004
40
0.875000000000004
40
0.875000000000004
40
0.937500000000002
40
0.937500000000002
40
1
40
1
40
1
40
1
41
1
10
9.55535134060904
20
0.249300000000034
30
0
41
1
10
9.57505356005839
20
0.287599657950636
30
0
41
1
10
9.59159729387372
20
0.327855882046606
30
0
41
1
10
9.61029978636691
20
0.390169247928242
30
0
41
1
10
9.61551276288554
20
0.411297936075329
30
0
41
1
10
9.6233750157138
20
0.454063839196863
30
0
41
1
10
9.62603671919555
20
0.475724249642582
30
0
41
1
10
9.62743706295456
20
0.508388211548947
30
0
41
1
10
9.62746755193999
20
0.519326116591202
30
0
41
1
10
9.62647719404205
20
0.541122110614225
30
0
41
1
10
9.62545109325882
20
0.552048901375827
30
0
41
1
10
9.622129282711
20
0.573582045228903
30
0
41
1
10
9.61984458867016
20
0.584163433141555
30
0
41
1
10
9.61374254297743
20
0.604864556229245
30
0
41
1
10
9.60993039481397
20
0.614985922485346
30
0
41
1
10
9.60269711350495
20
0.629705690224057
30
0
41
1
10
9.60001023551152
20
0.634566114578433
30
0
41
1
10
9.59414905415065
20
0.64391294074747
30
0
41
1
10
9.58781203293464
20
0.652883903535781
30
0
41
1
10
9.5804437409148
20
0.661038223263745
30
0
41
1
10
9.57250587163168
20
0.668740526729891
30
0
41
1
10
9.56824312669022
20
0.672363054072719
30
0
41
1
10
9.55495492212529
20
0.682179145121495
30
0
41
1
10
9.54531411581652
20
0.68745261023119
30
0
41
1
10
9.52446224665539
20
0.695443533132845
30
0
41
1
10
9.51363930473966
20
0.698012668063626
30
0
41
1
10
9.50253014159088
20
0.699356055891627
30
0
0
SPLINE
5
12C
100
AcDbEntity
8
1
62
256
6
ByLayer
370
18
48
1
60
0
100
AcDbSpline
70
4
71
3
72
32
73
28
40
0
40
0
40
0
40
0
40
0.124999999999986
40
0.124999999999986
40
0.249999999999972
40
0.249999999999972
40
0.374999999999958
40
0.374999999999958
40
0.499999999999944
40
0.499999999999944
40
0.562499999999934
40
0.562499999999934
40
0.624999999999924
40
0.624999999999924
40
0.687499999999913
40
0.687499999999913
40
0.749999999999903
40
0.749999999999903
40
0.812499999999893
40
0.812499999999893
40
0.843749999999901
40
0.843749999999901
40
0.87499999999991
40
0.87499999999991
40
0.937499999999955
40
0.937499999999955
40
1
40
1
40
1
40
1
41
1
10
9.55535134060904
20
1.92570000000004
30
0
41
1
10
9.56520926801838
20
1.90653691794978
30
0
41
1
10
9.5742323564844
20
1.88694603427081
30
0
41
1
10
9.59054100333009
20
1.84687832340336
30
0
41
1
10
9.59781811120371
20
1.82641517171697
30
0
41
1
10
9.61030183932158
20
1.78482620346455
30
0
41
1
10
9.61551411862499
20
1.76370222244117
30
0
41
1
10
9.6233858377673
20
1.72086975079338
30
0
41
1
10
9.62604374747272
20
1.69923026636721
30
0
41
1
10
9.62743960229713
20
1.66649294388168
30
0
41
1
10
9.62746618901835
20
1.65558944188302
30
0
41
1
10
9.62647155682257
20
1.63380865588354
30
0
41
1
10
9.62544550103294
20
1.62289003295456
30
0
41
1
10
9.62210584118796
20
1.60129103036687
30
0
41
1
10
9.61980578690839
20
1.59066054405133
30
0
41
1
10
9.61363815993539
20
1.56982675805537
30
0
41
1
10
9.60976055293597
20
1.55958970372382
30
0
41
1
10
9.59997174583879
20
1.53983091984978
30
0
41
1
10
9.59417344917912
20
1.5305314188615
30
0
41
1
10
9.58380154270381
20
1.51766290724726
30
0
41
1
10
9.58004904456968
20
1.51354830727891
30
0
41
1
10
9.57213678632328
20
1.50593492487999
30
0
41
1
10
9.56795643402992
20
1.50240708021721
30
0
41
1
10
9.55472223603149
20
1.49268684134395
30
0
41
1
10
9.54481103931789
20
1.48732136881651
30
0
41
1
10
9.52428721835514
20
1.47952373945708
30
0
41
1
10
9.51359800868192
20
1.47698233816504
30
0
41
1
10
9.50253014159088
20
1.47564394410844
30
0
0
SPLINE
5
12D
100
AcDbEntity
8
1
62
256
6
ByLayer
370
18
48
1
60
0
100
AcDbSpline
70
4
71
3
72
8
73
4
40
0
40
0
40
0
40
0
40
1
40
1
40
1
40
1
41
1
10
9.13744053750472
20
2.13556955824293
30
0
41
1
10
9.1443271815148
20
2.13877664764911
30
0
41
1
10
9.15121385990795
20
2.14198331153216
30
0
41
1
10
9.15810057023302
20
2.14518956585837
30
0
0
SPLINE
5
12E
100
AcDbEntity
8
1
62
256
6
ByLayer
370
18
48
1
60
0
100
AcDbSpline
70
4
71
3
72
31
73
27
40
0
40
0
40
0
40
0
40
0.249999999999944
40
0.249999999999944
40
0.374999999999905
40
0.374999999999905
40
0.499999999999866
40
0.499999999999866
40
0.562499999999863
40
0.562499999999863
40
0.624999999999861
40
0.624999999999861
40
0.687499999999859
40
0.687499999999859
40
0.749999999999856
40
0.749999999999856
40
0.781249999999874
40
0.781249999999874
40
0.812499999999892
40
0.843749999999909
40
0.843749999999909
40
0.874999999999927
40
0.874999999999927
40
0.937499999999963
40
0.937499999999963
40
1
40
1
40
1
40
1
41
1
10
9.55535134060904
20
1.92570000000004
30
0
41
1
10
9.53564912115968
20
1.96399965795064
30
0
41
1
10
9.51261970125293
20
2.00067071889865
30
0
41
1
10
9.47307641554556
20
2.05158283951016
30
0
41
1
10
9.4590310321112
20
2.06789097926895
30
0
41
1
10
9.42906129711059
20
2.098667663426
30
0
41
1
10
9.41312577588204
20
2.11315888285461
30
0
41
1
10
9.38757086365814
20
2.13289394567585
30
0
41
1
10
9.37875769257695
20
2.13914746195812
30
0
41
1
10
9.36057654012095
20
2.15076910157609
30
0
41
1
10
9.35115001420684
20
2.156172116194
30
0
41
1
10
9.33180076287979
20
2.16579513224693
30
0
41
1
10
9.32190474213536
20
2.17000960071212
30
0
41
1
10
9.30156568740182
20
2.17698417060436
30
0
41
1
10
9.29112453971044
20
2.17974908932371
30
0
41
1
10
9.27491937422448
20
2.18247000109989
30
0
41
1
10
9.26938815891788
20
2.18313875818987
30
0
41
1
10
9.25833067992113
20
2.18389315044317
30
0
41
1
10
9.24728662882103
20
2.18407248488313
30
0
41
1
10
9.2362708132552
20
2.1830085021115
30
0
41
1
10
9.22527016161254
20
2.1812600211093
30
0
41
1
10
9.21977401095322
20
2.18003514329166
30
0
41
1
10
9.20382158803164
20
2.17539809575257
30
0
41
1
10
9.19372576346103
20
2.1710091525027
30
0
41
1
10
9.17461542101532
20
2.15963283042387
30
0
41
1
10
9.16595626528678
20
2.15285745512196
30
0
41
1
10
9.15810057023302
20
2.14518956585837
30
0
0
SPLINE
5
12F
100
AcDbEntity
8
1
62
256
6
ByLayer
370
18
48
1
60
0
100
AcDbSpline
70
4
71
3
72
8
73
4
40
0
40
0
40
0
40
0
40
1
40
1
40
1
40
1
41
1
10
8.5544493040174
20
2.51333350996677
30
0
41
1
10
8.55599554298016
20
2.52000105023154
30
0
41
1
10
8.55754252490169
20
2.5266677058336
30
0
41
1
10
8.55909022074414
20
2.53333350996675
30
0
0
SPLINE
5
130
100
AcDbEntity
8
1
62
256
6
ByLayer
370
18
48
1
60
0
100
AcDbSpline
70
4
71
3
72
40
73
36
40
0
40
0
40
0
40
0
40
0.0312500000000199
40
0.0312500000000199
40
0.0625000000000397
40
0.0625000000000397
40
0.125000000000079
40
0.125000000000079
40
0.156250000000087
40
0.156250000000087
40
0.187500000000094
40
0.187500000000094
40
0.250000000000085
40
0.250000000000085
40
0.312500000000076
40
0.312500000000076
40
0.375000000000068
40
0.375000000000068
40
0.500000000000046
40
0.500000000000046
40
0.625000000000025
40
0.625000000000025
40
0.687500000000019
40
0.687500000000019
40
0.750000000000013
40
0.750000000000013
40
0.812500000000008
40
0.812500000000008
40
0.875000000000002
40
0.875000000000002
40
0.906250000000002
40
0.906250000000002
40
0.937500000000002
40
0.937500000000002
40
1
40
1
40
1
40
1
41
1
10
9.13744053750472
20
2.13556955824293
30
0
41
1
10
9.12915616517961
20
2.13171155096367
30
0
41
1
10
9.12062870441346
20
2.12848808051143
30
0
41
1
10
9.10317737824434
20
2.1230741008147
30
0
41
1
10
9.09426475789957
20
2.12089458832452
30
0
41
1
10
9.06753461045804
20
2.11575329894569
30
0
41
1
10
9.04954049391478
20
2.11410492650572
30
0
41
1
10
9.02236353191816
20
2.11358011744727
30
0
41
1
10
9.01326554410556
20
2.11373955606928
30
0
41
1
10
8.99527285363715
20
2.11463631705507
30
0
41
1
10
8.98634325792844
20
2.11537239919167
30
0
41
1
10
8.95973510782571
20
2.11834037322677
30
0
41
1
10
8.94223580929472
20
2.12132552576284
30
0
41
1
10
8.90766198552333
20
2.12899497576217
30
0
41
1
10
8.8905133842996
20
2.13371248554466
30
0
41
1
10
8.85725919877237
20
2.14449334074971
30
0
41
1
10
8.84109077319991
20
2.15056450564012
30
0
41
1
10
8.79386467580215
20
2.17061873581932
30
0
41
1
10
8.76406967686313
20
2.18641212278223
30
0
41
1
10
8.70787027189928
20
2.22273501770061
30
0
41
1
10
8.68194690276678
20
2.24298611561841
30
0
41
1
10
8.64701713040276
20
2.27625000357111
30
0
41
1
10
8.63606601193177
20
2.28779372467284
30
0
41
1
10
8.61569669981941
20
2.31178163658495
30
0
41
1
10
8.60624267819114
20
2.324269327942
30
0
41
1
10
8.58910776833233
20
2.35016971744065
30
0
41
1
10
8.58141912211028
20
2.36358965734016
30
0
41
1
10
8.56820076914346
20
2.39133560114851
30
0
41
1
10
8.56265546674658
20
2.40568924578716
30
0
41
1
10
8.55641918878419
20
2.42786169119097
30
0
41
1
10
8.55469043010061
20
2.43535080097487
30
0
41
1
10
8.55203489224053
20
2.45056465478467
30
0
41
1
10
8.55110866018293
20
2.45831396116569
30
0
41
1
10
8.54977938471421
20
2.48162670698028
30
0
41
1
10
8.5507395089833
20
2.49733649504213
30
0
41
1
10
8.5544493040174
20
2.51333350996677
30
0
0
SPLINE
5
131
100
AcDbEntity
8
1
62
256
6
ByLayer
370
18
48
1
60
0
100
AcDbSpline
70
4
71
3
72
40
73
36
40
0
40
0
40
0
40
0
40
0.0625000000000004
40
0.0625000000000004
40
0.0937499999999889
40
0.0937499999999889
40
0.124999999999978
40
0.124999999999978
40
0.187499999999979
40
0.187499999999979
40
0.249999999999981
40
0.249999999999981
40
0.312499999999983
40
0.312499999999983
40
0.374999999999985
40
0.374999999999985
40
0.437499999999987
40
0.437499999999987
40
0.499999999999988
40
0.499999999999988
40
0.624999999999997
40
0.624999999999997
40
0.687499999999999
40
0.687499999999999
40
0.750000000000001
40
0.750000000000001
40
0.812500000000004
40
0.812500000000004
40
0.875000000000006
40
0.875000000000006
40
0.906250000000005
40
0.906250000000005
40
0.937500000000003
40
0.937500000000003
40
1
40
1
40
1
40
1
41
1
10
9.13744053750472
20
0.0394304417571334
30
0
41
1
10
9.12094503984034
20
0.0471123454146323
30
0
41
1
10
9.10367353673979
20
0.0522584495938077
30
0
41
1
10
9.07698952182383
20
0.0574459561715344
30
0
41
1
10
9.06796290448105
20
0.058735368888847
30
0
41
1
10
9.0499373088237
20
0.0605344500188494
30
0
41
1
10
9.04090293558966
20
0.0610511249957426
30
0
41
1
10
9.0137454587647
20
0.061607053768256
30
0
41
1
10
8.99575883916063
20
0.0606598739041431
30
0
41
1
10
8.96008821006595
20
0.0567165422201299
30
0
41
1
10
8.94245426228417
20
0.0537160320995724
30
0
41
1
10
8.90783558142184
20
0.0460503561728274
30
0
41
1
10
8.89075708780456
20
0.0413596467455477
30
0
41
1
10
8.85742286608158
20
0.0305665112063593
30
0
41
1
10
8.84115072686004
20
0.0244641729421744
30
0
41
1
10
8.8093579307386
20
0.0109571270845947
30
0
41
1
10
8.79384972700834
20
0.0035517512457375
30
0
41
1
10
8.76388032906979
20
-0.0123596983713412
30
0
41
1
10
8.74937768483321
20
-0.0208828732818063
30
0
41
1
10
8.70731994037746
20
-0.0481423859244217
30
0
41
1
10
8.68164651793111
20
-0.0682411941447754
30
0
41
1
10
8.64680212407245
20
-0.101470490546973
30
0
41
1
10
8.6358686992339
20
-0.113010531336101
30
0
41
1
10
8.61554045830499
20
-0.136981465722954
30
0
41
1
10
8.60610543992681
20
-0.14946016946385
30
0
41
1
10
8.58900708933177
20
-0.175338733870063
30
0
41
1
10
8.58133504675945
20
-0.18874727110105
30
0
41
1
10
8.56814720445996
20
-0.216467098068705
30
0
41
1
10
8.56261528720009
20
-0.230807204936184
30
0
41
1
10
8.55639599616993
20
-0.252956727977022
30
0
41
1
10
8.55467227669766
20
-0.260438044127966
30
0
41
1
10
8.55202540730562
20
-0.275635930273324
30
0
41
1
10
8.55110286066412
20
-0.283376731209728
30
0
41
1
10
8.54978177390385
20
-0.306663096191471
30
0
41
1
10
8.55074380360594
20
-0.322355013893514
30
0
41
1
10
8.5544493040174
20
-0.338333509966702
30
0
0
SPLINE
5
132
100
AcDbEntity
8
1
62
256
6
ByLayer
370
18
48
1
60
0
100
AcDbSpline
70
4
71
3
72
8
73
4
40
0
40
0
40
0
40
0
40
1
40
1
40
1
40
1
41
1
10
8.5544493040174
20
-0.338333509966702
30
0
41
1
10
8.55599554298016
20
-0.345001050231474
30
0
41
1
10
8.55754252490169
20
-0.351667705833535
30
0
41
1
10
8.55909022074414
20
-0.358333509966684
30
0
0
SPLINE
5
133
100
AcDbEntity
8
1
62
256
6
ByLayer
370
18
48
1
60
0
100
AcDbSpline
70
4
71
3
72
32
73
28
40
0
40
0
40
0
40
0
40
0.125000000000012
40
0.125000000000012
40
0.250000000000024
40
0.250000000000024
40
0.375000000000037
40
0.375000000000037
40
0.500000000000049
40
0.500000000000049
40
0.562500000000052
40
0.562500000000052
40
0.625000000000055
40
0.625000000000055
40
0.687500000000058
40
0.687500000000058
40
0.750000000000062
40
0.750000000000062
40
0.812500000000065
40
0.812500000000065
40
0.843750000000067
40
0.843750000000067
40
0.875000000000068
40
0.875000000000068
40
0.937500000000034
40
0.937500000000034
40
1
40
1
40
1
40
1
41
1
10
9.55535134060904
20
0.249300000000034
30
0
41
1
10
9.54549341319969
20
0.230136917949778
30
0
41
1
10
9.53482656989132
20
0.211452030009866
30
0
41
1
10
9.51180919176289
20
0.175072855848129
30
0
41
1
10
9.49946498106073
20
0.157393614900798
30
0
41
1
10
9.47307391784963
20
0.123412862968934
30
0
41
1
10
9.45903193733241
20
0.107107986440582
30
0
41
1
10
9.42901396255837
20
0.076285694442106
30
0
41
1
10
9.41309315521781
20
0.0618095265250815
30
0
41
1
10
9.38747639297267
20
0.0420363185714621
30
0
41
1
10
9.37868871316098
20
0.0358055381019824
30
0
41
1
10
9.36051732102325
20
0.0241959727165124
30
0
41
1
10
9.35109741816686
20
0.0187975775363327
30
0
41
1
10
9.33168441491222
20
0.009151188898187
30
0
41
1
10
9.32173964528263
20
0.0049209137757771
30
0
41
1
10
9.30125436879146
20
-0.0020777523340314
30
0
41
1
10
9.29068072107637
20
-0.0048573060904005
30
0
41
1
10
9.26888009578826
20
-0.0084486087007463
30
0
41
1
10
9.25789995141557
20
-0.0092222365531143
30
0
41
1
10
9.2412789027224
20
-0.0085015953879122
30
0
41
1
10
9.23569941407612
20
-0.0079385298989223
30
0
41
1
10
9.22478555870794
20
-0.0061600303854448
30
0
41
1
10
9.21941537608799
20
-0.0049451279089112
30
0
41
1
10
9.20357253715744
20
-0.0002958941410895
30
0
41
1
10
9.19323817633781
20
0.0042469786502579
30
0
41
1
10
9.17448242981354
20
0.0154816139977925
30
0
41
1
10
9.16592706333594
20
0.0221710486991071
30
0
41
1
10
9.15810057023302
20
0.0298104341416945
30
0
0
SPLINE
5
134
100
AcDbEntity
8
1
62
256
6
ByLayer
370
18
48
1
60
0
100
AcDbSpline
70
4
71
3
72
8
73
4
40
0
40
0
40
0
40
0
40
1
40
1
40
1
40
1
41
1
10
9.15810057023302
20
0.0298104341416945
30
0
41
1
10
9.15121385990795
20
0.0330166884678817
30
0
41
1
10
9.1443271815148
20
0.0362233523509587
30
0
41
1
10
9.13744053750472
20
0.0394304417571334
30
0
0
SPLINE
5
135
100
AcDbEntity
8
1
62
256
6
ByLayer
370
18
48
1
60
0
100
AcDbSpline
70
4
71
3
72
31
73
27
40
0
40
0
40
0
40
0
40
0.249999999999975
40
0.249999999999975
40
0.374999999999963
40
0.374999999999963
40
0.499999999999951
40
0.499999999999951
40
0.56249999999996
40
0.56249999999996
40
0.624999999999969
40
0.624999999999969
40
0.687499999999979
40
0.687499999999979
40
0.749999999999988
40
0.749999999999988
40
0.781249999999991
40
0.781249999999991
40
0.812499999999993
40
0.843749999999996
40
0.843749999999996
40
0.874999999999998
40
0.874999999999998
40
0.937499999999999
40
0.937499999999999
40
1
40
1
40
1
40
1
41
1
10
8.26178362542817
20
2.76390000000004
30
0
41
1
10
8.30118806432688
20
2.76390000000004
30
0
41
1
10
8.3402848098051
20
2.76031483685205
30
0
41
1
10
8.39690778313934
20
2.74891359158195
30
0
41
1
10
8.41546964004286
20
2.74409304319363
30
0
41
1
10
8.45149917918755
20
2.73210382422914
30
0
41
1
10
8.46899148860817
20
2.72493463321206
30
0
41
1
10
8.49384584215852
20
2.71200573412691
30
0
41
1
10
8.50191279614822
20
2.70732134536692
30
0
41
1
10
8.51736871621478
20
2.6971469909619
30
0
41
1
10
8.52480516305155
20
2.69162321481818
30
0
41
1
10
8.53868733584127
20
2.67971308701803
30
0
41
1
10
8.54512123848693
20
2.6733461675706
30
0
41
1
10
8.55672957637358
20
2.65961961437512
30
0
41
1
10
8.56190841510838
20
2.65226316683834
30
0
41
1
10
8.56841980452788
20
2.64026431087584
30
0
41
1
10
8.5703895293631
20
2.63607264361144
30
0
41
1
10
8.57375671342012
20
2.62748020969571
30
0
41
1
10
8.57655727125552
20
2.6186883943835
30
0
41
1
10
8.57812575700999
20
2.60947027884774
30
0
41
1
10
8.57901182822147
20
2.60001949437941
30
0
41
1
10
8.57910621015347
20
2.59517208921895
30
0
41
1
10
8.57830265202546
20
2.58071895063105
30
0
41
1
10
8.57634520041242
20
2.57105654227152
30
0
41
1
10
8.56956699812423
20
2.55168929729101
30
0
41
1
10
8.56487270758592
20
2.54234478705834
30
0
41
1
10
8.55909022074414
20
2.53333350996675
30
0
0
SPLINE
5
136
100
AcDbEntity
8
1
62
256
6
ByLayer
370
18
48
1
60
0
100
AcDbSpline
70
4
71
3
72
31
73
27
40
0
40
0
40
0
40
0
40
0.249999999999985
40
0.249999999999985
40
0.374999999999983
40
0.374999999999983
40
0.499999999999981
40
0.499999999999981
40
0.562499999999993
40
0.562499999999993
40
0.625000000000005
40
0.625000000000005
40
0.687500000000016
40
0.687500000000016
40
0.750000000000028
40
0.750000000000028
40
0.781250000000024
40
0.781250000000024
40
0.812500000000021
40
0.843750000000017
40
0.843750000000017
40
0.875000000000013
40
0.875000000000013
40
0.937500000000007
40
0.937500000000007
40
1
40
1
40
1
40
1
41
1
10
8.26178362542817
20
-0.588899999999967
30
0
41
1
10
8.30118806432688
20
-0.588899999999967
30
0
41
1
10
8.3402848098051
20
-0.585314836852007
30
0
41
1
10
8.39690778313931
20
-0.573913591581913
30
0
41
1
10
8.41546964004286
20
-0.569093043193561
30
0
41
1
10
8.45149917918752
20
-0.557103824229074
30
0
41
1
10
8.46899148860811
20
-0.54993463321199
30
0
41
1
10
8.49384584215852
20
-0.537005734126865
30
0
41
1
10
8.50191279614819
20
-0.532321345366853
30
0
41
1
10
8.51736871621475
20
-0.522146990961858
30
0
41
1
10
8.5248051630515
20
-0.516623214818139
30
0
41
1
10
8.53868733584127
20
-0.504713087017961
30
0
41
1
10
8.54512123848693
20
-0.49834616757056
30
0
41
1
10
8.55672957637358
20
-0.484619614375077
30
0
41
1
10
8.56190841510838
20
-0.477263166838327
30
0
41
1
10
8.56841980452785
20
-0.465264310875796
30
0
41
1
10
8.5703895293631
20
-0.461072643611402
30
0
41
1
10
8.57375671342012
20
-0.452480209695665
30
0
41
1
10
8.57655727125552
20
-0.443688394383486
30
0
41
1
10
8.57812575700999
20
-0.434470278847698
30
0
41
1
10
8.57901182822147
20
-0.425019494379399
30
0
41
1
10
8.57910621015347
20
-0.420172089218937
30
0
41
1
10
8.57830265202546
20
-0.405718950631041
30
0
41
1
10
8.57634520041242
20
-0.396056542271481
30
0
41
1
10
8.56956699812429
20
-0.376689297290994
30
0
41
1
10
8.56487270758595
20
-0.3673447870583
30
0
41
1
10
8.55909022074414
20
-0.358333509966684
30
0
0
SPLINE
5
137
100
AcDbEntity
8
1
62
256
6
ByLayer
370
18
48
1
60
0
100
AcDbSpline
70
4
71
3
72
42
73
38
40
0
40
0
40
0
40
0
40
0.0625000000000074
40
0.0625000000000074
40
0.0937500000000074
40
0.0937500000000074
40
0.125000000000007
40
0.125000000000007
40
0.18750000000001
40
0.18750000000001
40
0.250000000000012
40
0.250000000000012
40
0.312500000000014
40
0.312500000000014
40
0.375000000000017
40
0.375000000000017
40
0.437500000000019
40
0.437500000000019
40
0.500000000000022
40
0.500000000000022
40
0.562500000000024
40
0.562500000000024
40
0.625000000000027
40
0.625000000000027
40
0.750000000000043
40
0.750000000000043
40
0.781250000000035
40
0.781250000000035
40
0.812500000000026
40
0.812500000000026
40
0.87500000000001
40
0.87500000000001
40
0.906250000000001
40
0.906250000000001
40
0.937499999999993
40
0.937499999999993
40
1
40
1
40
1
40
1
41
1
10
7.86480825422987
20
2.51333350996677
30
0
41
1
10
7.86047577017448
20
2.49734653166746
30
0
41
1
10
7.85392479673456
20
2.48161978356509
30
0
41
1
10
7.84189900415464
20
2.4582565868551
30
0
41
1
10
7.83751029321488
20
2.4505111930344
30
0
41
1
10
7.82821513226767
20
2.4352998010161
30
0
41
1
10
7.82329278729699
20
2.42780277394957
30
0
41
1
10
7.80781877169602
20
2.40558458059118
30
0
41
1
10
7.79667813003769
20
2.39128975753448
30
0
41
1
10
7.77320793919003
20
2.36354530971184
30
0
41
1
10
7.76090624361072
20
2.35013979616031
30
0
41
1
10
7.73559660711865
20
2.32429651464545
30
0
41
1
10
7.72251733743448
20
2.31179075690761
30
0
41
1
10
7.69594189559371
20
2.28778317408907
30
0
41
1
10
7.68243513221151
20
2.27626743862564
30
0
41
1
10
7.65504571016169
20
2.25412564270133
30
0
41
1
10
7.64117152559459
20
2.24351083809404
30
0
41
1
10
7.61335901500516
20
2.22334148687017
30
0
41
1
10
7.59938381718635
20
2.2137571243623
30
0
41
1
10
7.57131486932192
20
2.19558974058998
30
0
41
1
10
7.55731788868974
20
2.18706920227618
30
0
41
1
10
7.52939064186251
20
2.17116341868359
30
0
41
1
10
7.51541073006464
20
2.16375551369654
30
0
41
1
10
7.47404858091724
20
2.14358825932092
30
0
41
1
10
7.44717264767442
20
2.13276753279206
30
0
41
1
10
7.41431839743424
20
2.12322458160193
30
0
41
1
10
7.40778475661497
20
2.12152004560033
30
0
41
1
10
7.39478951180507
20
2.11856239684039
30
0
41
1
10
7.38831520264327
20
2.11730853403958
30
0
41
1
10
7.36924528556497
20
2.11434652308594
30
0
41
1
10
7.35692579061853
20
2.11340417376121
30
0
41
1
10
7.33909661105199
20
2.11393420474329
30
0
41
1
10
7.33326265001116
20
2.11443749257779
30
0
41
1
10
7.32183809467764
20
2.11621877639493
30
0
41
1
10
7.31622498500505
20
2.11750675723647
30
0
41
1
10
7.3001506112391
20
2.12268702842658
30
0
41
1
10
7.29033418818892
20
2.12783916442623
30
0
41
1
10
7.28181702074255
20
2.13556955824293
30
0
0
SPLINE
5
138
100
AcDbEntity
8
1
62
256
6
ByLayer
370
18
48
1
60
0
100
AcDbSpline
70
4
71
3
72
8
73
4
40
0
40
0
40
0
40
0
40
1
40
1
40
1
40
1
41
1
10
7.87023107802844
20
2.53333350996675
30
0
41
1
10
7.86842278021646
20
2.5266677058336
30
0
41
1
10
7.86661516303687
20
2.52000105023154
30
0
41
1
10
7.86480825422987
20
2.51333350996677
30
0
0
SPLINE
5
139
100
AcDbEntity
8
1
62
256
6
ByLayer
370
18
48
1
60
0
100
AcDbSpline
70
4
71
3
72
32
73
28
40
0
40
0
40
0
40
0
40
0.124999999999993
40
0.124999999999993
40
0.249999999999985
40
0.249999999999985
40
0.374999999999977
40
0.374999999999977
40
0.49999999999997
40
0.49999999999997
40
0.562499999999983
40
0.562499999999983
40
0.624999999999996
40
0.624999999999996
40
0.687500000000009
40
0.687500000000009
40
0.750000000000023
40
0.750000000000023
40
0.812500000000036
40
0.812500000000036
40
0.843750000000032
40
0.843750000000032
40
0.875000000000028
40
0.875000000000028
40
0.937500000000014
40
0.937500000000014
40
1
40
1
40
1
40
1
41
1
10
8.26178362542817
20
2.76390000000004
30
0
41
1
10
8.24206777060942
20
2.76390000000004
30
0
41
1
10
8.22225505878814
20
2.76299400426095
30
0
41
1
10
8.18242086955578
20
2.75930546755527
30
0
41
1
10
8.16241416053805
20
2.75652155681621
30
0
41
1
10
8.12245646222229
20
2.74891334049565
30
0
41
1
10
8.10250593804554
20
2.74409423600062
30
0
41
1
10
8.06281058269835
20
2.73208405635128
30
0
41
1
10
8.04312787744672
20
2.72492073984216
30
0
41
1
10
8.01400836191283
20
2.71195662531022
30
0
41
1
10
8.00441918097036
20
2.70728390378105
30
0
41
1
10
7.98550787140644
20
2.69711268316706
30
0
41
1
10
7.97615064200804
20
2.69159245541826
30
0
41
1
10
7.95792401376607
20
2.67963984146871
30
0
41
1
10
7.94909550884859
20
2.67323963027559
30
0
41
1
10
7.93212706043798
20
2.65940451038941
30
0
41
1
10
7.92395985548839
20
2.65194700981422
30
0
41
1
10
7.90862870394818
20
2.63577952855053
30
0
41
1
10
7.90163649173917
20
2.62725365541465
30
0
41
1
10
7.89237672812425
20
2.61366450263517
30
0
41
1
10
7.88949319126201
20
2.60898683717784
30
0
41
1
10
7.8843256354161
20
2.59959495526547
30
0
41
1
10
7.88202020393013
20
2.59485220812613
30
0
41
1
10
7.87596102227906
20
2.58048273548505
30
0
41
1
10
7.87306069836083
20
2.57057439016629
30
0
41
1
10
7.86987493702273
20
2.55154212545932
30
0
41
1
10
7.86950932167358
20
2.54231128946597
30
0
41
1
10
7.87023107802844
20
2.53333350996675
30
0
0
SPLINE
5
13A
100
AcDbEntity
8
1
62
256
6
ByLayer
370
18
48
1
60
0
100
AcDbSpline
70
4
71
3
72
8
73
4
40
0
40
0
40
0
40
0
40
1
40
1
40
1
40
1
41
1
10
7.27122072853953
20
2.14518956585837
30
0
41
1
10
7.27475144521017
20
2.14198331153216
30
0
41
1
10
7.2782835245022
20
2.13877664764911
30
0
41
1
10
7.28181702074255
20
2.13556955824293
30
0
0
SPLINE
5
13B
100
AcDbEntity
8
1
62
256
6
ByLayer
370
18
48
1
60
0
100
AcDbSpline
70
4
71
3
72
40
73
36
40
0
40
0
40
0
40
0
40
0.0624999999999908
40
0.0624999999999908
40
0.0937499999999887
40
0.0937499999999887
40
0.124999999999987
40
0.124999999999987
40
0.187499999999991
40
0.187499999999991
40
0.249999999999996
40
0.249999999999996
40
0.3125
40
0.3125
40
0.375000000000005
40
0.375000000000005
40
0.437500000000009
40
0.437500000000009
40
0.500000000000014
40
0.500000000000014
40
0.625000000000025
40
0.625000000000025
40
0.687500000000022
40
0.687500000000022
40
0.75000000000002
40
0.75000000000002
40
0.812500000000017
40
0.812500000000017
40
0.875000000000015
40
0.875000000000015
40
0.906250000000013
40
0.906250000000013
40
0.937500000000012
40
0.937500000000012
40
1
40
1
40
1
40
1
41
1
10
7.86480825422987
20
-0.338333509966702
30
0
41
1
10
7.86048018674714
20
-0.322362828934814
30
0
41
1
10
7.85393803863258
20
-0.306651860282642
30
0
41
1
10
7.84192915368911
20
-0.283311999181393
30
0
41
1
10
7.83754649975478
20
-0.275573890378183
30
0
41
1
10
7.82826419035135
20
-0.260376669454473
30
0
41
1
10
7.8233486838524
20
-0.252886572021595
30
0
41
1
10
7.80789623530498
20
-0.230688791219251
30
0
41
1
10
7.79677004760032
20
-0.216405438960095
30
0
41
1
10
7.77333131851063
20
-0.188684198016688
30
0
41
1
10
7.76104494670517
20
-0.175288395564451
30
0
41
1
10
7.73576747547531
20
-0.149464098742868
30
0
41
1
10
7.72270470784053
20
-0.136967114903228
30
0
41
1
10
7.69616085935178
20
-0.112973995834523
30
0
41
1
10
7.68267012059485
20
-0.101464820706582
30
0
41
1
10
7.65531325754117
20
-0.0793346489303701
30
0
41
1
10
7.64145406883833
20
-0.0687237097960747
30
0
41
1
10
7.61367184970439
20
-0.048560546289167
30
0
41
1
10
7.59971344419685
20
-0.0389794115270092
30
0
41
1
10
7.55765125817464
20
-0.0117285329612002
30
0
41
1
10
7.52982517078451
20
0.0041856537629599
30
0
41
1
10
7.48832054471612
20
0.024467951165434
30
0
41
1
10
7.47459702815536
20
0.0305842599284745
30
0
41
1
10
7.44748333974511
20
0.041364786085154
30
0
41
1
10
7.43403936080418
20
0.0460503668895456
30
0
41
1
10
7.40757895868816
20
0.0537297953105167
30
0
41
1
10
7.394552019597
20
0.0567288096165157
30
0
41
1
10
7.36912950322065
20
0.0606653347340966
30
0
41
1
10
7.3567062551065
20
0.0616092039228135
30
0
41
1
10
7.33880342337008
20
0.0610467876386167
30
0
41
1
10
7.3329648797492
20
0.0605291898690439
30
0
41
1
10
7.32157226960277
20
0.0587260025932892
30
0
41
1
10
7.31600267397803
20
0.0574332838800444
30
0
41
1
10
7.30003743861681
20
0.0522525066783146
30
0
41
1
10
7.29028490448363
20
0.0471161044524706
30
0
41
1
10
7.28181702074258
20
0.0394304417571334
30
0
0
SPLINE
5
13C
100
AcDbEntity
8
1
62
256
6
ByLayer
370
18
48
1
60
0
100
AcDbSpline
70
4
71
3
72
8
73
4
40
0
40
0
40
0
40
0
40
1
40
1
40
1
40
1
41
1
10
7.28181702074258
20
0.0394304417571334
30
0
41
1
10
7.27828352450223
20
0.0362233523509587
30
0
41
1
10
7.2747514452102
20
0.0330166884678817
30
0
41
1
10
7.27122072853956
20
0.0298104341416945
30
0
0
SPLINE
5
13D
100
AcDbEntity
8
1
62
256
6
ByLayer
370
18
48
1
60
0
100
AcDbSpline
70
4
71
3
72
32
73
28
40
0
40
0
40
0
40
0
40
0.124999999999987
40
0.124999999999987
40
0.249999999999973
40
0.249999999999973
40
0.37499999999996
40
0.37499999999996
40
0.499999999999947
40
0.499999999999947
40
0.562499999999942
40
0.562499999999942
40
0.624999999999937
40
0.624999999999937
40
0.687499999999932
40
0.687499999999932
40
0.749999999999927
40
0.749999999999927
40
0.812499999999923
40
0.812499999999923
40
0.843749999999933
40
0.843749999999933
40
0.874999999999943
40
0.874999999999943
40
0.937499999999971
40
0.937499999999971
40
1
40
1
40
1
40
1
41
1
10
8.26178362542817
20
-0.588899999999967
30
0
41
1
10
8.24206777060945
20
-0.588899999999967
30
0
41
1
10
8.22225505878814
20
-0.587994004260906
30
0
41
1
10
8.18242086955581
20
-0.584305467555197
30
0
41
1
10
8.16241416053805
20
-0.581521556816142
30
0
41
1
10
8.12245646222229
20
-0.573913340495608
30
0
41
1
10
8.10250593804554
20
-0.569094236000552
30
0
41
1
10
8.06281058269838
20
-0.557084056351215
30
0
41
1
10
8.04312787744672
20
-0.549920739842094
30
0
41
1
10
8.0140083619128
20
-0.536956625310182
30
0
41
1
10
8.00441918097036
20
-0.532283903781007
30
0
41
1
10
7.98550787140644
20
-0.522112683166995
30
0
41
1
10
7.97615064200804
20
-0.516592455418191
30
0
41
1
10
7.95792401376605
20
-0.504639841468645
30
0
41
1
10
7.94909550884856
20
-0.49823963027552
30
0
41
1
10
7.93212706043801
20
-0.484404510389368
30
0
41
1
10
7.92395985548842
20
-0.476947009814182
30
0
41
1
10
7.90862870394818
20
-0.460779528550461
30
0
41
1
10
7.9016364917392
20
-0.452253655414609
30
0
41
1
10
7.89237672812425
20
-0.438664502635135
30
0
41
1
10
7.88949319126201
20
-0.433986837177798
30
0
41
1
10
7.8843256354161
20
-0.424594955265405
30
0
41
1
10
7.88202020393013
20
-0.419852208126059
30
0
41
1
10
7.87596102227908
20
-0.405482735485009
30
0
41
1
10
7.87306069836086
20
-0.395574390166217
30
0
41
1
10
7.86987493702273
20
-0.376542125459252
30
0
41
1
10
7.86950932167358
20
-0.367311289465903
30
0
41
1
10
7.87023107802844
20
-0.358333509966684
30
0
0
SPLINE
5
13E
100
AcDbEntity
8
1
62
256
6
ByLayer
370
18
48
1
60
0
100
AcDbSpline
70
4
71
3
72
8
73
4
40
0
40
0
40
0
40
0
40
1
40
1
40
1
40
1
41
1
10
7.87023107802844
20
-0.358333509966684
30
0
41
1
10
7.86842278021646
20
-0.351667705833535
30
0
41
1
10
7.86661516303687
20
-0.345001050231474
30
0
41
1
10
7.86480825422987
20
-0.338333509966702
30
0
0
SPLINE
5
13F
100
AcDbEntity
8
1
62
256
6
ByLayer
370
18
48
1
60
0
100
AcDbSpline
70
4
71
3
72
31
73
27
40
0
40
0
40
0
40
0
40
0.250000000000012
40
0.250000000000012
40
0.375000000000027
40
0.375000000000027
40
0.500000000000041
40
0.500000000000041
40
0.562500000000049
40
0.562500000000049
40
0.625000000000056
40
0.625000000000056
40
0.687500000000064
40
0.687500000000064
40
0.750000000000071
40
0.750000000000071
40
0.781250000000062
40
0.781250000000062
40
0.812500000000053
40
0.843750000000044
40
0.843750000000044
40
0.875000000000036
40
0.875000000000036
40
0.937500000000018
40
0.937500000000018
40
1
40
1
40
1
40
1
41
1
10
6.9682159102473
20
0.249300000000005
30
0
41
1
10
6.98791812969662
20
0.211000342049431
30
0
41
1
10
7.00999473311575
20
0.174329281101421
30
0
41
1
10
7.04629240909048
20
0.123417160489908
30
0
41
1
10
7.05894478642586
20
0.107109020731144
30
0
41
1
10
7.08530962405811
20
0.0763323365740689
30
0
41
1
10
7.09903531470721
20
0.0618411171454625
30
0
41
1
10
7.12038842206604
20
0.042106054324222
30
0
41
1
10
7.12764818099336
20
0.0358525380419508
30
0
41
1
10
7.14235958446636
20
0.0242308984239799
30
0
41
1
10
7.14985815379217
20
0.0188278838060683
30
0
41
1
10
7.16491686914031
20
0.0092048677531409
30
0
41
1
10
7.17245804176892
20
0.0049903992879479
30
0
41
1
10
7.18753975419406
20
-0.0019841706042882
30
0
41
1
10
7.19508058029922
20
-0.0047490893236386
30
0
41
1
10
7.20636475627029
20
-0.0074700010998185
30
0
41
1
10
7.21014674662098
20
-0.0081387581898014
30
0
41
1
10
7.21754599846005
20
-0.0088931504431002
30
0
41
1
10
7.22477710948661
20
-0.0090722979192321
30
0
41
1
10
7.2316348454456
20
-0.0080085021114371
30
0
41
1
10
7.2382820747921
20
-0.0062600211092558
30
0
41
1
10
7.24150017787974
20
-0.0050351432915932
30
0
41
1
10
7.25051704783203
20
-0.0003980957525016
30
0
41
1
10
7.25578793265282
20
0.0039908474973345
30
0
41
1
10
7.26482492395311
20
0.0153671695761943
30
0
41
1
10
7.26842307097937
20
0.0221425448781076
30
0
41
1
10
7.27122072853956
20
0.0298104341416945
30
0
0
SPLINE
5
140
100
AcDbEntity
8
1
62
256
6
ByLayer
370
18
48
1
60
0
100
AcDbSpline
70
4
71
3
72
32
73
28
40
0
40
0
40
0
40
0
40
0.125
40
0.125
40
0.25
40
0.25
40
0.375
40
0.375
40
0.5
40
0.5
40
0.5625
40
0.5625
40
0.625
40
0.625
40
0.6875
40
0.6875
40
0.75
40
0.75
40
0.812500000000001
40
0.812500000000001
40
0.84375
40
0.84375
40
0.875
40
0.875
40
0.9375
40
0.9375
40
1
40
1
40
1
40
1
41
1
10
6.96821591024727
20
1.92570000000004
30
0
41
1
10
6.97807383765661
20
1.94486308205029
30
0
41
1
10
6.98849512087108
20
1.9635479699902
30
0
41
1
10
7.01049617048315
20
1.99992714415194
30
0
41
1
10
7.02206960030136
20
2.01760638509924
30
0
41
1
10
7.04629484953875
20
2.05158713703113
30
0
41
1
10
7.05894430134381
20
2.06789201355949
30
0
41
1
10
7.08535095325618
20
2.09871430555793
30
0
41
1
10
7.09906378418546
20
2.11319047347499
30
0
41
1
10
7.1204667495019
20
2.13296368142861
30
0
41
1
10
7.12770460049438
20
2.13919446189809
30
0
41
1
10
7.14240689338837
20
2.15080402728356
30
0
41
1
10
7.14990003158144
20
2.15620242246374
30
0
41
1
10
7.16500646517139
20
2.16584881110188
30
0
41
1
10
7.17258365566607
20
2.17007908622429
30
0
41
1
10
7.18776733437235
20
2.1770777523341
30
0
41
1
10
7.19539865361963
20
2.17985730609047
30
0
41
1
10
7.21056061220909
20
2.18344860870079
30
0
41
1
10
7.21792002758983
20
2.18422223655318
30
0
41
1
10
7.22851983348892
20
2.18350159538795
30
0
41
1
10
7.23198622943499
20
2.18293852989899
30
0
41
1
10
7.23856816735497
20
2.18116003038551
30
0
41
1
10
7.24170714765609
20
2.17994512790895
30
0
41
1
10
7.25064890514878
20
2.17529589414116
30
0
41
1
10
7.25602894634409
20
2.17075302134981
30
0
41
1
10
7.2648770213151
20
2.15951838600228
30
0
41
1
10
7.26843347070314
20
2.15282895130096
30
0
41
1
10
7.27122072853956
20
2.14518956585837
30
0
0
SPLINE
5
141
100
AcDbEntity
8
1
62
256
6
ByLayer
370
18
48
1
60
0
100
AcDbSpline
70
4
71
3
72
40
73
36
40
0
40
0
40
0
40
0
40
0.062500000000005
40
0.062500000000005
40
0.0937500000000084
40
0.0937500000000084
40
0.125000000000012
40
0.125000000000012
40
0.18750000000001
40
0.18750000000001
40
0.250000000000009
40
0.250000000000009
40
0.312500000000007
40
0.312500000000007
40
0.375000000000006
40
0.375000000000006
40
0.437500000000005
40
0.437500000000005
40
0.500000000000003
40
0.500000000000003
40
0.624999999999997
40
0.624999999999997
40
0.687499999999994
40
0.687499999999994
40
0.749999999999991
40
0.749999999999991
40
0.812499999999988
40
0.812499999999988
40
0.874999999999985
40
0.874999999999985
40
0.906249999999987
40
0.906249999999987
40
0.937499999999988
40
0.937499999999988
40
1
40
1
40
1
40
1
41
1
10
6.9369964958488
20
0.709736048276227
30
0
41
1
10
6.94514804825869
20
0.718024825650588
30
0
41
1
10
6.95212278927974
20
0.728589690123613
30
0
41
1
10
6.96145844842414
20
0.746742044647107
30
0
41
1
10
6.96437381118679
20
0.753190740733004
30
0
41
1
10
6.9698016089288
20
0.766588880526712
30
0
41
1
10
6.97232646764746
20
0.773562302982697
30
0
41
1
10
6.97942612825335
20
0.795204155012499
30
0
41
1
10
6.98348255726179
20
0.810434687135796
30
0
41
1
10
6.99059324803014
20
0.842099259763216
30
0
41
1
10
6.99363262113971
20
0.858495572336011
30
0
41
1
10
6.99886776589855
20
0.891985545084339
30
0
41
1
10
7.00107547465785
20
0.909173238351258
30
0
41
1
10
7.00476907948436
20
0.943959492959152
30
0
41
1
10
7.00625868850179
20
0.961571006351278
30
0
41
1
10
7.00861869092611
20
0.997208223985098
30
0
41
1
10
7.00948601605759
20
1.01522453895822
30
0
41
1
10
7.01063379462644
20
1.05129915208224
30
0
41
1
10
7.01091741453095
20
1.0694034617548
30
0
41
1
10
7.01091509446445
20
1.12391385296326
30
0
41
1
10
7.00980153620296
20
1.15992684790777
30
0
41
1
10
7.00625817444822
20
1.21343844171244
30
0
41
1
10
7.00476385668671
20
1.23109479126461
30
0
41
1
10
7.00107286294099
20
1.26584625180814
30
0
41
1
10
6.99886895414929
20
1.2830105363534
30
0
41
1
10
6.99362202407019
20
1.31656852918059
30
0
41
1
10
6.9905782660166
20
1.3329760807176
30
0
41
1
10
6.98346553920513
20
1.36463243280281
30
0
41
1
10
6.97939026559823
20
1.37991640885903
30
0
41
1
10
6.97230301519352
20
1.40150351561567
30
0
41
1
10
6.9697805033517
20
1.40846723399704
30
0
41
1
10
6.96435083171159
20
1.42186193286662
30
0
41
1
10
6.96143327291034
20
1.42831001508981
30
0
41
1
10
6.95211685552772
20
1.44641560286985
30
0
41
1
10
6.94515203711293
20
1.45697111834602
30
0
41
1
10
6.9369964958488
20
1.46526395172384
30
0
0
SPLINE
5
142
100
AcDbEntity
8
1
62
256
6
ByLayer
370
18
48
1
60
0
100
AcDbSpline
70
4
71
3
72
8
73
4
40
0
40
0
40
0
40
0
40
1
40
1
40
1
40
1
41
1
10
6.9369964958488
20
1.46526395172384
30
0
41
1
10
6.93359333453057
20
1.46872440258247
30
0
41
1
10
6.93019157286759
20
1.47218439430148
30
0
41
1
10
6.9267911571817
20
1.47564394410844
30
0
0
SPLINE
5
143
100
AcDbEntity
8
1
62
256
6
ByLayer
370
18
48
1
60
0
100
AcDbSpline
70
4
71
3
72
31
73
27
40
0
40
0
40
0
40
0
40
0.249999999999986
40
0.249999999999986
40
0.374999999999981
40
0.374999999999981
40
0.499999999999976
40
0.499999999999976
40
0.562499999999971
40
0.562499999999971
40
0.624999999999966
40
0.624999999999966
40
0.687499999999961
40
0.687499999999961
40
0.749999999999956
40
0.749999999999956
40
0.781249999999954
40
0.781249999999954
40
0.812499999999951
40
0.843749999999949
40
0.843749999999949
40
0.874999999999946
40
0.874999999999946
40
0.937499999999973
40
0.937499999999973
40
1
40
1
40
1
40
1
41
1
10
6.96821591024727
20
1.92570000000004
30
0
41
1
10
6.94851369079794
20
1.88740034204943
30
0
41
1
10
6.93101714049496
20
1.84714411795343
30
0
41
1
10
6.90906903826914
20
1.78483075207183
30
0
41
1
10
6.90246305565157
20
1.76370206392474
30
0
41
1
10
6.89099590545493
20
1.72093616080321
30
0
41
1
10
6.88612437139366
20
1.69927575035749
30
0
41
1
10
6.88052222276963
20
1.66661178845112
30
0
41
1
10
6.87893832163033
20
1.65567388340887
30
0
41
1
10
6.87645893054528
20
1.63387788938584
30
0
41
1
10
6.87555707474019
20
1.62295109862424
30
0
41
1
10
6.87458834930911
20
1.60141795477117
30
0
41
1
10
6.87451819523409
20
1.59083656685851
30
0
41
1
10
6.87536289861842
20
1.57013544377082
30
0
41
1
10
6.87627472519569
20
1.56001407751472
30
0
41
1
10
6.87858701698988
20
1.54529430977601
30
0
41
1
10
6.87952467002731
20
1.54043388542164
30
0
41
1
10
6.88172762423054
20
1.5310870592526
30
0
41
1
10
6.88425170939666
20
1.52211609646429
30
0
41
1
10
6.88746191778603
20
1.51396177673629
30
0
41
1
10
6.89104636477296
20
1.50625947327018
30
0
41
1
10
6.89303106214277
20
1.50263694592735
30
0
41
1
10
6.89938371373842
20
1.49282085487857
30
0
41
1
10
6.90419958029733
20
1.48754738976885
30
0
41
1
10
6.91497809831304
20
1.47955646686722
30
0
41
1
10
6.92074003152655
20
1.47698733193644
30
0
41
1
10
6.9267911571817
20
1.47564394410844
30
0
0
SPLINE
5
144
100
AcDbEntity
8
1
62
256
6
ByLayer
370
18
48
1
60
0
100
AcDbSpline
70
4
71
3
72
32
73
28
40
0
40
0
40
0
40
0
40
0.124999999999998
40
0.124999999999998
40
0.249999999999996
40
0.249999999999996
40
0.374999999999994
40
0.374999999999994
40
0.499999999999992
40
0.499999999999992
40
0.56249999999999
40
0.56249999999999
40
0.624999999999988
40
0.624999999999988
40
0.687499999999987
40
0.687499999999987
40
0.749999999999985
40
0.749999999999985
40
0.812499999999983
40
0.812499999999983
40
0.843749999999986
40
0.843749999999986
40
0.874999999999989
40
0.874999999999989
40
0.937499999999994
40
0.937499999999994
40
1
40
1
40
1
40
1
41
1
10
6.9682159102473
20
0.249300000000005
30
0
41
1
10
6.95835798283795
20
0.26846308205026
30
0
41
1
10
6.94908933427803
20
0.288053965729233
30
0
41
1
10
6.93176435891596
20
0.328121676596709
30
0
41
1
10
6.92371647015838
20
0.348584828283066
30
0
41
1
10
6.90906692806684
20
0.390173796535521
30
0
41
1
10
6.90246212005124
20
0.4112977775589
30
0
41
1
10
6.89097907804731
20
0.454130249206685
30
0
41
1
10
6.88611319193058
20
0.475769733632859
30
0
41
1
10
6.88050354017747
20
0.50850705611839
30
0
41
1
10
6.87892712463704
20
0.519410558117045
30
0
41
1
10
6.87645265758903
20
0.541191344116498
30
0
41
1
10
6.87555194871535
20
0.55210996704551
30
0
41
1
10
6.87458503889565
20
0.573708969633202
30
0
41
1
10
6.87451751404032
20
0.584339455948736
30
0
41
1
10
6.87538354322845
20
0.605173241944698
30
0
41
1
10
6.87631882176007
20
0.615410296276252
30
0
41
1
10
6.8794689621586
20
0.635169080150291
30
0
41
1
10
6.8816465298263
20
0.64446858113854
30
0
41
1
10
6.88599719350751
20
0.657337092752812
30
0
41
1
10
6.88763659894141
20
0.661451692721158
30
0
41
1
10
6.89121693973962
20
0.669065075120074
30
0
41
1
10
6.89316608971419
20
0.672592919782858
30
0
41
1
10
6.89949920627475
20
0.682313158656115
30
0
41
1
10
6.90445608336401
20
0.68767863118353
30
0
41
1
10
6.9150722327735
20
0.695476260542989
30
0
41
1
10
6.92076252535719
20
0.698017661835024
30
0
41
1
10
6.9267911571817
20
0.699356055891627
30
0
0
SPLINE
5
145
100
AcDbEntity
8
1
62
256
6
ByLayer
370
18
48
1
60
0
100
AcDbSpline
70
4
71
3
72
8
73
4
40
0
40
0
40
0
40
0
40
1
40
1
40
1
40
1
41
1
10
6.9267911571817
20
0.699356055891627
30
0
41
1
10
6.93019157286759
20
0.702815605698589
30
0
41
1
10
6.93359333453057
20
0.706275597417601
30
0
41
1
10
6.9369964958488
20
0.709736048276227
30
0
0
SPLINE
5
146
100
AcDbEntity
8
1
62
256
6
ByLayer
370
18
48
1
60
0
100
AcDbSpline
70
4
71
2
72
6
73
3
40
0
40
0
40
0
40
1
40
1
40
1
41
1.03186391735993
10
8.82713521185942
20
-8.04016948620142
30
0
41
0.729637973226922
10
8.62740930490853
20
-8.04016948620142
30
0
41
1.03186391735993
10
8.62740930490852
20
-7.84016948620143
30
0
0
SPLINE
5
147
100
AcDbEntity
8
1
62
256
6
ByLayer
370
18
48
1
60
0
100
AcDbSpline
70
4
71
2
72
6
73
3
40
0
40
0
40
0
40
1
40
1
40
1
41
1.03186391735993
10
9.070994710392
20
-8.03270867988889
30
0
41
1.03138264657361
10
8.94917877905279
20
-8.04016948620142
30
0
41
1.03186391735993
10
8.82713521185942
20
-8.04016948620142
30
0
0
SPLINE
5
148
100
AcDbEntity
8
1
62
256
6
ByLayer
370
18
48
1
60
0
100
AcDbSpline
70
4
71
2
72
6
73
3
40
0
40
0
40
0
40
1
40
1
40
1
41
1.03186391735993
10
28.1564145945165
20
-8.03270867988889
30
0
41
1.03138264657361
10
28.2782305258557
20
-8.04016948620137
30
0
41
1.03186391735993
10
28.4002740930491
20
-8.0401694862014
30
0
0
SPLINE
5
149
100
AcDbEntity
8
1
62
256
6
ByLayer
370
18
48
1
60
0
100
AcDbSpline
70
4
71
2
72
6
73
3
40
0
40
0
40
0
40
1
40
1
40
1
41
1.03186391735993
10
28.4002740930491
20
-8.0401694862014
30
0
41
0.729637973226922
10
28.6
20
-8.0401694862014
30
0
41
1.03186391735993
10
28.6
20
-7.8401694862014
30
0
0
SPLINE
5
14A
100
AcDbEntity
8
1
62
256
6
ByLayer
370
18
48
1
60
0
100
AcDbSpline
70
4
71
2
72
6
73
3
40
0
40
0
40
0
40
1
40
1
40
1
41
1.03186391735993
10
28.6
20
-5.73483051379864
30
0
41
0.729637973226922
10
28.6
20
-5.53483051379865
30
0
41
1.03186391735993
10
28.4002740930491
20
-5.53483051379865
30
0
0
SPLINE
5
14B
100
AcDbEntity
8
1
62
256
6
ByLayer
370
18
48
1
60
0
100
AcDbSpline
70
4
71
2
72
6
73
3
40
0
40
0
40
0
40
1
40
1
40
1
41
1.03186391735993
10
28.4002740930491
20
-5.53483051379865
30
0
41
1.03138264657361
10
28.2782305258557
20
-5.53483051379865
30
0
41
1.03186391735993
10
28.1564145945165
20
-5.54229132011116
30
0
0
SPLINE
5
14C
100
AcDbEntity
8
1
62
256
6
ByLayer
370
18
48
1
60
0
100
AcDbSpline
70
4
71
3
72
8
73
4
40
0
40
0
40
0
40
0
40
1
40
1
40
1
40
1
41
1
10
11.1223488566178
20
-7.94957910918643
30
0
41
1
10
11.1095073078101
20
-7.95281317154036
30
0
41
1
10
11.0963757967861
20
-7.95472032378211
30
0
41
1
10
11.0831712742832
20
-7.95528903897943
30
0
0
SPLINE
5
14D
100
AcDbEntity
8
1
62
256
6
ByLayer
370
18
48
1
60
0
100
AcDbSpline
70
4
71
3
72
8
73
4
40
0
40
0
40
0
40
0
40
1
40
1
40
1
40
1
41
1
10
26.0874449906149
20
-5.61971096102064
30
0
41
1
10
26.073943051711
20
-5.62027967266718
30
0
41
1
10
26.060515508917
20
-5.62218685105336
30
0
41
1
10
26.0473847290177
20
-5.62542089081362
30
0
0
SPLINE
5
14E
100
AcDbEntity
8
1
62
256
6
ByLayer
370
18
48
1
60
0
100
AcDbSpline
70
4
71
3
72
8
73
4
40
0
40
0
40
0
40
0
40
1
40
1
40
1
40
1
41
1
10
26.0473847290191
20
-7.94957910918677
30
0
41
1
10
26.0605156006566
20
-7.95281317154169
30
0
41
1
10
26.073942967421
20
-7.95472032378282
30
0
41
1
10
26.0874449906283
20
-7.95528903897997
30
0
0
LINE
5
7F
100
AcDbEntity
8
80
62
256
6
ByLayer
370
18
48
1
60
0
100
AcDbLine
10
0
20
0
30
0
11
-5
21
0
31
0
39
0
210
0
220
0
230
1
0
LINE
5
80
100
AcDbEntity
8
81
62
256
6
ByLayer
370
18
48
1
60
0
100
AcDbLine
10
28.6
20
-8.0375
30
0
11
33.593148
21
-8.0375
31
0
39
0
210
0
220
0
230
1
0
LINE
5
81
100
AcDbEntity
8
1
62
256
6
ByLayer
370
18
48
1
60
0
100
AcDbLine
10
9.02425
20
0.061315
30
0
11
8.322566
21
0.061315
31
0
39
0
210
0
220
0
230
1
0
LINE
5
82
100
AcDbEntity
8
1
62
256
6
ByLayer
370
18
48
1
60
0
100
AcDbLine
10
8.322566
20
2.113685
30
0
11
9.024236
21
2.113685
31
0
39
0
210
0
220
0
230
1
0
LINE
5
83
100
AcDbEntity
8
1
62
256
6
ByLayer
370
18
48
1
60
0
100
AcDbLine
10
7.350036
20
0.061315
30
0
11
7.101224
21
0.061315
31
0
39
0
210
0
220
0
230
1
0
LINE
5
84
100
AcDbEntity
8
1
62
256
6
ByLayer
370
18
48
1
60
0
100
AcDbLine
10
7.101056
20
2.113685
30
0
11
7.35083
21
2.113685
31
0
39
0
210
0
220
0
230
1
0
LINE
5
85
100
AcDbEntity
8
1
62
256
6
ByLayer
370
18
48
1
60
0
100
AcDbLine
10
7.989389
20
-1.9125
30
0
11
8.261784
21
-1.9125
31
0
39
0
210
0
220
0
230
1
0
LINE
5
86
100
AcDbEntity
8
1
62
256
6
ByLayer
370
18
48
1
60
0
100
AcDbLine
10
8.261784
20
4.0875
30
0
11
7.989389
21
4.0875
31
0
39
0
210
0
220
0
230
1
0
LINE
5
87
100
AcDbEntity
8
1
62
256
6
ByLayer
370
18
48
1
60
0
100
AcDbLine
10
0
20
-7.7875
30
0
11
0.468629
21
-7.7875
31
0
39
0
210
0
220
0
230
1
0
LINE
5
88
100
AcDbEntity
8
1
62
256
6
ByLayer
370
18
48
1
60
0
100
AcDbLine
10
0
20
-7.7875
30
0
11
0
21
7.9625
31
0
39
0
210
0
220
0
230
1
0
LINE
5
89
100
AcDbEntity
8
1
62
256
6
ByLayer
370
18
48
1
60
0
100
AcDbLine
10
10.8
20
7.231117
30
0
11
10.979894
21
7.099546
31
0
39
0
210
0
220
0
230
1
0
LINE
5
8A
100
AcDbEntity
8
1
62
256
6
ByLayer
370
18
48
1
60
0
100
AcDbLine
10
10.8
20
-4.7875
30
0
11
10.979894
21
-4.7875
31
0
39
0
210
0
220
0
230
1
0
LINE
5
8B
100
AcDbEntity
8
1
62
256
6
ByLayer
370
18
48
1
60
0
100
AcDbLine
10
10.979894
20
-4.7875
30
0
11
10.979894
21
7.099546
31
0
39
0
210
0
220
0
230
1
0
LINE
5
8C
100
AcDbEntity
8
1
62
256
6
ByLayer
370
18
48
1
60
0
100
AcDbLine
10
0.468629
20
7.9625
30
0
11
0
21
7.9625
31
0
39
0
210
0
220
0
230
1
0
LINE
5
8D
100
AcDbEntity
8
1
62
256
6
ByLayer
370
18
48
1
60
0
100
AcDbLine
10
10.8
20
-4.9875
30
0
11
10.8
21
-0.174577
31
0
39
0
210
0
220
0
230
1
0
LINE
5
8E
100
AcDbEntity
8
1
62
256
6
ByLayer
370
13
48
1
60
0
100
AcDbLine
10
6.931349
20
-4.9875
30
0
11
10.8
21
-4.9875
31
0
39
0
210
0
220
0
230
1
0
LINE
5
8F
100
AcDbEntity
8
1
62
256
6
ByLayer
370
18
48
1
60
0
100
AcDbLine
10
10.8
20
2.349577
30
0
11
10.8
21
2.127031
31
0
39
0
210
0
220
0
230
1
0
LINE
5
90
100
AcDbEntity
8
1
62
256
6
ByLayer
370
18
48
1
60
0
100
AcDbLine
10
5
20
7.9625
30
0
11
0.468629
21
7.9625
31
0
39
0
210
0
220
0
230
1
0
LINE
5
91
100
AcDbEntity
8
1
62
256
6
ByLayer
370
13
48
1
60
0
100
AcDbLine
10
0.468629
20
7.9625
30
0
11
0.468629
21
-7.7875
31
0
39
0
210
0
220
0
230
1
0
LINE
5
92
100
AcDbEntity
8
1
62
256
6
ByLayer
370
18
48
1
60
0
100
AcDbLine
10
5
20
-7.7875
30
0
11
0.468629
21
-7.7875
31
0
39
0
210
0
220
0
230
1
0
LINE
5
93
100
AcDbEntity
8
1
62
256
6
ByLayer
370
18
48
1
60
0
100
AcDbLine
10
10.8
20
0.047969
30
0
11
10.8
21
-0.174577
31
0
39
0
210
0
220
0
230
1
0
LINE
5
94
100
AcDbEntity
8
1
62
256
6
ByLayer
370
18
48
1
60
0
100
AcDbLine
10
21.712744
20
-7.7875
30
0
11
15.412804
21
-7.7875
31
0
39
0
210
0
220
0
230
1
0
LINE
5
95
100
AcDbEntity
8
1
62
256
6
ByLayer
370
18
48
1
60
0
100
AcDbLine
10
21.800344
20
-7.621027
30
0
11
21.712744
21
-7.7875
31
0
39
0
210
0
220
0
230
1
0
LINE
5
96
100
AcDbEntity
8
1
62
256
6
ByLayer
370
18
48
1
60
0
100
AcDbLine
10
22.311865
20
-6.738681
30
0
11
22.311865
21
-6.836319
31
0
39
0
210
0
220
0
230
1
0
LINE
5
97
100
AcDbEntity
8
1
62
256
6
ByLayer
370
18
48
1
60
0
100
AcDbLine
10
21.712744
20
-5.7875
30
0
11
21.800344
21
-5.953973
31
0
39
0
210
0
220
0
230
1
0
LINE
5
98
100
AcDbEntity
8
1
62
256
6
ByLayer
370
18
48
1
60
0
100
AcDbLine
10
21.712744
20
-5.7875
30
0
11
15.412804
21
-5.7875
31
0
39
0
210
0
220
0
230
1
0
LINE
5
99
100
AcDbEntity
8
1
62
256
6
ByLayer
370
18
48
1
60
0
100
AcDbLine
10
6.931349
20
7.9625
30
0
11
9.8
21
7.9625
31
0
39
0
210
0
220
0
230
1
0
LINE
5
9A
100
AcDbEntity
8
1
62
256
6
ByLayer
370
18
48
1
60
0
100
AcDbLine
10
10.8
20
2.349577
30
0
11
10.8
21
7.231117
31
0
39
0
210
0
220
0
230
1
0
LINE
5
9B
100
AcDbEntity
8
1
62
256
6
ByLayer
370
18
48
1
60
0
100
AcDbLine
10
9.8
20
7.9625
30
0
11
10.8
21
7.231117
31
0
39
0
210
0
220
0
230
1
0
LINE
5
9C
100
AcDbEntity
8
1
62
256
6
ByLayer
370
18
48
1
60
0
100
AcDbLine
10
6.931349
20
7.9625
30
0
11
5
21
7.9625
31
0
39
0
210
0
220
0
230
1
0
LINE
5
9D
100
AcDbEntity
8
1
62
256
6
ByLayer
370
18
48
1
60
0
100
AcDbLine
10
6.931349
20
7.9625
30
0
11
6.931349
21
3.922988
31
0
39
0
210
0
220
0
230
1
0
LINE
5
9E
100
AcDbEntity
8
1
62
256
6
ByLayer
370
18
48
1
60
0
100
AcDbLine
10
5
20
7.9625
30
0
11
5
21
-7.7875
31
0
39
0
210
0
220
0
230
1
0
LINE
5
9F
100
AcDbEntity
8
1
62
256
6
ByLayer
370
18
48
1
60
0
100
AcDbLine
10
15.412804
20
-7.7875
30
0
11
5
21
-7.7875
31
0
39
0
210
0
220
0
230
1
0
LINE
5
A0
100
AcDbEntity
8
1
62
256
6
ByLayer
370
18
48
1
60
0
100
AcDbLine
10
15.412804
20
-7.7875
30
0
11
15.412804
21
-5.7875
31
0
39
0
210
0
220
0
230
1
0
LINE
5
A1
100
AcDbEntity
8
1
62
256
6
ByLayer
370
18
48
1
60
0
100
AcDbLine
10
15.412804
20
-5.7875
30
0
11
8.693501
21
-5.7875
31
0
39
0
210
0
220
0
230
1
0
LINE
5
A2
100
AcDbEntity
8
1
62
256
6
ByLayer
370
18
48
1
60
0
100
AcDbLine
10
6.931349
20
-1.747988
30
0
11
6.931349
21
-4.9875
31
0
39
0
210
0
220
0
230
1
0
LINE
5
A3
100
AcDbEntity
8
1
62
256
6
ByLayer
370
18
48
1
60
0
100
AcDbLine
10
11.918102
20
-5.534344
30
0
11
11.913475
21
-5.787516
31
0
39
0
210
0
220
0
230
1
0
LINE
5
A4
100
AcDbEntity
8
1
62
256
6
ByLayer
370
18
48
1
60
0
100
AcDbLine
10
11.150844
20
-4.7875
30
0
11
11.874244
21
-4.7875
31
0
39
0
210
0
220
0
230
1
0
LINE
5
A5
100
AcDbEntity
8
1
62
256
6
ByLayer
370
18
48
1
60
0
100
AcDbLine
10
11.150844
20
6.974516
30
0
11
20.254347
21
0.316369
31
0
39
0
210
0
220
0
230
1
0
LINE
5
A6
100
AcDbEntity
8
1
62
256
6
ByLayer
370
18
48
1
60
0
100
AcDbLine
10
11.874244
20
-4.9875
30
0
11
11.874244
21
-4.7875
31
0
39
0
210
0
220
0
230
1
0
LINE
5
A7
100
AcDbEntity
8
1
62
256
6
ByLayer
370
13
48
1
60
0
100
AcDbLine
10
11.874244
20
-4.9875
30
0
11
20.254347
21
-4.9875
31
0
39
0
210
0
220
0
230
1
0
LINE
5
A8
100
AcDbEntity
8
1
62
256
6
ByLayer
370
18
48
1
60
0
100
AcDbLine
10
20.254347
20
-4.9875
30
0
11
20.254347
21
0.316369
31
0
39
0
210
0
220
0
230
1
0
LINE
5
A9
100
AcDbEntity
8
1
62
256
6
ByLayer
370
18
48
1
60
0
100
AcDbLine
10
10.979889
20
-4.7875
30
0
11
11.150844
21
-4.7875
31
0
39
0
210
0
220
0
230
1
0
LINE
5
AA
100
AcDbEntity
8
1
62
256
6
ByLayer
370
18
48
1
60
0
100
AcDbLine
10
10.979878
20
7.099558
30
0
11
11.150844
21
6.974516
31
0
39
0
210
0
220
0
230
1
0
LINE
5
AB
100
AcDbEntity
8
1
62
256
6
ByLayer
370
18
48
1
60
0
100
AcDbLine
10
11.150844
20
6.974516
30
0
11
11.150844
21
-4.7875
31
0
39
0
210
0
220
0
230
1
0
LINE
5
AC
100
AcDbEntity
8
SK1
62
256
6
ByLayer
370
18
48
1
60
0
100
AcDbLine
10
-0.662742
20
7.9625
30
0
11
-38.4
21
7.9625
31
0
39
0
210
0
220
0
230
1
0
LINE
5
AE
100
AcDbEntity
8
SK1
62
256
6
ByLayer
370
18
48
1
60
0
100
AcDbLine
10
-1.6
20
-7.7875
30
0
11
-0.662742
21
-7.7875
31
0
39
0
210
0
220
0
230
1
0
LINE
5
AF
100
AcDbEntity
8
SK1
62
256
6
ByLayer
370
18
48
1
60
0
100
AcDbLine
10
-41.4
20
4.9625
30
0
11
-38.4
21
7.9625
31
0
39
0
210
0
220
0
230
1
0
LINE
5
B0
100
AcDbEntity
8
SK1
62
256
6
ByLayer
370
18
48
1
60
0
100
AcDbLine
10
-41.4
20
-4.9625
30
0
11
-41.4
21
4.9625
31
0
39
0
210
0
220
0
230
1
0
LINE
5
B1
100
AcDbEntity
8
SK1
62
256
6
ByLayer
370
18
48
1
60
0
100
AcDbLine
10
-41.4
20
-4.9625
30
0
11
-38.4
21
-7.9625
31
0
39
0
210
0
220
0
230
1
0
LINE
5
B2
100
AcDbEntity
8
SK1
62
256
6
ByLayer
370
18
48
1
60
0
100
AcDbLine
10
-2.327582
20
-7.9625
30
0
11
-38.4
21
-7.9625
31
0
39
0
210
0
220
0
230
1
0
LINE
5
B3
100
AcDbEntity
8
SK1
62
256
6
ByLayer
370
18
48
1
60
0
100
AcDbLine
10
-0.662742
20
-7.7875
30
0
11
0
21
-7.7875
31
0
39
0
210
0
220
0
230
1
0
LINE
5
B4
100
AcDbEntity
8
SK1
62
256
6
ByLayer
370
18
48
1
60
0
100
AcDbLine
10
0
20
-7.7875
30
0
11
0
21
7.9625
31
0
39
0
210
0
220
0
230
1
0
LINE
5
B5
100
AcDbEntity
8
SK1
62
256
6
ByLayer
370
18
48
1
60
0
100
AcDbLine
10
0
20
7.9625
30
0
11
-0.662742
21
7.9625
31
0
39
0
210
0
220
0
230
1
0
LINE
5
B6
100
AcDbEntity
8
SK1
62
256
6
ByLayer
370
13
48
1
60
0
100
AcDbLine
10
-0.662742
20
-7.7875
30
0
11
-0.662742
21
7.9625
31
0
39
0
210
0
220
0
230
1
0
LINE
5
B7
100
AcDbEntity
8
1
62
256
6
ByLayer
370
18
48
1
60
0
100
AcDbLine
10
8.773329
20
0.699356
30
0
11
8.758092
21
0.709736
31
0
39
0
210
0
220
0
230
1
0
LINE
5
B8
100
AcDbEntity
8
1
62
256
6
ByLayer
370
18
48
1
60
0
100
AcDbLine
10
8.758092
20
1.465264
30
0
11
8.773329
21
1.475644
31
0
39
0
210
0
220
0
230
1
0
LINE
5
B9
100
AcDbEntity
8
1
62
256
6
ByLayer
370
13
48
1
60
0
100
AcDbLine
10
9.482261
20
1.465264
30
0
11
8.758092
21
1.465264
31
0
39
0
210
0
220
0
230
1
0
LINE
5
BA
100
AcDbEntity
8
1
62
256
6
ByLayer
370
13
48
1
60
0
100
AcDbLine
10
9.482261
20
0.709736
30
0
11
8.758092
21
0.709736
31
0
39
0
210
0
220
0
230
1
0
LINE
5
BB
100
AcDbEntity
8
1
62
256
6
ByLayer
370
18
48
1
60
0
100
AcDbLine
10
9.50253
20
0.699356
30
0
11
8.773329
21
0.699356
31
0
39
0
210
0
220
0
230
1
0
LINE
5
BC
100
AcDbEntity
8
1
62
256
6
ByLayer
370
18
48
1
60
0
100
AcDbLine
10
9.50253
20
1.475644
30
0
11
8.773329
21
1.475644
31
0
39
0
210
0
220
0
230
1
0
LINE
5
BD
100
AcDbEntity
8
1
62
256
6
ByLayer
370
13
48
1
60
0
100
AcDbLine
10
8.554449
20
-0.338334
30
0
11
7.864814
21
-0.338334
31
0
39
0
210
0
220
0
230
1
0
LINE
5
BE
100
AcDbEntity
8
1
62
256
6
ByLayer
370
13
48
1
60
0
100
AcDbLine
10
8.554449
20
2.513334
30
0
11
7.864814
21
2.513334
31
0
39
0
210
0
220
0
230
1
0
LINE
5
BF
100
AcDbEntity
8
1
62
256
6
ByLayer
370
18
48
1
60
0
100
AcDbLine
10
8.55909
20
2.533334
30
0
11
7.870235
21
2.533334
31
0
39
0
210
0
220
0
230
1
0
LINE
5
C0
100
AcDbEntity
8
1
62
256
6
ByLayer
370
18
48
1
60
0
100
AcDbLine
10
8.55909
20
-0.358334
30
0
11
7.870235
21
-0.358334
31
0
39
0
210
0
220
0
230
1
0
LINE
5
C1
100
AcDbEntity
8
1
62
256
6
ByLayer
370
13
48
1
60
0
100
AcDbLine
10
7.281817
20
0.03943
30
0
11
7.123858
21
0.03943
31
0
39
0
210
0
220
0
230
1
0
LINE
5
C2
100
AcDbEntity
8
1
62
256
6
ByLayer
370
13
48
1
60
0
100
AcDbLine
10
7.281817
20
2.13557
30
0
11
7.124865
21
2.13557
31
0
39
0
210
0
220
0
230
1
0
LINE
5
C3
100
AcDbEntity
8
1
62
256
6
ByLayer
370
18
48
1
60
0
100
AcDbLine
10
7.271221
20
0.02981
30
0
11
7.136205
21
0.02981
31
0
39
0
210
0
220
0
230
1
0
LINE
5
C4
100
AcDbEntity
8
1
62
256
6
ByLayer
370
18
48
1
60
0
100
AcDbLine
10
7.271221
20
2.14519
30
0
11
7.136877
21
2.14519
31
0
39
0
210
0
220
0
230
1
0
LINE
5
C5
100
AcDbEntity
8
1
62
256
6
ByLayer
370
18
48
1
60
0
100
AcDbLine
10
9.992349
20
-7.976279
30
0
11
9.070995
21
-8.032709
31
0
39
0
210
0
220
0
230
1
0
LINE
5
C6
100
AcDbEntity
8
1
62
256
6
ByLayer
370
18
48
1
60
0
100
AcDbLine
10
8.627409
20
-7.840169
30
0
11
8.627409
21
-7.78747
31
0
39
0
210
0
220
0
230
1
0
LINE
5
C7
100
AcDbEntity
8
1
62
256
6
ByLayer
370
18
48
1
60
0
100
AcDbLine
10
10.75044
20
-7.96962
30
0
11
9.992349
21
-7.976279
31
0
39
0
210
0
220
0
230
1
0
LINE
5
C8
100
AcDbEntity
8
1
62
256
6
ByLayer
370
18
48
1
60
0
100
AcDbLine
10
9.992349
20
-7.976279
30
0
11
9.992349
21
-7.787486
31
0
39
0
210
0
220
0
230
1
0
LINE
5
C9
100
AcDbEntity
8
1
62
256
6
ByLayer
370
18
48
1
60
0
100
AcDbLine
10
28.156415
20
-5.542291
30
0
11
27.23506
21
-5.598721
31
0
39
0
210
0
220
0
230
1
0
LINE
5
CA
100
AcDbEntity
8
1
62
256
6
ByLayer
370
18
48
1
60
0
100
AcDbLine
10
27.23506
20
-7.976279
30
0
11
28.156415
21
-8.032709
31
0
39
0
210
0
220
0
230
1
0
LINE
5
CB
100
AcDbEntity
8
1
62
256
6
ByLayer
370
18
48
1
60
0
100
AcDbLine
10
28.6
20
-7.840169
30
0
11
28.6
21
-5.734831
31
0
39
0
210
0
220
0
230
1
0
LINE
5
CC
100
AcDbEntity
8
1
62
256
6
ByLayer
370
18
48
1
60
0
100
AcDbLine
10
27.23506
20
-5.598721
30
0
11
26.427673
21
-5.60538
31
0
39
0
210
0
220
0
230
1
0
LINE
5
CD
100
AcDbEntity
8
1
62
256
6
ByLayer
370
18
48
1
60
0
100
AcDbLine
10
26.427673
20
-7.96962
30
0
11
27.23506
21
-7.976279
31
0
39
0
210
0
220
0
230
1
0
LINE
5
CE
100
AcDbEntity
8
1
62
256
6
ByLayer
370
18
48
1
60
0
100
AcDbLine
10
27.23506
20
-7.976279
30
0
11
27.23506
21
-5.598721
31
0
39
0
210
0
220
0
230
1
0
LINE
5
CF
100
AcDbEntity
8
1
62
256
6
ByLayer
370
18
48
1
60
0
100
AcDbLine
10
10.75044
20
-7.96962
30
0
11
10.75044
21
-7.787499
31
0
39
0
210
0
220
0
230
1
0
LINE
5
D0
100
AcDbEntity
8
1
62
256
6
ByLayer
370
18
48
1
60
0
100
AcDbLine
10
11.083171
20
-7.955289
30
0
11
10.75044
21
-7.96962
31
0
39
0
210
0
220
0
230
1
0
LINE
5
D1
100
AcDbEntity
8
1
62
256
6
ByLayer
370
18
48
1
60
0
100
AcDbLine
10
11.646004
20
-7.8177
30
0
11
11.122349
21
-7.949579
31
0
39
0
210
0
220
0
230
1
0
LINE
5
D2
100
AcDbEntity
8
1
62
256
6
ByLayer
370
18
48
1
60
0
100
AcDbLine
10
11.122349
20
-5.625421
30
0
11
11.646004
21
-5.7573
31
0
39
0
210
0
220
0
230
1
0
LINE
5
D3
100
AcDbEntity
8
1
62
256
6
ByLayer
370
13
48
1
60
0
100
AcDbLine
10
25.855538
20
-6.7875
30
0
11
22.311647
21
-6.7875
31
0
39
0
210
0
220
0
230
1
0
LINE
5
D4
100
AcDbEntity
8
1
62
256
6
ByLayer
370
13
48
1
60
0
100
AcDbLine
10
25.199132
20
-6.984835
30
0
11
22.193255
21
-6.984835
31
0
39
0
210
0
220
0
230
1
0
LINE
5
D5
100
AcDbEntity
8
1
62
256
6
ByLayer
370
13
48
1
60
0
100
AcDbLine
10
22.193255
20
-6.590165
30
0
11
25.199132
21
-6.590165
31
0
39
0
210
0
220
0
230
1
0
LINE
5
D6
100
AcDbEntity
8
1
62
256
6
ByLayer
370
13
48
1
60
0
100
AcDbLine
10
22.184481
20
-6.988256
30
0
11
25.154492
21
-6.988256
31
0
39
0
210
0
220
0
230
1
0
LINE
5
D7
100
AcDbEntity
8
1
62
256
6
ByLayer
370
13
48
1
60
0
100
AcDbLine
10
22.184481
20
-6.586744
30
0
11
25.154492
21
-6.586744
31
0
39
0
210
0
220
0
230
1
0
LINE
5
D8
100
AcDbEntity
8
1
62
256
6
ByLayer
370
13
48
1
60
0
100
AcDbLine
10
22.055186
20
-6.536476
30
0
11
24.561304
21
-6.536476
31
0
39
0
210
0
220
0
230
1
0
LINE
5
D9
100
AcDbEntity
8
1
62
256
6
ByLayer
370
13
48
1
60
0
100
AcDbLine
10
22.055186
20
-7.038524
30
0
11
24.561304
21
-7.038524
31
0
39
0
210
0
220
0
230
1
0
LINE
5
DA
100
AcDbEntity
8
1
62
256
6
ByLayer
370
13
48
1
60
0
100
AcDbLine
10
22.003953
20
-7.155498
30
0
11
24.048595
21
-7.155498
31
0
39
0
210
0
220
0
230
1
0
LINE
5
DB
100
AcDbEntity
8
1
62
256
6
ByLayer
370
13
48
1
60
0
100
AcDbLine
10
22.003953
20
-6.419502
30
0
11
24.048595
21
-6.419502
31
0
39
0
210
0
220
0
230
1
0
LINE
5
DC
100
AcDbEntity
8
1
62
256
6
ByLayer
370
13
48
1
60
0
100
AcDbLine
10
23.288816
20
-5.961516
30
0
11
21.803564
21
-5.961516
31
0
39
0
210
0
220
0
230
1
0
LINE
5
DD
100
AcDbEntity
8
1
62
256
6
ByLayer
370
18
48
1
60
0
100
AcDbLine
10
23.248975
20
-5.7875
30
0
11
21.712703
21
-5.7875
31
0
39
0
210
0
220
0
230
1
0
LINE
5
DE
100
AcDbEntity
8
1
62
256
6
ByLayer
370
13
48
1
60
0
100
AcDbLine
10
21.778285
20
-5.912062
30
0
11
23.248975
21
-5.912062
31
0
39
0
210
0
220
0
230
1
0
LINE
5
DF
100
AcDbEntity
8
1
62
256
6
ByLayer
370
18
48
1
60
0
100
AcDbLine
10
23.248975
20
-5.7875
30
0
11
25.261887
21
-5.7875
31
0
39
0
210
0
220
0
230
1
0
LINE
5
E0
100
AcDbEntity
8
1
62
256
6
ByLayer
370
18
48
1
60
0
100
AcDbLine
10
26.427673
20
-5.60538
30
0
11
26.087445
21
-5.619711
31
0
39
0
210
0
220
0
230
1
0
LINE
5
E1
100
AcDbEntity
8
1
62
256
6
ByLayer
370
18
48
1
60
0
100
AcDbLine
10
26.047385
20
-5.625421
30
0
11
25.511931
21
-5.7573
31
0
39
0
210
0
220
0
230
1
0
LINE
5
E2
100
AcDbEntity
8
1
62
256
6
ByLayer
370
18
48
1
60
0
100
AcDbLine
10
23.248975
20
-5.7875
30
0
11
23.248975
21
-5.912062
31
0
39
0
210
0
220
0
230
1
0
LINE
5
E3
100
AcDbEntity
8
1
62
256
6
ByLayer
370
18
48
1
60
0
100
AcDbLine
10
23.288816
20
-5.961516
30
0
11
24.048595
21
-6.419502
31
0
39
0
210
0
220
0
230
1
0
LINE
5
E4
100
AcDbEntity
8
1
62
256
6
ByLayer
370
18
48
1
60
0
100
AcDbLine
10
25.154492
20
-6.586744
30
0
11
25.199132
21
-6.590165
31
0
39
0
210
0
220
0
230
1
0
LINE
5
E5
100
AcDbEntity
8
1
62
256
6
ByLayer
370
18
48
1
60
0
100
AcDbLine
10
25.199132
20
-6.984835
30
0
11
25.154492
21
-6.988256
31
0
39
0
210
0
220
0
230
1
0
LINE
5
E6
100
AcDbEntity
8
1
62
256
6
ByLayer
370
18
48
1
60
0
100
AcDbLine
10
24.048595
20
-7.155498
30
0
11
23.288816
21
-7.613484
31
0
39
0
210
0
220
0
230
1
0
LINE
5
E7
100
AcDbEntity
8
1
62
256
6
ByLayer
370
18
48
1
60
0
100
AcDbLine
10
25.261887
20
-7.7875
30
0
11
23.248975
21
-7.7875
31
0
39
0
210
0
220
0
230
1
0
LINE
5
E8
100
AcDbEntity
8
1
62
256
6
ByLayer
370
18
48
1
60
0
100
AcDbLine
10
25.511931
20
-7.8177
30
0
11
26.047385
21
-7.949579
31
0
39
0
210
0
220
0
230
1
0
LINE
5
E9
100
AcDbEntity
8
1
62
256
6
ByLayer
370
18
48
1
60
0
100
AcDbLine
10
26.087445
20
-7.955289
30
0
11
26.427673
21
-7.96962
31
0
39
0
210
0
220
0
230
1
0
LINE
5
EA
100
AcDbEntity
8
1
62
256
6
ByLayer
370
18
48
1
60
0
100
AcDbLine
10
26.427673
20
-7.96962
30
0
11
26.427673
21
-5.60538
31
0
39
0
210
0
220
0
230
1
0
LINE
5
EB
100
AcDbEntity
8
1
62
256
6
ByLayer
370
13
48
1
60
0
100
AcDbLine
10
21.803564
20
-7.613484
30
0
11
23.288816
21
-7.613484
31
0
39
0
210
0
220
0
230
1
0
LINE
5
EC
100
AcDbEntity
8
1
62
256
6
ByLayer
370
18
48
1
60
0
100
AcDbLine
10
23.248975
20
-7.662938
30
0
11
23.248975
21
-7.7875
31
0
39
0
210
0
220
0
230
1
0
LINE
5
ED
100
AcDbEntity
8
1
62
256
6
ByLayer
370
13
48
1
60
0
100
AcDbLine
10
23.248975
20
-7.662938
30
0
11
21.778285
21
-7.662938
31
0
39
0
210
0
220
0
230
1
0
LINE
5
EE
100
AcDbEntity
8
1
62
256
6
ByLayer
370
18
48
1
60
0
100
AcDbLine
10
21.712703
20
-7.7875
30
0
11
23.248975
21
-7.7875
31
0
39
0
210
0
220
0
230
1
0
MTEXT
5
14F
100
AcDbEntity
8
SK6
62
256
6
ByLayer
370
18
48
1
60
0
100
AcDbMText
10
-38.717926
20
-54.261838
30
0
210
0
220
0
230
1
1
\W0.7497;C2R-QS16-LF17DS
40
3.5
41
0
44
1.084337
50
0
71
7
72
5
7
iso_b_vert
0
DIMENSION
5
154
100
AcDbEntity
8
2
62
256
6
ByLayer
370
18
48
1
60
0
100
AcDbDimension
2
_U0
10
61.693148
20
7.9625
30
0
11
61.693148
21
-0.0375
31
0
70
32
71
1
72
1
41
1
210
0
220
0
230
1
3
Standard
100
AcDbAlignedDimension
13
28.6
23
-8.0375
33
0
14
-41.4
24
7.9625
34
0
50
90
100
AcDbRotatedDimension
1001
ACAD
1000
DSTYLE
1002
{
1070
   371
1070
    13
1070
   372
1070
    13
1070
   170
1070
     0
1070
   144
1040
1.0
1070
   277
1070
     2
1070
   284
1070
     8
1070
   278
1070
    46
1070
   146
1040
1.0
1070
   345
1005
16
1070
   347
1005
16
1070
   346
1005
16
1070
   344
1005
0
1070
   343
1005
0
1070
   172
1070
     1
1070
    76
1070
     0
1070
    75
1070
     0
1070
   282
1070
     0
1070
   281
1070
     0
1070
    71
1070
     0
1070
    74
1070
     0
1070
   279
1070
     0
1070
   173
1070
     1
1070
   340
1005
150
1070
   271
1070
     2
1070
   272
1070
     2
1070
    77
1070
     1
1070
    73
1070
     0
1070
   171
1070
     3
1070
   274
1070
     4
1070
   177
1070
     2
1070
   176
1070
     2
1070
   178
1070
     2
1070
    78
1070
     8
1070
    48
1040
-0.1
1070
    41
1040
3.5
1070
   147
1040
1.75
1070
    42
1040
1.5875
1070
    44
1040
2.0
1070
   140
1040
3.5
1002
}
1001
ACAD_DSTYLE_DIM_LINETYPE
1070
   380
1005
16
1001
ACAD_DSTYLE_DIM_EXT1_LINETYPE
1070
   381
1005
16
1001
ACAD_DSTYLE_DIM_EXT2_LINETYPE
1070
   382
1005
16
0
DIMENSION
5
16F
100
AcDbEntity
8
2
62
256
6
ByLayer
370
18
48
1
60
0
100
AcDbDimension
2
_U1
10
49.693148
20
-8.0375
30
0
11
49.693148
21
-6.7875
31
0
70
32
71
1
72
1
41
1
210
0
220
0
230
1
3
Standard
100
AcDbAlignedDimension
13
28.6
23
-5.5375
33
0
14
28.6
24
-8.0375
34
0
50
90
100
AcDbRotatedDimension
1001
ACAD
1000
DSTYLE
1002
{
1070
   371
1070
    13
1070
   372
1070
    13
1070
   170
1070
     0
1070
   144
1040
1.0
1070
   277
1070
     2
1070
   284
1070
     8
1070
   278
1070
    46
1070
   146
1040
1.0
1070
   345
1005
16
1070
   347
1005
16
1070
   346
1005
16
1070
   344
1005
0
1070
   343
1005
0
1070
   172
1070
     1
1070
    76
1070
     0
1070
    75
1070
     0
1070
   282
1070
     0
1070
   281
1070
     0
1070
    71
1070
     0
1070
    74
1070
     0
1070
   279
1070
     0
1070
   173
1070
     1
1070
   340
1005
150
1070
   271
1070
     2
1070
   272
1070
     2
1070
    77
1070
     1
1070
    73
1070
     0
1070
   171
1070
     3
1070
   274
1070
     4
1070
   177
1070
     2
1070
   176
1070
     2
1070
   178
1070
     2
1070
    78
1070
     8
1070
    48
1040
-0.1
1070
    41
1040
3.5
1070
   147
1040
1.75
1070
    42
1040
1.5875
1070
    44
1040
2.0
1070
   140
1040
3.5
1002
}
1001
ACAD_DSTYLE_DIM_LINETYPE
1070
   380
1005
16
1001
ACAD_DSTYLE_DIM_EXT1_LINETYPE
1070
   381
1005
16
1001
ACAD_DSTYLE_DIM_EXT2_LINETYPE
1070
   382
1005
16
0
DIMENSION
5
188
100
AcDbEntity
8
SK2
62
256
6
ByLayer
370
18
48
1
60
0
100
AcDbDimension
2
_U2
10
-53
20
-8.0375
30
0
11
-53
21
-0.0375
31
0
70
32
71
1
72
1
41
1
210
0
220
0
230
1
3
Standard
100
AcDbAlignedDimension
13
-41.4
23
7.9625
33
0
14
-41.4
24
-8.0375
34
0
50
90
100
AcDbRotatedDimension
1001
ACAD
1000
DSTYLE
1002
{
1070
   371
1070
    13
1070
   372
1070
    13
1070
   170
1070
     0
1070
   144
1040
1.0
1070
   277
1070
     2
1070
   284
1070
     8
1070
   278
1070
    46
1070
   146
1040
1.0
1070
   345
1005
16
1070
   347
1005
16
1070
   346
1005
16
1070
   344
1005
0
1070
   343
1005
0
1070
   172
1070
     1
1070
    76
1070
     0
1070
    75
1070
     0
1070
   282
1070
     0
1070
   281
1070
     0
1070
    71
1070
     0
1070
    74
1070
     0
1070
   279
1070
     0
1070
   173
1070
     1
1070
   340
1005
150
1070
   271
1070
     2
1070
   272
1070
     2
1070
    77
1070
     1
1070
    73
1070
     0
1070
   171
1070
     3
1070
   274
1070
     4
1070
   177
1070
     2
1070
   176
1070
     2
1070
   178
1070
     2
1070
    78
1070
     8
1070
    48
1040
-0.1
1070
    41
1040
3.5
1070
   147
1040
1.75
1070
    42
1040
1.5875
1070
    44
1040
2.0
1070
   140
1040
3.5
1002
}
1001
ACAD_DSTYLE_DIM_LINETYPE
1070
   380
1005
16
1001
ACAD_DSTYLE_DIM_EXT1_LINETYPE
1070
   381
1005
16
1001
ACAD_DSTYLE_DIM_EXT2_LINETYPE
1070
   382
1005
16
0
DIMENSION
5
1A2
100
AcDbEntity
8
2
62
256
6
ByLayer
370
18
48
1
60
0
100
AcDbDimension
2
_U3
10
28.6
20
14.2125
30
0
11
20.1
21
14.2125
31
0
70
32
71
1
72
1
41
1
210
0
220
0
230
1
3
Standard
100
AcDbAlignedDimension
13
11.6
23
-5.7875
33
0
14
28.6
24
-8.0375
34
0
50
0
100
AcDbRotatedDimension
1001
ACAD
1000
DSTYLE
1002
{
1070
   371
1070
    13
1070
   372
1070
    13
1070
   170
1070
     0
1070
   144
1040
1.0
1070
   277
1070
     2
1070
   284
1070
     8
1070
   278
1070
    46
1070
   146
1040
1.0
1070
   345
1005
16
1070
   347
1005
16
1070
   346
1005
16
1070
   344
1005
0
1070
   343
1005
0
1070
   172
1070
     1
1070
    76
1070
     0
1070
    75
1070
     0
1070
   282
1070
     0
1070
   281
1070
     0
1070
    71
1070
     0
1070
    74
1070
     0
1070
   279
1070
     0
1070
   173
1070
     1
1070
   340
1005
150
1070
   271
1070
     1
1070
   272
1070
     2
1070
    77
1070
     1
1070
    73
1070
     1
1070
   171
1070
     3
1070
   274
1070
     4
1070
   177
1070
     2
1070
   176
1070
     2
1070
   178
1070
     2
1070
    78
1070
     8
1070
    48
1040
-0.1
1070
    41
1040
3.5
1070
   147
1040
1.75
1070
    42
1040
1.5875
1070
    44
1040
2.0
1070
   140
1040
3.5
1002
}
1001
ACAD_DSTYLE_DIM_LINETYPE
1070
   380
1005
16
1001
ACAD_DSTYLE_DIM_EXT1_LINETYPE
1070
   381
1005
16
1001
ACAD_DSTYLE_DIM_EXT2_LINETYPE
1070
   382
1005
16
0
DIMENSION
5
1BB
100
AcDbEntity
8
SK2
62
256
6
ByLayer
370
18
48
1
60
0
100
AcDbDimension
2
_U4
10
28.6
20
30.2125
30
0
11
-6.4
21
30.2125
31
0
70
32
71
1
72
1
41
1
210
0
220
0
230
1
3
Standard
100
AcDbAlignedDimension
13
-41.4
23
7.9625
33
0
14
28.6
24
-8.0375
34
0
50
0
100
AcDbRotatedDimension
1001
ACAD
1000
DSTYLE
1002
{
1070
   371
1070
    13
1070
   372
1070
    13
1070
   170
1070
     0
1070
   144
1040
1.0
1070
   277
1070
     2
1070
   284
1070
     8
1070
   278
1070
    46
1070
   146
1040
1.0
1070
   345
1005
16
1070
   347
1005
16
1070
   346
1005
16
1070
   344
1005
0
1070
   343
1005
0
1070
   172
1070
     1
1070
    76
1070
     0
1070
    75
1070
     0
1070
   282
1070
     0
1070
   281
1070
     0
1070
    71
1070
     0
1070
    74
1070
     0
1070
   279
1070
     0
1070
   173
1070
     1
1070
   340
1005
150
1070
   271
1070
     1
1070
   272
1070
     2
1070
    77
1070
     1
1070
    73
1070
     1
1070
   171
1070
     3
1070
   274
1070
     4
1070
   177
1070
     2
1070
   176
1070
     2
1070
   178
1070
     2
1070
    78
1070
     8
1070
    48
1040
-0.1
1070
    41
1040
3.5
1070
   147
1040
1.75
1070
    42
1040
1.5875
1070
    44
1040
2.0
1070
   140
1040
3.5
1002
}
1001
ACAD_DSTYLE_DIM_LINETYPE
1070
   380
1005
16
1001
ACAD_DSTYLE_DIM_EXT1_LINETYPE
1070
   381
1005
16
1001
ACAD_DSTYLE_DIM_EXT2_LINETYPE
1070
   382
1005
16
0
ENDSEC
0
SECTION
2
OBJECTS
0
DICTIONARY
5
242
330
0
100
AcDbDictionary
280
0
281
1
3
ACAD_GROUP
350
243
3
ACAD_MLINESTYLE
350
244
0
DICTIONARY
5
243
330
0
100
AcDbDictionary
280
0
281
1
0
DICTIONARY
5
244
330
0
100
AcDbDictionary
280
0
281
1
3
Standard
350
18
0
MLINESTYLE
5
18
330
244
100
AcDbMlineStyle
2
Standard
70
0
3

62
256
51
90
52
90
71
2
49
-0.5
62
256
6
ByLayer
49
0.5
62
256
6
ByLayer
0
RASTERVARIABLES
5
231
330

100
AcDbRasterVariables
90
0
70
1
71
1
72
1
0
ENDSEC
0
EOF
