0
SECTION
2
HEADER
9
$ACADVER
1
AC1015
9
$DWGCODEPAGE
3
ANSI_1252
9
$HANDSEED
5
26d
9
$ANGBASE
50
0
9
$ANGDIR
70
0
9
$ATTMODE
70
1
9
$AUNITS
70
0
9
$AUPREC
70
0
9
$CECOLOR
62
256
9
$CELTSCALE
40
1
9
$CELTYPE
6
ByLayer
9
$CELWEIGHT
370
18
9
$CLAYER
8
0
9
$CMLJUST
70
0
9
$CMLSCALE
40
1
9
$CMLSTYLE
2
Standard
9
$DIMSTYLE
2
Standard
9
$TEXTSIZE
40
0.2
9
$TEXTSTYLE
7
Standard
9
$LUNITS
70
2
9
$LUPREC
70
4
9
$EXTNAMES
290
1
9
$INSUNITS
70
4
9
$LTSCALE
40
1
9
$LWDISPLAY
290
1
9
$PDMODE
70
0
9
$PDSIZE
40
0
9
$PLINEGEN
70
0
0
ENDSEC
0
SECTION
2
CLASSES
0
CLASS
1
RASTERVARIABLES
2
AcDbRasterVariables
3
ISM
90
0
280
0
281
0
0
ENDSEC
0
SECTION
2
TABLES
0
TABLE
2
VPORT
5
263
100
AcDbSymbolTable
0
VPORT
5
1
100
AcDbSymbolTableRecord
100
AcDbViewportTableRecord
2
*Active
70
0
10
0
20
0
11
1
21
1
12
-1
22
1
13
0
23
0
14
0.5
24
0.5
15
10
25
10
16
0
26
0
36
1
17
0
27
0
37
0
0
ENDTAB
0
TABLE
2
LTYPE
5
264
100
AcDbSymbolTable
0
LTYPE
5
14
100
AcDbSymbolTableRecord
100
AcDbLinetypeTableRecord
70
0
2
ByBlock
3

72
65
73
0
40
0
0
LTYPE
5
15
100
AcDbSymbolTableRecord
100
AcDbLinetypeTableRecord
70
0
2
ByLayer
3

72
65
73
0
40
0
0
LTYPE
5
16
100
AcDbSymbolTableRecord
100
AcDbLinetypeTableRecord
70
0
2
Continuous
3
Solid line
72
65
73
0
40
0
0
LTYPE
5
6E
100
AcDbSymbolTableRecord
100
AcDbLinetypeTableRecord
70
0
2
CENTER
3
____ _ ____ _ ____ _ ____
72
65
73
4
40
47.5
49
22
74
0
49
-8.5
74
0
49
8.5
74
0
49
-8.5
74
0
0
LTYPE
5
6F
100
AcDbSymbolTableRecord
100
AcDbLinetypeTableRecord
70
0
2
DASHED
3
__ __ __ __ __ __ __ __ __
72
65
73
2
40
25.72
49
12.86
74
0
49
-12.86
74
0
0
ENDTAB
0
TABLE
2
LAYER
5
265
100
AcDbSymbolTable
0
LAYER
5
10
100
AcDbSymbolTableRecord
100
AcDbLayerTableRecord
2
0
70
0
62
7
6
Continuous
290
1
370
-3
390
0
0
LAYER
5
71
100
AcDbSymbolTableRecord
100
AcDbLayerTableRecord
2
81
70
0
62
-3
6
Continuous
290
1
370
-3
390
0
0
LAYER
5
73
100
AcDbSymbolTableRecord
100
AcDbLayerTableRecord
2
80
70
0
62
-6
6
Continuous
290
1
370
-3
390
0
0
LAYER
5
75
100
AcDbSymbolTableRecord
100
AcDbLayerTableRecord
2
1
70
0
62
4
6
Continuous
290
1
370
-3
390
0
0
LAYER
5
146
100
AcDbSymbolTableRecord
100
AcDbLayerTableRecord
2
Defpoints
70
0
62
7
6
Continuous
290
0
370
-3
390
0
0
LAYER
5
153
100
AcDbSymbolTableRecord
100
AcDbLayerTableRecord
2
2
70
0
62
7
6
Continuous
290
1
370
-3
390
0
0
LAYER
5
250
100
AcDbSymbolTableRecord
100
AcDbLayerTableRecord
2
SK1
70
0
62
4
6
Continuous
290
1
370
-3
390
0
0
LAYER
5
251
100
AcDbSymbolTableRecord
100
AcDbLayerTableRecord
2
SK6
70
0
62
5
6
Continuous
290
1
370
-3
390
0
0
LAYER
5
252
100
AcDbSymbolTableRecord
100
AcDbLayerTableRecord
2
SK2
70
0
62
7
6
Continuous
290
1
370
-3
390
0
0
ENDTAB
0
TABLE
2
STYLE
5
266
100
AcDbSymbolTable
0
STYLE
5
11
100
AcDbSymbolTableRecord
100
AcDbTextStyleTableRecord
2
Standard
3
txt
70
0
71
0
40
0
41
1
42
0
50
0
0
STYLE
5
13F
100
AcDbSymbolTableRecord
100
AcDbTextStyleTableRecord
2
iso_b_vert
3
simplex.shx
70
0
71
0
40
0
41
1
42
0
50
0
0
STYLE
5
140
100
AcDbSymbolTableRecord
100
AcDbTextStyleTableRecord
2
DWGDirectTextStyle
3
simplex
70
0
71
0
40
0
41
1
42
0
50
0
0
ENDTAB
0
TABLE
2
DIMSTYLE
5
267
100
AcDbSymbolTable
100
AcDbDimStyleTable
0
DIMSTYLE
105
27
100
AcDbSymbolTableRecord
100
AcDbDimStyleTableRecord
2
Standard
70
0
3
<>
41
0.18
42
0.0625
44
0.18
140
0.18
147
0.09
73
0
74
0
77
1
271
2
275
0
278
52
280
0
340
11
0
ENDTAB
0
TABLE
2
VIEW
5
268
100
AcDbSymbolTable
0
ENDTAB
0
TABLE
2
UCS
5
269
100
AcDbSymbolTable
0
ENDTAB
0
TABLE
2
APPID
5
26a
100
AcDbSymbolTable
0
APPID
5
12
100
AcDbSymbolTableRecord
100
AcDbRegAppTableRecord
2
ACAD
70
0
0
APPID
5
142
100
AcDbSymbolTableRecord
100
AcDbRegAppTableRecord
2
ACAD_DSTYLE_DIMBREAK
70
0
0
APPID
5
20F
100
AcDbSymbolTableRecord
100
AcDbRegAppTableRecord
2
ACAD_DSTYLE_DIM_LINETYPE
70
0
0
APPID
5
210
100
AcDbSymbolTableRecord
100
AcDbRegAppTableRecord
2
ACAD_DSTYLE_DIM_EXT1_LINETYPE
70
0
0
APPID
5
211
100
AcDbSymbolTableRecord
100
AcDbRegAppTableRecord
2
ACAD_DSTYLE_DIM_EXT2_LINETYPE
70
0
0
APPID
5
24C
100
AcDbSymbolTableRecord
100
AcDbRegAppTableRecord
2
ACAD_MLEADERVER
70
0
0
ENDTAB
0
TABLE
2
BLOCK_RECORD
5
26b
100
AcDbSymbolTable
0
BLOCK_RECORD
5
1F
100
AcDbSymbolTableRecord
100
AcDbBlockTableRecord
2
*Model_Space
340
0
70
0
0
BLOCK_RECORD
5
1B
100
AcDbSymbolTableRecord
100
AcDbBlockTableRecord
2
*Paper_Space
340
0
70
0
0
BLOCK_RECORD
5
23
100
AcDbSymbolTableRecord
100
AcDbBlockTableRecord
2
*Paper_Space0
340
0
70
0
0
BLOCK_RECORD
5
147
100
AcDbSymbolTableRecord
100
AcDbBlockTableRecord
2
*D1
340
0
70
0
0
BLOCK_RECORD
5
154
100
AcDbSymbolTableRecord
100
AcDbBlockTableRecord
2
_U0
340
0
70
0
0
BLOCK_RECORD
5
160
100
AcDbSymbolTableRecord
100
AcDbBlockTableRecord
2
*D3
340
0
70
0
0
BLOCK_RECORD
5
16D
100
AcDbSymbolTableRecord
100
AcDbBlockTableRecord
2
_U1
340
0
70
0
0
BLOCK_RECORD
5
179
100
AcDbSymbolTableRecord
100
AcDbBlockTableRecord
2
*D5
340
0
70
0
0
BLOCK_RECORD
5
186
100
AcDbSymbolTableRecord
100
AcDbBlockTableRecord
2
_U2
340
0
70
0
0
BLOCK_RECORD
5
192
100
AcDbSymbolTableRecord
100
AcDbBlockTableRecord
2
*D7
340
0
70
0
0
BLOCK_RECORD
5
19F
100
AcDbSymbolTableRecord
100
AcDbBlockTableRecord
2
_U3
340
0
70
0
0
BLOCK_RECORD
5
1AB
100
AcDbSymbolTableRecord
100
AcDbBlockTableRecord
2
*D9
340
0
70
0
0
BLOCK_RECORD
5
1B7
100
AcDbSymbolTableRecord
100
AcDbBlockTableRecord
2
_U4
340
0
70
0
0
BLOCK_RECORD
5
1C3
100
AcDbSymbolTableRecord
100
AcDbBlockTableRecord
2
*D11
340
0
70
0
0
BLOCK_RECORD
5
1CF
100
AcDbSymbolTableRecord
100
AcDbBlockTableRecord
2
_U5
340
0
70
0
0
BLOCK_RECORD
5
1DB
100
AcDbSymbolTableRecord
100
AcDbBlockTableRecord
2
*D13
340
0
70
0
0
BLOCK_RECORD
5
1E8
100
AcDbSymbolTableRecord
100
AcDbBlockTableRecord
2
_U6
340
0
70
0
0
ENDTAB
0
ENDSEC
0
SECTION
2
BLOCKS
0
BLOCK
5
20
100
AcDbEntity
8
0
100
AcDbBlockBegin
2
*Model_Space
70
0
10
0
20
0
30
0
3
*Model_Space
0
ENDBLK
5
21
100
AcDbEntity
8
0
100
AcDbBlockEnd
0
BLOCK
5
1C
100
AcDbEntity
8
0
100
AcDbBlockBegin
2
*Paper_Space
70
0
10
0
20
0
30
0
3
*Paper_Space
0
ENDBLK
5
1D
100
AcDbEntity
8
0
100
AcDbBlockEnd
0
BLOCK
5
24
100
AcDbEntity
8
0
100
AcDbBlockBegin
2
*Paper_Space0
70
0
10
0
20
0
30
0
3
*Paper_Space0
0
ENDBLK
5
25
100
AcDbEntity
8
0
100
AcDbBlockEnd
0
BLOCK
5
148
100
AcDbEntity
8
0
100
AcDbBlockBegin
2
*D1
70
1
10
0
20
0
30
0
3
*D1
0
LINE
5
14A
100
AcDbEntity
8
0
62
256
6
ByLayer
370
-2
48
1
60
0
100
AcDbLine
10
24.5875
20
-29.5375
30
0
11
56.758418
21
-29.5375
31
0
39
0
210
0
220
0
230
1
0
LINE
5
14B
100
AcDbEntity
8
0
62
256
6
ByLayer
370
-2
48
1
60
0
100
AcDbLine
10
1.5875
20
12.4625
30
0
11
56.758418
21
12.4625
31
0
39
0
210
0
220
0
230
1
0
LINE
5
14C
100
AcDbEntity
8
0
62
256
6
ByLayer
370
-2
48
1
60
0
100
AcDbLine
10
54.758418
20
-26.0375
30
0
11
54.758418
21
8.9625
31
0
39
0
210
0
220
0
230
1
0
SOLID
5
14D
100
AcDbEntity
8
0
62
256
6
ByLayer
370
-1
48
1
60
0
100
AcDbTrace
10
54.175085
20
-26.0375
30
0
11
55.341752
21
-26.0375
31
0
12
54.758418
22
-29.5375
32
0
13
54.758418
23
-29.5375
33
0
39
0
210
0
220
0
230
1
0
SOLID
5
14E
100
AcDbEntity
8
0
62
256
6
ByLayer
370
-1
48
1
60
0
100
AcDbTrace
10
55.341752
20
8.9625
30
0
11
54.175085
21
8.9625
31
0
12
54.758418
22
12.4625
32
0
13
54.758418
23
12.4625
33
0
39
0
210
0
220
0
230
1
0
MTEXT
5
14F
100
AcDbEntity
8
0
62
256
6
ByLayer
370
18
48
1
60
0
100
AcDbMText
10
47.758418
20
-8.5375
30
0
210
0
220
0
230
1
1
\A1;42
40
3.5
41
0
44
1
50
90
71
5
72
5
7
iso_b_vert
0
POINT
5
150
100
AcDbEntity
8
Defpoints
62
0
6
ByLayer
370
-1
48
1
60
0
100
AcDbPoint
10
23
20
-29.5375
30
0
39
0
210
0
220
0
230
1
50
360
0
POINT
5
151
100
AcDbEntity
8
Defpoints
62
0
6
ByLayer
370
-1
48
1
60
0
100
AcDbPoint
10
0
20
12.4625
30
0
39
0
210
0
220
0
230
1
50
360
0
POINT
5
152
100
AcDbEntity
8
Defpoints
62
0
6
ByLayer
370
-1
48
1
60
0
100
AcDbPoint
10
54.758418
20
12.4625
30
0
39
0
210
0
220
0
230
1
50
360
0
ENDBLK
5
149
100
AcDbEntity
8
0
100
AcDbBlockEnd
0
BLOCK
5
15B
100
AcDbEntity
8
0
100
AcDbBlockBegin
2
_U0
70
0
10
0
20
0
30
0
3
_U0
0
MTEXT
5
155
100
AcDbEntity
8
2
62
256
6
ByLayer
370
18
48
1
60
0
100
AcDbMText
10
54.068785
20
-10.654733
30
0
210
0
220
0
230
1
1
\W0.7361;42
40
3.5
41
0
44
1.084337
50
90
71
7
72
5
7
iso_b_vert
0
LINE
5
156
100
AcDbEntity
8
2
62
256
6
ByLayer
370
13
48
1
60
0
100
AcDbLine
10
24.5875
20
-29.5375
30
0
11
56.758418
21
-29.5375
31
0
39
0
210
0
220
0
230
1
0
LINE
5
157
100
AcDbEntity
8
2
62
256
6
ByLayer
370
13
48
1
60
0
100
AcDbLine
10
1.5875
20
12.4625
30
0
11
56.758418
21
12.4625
31
0
39
0
210
0
220
0
230
1
0
LINE
5
158
100
AcDbEntity
8
2
62
256
6
ByLayer
370
13
48
1
60
0
100
AcDbLine
10
54.758418
20
-29.5375
30
0
11
54.758418
21
12.4625
31
0
39
0
210
0
220
0
230
1
0
SOLID
5
159
100
AcDbEntity
8
2
62
256
6
ByLayer
370
18
48
1
60
0
100
AcDbTrace
10
54.758418
20
-29.5375
30
0
11
54.297635
21
-26.037502
31
0
12
55.219202
22
-26.037498
32
0
13
55.219202
23
-26.037498
33
0
39
0
210
0
220
0
230
1
0
SOLID
5
15A
100
AcDbEntity
8
2
62
256
6
ByLayer
370
18
48
1
60
0
100
AcDbTrace
10
54.758418
20
12.4625
30
0
11
55.219202
21
8.962502
31
0
12
54.297635
22
8.962498
32
0
13
54.297635
23
8.962498
33
0
39
0
210
0
220
0
230
1
0
ENDBLK
5
15C
100
AcDbEntity
8
0
100
AcDbBlockEnd
0
BLOCK
5
161
100
AcDbEntity
8
0
100
AcDbBlockBegin
2
*D3
70
1
10
0
20
0
30
0
3
*D3
0
LINE
5
163
100
AcDbEntity
8
0
62
256
6
ByLayer
370
-2
48
1
60
0
100
AcDbLine
10
20.913718
20
-14.5375
30
0
11
46.758418
21
-14.5375
31
0
39
0
210
0
220
0
230
1
0
LINE
5
164
100
AcDbEntity
8
0
62
256
6
ByLayer
370
-2
48
1
60
0
100
AcDbLine
10
24.5875
20
-29.5375
30
0
11
46.758418
21
-29.5375
31
0
39
0
210
0
220
0
230
1
0
LINE
5
165
100
AcDbEntity
8
0
62
256
6
ByLayer
370
-2
48
1
60
0
100
AcDbLine
10
44.758418
20
-11.0375
30
0
11
44.758418
21
-7.5375
31
0
39
0
210
0
220
0
230
1
0
LINE
5
166
100
AcDbEntity
8
0
62
256
6
ByLayer
370
-2
48
1
60
0
100
AcDbLine
10
44.758418
20
-33.0375
30
0
11
44.758418
21
-36.5375
31
0
39
0
210
0
220
0
230
1
0
SOLID
5
167
100
AcDbEntity
8
0
62
256
6
ByLayer
370
-1
48
1
60
0
100
AcDbTrace
10
44.175085
20
-11.0375
30
0
11
45.341752
21
-11.0375
31
0
12
44.758418
22
-14.5375
32
0
13
44.758418
23
-14.5375
33
0
39
0
210
0
220
0
230
1
0
SOLID
5
168
100
AcDbEntity
8
0
62
256
6
ByLayer
370
-1
48
1
60
0
100
AcDbTrace
10
45.341752
20
-33.0375
30
0
11
44.175085
21
-33.0375
31
0
12
44.758418
22
-29.5375
32
0
13
44.758418
23
-29.5375
33
0
39
0
210
0
220
0
230
1
0
MTEXT
5
169
100
AcDbEntity
8
0
62
256
6
ByLayer
370
18
48
1
60
0
100
AcDbMText
10
37.758418
20
-22.0375
30
0
210
0
220
0
230
1
1
\A1;15
40
3.5
41
0
44
1
50
90
71
5
72
5
7
iso_b_vert
0
POINT
5
16A
100
AcDbEntity
8
Defpoints
62
0
6
ByLayer
370
-1
48
1
60
0
100
AcDbPoint
10
19.326218
20
-14.5375
30
0
39
0
210
0
220
0
230
1
50
360
0
POINT
5
16B
100
AcDbEntity
8
Defpoints
62
0
6
ByLayer
370
-1
48
1
60
0
100
AcDbPoint
10
23
20
-29.5375
30
0
39
0
210
0
220
0
230
1
50
360
0
POINT
5
16C
100
AcDbEntity
8
Defpoints
62
0
6
ByLayer
370
-1
48
1
60
0
100
AcDbPoint
10
44.758418
20
-29.5375
30
0
39
0
210
0
220
0
230
1
50
360
0
ENDBLK
5
162
100
AcDbEntity
8
0
100
AcDbBlockEnd
0
BLOCK
5
174
100
AcDbEntity
8
0
100
AcDbBlockBegin
2
_U1
70
0
10
0
20
0
30
0
3
_U1
0
MTEXT
5
16E
100
AcDbEntity
8
2
62
256
6
ByLayer
370
18
48
1
60
0
100
AcDbMText
10
44.068785
20
-23.533033
30
0
210
0
220
0
230
1
1
\W0.5321;15
40
3.5
41
0
44
1.084337
50
90
71
7
72
5
7
iso_b_vert
0
LINE
5
16F
100
AcDbEntity
8
2
62
256
6
ByLayer
370
13
48
1
60
0
100
AcDbLine
10
20.913718
20
-14.5375
30
0
11
46.758418
21
-14.5375
31
0
39
0
210
0
220
0
230
1
0
LINE
5
170
100
AcDbEntity
8
2
62
256
6
ByLayer
370
13
48
1
60
0
100
AcDbLine
10
24.5875
20
-29.5375
30
0
11
46.758418
21
-29.5375
31
0
39
0
210
0
220
0
230
1
0
LINE
5
171
100
AcDbEntity
8
2
62
256
6
ByLayer
370
13
48
1
60
0
100
AcDbLine
10
44.758418
20
-14.5375
30
0
11
44.758418
21
-29.5375
31
0
39
0
210
0
220
0
230
1
0
SOLID
5
172
100
AcDbEntity
8
2
62
256
6
ByLayer
370
18
48
1
60
0
100
AcDbTrace
10
44.758418
20
-14.5375
30
0
11
45.219202
21
-18.037498
31
0
12
44.297635
22
-18.037502
32
0
13
44.297635
23
-18.037502
33
0
39
0
210
0
220
0
230
1
0
SOLID
5
173
100
AcDbEntity
8
2
62
256
6
ByLayer
370
18
48
1
60
0
100
AcDbTrace
10
44.758418
20
-29.5375
30
0
11
44.297635
21
-26.037502
31
0
12
45.219202
22
-26.037498
32
0
13
45.219202
23
-26.037498
33
0
39
0
210
0
220
0
230
1
0
ENDBLK
5
175
100
AcDbEntity
8
0
100
AcDbBlockEnd
0
BLOCK
5
17A
100
AcDbEntity
8
0
100
AcDbBlockBegin
2
*D5
70
1
10
0
20
0
30
0
3
*D5
0
LINE
5
17C
100
AcDbEntity
8
0
62
256
6
ByLayer
370
-2
48
1
60
0
100
AcDbLine
10
-1.5875
20
12.4625
30
0
11
-97.6
21
12.4625
31
0
39
0
210
0
220
0
230
1
0
LINE
5
17D
100
AcDbEntity
8
0
62
256
6
ByLayer
370
-2
48
1
60
0
100
AcDbLine
10
-1.5875
20
-12.5375
30
0
11
-97.6
21
-12.5375
31
0
39
0
210
0
220
0
230
1
0
LINE
5
17E
100
AcDbEntity
8
0
62
256
6
ByLayer
370
-2
48
1
60
0
100
AcDbLine
10
-95.6
20
8.9625
30
0
11
-95.6
21
-9.0375
31
0
39
0
210
0
220
0
230
1
0
SOLID
5
17F
100
AcDbEntity
8
0
62
256
6
ByLayer
370
-1
48
1
60
0
100
AcDbTrace
10
-95.016667
20
8.9625
30
0
11
-96.183333
21
8.9625
31
0
12
-95.6
22
12.4625
32
0
13
-95.6
23
12.4625
33
0
39
0
210
0
220
0
230
1
0
SOLID
5
180
100
AcDbEntity
8
0
62
256
6
ByLayer
370
-1
48
1
60
0
100
AcDbTrace
10
-96.183333
20
-9.0375
30
0
11
-95.016667
21
-9.0375
31
0
12
-95.6
22
-12.5375
32
0
13
-95.6
23
-12.5375
33
0
39
0
210
0
220
0
230
1
0
MTEXT
5
181
100
AcDbEntity
8
0
62
256
6
ByLayer
370
18
48
1
60
0
100
AcDbMText
10
-102.6
20
-0.0375
30
0
210
0
220
0
230
1
1
\A1;25
40
3.5
41
0
44
1
50
90
71
5
72
5
7
iso_b_vert
0
POINT
5
182
100
AcDbEntity
8
Defpoints
62
0
6
ByLayer
370
-1
48
1
60
0
100
AcDbPoint
10
0
20
12.4625
30
0
39
0
210
0
220
0
230
1
50
360
0
POINT
5
183
100
AcDbEntity
8
Defpoints
62
0
6
ByLayer
370
-1
48
1
60
0
100
AcDbPoint
10
0
20
-12.5375
30
0
39
0
210
0
220
0
230
1
50
360
0
POINT
5
184
100
AcDbEntity
8
Defpoints
62
0
6
ByLayer
370
-1
48
1
60
0
100
AcDbPoint
10
-95.6
20
-12.5375
30
0
39
0
210
0
220
0
230
1
50
360
0
ENDBLK
5
17B
100
AcDbEntity
8
0
100
AcDbBlockEnd
0
BLOCK
5
18D
100
AcDbEntity
8
0
100
AcDbBlockBegin
2
_U2
70
0
10
0
20
0
30
0
3
_U2
0
MTEXT
5
187
100
AcDbEntity
8
SK2
62
256
6
ByLayer
370
18
48
1
60
0
100
AcDbMText
10
-96.289634
20
-1.970466
30
0
210
0
220
0
230
1
1
\W0.6740;25
40
3.5
41
0
44
1.084337
50
90
71
7
72
5
7
iso_b_vert
0
LINE
5
188
100
AcDbEntity
8
SK2
62
256
6
ByLayer
370
13
48
1
60
0
100
AcDbLine
10
-1.5875
20
12.4625
30
0
11
-97.6
21
12.4625
31
0
39
0
210
0
220
0
230
1
0
LINE
5
189
100
AcDbEntity
8
SK2
62
256
6
ByLayer
370
13
48
1
60
0
100
AcDbLine
10
-1.5875
20
-12.5375
30
0
11
-97.6
21
-12.5375
31
0
39
0
210
0
220
0
230
1
0
LINE
5
18A
100
AcDbEntity
8
SK2
62
256
6
ByLayer
370
13
48
1
60
0
100
AcDbLine
10
-95.6
20
12.4625
30
0
11
-95.6
21
-12.5375
31
0
39
0
210
0
220
0
230
1
0
SOLID
5
18B
100
AcDbEntity
8
SK2
62
256
6
ByLayer
370
18
48
1
60
0
100
AcDbTrace
10
-95.6
20
12.4625
30
0
11
-95.139216
21
8.962502
31
0
12
-96.060784
22
8.962498
32
0
13
-96.060784
23
8.962498
33
0
39
0
210
0
220
0
230
1
0
SOLID
5
18C
100
AcDbEntity
8
SK2
62
256
6
ByLayer
370
18
48
1
60
0
100
AcDbTrace
10
-95.6
20
-12.5375
30
0
11
-96.060784
21
-9.037502
31
0
12
-95.139216
22
-9.037498
32
0
13
-95.139216
23
-9.037498
33
0
39
0
210
0
220
0
230
1
0
ENDBLK
5
18E
100
AcDbEntity
8
0
100
AcDbBlockEnd
0
BLOCK
5
193
100
AcDbEntity
8
0
100
AcDbBlockBegin
2
*D7
70
1
10
0
20
0
30
0
3
*D7
0
LINE
5
195
100
AcDbEntity
8
0
62
256
6
ByLayer
370
-2
48
1
60
0
100
AcDbLine
10
19
20
-31.125
30
0
11
19
21
-41.2875
31
0
39
0
210
0
220
0
230
1
0
LINE
5
196
100
AcDbEntity
8
0
62
256
6
ByLayer
370
-2
48
1
60
0
100
AcDbLine
10
23
20
-31.125
30
0
11
23
21
-41.2875
31
0
39
0
210
0
220
0
230
1
0
LINE
5
197
100
AcDbEntity
8
0
62
256
6
ByLayer
370
-2
48
1
60
0
100
AcDbLine
10
15.5
20
-39.2875
30
0
11
12
21
-39.2875
31
0
39
0
210
0
220
0
230
1
0
LINE
5
198
100
AcDbEntity
8
0
62
256
6
ByLayer
370
-2
48
1
60
0
100
AcDbLine
10
26.5
20
-39.2875
30
0
11
30
21
-39.2875
31
0
39
0
210
0
220
0
230
1
0
SOLID
5
199
100
AcDbEntity
8
0
62
256
6
ByLayer
370
-1
48
1
60
0
100
AcDbTrace
10
15.5
20
-39.870833
30
0
11
15.5
21
-38.704167
31
0
12
19
22
-39.2875
32
0
13
19
23
-39.2875
33
0
39
0
210
0
220
0
230
1
0
SOLID
5
19A
100
AcDbEntity
8
0
62
256
6
ByLayer
370
-1
48
1
60
0
100
AcDbTrace
10
26.5
20
-38.704167
30
0
11
26.5
21
-39.870833
31
0
12
23
22
-39.2875
32
0
13
23
23
-39.2875
33
0
39
0
210
0
220
0
230
1
0
MTEXT
5
19B
100
AcDbEntity
8
0
62
256
6
ByLayer
370
18
48
1
60
0
100
AcDbMText
10
21
20
-32.2875
30
0
210
0
220
0
230
1
1
\A1;4
40
3.5
41
0
44
1
50
0
71
5
72
5
7
iso_b_vert
0
POINT
5
19C
100
AcDbEntity
8
Defpoints
62
0
6
ByLayer
370
-1
48
1
60
0
100
AcDbPoint
10
19
20
-29.5375
30
0
39
0
210
0
220
0
230
1
50
360
0
POINT
5
19D
100
AcDbEntity
8
Defpoints
62
0
6
ByLayer
370
-1
48
1
60
0
100
AcDbPoint
10
23
20
-29.5375
30
0
39
0
210
0
220
0
230
1
50
360
0
POINT
5
19E
100
AcDbEntity
8
Defpoints
62
0
6
ByLayer
370
-1
48
1
60
0
100
AcDbPoint
10
23
20
-39.2875
30
0
39
0
210
0
220
0
230
1
50
360
0
ENDBLK
5
194
100
AcDbEntity
8
0
100
AcDbBlockEnd
0
BLOCK
5
1A6
100
AcDbEntity
8
0
100
AcDbBlockBegin
2
_U3
70
0
10
0
20
0
30
0
3
_U3
0
MTEXT
5
1A0
100
AcDbEntity
8
2
62
256
6
ByLayer
370
18
48
1
60
0
100
AcDbMText
10
20.2185
20
-38.254866
30
0
210
0
220
0
230
1
1
\W0.6380;4
40
3.5
41
0
44
1.084337
50
0
71
7
72
5
7
iso_b_vert
0
LINE
5
1A1
100
AcDbEntity
8
2
62
256
6
ByLayer
370
13
48
1
60
0
100
AcDbLine
10
19
20
-31.125
30
0
11
19
21
-41.2875
31
0
39
0
210
0
220
0
230
1
0
LINE
5
1A2
100
AcDbEntity
8
2
62
256
6
ByLayer
370
13
48
1
60
0
100
AcDbLine
10
23
20
-31.125
30
0
11
23
21
-41.2875
31
0
39
0
210
0
220
0
230
1
0
LINE
5
1A3
100
AcDbEntity
8
2
62
256
6
ByLayer
370
13
48
1
60
0
100
AcDbLine
10
10.25
20
-39.2875
30
0
11
31.75
21
-39.2875
31
0
39
0
210
0
220
0
230
1
0
SOLID
5
1A4
100
AcDbEntity
8
2
62
256
6
ByLayer
370
18
48
1
60
0
100
AcDbTrace
10
19
20
-39.2875
30
0
11
15.500002
21
-39.748284
31
0
12
15.499998
22
-38.826716
32
0
13
15.499998
23
-38.826716
33
0
39
0
210
0
220
0
230
1
0
SOLID
5
1A5
100
AcDbEntity
8
2
62
256
6
ByLayer
370
18
48
1
60
0
100
AcDbTrace
10
23
20
-39.2875
30
0
11
26.499998
21
-38.826716
31
0
12
26.500002
22
-39.748284
32
0
13
26.500002
23
-39.748284
33
0
39
0
210
0
220
0
230
1
0
ENDBLK
5
1A7
100
AcDbEntity
8
0
100
AcDbBlockEnd
0
BLOCK
5
1AC
100
AcDbEntity
8
0
100
AcDbBlockBegin
2
*D9
70
1
10
0
20
0
30
0
3
*D9
0
LINE
5
1AE
100
AcDbEntity
8
0
62
256
6
ByLayer
370
-2
48
1
60
0
100
AcDbLine
10
-84
20
10.875
30
0
11
-84
21
-57.2875
31
0
39
0
210
0
220
0
230
1
0
LINE
5
1AF
100
AcDbEntity
8
0
62
256
6
ByLayer
370
-2
48
1
60
0
100
AcDbLine
10
23
20
-31.125
30
0
11
23
21
-57.2875
31
0
39
0
210
0
220
0
230
1
0
LINE
5
1B0
100
AcDbEntity
8
0
62
256
6
ByLayer
370
-2
48
1
60
0
100
AcDbLine
10
-80.5
20
-55.2875
30
0
11
19.5
21
-55.2875
31
0
39
0
210
0
220
0
230
1
0
SOLID
5
1B1
100
AcDbEntity
8
0
62
256
6
ByLayer
370
-1
48
1
60
0
100
AcDbTrace
10
-80.5
20
-54.704167
30
0
11
-80.5
21
-55.870833
31
0
12
-84
22
-55.2875
32
0
13
-84
23
-55.2875
33
0
39
0
210
0
220
0
230
1
0
SOLID
5
1B2
100
AcDbEntity
8
0
62
256
6
ByLayer
370
-1
48
1
60
0
100
AcDbTrace
10
19.5
20
-55.870833
30
0
11
19.5
21
-54.704167
31
0
12
23
22
-55.2875
32
0
13
23
23
-55.2875
33
0
39
0
210
0
220
0
230
1
0
MTEXT
5
1B3
100
AcDbEntity
8
0
62
256
6
ByLayer
370
18
48
1
60
0
100
AcDbMText
10
-30.5
20
-48.2875
30
0
210
0
220
0
230
1
1
\A1;107
40
3.5
41
0
44
1
50
0
71
5
72
5
7
iso_b_vert
0
POINT
5
1B4
100
AcDbEntity
8
Defpoints
62
0
6
ByLayer
370
-1
48
1
60
0
100
AcDbPoint
10
-84
20
12.4625
30
0
39
0
210
0
220
0
230
1
50
360
0
POINT
5
1B5
100
AcDbEntity
8
Defpoints
62
0
6
ByLayer
370
-1
48
1
60
0
100
AcDbPoint
10
23
20
-29.5375
30
0
39
0
210
0
220
0
230
1
50
360
0
POINT
5
1B6
100
AcDbEntity
8
Defpoints
62
0
6
ByLayer
370
-1
48
1
60
0
100
AcDbPoint
10
23
20
-55.2875
30
0
39
0
210
0
220
0
230
1
50
360
0
ENDBLK
5
1AD
100
AcDbEntity
8
0
100
AcDbBlockEnd
0
BLOCK
5
1BE
100
AcDbEntity
8
0
100
AcDbBlockBegin
2
_U4
70
0
10
0
20
0
30
0
3
_U4
0
MTEXT
5
1B8
100
AcDbEntity
8
SK2
62
256
6
ByLayer
370
18
48
1
60
0
100
AcDbMText
10
-33.275266
20
-54.254866
30
0
210
0
220
0
230
1
1
\W0.6217;107
40
3.5
41
0
44
1.084337
50
0
71
7
72
5
7
iso_b_vert
0
LINE
5
1B9
100
AcDbEntity
8
SK2
62
256
6
ByLayer
370
13
48
1
60
0
100
AcDbLine
10
-84
20
10.875
30
0
11
-84
21
-57.2875
31
0
39
0
210
0
220
0
230
1
0
LINE
5
1BA
100
AcDbEntity
8
SK2
62
256
6
ByLayer
370
13
48
1
60
0
100
AcDbLine
10
23
20
-31.125
30
0
11
23
21
-57.2875
31
0
39
0
210
0
220
0
230
1
0
LINE
5
1BB
100
AcDbEntity
8
SK2
62
256
6
ByLayer
370
13
48
1
60
0
100
AcDbLine
10
-84
20
-55.2875
30
0
11
23
21
-55.2875
31
0
39
0
210
0
220
0
230
1
0
SOLID
5
1BC
100
AcDbEntity
8
SK2
62
256
6
ByLayer
370
18
48
1
60
0
100
AcDbTrace
10
-84
20
-55.2875
30
0
11
-80.500002
21
-54.826716
31
0
12
-80.499998
22
-55.748284
32
0
13
-80.499998
23
-55.748284
33
0
39
0
210
0
220
0
230
1
0
SOLID
5
1BD
100
AcDbEntity
8
SK2
62
256
6
ByLayer
370
18
48
1
60
0
100
AcDbTrace
10
23
20
-55.2875
30
0
11
19.500002
21
-55.748284
31
0
12
19.499998
22
-54.826716
32
0
13
19.499998
23
-54.826716
33
0
39
0
210
0
220
0
230
1
0
ENDBLK
5
1BF
100
AcDbEntity
8
0
100
AcDbBlockEnd
0
BLOCK
5
1C4
100
AcDbEntity
8
0
100
AcDbBlockBegin
2
*D11
70
1
10
0
20
0
30
0
3
*D11
0
LINE
5
1C6
100
AcDbEntity
8
0
62
256
6
ByLayer
370
-2
48
1
60
0
100
AcDbLine
10
0
20
10.875
30
0
11
0
21
-49.2875
31
0
39
0
210
0
220
0
230
1
0
LINE
5
1C7
100
AcDbEntity
8
0
62
256
6
ByLayer
370
-2
48
1
60
0
100
AcDbLine
10
23
20
-31.125
30
0
11
23
21
-49.2875
31
0
39
0
210
0
220
0
230
1
0
LINE
5
1C8
100
AcDbEntity
8
0
62
256
6
ByLayer
370
-2
48
1
60
0
100
AcDbLine
10
3.5
20
-47.2875
30
0
11
19.5
21
-47.2875
31
0
39
0
210
0
220
0
230
1
0
SOLID
5
1C9
100
AcDbEntity
8
0
62
256
6
ByLayer
370
-1
48
1
60
0
100
AcDbTrace
10
3.5
20
-46.704167
30
0
11
3.5
21
-47.870833
31
0
12
0
22
-47.2875
32
0
13
0
23
-47.2875
33
0
39
0
210
0
220
0
230
1
0
SOLID
5
1CA
100
AcDbEntity
8
0
62
256
6
ByLayer
370
-1
48
1
60
0
100
AcDbTrace
10
19.5
20
-47.870833
30
0
11
19.5
21
-46.704167
31
0
12
23
22
-47.2875
32
0
13
23
23
-47.2875
33
0
39
0
210
0
220
0
230
1
0
MTEXT
5
1CB
100
AcDbEntity
8
0
62
256
6
ByLayer
370
18
48
1
60
0
100
AcDbMText
10
11.5
20
-40.2875
30
0
210
0
220
0
230
1
1
\A1;23
40
3.5
41
0
44
1
50
0
71
5
72
5
7
iso_b_vert
0
POINT
5
1CC
100
AcDbEntity
8
Defpoints
62
0
6
ByLayer
370
-1
48
1
60
0
100
AcDbPoint
10
0
20
12.4625
30
0
39
0
210
0
220
0
230
1
50
360
0
POINT
5
1CD
100
AcDbEntity
8
Defpoints
62
0
6
ByLayer
370
-1
48
1
60
0
100
AcDbPoint
10
23
20
-29.5375
30
0
39
0
210
0
220
0
230
1
50
360
0
POINT
5
1CE
100
AcDbEntity
8
Defpoints
62
0
6
ByLayer
370
-1
48
1
60
0
100
AcDbPoint
10
23
20
-47.2875
30
0
39
0
210
0
220
0
230
1
50
360
0
ENDBLK
5
1C5
100
AcDbEntity
8
0
100
AcDbBlockEnd
0
BLOCK
5
1D6
100
AcDbEntity
8
0
100
AcDbBlockBegin
2
_U5
70
0
10
0
20
0
30
0
3
_U5
0
MTEXT
5
1D0
100
AcDbEntity
8
2
62
256
6
ByLayer
370
18
48
1
60
0
100
AcDbMText
10
9.595034
20
-46.254866
30
0
210
0
220
0
230
1
1
\W0.6740;23
40
3.5
41
0
44
1.084337
50
0
71
7
72
5
7
iso_b_vert
0
LINE
5
1D1
100
AcDbEntity
8
2
62
256
6
ByLayer
370
13
48
1
60
0
100
AcDbLine
10
0
20
10.875
30
0
11
0
21
-49.2875
31
0
39
0
210
0
220
0
230
1
0
LINE
5
1D2
100
AcDbEntity
8
2
62
256
6
ByLayer
370
13
48
1
60
0
100
AcDbLine
10
23
20
-31.125
30
0
11
23
21
-49.2875
31
0
39
0
210
0
220
0
230
1
0
LINE
5
1D3
100
AcDbEntity
8
2
62
256
6
ByLayer
370
13
48
1
60
0
100
AcDbLine
10
0
20
-47.2875
30
0
11
23
21
-47.2875
31
0
39
0
210
0
220
0
230
1
0
SOLID
5
1D4
100
AcDbEntity
8
2
62
256
6
ByLayer
370
18
48
1
60
0
100
AcDbTrace
10
0
20
-47.2875
30
0
11
3.499998
21
-46.826716
31
0
12
3.500002
22
-47.748284
32
0
13
3.500002
23
-47.748284
33
0
39
0
210
0
220
0
230
1
0
SOLID
5
1D5
100
AcDbEntity
8
2
62
256
6
ByLayer
370
18
48
1
60
0
100
AcDbTrace
10
23
20
-47.2875
30
0
11
19.500002
21
-47.748284
31
0
12
19.499998
22
-46.826716
32
0
13
19.499998
23
-46.826716
33
0
39
0
210
0
220
0
230
1
0
ENDBLK
5
1D7
100
AcDbEntity
8
0
100
AcDbBlockEnd
0
BLOCK
5
1DC
100
AcDbEntity
8
0
100
AcDbBlockBegin
2
*D13
70
1
10
0
20
0
30
0
3
*D13
0
LINE
5
1DE
100
AcDbEntity
8
0
62
256
6
ByLayer
370
-2
48
1
60
0
100
AcDbLine
10
-84
20
14.05
30
0
11
-84
21
20.7125
31
0
39
0
210
0
220
0
230
1
0
LINE
5
1DF
100
AcDbEntity
8
0
62
256
6
ByLayer
370
-2
48
1
60
0
100
AcDbLine
10
-81
20
14.05
30
0
11
-81
21
20.7125
31
0
39
0
210
0
220
0
230
1
0
LINE
5
1E0
100
AcDbEntity
8
0
62
256
6
ByLayer
370
-2
48
1
60
0
100
AcDbLine
10
-87.5
20
18.7125
30
0
11
-91
21
18.7125
31
0
39
0
210
0
220
0
230
1
0
LINE
5
1E1
100
AcDbEntity
8
0
62
256
6
ByLayer
370
-2
48
1
60
0
100
AcDbLine
10
-77.5
20
18.7125
30
0
11
-74
21
18.7125
31
0
39
0
210
0
220
0
230
1
0
SOLID
5
1E2
100
AcDbEntity
8
0
62
256
6
ByLayer
370
-1
48
1
60
0
100
AcDbTrace
10
-87.5
20
18.129167
30
0
11
-87.5
21
19.295833
31
0
12
-84
22
18.7125
32
0
13
-84
23
18.7125
33
0
39
0
210
0
220
0
230
1
0
SOLID
5
1E3
100
AcDbEntity
8
0
62
256
6
ByLayer
370
-1
48
1
60
0
100
AcDbTrace
10
-77.5
20
19.295833
30
0
11
-77.5
21
18.129167
31
0
12
-81
22
18.7125
32
0
13
-81
23
18.7125
33
0
39
0
210
0
220
0
230
1
0
MTEXT
5
1E4
100
AcDbEntity
8
0
62
256
6
ByLayer
370
18
48
1
60
0
100
AcDbMText
10
-82.5
20
25.7125
30
0
210
0
220
0
230
1
1
\A1;3
40
3.5
41
0
44
1
50
0
71
5
72
5
7
iso_b_vert
0
POINT
5
1E5
100
AcDbEntity
8
Defpoints
62
0
6
ByLayer
370
-1
48
1
60
0
100
AcDbPoint
10
-84
20
12.4625
30
0
39
0
210
0
220
0
230
1
50
360
0
POINT
5
1E6
100
AcDbEntity
8
Defpoints
62
0
6
ByLayer
370
-1
48
1
60
0
100
AcDbPoint
10
-81
20
12.4625
30
0
39
0
210
0
220
0
230
1
50
360
0
POINT
5
1E7
100
AcDbEntity
8
Defpoints
62
0
6
ByLayer
370
-1
48
1
60
0
100
AcDbPoint
10
-81
20
18.7125
30
0
39
0
210
0
220
0
230
1
50
360
0
ENDBLK
5
1DD
100
AcDbEntity
8
0
100
AcDbBlockEnd
0
BLOCK
5
1EF
100
AcDbEntity
8
0
100
AcDbBlockBegin
2
_U6
70
0
10
0
20
0
30
0
3
_U6
0
MTEXT
5
1E9
100
AcDbEntity
8
SK2
62
256
6
ByLayer
370
18
48
1
60
0
100
AcDbMText
10
-83.097233
20
19.745134
30
0
210
0
220
0
230
1
1
\W0.5404;3
40
3.5
41
0
44
1.084337
50
0
71
7
72
5
7
iso_b_vert
0
LINE
5
1EA
100
AcDbEntity
8
SK2
62
256
6
ByLayer
370
13
48
1
60
0
100
AcDbLine
10
-84
20
14.05
30
0
11
-84
21
20.7125
31
0
39
0
210
0
220
0
230
1
0
LINE
5
1EB
100
AcDbEntity
8
SK2
62
256
6
ByLayer
370
13
48
1
60
0
100
AcDbLine
10
-81
20
14.05
30
0
11
-81
21
20.7125
31
0
39
0
210
0
220
0
230
1
0
LINE
5
1EC
100
AcDbEntity
8
SK2
62
256
6
ByLayer
370
13
48
1
60
0
100
AcDbLine
10
-92.75
20
18.7125
30
0
11
-72.25
21
18.7125
31
0
39
0
210
0
220
0
230
1
0
SOLID
5
1ED
100
AcDbEntity
8
SK2
62
256
6
ByLayer
370
18
48
1
60
0
100
AcDbTrace
10
-84
20
18.7125
30
0
11
-87.499998
21
18.251716
31
0
12
-87.500002
22
19.173284
32
0
13
-87.500002
23
19.173284
33
0
39
0
210
0
220
0
230
1
0
SOLID
5
1EE
100
AcDbEntity
8
SK2
62
256
6
ByLayer
370
18
48
1
60
0
100
AcDbTrace
10
-81
20
18.7125
30
0
11
-77.500002
21
19.173284
31
0
12
-77.499998
22
18.251716
32
0
13
-77.499998
23
18.251716
33
0
39
0
210
0
220
0
230
1
0
ENDBLK
5
1F0
100
AcDbEntity
8
0
100
AcDbBlockEnd
0
ENDSEC
0
SECTION
2
ENTITIES
0
ARC
5
E0
100
AcDbEntity
8
SK1
62
256
6
ByLayer
370
18
48
1
60
0
100
AcDbCircle
39
0
10
-1.227723
20
-14.0625
30
0
40
1.59999999999929
210
0
220
0
230
1
100
AcDbArc
50
70.954238
51
90
0
ARC
5
E2
100
AcDbEntity
8
SK1
62
256
6
ByLayer
370
18
48
1
60
0
100
AcDbCircle
39
0
10
-1.227723
20
-14.0625
30
0
40
1.60000000008977
210
0
220
0
230
1
100
AcDbArc
50
44.678264
51
59.022608
0
ARC
5
E3
100
AcDbEntity
8
1
62
256
6
ByLayer
370
18
48
1
60
0
100
AcDbCircle
39
0
10
10.846708
20
-6.1875
30
0
40
2.1768
210
0
220
0
230
1
100
AcDbArc
50
90
51
150
0
ARC
5
E4
100
AcDbEntity
8
1
62
256
6
ByLayer
370
18
48
1
60
0
100
AcDbCircle
39
0
10
10.846708
20
-6.1875
30
0
40
2.1768
210
0
220
0
230
1
100
AcDbArc
50
30
51
90
0
ARC
5
E5
100
AcDbEntity
8
1
62
256
6
ByLayer
370
18
48
1
60
0
100
AcDbCircle
39
0
10
10.846708
20
-6.1875
30
0
40
2.1768
210
0
220
0
230
1
100
AcDbArc
50
330
51
30
0
ARC
5
E6
100
AcDbEntity
8
1
62
256
6
ByLayer
370
18
48
1
60
0
100
AcDbCircle
39
0
10
10.846708
20
-6.1875
30
0
40
2.1768
210
0
220
0
230
1
100
AcDbArc
50
270
51
330
0
ARC
5
E7
100
AcDbEntity
8
1
62
256
6
ByLayer
370
18
48
1
60
0
100
AcDbCircle
39
0
10
10.846708
20
-6.1875
30
0
40
2.1768
210
0
220
0
230
1
100
AcDbArc
50
150
51
210
0
ARC
5
E8
100
AcDbEntity
8
1
62
256
6
ByLayer
370
18
48
1
60
0
100
AcDbCircle
39
0
10
10.846708
20
-6.1875
30
0
40
2.1768
210
0
220
0
230
1
100
AcDbArc
50
210
51
270
0
ARC
5
EB
100
AcDbEntity
8
1
62
256
6
ByLayer
370
18
48
1
60
0
100
AcDbCircle
39
0
10
10.846708
20
-6.1875
30
0
40
2.8067
210
0
220
0
230
1
100
AcDbArc
50
180
51
240
0
ARC
5
EC
100
AcDbEntity
8
1
62
256
6
ByLayer
370
18
48
1
60
0
100
AcDbCircle
39
0
10
10.846708
20
-6.1875
30
0
40
2.8067
210
0
220
0
230
1
100
AcDbArc
50
300
51
0
0
ARC
5
ED
100
AcDbEntity
8
1
62
256
6
ByLayer
370
18
48
1
60
0
100
AcDbCircle
39
0
10
10.846708
20
-6.1875
30
0
40
2.8067
210
0
220
0
230
1
100
AcDbArc
50
60
51
120
0
ARC
5
EE
100
AcDbEntity
8
1
62
256
6
ByLayer
370
18
48
1
60
0
100
AcDbCircle
39
0
10
10.846708
20
-6.1875
30
0
40
2.8067
210
0
220
0
230
1
100
AcDbArc
50
240
51
300
0
ARC
5
EF
100
AcDbEntity
8
1
62
256
6
ByLayer
370
18
48
1
60
0
100
AcDbCircle
39
0
10
10.846708
20
-6.1875
30
0
40
2.8067
210
0
220
0
230
1
100
AcDbArc
50
0
51
60
0
ARC
5
F0
100
AcDbEntity
8
1
62
256
6
ByLayer
370
18
48
1
60
0
100
AcDbCircle
39
0
10
10.846708
20
-6.1875
30
0
40
2.8067
210
0
220
0
230
1
100
AcDbArc
50
120
51
180
0
CIRCLE
5
E1
100
AcDbEntity
8
1
62
256
6
ByLayer
370
18
48
1
60
0
100
AcDbCircle
10
10.846708
20
-6.1875
30
0
40
5.75000000000001
39
0
210
0
220
0
230
1
0
CIRCLE
5
E9
100
AcDbEntity
8
1
62
256
6
ByLayer
370
13
48
1
60
0
100
AcDbCircle
10
10.846708
20
-6.1875
30
0
40
4.55
39
0
210
0
220
0
230
1
0
CIRCLE
5
EA
100
AcDbEntity
8
1
62
256
6
ByLayer
370
18
48
1
60
0
100
AcDbCircle
10
10.846708
20
-6.1875
30
0
40
5.35
39
0
210
0
220
0
230
1
0
ELLIPSE
5
F1
100
AcDbEntity
8
SK1
62
256
6
ByLayer
370
18
48
1
60
0
100
AcDbEllipse
10
-3.301981
20
9.213274
30
0
11
0.0800284643767941
21
26.7548845691145
31
0
210
0
220
0
230
1
40
0.112089
41
-2.51488828824767
42
-1.8059163949196
0
ELLIPSE
5
F2
100
AcDbEntity
8
SK1
62
256
6
ByLayer
370
18
48
1
60
0
100
AcDbEllipse
10
-3.301981
20
11.629512
30
0
11
3.00000000000001
21
3.51436609374759E-15
31
0
210
0
220
0
230
1
40
0.36397
41
0.261799387799133
42
0.867743619458232
0
ELLIPSE
5
F3
100
AcDbEntity
8
SK1
62
256
6
ByLayer
370
18
48
1
60
0
100
AcDbEllipse
10
-26.727085
20
7.024187
30
0
11
64.91000929508
21
0.189768002605994
31
0
210
0
220
0
230
1
40
0.02602
41
-1.15201363530698
42
-1.14649224956551
0
ELLIPSE
5
F4
100
AcDbEntity
8
SK1
62
256
6
ByLayer
370
18
48
1
60
0
100
AcDbEllipse
10
-0.09649
20
7.024588
30
0
11
1.04091540074873E-16
21
1.69999999999953
31
0
210
0
220
0
230
1
40
0.267949
41
-0.213443417161826
42
0.741684883854162
0
ELLIPSE
5
F5
100
AcDbEntity
8
SK1
62
256
6
ByLayer
370
18
48
1
60
0
100
AcDbEllipse
10
-0.09649
20
7.024588
30
0
11
1.040915400726E-16
21
1.6999999999624
31
0
210
0
220
0
230
1
40
0.267949
41
2.39990776973195
42
2.61098135638238
0
ELLIPSE
5
F6
100
AcDbEntity
8
1
62
256
6
ByLayer
370
18
48
1
60
0
100
AcDbEllipse
10
-26.734356
20
7.024588
30
0
11
64.920380617418
21
0.189625594226013
31
0
210
0
220
0
230
1
40
0.026023
41
-1.1464414805459
42
-1.14412011787266
0
ELLIPSE
5
F7
100
AcDbEntity
8
1
62
256
6
ByLayer
370
18
48
1
60
0
100
AcDbEllipse
10
-0.09649
20
7.024588
30
0
11
1.04091540074902E-16
21
1.7
31
0
210
0
220
0
230
1
40
0.267949
41
-2.928149236428
42
-0.213443417161794
0
ELLIPSE
5
F8
100
AcDbEntity
8
1
62
256
6
ByLayer
370
18
48
1
60
0
100
AcDbEllipse
10
8.550467
20
-21.050266
30
0
11
36.534352660001
21
0.62863904501876
31
0
210
0
220
0
230
1
40
0.020388
41
-1.23244032006722
42
-1.21643700463336
0
ELLIPSE
5
F9
100
AcDbEntity
8
1
62
256
6
ByLayer
370
18
48
1
60
0
100
AcDbEllipse
10
42.991969
20
133.127555
30
0
11
3.2944019682113
21
1836.07598046976
31
0
210
0
220
0
230
1
40
0.012764
41
1.65133044133295
42
1.65488635393522
0
ELLIPSE
5
FA
100
AcDbEntity
8
1
62
256
6
ByLayer
370
18
48
1
60
0
100
AcDbEllipse
10
43.001218
20
-22.697755
30
0
11
1.71783731867171E-15
21
28.0553389799066
31
0
210
0
220
0
230
1
40
0.843868
41
1.40391342907344
42
1.5149344288519
0
ELLIPSE
5
FB
100
AcDbEntity
8
1
62
256
6
ByLayer
370
18
48
1
60
0
100
AcDbEllipse
10
21.343603
20
-18.757878
30
0
11
0.0660113679815242
21
1.20197394725062
31
0
210
0
220
0
230
1
40
0.664257
41
0.965094923230647
42
-0.892166385933994
0
ELLIPSE
5
FC
100
AcDbEntity
8
1
62
256
6
ByLayer
370
18
48
1
60
0
100
AcDbEllipse
10
49.201218
20
-22.697755
30
0
11
1.92463082860611E-15
21
31.432644826621
31
0
210
0
220
0
230
1
40
0.843868
41
1.42198610448927
42
1.51555971755844
0
ELLIPSE
5
FD
100
AcDbEntity
8
1
62
256
6
ByLayer
370
18
48
1
60
0
100
AcDbEllipse
10
49.114434
20
-431.615555
30
0
11
3.66153104291927
21
-1327.93675607555
31
0
210
0
220
0
230
1
40
0.019717
41
-1.88610821327249
42
-1.88415268668966
0
ELLIPSE
5
FE
100
AcDbEntity
8
1
62
256
6
ByLayer
370
18
48
1
60
0
100
AcDbEllipse
10
49.201218
20
-33.296898
30
0
11
26.5250000000097
21
3.10728535455628E-14
31
0
210
0
220
0
230
1
40
0.501253
41
2.29343816837063
42
2.77550596544904
0
ELLIPSE
5
FF
100
AcDbEntity
8
1
62
256
6
ByLayer
370
18
48
1
60
0
100
AcDbEllipse
10
49.201218
20
-23.650469
30
0
11
2.31809100807856E-15
21
37.8585494161953
31
0
210
0
220
0
230
1
40
0.700634
41
1.26320749246392
42
1.42198610450717
0
ELLIPSE
5
100
100
AcDbEntity
8
1
62
256
6
ByLayer
370
18
48
1
60
0
100
AcDbEllipse
10
43.001218
20
-23.650469
30
0
11
2.06902185138257E-15
21
33.7908070609713
31
0
210
0
220
0
230
1
40
0.700634
41
1.29772749084101
42
1.40391342903305
0
ELLIPSE
5
101
100
AcDbEntity
8
1
62
256
6
ByLayer
370
18
48
1
60
0
100
AcDbEllipse
10
21.338246
20
-18.952065
30
0
11
0.063104801429043
21
1.52663735511523
31
0
210
0
220
0
230
1
40
0.52345
41
-0.906996813582054
42
0.950264495582645
0
ELLIPSE
5
102
100
AcDbEntity
8
1
62
256
6
ByLayer
370
18
48
1
60
0
100
AcDbEllipse
10
49.201218
20
12.694125
30
0
11
26.5249999998319
21
3.10728535453546E-14
31
0
210
0
220
0
230
1
40
0.36397
41
-3.11759849669084
42
-2.83400381925538
0
ELLIPSE
5
103
100
AcDbEntity
8
1
62
256
6
ByLayer
370
18
48
1
60
0
100
AcDbEllipse
10
19.326218
20
-12.122176
30
0
11
-5.12199213853776E-16
21
-2.78837474183734
31
0
210
0
220
0
230
1
40
0.573811
41
3.14159265358979
42
-1.5707963267949
0
ELLIPSE
5
104
100
AcDbEntity
8
SK1
62
256
6
ByLayer
370
18
48
1
60
0
100
AcDbEllipse
10
-3.301981
20
0.239089
30
0
11
0.0800284643817799
21
26.7548845690415
31
0
210
0
220
0
230
1
40
0.112089
41
-2.06885178157565
42
-1.80591639491833
0
ELLIPSE
5
105
100
AcDbEntity
8
SK1
62
256
6
ByLayer
370
18
48
1
60
0
100
AcDbEllipse
10
-0.09649
20
7.024588
30
0
11
1.04091540086628E-16
21
1.70000000019151
31
0
210
0
220
0
230
1
40
0.267949
41
-3.07469377540402
42
-2.92814923644002
0
ELLIPSE
5
106
100
AcDbEntity
8
1
62
256
6
ByLayer
370
18
48
1
60
0
100
AcDbEllipse
10
22.700183
20
-29.2375
30
0
11
-5.5107285922007E-17
21
-0.3
31
0
210
0
220
0
230
1
40
0.999391
41
0
42
1.614429558062
0
ELLIPSE
5
107
100
AcDbEntity
8
1
62
256
6
ByLayer
370
18
48
1
60
0
100
AcDbEllipse
10
19.302254
20
-29.2375
30
0
11
1.83690953073357E-17
21
0.3
31
0
210
0
220
0
230
1
40
0.999391
41
1.52716309552779
42
3.14159265358979
0
ELLIPSE
5
108
100
AcDbEntity
8
1
62
256
6
ByLayer
370
18
48
1
60
0
100
AcDbEllipse
10
22.317418
20
-21.972018
30
0
11
0.07193398081454
21
-0.0719339790598012
31
0
210
0
220
0
230
1
40
0.965689
41
2.37364777046756
42
2.54818069575514
0
ELLIPSE
5
109
100
AcDbEntity
8
1
62
256
6
ByLayer
370
18
48
1
60
0
100
AcDbEllipse
10
21.630644
20
-22.09394
30
0
11
0.0719339800266499
21
-0.0719339800266499
31
0
210
0
220
0
230
1
40
0.965689
41
2.54818071699128
42
3.03773126271983
0
ELLIPSE
5
10A
100
AcDbEntity
8
1
62
256
6
ByLayer
370
18
48
1
60
0
100
AcDbEllipse
10
20.296859
20
-22.09394
30
0
11
0.0719339801234534
21
-0.0719339799225434
31
0
210
0
220
0
230
1
40
0.965689
41
1.70956430127249
42
2.19911484703633
0
ELLIPSE
5
10B
100
AcDbEntity
8
1
62
256
6
ByLayer
370
18
48
1
60
0
100
AcDbEllipse
10
19.601575
20
-21.972018
30
0
11
0.0719339808284202
21
-0.0719339790568937
31
0
210
0
220
0
230
1
40
0.965689
41
2.19911484514465
42
2.37364777043272
0
POINT
5
70
100
AcDbEntity
8
81
62
256
6
ByLayer
370
18
48
1
60
0
100
AcDbPoint
10
23
20
-29.5375
30
0
39
0
210
0
220
0
230
1
50
360
0
POINT
5
72
100
AcDbEntity
8
80
62
256
6
ByLayer
370
18
48
1
60
0
100
AcDbPoint
10
0
20
0
30
0
39
0
210
0
220
0
230
1
50
360
0
POINT
5
74
100
AcDbEntity
8
1
62
256
6
ByLayer
370
18
48
1
60
1
100
AcDbPoint
10
23
20
-29.5375
30
0
39
0
210
0
220
0
230
1
50
360
0
POINT
5
76
100
AcDbEntity
8
1
62
256
6
ByLayer
370
18
48
1
60
1
100
AcDbPoint
10
0
20
12.4625
30
0
39
0
210
0
220
0
230
1
50
360
0
POINT
5
77
100
AcDbEntity
8
1
62
256
6
ByLayer
370
18
48
1
60
1
100
AcDbPoint
10
19.326218
20
-14.5375
30
0
39
0
210
0
220
0
230
1
50
360
0
POINT
5
78
100
AcDbEntity
8
1
62
256
6
ByLayer
370
18
48
1
60
1
100
AcDbPoint
10
23
20
-29.5375
30
0
39
0
210
0
220
0
230
1
50
360
0
POINT
5
79
100
AcDbEntity
8
1
62
256
6
ByLayer
370
18
48
1
60
1
100
AcDbPoint
10
0
20
12.4625
30
0
39
0
210
0
220
0
230
1
50
360
0
POINT
5
7A
100
AcDbEntity
8
1
62
256
6
ByLayer
370
18
48
1
60
1
100
AcDbPoint
10
0
20
-12.5375
30
0
39
0
210
0
220
0
230
1
50
360
0
POINT
5
7B
100
AcDbEntity
8
1
62
256
6
ByLayer
370
18
48
1
60
1
100
AcDbPoint
10
19
20
-29.5375
30
0
39
0
210
0
220
0
230
1
50
360
0
POINT
5
7C
100
AcDbEntity
8
1
62
256
6
ByLayer
370
18
48
1
60
1
100
AcDbPoint
10
23
20
-29.5375
30
0
39
0
210
0
220
0
230
1
50
360
0
POINT
5
7D
100
AcDbEntity
8
1
62
256
6
ByLayer
370
18
48
1
60
1
100
AcDbPoint
10
-84
20
12.4625
30
0
39
0
210
0
220
0
230
1
50
360
0
POINT
5
7E
100
AcDbEntity
8
1
62
256
6
ByLayer
370
18
48
1
60
1
100
AcDbPoint
10
23
20
-29.5375
30
0
39
0
210
0
220
0
230
1
50
360
0
POINT
5
7F
100
AcDbEntity
8
1
62
256
6
ByLayer
370
18
48
1
60
1
100
AcDbPoint
10
0
20
12.4625
30
0
39
0
210
0
220
0
230
1
50
360
0
POINT
5
80
100
AcDbEntity
8
1
62
256
6
ByLayer
370
18
48
1
60
1
100
AcDbPoint
10
23
20
-29.5375
30
0
39
0
210
0
220
0
230
1
50
360
0
POINT
5
81
100
AcDbEntity
8
1
62
256
6
ByLayer
370
18
48
1
60
1
100
AcDbPoint
10
-84
20
12.4625
30
0
39
0
210
0
220
0
230
1
50
360
0
POINT
5
82
100
AcDbEntity
8
1
62
256
6
ByLayer
370
18
48
1
60
1
100
AcDbPoint
10
-81
20
12.4625
30
0
39
0
210
0
220
0
230
1
50
360
0
SPLINE
5
10C
100
AcDbEntity
8
SK1
62
256
6
ByLayer
370
18
48
1
60
0
100
AcDbSpline
70
4
71
3
72
44
73
40
40
0
40
0
40
0
40
0
40
0.0625000000000001
40
0.0625000000000001
40
0.125
40
0.125
40
0.1875
40
0.1875
40
0.21875
40
0.21875
40
0.250000000000001
40
0.250000000000001
40
0.312500000000001
40
0.375000000000002
40
0.375000000000002
40
0.406250000000002
40
0.406250000000002
40
0.437500000000002
40
0.437500000000002
40
0.500000000000002
40
0.562500000000002
40
0.578125000000002
40
0.578125000000002
40
0.593750000000002
40
0.593750000000002
40
0.625000000000002
40
0.625000000000002
40
0.687500000000002
40
0.750000000000001
40
0.750000000000001
40
0.781250000000001
40
0.781250000000001
40
0.812500000000001
40
0.812500000000001
40
0.875000000000001
40
0.875000000000001
40
0.9375
40
0.9375
40
1
40
1
40
1
40
1
41
1
10
-0.404203485069701
20
5.77112459905655
30
0
41
1
10
-0.415843011309136
20
5.81092299036959
30
0
41
1
10
-0.427851279621223
20
5.85255573605781
30
0
41
1
10
-0.452080066122278
20
5.9394069549904
30
0
41
1
10
-0.464301915724462
20
5.98462577438309
30
0
41
1
10
-0.488451686853693
20
6.07871015168621
30
0
41
1
10
-0.500380779269534
20
6.12757522528048
30
0
41
1
10
-0.517658676112347
20
6.20376145850341
30
0
41
1
10
-0.523328305135379
20
6.22970349572225
30
0
41
1
10
-0.534326378954404
20
6.28228279930039
30
0
41
1
10
-0.539640493054577
20
6.30884644063522
30
0
41
1
10
-0.55494296144596
20
6.3893615564462
30
0
41
1
10
-0.5736396302689
20
6.49890849647596
30
0
41
1
10
-0.588033122976015
20
6.61297319535407
30
0
41
1
10
-0.59688178646968
20
6.70031968683222
30
0
41
1
10
-0.599512625518599
20
6.72982787872044
30
0
41
1
10
-0.604022351948686
20
6.78879251882668
30
0
41
1
10
-0.605907838700659
20
6.81829032459189
30
0
41
1
10
-0.610438855169662
20
6.90682967267151
30
0
41
1
10
-0.61347536492255
20
7.02500444720937
30
0
41
1
10
-0.610022377641428
20
7.1582248499453
30
0
41
1
10
-0.605727542178585
20
7.23233295089167
30
0
41
1
10
-0.603820750660191
20
7.26198402118234
30
0
41
1
10
-0.602770729255298
20
7.27683830237086
30
0
41
1
10
-0.599360285193399
20
7.32114337831493
30
0
41
1
10
-0.596738027207522
20
7.35038131847372
30
0
41
1
10
-0.58790653765621
20
7.43723285093517
30
0
41
1
10
-0.573558657094992
20
7.55073984649431
30
0
41
1
10
-0.554925072195033
20
7.6599041999236
30
0
41
1
10
-0.539667452972679
20
7.74018989834025
30
0
41
1
10
-0.53436794558047
20
7.76668670564825
30
0
41
1
10
-0.523397247306463
20
7.81915061696756
30
0
41
1
10
-0.517718318484015
20
7.84514579281165
30
0
41
1
10
-0.500419865483622
20
7.92143988231177
30
0
41
1
10
-0.488478773738535
20
7.97035794274103
30
0
41
1
10
-0.464310728823421
20
8.06451827914361
30
0
41
1
10
-0.452082594296542
20
8.10976002711118
30
0
41
1
10
-0.427847772717854
20
8.19663280339668
30
0
41
1
10
-0.415839757003681
20
8.23826414348619
30
0
41
1
10
-0.404203485069701
20
8.27805140753176
30
0
0
SPLINE
5
10D
100
AcDbEntity
8
1
62
256
6
ByLayer
370
18
48
1
60
0
100
AcDbSpline
70
4
71
3
72
10
73
6
40
0
40
0
40
0
40
0
40
0.5
40
0.5
40
1
40
1
40
1
40
1
41
1
10
20.4565379423253
20
-21.2746018647875
30
0
41
1
10
20.2740862444935
20
-21.2517099821723
30
0
41
1
10
20.0916965873015
20
-21.2285231221094
30
0
41
1
10
19.7271679585165
20
-21.1810482158927
30
0
41
1
10
19.5450212335087
20
-21.1567959171557
30
0
41
1
10
19.3631482710529
20
-21.1313449944649
30
0
0
SPLINE
5
10E
100
AcDbEntity
8
1
62
256
6
ByLayer
370
18
48
1
60
0
100
AcDbSpline
70
4
71
3
72
8
73
4
40
0
40
0
40
0
40
0
40
1
40
1
40
1
40
1
41
1
10
20.5463446280473
20
-21.4672888403872
30
0
41
1
10
20.5157143274225
20
-21.4032486351649
30
0
41
1
10
20.4855226513991
20
-21.3390892391382
30
0
41
1
10
20.4565379423253
20
-21.2746018647875
30
0
0
SPLINE
5
10F
100
AcDbEntity
8
1
62
256
6
ByLayer
370
18
48
1
60
0
100
AcDbSpline
70
4
71
3
72
22
73
18
40
0
40
0
40
0
40
0
40
0.125
40
0.125
40
0.25
40
0.25
40
0.375
40
0.375
40
0.5
40
0.5
40
0.625
40
0.625
40
0.75
40
0.75
40
0.875
40
0.875
40
1
40
1
40
1
40
1
41
1
10
20.6896517612007
20
-21.5442293405598
30
0
41
1
10
20.6817721598209
20
-21.5444214776726
30
0
41
1
10
20.6739358344659
20
-21.5441083988225
30
0
41
1
10
20.658532213988
20
-21.5425214933038
30
0
41
1
10
20.6509351213921
20
-21.5412484820622
30
0
41
1
10
20.6359541064869
20
-21.5377262380352
30
0
41
1
10
20.6286192775818
20
-21.5354776106219
30
0
41
1
10
20.6147073392647
20
-21.5301840407092
30
0
41
1
10
20.6080605419194
20
-21.5271239734485
30
0
41
1
10
20.5953790295836
20
-21.5201856440099
30
0
41
1
10
20.5893134495006
20
-21.5162741943477
30
0
41
1
10
20.5782157020384
20
-21.5079123173142
30
0
41
1
10
20.5731285299074
20
-21.5034387187585
30
0
41
1
10
20.5638411903099
20
-21.4939292736072
30
0
41
1
10
20.5596193842119
20
-21.4888613677023
30
0
41
1
10
20.5521855304271
20
-21.478295487284
30
0
41
1
10
20.5490105429026
20
-21.4728625935319
30
0
41
1
10
20.5463446280473
20
-21.467288840387
30
0
0
SPLINE
5
110
100
AcDbEntity
8
1
62
256
6
ByLayer
370
18
48
1
60
0
100
AcDbSpline
70
4
71
3
72
18
73
14
40
0
40
0
40
0
40
0
40
0.25
40
0.25
40
0.5
40
0.5
40
0.625
40
0.625
40
0.75
40
0.75
40
0.875
40
0.875
40
1
40
1
40
1
40
1
41
1
10
21.378071528186
20
-21.4460569832531
30
0
41
1
10
21.3733923325494
20
-21.4576248217848
30
0
41
1
10
21.3667507262256
20
-21.4685085760758
30
0
41
1
10
21.349243576171
20
-21.4888036461751
30
0
41
1
10
21.3387560707644
20
-21.4977724367373
30
0
41
1
10
21.3203261096235
20
-21.5092993568263
30
0
41
1
10
21.3138058206024
20
-21.5127596997672
30
0
41
1
10
21.3002219263584
20
-21.5188065943277
30
0
41
1
10
21.2931276899856
20
-21.521413046168
30
0
41
1
10
21.2783024286602
20
-21.5257475265059
30
0
41
1
10
21.2706698725495
20
-21.5274396283031
30
0
41
1
10
21.255269702879
20
-21.529820772421
30
0
41
1
10
21.2474567713409
20
-21.5305236770059
30
0
41
1
10
21.2395266101343
20
-21.5307199731131
30
0
0
SPLINE
5
111
100
AcDbEntity
8
1
62
256
6
ByLayer
370
18
48
1
60
0
100
AcDbSpline
70
4
71
3
72
8
73
4
40
0
40
0
40
0
40
0
40
1
40
1
40
1
40
1
41
1
10
21.4562814136683
20
-21.2452120935796
30
0
41
1
10
21.4314765638077
20
-21.3124489211631
30
0
41
1
10
21.4050667814798
20
-21.3793197156815
30
0
41
1
10
21.378071528186
20
-21.4460569832531
30
0
0
SPLINE
5
112
100
AcDbEntity
8
1
62
256
6
ByLayer
370
18
48
1
60
0
100
AcDbSpline
70
4
71
3
72
12
73
8
40
0
40
0
40
0
40
0
40
0.250000000000004
40
0.250000000000004
40
0.500000000000007
40
0.500000000000007
40
1
40
1
40
1
40
1
41
1
10
22.3978103548663
20
-21.0440010521928
30
0
41
1
10
22.3204582928217
20
-21.0637953336593
30
0
41
1
10
22.2426163760898
20
-21.0822523162727
30
0
41
1
10
22.0863918203118
20
-21.1176901144863
30
0
41
1
10
22.0080009320448
20
-21.1346484097884
30
0
41
1
10
21.7722958788397
20
-21.1840698801811
30
0
41
1
10
21.6144620319668
20
-21.2151143283034
30
0
41
1
10
21.4562814136684
20
-21.2452120935795
30
0
0
SPLINE
5
113
100
AcDbEntity
8
1
62
256
6
ByLayer
370
18
48
1
60
0
100
AcDbSpline
70
4
71
3
72
8
73
4
40
0
40
0
40
0
40
0
40
1
40
1
40
1
40
1
41
1
10
19.3631482710529
20
-21.1313449944649
30
0
41
1
10
19.3628613628185
20
-21.1027539535632
30
0
41
1
10
19.3627267168634
20
-21.0737542210362
30
0
41
1
10
19.3627478560639
20
-21.0443294279921
30
0
0
SPLINE
5
114
100
AcDbEntity
8
1
62
256
6
ByLayer
370
18
48
1
60
0
100
AcDbSpline
70
4
71
3
72
37
73
33
40
0
40
0
40
0
40
0
40
0.125000000000013
40
0.125000000000013
40
0.156250000000015
40
0.156250000000015
40
0.187500000000017
40
0.187500000000017
40
0.250000000000023
40
0.312500000000028
40
0.312500000000028
40
0.343750000000029
40
0.343750000000029
40
0.375000000000031
40
0.375000000000031
40
0.500000000000039
40
0.500000000000039
40
0.56250000000004
40
0.56250000000004
40
0.593750000000039
40
0.593750000000039
40
0.625000000000038
40
0.625000000000038
40
0.750000000000022
40
0.750000000000022
40
0.78125000000002
40
0.78125000000002
40
0.812500000000018
40
0.812500000000018
40
0.875000000000013
40
0.875000000000013
40
1
40
1
40
1
40
1
41
1
10
17.7796578191474
20
-12.9375
30
0
41
1
10
17.8840938015696
20
-12.9375
30
0
41
1
10
17.9875474151835
20
-12.9477694103014
30
0
41
1
10
18.11563448219
20
-12.9734637285125
30
0
41
1
10
18.1412427417799
20
-12.9792667689452
30
0
41
1
10
18.1918837826744
20
-12.9920728819844
30
0
41
1
10
18.2169561991004
20
-12.9990810693346
30
0
41
1
10
18.2914423180078
20
-13.0218888734549
30
0
41
1
10
18.3888109031386
20
-13.0570461986868
30
0
41
1
10
18.4823405168148
20
-13.1015668545619
30
0
41
1
10
18.5510265664254
20
-13.1385211474545
30
0
41
1
10
18.5736779578924
20
-13.1514342646682
30
0
41
1
10
18.6184837628143
20
-13.1784726387279
30
0
41
1
10
18.6406662994067
20
-13.1926210909879
30
0
41
1
10
18.7491284463071
20
-13.2656390423815
30
0
41
1
10
18.829058323128
20
-13.3317954749118
30
0
41
1
10
18.9389302715679
20
-13.4423750882903
30
0
41
1
10
18.9738718435741
20
-13.4811392939166
30
0
41
1
10
19.0236790130992
20
-13.542234436427
30
0
41
1
10
19.0398318402122
20
-13.5630812494824
30
0
41
1
10
19.0709105725863
20
-13.6052979449435
30
0
41
1
10
19.0858832618683
20
-13.6267237428575
30
0
41
1
10
19.1579572884064
20
-13.7354153545175
30
0
41
1
10
19.2067701438079
20
-13.8273243433451
30
0
41
1
10
19.2566178500797
20
-13.9484670525918
30
0
41
1
10
19.2660239552291
20
-13.9730112291409
30
0
41
1
10
19.2836856273969
20
-14.0227441091955
30
0
41
1
10
19.2919033816808
20
-14.0478346517329
30
0
41
1
10
19.3145880978269
20
-14.1232921643073
30
0
41
1
10
19.3271611131046
20
-14.1740384726538
30
0
41
1
10
19.3573974565375
20
-14.3275722798467
30
0
41
1
10
19.3676520341415
20
-14.4316418634739
30
0
41
1
10
19.3675711468265
20
-14.5375
30
0
0
SPLINE
5
115
100
AcDbEntity
8
1
62
256
6
ByLayer
370
18
48
1
60
0
100
AcDbSpline
70
4
71
3
72
12
73
8
40
0
40
0
40
0
40
0
40
0.250000000000003
40
0.250000000000003
40
0.500000000000006
40
0.500000000000006
40
1
40
1
40
1
40
1
41
1
10
18.8896233301402
20
-12.9375
30
0
41
1
10
18.9254766486198
20
-12.9375
30
0
41
1
10
18.9615751776195
20
-12.9388468243573
30
0
41
1
10
19.0342418483088
20
-12.9442748081906
30
0
41
1
10
19.0708701474656
20
-12.9483650395701
30
0
41
1
10
19.1810436074822
20
-12.9648031355792
30
0
41
1
10
19.2539495139289
20
-12.9811389306473
30
0
41
1
10
19.3262183459619
20
-13.0028047959063
30
0
0
SPLINE
5
116
100
AcDbEntity
8
1
62
256
6
ByLayer
370
18
48
1
60
0
100
AcDbSpline
70
4
71
3
72
32
73
28
40
0
40
0
40
0
40
0
40
0.03125
40
0.03125
40
0.0625
40
0.0625
40
0.125000000000003
40
0.187500000000005
40
0.218750000000003
40
0.218750000000003
40
0.250000000000001
40
0.250000000000001
40
0.375000000000003
40
0.375000000000003
40
0.437500000000005
40
0.437500000000005
40
0.500000000000007
40
0.500000000000007
40
0.625000000000009
40
0.625000000000009
40
0.687500000000011
40
0.687500000000011
40
0.750000000000012
40
0.750000000000012
40
0.875000000000006
40
0.875000000000006
40
1
40
1
40
1
40
1
41
1
10
19.3262183459618
20
-13.0028047959068
30
0
41
1
10
19.3484555878626
20
-13.0094714193073
30
0
41
1
10
19.3704418448665
20
-13.0166415965873
30
0
41
1
10
19.413908986317
20
-13.0319958859101
30
0
41
1
10
19.4353808542766
20
-13.0401797782257
30
0
41
1
10
19.4985426976844
20
-13.0660517526494
30
0
41
1
10
19.579762810973
20
-13.1041792819339
30
0
41
1
10
19.6740009949321
20
-13.1606724364504
30
0
41
1
10
19.7272796477344
20
-13.1985254829652
30
0
41
1
10
19.7620675834195
20
-13.2246472164071
30
0
41
1
10
19.7791004476454
20
-13.2381600218724
30
0
41
1
10
19.8614307436868
20
-13.3070798314937
30
0
41
1
10
19.9191739405712
20
-13.3671503198268
30
0
41
1
10
19.9949545910314
20
-13.4638392746538
30
0
41
1
10
20.0184010724683
20
-13.497181324125
30
0
41
1
10
20.0617340326635
20
-13.5659871630316
30
0
41
1
10
20.081302454479
20
-13.6009400370354
30
0
41
1
10
20.1342883607425
20
-13.7072978488621
30
0
41
1
10
20.1620252959224
20
-13.7801918034326
30
0
41
1
10
20.1935904270178
20
-13.8921645463981
30
0
41
1
10
20.2024339465235
20
-13.9299634842974
30
0
41
1
10
20.2168390364485
20
-14.0062783569867
30
0
41
1
10
20.2223289656352
20
-14.0443910842264
30
0
41
1
10
20.2340936128919
20
-14.1586064347682
30
0
41
1
10
20.2356923260158
20
-14.2345869874932
30
0
41
1
10
20.2277775263083
20
-14.3862580000433
30
0
41
1
10
20.2182540823202
20
-14.4619482006081
30
0
41
1
10
20.2034290776765
20
-14.5375
30
0
0
SPLINE
5
117
100
AcDbEntity
8
SK1
62
256
6
ByLayer
370
18
48
1
60
0
100
AcDbSpline
70
4
71
3
72
10
73
6
40
0
40
0
40
0
40
0
40
0.5
40
0.5
40
1
40
1
40
1
40
1
41
1
10
-0.705610426903348
20
-12.5500852843041
30
0
41
1
10
-0.639641575865681
20
-12.5728589178366
30
0
41
1
10
-0.58170749938219
20
-12.5976532718375
30
0
41
1
10
-0.481250959319823
20
-12.6462050377088
30
0
41
1
10
-0.438726684119359
20
-12.6699821691978
30
0
41
1
10
-0.404203485069701
20
-12.6907072639062
30
0
0
SPLINE
5
118
100
AcDbEntity
8
1
62
256
6
ByLayer
370
18
48
1
60
0
100
AcDbSpline
70
4
71
3
72
18
73
14
40
0
40
0
40
0
40
0
40
0.106502320877624
40
0.209819720888408
40
0.309970050664619
40
0.406972922400283
40
0.500849920826093
40
0.591624858696316
40
0.679324076625961
40
0.763976789998011
40
0.845615488386172
40
0.924276395492375
40
1
40
1
40
1
40
1
41
1
10
21.4477180790913
20
-22.12761863841
30
0
41
1
10
21.4483415265936
20
-22.1260415273357
30
0
41
1
10
21.4495697775823
20
-22.1229344682343
30
0
41
1
10
21.4517135703043
20
-22.1184243323185
30
0
41
1
10
21.4540226156009
20
-22.1141153234623
30
0
41
1
10
21.4565012793515
20
-22.1100126225171
30
0
41
1
10
21.4591256876622
20
-22.1061149102103
30
0
41
1
10
21.4618796575737
20
-22.1024224452295
30
0
41
1
10
21.4647461705193
20
-22.0989353720448
30
0
41
1
10
21.4677076114158
20
-22.0956528367139
30
0
41
1
10
21.4707528735311
20
-22.0925778698624
30
0
41
1
10
21.4738504798717
20
-22.0896996835921
30
0
41
1
10
21.4760204223823
20
-22.0879035869187
30
0
41
1
10
21.4770847510948
20
-22.08702262475
30
0
0
SPLINE
5
119
100
AcDbEntity
8
1
62
256
6
ByLayer
370
18
48
1
60
0
100
AcDbSpline
70
4
71
3
72
16
73
12
40
0
40
0
40
0
40
0
40
0.117319552192556
40
0.233085853411091
40
0.347299362420289
40
0.459960556948127
40
0.571069934744743
40
0.680628014713005
40
0.788635338118827
40
0.895092469888324
40
1
40
1
40
1
40
1
41
1
10
21.3979419449993
20
-22.28644541545
30
0
41
1
10
21.3995448943507
20
-22.2801777667126
30
0
41
1
10
21.4027295708227
20
-22.267725449707
30
0
41
1
10
21.4077947982873
20
-22.2492192560249
30
0
41
1
10
21.4130207325632
20
-22.2309972967187
30
0
41
1
10
21.418420918341
20
-22.2130628433777
30
0
41
1
10
21.4239808534519
20
-22.1954151153779
30
0
41
1
10
21.4296917832021
20
-22.1780540288848
30
0
41
1
10
21.4355500581908
20
-22.160980658135
30
0
41
1
10
21.4415272556546
20
-22.1441908752589
30
0
41
1
10
21.4456645821003
20
-22.1331156516798
30
0
41
1
10
21.4477180790984
20
-22.12761863841
30
0
0
SPLINE
5
11A
100
AcDbEntity
8
1
62
256
6
ByLayer
370
18
48
1
60
0
100
AcDbSpline
70
4
71
2
72
10
73
7
40
0
40
0
40
0
40
0.5
40
0.5
40
0.75
40
0.75
40
1
40
1
40
1
41
1
10
21.3979419450349
20
-22.2864454154435
30
0
41
1
10
21.3808181239339
20
-22.3540392416659
30
0
41
1
10
21.3307906598358
20
-22.401735482769
30
0
41
1
10
21.303533518041
20
-22.4277224727208
30
0
41
1
10
21.268280578719
20
-22.4443593747304
30
0
41
1
10
21.2302116268066
20
-22.4623252361523
30
0
41
1
10
21.1873591336249
20
-22.466446197083
30
0
0
SPLINE
5
11B
100
AcDbEntity
8
1
62
256
6
ByLayer
370
18
48
1
60
0
100
AcDbSpline
70
4
71
2
72
6
73
3
40
0
40
0
40
0
40
1
40
1
40
1
41
1
10
21.1873591337122
20
-22.4664461971205
30
0
41
1
10
21.0925084071781
20
-22.4753374892931
30
0
41
1
10
20.9970508590389
20
-22.4753609595315
30
0
0
SPLINE
5
11C
100
AcDbEntity
8
1
62
256
6
ByLayer
370
18
48
1
60
0
100
AcDbSpline
70
4
71
3
72
17
73
13
40
0
40
0
40
0
40
0
40
0.100317411817048
40
0.200541310293541
40
0.300680278273653
40
0.400742920447661
40
0.50073786120192
40
0.600673742442832
40
0.700559221399265
40
0.800402968404972
40
0.90021366466359
40
1
40
1
40
1
40
1
41
1
10
20.7661447084477
20
-22.46644619712
30
0
41
1
10
20.7725053414037
20
-22.4670231228818
30
0
41
1
10
20.7852206780952
20
-22.4681764366097
30
0
41
1
10
20.8043161064027
20
-22.4696818251213
30
0
41
1
10
20.8234137331118
20
-22.4710216262512
30
0
41
1
10
20.8425143257298
20
-22.4721798037513
30
0
41
1
10
20.8616155642736
20
-22.4731607269913
30
0
41
1
10
20.8807159437303
20
-22.4739629358429
30
0
41
1
10
20.8998137905531
20
-22.4745879043616
30
0
41
1
10
20.9189072995709
20
-22.4750311975091
30
0
41
1
10
20.9379953692082
20
-22.4753090731845
30
0
41
1
10
20.95071579029
20
-22.4753436654889
30
0
41
1
10
20.9570752245638
20
-22.47536095953
30
0
0
SPLINE
5
11D
100
AcDbEntity
8
1
62
256
6
ByLayer
370
18
48
1
60
0
100
AcDbSpline
70
4
71
3
72
38
73
34
40
0
40
0
40
0
40
0
40
0.032016180320246
40
0.0634137556517236
40
0.0941938978135421
40
0.124357850632138
40
0.153906935796008
40
0.182842559298727
40
0.21116621854073
40
0.238879510169574
40
0.265984138747587
40
0.292481926351467
40
0.318374823219181
40
0.343664919578658
40
0.368354458810699
40
0.392445852120274
40
0.415941694916223
40
0.438844785127734
40
0.461158143719618
40
0.482885037706422
40
0.504029006008697
40
0.551366811163465
40
0.597409666800785
40
0.642207857911427
40
0.685815975457815
40
0.728293199080103
40
0.769703557232119
40
0.810116149643941
40
0.849605314211509
40
0.888250718111331
40
0.926137351649974
40
0.963355403684993
40
1
40
1
40
1
40
1
41
1
10
20.542998023752
20
-22.28644541544
30
0
41
1
10
20.5438704121539
20
-22.2890736233648
30
0
41
1
10
20.5455983329865
20
-22.294279257937
30
0
41
1
10
20.5485012312921
20
-22.3019507904023
30
0
41
1
10
20.5515854099913
20
-22.3094249095622
30
0
41
1
10
20.5548613527937
20
-22.3166975153459
30
0
41
1
10
20.5583098723506
20
-22.3237696764354
30
0
41
1
10
20.5619197487441
20
-22.3306411178642
30
0
41
1
10
20.5656779747798
20
-22.3373119140362
30
0
41
1
10
20.569572317547
20
-22.3437820488634
30
0
41
1
10
20.5735906775003
20
-22.3500515300024
30
0
41
1
10
20.5777212763017
20
-22.3561203592458
30
0
41
1
10
20.5819526270109
20
-22.3619885401635
30
0
41
1
10
20.5862735581409
20
-22.3676560763678
30
0
41
1
10
20.5906732216171
20
-22.3731229711881
30
0
41
1
10
20.5951411017067
20
-22.378389230658
30
0
41
1
10
20.5996670248513
20
-22.3834548524165
30
0
41
1
10
20.6042411553193
20
-22.3883198658027
30
0
41
1
10
20.6088540353657
20
-22.3929841879108
30
0
41
1
10
20.6134964586086
20
-22.3974481402181
30
0
41
1
10
20.6201281456656
20
-22.4035095567999
30
0
41
1
10
20.6289719871633
20
-22.4109588192032
30
0
41
1
10
20.6403377229302
20
-22.4195027422797
30
0
41
1
10
20.6520552709356
20
-22.4273489226435
30
0
41
1
10
20.6640787811557
20
-22.4344976055379
30
0
41
1
10
20.6763635123254
20
-22.4409486190907
30
0
41
1
10
20.6888652354085
20
-22.4467017357358
30
0
41
1
10
20.701540482758
20
-22.4517571546107
30
0
41
1
10
20.7143469643445
20
-22.4561132961071
30
0
41
1
10
20.7272424753568
20
-22.4597748801839
30
0
41
1
10
20.7401894160554
20
-22.4627236999947
30
0
41
1
10
20.7531388660443
20
-22.4650246334318
30
0
41
1
10
20.7618319247945
20
-22.465974801506
30
0
41
1
10
20.7661447085324
20
-22.46644619708
30
0
0
SPLINE
5
11E
100
AcDbEntity
8
1
62
256
6
ByLayer
370
18
48
1
60
0
100
AcDbSpline
70
4
71
2
72
6
73
3
40
0
40
0
40
0
40
1
40
1
40
1
41
1
10
20.5429980237882
20
-22.286445415452
30
0
41
1
10
20.5169331417111
20
-22.2054467190156
30
0
41
1
10
20.4821359405259
20
-22.1276186384125
30
0
0
SPLINE
5
11F
100
AcDbEntity
8
1
62
256
6
ByLayer
370
18
48
1
60
0
100
AcDbSpline
70
4
71
2
72
6
73
3
40
0
40
0
40
0
40
1
40
1
40
1
41
1
10
20.4821359405329
20
-22.1276186384115
30
0
41
1
10
20.4711247977198
20
-22.1033197594191
30
0
41
1
10
20.4499357076399
20
-22.0870226247505
30
0
0
SPLINE
5
120
100
AcDbEntity
8
1
62
256
6
ByLayer
370
18
48
1
60
0
100
AcDbSpline
70
4
71
3
72
37
73
33
40
0
40
0
40
0
40
0
40
0.125000000000009
40
0.125000000000009
40
0.250000000000017
40
0.250000000000017
40
0.375000000000026
40
0.375000000000026
40
0.437500000000029
40
0.437500000000029
40
0.500000000000033
40
0.500000000000033
40
0.562500000000036
40
0.562500000000036
40
0.62500000000004
40
0.62500000000004
40
0.687500000000043
40
0.687500000000043
40
0.718750000000038
40
0.718750000000038
40
0.750000000000034
40
0.750000000000034
40
0.812500000000036
40
0.812500000000036
40
0.843750000000032
40
0.843750000000032
40
0.875000000000028
40
0.906250000000024
40
0.906250000000024
40
0.93750000000002
40
0.93750000000002
40
1
40
1
40
1
40
1
41
1
10
8.04000846078637
20
-6.1875
30
0
41
1
10
8.04000846078637
20
-6.22394084874037
30
0
41
1
10
8.04143367436228
20
-6.26041844440041
30
0
41
1
10
8.04720818493479
20
-6.33304710022497
30
0
41
1
10
8.05156279039227
20
-6.36927873327826
30
0
41
1
10
8.06344322769723
20
-6.44107955216367
30
0
41
1
10
8.07098280254661
20
-6.47674964856191
30
0
41
1
10
8.08502904939712
20
-6.52935143250653
30
0
41
1
10
8.09016965778164
20
-6.54673995664527
30
0
41
1
10
8.10148467370396
20
-6.58118639994942
30
0
41
1
10
8.10765999013452
20
-6.59824121982192
30
0
41
1
10
8.12111514361561
20
-6.63173020518849
30
0
41
1
10
8.1284020987836
20
-6.64819232354577
30
0
41
1
10
8.14430488520165
20
-6.68043825585715
30
0
41
1
10
8.15294599156749
20
-6.69625613459681
30
0
41
1
10
8.17157385967033
20
-6.72655866467471
30
0
41
1
10
8.18158049200835
20
-6.74109939455562
30
0
41
1
10
8.19788463931366
20
-6.76175323484003
30
0
41
1
10
8.20353630596324
20
-6.76844380536775
30
0
41
1
10
8.21533883796297
20
-6.78137537811813
30
0
41
1
10
8.22152083780068
20
-6.78764344129837
30
0
41
1
10
8.24062598380931
20
-6.80535982120202
30
0
41
1
10
8.25412851848697
20
-6.81578502883673
30
0
41
1
10
8.27580984722206
20
-6.82878856120135
30
0
41
1
10
8.28333492724661
20
-6.83270336787567
30
0
41
1
10
8.29858549151476
20
-6.83935939191949
30
0
41
1
10
8.31403178758029
20
-6.8448618107461
30
0
41
1
10
8.32987724614887
20
-6.84796278981997
30
0
41
1
10
8.34593042522076
20
-6.84979360796558
30
0
41
1
10
8.35398886347403
20
-6.85005503029822
30
0
41
1
10
8.3776736927727
20
-6.84895950842264
30
0
41
1
10
8.39304913061838
20
-6.84576678296611
30
0
41
1
10
8.40805181848759
20
-6.84037075857637
30
0
0
SPLINE
5
121
100
AcDbEntity
8
1
62
256
6
ByLayer
370
18
48
1
60
0
100
AcDbSpline
70
4
71
3
72
35
73
31
40
0
40
0
40
0
40
0
40
0.124999999999995
40
0.124999999999995
40
0.249999999999991
40
0.249999999999991
40
0.374999999999986
40
0.374999999999986
40
0.437499999999987
40
0.437499999999987
40
0.499999999999988
40
0.499999999999988
40
0.62499999999999
40
0.62499999999999
40
0.687499999999989
40
0.687499999999989
40
0.718749999999996
40
0.718749999999996
40
0.750000000000003
40
0.750000000000003
40
0.812499999999998
40
0.812499999999998
40
0.84375
40
0.84375
40
0.875000000000003
40
0.906250000000005
40
0.906250000000005
40
0.937500000000007
40
0.937500000000007
40
1
40
1
40
1
40
1
41
1
10
9.44335846078636
20
-8.61817350080176
30
0
41
1
10
9.4118181114992
20
-8.5999636716505
30
0
41
1
10
9.38092403466621
20
-8.58048128927965
30
0
41
1
10
9.32092007750538
20
-8.53917139612122
30
0
41
1
10
9.29180006738923
20
-8.51734802469628
30
0
41
1
10
9.23550910350031
20
-8.4711243538305
30
0
41
1
10
9.20842539962572
20
-8.44679407393173
30
0
41
1
10
9.16993087031537
20
-8.4083763415212
30
0
41
1
10
9.1574451335502
20
-8.39523842442597
30
0
41
1
10
9.13325868425929
20
-8.36821216698263
30
0
41
1
10
9.12155950774212
20
-8.35432264752464
30
0
41
1
10
9.0880802077285
20
-8.3116534322813
30
0
41
1
10
9.0677244648567
20
-8.28169133952022
30
0
41
1
10
9.04224828054726
20
-8.23460060677226
30
0
41
1
10
9.03456557541801
20
-8.21845389028405
30
0
41
1
10
9.02479164061398
20
-8.19382323323705
30
0
41
1
10
9.0218239171742
20
-8.18554309568205
30
0
41
1
10
9.01654815658273
20
-8.16882656710567
30
0
41
1
10
9.01423462748969
20
-8.16036069269421
30
0
41
1
10
9.00850885867922
20
-8.13502347895442
30
0
41
1
10
9.00626959328065
20
-8.11816173379668
30
0
41
1
10
9.00589679026567
20
-8.09294990923658
30
0
41
1
10
9.00628374755516
20
-8.08449830494146
30
0
41
1
10
9.0081682278832
20
-8.06801610260476
30
0
41
1
10
9.01114440584416
20
-8.05193931510763
30
0
41
1
10
9.01638922044532
20
-8.03671364601755
30
0
41
1
10
9.02283228554799
20
-8.02194107125729
30
0
41
1
10
9.02663126260668
20
-8.01485664974371
30
0
41
1
10
9.03940438508857
20
-7.99495663986994
30
0
41
1
10
9.04983446492753
20
-7.98327134708961
30
0
41
1
10
9.06197747732182
20
-7.97300322405022
30
0
0
SPLINE
5
122
100
AcDbEntity
8
1
62
256
6
ByLayer
370
18
48
1
60
0
100
AcDbSpline
70
4
71
3
72
50
73
46
40
0
40
0
40
0
40
0
40
0.0312499999999989
40
0.0312499999999989
40
0.0624999999999978
40
0.0624999999999978
40
0.0937499999999967
40
0.0937499999999967
40
0.124999999999996
40
0.124999999999996
40
0.156249999999994
40
0.156249999999994
40
0.187499999999993
40
0.187499999999993
40
0.218749999999992
40
0.218749999999992
40
0.249999999999991
40
0.249999999999991
40
0.312499999999989
40
0.312499999999989
40
0.374999999999987
40
0.374999999999987
40
0.437499999999985
40
0.437499999999985
40
0.499999999999983
40
0.499999999999983
40
0.624999999999978
40
0.624999999999978
40
0.68749999999998
40
0.68749999999998
40
0.749999999999981
40
0.749999999999981
40
0.812499999999982
40
0.812499999999982
40
0.843749999999985
40
0.843749999999985
40
0.874999999999988
40
0.874999999999988
40
0.906249999999991
40
0.906249999999991
40
0.937499999999994
40
0.937499999999994
40
0.968749999999997
40
0.968749999999997
40
1
40
1
40
1
40
1
41
1
10
8.42805181848757
20
-6.8389989617655
30
0
41
1
10
8.44171976930957
20
-6.83806147919807
30
0
41
1
10
8.45541446657015
20
-6.83858511935921
30
0
41
1
10
8.48285578354992
20
-6.84196658906174
30
0
41
1
10
8.49658874002733
20
-6.84483756012082
30
0
41
1
10
8.52367209185678
20
-6.85241019765749
30
0
41
1
10
8.53711923149785
20
-6.85713731873835
30
0
41
1
10
8.56355374394857
20
-6.86803579012522
30
0
41
1
10
8.57656364640749
20
-6.87421068436271
30
0
41
1
10
8.60224518011947
20
-6.88779136910088
30
0
41
1
10
8.61489169666211
20
-6.89518785487735
30
0
41
1
10
8.63970204904953
20
-6.91093124735474
30
0
41
1
10
8.65189155937384
20
-6.91929248843121
30
0
41
1
10
8.6758988673204
20
-6.93688520558891
30
0
41
1
10
8.68772029676697
20
-6.94612251195292
30
0
41
1
10
8.71087949283137
20
-6.96526235675444
30
0
41
1
10
8.72223850500799
20
-6.97518015715153
30
0
41
1
10
8.75572217303917
20
-7.0058898635896
30
0
41
1
10
8.77731046142461
20
-7.02769493136083
30
0
41
1
10
8.81872649831422
20
-7.07312969247076
30
0
41
1
10
8.83858972042361
20
-7.09678632802067
30
0
41
1
10
8.87678848140044
20
-7.14583395463234
30
0
41
1
10
8.89508064587858
20
-7.17118144115807
30
0
41
1
10
8.92985357973222
20
-7.22302989888911
30
0
41
1
10
8.94638292412878
20
-7.24959458610419
30
0
41
1
10
8.99339030876942
20
-7.33115108836975
30
0
41
1
10
9.02079689386983
20
-7.38701612707877
30
0
41
1
10
9.05566448671422
20
-7.47321952477512
30
0
41
1
10
9.06625302926869
20
-7.50245490957161
30
0
41
1
10
9.08474227863917
20
-7.56082842931656
30
0
41
1
10
9.09269517431684
20
-7.59006892024235
30
0
41
1
10
9.10568027217951
20
-7.64872323066982
30
0
41
1
10
9.11072165344544
20
-7.67813598294961
30
0
41
1
10
9.11555723108566
20
-7.72246684220209
30
0
41
1
10
9.11670993969719
20
-7.73732441271667
30
0
41
1
10
9.11792888099853
20
-7.76670522762223
30
0
41
1
10
9.11800275839099
20
-7.78126737706418
30
0
41
1
10
9.11692677065926
20
-7.81011319924988
30
0
41
1
10
9.11577840760239
20
-7.82439716540659
30
0
41
1
10
9.11202242551309
20
-7.85264805350994
30
0
41
1
10
9.10940456934728
20
-7.86666662108806
30
0
41
1
10
9.10238236892306
20
-7.8940932156876
30
0
41
1
10
9.0980239818945
20
-7.90734430281054
30
0
41
1
10
9.08726635464623
20
-7.93275067843092
30
0
41
1
10
9.08087287842918
20
-7.9449090770961
30
0
41
1
10
9.07316548820927
20
-7.95636861437936
30
0
0
SPLINE
5
123
100
AcDbEntity
8
1
62
256
6
ByLayer
370
18
48
1
60
0
100
AcDbSpline
70
4
71
3
72
8
73
4
40
0
40
0
40
0
40
0
40
1
40
1
40
1
40
1
41
1
10
8.40805181848759
20
-6.84037075857637
30
0
41
1
10
8.41471824188324
20
-6.83991350965869
30
0
41
1
10
8.42138490664942
20
-6.83945624418539
30
0
41
1
10
8.42805181848757
20
-6.8389989617655
30
0
0
SPLINE
5
124
100
AcDbEntity
8
1
62
256
6
ByLayer
370
18
48
1
60
0
100
AcDbSpline
70
4
71
3
72
8
73
4
40
0
40
0
40
0
40
0
40
1
40
1
40
1
40
1
41
1
10
9.06197747732182
20
-7.97300322405022
30
0
41
1
10
9.06570667819821
20
-7.96745855649607
30
0
41
1
10
9.06943601409745
20
-7.96191368818666
30
0
41
1
10
9.07316548820884
20
-7.95636861437995
30
0
0
SPLINE
5
125
100
AcDbEntity
8
1
62
256
6
ByLayer
370
18
48
1
60
0
100
AcDbSpline
70
4
71
3
72
35
73
31
40
0
40
0
40
0
40
0
40
0.124999999999983
40
0.124999999999983
40
0.249999999999967
40
0.249999999999967
40
0.37499999999995
40
0.37499999999995
40
0.437499999999943
40
0.437499999999943
40
0.499999999999936
40
0.499999999999936
40
0.62499999999991
40
0.62499999999991
40
0.687499999999902
40
0.687499999999902
40
0.718749999999906
40
0.718749999999906
40
0.749999999999909
40
0.749999999999909
40
0.812499999999921
40
0.812499999999921
40
0.843749999999934
40
0.843749999999934
40
0.874999999999947
40
0.90624999999996
40
0.90624999999996
40
0.937499999999974
40
0.937499999999974
40
1
40
1
40
1
40
1
41
1
10
13.6534084607864
20
-6.1875
30
0
41
1
10
13.6534084607864
20
-6.22391965830255
30
0
41
1
10
13.6519832611435
20
-6.26041590485181
30
0
41
1
10
13.646209822821
20
-6.33303580265988
30
0
41
1
10
13.6418702338289
20
-6.36916615689142
30
0
41
1
10
13.6299848425474
20
-6.44102739705562
30
0
41
1
10
13.6224560540112
20
-6.47664771258897
30
0
41
1
10
13.6084325864431
20
-6.52919381908373
30
0
41
1
10
13.6032976848684
20
-6.54657574285494
30
0
41
1
10
13.5919854839987
20
-6.58103495108989
30
0
41
1
10
13.5858063955603
20
-6.59811149488613
30
0
41
1
10
13.5655934212068
20
-6.64844002682051
30
0
41
1
10
13.549823359161
20
-6.68104966364092
30
0
41
1
10
13.5217796804732
20
-6.72665805281835
30
0
41
1
10
13.5116375663714
20
-6.7413848288742
30
0
41
1
10
13.4951937590588
20
-6.76216463323291
30
0
41
1
10
13.4895068113092
20
-6.76887482590067
30
0
41
1
10
13.4776677531947
20
-6.78180203288534
30
0
41
1
10
13.4714928554357
20
-6.78803854505807
30
0
41
1
10
13.4524130690811
20
-6.80566581317402
30
0
41
1
10
13.4389300021216
20
-6.81603594647385
30
0
41
1
10
13.4172823230844
20
-6.82896471563549
30
0
41
1
10
13.4097695404173
20
-6.83285540294017
30
0
41
1
10
13.3945532943194
20
-6.83946449627152
30
0
41
1
10
13.3791422989551
20
-6.84492544429969
30
0
41
1
10
13.3633340754329
20
-6.84799613616198
30
0
41
1
10
13.3473191178599
20
-6.84980256548496
30
0
41
1
10
13.3392843403287
20
-6.85005476560053
30
0
41
1
10
13.3156638650015
20
-6.84894292198246
30
0
41
1
10
13.3003290646836
20
-6.84575285426857
30
0
41
1
10
13.2853651030851
20
-6.84037075857637
30
0
0
SPLINE
5
126
100
AcDbEntity
8
1
62
256
6
ByLayer
370
18
48
1
60
0
100
AcDbSpline
70
4
71
3
72
52
73
48
40
0
40
0
40
0
40
0
40
0.0156249999999947
40
0.0156249999999947
40
0.0312499999999895
40
0.0312499999999895
40
0.0624999999999879
40
0.0624999999999879
40
0.0937499999999862
40
0.0937499999999862
40
0.124999999999985
40
0.124999999999985
40
0.187499999999982
40
0.187499999999982
40
0.218749999999981
40
0.218749999999981
40
0.24999999999998
40
0.24999999999998
40
0.31249999999998
40
0.31249999999998
40
0.37499999999998
40
0.37499999999998
40
0.43749999999998
40
0.43749999999998
40
0.49999999999998
40
0.49999999999998
40
0.56249999999998
40
0.56249999999998
40
0.62499999999998
40
0.62499999999998
40
0.68749999999998
40
0.68749999999998
40
0.74999999999998
40
0.74999999999998
40
0.81249999999998
40
0.81249999999998
40
0.843749999999983
40
0.843749999999983
40
0.874999999999987
40
0.874999999999987
40
0.90624999999999
40
0.90624999999999
40
0.937499999999993
40
0.937499999999993
40
0.968749999999997
40
0.968749999999997
40
1
40
1
40
1
40
1
41
1
10
13.2653651030844
20
-6.83899896176544
30
0
41
1
10
13.2585229618671
20
-6.83852966039041
30
0
41
1
10
13.2516590173698
20
-6.83842828377939
30
0
41
1
10
13.237890973921
20
-6.8388850679259
30
0
41
1
10
13.2309733413614
20
-6.83944660016582
30
0
41
1
10
13.2104006538692
20
-6.84199590736318
30
0
41
1
10
13.196850091945
20
-6.84483795831468
30
0
41
1
10
13.1699979572284
20
-6.85233296400119
30
0
41
1
10
13.1566969860349
20
-6.85699001991145
30
0
41
1
10
13.1302928740936
20
-6.86784184576845
30
0
41
1
10
13.1172372730234
20
-6.87402320498597
30
0
41
1
10
13.0788142647206
20
-6.89429572508789
30
0
41
1
10
13.0539403125189
20
-6.91022440879675
30
0
41
1
10
13.0180056299162
20
-6.93651349231621
30
0
41
1
10
13.0062392445621
20
-6.94569106689747
30
0
41
1
10
12.983080091856
20
-6.96479765167877
30
0
41
1
10
12.9716775278167
20
-6.97473752771788
30
0
41
1
10
12.9381782823763
20
-7.00541710490796
30
0
41
1
10
12.9167169822469
20
-7.02706189519435
30
0
41
1
10
12.875277023135
20
-7.07245049232506
30
0
41
1
10
12.855342032987
20
-7.09616168178334
30
0
41
1
10
12.8172218244071
20
-7.1450366827728
30
0
41
1
10
12.7989720332464
20
-7.17027731929014
30
0
41
1
10
12.7640922855566
20
-7.222198823931
30
0
41
1
10
12.7475431828164
20
-7.24875744688416
30
0
41
1
10
12.7161966534221
20
-7.30305170401374
30
0
41
1
10
12.7014791085098
20
-7.33064900856078
30
0
41
1
10
12.6739806359232
20
-7.38675744632462
30
0
41
1
10
12.6612092050802
20
-7.41525983826088
30
0
41
1
10
12.6379125254202
20
-7.47279159575015
30
0
41
1
10
12.627341334556
20
-7.50193585945232
30
0
41
1
10
12.6087685101705
20
-7.56049150935223
30
0
41
1
10
12.6007391182516
20
-7.58996381993992
30
0
41
1
10
12.5876428548351
20
-7.64917369567067
30
0
41
1
10
12.5826076902272
20
-7.67872519621795
30
0
41
1
10
12.5778119820947
20
-7.72301412533753
30
0
41
1
10
12.5766765378484
20
-7.73779508358075
30
0
41
1
10
12.5754807792666
20
-7.76715173840935
30
0
41
1
10
12.575416349202
20
-7.78174313835066
30
0
41
1
10
12.5765295921953
20
-7.81073728862396
30
0
41
1
10
12.5777083780425
20
-7.82511132645874
30
0
41
1
10
12.5815173059587
20
-7.85337325123663
30
0
41
1
10
12.584156723344
20
-7.8673311216555
30
0
41
1
10
12.5911773781645
20
-7.894546203316
30
0
41
1
10
12.5955253677149
20
-7.90769690105958
30
0
41
1
10
12.6062376832203
20
-7.93291575393476
30
0
41
1
10
12.6125964065455
20
-7.94498693228971
30
0
41
1
10
12.6202514333639
20
-7.95636861437995
30
0
0
SPLINE
5
127
100
AcDbEntity
8
1
62
256
6
ByLayer
370
18
48
1
60
0
100
AcDbSpline
70
4
71
3
72
8
73
4
40
0
40
0
40
0
40
0
40
1
40
1
40
1
40
1
41
1
10
12.6202514333639
20
-7.95636861437995
30
0
41
1
10
12.6239809074753
20
-7.96191368818666
30
0
41
1
10
12.6277102433745
20
-7.96745855649607
30
0
41
1
10
12.6314394442509
20
-7.97300322405022
30
0
0
SPLINE
5
128
100
AcDbEntity
8
1
62
256
6
ByLayer
370
18
48
1
60
0
100
AcDbSpline
70
4
71
3
72
35
73
31
40
0
40
0
40
0
40
0
40
0.124999999999993
40
0.124999999999993
40
0.249999999999986
40
0.249999999999986
40
0.374999999999979
40
0.374999999999979
40
0.499999999999972
40
0.499999999999972
40
0.56249999999997
40
0.56249999999997
40
0.624999999999968
40
0.624999999999968
40
0.687499999999966
40
0.687499999999966
40
0.718749999999967
40
0.718749999999967
40
0.749999999999968
40
0.749999999999968
40
0.812499999999968
40
0.812499999999968
40
0.843749999999973
40
0.843749999999973
40
0.874999999999978
40
0.906249999999984
40
0.906249999999984
40
0.937499999999989
40
0.937499999999989
40
1
40
1
40
1
40
1
41
1
10
12.2500584607864
20
-8.61817350080176
30
0
41
1
10
12.2815981014683
20
-8.59996408076393
30
0
41
1
10
12.3124547610638
20
-8.58050689168624
30
0
41
1
10
12.3725025617644
20
-8.53916810484546
30
0
41
1
10
12.4016202439218
20
-8.51734419145143
30
0
41
1
10
12.4578623262797
20
-8.47116275865045
30
0
41
1
10
12.4849969589477
20
-8.44679398606326
30
0
41
1
10
12.5364629859309
20
-8.39541994198322
30
0
41
1
10
12.5608175216878
20
-8.36840729895445
30
0
41
1
10
12.5942937883481
20
-8.32572035386701
30
0
41
1
10
12.604923471415
20
-8.31114981553128
30
0
41
1
10
12.6249206915625
20
-8.28120204398061
30
0
41
1
10
12.63426017411
20
-8.26585899541442
30
0
41
1
10
12.6511511142614
20
-8.23462857749325
30
0
41
1
10
12.6587343951155
20
-8.21870195120749
30
0
41
1
10
12.6684715288133
20
-8.19423326821777
30
0
41
1
10
12.6714425851393
20
-8.18598002412503
30
0
41
1
10
12.6767468359532
20
-8.16925059729891
30
0
41
1
10
12.6790783929417
20
-8.16076441519712
30
0
41
1
10
12.6848476560998
20
-8.13539905828847
30
0
41
1
10
12.6871282647506
20
-8.118470099441
30
0
41
1
10
12.68752556733
20
-8.09306495634976
30
0
41
1
10
12.6871390784368
20
-8.08461074162057
30
0
41
1
10
12.6852770066044
20
-8.0682040436366
30
0
41
1
10
12.682331579456
20
-8.0521778647099
30
0
41
1
10
12.677118622078
20
-8.03695660494654
30
0
41
1
10
12.6706979909423
20
-8.02216755170886
30
0
41
1
10
12.6668863999959
20
-8.01503006183998
30
0
41
1
10
12.6540812738404
20
-7.9950313218115
30
0
41
1
10
12.6436185011433
20
-7.98330182629277
30
0
41
1
10
12.6314394442509
20
-7.97300322405022
30
0
0
SPLINE
5
129
100
AcDbEntity
8
1
62
256
6
ByLayer
370
18
48
1
60
0
100
AcDbSpline
70
4
71
3
72
8
73
4
40
0
40
0
40
0
40
0
40
1
40
1
40
1
40
1
41
1
10
13.2853651030851
20
-6.84037075857637
30
0
41
1
10
13.2786986796895
20
-6.83991350965869
30
0
41
1
10
13.2720320149233
20
-6.83945624418539
30
0
41
1
10
13.2653651030851
20
-6.8389989617655
30
0
0
SPLINE
5
12A
100
AcDbEntity
8
1
62
256
6
ByLayer
370
18
48
1
60
0
100
AcDbSpline
70
4
71
3
72
35
73
31
40
0
40
0
40
0
40
0
40
0.125
40
0.125
40
0.249999999999999
40
0.249999999999999
40
0.374999999999999
40
0.374999999999999
40
0.4375
40
0.4375
40
0.500000000000002
40
0.500000000000002
40
0.624999999999998
40
0.624999999999998
40
0.687499999999996
40
0.687499999999996
40
0.718749999999992
40
0.718749999999992
40
0.749999999999989
40
0.749999999999989
40
0.812499999999981
40
0.812499999999981
40
0.843749999999984
40
0.843749999999984
40
0.874999999999986
40
0.906249999999989
40
0.906249999999989
40
0.937499999999992
40
0.937499999999992
40
1
40
1
40
1
40
1
41
1
10
9.44335846078636
20
-3.75682649919821
30
0
41
1
10
9.47489881007351
20
-3.73861667004695
30
0
41
1
10
9.50721808654939
20
-3.72160280586851
30
0
41
1
10
9.57299548203264
20
-3.69029280121887
30
0
41
1
10
9.60645508114095
20
-3.6759858184123
30
0
41
1
10
9.67463143631133
20
-3.65034824911388
30
0
41
1
10
9.70924392872215
20
-3.6390582134793
30
0
41
1
10
9.76176192560064
20
-3.62492983939506
30
0
41
1
10
9.77938256394052
20
-3.62068583271906
30
0
41
1
10
9.81488121410112
20
-3.61325288192748
30
0
41
1
10
9.83275947905668
20
-3.61006585758923
30
0
41
1
10
9.88645175342376
20
-3.60240654089819
30
0
41
1
10
9.92257755834132
20
-3.59975899683883
30
0
41
1
10
9.97609742133858
20
-3.60124134040936
30
0
41
1
10
9.9939222405697
20
-3.60266128084174
30
0
41
1
10
10.0201399826864
20
-3.60651213353
30
0
41
1
10
10.0287946538757
20
-3.60808207841728
30
0
41
1
10
10.0459094725816
20
-3.61187140000896
30
0
41
1
10
10.0543978994337
20
-3.61410076224772
30
0
41
1
10
10.0792034545988
20
-3.62181070787153
30
0
41
1
10
10.0949257869568
20
-3.62830231972944
30
0
41
1
10
10.1169462690091
20
-3.6405853751279
30
0
41
1
10
10.1240720943866
20
-3.64514629211834
30
0
41
1
10
10.1374038601565
20
-3.65501940112372
30
0
41
1
10
10.1498386775598
20
-3.66563524059268
30
0
41
1
10
10.1604020864808
20
-3.67779021782044
30
0
41
1
10
10.1699739789512
20
-3.69075636325772
30
0
41
1
10
10.1742097794237
20
-3.69758858465573
30
0
41
1
10
10.185057132269
20
-3.7186004381476
30
0
41
1
10
10.189961852748
20
-3.73347579864179
30
0
41
1
10
10.1927828019522
20
-3.74912601737341
30
0
0
SPLINE
5
12B
100
AcDbEntity
8
1
62
256
6
ByLayer
370
18
48
1
60
0
100
AcDbSpline
70
4
71
3
72
52
73
48
40
0
40
0
40
0
40
0
40
0.0156250000000021
40
0.0156250000000021
40
0.0312500000000042
40
0.0312500000000042
40
0.0625000000000083
40
0.0625000000000083
40
0.0937500000000123
40
0.0937500000000123
40
0.125000000000016
40
0.125000000000016
40
0.187500000000025
40
0.187500000000025
40
0.218750000000028
40
0.218750000000028
40
0.250000000000031
40
0.250000000000031
40
0.312500000000028
40
0.312500000000028
40
0.375000000000026
40
0.375000000000026
40
0.437500000000023
40
0.437500000000023
40
0.500000000000021
40
0.500000000000021
40
0.562500000000018
40
0.562500000000018
40
0.625000000000016
40
0.625000000000016
40
0.687500000000013
40
0.687500000000013
40
0.75000000000001
40
0.75000000000001
40
0.812500000000008
40
0.812500000000008
40
0.843750000000006
40
0.843750000000006
40
0.875000000000005
40
0.875000000000005
40
0.906250000000004
40
0.906250000000004
40
0.937500000000003
40
0.937500000000003
40
0.968750000000001
40
0.968750000000001
40
1
40
1
40
1
40
1
41
1
10
10.2015947910654
20
-3.7671324238552
30
0
41
1
10
10.2046094347612
20
-3.77329254265314
30
0
41
1
10
10.2079536122894
20
-3.77928758126348
30
0
41
1
10
10.2152332206887
20
-3.79098266457731
30
0
41
1
10
10.2191783381533
20
-3.79669274398805
30
0
41
1
10
10.2316724466944
20
-3.81323456038172
30
0
41
1
10
10.2409090159794
20
-3.8235486657679
30
0
41
1
10
10.2608259486637
20
-3.843055793735
30
0
41
1
10
10.2715095629856
20
-3.85224624472846
30
0
41
1
10
10.2941095758258
20
-3.86968696350556
30
0
41
1
10
10.3059905904732
20
-3.87790276608521
30
0
41
1
10
10.3427586120316
20
-3.90104180731433
30
0
41
1
10
10.3689902328732
20
-3.9146189399591
30
0
41
1
10
10.4097245883446
20
-3.93259474621024
30
0
41
1
10
10.4235557937541
20
-3.93819594754697
30
0
41
1
10
10.4516821579073
20
-3.94869906972988
30
0
41
1
10
10.4659916250874
20
-3.95360404183668
30
0
41
1
10
10.5093105410315
20
-3.9672754508006
30
0
41
1
10
10.5387861293438
20
-3.97503908676774
30
0
41
1
10
10.5988137870571
20
-3.98823284552503
30
0
41
1
10
10.6293157745559
20
-3.9936414586883
30
0
41
1
10
10.6907028713127
20
-4.00221702722135
30
0
41
1
10
10.7216867993248
20
-4.00540149172159
30
0
41
1
10
10.7840920151914
20
-4.00964748697811
30
0
41
1
10
10.8153670087285
20
-4.01070011888442
30
0
41
1
10
10.8780604793794
20
-4.01069988109555
30
0
41
1
10
10.9093192186493
20
-4.00964699659738
30
0
41
1
10
10.9716597874127
20
-4.00540715354075
30
0
41
1
10
11.0027292983197
20
-4.00221634112532
30
0
41
1
10
11.0642016016597
20
-3.99362597879005
30
0
41
1
10
11.0947268698325
20
-3.98820876677559
30
0
41
1
10
11.1547239623737
20
-3.97501547956355
30
0
41
1
10
11.1842624280103
20
-3.96723298164844
30
0
41
1
10
11.2420878162563
20
-3.94896974059634
30
0
41
1
10
11.2701977487541
20
-3.93855457078539
30
0
41
1
10
11.3109509405444
20
-3.92056331129754
30
0
41
1
10
11.3243193479984
20
-3.91415615573774
30
0
41
1
10
11.350340836141
20
-3.90051338563211
30
0
41
1
10
11.3630095741992
20
-3.89327348373411
30
0
41
1
10
11.3875626234004
20
-3.87781231188473
30
0
41
1
10
11.3994215123967
20
-3.86960443447802
30
0
41
1
10
11.4219925932561
20
-3.85217484375252
30
0
41
1
10
11.4327607549289
20
-3.84291010603619
30
0
41
1
10
11.4528193796027
20
-3.82322249978014
30
0
41
1
10
11.4620342231509
20
-3.81288168150235
30
0
41
1
10
11.4785182326425
20
-3.79099511770369
30
0
41
1
10
11.4857928180889
20
-3.77945271259097
30
0
41
1
10
11.4918221305076
20
-3.76713242385452
30
0
0
SPLINE
5
12C
100
AcDbEntity
8
1
62
256
6
ByLayer
370
18
48
1
60
0
100
AcDbSpline
70
4
71
3
72
8
73
4
40
0
40
0
40
0
40
0
40
1
40
1
40
1
40
1
41
1
10
11.4918221305076
20
-3.76713242385452
30
0
41
1
10
11.4947595682344
20
-3.76113006762793
30
0
41
1
10
11.4976968971013
20
-3.75512793384525
30
0
41
1
10
11.5006341196206
20
-3.74912601737341
30
0
0
SPLINE
5
12D
100
AcDbEntity
8
1
62
256
6
ByLayer
370
18
48
1
60
0
100
AcDbSpline
70
4
71
3
72
35
73
31
40
0
40
0
40
0
40
0
40
0.124999999999992
40
0.124999999999992
40
0.249999999999984
40
0.249999999999984
40
0.374999999999975
40
0.374999999999975
40
0.499999999999967
40
0.499999999999967
40
0.562499999999966
40
0.562499999999966
40
0.624999999999964
40
0.624999999999964
40
0.687499999999963
40
0.687499999999963
40
0.718749999999966
40
0.718749999999966
40
0.749999999999968
40
0.749999999999968
40
0.812499999999973
40
0.812499999999973
40
0.843749999999975
40
0.843749999999975
40
0.874999999999978
40
0.90624999999998
40
0.90624999999998
40
0.937499999999983
40
0.937499999999983
40
1
40
1
40
1
40
1
41
1
10
12.2500584607863
20
-3.75682649919818
30
0
41
1
10
12.2185188201044
20
-3.73861707916035
30
0
41
1
10
12.1862400702792
20
-3.72162302261356
30
0
41
1
10
12.1204157303631
20
-3.69028949518582
30
0
41
1
10
12.0869568258752
20
-3.67598479943524
30
0
41
1
10
12.0188414907074
20
-3.65036844375203
30
0
41
1
10
11.9841701982539
20
-3.63905354883281
30
0
41
1
10
11.9139459574938
20
-3.62016968407352
30
0
41
1
10
11.8783750545291
20
-3.61258435892503
30
0
41
1
10
11.8246689423433
20
-3.60493653411709
30
0
41
1
10
11.8067356444643
20
-3.60301622771485
30
0
41
1
10
11.7708015034409
20
-3.60067201283735
30
0
41
1
10
11.7528442923374
20
-3.60025530797617
30
0
41
1
10
11.7173524869711
20
-3.60124253367175
30
0
41
1
10
11.699767983584
20
-3.602638532951
30
0
41
1
10
11.6737089156688
20
-3.60644026930345
30
0
41
1
10
11.6650758684579
20
-3.60799388109547
30
0
41
1
10
11.6479356344288
20
-3.6117649785557
30
0
41
1
10
11.6394206066532
20
-3.61398888202413
30
0
41
1
10
11.6145689316152
20
-3.62167523202243
30
0
41
1
10
11.5987677188683
20
-3.6281646464185
30
0
41
1
10
11.5765675682748
20
-3.64052314383736
30
0
41
1
10
11.5694392479969
20
-3.64508496040179
30
0
41
1
10
11.5561616666667
20
-3.65490091090425
30
0
41
1
10
11.5437553021649
20
-3.66546481510312
30
0
41
1
10
11.5331797832212
20
-3.67758999850304
30
0
41
1
10
11.5235824029872
20
-3.69054495479367
30
0
41
1
10
11.5193069509148
20
-3.69741463431649
30
0
41
1
10
11.5083900970842
20
-3.71850356888007
30
0
41
1
10
11.5034634423399
20
-3.73342934358916
30
0
41
1
10
11.5006341196206
20
-3.74912601737341
30
0
0
SPLINE
5
12E
100
AcDbEntity
8
1
62
256
6
ByLayer
370
18
48
1
60
0
100
AcDbSpline
70
4
71
3
72
8
73
4
40
0
40
0
40
0
40
0
40
1
40
1
40
1
40
1
41
1
10
10.1927828019522
20
-3.74912601737341
30
0
41
1
10
10.1957200244714
20
-3.75512793384525
30
0
41
1
10
10.1986573533383
20
-3.76113006762793
30
0
41
1
10
10.2015947910651
20
-3.76713242385452
30
0
0
SPLINE
5
12F
100
AcDbEntity
8
1
62
256
6
ByLayer
370
18
48
1
60
0
100
AcDbSpline
70
4
71
3
72
52
73
48
40
0
40
0
40
0
40
0
40
0.0156249999999984
40
0.0156249999999984
40
0.0312499999999967
40
0.0312499999999967
40
0.0625000000000001
40
0.0625000000000001
40
0.0937500000000034
40
0.0937500000000034
40
0.125000000000007
40
0.125000000000007
40
0.187500000000013
40
0.187500000000013
40
0.218750000000016
40
0.218750000000016
40
0.250000000000018
40
0.250000000000018
40
0.312500000000016
40
0.312500000000016
40
0.375000000000015
40
0.375000000000015
40
0.437500000000013
40
0.437500000000013
40
0.500000000000012
40
0.500000000000012
40
0.56250000000001
40
0.56250000000001
40
0.625000000000009
40
0.625000000000009
40
0.687500000000007
40
0.687500000000007
40
0.750000000000006
40
0.750000000000006
40
0.812500000000004
40
0.812500000000004
40
0.843750000000004
40
0.843750000000004
40
0.875000000000003
40
0.875000000000003
40
0.906250000000002
40
0.906250000000002
40
0.937500000000001
40
0.937500000000001
40
0.968750000000001
40
0.968750000000001
40
1
40
1
40
1
40
1
41
1
10
11.4918221305073
20
-8.6078675761448
30
0
41
1
10
11.4888074868115
20
-8.60170745734686
30
0
41
1
10
11.4854633092833
20
-8.59571241873653
30
0
41
1
10
11.478183700884
20
-8.58401733542269
30
0
41
1
10
11.4742385834194
20
-8.57830725601195
30
0
41
1
10
11.4617444748783
20
-8.56176543961826
30
0
41
1
10
11.4525079055933
20
-8.55145133423207
30
0
41
1
10
11.4325909729091
20
-8.531944206265
30
0
41
1
10
11.4219073585872
20
-8.52275375527154
30
0
41
1
10
11.3993073457469
20
-8.50531303649444
30
0
41
1
10
11.3874263310995
20
-8.49709723391476
30
0
41
1
10
11.3506583095411
20
-8.47395819268564
30
0
41
1
10
11.3244266886995
20
-8.4603810600409
30
0
41
1
10
11.2836923332281
20
-8.44240525378973
30
0
41
1
10
11.2698611278186
20
-8.43680405245303
30
0
41
1
10
11.2417347636654
20
-8.42630093027012
30
0
41
1
10
11.2274252964854
20
-8.42139595816329
30
0
41
1
10
11.1841063805412
20
-8.40772454919937
30
0
41
1
10
11.1546307922289
20
-8.39996091323223
30
0
41
1
10
11.0946031345157
20
-8.38676715447497
30
0
41
1
10
11.0641011470168
20
-8.3813585413117
30
0
41
1
10
11.00271405026
20
-8.37278297277862
30
0
41
1
10
10.9717301222479
20
-8.36959850827841
30
0
41
1
10
10.9093249063813
20
-8.36535251302186
30
0
41
1
10
10.8780499128443
20
-8.36429988111558
30
0
41
1
10
10.8153564421933
20
-8.36430011890442
30
0
41
1
10
10.7840977029235
20
-8.36535300340262
30
0
41
1
10
10.72175713416
20
-8.36959284645926
30
0
41
1
10
10.6906876232531
20
-8.37278365887465
30
0
41
1
10
10.629215319913
20
-8.38137402120995
30
0
41
1
10
10.5986900517403
20
-8.38679123322439
30
0
41
1
10
10.5386929591991
20
-8.39998452043642
30
0
41
1
10
10.5091544935624
20
-8.40776701835154
30
0
41
1
10
10.4513291053165
20
-8.42603025940363
30
0
41
1
10
10.4232191728186
20
-8.43644542921461
30
0
41
1
10
10.3824659810284
20
-8.45443668870246
30
0
41
1
10
10.3690975735744
20
-8.46084384426223
30
0
41
1
10
10.3430760854317
20
-8.47448661436786
30
0
41
1
10
10.3304073473735
20
-8.48172651626587
30
0
41
1
10
10.3058542981723
20
-8.49718768811525
30
0
41
1
10
10.293995409176
20
-8.50539556552198
30
0
41
1
10
10.2714243283166
20
-8.52282515624748
30
0
41
1
10
10.2606561666438
20
-8.53208989396379
30
0
41
1
10
10.24059754197
20
-8.55177750021983
30
0
41
1
10
10.2313826984218
20
-8.56211831849765
30
0
41
1
10
10.2148986889303
20
-8.58400488229631
30
0
41
1
10
10.2076241034839
20
-8.59554728740903
30
0
41
1
10
10.2015947910651
20
-8.60786757614545
30
0
0
SPLINE
5
130
100
AcDbEntity
8
1
62
256
6
ByLayer
370
18
48
1
60
0
100
AcDbSpline
70
4
71
3
72
8
73
4
40
0
40
0
40
0
40
0
40
1
40
1
40
1
40
1
41
1
10
10.2015947910651
20
-8.60786757614545
30
0
41
1
10
10.1986573533383
20
-8.61386993237204
30
0
41
1
10
10.1957200244714
20
-8.61987206615473
30
0
41
1
10
10.1927828019522
20
-8.62587398262659
30
0
0
SPLINE
5
131
100
AcDbEntity
8
1
62
256
6
ByLayer
370
18
48
1
60
0
100
AcDbSpline
70
4
71
3
72
35
73
31
40
0
40
0
40
0
40
0
40
0.125000000000002
40
0.125000000000002
40
0.250000000000004
40
0.250000000000004
40
0.375000000000005
40
0.375000000000005
40
0.500000000000007
40
0.500000000000007
40
0.562500000000008
40
0.562500000000008
40
0.625000000000009
40
0.625000000000009
40
0.68750000000001
40
0.68750000000001
40
0.71875000000001
40
0.71875000000001
40
0.75000000000001
40
0.75000000000001
40
0.812500000000011
40
0.812500000000011
40
0.843750000000011
40
0.843750000000011
40
0.875000000000011
40
0.906250000000011
40
0.906250000000011
40
0.937500000000012
40
0.937500000000012
40
1
40
1
40
1
40
1
41
1
10
9.44335846078636
20
-8.61817350080176
30
0
41
1
10
9.47489810146828
20
-8.63638292083962
30
0
41
1
10
9.50717685129351
20
-8.65337697738642
30
0
41
1
10
9.57300119120958
20
-8.68471050481415
30
0
41
1
10
9.60646009569749
20
-8.69901520056476
30
0
41
1
10
9.67457543086527
20
-8.72463155624797
30
0
41
1
10
9.70924672331881
20
-8.73594645116719
30
0
41
1
10
9.77947096407888
20
-8.75483031592645
30
0
41
1
10
9.81504186704362
20
-8.76241564107494
30
0
41
1
10
9.8687479792294
20
-8.77006346588288
30
0
41
1
10
9.88668127710841
20
-8.77198377228513
30
0
41
1
10
9.92261541813178
20
-8.77432798716262
30
0
41
1
10
9.94057262923536
20
-8.77474469202383
30
0
41
1
10
9.9760644346016
20
-8.77375746632822
30
0
41
1
10
9.99364893798872
20
-8.772361467049
30
0
41
1
10
10.0197080059039
20
-8.76855973069652
30
0
41
1
10
10.0283410531148
20
-8.7670061189045
30
0
41
1
10
10.0454812871439
20
-8.7632350214443
30
0
41
1
10
10.0539963149195
20
-8.76101111797584
30
0
41
1
10
10.0788479899575
20
-8.75332476797757
30
0
41
1
10
10.0946492027044
20
-8.7468353535815
30
0
41
1
10
10.1168493532979
20
-8.73447685616264
30
0
41
1
10
10.1239776735758
20
-8.72991503959821
30
0
41
1
10
10.137255254906
20
-8.72009908909573
30
0
41
1
10
10.1496616194078
20
-8.70953518489688
30
0
41
1
10
10.1602371383515
20
-8.69741000149696
30
0
41
1
10
10.1698345185855
20
-8.68445504520631
30
0
41
1
10
10.174109970658
20
-8.67758536568348
30
0
41
1
10
10.1850268244886
20
-8.6564964311199
30
0
41
1
10
10.1899534792328
20
-8.64157065641083
30
0
41
1
10
10.1927828019521
20
-8.62587398262659
30
0
0
SPLINE
5
132
100
AcDbEntity
8
1
62
256
6
ByLayer
370
18
48
1
60
0
100
AcDbSpline
70
4
71
3
72
35
73
31
40
0
40
0
40
0
40
0
40
0.125000000000011
40
0.125000000000011
40
0.250000000000022
40
0.250000000000022
40
0.375000000000033
40
0.375000000000033
40
0.43750000000004
40
0.43750000000004
40
0.500000000000046
40
0.500000000000046
40
0.625000000000054
40
0.625000000000054
40
0.687500000000057
40
0.687500000000057
40
0.718750000000057
40
0.718750000000057
40
0.750000000000057
40
0.750000000000057
40
0.81250000000004
40
0.81250000000004
40
0.843750000000034
40
0.843750000000034
40
0.875000000000027
40
0.906250000000021
40
0.906250000000021
40
0.937500000000015
40
0.937500000000015
40
1
40
1
40
1
40
1
41
1
10
12.2500584607864
20
-8.61817350080176
30
0
41
1
10
12.2185181114992
20
-8.63638332995305
30
0
41
1
10
12.1861988350233
20
-8.65339719413146
30
0
41
1
10
12.1204214395401
20
-8.6847071987811
30
0
41
1
10
12.0869618404318
20
-8.6990141815877
30
0
41
1
10
12.0187854852614
20
-8.72465175088612
30
0
41
1
10
11.9841729928506
20
-8.7359417865207
30
0
41
1
10
11.9316549959721
20
-8.75007016060493
30
0
41
1
10
11.9140343576322
20
-8.75431416728094
30
0
41
1
10
11.8785357074716
20
-8.76174711807252
30
0
41
1
10
11.860657442516
20
-8.76493414241077
30
0
41
1
10
11.806965168149
20
-8.77259345910181
30
0
41
1
10
11.7708393632314
20
-8.77524100316114
30
0
41
1
10
11.7173195002341
20
-8.77375865959064
30
0
41
1
10
11.699494681003
20
-8.77233871915826
30
0
41
1
10
11.6732769388864
20
-8.76848786646997
30
0
41
1
10
11.6646222676971
20
-8.76691792158272
30
0
41
1
10
11.6475074489911
20
-8.76312859999103
30
0
41
1
10
11.639019022139
20
-8.76089923775228
30
0
41
1
10
11.614213466974
20
-8.75318929212847
30
0
41
1
10
11.5984911346159
20
-8.74669768027056
30
0
41
1
10
11.5764706525636
20
-8.7344146248721
30
0
41
1
10
11.5693448271861
20
-8.72985370788166
30
0
41
1
10
11.5560130614162
20
-8.71998059887628
30
0
41
1
10
11.5435782440129
20
-8.70936475940732
30
0
41
1
10
11.5330148350919
20
-8.69720978217953
30
0
41
1
10
11.5234429426216
20
-8.68424363674228
30
0
41
1
10
11.519207142149
20
-8.67741141534427
30
0
41
1
10
11.5083597893037
20
-8.6563995618524
30
0
41
1
10
11.5034550688248
20
-8.64152420135821
30
0
41
1
10
11.5006341196206
20
-8.62587398262659
30
0
0
SPLINE
5
133
100
AcDbEntity
8
1
62
256
6
ByLayer
370
18
48
1
60
0
100
AcDbSpline
70
4
71
3
72
8
73
4
40
0
40
0
40
0
40
0
40
1
40
1
40
1
40
1
41
1
10
11.5006341196206
20
-8.62587398262659
30
0
41
1
10
11.4976968971013
20
-8.61987206615473
30
0
41
1
10
11.4947595682344
20
-8.61386993237204
30
0
41
1
10
11.4918221305076
20
-8.60786757614545
30
0
0
SPLINE
5
134
100
AcDbEntity
8
1
62
256
6
ByLayer
370
18
48
1
60
0
100
AcDbSpline
70
4
71
3
72
52
73
48
40
0
40
0
40
0
40
0
40
0.0156250000000006
40
0.0156250000000006
40
0.0312500000000012
40
0.0312500000000012
40
0.062500000000009
40
0.062500000000009
40
0.0937500000000167
40
0.0937500000000167
40
0.125000000000024
40
0.125000000000024
40
0.187500000000028
40
0.187500000000028
40
0.21875000000003
40
0.21875000000003
40
0.250000000000032
40
0.250000000000032
40
0.312500000000031
40
0.312500000000031
40
0.375000000000029
40
0.375000000000029
40
0.437500000000027
40
0.437500000000027
40
0.500000000000025
40
0.500000000000025
40
0.562500000000024
40
0.562500000000024
40
0.625000000000022
40
0.625000000000022
40
0.68750000000002
40
0.68750000000002
40
0.750000000000019
40
0.750000000000019
40
0.812500000000017
40
0.812500000000017
40
0.843750000000014
40
0.843750000000014
40
0.875000000000011
40
0.875000000000011
40
0.906250000000008
40
0.906250000000008
40
0.937500000000006
40
0.937500000000006
40
0.968750000000003
40
0.968750000000003
40
1
40
1
40
1
40
1
41
1
10
12.6202514333634
20
-4.41863138562064
30
0
41
1
10
12.616423935842
20
-4.42432220304354
30
0
41
1
10
12.6129041688729
20
-4.4302158650429
30
0
41
1
10
12.6064157338234
20
-4.44236773250321
30
0
41
1
10
12.6034432187284
20
-4.44863934415386
30
0
41
1
10
12.5953646397772
20
-4.4677304677449
30
0
41
1
10
12.591050647138
20
-4.48088662408259
30
0
41
1
10
12.5841154451058
20
-4.5078887577362
30
0
41
1
10
12.5814980882341
20
-4.52173626463994
30
0
41
1
10
12.577693989133
20
-4.55002880927401
30
0
41
1
10
12.5765194027103
20
-4.56442597107122
30
0
41
1
10
12.5748644159658
20
-4.60783753240224
30
0
41
1
10
12.5762220846057
20
-4.63734334875585
30
0
41
1
10
12.5810217574744
20
-4.68160823852645
30
0
41
1
10
12.5830865775298
20
-4.69638701444441
30
0
41
1
10
12.588053788977
20
-4.72599672140865
30
0
41
1
10
12.5909606921176
20
-4.74084156955456
30
0
41
1
10
12.6007803626215
20
-4.78519255570856
30
0
41
1
10
12.6087946508044
20
-4.81460098196212
30
0
41
1
10
12.6273823494057
20
-4.87318333785009
30
0
41
1
10
12.6379493467566
20
-4.90230314047162
30
0
41
1
10
12.6612162349335
20
-4.95975370999415
30
0
41
1
10
12.6739503717848
20
-4.98817881101172
30
0
41
1
10
12.7014758399616
20
-5.04434631090913
30
0
41
1
10
12.7162017307585
20
-5.07195756576854
30
0
41
1
10
12.7475486720151
20
-5.12625158510932
30
0
41
1
10
12.7640898663727
20
-5.15279600515817
30
0
41
1
10
12.7989319625496
20
-5.20466459986537
30
0
41
1
10
12.8172300426135
20
-5.2299761793862
30
0
41
1
10
12.8554056662936
20
-5.2789175745402
30
0
41
1
10
12.8753597436022
20
-5.30264462622793
30
0
41
1
10
12.9167840117578
20
-5.34800698891581
30
0
41
1
10
12.9382930854755
20
-5.36969680158839
30
0
41
1
10
12.983022210305
20
-5.41064343626704
30
0
41
1
10
13.006096978195
20
-5.42977976700337
30
0
41
1
10
13.0420544618527
20
-5.4560774366351
30
0
41
1
10
13.0542874250604
20
-5.46445123931849
30
0
41
1
10
13.0791131546212
20
-5.48016512404149
30
0
41
1
10
13.0917174626149
20
-5.4875166220848
30
0
41
1
10
13.1173837548093
20
-5.50104960050868
30
0
41
1
10
13.1304214296528
20
-5.50721576093676
30
0
41
1
10
13.1568014384284
20
-5.51804809498915
30
0
41
1
10
13.1702090174865
20
-5.52274122769171
30
0
41
1
10
13.1972882969809
20
-5.53026870309617
30
0
41
1
10
13.2108511300795
20
-5.53307858256193
30
0
41
1
10
13.2380474550764
20
-5.53641087163845
30
0
41
1
10
13.251680763848
20
-5.5369396448807
30
0
41
1
10
13.2653651030851
20
-5.53600103823447
30
0
0
SPLINE
5
135
100
AcDbEntity
8
1
62
256
6
ByLayer
370
18
48
1
60
0
100
AcDbSpline
70
4
71
3
72
8
73
4
40
0
40
0
40
0
40
0
40
1
40
1
40
1
40
1
41
1
10
13.2653651030851
20
-5.53600103823447
30
0
41
1
10
13.2720320149233
20
-5.53554375581459
30
0
41
1
10
13.2786986796895
20
-5.53508649034131
30
0
41
1
10
13.2853651030851
20
-5.53462924142363
30
0
0
SPLINE
5
136
100
AcDbEntity
8
1
62
256
6
ByLayer
370
18
48
1
60
0
100
AcDbSpline
70
4
71
3
72
35
73
31
40
0
40
0
40
0
40
0
40
0.124999999999996
40
0.124999999999996
40
0.249999999999992
40
0.249999999999992
40
0.374999999999989
40
0.374999999999989
40
0.499999999999985
40
0.499999999999985
40
0.562499999999983
40
0.562499999999983
40
0.624999999999981
40
0.624999999999981
40
0.687499999999979
40
0.687499999999979
40
0.718749999999978
40
0.718749999999978
40
0.749999999999977
40
0.749999999999977
40
0.81249999999998
40
0.81249999999998
40
0.843749999999981
40
0.843749999999981
40
0.874999999999983
40
0.906249999999984
40
0.906249999999984
40
0.937499999999985
40
0.937499999999985
40
1
40
1
40
1
40
1
41
1
10
13.6534084607864
20
-6.1875
30
0
41
1
10
13.6534084607864
20
-6.15108115992427
30
0
41
1
10
13.6519863705566
20
-6.11462991429985
30
0
41
1
10
13.6462098313412
20
-6.04195760003131
30
0
41
1
10
13.6418686090106
20
-6.0058289908867
30
0
41
1
10
13.6299953562008
20
-5.93403120240248
30
0
41
1
10
13.6224586964152
20
-5.89834753489609
30
0
41
1
10
13.6037004826384
20
-5.82808962605677
30
0
41
1
10
13.5924841154305
20
-5.79349165787951
30
0
41
1
10
13.572254269905
20
-5.74315688798416
30
0
41
1
10
13.5649506550929
20
-5.72666604324615
30
0
41
1
10
13.5490137342171
20
-5.69437405681799
30
0
41
1
10
13.540396005661
20
-5.67861430339059
30
0
41
1
10
13.5217951404462
20
-5.64837111116503
30
0
41
1
10
13.5117939179131
20
-5.6338404841585
30
0
41
1
10
13.4954719836958
20
-5.61317353752122
30
0
41
1
10
13.4898099928108
20
-5.60647390522052
30
0
41
1
10
13.4779740095956
20
-5.59351557585461
30
0
41
1
10
13.4717905388086
20
-5.58725329722125
30
0
41
1
10
13.4527081269287
20
-5.5695742903109
30
0
41
1
10
13.4391875228326
20
-5.5591347458595
30
0
41
1
10
13.4173846748185
20
-5.54608810018709
30
0
41
1
10
13.4098698656473
20
-5.54219570202235
30
0
41
1
10
13.3947302124848
20
-5.53560495454084
30
0
41
1
10
13.3793784208345
20
-5.53014267981303
30
0
41
1
10
13.3635899445128
20
-5.52704660344958
30
0
41
1
10
13.3475719331432
20
-5.52521250650253
30
0
41
1
10
13.3394848901243
20
-5.5249446961565
30
0
41
1
10
13.3157629101382
20
-5.52603489069156
30
0
41
1
10
13.3003734826969
20
-5.52923116988194
30
0
41
1
10
13.2853651030851
20
-5.53462924142363
30
0
0
SPLINE
5
137
100
AcDbEntity
8
1
62
256
6
ByLayer
370
18
48
1
60
0
100
AcDbSpline
70
4
71
3
72
35
73
31
40
0
40
0
40
0
40
0
40
0.124999999999995
40
0.124999999999995
40
0.24999999999999
40
0.24999999999999
40
0.374999999999985
40
0.374999999999985
40
0.437499999999983
40
0.437499999999983
40
0.499999999999981
40
0.499999999999981
40
0.624999999999985
40
0.624999999999985
40
0.687499999999987
40
0.687499999999987
40
0.71874999999999
40
0.71874999999999
40
0.749999999999993
40
0.749999999999993
40
0.812499999999981
40
0.812499999999981
40
0.843749999999985
40
0.843749999999985
40
0.87499999999999
40
0.906249999999994
40
0.906249999999994
40
0.937499999999998
40
0.937499999999998
40
1
40
1
40
1
40
1
41
1
10
12.2500584607863
20
-3.75682649919818
30
0
41
1
10
12.2815988100735
20
-3.77503632834947
30
0
41
1
10
12.3124928869065
20
-3.7945187107203
30
0
41
1
10
12.3724968440673
20
-3.83582860387872
30
0
41
1
10
12.4016168541835
20
-3.8576519753037
30
0
41
1
10
12.4579078180724
20
-3.90387564616947
30
0
41
1
10
12.484991521947
20
-3.92820592606824
30
0
41
1
10
12.5234860512574
20
-3.96662365847879
30
0
41
1
10
12.5359717880225
20
-3.979761575574
30
0
41
1
10
12.5601582373134
20
-4.00678783301737
30
0
41
1
10
12.5718574138306
20
-4.02067735247533
30
0
41
1
10
12.6053367138442
20
-4.06334656771867
30
0
41
1
10
12.625692456716
20
-4.09330866047978
30
0
41
1
10
12.6511686410255
20
-4.14039939322771
30
0
41
1
10
12.6588513461547
20
-4.15654610971592
30
0
41
1
10
12.6686252809587
20
-4.18117676676292
30
0
41
1
10
12.6715930043985
20
-4.18945690431792
30
0
41
1
10
12.67686876499
20
-4.2061734328943
30
0
41
1
10
12.679182294083
20
-4.21463930730576
30
0
41
1
10
12.6849080628935
20
-4.23997652104558
30
0
41
1
10
12.6871473282921
20
-4.25683826620329
30
0
41
1
10
12.687520131307
20
-4.28205009076342
30
0
41
1
10
12.6871331740176
20
-4.29050169505851
30
0
41
1
10
12.6852486936895
20
-4.30698389739524
30
0
41
1
10
12.6822725157286
20
-4.32306068489237
30
0
41
1
10
12.6770277011274
20
-4.33828635398245
30
0
41
1
10
12.6705846360247
20
-4.35305892874268
30
0
41
1
10
12.666785658966
20
-4.36014335025627
30
0
41
1
10
12.6540125364841
20
-4.38004336013006
30
0
41
1
10
12.6435824566452
20
-4.39172865291039
30
0
41
1
10
12.6314394442509
20
-4.40199677594978
30
0
0
SPLINE
5
138
100
AcDbEntity
8
1
62
256
6
ByLayer
370
18
48
1
60
0
100
AcDbSpline
70
4
71
3
72
8
73
4
40
0
40
0
40
0
40
0
40
1
40
1
40
1
40
1
41
1
10
12.6314394442509
20
-4.40199677594978
30
0
41
1
10
12.6277102433745
20
-4.40754144350393
30
0
41
1
10
12.6239809074753
20
-4.41308631181334
30
0
41
1
10
12.6202514333639
20
-4.41863138562005
30
0
0
SPLINE
5
139
100
AcDbEntity
8
1
62
256
6
ByLayer
370
18
48
1
60
0
100
AcDbSpline
70
4
71
3
72
8
73
4
40
0
40
0
40
0
40
0
40
1
40
1
40
1
40
1
41
1
10
9.07316548820884
20
-4.41863138562005
30
0
41
1
10
9.06943601409745
20
-4.41308631181334
30
0
41
1
10
9.06570667819821
20
-4.40754144350393
30
0
41
1
10
9.06197747732182
20
-4.40199677594978
30
0
0
SPLINE
5
13A
100
AcDbEntity
8
1
62
256
6
ByLayer
370
18
48
1
60
0
100
AcDbSpline
70
4
71
3
72
35
73
31
40
0
40
0
40
0
40
0
40
0.124999999999993
40
0.124999999999993
40
0.249999999999985
40
0.249999999999985
40
0.374999999999978
40
0.374999999999978
40
0.49999999999997
40
0.49999999999997
40
0.562499999999968
40
0.562499999999968
40
0.624999999999966
40
0.624999999999966
40
0.687499999999964
40
0.687499999999964
40
0.718749999999965
40
0.718749999999965
40
0.749999999999966
40
0.749999999999966
40
0.812499999999966
40
0.812499999999966
40
0.843749999999971
40
0.843749999999971
40
0.874999999999976
40
0.906249999999981
40
0.906249999999981
40
0.937499999999987
40
0.937499999999987
40
1
40
1
40
1
40
1
41
1
10
9.44335846078636
20
-3.75682649919821
30
0
41
1
10
9.41181882010443
20
-3.77503591923608
30
0
41
1
10
9.38096216050894
20
-3.79449310831373
30
0
41
1
10
9.32091435980834
20
-3.83583189515454
30
0
41
1
10
9.29179667765095
20
-3.85765580854854
30
0
41
1
10
9.23555459529302
20
-3.90383724134952
30
0
41
1
10
9.20841996262504
20
-3.92820601393672
30
0
41
1
10
9.15695393564187
20
-3.97958005801678
30
0
41
1
10
9.13259939988492
20
-4.00659270104555
30
0
41
1
10
9.09912313322468
20
-4.04927964613296
30
0
41
1
10
9.08849345015776
20
-4.06385018446869
30
0
41
1
10
9.06849623001023
20
-4.09379795601936
30
0
41
1
10
9.05915674746277
20
-4.10914100458558
30
0
41
1
10
9.04226580731131
20
-4.14037142250672
30
0
41
1
10
9.03468252645723
20
-4.15629804879251
30
0
41
1
10
9.02494539275938
20
-4.18076673178223
30
0
41
1
10
9.02197433643343
20
-4.18901997587494
30
0
41
1
10
9.01667008561958
20
-4.20574940270106
30
0
41
1
10
9.01433852863101
20
-4.21423558480288
30
0
41
1
10
9.00856926547289
20
-4.2396009417115
30
0
41
1
10
9.00628865682211
20
-4.25652990055897
30
0
41
1
10
9.00589135424269
20
-4.28193504365024
30
0
41
1
10
9.00627784313596
20
-4.29038925837941
30
0
41
1
10
9.0081399149683
20
-4.30679595636337
30
0
41
1
10
9.01108534211673
20
-4.32282213529007
30
0
41
1
10
9.01629829949479
20
-4.33804339505346
30
0
41
1
10
9.02271893063042
20
-4.35283244829114
30
0
41
1
10
9.0265305215768
20
-4.35996993815999
30
0
41
1
10
9.03933564773229
20
-4.3799686781885
30
0
41
1
10
9.0497984204294
20
-4.39169817370723
30
0
41
1
10
9.06197747732182
20
-4.40199677594978
30
0
0
SPLINE
5
13B
100
AcDbEntity
8
1
62
256
6
ByLayer
370
18
48
1
60
0
100
AcDbSpline
70
4
71
3
72
39
73
35
40
0
40
0
40
0
40
0
40
0.124999999999996
40
0.124999999999996
40
0.249999999999992
40
0.249999999999992
40
0.374999999999988
40
0.374999999999988
40
0.437499999999993
40
0.437499999999993
40
0.499999999999999
40
0.499999999999999
40
0.562500000000004
40
0.562500000000004
40
0.62500000000001
40
0.62500000000001
40
0.687500000000015
40
0.687500000000015
40
0.718750000000015
40
0.718750000000015
40
0.750000000000015
40
0.750000000000015
40
0.812500000000007
40
0.812500000000007
40
0.843750000000006
40
0.843750000000006
40
0.875000000000004
40
0.875000000000004
40
0.906250000000003
40
0.906250000000003
40
0.937500000000002
40
0.968750000000001
40
0.968750000000001
40
1
40
1
40
1
40
1
41
1
10
8.04000846078637
20
-6.1875
30
0
41
1
10
8.04000846078637
20
-6.15107512771408
30
0
41
1
10
8.04143231582628
20
-6.11461490530141
30
0
41
1
10
8.04720197988502
20
-6.04201470204546
30
0
41
1
10
8.05155203676483
20
-6.00580358400578
30
0
41
1
10
8.06342300562352
20
-5.93402538098456
30
0
41
1
10
8.0709530303173
20
-5.89838125753627
30
0
41
1
10
8.08498936873951
20
-5.84578751800424
30
0
41
1
10
8.0901245673856
20
-5.82840852603803
30
0
41
1
10
8.10142117580773
20
-5.793995801302
30
0
41
1
10
8.10759190066034
20
-5.77693924755428
30
0
41
1
10
8.12105236751
20
-5.74341514957078
30
0
41
1
10
8.12834383735975
20
-5.72693306666966
30
0
41
1
10
8.14426165766372
20
-5.69464218825115
30
0
41
1
10
8.15285027122835
20
-5.67891597620562
30
0
41
1
10
8.1714096042374
20
-5.64869236324427
30
0
41
1
10
8.18139189240546
20
-5.63416176511163
30
0
41
1
10
8.19769261688029
20
-5.61347918431363
30
0
41
1
10
8.20334876169201
20
-5.60677172627774
30
0
41
1
10
8.21517680323336
20
-5.59379240283741
30
0
41
1
10
8.22134354473428
20
-5.58753216693239
30
0
41
1
10
8.24038269452956
20
-5.56984389723047
30
0
41
1
10
8.25388199684778
20
-5.55938164827836
30
0
41
1
10
8.27567585720101
20
-5.54628255393249
30
0
41
1
10
8.28316778067392
20
-5.54238131314253
30
0
41
1
10
8.29832355832815
20
-5.53574352399517
30
0
41
1
10
8.30602882644064
20
-5.53298072438861
30
0
41
1
10
8.32170708750894
20
-5.52864190392157
30
0
41
1
10
8.32974534113367
20
-5.52706048207364
30
0
41
1
10
8.34575875536214
20
-5.52521789649327
30
0
41
1
10
8.36165219217995
20
-5.52467684233847
30
0
41
1
10
8.37731232259031
20
-5.52661636079424
30
0
41
1
10
8.39285827112141
20
-5.52975810715628
30
0
41
1
10
8.40055000829688
20
-5.5319310615302
30
0
41
1
10
8.40805181848759
20
-5.53462924142363
30
0
0
SPLINE
5
13C
100
AcDbEntity
8
1
62
256
6
ByLayer
370
18
48
1
60
0
100
AcDbSpline
70
4
71
3
72
8
73
4
40
0
40
0
40
0
40
0
40
1
40
1
40
1
40
1
41
1
10
8.42805181848757
20
-5.53600103823447
30
0
41
1
10
8.42138490664942
20
-5.53554375581459
30
0
41
1
10
8.41471824188324
20
-5.53508649034131
30
0
41
1
10
8.40805181848759
20
-5.53462924142363
30
0
0
SPLINE
5
13D
100
AcDbEntity
8
1
62
256
6
ByLayer
370
18
48
1
60
0
100
AcDbSpline
70
4
71
3
72
50
73
46
40
0
40
0
40
0
40
0
40
0.0312500000000031
40
0.0312500000000031
40
0.0468750000000019
40
0.0468750000000019
40
0.0625000000000007
40
0.0625000000000007
40
0.125000000000001
40
0.125000000000001
40
0.156250000000001
40
0.156250000000001
40
0.187500000000001
40
0.187500000000001
40
0.250000000000001
40
0.250000000000001
40
0.28125
40
0.28125
40
0.312499999999999
40
0.312499999999999
40
0.375000000000002
40
0.375000000000002
40
0.500000000000005
40
0.500000000000005
40
0.562500000000003
40
0.562500000000003
40
0.625000000000001
40
0.625000000000001
40
0.687499999999999
40
0.687499999999999
40
0.749999999999997
40
0.749999999999997
40
0.812499999999995
40
0.812499999999995
40
0.843749999999996
40
0.843749999999996
40
0.874999999999996
40
0.874999999999996
40
0.906249999999997
40
0.906249999999997
40
0.937499999999998
40
0.937499999999998
40
0.968749999999999
40
0.968749999999999
40
1
40
1
40
1
40
1
41
1
10
9.07316548820884
20
-4.41863138562005
30
0
41
1
10
9.08086363286023
20
-4.43007717636459
30
0
41
1
10
9.08726707059802
20
-4.44224594547794
30
0
41
1
10
9.09535475893429
20
-4.46135431479433
30
0
41
1
10
9.09779510072735
20
-4.46786781283899
30
0
41
1
10
9.10221130158433
20
-4.48115845177878
30
0
41
1
10
9.10419123975356
20
-4.48795506284353
30
0
41
1
10
9.11293597185531
20
-4.52219359403347
30
0
41
1
10
9.11640548839594
20
-4.5505294730695
30
0
41
1
10
9.11800821730174
20
-4.59407265245125
30
0
41
1
10
9.11792018008362
20
-4.60881050135851
30
0
41
1
10
9.11667381432244
20
-4.63822900036351
30
0
41
1
10
9.11551973761325
20
-4.65294548757498
30
0
41
1
10
9.11067763757438
20
-4.6971277659915
30
0
41
1
10
9.10562281016132
20
-4.72662658615837
30
0
41
1
10
9.09577379066744
20
-4.77097832708532
30
0
41
1
10
9.09209993951208
20
-4.78581203871079
30
0
41
1
10
9.08407321522503
20
-4.81536519123398
30
0
41
1
10
9.07973489915133
20
-4.83003789263989
30
0
41
1
10
9.06582503847633
20
-4.87377413493533
30
0
41
1
10
9.0553640743166
20
-4.90255778067797
30
0
41
1
10
9.02079033533016
20
-4.98792997989614
30
0
41
1
10
8.99354173458795
20
-5.04355968660889
30
0
41
1
10
8.94652660525961
20
-5.12516929132931
30
0
41
1
10
8.92997460330699
20
-5.15178387935077
30
0
41
1
10
8.89511496155424
20
-5.20377313513862
30
0
41
1
10
8.87680287652822
20
-5.22914691385554
30
0
41
1
10
8.83859526996503
20
-5.27820719398002
30
0
41
1
10
8.81862237336992
20
-5.30199243238658
30
0
41
1
10
8.77715295943068
20
-5.34746990720171
30
0
41
1
10
8.75562160656176
20
-5.36921265310662
30
0
41
1
10
8.7108344987472
20
-5.41026872099027
30
0
41
1
10
8.6877291460624
20
-5.42945628633405
30
0
41
1
10
8.65172314635714
20
-5.45582546819031
30
0
41
1
10
8.63947307289524
20
-5.46422259943247
30
0
41
1
10
8.61461070757233
20
-5.47998171925366
30
0
41
1
10
8.60198767964903
20
-5.48735462142838
30
0
41
1
10
8.57628298561508
20
-5.50092770307236
30
0
41
1
10
8.56322405704006
20
-5.5071132946041
30
0
41
1
10
8.53680169151548
20
-5.51798011014245
30
0
41
1
10
8.52337332781431
20
-5.52268843228049
30
0
41
1
10
8.49624706462913
20
-5.53024251938641
30
0
41
1
10
8.48266069756167
20
-5.53306289483302
30
0
41
1
10
8.45541710599548
20
-5.53640907247623
30
0
41
1
10
8.44176006598943
20
-5.53694128474476
30
0
41
1
10
8.42805181848757
20
-5.53600103823447
30
0
0
LINE
5
83
100
AcDbEntity
8
81
62
256
6
ByLayer
370
18
48
1
60
0
100
AcDbLine
10
23
20
-29.5375
30
0
11
23
21
-34.5375
31
0
39
0
210
0
220
0
230
1
0
LINE
5
84
100
AcDbEntity
8
80
62
256
6
ByLayer
370
18
48
1
60
0
100
AcDbLine
10
0
20
0
30
0
11
-5
21
0
31
0
39
0
210
0
220
0
230
1
0
LINE
5
85
100
AcDbEntity
8
SK1
62
256
6
ByLayer
370
18
48
1
60
0
100
AcDbLine
10
-3.301981
20
12.4625
30
0
11
-81
21
12.4625
31
0
39
0
210
0
220
0
230
1
0
LINE
5
87
100
AcDbEntity
8
SK1
62
256
6
ByLayer
370
18
48
1
60
0
100
AcDbLine
10
-3.301981
20
-12.4625
30
0
11
-81
21
-12.4625
31
0
39
0
210
0
220
0
230
1
0
LINE
5
88
100
AcDbEntity
8
SK1
62
256
6
ByLayer
370
18
48
1
60
0
100
AcDbLine
10
-84
20
-9.4625
30
0
11
-81
21
-12.4625
31
0
39
0
210
0
220
0
230
1
0
LINE
5
89
100
AcDbEntity
8
SK1
62
256
6
ByLayer
370
18
48
1
60
0
100
AcDbLine
10
-84
20
9.4625
30
0
11
-81
21
12.4625
31
0
39
0
210
0
220
0
230
1
0
LINE
5
8A
100
AcDbEntity
8
SK1
62
256
6
ByLayer
370
18
48
1
60
0
100
AcDbLine
10
-84
20
9.4625
30
0
11
-84
21
-9.4625
31
0
39
0
210
0
220
0
230
1
0
LINE
5
8B
100
AcDbEntity
8
SK1
62
256
6
ByLayer
370
18
48
1
60
0
100
AcDbLine
10
-1.362332
20
12.4625
30
0
11
-3.301981
21
12.4625
31
0
39
0
210
0
220
0
230
1
0
LINE
5
8C
100
AcDbEntity
8
SK1
62
256
6
ByLayer
370
13
48
1
60
0
100
AcDbLine
10
-3.301981
20
-12.4625
30
0
11
-3.301981
21
12.4625
31
0
39
0
210
0
220
0
230
1
0
LINE
5
8D
100
AcDbEntity
8
SK1
62
256
6
ByLayer
370
18
48
1
60
0
100
AcDbLine
10
-1.607992
20
-12.4625
30
0
11
-3.301981
21
-12.4625
31
0
39
0
210
0
220
0
230
1
0
LINE
5
8E
100
AcDbEntity
8
SK1
62
256
6
ByLayer
370
13
48
1
60
0
100
AcDbLine
10
-0.404203
20
5.771125
30
0
11
-0.404203
21
2.971739
31
0
39
0
210
0
220
0
230
1
0
LINE
5
8F
100
AcDbEntity
8
SK1
62
256
6
ByLayer
370
18
48
1
60
0
100
AcDbLine
10
0
20
5.563113
30
0
11
0
21
5.363075
31
0
39
0
210
0
220
0
230
1
0
LINE
5
90
100
AcDbEntity
8
SK1
62
256
6
ByLayer
370
18
48
1
60
0
100
AcDbLine
10
-0.327007
20
5.558342
30
0
11
-0.404203
21
2.971739
31
0
39
0
210
0
220
0
230
1
0
LINE
5
91
100
AcDbEntity
8
SK1
62
256
6
ByLayer
370
18
48
1
60
0
100
AcDbLine
10
-1.227723
20
-12.4625
30
0
11
-1.607992
21
-12.4625
31
0
39
0
210
0
220
0
230
1
0
LINE
5
92
100
AcDbEntity
8
SK1
62
256
6
ByLayer
370
18
48
1
60
0
100
AcDbLine
10
0
20
12.4625
30
0
11
0
21
11.363067
31
0
39
0
210
0
220
0
230
1
0
LINE
5
93
100
AcDbEntity
8
SK1
62
256
6
ByLayer
370
18
48
1
60
0
100
AcDbLine
10
0
20
12.4625
30
0
11
-1.362332
21
12.4625
31
0
39
0
210
0
220
0
230
1
0
LINE
5
94
100
AcDbEntity
8
SK1
62
256
6
ByLayer
370
18
48
1
60
0
100
AcDbLine
10
0
20
8.68601
30
0
11
0
21
11.363067
31
0
39
0
210
0
220
0
230
1
0
LINE
5
95
100
AcDbEntity
8
SK1
62
256
6
ByLayer
370
18
48
1
60
0
100
AcDbLine
10
-0.404203
20
11.912119
30
0
11
0
21
11.363067
31
0
39
0
210
0
220
0
230
1
0
LINE
5
96
100
AcDbEntity
8
SK1
62
256
6
ByLayer
370
13
48
1
60
0
100
AcDbLine
10
-0.404203
20
11.912119
30
0
11
-0.404203
21
8.278051
31
0
39
0
210
0
220
0
230
1
0
LINE
5
97
100
AcDbEntity
8
SK1
62
256
6
ByLayer
370
18
48
1
60
0
100
AcDbLine
10
0
20
5.563113
30
0
11
0
21
8.68601
31
0
39
0
210
0
220
0
230
1
0
LINE
5
98
100
AcDbEntity
8
1
62
256
6
ByLayer
370
18
48
1
60
0
100
AcDbLine
10
0
20
5.563113
30
0
11
0
21
5.363075
31
0
39
0
210
0
220
0
230
1
0
LINE
5
99
100
AcDbEntity
8
1
62
256
6
ByLayer
370
18
48
1
60
0
100
AcDbLine
10
0
20
5.563113
30
0
11
0
21
8.68601
31
0
39
0
210
0
220
0
230
1
0
LINE
5
9A
100
AcDbEntity
8
1
62
256
6
ByLayer
370
18
48
1
60
0
100
AcDbLine
10
0
20
-12.9375
30
0
11
0
21
5.363166
31
0
39
0
210
0
220
0
230
1
0
LINE
5
9B
100
AcDbEntity
8
1
62
256
6
ByLayer
370
18
48
1
60
0
100
AcDbLine
10
0
20
-12.9375
30
0
11
1.707827
21
-12.9375
31
0
39
0
210
0
220
0
230
1
0
LINE
5
9C
100
AcDbEntity
8
1
62
256
6
ByLayer
370
18
48
1
60
0
100
AcDbLine
10
0
20
8.68601
30
0
11
0
21
11.363067
31
0
39
0
210
0
220
0
230
1
0
LINE
5
9D
100
AcDbEntity
8
1
62
256
6
ByLayer
370
18
48
1
60
0
100
AcDbLine
10
0
20
12.4625
30
0
11
0
21
11.363067
31
0
39
0
210
0
220
0
230
1
0
LINE
5
9E
100
AcDbEntity
8
1
62
256
6
ByLayer
370
18
48
1
60
0
100
AcDbLine
10
0
20
11.363067
30
0
11
1.707827
21
9.043231
31
0
39
0
210
0
220
0
230
1
0
LINE
5
9F
100
AcDbEntity
8
1
62
256
6
ByLayer
370
18
48
1
60
0
100
AcDbLine
10
22.783512
20
-19.873207
30
0
11
23.086369
21
-19.873745
31
0
39
0
210
0
220
0
230
1
0
LINE
5
A0
100
AcDbEntity
8
1
62
256
6
ByLayer
370
18
48
1
60
0
100
AcDbLine
10
22.969732
20
-28.5375
30
0
11
23.077347
21
-28.5375
31
0
39
0
210
0
220
0
230
1
0
LINE
5
A1
100
AcDbEntity
8
1
62
256
6
ByLayer
370
18
48
1
60
0
100
AcDbLine
10
22.757129
20
-22.342798
30
0
11
23.077347
21
-22.343366
31
0
39
0
210
0
220
0
230
1
0
LINE
5
A2
100
AcDbEntity
8
1
62
256
6
ByLayer
370
18
48
1
60
0
100
AcDbLine
10
22.716673
20
-20.962405
30
0
11
22.39781
21
-21.044001
31
0
39
0
210
0
220
0
230
1
0
LINE
5
A3
100
AcDbEntity
8
1
62
256
6
ByLayer
370
13
48
1
60
0
100
AcDbLine
10
20.203429
20
-14.5375
30
0
11
19.367571
21
-14.5375
31
0
39
0
210
0
220
0
230
1
0
LINE
5
A4
100
AcDbEntity
8
1
62
256
6
ByLayer
370
18
48
1
60
0
100
AcDbLine
10
31.658418
20
12.4625
30
0
11
31.658418
21
-23.324281
31
0
39
0
210
0
220
0
230
1
0
LINE
5
A5
100
AcDbEntity
8
1
62
256
6
ByLayer
370
18
48
1
60
0
100
AcDbLine
10
22.683858
20
12.4625
30
0
11
31.658418
21
12.4625
31
0
39
0
210
0
220
0
230
1
0
LINE
5
A6
100
AcDbEntity
8
1
62
256
6
ByLayer
370
18
48
1
60
0
100
AcDbLine
10
23.086369
20
-17.018589
30
0
11
23.086369
21
-19.873745
31
0
39
0
210
0
220
0
230
1
0
LINE
5
A7
100
AcDbEntity
8
1
62
256
6
ByLayer
370
18
48
1
60
0
100
AcDbLine
10
23.077347
20
-22.343366
30
0
11
23.077347
21
-28.5375
31
0
39
0
210
0
220
0
230
1
0
LINE
5
A8
100
AcDbEntity
8
1
62
256
6
ByLayer
370
18
48
1
60
0
100
AcDbLine
10
24.433889
20
-28.5375
30
0
11
23.077347
21
-28.5375
31
0
39
0
210
0
220
0
230
1
0
LINE
5
A9
100
AcDbEntity
8
1
62
256
6
ByLayer
370
18
48
1
60
0
100
AcDbLine
10
18.889623
20
-12.9375
30
0
11
17.726218
21
-12.9375
31
0
39
0
210
0
220
0
230
1
0
LINE
5
AA
100
AcDbEntity
8
1
62
256
6
ByLayer
370
18
48
1
60
0
100
AcDbLine
10
23.921133
20
-9.333802
30
0
11
23.921133
21
-12.188358
31
0
39
0
210
0
220
0
230
1
0
LINE
5
AB
100
AcDbEntity
8
1
62
256
6
ByLayer
370
18
48
1
60
0
100
AcDbLine
10
22.969368
20
-18.0375
30
0
11
22.006557
21
-18.0375
31
0
39
0
210
0
220
0
230
1
0
LINE
5
AC
100
AcDbEntity
8
1
62
256
6
ByLayer
370
13
48
1
60
0
100
AcDbLine
10
19.326218
20
-9.333802
30
0
11
19.326218
21
-13.002805
31
0
39
0
210
0
220
0
230
1
0
LINE
5
AD
100
AcDbEntity
8
1
62
256
6
ByLayer
370
18
48
1
60
0
100
AcDbLine
10
20.724802
20
-18.0375
30
0
11
19.655127
21
-18.0375
31
0
39
0
210
0
220
0
230
1
0
LINE
5
AE
100
AcDbEntity
8
1
62
256
6
ByLayer
370
18
48
1
60
0
100
AcDbLine
10
23.921133
20
9.771171
30
0
11
23.921133
21
9.043231
31
0
39
0
210
0
220
0
230
1
0
LINE
5
AF
100
AcDbEntity
8
1
62
256
6
ByLayer
370
18
48
1
60
0
100
AcDbLine
10
22.683853
20
12.4625
30
0
11
0
21
12.4625
31
0
39
0
210
0
220
0
230
1
0
LINE
5
B0
100
AcDbEntity
8
1
62
256
6
ByLayer
370
18
48
1
60
0
100
AcDbLine
10
23.921133
20
-9.333802
30
0
11
23.921133
21
9.043231
31
0
39
0
210
0
220
0
230
1
0
LINE
5
B1
100
AcDbEntity
8
1
62
256
6
ByLayer
370
18
48
1
60
0
100
AcDbLine
10
23.921133
20
9.043231
30
0
11
1.707827
21
9.043231
31
0
39
0
210
0
220
0
230
1
0
LINE
5
B2
100
AcDbEntity
8
1
62
256
6
ByLayer
370
18
48
1
60
0
100
AcDbLine
10
1.707827
20
9.043231
30
0
11
1.707827
21
-12.9375
31
0
39
0
210
0
220
0
230
1
0
LINE
5
B3
100
AcDbEntity
8
1
62
256
6
ByLayer
370
18
48
1
60
0
100
AcDbLine
10
1.707827
20
-12.9375
30
0
11
17.726218
21
-12.9375
31
0
39
0
210
0
220
0
230
1
0
LINE
5
B4
100
AcDbEntity
8
1
62
256
6
ByLayer
370
18
48
1
60
0
100
AcDbLine
10
17.726218
20
-12.122176
30
0
11
17.726218
21
-12.9375
31
0
39
0
210
0
220
0
230
1
0
LINE
5
B5
100
AcDbEntity
8
1
62
256
6
ByLayer
370
18
48
1
60
0
100
AcDbLine
10
19.326218
20
-9.333802
30
0
11
23.921133
21
-9.333802
31
0
39
0
210
0
220
0
230
1
0
LINE
5
B6
100
AcDbEntity
8
SK1
62
256
6
ByLayer
370
18
48
1
60
0
100
AcDbLine
10
0
20
-12.9375
30
0
11
0
21
5.363166
31
0
39
0
210
0
220
0
230
1
0
LINE
5
B7
100
AcDbEntity
8
SK1
62
256
6
ByLayer
370
18
48
1
60
0
100
AcDbLine
10
-0.090017
20
-12.9375
30
0
11
0
21
-12.9375
31
0
39
0
210
0
220
0
230
1
0
LINE
5
B8
100
AcDbEntity
8
SK1
62
256
6
ByLayer
370
18
48
1
60
0
100
AcDbLine
10
-0.404203
20
-6.002446
30
0
11
-0.066039
21
5.328391
31
0
39
0
210
0
220
0
230
1
0
LINE
5
B9
100
AcDbEntity
8
SK1
62
256
6
ByLayer
370
13
48
1
60
0
100
AcDbLine
10
-0.404203
20
-6.002446
30
0
11
-0.404203
21
-12.690707
31
0
39
0
210
0
220
0
230
1
0
LINE
5
BA
100
AcDbEntity
8
1
62
256
6
ByLayer
370
18
48
1
60
0
100
AcDbLine
10
19.402193
20
-23.1675
30
0
11
19.402193
21
-25.12399
31
0
39
0
210
0
220
0
230
1
0
LINE
5
BB
100
AcDbEntity
8
1
62
256
6
ByLayer
370
18
48
1
60
0
100
AcDbLine
10
19.163598
20
-25.5375
30
0
11
19.402193
21
-25.12399
31
0
39
0
210
0
220
0
230
1
0
LINE
5
BC
100
AcDbEntity
8
1
62
256
6
ByLayer
370
18
48
1
60
0
100
AcDbLine
10
19.002722
20
-29.224414
30
0
11
19.163598
21
-25.5375
31
0
39
0
210
0
220
0
230
1
0
LINE
5
BD
100
AcDbEntity
8
1
62
256
6
ByLayer
370
18
48
1
60
0
100
AcDbLine
10
19.302254
20
-29.5375
30
0
11
22.700183
21
-29.5375
31
0
39
0
210
0
220
0
230
1
0
LINE
5
BE
100
AcDbEntity
8
1
62
256
6
ByLayer
370
18
48
1
60
0
100
AcDbLine
10
22.999715
20
-29.224414
30
0
11
22.838839
21
-25.5375
31
0
39
0
210
0
220
0
230
1
0
LINE
5
BF
100
AcDbEntity
8
1
62
256
6
ByLayer
370
18
48
1
60
0
100
AcDbLine
10
22.838839
20
-25.5375
30
0
11
22.600244
21
-25.12399
31
0
39
0
210
0
220
0
230
1
0
LINE
5
C0
100
AcDbEntity
8
1
62
256
6
ByLayer
370
13
48
1
60
0
100
AcDbLine
10
20.957075
20
-21.53767
30
0
11
20.957075
21
-22.475361
31
0
39
0
210
0
220
0
230
1
0
LINE
5
C1
100
AcDbEntity
8
1
62
256
6
ByLayer
370
13
48
1
60
0
100
AcDbLine
10
20.997051
20
-21.53665
30
0
11
20.997051
21
-22.475361
31
0
39
0
210
0
220
0
230
1
0
LINE
5
C2
100
AcDbEntity
8
1
62
256
6
ByLayer
370
13
48
1
60
0
100
AcDbLine
10
20.766145
20
-21.542338
30
0
11
20.766145
21
-22.466446
31
0
39
0
210
0
220
0
230
1
0
LINE
5
C3
100
AcDbEntity
8
1
62
256
6
ByLayer
370
13
48
1
60
0
100
AcDbLine
10
21.187359
20
-21.531989
30
0
11
21.187359
21
-22.466446
31
0
39
0
210
0
220
0
230
1
0
LINE
5
C4
100
AcDbEntity
8
1
62
256
6
ByLayer
370
13
48
1
60
0
100
AcDbLine
10
20.542998
20
-21.460065
30
0
11
20.542998
21
-22.286445
31
0
39
0
210
0
220
0
230
1
0
LINE
5
C5
100
AcDbEntity
8
1
62
256
6
ByLayer
370
13
48
1
60
0
100
AcDbLine
10
21.397942
20
-21.395027
30
0
11
21.397942
21
-22.286445
31
0
39
0
210
0
220
0
230
1
0
LINE
5
C6
100
AcDbEntity
8
1
62
256
6
ByLayer
370
13
48
1
60
0
100
AcDbLine
10
20.482136
20
-22.127619
30
0
11
20.482136
21
-21.329504
31
0
39
0
210
0
220
0
230
1
0
LINE
5
C7
100
AcDbEntity
8
1
62
256
6
ByLayer
370
13
48
1
60
0
100
AcDbLine
10
21.447718
20
-22.127619
30
0
11
21.447718
21
-21.26715
31
0
39
0
210
0
220
0
230
1
0
LINE
5
C8
100
AcDbEntity
8
1
62
256
6
ByLayer
370
13
48
1
60
0
100
AcDbLine
10
20.449936
20
-21.273734
30
0
11
20.449936
21
-22.087023
31
0
39
0
210
0
220
0
230
1
0
LINE
5
C9
100
AcDbEntity
8
1
62
256
6
ByLayer
370
13
48
1
60
0
100
AcDbLine
10
20.355707
20
-21.261693
30
0
11
20.355707
21
-22.015191
31
0
39
0
210
0
220
0
230
1
0
LINE
5
CA
100
AcDbEntity
8
1
62
256
6
ByLayer
370
13
48
1
60
0
100
AcDbLine
10
21.477085
20
-21.240754
30
0
11
21.477085
21
-22.087023
31
0
39
0
210
0
220
0
230
1
0
LINE
5
CB
100
AcDbEntity
8
1
62
256
6
ByLayer
370
13
48
1
60
0
100
AcDbLine
10
21.566299
20
-21.221561
30
0
11
21.566299
21
-22.015191
31
0
39
0
210
0
220
0
230
1
0
LINE
5
CC
100
AcDbEntity
8
1
62
256
6
ByLayer
370
13
48
1
60
0
100
AcDbLine
10
20.310777
20
-21.256103
30
0
11
20.310777
21
-21.995459
31
0
39
0
210
0
220
0
230
1
0
LINE
5
CD
100
AcDbEntity
8
1
62
256
6
ByLayer
370
18
48
1
60
0
100
AcDbLine
10
19.356981
20
-14.474601
30
0
11
19.356981
21
-21.872018
31
0
39
0
210
0
220
0
230
1
0
LINE
5
CE
100
AcDbEntity
8
1
62
256
6
ByLayer
370
13
48
1
60
0
100
AcDbLine
10
19.598086
20
-21.162553
30
0
11
19.598086
21
-21.872018
31
0
39
0
210
0
220
0
230
1
0
LINE
5
CF
100
AcDbEntity
8
1
62
256
6
ByLayer
370
13
48
1
60
0
100
AcDbLine
10
19.615493
20
-21.164907
30
0
11
19.615493
21
-21.873537
31
0
39
0
210
0
220
0
230
1
0
LINE
5
D0
100
AcDbEntity
8
1
62
256
6
ByLayer
370
13
48
1
60
0
100
AcDbLine
10
21.609853
20
-21.212256
30
0
11
21.609853
21
-21.995459
31
0
39
0
210
0
220
0
230
1
0
LINE
5
D1
100
AcDbEntity
8
1
62
256
6
ByLayer
370
13
48
1
60
0
100
AcDbLine
10
22.296627
20
-21.065617
30
0
11
22.296627
21
-21.873537
31
0
39
0
210
0
220
0
230
1
0
LINE
5
D2
100
AcDbEntity
8
1
62
256
6
ByLayer
370
18
48
1
60
0
100
AcDbLine
10
22.600244
20
-23.1675
30
0
11
22.600244
21
-25.12399
31
0
39
0
210
0
220
0
230
1
0
LINE
5
D3
100
AcDbEntity
8
1
62
256
6
ByLayer
370
18
48
1
60
0
100
AcDbLine
10
22.757134
20
-25.395803
30
0
11
22.757134
21
-20.2443
31
0
39
0
210
0
220
0
230
1
0
LINE
5
D4
100
AcDbEntity
8
1
62
256
6
ByLayer
370
18
48
1
60
0
100
AcDbLine
10
22.600244
20
-23.1675
30
0
11
22.555032
21
-21.872018
31
0
39
0
210
0
220
0
230
1
0
LINE
5
D5
100
AcDbEntity
8
1
62
256
6
ByLayer
370
18
48
1
60
0
100
AcDbLine
10
22.296627
20
-21.873537
30
0
11
21.609853
21
-21.995459
31
0
39
0
210
0
220
0
230
1
0
LINE
5
D6
100
AcDbEntity
8
1
62
256
6
ByLayer
370
18
48
1
60
0
100
AcDbLine
10
21.566299
20
-22.015191
30
0
11
21.477085
21
-22.087023
31
0
39
0
210
0
220
0
230
1
0
LINE
5
D7
100
AcDbEntity
8
1
62
256
6
ByLayer
370
18
48
1
60
0
100
AcDbLine
10
20.957075
20
-22.475361
30
0
11
20.997051
21
-22.475361
31
0
39
0
210
0
220
0
230
1
0
LINE
5
D8
100
AcDbEntity
8
1
62
256
6
ByLayer
370
18
48
1
60
0
100
AcDbLine
10
20.355707
20
-22.015191
30
0
11
20.449936
21
-22.087023
31
0
39
0
210
0
220
0
230
1
0
LINE
5
D9
100
AcDbEntity
8
1
62
256
6
ByLayer
370
18
48
1
60
0
100
AcDbLine
10
19.615493
20
-21.873537
30
0
11
20.310777
21
-21.995459
31
0
39
0
210
0
220
0
230
1
0
LINE
5
DA
100
AcDbEntity
8
1
62
256
6
ByLayer
370
18
48
1
60
0
100
AcDbLine
10
19.356981
20
-21.872018
30
0
11
19.598086
21
-21.872018
31
0
39
0
210
0
220
0
230
1
0
LINE
5
DB
100
AcDbEntity
8
1
62
256
6
ByLayer
370
18
48
1
60
0
100
AcDbLine
10
19.402193
20
-23.1675
30
0
11
19.356981
21
-21.872018
31
0
39
0
210
0
220
0
230
1
0
LINE
5
DC
100
AcDbEntity
8
1
62
256
6
ByLayer
370
18
48
1
60
0
100
AcDbLine
10
19.402193
20
-23.1675
30
0
11
22.600244
21
-23.1675
31
0
39
0
210
0
220
0
230
1
0
LINE
5
DD
100
AcDbEntity
8
1
62
256
6
ByLayer
370
13
48
1
60
0
100
AcDbLine
10
22.313928
20
-21.061783
30
0
11
22.313928
21
-21.872018
31
0
39
0
210
0
220
0
230
1
0
LINE
5
DE
100
AcDbEntity
8
1
62
256
6
ByLayer
370
18
48
1
60
0
100
AcDbLine
10
22.555032
20
-21.872018
30
0
11
22.313928
21
-21.872018
31
0
39
0
210
0
220
0
230
1
0
LINE
5
DF
100
AcDbEntity
8
1
62
256
6
ByLayer
370
18
48
1
60
0
100
AcDbLine
10
22.555032
20
-21.003618
30
0
11
22.555032
21
-21.872018
31
0
39
0
210
0
220
0
230
1
0
MTEXT
5
13E
100
AcDbEntity
8
SK6
62
256
6
ByLayer
370
18
48
1
60
0
100
AcDbMText
10
-60.985291
20
-65.254866
30
0
210
0
220
0
230
1
1
\W0.7745;C2A-QS25-LGH15B-40CB
40
3.5
41
0
44
1.084337
50
0
71
7
72
5
7
iso_b_vert
0
DIMENSION
5
143
100
AcDbEntity
8
2
62
256
6
ByLayer
370
18
48
1
60
0
100
AcDbDimension
2
_U0
10
54.758418
20
12.4625
30
0
11
54.758418
21
-8.5375
31
0
70
32
71
1
72
1
41
1
210
0
220
0
230
1
3
Standard
100
AcDbAlignedDimension
13
23
23
-29.5375
33
0
14
0
24
12.4625
34
0
50
90
100
AcDbRotatedDimension
1001
ACAD
1000
DSTYLE
1002
{
1070
   371
1070
    13
1070
   372
1070
    13
1070
   170
1070
     0
1070
   144
1040
1.0
1070
   277
1070
     2
1070
   284
1070
     8
1070
   278
1070
    46
1070
   146
1040
1.0
1070
   345
1005
16
1070
   347
1005
16
1070
   346
1005
16
1070
   344
1005
0
1070
   343
1005
0
1070
   172
1070
     1
1070
    76
1070
     0
1070
    75
1070
     0
1070
   282
1070
     0
1070
   281
1070
     0
1070
    71
1070
     0
1070
    74
1070
     0
1070
   279
1070
     0
1070
   173
1070
     1
1070
   340
1005
13F
1070
   271
1070
     2
1070
   272
1070
     2
1070
    77
1070
     1
1070
    73
1070
     0
1070
   171
1070
     3
1070
   274
1070
     4
1070
   177
1070
     2
1070
   176
1070
     2
1070
   178
1070
     2
1070
    78
1070
     8
1070
    48
1040
-0.1
1070
    41
1040
3.5
1070
   147
1040
1.75
1070
    42
1040
1.5875
1070
    44
1040
2.0
1070
   140
1040
3.5
1002
}
1001
ACAD_DSTYLE_DIM_LINETYPE
1070
   380
1005
16
1001
ACAD_DSTYLE_DIM_EXT1_LINETYPE
1070
   381
1005
16
1001
ACAD_DSTYLE_DIM_EXT2_LINETYPE
1070
   382
1005
16
0
DIMENSION
5
15D
100
AcDbEntity
8
2
62
256
6
ByLayer
370
18
48
1
60
0
100
AcDbDimension
2
_U1
10
44.758418
20
-29.5375
30
0
11
44.758418
21
-22.0375
31
0
70
32
71
1
72
1
41
1
210
0
220
0
230
1
3
Standard
100
AcDbAlignedDimension
13
19.326218
23
-14.5375
33
0
14
23
24
-29.5375
34
0
50
90
100
AcDbRotatedDimension
1001
ACAD
1000
DSTYLE
1002
{
1070
   371
1070
    13
1070
   372
1070
    13
1070
   170
1070
     0
1070
   144
1040
1.0
1070
   277
1070
     2
1070
   284
1070
     8
1070
   278
1070
    46
1070
   146
1040
1.0
1070
   345
1005
16
1070
   347
1005
16
1070
   346
1005
16
1070
   344
1005
0
1070
   343
1005
0
1070
   172
1070
     1
1070
    76
1070
     0
1070
    75
1070
     0
1070
   282
1070
     0
1070
   281
1070
     0
1070
    71
1070
     0
1070
    74
1070
     0
1070
   279
1070
     0
1070
   173
1070
     1
1070
   340
1005
13F
1070
   271
1070
     2
1070
   272
1070
     2
1070
    77
1070
     1
1070
    73
1070
     0
1070
   171
1070
     3
1070
   274
1070
     4
1070
   177
1070
     2
1070
   176
1070
     2
1070
   178
1070
     2
1070
    78
1070
     8
1070
    48
1040
-0.1
1070
    41
1040
3.5
1070
   147
1040
1.75
1070
    42
1040
1.5875
1070
    44
1040
2.0
1070
   140
1040
3.5
1002
}
1001
ACAD_DSTYLE_DIM_LINETYPE
1070
   380
1005
16
1001
ACAD_DSTYLE_DIM_EXT1_LINETYPE
1070
   381
1005
16
1001
ACAD_DSTYLE_DIM_EXT2_LINETYPE
1070
   382
1005
16
0
DIMENSION
5
176
100
AcDbEntity
8
SK2
62
256
6
ByLayer
370
18
48
1
60
0
100
AcDbDimension
2
_U2
10
-95.6
20
-12.5375
30
0
11
-95.6
21
-0.0375
31
0
70
32
71
1
72
1
41
1
210
0
220
0
230
1
3
Standard
100
AcDbAlignedDimension
13
0
23
12.4625
33
0
14
0
24
-12.5375
34
0
50
90
100
AcDbRotatedDimension
1001
ACAD
1000
DSTYLE
1002
{
1070
   371
1070
    13
1070
   372
1070
    13
1070
   170
1070
     0
1070
   144
1040
1.0
1070
   277
1070
     2
1070
   284
1070
     8
1070
   278
1070
    46
1070
   146
1040
1.0
1070
   345
1005
16
1070
   347
1005
16
1070
   346
1005
16
1070
   344
1005
0
1070
   343
1005
0
1070
   172
1070
     1
1070
    76
1070
     0
1070
    75
1070
     0
1070
   282
1070
     0
1070
   281
1070
     0
1070
    71
1070
     0
1070
    74
1070
     0
1070
   279
1070
     0
1070
   173
1070
     1
1070
   340
1005
13F
1070
   271
1070
     2
1070
   272
1070
     2
1070
    77
1070
     1
1070
    73
1070
     0
1070
   171
1070
     3
1070
   274
1070
     4
1070
   177
1070
     2
1070
   176
1070
     2
1070
   178
1070
     2
1070
    78
1070
     8
1070
    48
1040
-0.1
1070
    41
1040
3.5
1070
   147
1040
1.75
1070
    42
1040
1.5875
1070
    44
1040
2.0
1070
   140
1040
3.5
1002
}
1001
ACAD_DSTYLE_DIM_LINETYPE
1070
   380
1005
16
1001
ACAD_DSTYLE_DIM_EXT1_LINETYPE
1070
   381
1005
16
1001
ACAD_DSTYLE_DIM_EXT2_LINETYPE
1070
   382
1005
16
0
DIMENSION
5
18F
100
AcDbEntity
8
2
62
256
6
ByLayer
370
18
48
1
60
0
100
AcDbDimension
2
_U3
10
23
20
-39.2875
30
0
11
21
21
-39.2875
31
0
70
32
71
1
72
1
41
1
210
0
220
0
230
1
3
Standard
100
AcDbAlignedDimension
13
19
23
-29.5375
33
0
14
23
24
-29.5375
34
0
50
0
100
AcDbRotatedDimension
1001
ACAD
1000
DSTYLE
1002
{
1070
   371
1070
    13
1070
   372
1070
    13
1070
   170
1070
     0
1070
   144
1040
1.0
1070
   277
1070
     2
1070
   284
1070
     8
1070
   278
1070
    46
1070
   146
1040
1.0
1070
   345
1005
16
1070
   347
1005
16
1070
   346
1005
16
1070
   344
1005
0
1070
   343
1005
0
1070
   172
1070
     1
1070
    76
1070
     0
1070
    75
1070
     0
1070
   282
1070
     0
1070
   281
1070
     0
1070
    71
1070
     0
1070
    74
1070
     0
1070
   279
1070
     0
1070
   173
1070
     1
1070
   340
1005
13F
1070
   271
1070
     2
1070
   272
1070
     2
1070
    77
1070
     1
1070
    73
1070
     1
1070
   171
1070
     3
1070
   274
1070
     4
1070
   177
1070
     2
1070
   176
1070
     2
1070
   178
1070
     2
1070
    78
1070
     8
1070
    48
1040
-0.1
1070
    41
1040
3.5
1070
   147
1040
1.75
1070
    42
1040
1.5875
1070
    44
1040
2.0
1070
   140
1040
3.5
1002
}
1001
ACAD_DSTYLE_DIM_LINETYPE
1070
   380
1005
16
1001
ACAD_DSTYLE_DIM_EXT1_LINETYPE
1070
   381
1005
16
1001
ACAD_DSTYLE_DIM_EXT2_LINETYPE
1070
   382
1005
16
0
DIMENSION
5
1A8
100
AcDbEntity
8
SK2
62
256
6
ByLayer
370
18
48
1
60
0
100
AcDbDimension
2
_U4
10
23
20
-55.2875
30
0
11
-30.5
21
-55.2875
31
0
70
32
71
1
72
1
41
1
210
0
220
0
230
1
3
Standard
100
AcDbAlignedDimension
13
-84
23
12.4625
33
0
14
23
24
-29.5375
34
0
50
0
100
AcDbRotatedDimension
1001
ACAD
1000
DSTYLE
1002
{
1070
   371
1070
    13
1070
   372
1070
    13
1070
   170
1070
     0
1070
   144
1040
1.0
1070
   277
1070
     2
1070
   284
1070
     8
1070
   278
1070
    46
1070
   146
1040
1.0
1070
   345
1005
16
1070
   347
1005
16
1070
   346
1005
16
1070
   344
1005
0
1070
   343
1005
0
1070
   172
1070
     1
1070
    76
1070
     0
1070
    75
1070
     0
1070
   282
1070
     0
1070
   281
1070
     0
1070
    71
1070
     0
1070
    74
1070
     0
1070
   279
1070
     0
1070
   173
1070
     1
1070
   340
1005
13F
1070
   271
1070
     1
1070
   272
1070
     2
1070
    77
1070
     1
1070
    73
1070
     1
1070
   171
1070
     3
1070
   274
1070
     4
1070
   177
1070
     2
1070
   176
1070
     2
1070
   178
1070
     2
1070
    78
1070
     8
1070
    48
1040
-0.1
1070
    41
1040
3.5
1070
   147
1040
1.75
1070
    42
1040
1.5875
1070
    44
1040
2.0
1070
   140
1040
3.5
1002
}
1001
ACAD_DSTYLE_DIM_LINETYPE
1070
   380
1005
16
1001
ACAD_DSTYLE_DIM_EXT1_LINETYPE
1070
   381
1005
16
1001
ACAD_DSTYLE_DIM_EXT2_LINETYPE
1070
   382
1005
16
0
DIMENSION
5
1C0
100
AcDbEntity
8
2
62
256
6
ByLayer
370
18
48
1
60
0
100
AcDbDimension
2
_U5
10
23
20
-47.2875
30
0
11
11.5
21
-47.2875
31
0
70
32
71
1
72
1
41
1
210
0
220
0
230
1
3
Standard
100
AcDbAlignedDimension
13
0
23
12.4625
33
0
14
23
24
-29.5375
34
0
50
0
100
AcDbRotatedDimension
1001
ACAD
1000
DSTYLE
1002
{
1070
   371
1070
    13
1070
   372
1070
    13
1070
   170
1070
     0
1070
   144
1040
1.0
1070
   277
1070
     2
1070
   284
1070
     8
1070
   278
1070
    46
1070
   146
1040
1.0
1070
   345
1005
16
1070
   347
1005
16
1070
   346
1005
16
1070
   344
1005
0
1070
   343
1005
0
1070
   172
1070
     1
1070
    76
1070
     0
1070
    75
1070
     0
1070
   282
1070
     0
1070
   281
1070
     0
1070
    71
1070
     0
1070
    74
1070
     0
1070
   279
1070
     0
1070
   173
1070
     1
1070
   340
1005
13F
1070
   271
1070
     1
1070
   272
1070
     2
1070
    77
1070
     1
1070
    73
1070
     1
1070
   171
1070
     3
1070
   274
1070
     4
1070
   177
1070
     2
1070
   176
1070
     2
1070
   178
1070
     2
1070
    78
1070
     8
1070
    48
1040
-0.1
1070
    41
1040
3.5
1070
   147
1040
1.75
1070
    42
1040
1.5875
1070
    44
1040
2.0
1070
   140
1040
3.5
1002
}
1001
ACAD_DSTYLE_DIM_LINETYPE
1070
   380
1005
16
1001
ACAD_DSTYLE_DIM_EXT1_LINETYPE
1070
   381
1005
16
1001
ACAD_DSTYLE_DIM_EXT2_LINETYPE
1070
   382
1005
16
0
DIMENSION
5
1D8
100
AcDbEntity
8
SK2
62
256
6
ByLayer
370
18
48
1
60
0
100
AcDbDimension
2
_U6
10
-81
20
18.7125
30
0
11
-82.5
21
18.7125
31
0
70
32
71
1
72
1
41
1
210
0
220
0
230
1
3
Standard
100
AcDbAlignedDimension
13
-84
23
12.4625
33
0
14
-81
24
12.4625
34
0
50
0
100
AcDbRotatedDimension
1001
ACAD
1000
DSTYLE
1002
{
1070
   371
1070
    13
1070
   372
1070
    13
1070
   170
1070
     0
1070
   144
1040
1.0
1070
   277
1070
     2
1070
   284
1070
     8
1070
   278
1070
    46
1070
   146
1040
1.0
1070
   345
1005
16
1070
   347
1005
16
1070
   346
1005
16
1070
   344
1005
0
1070
   343
1005
0
1070
   172
1070
     1
1070
    76
1070
     0
1070
    75
1070
     0
1070
   282
1070
     0
1070
   281
1070
     0
1070
    71
1070
     0
1070
    74
1070
     0
1070
   279
1070
     0
1070
   173
1070
     1
1070
   340
1005
13F
1070
   271
1070
     2
1070
   272
1070
     2
1070
    77
1070
     1
1070
    73
1070
     1
1070
   171
1070
     3
1070
   274
1070
     4
1070
   177
1070
     2
1070
   176
1070
     2
1070
   178
1070
     2
1070
    78
1070
     8
1070
    48
1040
-0.1
1070
    41
1040
3.5
1070
   147
1040
1.75
1070
    42
1040
1.5875
1070
    44
1040
2.0
1070
   140
1040
3.5
1002
}
1001
ACAD_DSTYLE_DIM_LINETYPE
1070
   380
1005
16
1001
ACAD_DSTYLE_DIM_EXT1_LINETYPE
1070
   381
1005
16
1001
ACAD_DSTYLE_DIM_EXT2_LINETYPE
1070
   382
1005
16
0
ENDSEC
0
SECTION
2
OBJECTS
0
DICTIONARY
5
260
330
0
100
AcDbDictionary
280
0
281
1
3
ACAD_GROUP
350
261
3
ACAD_MLINESTYLE
350
262
0
DICTIONARY
5
261
330
0
100
AcDbDictionary
280
0
281
1
0
DICTIONARY
5
262
330
0
100
AcDbDictionary
280
0
281
1
3
Standard
350
18
0
MLINESTYLE
5
18
330
262
100
AcDbMlineStyle
2
Standard
70
0
3

62
256
51
90
52
90
71
2
49
-0.5
62
256
6
ByLayer
49
0.5
62
256
6
ByLayer
0
RASTERVARIABLES
5
24f
330

100
AcDbRasterVariables
90
0
70
1
71
1
72
1
0
ENDSEC
0
EOF
