0
SECTION
2
HEADER
9
$ACADVER
1
AC1015
9
$DWGCODEPAGE
3
ANSI_1252
9
$HANDSEED
5
232
9
$ANGBASE
50
0
9
$ANGDIR
70
0
9
$ATTMODE
70
1
9
$AUNITS
70
0
9
$AUPREC
70
0
9
$CECOLOR
62
256
9
$CELTSCALE
40
1
9
$CELTYPE
6
ByLayer
9
$CELWEIGHT
370
18
9
$CLAYER
8
0
9
$CMLJUST
70
0
9
$CMLSCALE
40
1
9
$CMLSTYLE
2
Standard
9
$DIMSTYLE
2
Standard
9
$TEXTSIZE
40
0.2
9
$TEXTSTYLE
7
Standard
9
$LUNITS
70
2
9
$LUPREC
70
4
9
$EXTNAMES
290
1
9
$INSUNITS
70
4
9
$LTSCALE
40
1
9
$LWDISPLAY
290
1
9
$PDMODE
70
0
9
$PDSIZE
40
0
9
$PLINEGEN
70
0
0
ENDSEC
0
SECTION
2
CLASSES
0
CLASS
1
RASTERVARIABLES
2
AcDbRasterVariables
3
ISM
90
0
280
0
281
0
0
ENDSEC
0
SECTION
2
TABLES
0
TABLE
2
VPORT
5
228
100
AcDbSymbolTable
0
VPORT
5
1
100
AcDbSymbolTableRecord
100
AcDbViewportTableRecord
2
*Active
70
0
10
0
20
0
11
1
21
1
12
-1
22
1
13
0
23
0
14
0.5
24
0.5
15
10
25
10
16
0
26
0
36
1
17
0
27
0
37
0
0
ENDTAB
0
TABLE
2
LTYPE
5
229
100
AcDbSymbolTable
0
LTYPE
5
14
100
AcDbSymbolTableRecord
100
AcDbLinetypeTableRecord
70
0
2
ByBlock
3

72
65
73
0
40
0
0
LTYPE
5
15
100
AcDbSymbolTableRecord
100
AcDbLinetypeTableRecord
70
0
2
ByLayer
3

72
65
73
0
40
0
0
LTYPE
5
16
100
AcDbSymbolTableRecord
100
AcDbLinetypeTableRecord
70
0
2
Continuous
3
Solid line
72
65
73
0
40
0
0
LTYPE
5
6E
100
AcDbSymbolTableRecord
100
AcDbLinetypeTableRecord
70
0
2
CENTER
3
____ _ ____ _ ____ _ ____
72
65
73
4
40
47.5
49
22
74
0
49
-8.5
74
0
49
8.5
74
0
49
-8.5
74
0
0
LTYPE
5
6F
100
AcDbSymbolTableRecord
100
AcDbLinetypeTableRecord
70
0
2
DASHED
3
__ __ __ __ __ __ __ __ __
72
65
73
2
40
25.72
49
12.86
74
0
49
-12.86
74
0
0
ENDTAB
0
TABLE
2
LAYER
5
22a
100
AcDbSymbolTable
0
LAYER
5
10
100
AcDbSymbolTableRecord
100
AcDbLayerTableRecord
2
0
70
0
62
7
6
Continuous
290
1
370
-3
390
0
0
LAYER
5
71
100
AcDbSymbolTableRecord
100
AcDbLayerTableRecord
2
80
70
0
62
-6
6
Continuous
290
1
370
-3
390
0
0
LAYER
5
73
100
AcDbSymbolTableRecord
100
AcDbLayerTableRecord
2
81
70
0
62
-3
6
Continuous
290
1
370
-3
390
0
0
LAYER
5
75
100
AcDbSymbolTableRecord
100
AcDbLayerTableRecord
2
1
70
0
62
4
6
Continuous
290
1
370
-3
390
0
0
LAYER
5
11D
100
AcDbSymbolTableRecord
100
AcDbLayerTableRecord
2
Defpoints
70
0
62
7
6
Continuous
290
0
370
-3
390
0
0
LAYER
5
145
100
AcDbSymbolTableRecord
100
AcDbLayerTableRecord
2
2
70
0
62
7
6
Continuous
290
1
370
-3
390
0
0
LAYER
5
215
100
AcDbSymbolTableRecord
100
AcDbLayerTableRecord
2
SK1
70
0
62
4
6
Continuous
290
1
370
-3
390
0
0
LAYER
5
216
100
AcDbSymbolTableRecord
100
AcDbLayerTableRecord
2
SK6
70
0
62
5
6
Continuous
290
1
370
-3
390
0
0
LAYER
5
217
100
AcDbSymbolTableRecord
100
AcDbLayerTableRecord
2
SK2
70
0
62
7
6
Continuous
290
1
370
-3
390
0
0
ENDTAB
0
TABLE
2
STYLE
5
22b
100
AcDbSymbolTable
0
STYLE
5
11
100
AcDbSymbolTableRecord
100
AcDbTextStyleTableRecord
2
Standard
3
txt
70
0
71
0
40
0
41
1
42
0
50
0
0
STYLE
5
116
100
AcDbSymbolTableRecord
100
AcDbTextStyleTableRecord
2
Monospac821 BT
3
Monospac821 BT
70
0
71
0
40
0
41
1
42
0
50
0
0
STYLE
5
11A
100
AcDbSymbolTableRecord
100
AcDbTextStyleTableRecord
2
iso_b_vert
3
simplex.shx
70
0
71
0
40
0
41
1
42
0
50
0
0
STYLE
5
12D
100
AcDbSymbolTableRecord
100
AcDbTextStyleTableRecord
2
DWGDirectTextStyle
3
simplex
70
0
71
0
40
0
41
1
42
0
50
0
0
ENDTAB
0
TABLE
2
DIMSTYLE
5
22c
100
AcDbSymbolTable
100
AcDbDimStyleTable
0
DIMSTYLE
105
27
100
AcDbSymbolTableRecord
100
AcDbDimStyleTableRecord
2
Standard
70
0
3
<>
41
0.18
42
0.0625
44
0.18
140
0.18
147
0.09
73
0
74
0
77
1
271
2
275
0
278
52
280
0
340
11
0
ENDTAB
0
TABLE
2
VIEW
5
22d
100
AcDbSymbolTable
0
ENDTAB
0
TABLE
2
UCS
5
22e
100
AcDbSymbolTable
0
ENDTAB
0
TABLE
2
APPID
5
22f
100
AcDbSymbolTable
0
APPID
5
12
100
AcDbSymbolTableRecord
100
AcDbRegAppTableRecord
2
ACAD
70
0
0
APPID
5
118
100
AcDbSymbolTableRecord
100
AcDbRegAppTableRecord
2
ACAD_DSTYLE_DIMBREAK
70
0
0
APPID
5
1D4
100
AcDbSymbolTableRecord
100
AcDbRegAppTableRecord
2
ACAD_DSTYLE_DIM_LINETYPE
70
0
0
APPID
5
1D5
100
AcDbSymbolTableRecord
100
AcDbRegAppTableRecord
2
ACAD_DSTYLE_DIM_EXT1_LINETYPE
70
0
0
APPID
5
1D6
100
AcDbSymbolTableRecord
100
AcDbRegAppTableRecord
2
ACAD_DSTYLE_DIM_EXT2_LINETYPE
70
0
0
APPID
5
211
100
AcDbSymbolTableRecord
100
AcDbRegAppTableRecord
2
ACAD_MLEADERVER
70
0
0
ENDTAB
0
TABLE
2
BLOCK_RECORD
5
230
100
AcDbSymbolTable
0
BLOCK_RECORD
5
1F
100
AcDbSymbolTableRecord
100
AcDbBlockTableRecord
2
*Model_Space
340
0
70
0
0
BLOCK_RECORD
5
1B
100
AcDbSymbolTableRecord
100
AcDbBlockTableRecord
2
*Paper_Space
340
0
70
0
0
BLOCK_RECORD
5
23
100
AcDbSymbolTableRecord
100
AcDbBlockTableRecord
2
*Paper_Space0
340
0
70
0
0
BLOCK_RECORD
5
11E
100
AcDbSymbolTableRecord
100
AcDbBlockTableRecord
2
*D1
340
0
70
0
0
BLOCK_RECORD
5
12B
100
AcDbSymbolTableRecord
100
AcDbBlockTableRecord
2
_U0
340
0
70
0
0
BLOCK_RECORD
5
138
100
AcDbSymbolTableRecord
100
AcDbBlockTableRecord
2
*D3
340
0
70
0
0
BLOCK_RECORD
5
146
100
AcDbSymbolTableRecord
100
AcDbBlockTableRecord
2
_U1
340
0
70
0
0
BLOCK_RECORD
5
152
100
AcDbSymbolTableRecord
100
AcDbBlockTableRecord
2
*D5
340
0
70
0
0
BLOCK_RECORD
5
15E
100
AcDbSymbolTableRecord
100
AcDbBlockTableRecord
2
_U2
340
0
70
0
0
BLOCK_RECORD
5
16A
100
AcDbSymbolTableRecord
100
AcDbBlockTableRecord
2
*D7
340
0
70
0
0
BLOCK_RECORD
5
178
100
AcDbSymbolTableRecord
100
AcDbBlockTableRecord
2
_U3
340
0
70
0
0
BLOCK_RECORD
5
185
100
AcDbSymbolTableRecord
100
AcDbBlockTableRecord
2
*D9
340
0
70
0
0
BLOCK_RECORD
5
193
100
AcDbSymbolTableRecord
100
AcDbBlockTableRecord
2
_U4
340
0
70
0
0
BLOCK_RECORD
5
1A0
100
AcDbSymbolTableRecord
100
AcDbBlockTableRecord
2
*D11
340
0
70
0
0
BLOCK_RECORD
5
1AD
100
AcDbSymbolTableRecord
100
AcDbBlockTableRecord
2
_U5
340
0
70
0
0
ENDTAB
0
ENDSEC
0
SECTION
2
BLOCKS
0
BLOCK
5
20
100
AcDbEntity
8
0
100
AcDbBlockBegin
2
*Model_Space
70
0
10
0
20
0
30
0
3
*Model_Space
0
ENDBLK
5
21
100
AcDbEntity
8
0
100
AcDbBlockEnd
0
BLOCK
5
1C
100
AcDbEntity
8
0
100
AcDbBlockBegin
2
*Paper_Space
70
0
10
0
20
0
30
0
3
*Paper_Space
0
ENDBLK
5
1D
100
AcDbEntity
8
0
100
AcDbBlockEnd
0
BLOCK
5
24
100
AcDbEntity
8
0
100
AcDbBlockBegin
2
*Paper_Space0
70
0
10
0
20
0
30
0
3
*Paper_Space0
0
ENDBLK
5
25
100
AcDbEntity
8
0
100
AcDbBlockEnd
0
BLOCK
5
11F
100
AcDbEntity
8
0
100
AcDbBlockBegin
2
*D1
70
1
10
0
20
0
30
0
3
*D1
0
LINE
5
121
100
AcDbEntity
8
0
62
256
6
ByLayer
370
-2
48
1
60
0
100
AcDbLine
10
-36.4
20
-5.013566
30
0
11
-36.4
21
-24.674427
31
0
39
0
210
0
220
0
230
1
0
LINE
5
122
100
AcDbEntity
8
0
62
256
6
ByLayer
370
-2
48
1
60
0
100
AcDbLine
10
33.6
20
8.1625
30
0
11
33.6
21
-24.674427
31
0
39
0
210
0
220
0
230
1
0
LINE
5
123
100
AcDbEntity
8
0
62
256
6
ByLayer
370
-2
48
1
60
0
100
AcDbLine
10
-33.225
20
-22.674427
30
0
11
30.425
21
-22.674427
31
0
39
0
210
0
220
0
230
1
0
SOLID
5
124
100
AcDbEntity
8
0
62
256
6
ByLayer
370
-1
48
1
60
0
100
AcDbTrace
10
-33.225
20
-22.14526
30
0
11
-33.225
21
-23.203593
31
0
12
-36.4
22
-22.674427
32
0
13
-36.4
23
-22.674427
33
0
39
0
210
0
220
0
230
1
0
SOLID
5
125
100
AcDbEntity
8
0
62
256
6
ByLayer
370
-1
48
1
60
0
100
AcDbTrace
10
30.425
20
-23.203593
30
0
11
30.425
21
-22.14526
31
0
12
33.6
22
-22.674427
32
0
13
33.6
23
-22.674427
33
0
39
0
210
0
220
0
230
1
0
MTEXT
5
126
100
AcDbEntity
8
0
62
256
6
ByLayer
370
18
48
1
60
0
100
AcDbMText
10
-1.4
20
-13.924427
30
0
210
0
220
0
230
1
1
\A1;70
40
3.5
41
0
44
1
50
0
71
5
72
5
7
iso_b_vert
0
POINT
5
127
100
AcDbEntity
8
Defpoints
62
0
6
ByLayer
370
-1
48
1
60
0
100
AcDbPoint
10
-36.4
20
-5.013566
30
0
39
0
210
0
220
0
230
1
50
360
0
POINT
5
128
100
AcDbEntity
8
Defpoints
62
0
6
ByLayer
370
-1
48
1
60
0
100
AcDbPoint
10
33.6
20
8.1625
30
0
39
0
210
0
220
0
230
1
50
360
0
POINT
5
129
100
AcDbEntity
8
Defpoints
62
0
6
ByLayer
370
-1
48
1
60
0
100
AcDbPoint
10
33.6
20
-22.674427
30
0
39
0
210
0
220
0
230
1
50
360
0
ENDBLK
5
120
100
AcDbEntity
8
0
100
AcDbBlockEnd
0
BLOCK
5
133
100
AcDbEntity
8
0
100
AcDbBlockBegin
2
_U0
70
0
10
0
20
0
30
0
3
_U0
0
MTEXT
5
12C
100
AcDbEntity
8
SK2
62
256
6
ByLayer
370
18
48
1
60
0
100
AcDbMText
10
-3.304966
20
-21.641793
30
0
210
0
220
0
230
1
1
\W0.6740;70
40
3.5
41
0
44
1.084337
50
0
71
7
72
5
7
iso_b_vert
0
LINE
5
12E
100
AcDbEntity
8
SK2
62
256
6
ByLayer
370
13
48
1
60
0
100
AcDbLine
10
-36.4
20
-5.013566
30
0
11
-36.4
21
-24.674427
31
0
39
0
210
0
220
0
230
1
0
LINE
5
12F
100
AcDbEntity
8
SK2
62
256
6
ByLayer
370
13
48
1
60
0
100
AcDbLine
10
33.6
20
8.1625
30
0
11
33.6
21
-24.674427
31
0
39
0
210
0
220
0
230
1
0
LINE
5
130
100
AcDbEntity
8
SK2
62
256
6
ByLayer
370
13
48
1
60
0
100
AcDbLine
10
-36.4
20
-22.674427
30
0
11
33.6
21
-22.674427
31
0
39
0
210
0
220
0
230
1
0
SOLID
5
131
100
AcDbEntity
8
SK2
62
256
6
ByLayer
370
18
48
1
60
0
100
AcDbTrace
10
-36.4
20
-22.674427
30
0
11
-33.225002
21
-22.25643
31
0
12
-33.224998
22
-23.092423
32
0
13
-33.224998
23
-23.092423
33
0
39
0
210
0
220
0
230
1
0
SOLID
5
132
100
AcDbEntity
8
SK2
62
256
6
ByLayer
370
18
48
1
60
0
100
AcDbTrace
10
33.6
20
-22.674427
30
0
11
30.425002
21
-23.092423
31
0
12
30.424998
22
-22.25643
32
0
13
30.424998
23
-22.25643
33
0
39
0
210
0
220
0
230
1
0
ENDBLK
5
134
100
AcDbEntity
8
0
100
AcDbBlockEnd
0
BLOCK
5
139
100
AcDbEntity
8
0
100
AcDbBlockBegin
2
*D3
70
1
10
0
20
0
30
0
3
*D3
0
LINE
5
13B
100
AcDbEntity
8
0
62
256
6
ByLayer
370
-2
48
1
60
0
100
AcDbLine
10
33.6
20
8.1625
30
0
11
50.208324
21
8.1625
31
0
39
0
210
0
220
0
230
1
0
LINE
5
13C
100
AcDbEntity
8
0
62
256
6
ByLayer
370
-2
48
1
60
0
100
AcDbLine
10
10.634782
20
-7.9875
30
0
11
50.208324
21
-7.9875
31
0
39
0
210
0
220
0
230
1
0
LINE
5
13D
100
AcDbEntity
8
0
62
256
6
ByLayer
370
-2
48
1
60
0
100
AcDbLine
10
48.208324
20
11.3375
30
0
11
48.208324
21
14.5125
31
0
39
0
210
0
220
0
230
1
0
LINE
5
13E
100
AcDbEntity
8
0
62
256
6
ByLayer
370
-2
48
1
60
0
100
AcDbLine
10
48.208324
20
-11.1625
30
0
11
48.208324
21
-14.3375
31
0
39
0
210
0
220
0
230
1
0
SOLID
5
13F
100
AcDbEntity
8
0
62
256
6
ByLayer
370
-1
48
1
60
0
100
AcDbTrace
10
47.679157
20
11.3375
30
0
11
48.737491
21
11.3375
31
0
12
48.208324
22
8.1625
32
0
13
48.208324
23
8.1625
33
0
39
0
210
0
220
0
230
1
0
SOLID
5
140
100
AcDbEntity
8
0
62
256
6
ByLayer
370
-1
48
1
60
0
100
AcDbTrace
10
48.737491
20
-11.1625
30
0
11
47.679157
21
-11.1625
31
0
12
48.208324
22
-7.9875
32
0
13
48.208324
23
-7.9875
33
0
39
0
210
0
220
0
230
1
0
MTEXT
5
141
100
AcDbEntity
8
0
62
256
6
ByLayer
370
18
48
1
60
0
100
AcDbMText
10
39.458324
20
0.0875
30
0
210
0
220
0
230
1
1
\A1;16.15
40
3.5
41
0
44
1
50
90
71
5
72
5
7
iso_b_vert
0
POINT
5
142
100
AcDbEntity
8
Defpoints
62
0
6
ByLayer
370
-1
48
1
60
0
100
AcDbPoint
10
33.6
20
8.1625
30
0
39
0
210
0
220
0
230
1
50
360
0
POINT
5
143
100
AcDbEntity
8
Defpoints
62
0
6
ByLayer
370
-1
48
1
60
0
100
AcDbPoint
10
10.634782
20
-7.9875
30
0
39
0
210
0
220
0
230
1
50
360
0
POINT
5
144
100
AcDbEntity
8
Defpoints
62
0
6
ByLayer
370
-1
48
1
60
0
100
AcDbPoint
10
48.208324
20
-7.9875
30
0
39
0
210
0
220
0
230
1
50
360
0
ENDBLK
5
13A
100
AcDbEntity
8
0
100
AcDbBlockEnd
0
BLOCK
5
14D
100
AcDbEntity
8
0
100
AcDbBlockBegin
2
_U1
70
0
10
0
20
0
30
0
3
_U1
0
MTEXT
5
147
100
AcDbEntity
8
2
62
256
6
ByLayer
370
18
48
1
60
0
100
AcDbMText
10
47.518691
20
-4.295066
30
0
210
0
220
0
230
1
1
\W0.6261;16.15
40
3.5
41
0
44
1.084337
50
90
71
7
72
5
7
iso_b_vert
0
LINE
5
148
100
AcDbEntity
8
2
62
256
6
ByLayer
370
13
48
1
60
0
100
AcDbLine
10
33.6
20
8.1625
30
0
11
50.208324
21
8.1625
31
0
39
0
210
0
220
0
230
1
0
LINE
5
149
100
AcDbEntity
8
2
62
256
6
ByLayer
370
13
48
1
60
0
100
AcDbLine
10
10.634782
20
-7.9875
30
0
11
50.208324
21
-7.9875
31
0
39
0
210
0
220
0
230
1
0
LINE
5
14A
100
AcDbEntity
8
2
62
256
6
ByLayer
370
13
48
1
60
0
100
AcDbLine
10
48.208324
20
8.1625
30
0
11
48.208324
21
-7.9875
31
0
39
0
210
0
220
0
230
1
0
SOLID
5
14B
100
AcDbEntity
8
2
62
256
6
ByLayer
370
18
48
1
60
0
100
AcDbTrace
10
48.208324
20
8.1625
30
0
11
48.626321
21
4.987502
31
0
12
47.790327
22
4.987498
32
0
13
47.790327
23
4.987498
33
0
39
0
210
0
220
0
230
1
0
SOLID
5
14C
100
AcDbEntity
8
2
62
256
6
ByLayer
370
18
48
1
60
0
100
AcDbTrace
10
48.208324
20
-7.9875
30
0
11
47.790327
21
-4.812502
31
0
12
48.626321
22
-4.812498
32
0
13
48.626321
23
-4.812498
33
0
39
0
210
0
220
0
230
1
0
ENDBLK
5
14E
100
AcDbEntity
8
0
100
AcDbBlockEnd
0
BLOCK
5
153
100
AcDbEntity
8
0
100
AcDbBlockBegin
2
*D5
70
1
10
0
20
0
30
0
3
*D5
0
LINE
5
155
100
AcDbEntity
8
0
62
256
6
ByLayer
370
-2
48
1
60
0
100
AcDbLine
10
33.6
20
8.1625
30
0
11
33.6
21
17.892674
31
0
39
0
210
0
220
0
230
1
0
LINE
5
156
100
AcDbEntity
8
0
62
256
6
ByLayer
370
-2
48
1
60
0
100
AcDbLine
10
0
20
7.9875
30
0
11
0
21
17.892674
31
0
39
0
210
0
220
0
230
1
0
LINE
5
157
100
AcDbEntity
8
0
62
256
6
ByLayer
370
-2
48
1
60
0
100
AcDbLine
10
30.425
20
15.892674
30
0
11
3.175
21
15.892674
31
0
39
0
210
0
220
0
230
1
0
SOLID
5
158
100
AcDbEntity
8
0
62
256
6
ByLayer
370
-1
48
1
60
0
100
AcDbTrace
10
30.425
20
15.363507
30
0
11
30.425
21
16.42184
31
0
12
33.6
22
15.892674
32
0
13
33.6
23
15.892674
33
0
39
0
210
0
220
0
230
1
0
SOLID
5
159
100
AcDbEntity
8
0
62
256
6
ByLayer
370
-1
48
1
60
0
100
AcDbTrace
10
3.175
20
16.42184
30
0
11
3.175
21
15.363507
31
0
12
0
22
15.892674
32
0
13
0
23
15.892674
33
0
39
0
210
0
220
0
230
1
0
MTEXT
5
15A
100
AcDbEntity
8
0
62
256
6
ByLayer
370
18
48
1
60
0
100
AcDbMText
10
16.8
20
24.642674
30
0
210
0
220
0
230
1
1
\A1;33.6
40
3.5
41
0
44
1
50
0
71
5
72
5
7
iso_b_vert
0
POINT
5
15B
100
AcDbEntity
8
Defpoints
62
0
6
ByLayer
370
-1
48
1
60
0
100
AcDbPoint
10
33.6
20
8.1625
30
0
39
0
210
0
220
0
230
1
50
360
0
POINT
5
15C
100
AcDbEntity
8
Defpoints
62
0
6
ByLayer
370
-1
48
1
60
0
100
AcDbPoint
10
0
20
7.9875
30
0
39
0
210
0
220
0
230
1
50
360
0
POINT
5
15D
100
AcDbEntity
8
Defpoints
62
0
6
ByLayer
370
-1
48
1
60
0
100
AcDbPoint
10
0
20
15.892674
30
0
39
0
210
0
220
0
230
1
50
360
0
ENDBLK
5
154
100
AcDbEntity
8
0
100
AcDbBlockEnd
0
BLOCK
5
165
100
AcDbEntity
8
0
100
AcDbBlockBegin
2
_U2
70
0
10
0
20
0
30
0
3
_U2
0
MTEXT
5
15F
100
AcDbEntity
8
2
62
256
6
ByLayer
370
18
48
1
60
0
100
AcDbMText
10
12.878301
20
16.925307
30
0
210
0
220
0
230
1
1
\W0.7346;33.6
40
3.5
41
0
44
1.084337
50
0
71
7
72
5
7
iso_b_vert
0
LINE
5
160
100
AcDbEntity
8
2
62
256
6
ByLayer
370
13
48
1
60
0
100
AcDbLine
10
33.6
20
8.1625
30
0
11
33.6
21
17.892674
31
0
39
0
210
0
220
0
230
1
0
LINE
5
161
100
AcDbEntity
8
2
62
256
6
ByLayer
370
13
48
1
60
0
100
AcDbLine
10
0
20
7.9875
30
0
11
0
21
17.892674
31
0
39
0
210
0
220
0
230
1
0
LINE
5
162
100
AcDbEntity
8
2
62
256
6
ByLayer
370
13
48
1
60
0
100
AcDbLine
10
33.6
20
15.892674
30
0
11
0
21
15.892674
31
0
39
0
210
0
220
0
230
1
0
SOLID
5
163
100
AcDbEntity
8
2
62
256
6
ByLayer
370
18
48
1
60
0
100
AcDbTrace
10
33.6
20
15.892674
30
0
11
30.425002
21
15.474677
31
0
12
30.424998
22
16.31067
32
0
13
30.424998
23
16.31067
33
0
39
0
210
0
220
0
230
1
0
SOLID
5
164
100
AcDbEntity
8
2
62
256
6
ByLayer
370
18
48
1
60
0
100
AcDbTrace
10
0
20
15.892674
30
0
11
3.174998
21
16.31067
31
0
12
3.175002
22
15.474677
32
0
13
3.175002
23
15.474677
33
0
39
0
210
0
220
0
230
1
0
ENDBLK
5
166
100
AcDbEntity
8
0
100
AcDbBlockEnd
0
BLOCK
5
16B
100
AcDbEntity
8
0
100
AcDbBlockBegin
2
*D7
70
1
10
0
20
0
30
0
3
*D7
0
LINE
5
16D
100
AcDbEntity
8
0
62
256
6
ByLayer
370
-2
48
1
60
0
100
AcDbLine
10
-36.4
20
-5.013566
30
0
11
-36.4
21
-18.525973
31
0
39
0
210
0
220
0
230
1
0
LINE
5
16E
100
AcDbEntity
8
0
62
256
6
ByLayer
370
-2
48
1
60
0
100
AcDbLine
10
-33.4
20
-7.9875
30
0
11
-33.4
21
-18.525973
31
0
39
0
210
0
220
0
230
1
0
LINE
5
16F
100
AcDbEntity
8
0
62
256
6
ByLayer
370
-2
48
1
60
0
100
AcDbLine
10
-33.4
20
-16.525973
30
0
11
-10.716667
21
-16.525973
31
0
39
0
210
0
220
0
230
1
0
LINE
5
170
100
AcDbEntity
8
0
62
256
6
ByLayer
370
-2
48
1
60
0
100
AcDbLine
10
-39.575
20
-16.525973
30
0
11
-42.75
21
-16.525973
31
0
39
0
210
0
220
0
230
1
0
LINE
5
171
100
AcDbEntity
8
0
62
256
6
ByLayer
370
-2
48
1
60
0
100
AcDbLine
10
-30.225
20
-16.525973
30
0
11
-27.05
21
-16.525973
31
0
39
0
210
0
220
0
230
1
0
SOLID
5
172
100
AcDbEntity
8
0
62
256
6
ByLayer
370
-1
48
1
60
0
100
AcDbTrace
10
-39.575
20
-17.05514
30
0
11
-39.575
21
-15.996806
31
0
12
-36.4
22
-16.525973
32
0
13
-36.4
23
-16.525973
33
0
39
0
210
0
220
0
230
1
0
SOLID
5
173
100
AcDbEntity
8
0
62
256
6
ByLayer
370
-1
48
1
60
0
100
AcDbTrace
10
-30.225
20
-15.996806
30
0
11
-30.225
21
-17.05514
31
0
12
-33.4
22
-16.525973
32
0
13
-33.4
23
-16.525973
33
0
39
0
210
0
220
0
230
1
0
MTEXT
5
174
100
AcDbEntity
8
0
62
256
6
ByLayer
370
18
48
1
60
0
100
AcDbMText
10
-18.883333
20
-7.775973
30
0
210
0
220
0
230
1
1
\A1;3
40
3.5
41
0
44
1
50
0
71
5
72
5
7
iso_b_vert
0
POINT
5
175
100
AcDbEntity
8
Defpoints
62
0
6
ByLayer
370
-1
48
1
60
0
100
AcDbPoint
10
-36.4
20
-5.013566
30
0
39
0
210
0
220
0
230
1
50
360
0
POINT
5
176
100
AcDbEntity
8
Defpoints
62
0
6
ByLayer
370
-1
48
1
60
0
100
AcDbPoint
10
-33.4
20
-7.9875
30
0
39
0
210
0
220
0
230
1
50
360
0
POINT
5
177
100
AcDbEntity
8
Defpoints
62
0
6
ByLayer
370
-1
48
1
60
0
100
AcDbPoint
10
-33.4
20
-16.525973
30
0
39
0
210
0
220
0
230
1
50
360
0
ENDBLK
5
16C
100
AcDbEntity
8
0
100
AcDbBlockEnd
0
BLOCK
5
180
100
AcDbEntity
8
0
100
AcDbBlockBegin
2
_U3
70
0
10
0
20
0
30
0
3
_U3
0
MTEXT
5
179
100
AcDbEntity
8
SK2
62
256
6
ByLayer
370
18
48
1
60
0
100
AcDbMText
10
-24.545072
20
-15.493339
30
0
210
0
220
0
230
1
1
\W0.9050;x45%%d
40
3.5
41
0
44
1.084337
50
0
71
7
72
5
7
iso_b_vert
0
MTEXT
5
17A
100
AcDbEntity
8
SK2
62
256
6
ByLayer
370
18
48
1
60
0
100
AcDbMText
10
-29.610538
20
-15.493339
30
0
210
0
220
0
230
1
1
\W0.5404;3
40
3.5
41
0
44
1.084337
50
0
71
7
72
5
7
iso_b_vert
0
LINE
5
17B
100
AcDbEntity
8
SK2
62
256
6
ByLayer
370
13
48
1
60
0
100
AcDbLine
10
-36.4
20
-5.013566
30
0
11
-36.4
21
-18.525973
31
0
39
0
210
0
220
0
230
1
0
LINE
5
17C
100
AcDbEntity
8
SK2
62
256
6
ByLayer
370
13
48
1
60
0
100
AcDbLine
10
-33.4
20
-7.9875
30
0
11
-33.4
21
-18.525973
31
0
39
0
210
0
220
0
230
1
0
LINE
5
17D
100
AcDbEntity
8
SK2
62
256
6
ByLayer
370
13
48
1
60
0
100
AcDbLine
10
-15.341407
20
-16.525973
30
0
11
-45.15
21
-16.525973
31
0
39
0
210
0
220
0
230
1
0
SOLID
5
17E
100
AcDbEntity
8
SK2
62
256
6
ByLayer
370
18
48
1
60
0
100
AcDbTrace
10
-36.4
20
-16.525973
30
0
11
-39.574998
21
-16.94397
31
0
12
-39.575002
22
-16.107976
32
0
13
-39.575002
23
-16.107976
33
0
39
0
210
0
220
0
230
1
0
SOLID
5
17F
100
AcDbEntity
8
SK2
62
256
6
ByLayer
370
18
48
1
60
0
100
AcDbTrace
10
-33.4
20
-16.525973
30
0
11
-30.225002
21
-16.107976
31
0
12
-30.224998
22
-16.94397
32
0
13
-30.224998
23
-16.94397
33
0
39
0
210
0
220
0
230
1
0
ENDBLK
5
181
100
AcDbEntity
8
0
100
AcDbBlockEnd
0
BLOCK
5
186
100
AcDbEntity
8
0
100
AcDbBlockBegin
2
*D9
70
1
10
0
20
0
30
0
3
*D9
0
LINE
5
188
100
AcDbEntity
8
0
62
256
6
ByLayer
370
-2
48
1
60
0
100
AcDbLine
10
-36.4
20
5.013566
30
0
11
-36.4
21
17.892674
31
0
39
0
210
0
220
0
230
1
0
LINE
5
189
100
AcDbEntity
8
0
62
256
6
ByLayer
370
-2
48
1
60
0
100
AcDbLine
10
-33.4
20
7.9875
30
0
11
-33.4
21
17.892674
31
0
39
0
210
0
220
0
230
1
0
LINE
5
18A
100
AcDbEntity
8
0
62
256
6
ByLayer
370
-2
48
1
60
0
100
AcDbLine
10
-33.4
20
15.892674
30
0
11
-10.716667
21
15.892674
31
0
39
0
210
0
220
0
230
1
0
LINE
5
18B
100
AcDbEntity
8
0
62
256
6
ByLayer
370
-2
48
1
60
0
100
AcDbLine
10
-39.575
20
15.892674
30
0
11
-42.75
21
15.892674
31
0
39
0
210
0
220
0
230
1
0
LINE
5
18C
100
AcDbEntity
8
0
62
256
6
ByLayer
370
-2
48
1
60
0
100
AcDbLine
10
-30.225
20
15.892674
30
0
11
-27.05
21
15.892674
31
0
39
0
210
0
220
0
230
1
0
SOLID
5
18D
100
AcDbEntity
8
0
62
256
6
ByLayer
370
-1
48
1
60
0
100
AcDbTrace
10
-39.575
20
15.363507
30
0
11
-39.575
21
16.42184
31
0
12
-36.4
22
15.892674
32
0
13
-36.4
23
15.892674
33
0
39
0
210
0
220
0
230
1
0
SOLID
5
18E
100
AcDbEntity
8
0
62
256
6
ByLayer
370
-1
48
1
60
0
100
AcDbTrace
10
-30.225
20
16.42184
30
0
11
-30.225
21
15.363507
31
0
12
-33.4
22
15.892674
32
0
13
-33.4
23
15.892674
33
0
39
0
210
0
220
0
230
1
0
MTEXT
5
18F
100
AcDbEntity
8
0
62
256
6
ByLayer
370
18
48
1
60
0
100
AcDbMText
10
-18.883333
20
24.642674
30
0
210
0
220
0
230
1
1
\A1;3
40
3.5
41
0
44
1
50
0
71
5
72
5
7
iso_b_vert
0
POINT
5
190
100
AcDbEntity
8
Defpoints
62
0
6
ByLayer
370
-1
48
1
60
0
100
AcDbPoint
10
-36.4
20
5.013566
30
0
39
0
210
0
220
0
230
1
50
360
0
POINT
5
191
100
AcDbEntity
8
Defpoints
62
0
6
ByLayer
370
-1
48
1
60
0
100
AcDbPoint
10
-33.4
20
7.9875
30
0
39
0
210
0
220
0
230
1
50
360
0
POINT
5
192
100
AcDbEntity
8
Defpoints
62
0
6
ByLayer
370
-1
48
1
60
0
100
AcDbPoint
10
-33.4
20
15.892674
30
0
39
0
210
0
220
0
230
1
50
360
0
ENDBLK
5
187
100
AcDbEntity
8
0
100
AcDbBlockEnd
0
BLOCK
5
19B
100
AcDbEntity
8
0
100
AcDbBlockBegin
2
_U4
70
0
10
0
20
0
30
0
3
_U4
0
MTEXT
5
194
100
AcDbEntity
8
SK2
62
256
6
ByLayer
370
18
48
1
60
0
100
AcDbMText
10
-24.545072
20
16.925307
30
0
210
0
220
0
230
1
1
\W0.9050;x45%%d
40
3.5
41
0
44
1.084337
50
0
71
7
72
5
7
iso_b_vert
0
MTEXT
5
195
100
AcDbEntity
8
SK2
62
256
6
ByLayer
370
18
48
1
60
0
100
AcDbMText
10
-29.610538
20
16.925307
30
0
210
0
220
0
230
1
1
\W0.5404;3
40
3.5
41
0
44
1.084337
50
0
71
7
72
5
7
iso_b_vert
0
LINE
5
196
100
AcDbEntity
8
SK2
62
256
6
ByLayer
370
13
48
1
60
0
100
AcDbLine
10
-36.4
20
5.013566
30
0
11
-36.4
21
17.892674
31
0
39
0
210
0
220
0
230
1
0
LINE
5
197
100
AcDbEntity
8
SK2
62
256
6
ByLayer
370
13
48
1
60
0
100
AcDbLine
10
-33.4
20
7.9875
30
0
11
-33.4
21
17.892674
31
0
39
0
210
0
220
0
230
1
0
LINE
5
198
100
AcDbEntity
8
SK2
62
256
6
ByLayer
370
13
48
1
60
0
100
AcDbLine
10
-15.341407
20
15.892674
30
0
11
-45.15
21
15.892674
31
0
39
0
210
0
220
0
230
1
0
SOLID
5
199
100
AcDbEntity
8
SK2
62
256
6
ByLayer
370
18
48
1
60
0
100
AcDbTrace
10
-36.4
20
15.892674
30
0
11
-39.574998
21
15.474677
31
0
12
-39.575002
22
16.31067
32
0
13
-39.575002
23
16.31067
33
0
39
0
210
0
220
0
230
1
0
SOLID
5
19A
100
AcDbEntity
8
SK2
62
256
6
ByLayer
370
18
48
1
60
0
100
AcDbTrace
10
-33.4
20
15.892674
30
0
11
-30.225002
21
16.31067
31
0
12
-30.224998
22
15.474677
32
0
13
-30.224998
23
15.474677
33
0
39
0
210
0
220
0
230
1
0
ENDBLK
5
19C
100
AcDbEntity
8
0
100
AcDbBlockEnd
0
BLOCK
5
1A1
100
AcDbEntity
8
0
100
AcDbBlockBegin
2
*D11
70
1
10
0
20
0
30
0
3
*D11
0
LINE
5
1A3
100
AcDbEntity
8
0
62
256
6
ByLayer
370
-2
48
1
60
0
100
AcDbLine
10
-33.4
20
7.9875
30
0
11
-65.187497
21
7.9875
31
0
39
0
210
0
220
0
230
1
0
LINE
5
1A4
100
AcDbEntity
8
0
62
256
6
ByLayer
370
-2
48
1
60
0
100
AcDbLine
10
-33.4
20
-7.9875
30
0
11
-65.187497
21
-7.9875
31
0
39
0
210
0
220
0
230
1
0
LINE
5
1A5
100
AcDbEntity
8
0
62
256
6
ByLayer
370
-2
48
1
60
0
100
AcDbLine
10
-63.187497
20
11.1625
30
0
11
-63.187497
21
14.3375
31
0
39
0
210
0
220
0
230
1
0
LINE
5
1A6
100
AcDbEntity
8
0
62
256
6
ByLayer
370
-2
48
1
60
0
100
AcDbLine
10
-63.187497
20
-11.1625
30
0
11
-63.187497
21
-14.3375
31
0
39
0
210
0
220
0
230
1
0
SOLID
5
1A7
100
AcDbEntity
8
0
62
256
6
ByLayer
370
-1
48
1
60
0
100
AcDbTrace
10
-63.716664
20
11.1625
30
0
11
-62.658331
21
11.1625
31
0
12
-63.187497
22
7.9875
32
0
13
-63.187497
23
7.9875
33
0
39
0
210
0
220
0
230
1
0
SOLID
5
1A8
100
AcDbEntity
8
0
62
256
6
ByLayer
370
-1
48
1
60
0
100
AcDbTrace
10
-62.658331
20
-11.1625
30
0
11
-63.716664
21
-11.1625
31
0
12
-63.187497
22
-7.9875
32
0
13
-63.187497
23
-7.9875
33
0
39
0
210
0
220
0
230
1
0
MTEXT
5
1A9
100
AcDbEntity
8
0
62
256
6
ByLayer
370
18
48
1
60
0
100
AcDbMText
10
-71.937497
20
0
30
0
210
0
220
0
230
1
1
\A1;16
40
3.5
41
0
44
1
50
90
71
5
72
5
7
iso_b_vert
0
POINT
5
1AA
100
AcDbEntity
8
Defpoints
62
0
6
ByLayer
370
-1
48
1
60
0
100
AcDbPoint
10
-33.4
20
7.9875
30
0
39
0
210
0
220
0
230
1
50
360
0
POINT
5
1AB
100
AcDbEntity
8
Defpoints
62
0
6
ByLayer
370
-1
48
1
60
0
100
AcDbPoint
10
-33.4
20
-7.9875
30
0
39
0
210
0
220
0
230
1
50
360
0
POINT
5
1AC
100
AcDbEntity
8
Defpoints
62
0
6
ByLayer
370
-1
48
1
60
0
100
AcDbPoint
10
-63.187497
20
-7.9875
30
0
39
0
210
0
220
0
230
1
50
360
0
ENDBLK
5
1A2
100
AcDbEntity
8
0
100
AcDbBlockEnd
0
BLOCK
5
1B4
100
AcDbEntity
8
0
100
AcDbBlockBegin
2
_U5
70
0
10
0
20
0
30
0
3
_U5
0
MTEXT
5
1AE
100
AcDbEntity
8
SK2
62
256
6
ByLayer
370
18
48
1
60
0
100
AcDbMText
10
-63.877131
20
-1.495533
30
0
210
0
220
0
230
1
1
\W0.5321;16
40
3.5
41
0
44
1.084337
50
90
71
7
72
5
7
iso_b_vert
0
LINE
5
1AF
100
AcDbEntity
8
SK2
62
256
6
ByLayer
370
13
48
1
60
0
100
AcDbLine
10
-33.4
20
7.9875
30
0
11
-65.187497
21
7.9875
31
0
39
0
210
0
220
0
230
1
0
LINE
5
1B0
100
AcDbEntity
8
SK2
62
256
6
ByLayer
370
13
48
1
60
0
100
AcDbLine
10
-33.4
20
-7.9875
30
0
11
-65.187497
21
-7.9875
31
0
39
0
210
0
220
0
230
1
0
LINE
5
1B1
100
AcDbEntity
8
SK2
62
256
6
ByLayer
370
13
48
1
60
0
100
AcDbLine
10
-63.187497
20
7.9875
30
0
11
-63.187497
21
-7.9875
31
0
39
0
210
0
220
0
230
1
0
SOLID
5
1B2
100
AcDbEntity
8
SK2
62
256
6
ByLayer
370
18
48
1
60
0
100
AcDbTrace
10
-63.187497
20
7.9875
30
0
11
-62.769501
21
4.812502
31
0
12
-63.605494
22
4.812498
32
0
13
-63.605494
23
4.812498
33
0
39
0
210
0
220
0
230
1
0
SOLID
5
1B3
100
AcDbEntity
8
SK2
62
256
6
ByLayer
370
18
48
1
60
0
100
AcDbTrace
10
-63.187497
20
-7.9875
30
0
11
-63.605494
21
-4.812502
31
0
12
-62.769501
22
-4.812498
32
0
13
-62.769501
23
-4.812498
33
0
39
0
210
0
220
0
230
1
0
ENDBLK
5
1B5
100
AcDbEntity
8
0
100
AcDbBlockEnd
0
ENDSEC
0
SECTION
2
ENTITIES
0
ARC
5
D4
100
AcDbEntity
8
1
62
256
6
ByLayer
370
18
48
1
60
0
100
AcDbCircle
39
0
10
17.1
20
1.6995
30
0
40
3.74999999999894
210
0
220
0
230
1
100
AcDbArc
50
332.248201
51
27.751799
0
ARC
5
D5
100
AcDbEntity
8
1
62
256
6
ByLayer
370
18
48
1
60
0
100
AcDbCircle
39
0
10
17.1
20
1.6995
30
0
40
3.75
210
0
220
0
230
1
100
AcDbArc
50
27.751799
51
332.248201
0
ARC
5
D8
100
AcDbEntity
8
1
62
256
6
ByLayer
370
18
48
1
60
0
100
AcDbCircle
39
0
10
17.1
20
1.6995
30
0
40
1.9685
210
0
220
0
230
1
100
AcDbArc
50
114.967933
51
174.586511
0
ARC
5
D9
100
AcDbEntity
8
1
62
256
6
ByLayer
370
18
48
1
60
0
100
AcDbCircle
39
0
10
17.1
20
1.6995
30
0
40
1.9685
210
0
220
0
230
1
100
AcDbArc
50
55.349355
51
114.967933
0
ARC
5
DA
100
AcDbEntity
8
1
62
256
6
ByLayer
370
18
48
1
60
0
100
AcDbCircle
39
0
10
17.1
20
1.6995
30
0
40
1.9685
210
0
220
0
230
1
100
AcDbArc
50
235.349355
51
294.967933
0
ARC
5
DB
100
AcDbEntity
8
1
62
256
6
ByLayer
370
18
48
1
60
0
100
AcDbCircle
39
0
10
17.1
20
1.6995
30
0
40
1.9685
210
0
220
0
230
1
100
AcDbArc
50
294.967933
51
354.586511
0
ARC
5
DC
100
AcDbEntity
8
1
62
256
6
ByLayer
370
18
48
1
60
0
100
AcDbCircle
39
0
10
17.1
20
1.6995
30
0
40
1.9685
210
0
220
0
230
1
100
AcDbArc
50
354.586511
51
55.349355
0
ARC
5
DD
100
AcDbEntity
8
1
62
256
6
ByLayer
370
18
48
1
60
0
100
AcDbCircle
39
0
10
17.1
20
1.6995
30
0
40
1.416
210
0
220
0
230
1
100
AcDbArc
50
18.775495
51
31.160371
0
ARC
5
DE
100
AcDbEntity
8
1
62
256
6
ByLayer
370
18
48
1
60
0
100
AcDbCircle
39
0
10
17.1
20
1.6995
30
0
40
1.416
210
0
220
0
230
1
100
AcDbArc
50
198.775495
51
211.160371
0
ARC
5
DF
100
AcDbEntity
8
1
62
256
6
ByLayer
370
18
48
1
60
0
100
AcDbCircle
39
0
10
17.1
20
1.6995
30
0
40
1.9685
210
0
220
0
230
1
100
AcDbArc
50
174.586511
51
235.349355
0
ARC
5
E0
100
AcDbEntity
8
SK1
62
256
6
ByLayer
370
18
48
1
60
0
100
AcDbCircle
39
0
10
-42.55
20
-2.375
30
0
40
0.4
210
0
220
0
230
1
100
AcDbArc
50
0
51
90
0
ARC
5
E1
100
AcDbEntity
8
SK1
62
256
6
ByLayer
370
18
48
1
60
0
100
AcDbCircle
39
0
10
-42.55
20
2.375
30
0
40
0.4
210
0
220
0
230
1
100
AcDbArc
50
270
51
0
0
ARC
5
E2
100
AcDbEntity
8
1
62
256
6
ByLayer
370
18
48
1
60
0
100
AcDbCircle
39
0
10
17.1
20
1.6995
30
0
40
1.416
210
0
220
0
230
1
100
AcDbArc
50
324.777222
51
18.775495
0
ARC
5
E3
100
AcDbEntity
8
1
62
256
6
ByLayer
370
18
48
1
60
0
100
AcDbCircle
39
0
10
17.1
20
1.6995
30
0
40
1.416
210
0
220
0
230
1
100
AcDbArc
50
144.777222
51
198.775495
0
ARC
5
E4
100
AcDbEntity
8
1
62
256
6
ByLayer
370
18
48
1
60
0
100
AcDbCircle
39
0
10
17.1
20
1.6995
30
0
40
1.416
210
0
220
0
230
1
100
AcDbArc
50
211.160371
51
265.158644
0
ARC
5
E5
100
AcDbEntity
8
1
62
256
6
ByLayer
370
18
48
1
60
0
100
AcDbCircle
39
0
10
17.1
20
1.6995
30
0
40
1.416
210
0
220
0
230
1
100
AcDbArc
50
265.158644
51
324.777222
0
ARC
5
E6
100
AcDbEntity
8
1
62
256
6
ByLayer
370
18
48
1
60
0
100
AcDbCircle
39
0
10
17.1
20
1.6995
30
0
40
1.416
210
0
220
0
230
1
100
AcDbArc
50
85.158644
51
144.777222
0
ARC
5
E7
100
AcDbEntity
8
1
62
256
6
ByLayer
370
18
48
1
60
0
100
AcDbCircle
39
0
10
17.1
20
1.6995
30
0
40
1.416
210
0
220
0
230
1
100
AcDbArc
50
31.160371
51
85.158644
0
CIRCLE
5
D6
100
AcDbEntity
8
1
62
256
6
ByLayer
370
18
48
1
60
0
100
AcDbCircle
10
17.1
20
1.6995
30
0
40
3.5
39
0
210
0
220
0
230
1
0
CIRCLE
5
D7
100
AcDbEntity
8
1
62
256
6
ByLayer
370
18
48
1
60
0
100
AcDbCircle
10
17.1
20
1.6995
30
0
40
3
39
0
210
0
220
0
230
1
0
ELLIPSE
5
E8
100
AcDbEntity
8
1
62
256
6
ByLayer
370
35
48
1
60
0
100
AcDbEllipse
10
30.939893
20
8.7625
30
0
11
0.909842477997821
21
2.13167970355121E-15
31
0
210
0
220
0
230
1
40
0.879273
41
-1.5707963267949
42
-1.29515256584523
0
ELLIPSE
5
E9
100
AcDbEntity
8
1
62
256
6
ByLayer
370
35
48
1
60
0
100
AcDbEllipse
10
29.614842
20
7.596436
30
0
11
0.940926021892796
21
2.20450567204322E-15
31
0
210
0
220
0
230
1
40
0.212557
41
-2.80561677258222
42
-1.98717825108291
0
ELLIPSE
5
EA
100
AcDbEntity
8
1
62
256
6
ByLayer
370
35
48
1
60
0
100
AcDbEllipse
10
33.039895
20
9.242641
30
0
11
9.40926025462875
21
4.79868876152772E-09
31
0
210
0
220
0
230
1
40
0.212557
41
-1.98717825221129
42
-1.91986217854559
0
ELLIPSE
5
EB
100
AcDbEntity
8
1
62
256
6
ByLayer
370
35
48
1
60
0
100
AcDbEllipse
10
29.528041
20
7.1625
30
0
11
0.987972322990062
21
2.31473095565153E-15
31
0
210
0
220
0
230
1
40
0.212557
41
0
42
1.2217304763963
0
ELLIPSE
5
EC
100
AcDbEntity
8
1
62
256
6
ByLayer
370
35
48
1
60
0
100
AcDbEllipse
10
29.528041
20
7.1625
30
0
11
0.987972322989439
21
2.31473095565007E-15
31
0
210
0
220
0
230
1
40
0.212557
41
-1.2217304763967
42
0
0
ELLIPSE
5
ED
100
AcDbEntity
8
1
62
256
6
ByLayer
370
35
48
1
60
0
100
AcDbEllipse
10
33.039895
20
5.082359
30
0
11
9.40926019775908
21
2.85151951845991E-09
31
0
210
0
220
0
230
1
40
0.212557
41
1.91986217639161
42
1.98717825041547
0
ELLIPSE
5
EE
100
AcDbEntity
8
1
62
256
6
ByLayer
370
35
48
1
60
0
100
AcDbEllipse
10
29.614842
20
6.728564
30
0
11
0.940926021894926
21
2.20450567204821E-15
31
0
210
0
220
0
230
1
40
0.212557
41
1.98717825108382
42
2.80561677258135
0
ELLIPSE
5
EF
100
AcDbEntity
8
1
62
256
6
ByLayer
370
35
48
1
60
0
100
AcDbEllipse
10
28.968909
20
6.487062
30
0
11
0.70569451644549
21
1.65337925409308E-15
31
0
210
0
220
0
230
1
40
0.212557
41
2.80561677258658
42
3.14159265358979
0
ELLIPSE
5
F0
100
AcDbEntity
8
1
62
256
6
ByLayer
370
35
48
1
60
0
100
AcDbEllipse
10
30.939893
20
5.5625
30
0
11
0.909842477997821
21
2.13167970355121E-15
31
0
210
0
220
0
230
1
40
0.879273
41
1.29515256584523
42
1.5707963267949
0
ELLIPSE
5
F1
100
AcDbEntity
8
1
62
256
6
ByLayer
370
35
48
1
60
0
100
AcDbEllipse
10
29.965427
20
7.7125
30
0
11
-1.63016509443263E-16
21
0.128254700253314
31
0
210
0
220
0
230
1
40
0.978148
41
0
42
6.28318530717959
0
ELLIPSE
5
F2
100
AcDbEntity
8
1
62
256
6
ByLayer
370
35
48
1
60
0
100
AcDbEllipse
10
28.968909
20
7.837938
30
0
11
0.705694516463326
21
1.65337925413487E-15
31
0
210
0
220
0
230
1
40
0.212557
41
3.14159265358979
42
-2.8056167725909
0
POINT
5
70
100
AcDbEntity
8
80
62
256
6
ByLayer
370
70
48
1
60
0
100
AcDbPoint
10
0
20
0
30
0
39
0
210
0
220
0
230
1
50
360
0
POINT
5
72
100
AcDbEntity
8
81
62
256
6
ByLayer
370
70
48
1
60
0
100
AcDbPoint
10
33.6
20
8.1625
30
0
39
0
210
0
220
0
230
1
50
360
0
SPLINE
5
F3
100
AcDbEntity
8
1
62
256
6
ByLayer
370
18
48
1
60
0
100
AcDbSpline
70
4
71
3
72
28
73
24
40
0
40
0
40
0
40
0
40
0.062499999999997
40
0.062499999999997
40
0.124999999999994
40
0.124999999999994
40
0.249999999999988
40
0.249999999999988
40
0.312499999999987
40
0.312499999999987
40
0.374999999999985
40
0.374999999999985
40
0.499999999999997
40
0.499999999999997
40
0.625000000000009
40
0.625000000000009
40
0.68750000000001
40
0.68750000000001
40
0.750000000000012
40
0.750000000000012
40
0.875000000000006
40
0.875000000000006
40
1
40
1
40
1
40
1
41
1
10
31.5182830686951
20
6.13750000000004
30
0
41
1
10
31.514903977167
20
6.13750000000004
30
0
41
1
10
31.5115157805793
20
6.13686582288884
30
0
41
1
10
31.5047206060447
20
6.13428932697664
30
0
41
1
10
31.5013395351903
20
6.13235114446883
30
0
41
1
10
31.4913753041265
20
6.12470797150459
30
0
41
1
10
31.4849153376476
20
6.11717274436856
30
0
41
1
10
31.4755018003268
20
6.10218180182832
30
0
41
1
10
31.4723942439462
20
6.09652896958858
30
0
41
1
10
31.4663878828153
20
6.08416948457173
30
0
41
1
10
31.4634823846322
20
6.07746074897571
30
0
41
1
10
31.4550521938015
20
6.05578408155799
30
0
41
1
10
31.4498110040706
20
6.03928085668119
30
0
41
1
10
31.4401175168471
20
6.00200220828981
30
0
41
1
10
31.4358108265567
20
5.98177303862241
30
0
41
1
10
31.4301666291237
20
5.94930221482929
30
0
41
1
10
31.4284199147479
20
5.93811263732988
30
0
41
1
10
31.4252016979393
20
5.9149856680306
30
0
41
1
10
31.4237258165087
20
5.90299374841806
30
0
41
1
10
31.4198086027603
20
5.866629478368
30
0
41
1
10
31.4178405950612
20
5.84168582326237
30
0
41
1
10
31.4151762679667
20
5.79041350296839
30
0
41
1
10
31.4144876125671
20
5.76394736153756
30
0
41
1
10
31.4144876125671
20
5.73750000000007
30
0
0
SPLINE
5
F4
100
AcDbEntity
8
1
62
256
6
ByLayer
370
18
48
1
60
0
100
AcDbSpline
70
4
71
3
72
31
73
27
40
0
40
0
40
0
40
0
40
0.0625000000000027
40
0.0625000000000027
40
0.125000000000005
40
0.125000000000005
40
0.250000000000019
40
0.250000000000019
40
0.312500000000025
40
0.312500000000025
40
0.375000000000032
40
0.375000000000032
40
0.500000000000033
40
0.500000000000033
40
0.56250000000003
40
0.56250000000003
40
0.625000000000027
40
0.687500000000025
40
0.687500000000025
40
0.750000000000022
40
0.750000000000022
40
0.875000000000006
40
0.875000000000006
40
0.937500000000003
40
0.937500000000003
40
1
40
1
40
1
40
1
41
1
10
24.0346926851441
20
5.73750000000004
30
0
41
1
10
24.0346926851441
20
5.75066094204405
30
0
41
1
10
24.0351598747522
20
5.76381392260953
30
0
41
1
10
24.0370390027879
20
5.79010378407264
30
0
41
1
10
24.0384609697584
20
5.80330556284983
30
0
41
1
10
24.0441292608743
20
5.84240725482212
30
0
41
1
10
24.0497047801586
20
5.86755016343338
30
0
41
1
10
24.0606717078938
20
5.90392421689563
30
0
41
1
10
24.0647645162324
20
5.91582385666899
30
0
41
1
10
24.0738483312602
20
5.93916076059219
30
0
41
1
10
24.0788023229567
20
5.95049229765866
30
0
41
1
10
24.094693757979
20
5.98311918801872
30
0
41
1
10
24.1067155216828
20
6.00322784875956
30
0
41
1
10
24.1268887632304
20
6.03092764777733
30
0
41
1
10
24.1340043272121
20
6.03977619805843
30
0
41
1
10
24.1486678238175
20
6.05628009746218
30
0
41
1
10
24.1638174968475
20
6.07167874209117
30
0
41
1
10
24.1799153678475
20
6.08492178994354
30
0
41
1
10
24.1964889140183
20
6.09708345616747
30
0
41
1
10
24.2050376350385
20
6.10263718498322
30
0
41
1
10
24.2312627963198
20
6.11753553890864
30
0
41
1
10
24.2491547248247
20
6.12494679503479
30
0
41
1
10
24.2765799428415
20
6.13243900384779
30
0
41
1
10
24.2858202844851
20
6.13432788307517
30
0
41
1
10
24.3045024334652
20
6.13686229685152
30
0
41
1
10
24.3139574111962
20
6.13750000000004
30
0
41
1
10
24.3233143171107
20
6.13750000000004
30
0
0
SPLINE
5
F5
100
AcDbEntity
8
1
62
256
6
ByLayer
370
18
48
1
60
0
100
AcDbSpline
70
4
71
3
72
17
73
13
40
0
40
0
40
0
40
0
40
0.250000000000016
40
0.250000000000016
40
0.375000000000022
40
0.375000000000022
40
0.500000000000027
40
0.625000000000032
40
0.625000000000032
40
0.750000000000037
40
0.750000000000037
40
1
40
1
40
1
40
1
41
1
10
24.3233143171107
20
7.83750000000003
30
0
41
1
10
24.3018189747708
20
7.83750000000003
30
0
41
1
10
24.2805816813712
20
7.84078213675559
30
0
41
1
10
24.2491139092306
20
7.85064246863041
30
0
41
1
10
24.2386330340579
20
7.85479347333947
30
0
41
1
10
24.2182672005053
20
7.86460834434288
30
0
41
1
10
24.1984193632081
20
7.87594074927563
30
0
41
1
10
24.1795901432915
20
7.89025731947919
30
0
41
1
10
24.1612807729229
20
7.906096853061
30
0
41
1
10
24.1523320468311
20
7.91484241260829
30
0
41
1
10
24.1268275207241
20
7.94290313602042
30
0
41
1
10
24.1115415312565
20
7.96400409465844
30
0
41
1
10
24.0979733852767
20
7.98750000000004
30
0
0
SPLINE
5
F6
100
AcDbEntity
8
1
62
256
6
ByLayer
370
35
48
1
60
0
100
AcDbSpline
70
4
71
2
72
6
73
3
40
0
40
0
40
0
40
1
40
1
40
1
41
1.03186391735993
10
13.8
20
8.16520327716597
30
0
41
1.03138264657361
10
13.9222110531943
20
8.16520327716597
30
0
41
1.03186391735993
10
14.0441941581394
20
8.15774247085344
30
0
0
SPLINE
5
F7
100
AcDbEntity
8
1
62
256
6
ByLayer
370
35
48
1
60
0
100
AcDbSpline
70
4
71
2
72
6
73
3
40
0
40
0
40
0
40
1
40
1
40
1
41
1.03186391735993
10
33.1558058418606
20
6.16725752914662
30
0
41
1.03138264657361
10
33.2777889468056
20
6.15979672283412
30
0
41
1.03186391735993
10
33.4
20
6.15979672283411
30
0
0
SPLINE
5
F8
100
AcDbEntity
8
1
62
256
6
ByLayer
370
35
48
1
60
0
100
AcDbSpline
70
4
71
2
72
6
73
3
40
0
40
0
40
0
40
1
40
1
40
1
41
1.03186391735993
10
33.4
20
6.15979672283411
30
0
41
0.729637973226922
10
33.6
20
6.15979672283411
30
0
41
1.03186391735993
10
33.6
20
6.3597967228341
30
0
0
SPLINE
5
F9
100
AcDbEntity
8
1
62
256
6
ByLayer
370
35
48
1
60
0
100
AcDbSpline
70
4
71
2
72
6
73
3
40
0
40
0
40
0
40
1
40
1
40
1
41
1.03186391735993
10
33.6
20
7.96520327716603
30
0
41
0.729637973226922
10
33.6
20
8.165203277166
30
0
41
1.03186391735993
10
33.4
20
8.16520327716602
30
0
0
SPLINE
5
FA
100
AcDbEntity
8
1
62
256
6
ByLayer
370
35
48
1
60
0
100
AcDbSpline
70
4
71
2
72
6
73
3
40
0
40
0
40
0
40
1
40
1
40
1
41
1.03186391735993
10
33.4
20
8.16520327716602
30
0
41
1.03138264657361
10
33.2777889468056
20
8.165203277166
30
0
41
1.03186391735993
10
33.1558058418606
20
8.15774247085346
30
0
0
SPLINE
5
FB
100
AcDbEntity
8
1
62
256
6
ByLayer
370
35
48
1
60
0
100
AcDbSpline
70
4
71
3
72
8
73
4
40
0
40
0
40
0
40
0
40
1
40
1
40
1
40
1
41
1
10
15.5844723161326
20
8.09189829636668
30
0
41
1
10
15.597849562189
20
8.09181279601361
30
0
41
1
10
15.6112110774294
20
8.0904037088703
30
0
41
1
10
15.6243788748155
20
8.08762067257416
30
0
0
SPLINE
5
FC
100
AcDbEntity
8
1
62
256
6
ByLayer
370
35
48
1
60
0
100
AcDbSpline
70
4
71
3
72
8
73
4
40
0
40
0
40
0
40
0
40
1
40
1
40
1
40
1
41
1
10
31.6155276838538
20
8.09189829636662
30
0
41
1
10
31.6021504377982
20
8.0918127960131
30
0
41
1
10
31.5887889225588
20
8.09040370886825
30
0
41
1
10
31.5756211251735
20
8.08762067257189
30
0
0
SPLINE
5
FD
100
AcDbEntity
8
1
62
256
6
ByLayer
370
35
48
1
60
0
100
AcDbSpline
70
4
71
3
72
8
73
4
40
0
40
0
40
0
40
0
40
1
40
1
40
1
40
1
41
1
10
31.5756211251845
20
6.23737932742591
30
0
41
1
10
31.5887890590187
20
6.2345962622912
30
0
41
1
10
31.602150330567
20
6.23318720467188
30
0
41
1
10
31.6155276838674
20
6.23310170363337
30
0
0
SPLINE
5
FE
100
AcDbEntity
8
1
62
256
6
ByLayer
370
18
48
1
60
0
100
AcDbSpline
70
4
71
3
72
34
73
30
40
0
40
0
40
0
40
0
40
0.125
40
0.125
40
0.187499999999999
40
0.187499999999999
40
0.218749999999999
40
0.218749999999999
40
0.249999999999998
40
0.249999999999998
40
0.374999999999999
40
0.374999999999999
40
0.406249999999999
40
0.406249999999999
40
0.4375
40
0.5
40
0.5625
40
0.5625
40
0.625
40
0.625
40
0.6875
40
0.6875
40
0.75
40
0.75
40
0.875
40
0.875
40
0.9375
40
0.9375
40
1
40
1
40
1
40
1
41
1
10
15.411619580911
20
2.17908739327674
30
0
41
1
10
15.461569458019
20
2.1878766160292
30
0
41
1
10
15.5106362122048
20
2.20120121432407
30
0
41
1
10
15.583077426214
20
2.22841233812548
30
0
41
1
10
15.6070308195164
20
2.23869581556755
30
0
41
1
10
15.6426864879757
20
2.25610002137225
30
0
41
1
10
15.6545526481109
20
2.26224702024834
30
0
41
1
10
15.6780688494594
20
2.27517123351936
30
0
41
1
10
15.689681282967
20
2.28192602167658
30
0
41
1
10
15.7470190337769
20
2.31718487422225
30
0
41
1
10
15.790602035047
20
2.35007901840254
30
0
41
1
10
15.8420011997285
20
2.39799610105933
30
0
41
1
10
15.8521358017248
20
2.40793982154165
30
0
41
1
10
15.8717633082405
20
2.42821515893064
30
0
41
1
10
15.9003644439354
20
2.45932063673396
30
0
41
1
10
15.9438821789761
20
2.5145891965131
30
0
41
1
10
15.9742399021877
20
2.5624862203662
30
0
41
1
10
16.0022801226557
20
2.61229622901237
30
0
41
1
10
16.0148038735827
20
2.6375581419617
30
0
41
1
10
16.0370533360057
20
2.68871223027628
30
0
41
1
10
16.0467832250473
20
2.7146134770324
30
0
41
1
10
16.0635684107254
20
2.76706604024622
30
0
41
1
10
16.0706277533018
20
2.79371057048138
30
0
41
1
10
16.0875092226379
20
2.87274757523687
30
0
41
1
10
16.0933218801412
20
2.92486035336177
30
0
41
1
10
16.0948210379445
20
3.00254974034442
30
0
41
1
10
16.094095866226
20
3.02844537564167
30
0
41
1
10
16.0902744812788
20
3.07965883288034
30
0
41
1
10
16.0871893223593
20
3.10495909568019
30
0
41
1
10
16.082968320125
20
3.12998211085764
30
0
0
SPLINE
5
FF
100
AcDbEntity
8
1
62
256
6
ByLayer
370
18
48
1
60
0
100
AcDbSpline
70
4
71
3
72
26
73
22
40
0
40
0
40
0
40
0
40
0.125
40
0.125
40
0.25
40
0.25
40
0.312500000000001
40
0.312500000000001
40
0.375000000000001
40
0.375000000000001
40
0.5
40
0.5
40
0.562499999999999
40
0.562499999999999
40
0.624999999999999
40
0.624999999999999
40
0.749999999999999
40
0.749999999999999
40
0.874999999999999
40
0.874999999999999
40
1
40
1
40
1
40
1
41
1
10
16.2690745789228
20
3.4840322060999
30
0
41
1
10
16.252084051977
20
3.47612096711609
30
0
41
1
10
16.2355073346868
20
3.46659642461384
30
0
41
1
10
16.2047655314751
20
3.44524725334387
30
0
41
1
10
16.1904584222905
20
3.43338718419963
30
0
41
1
10
16.1705628429372
20
3.41385636801039
30
0
41
1
10
16.1641647412164
20
3.40701878630765
30
0
41
1
10
16.1520944442308
20
3.39297821348967
30
0
41
1
10
16.1464108944973
20
3.38577049015558
30
0
41
1
10
16.1303693996678
20
3.36361154723554
30
0
41
1
10
16.1210142682372
20
3.3481278335679
30
0
41
1
10
16.1089379767858
20
3.32387375858946
30
0
41
1
10
16.1052541858199
20
3.31563691977692
30
0
41
1
10
16.0986461660604
20
3.29910759497744
30
0
41
1
10
16.0957048673253
20
3.29078187880941
30
0
41
1
10
16.0879248825122
20
3.26563256837042
30
0
41
1
10
16.0841241892697
20
3.2486377656621
30
0
41
1
10
16.0792197258637
20
3.21422265046786
30
0
41
1
10
16.0781648647275
20
3.19710985227539
30
0
41
1
10
16.078643665545
20
3.16329193109627
30
0
41
1
10
16.0801735292664
20
3.14655023619667
30
0
41
1
10
16.082968320125
20
3.12998211085764
30
0
0
SPLINE
5
100
100
AcDbEntity
8
1
62
256
6
ByLayer
370
18
48
1
60
0
100
AcDbSpline
70
4
71
3
72
24
73
20
40
0
40
0
40
0
40
0
40
0.0624999999999999
40
0.0624999999999999
40
0.125
40
0.125
40
0.249999999999999
40
0.249999999999999
40
0.312499999999999
40
0.312499999999999
40
0.374999999999999
40
0.374999999999999
40
0.499999999999999
40
0.499999999999999
40
0.625
40
0.625
40
0.75
40
0.75
40
1
40
1
40
1
40
1
41
1
10
18.2192322297152
20
3.31885526243215
30
0
41
1
10
18.2115065733694
20
3.32419492061499
30
0
41
1
10
18.2034808016057
20
3.32925086089662
30
0
41
1
10
18.1870494561037
20
3.33863529656597
30
0
41
1
10
18.1786987358213
20
3.34293701622747
30
0
41
1
10
18.1532564027903
20
3.35471313175145
30
0
41
1
10
18.1357772220407
20
3.36106619686453
30
0
41
1
10
18.108790511468
20
3.36836738789955
30
0
41
1
10
18.0996499118591
20
3.37042633800351
30
0
41
1
10
18.0814716445665
20
3.37372712941027
30
0
41
1
10
18.0723900947737
20
3.37498266594639
30
0
41
1
10
18.0451692010529
20
3.37761073238244
30
0
41
1
10
18.027053380212
20
3.37785186886768
30
0
41
1
10
17.990895390223
20
3.37536652504002
30
0
41
1
10
17.9733259996833
20
3.37267333147796
30
0
41
1
10
17.9391458529396
20
3.3646550979272
30
0
41
1
10
17.9224804169361
20
3.35930582884143
30
0
41
1
10
17.8742531355239
20
3.33953033267056
30
0
41
1
10
17.8454284839054
20
3.32191715942278
30
0
41
1
10
17.8196771087034
20
3.30034270512795
30
0
0
SPLINE
5
101
100
AcDbEntity
8
1
62
256
6
ByLayer
370
18
48
1
60
0
100
AcDbSpline
70
4
71
3
72
26
73
22
40
0
40
0
40
0
40
0
40
0.249999999999996
40
0.249999999999996
40
0.312499999999995
40
0.312499999999995
40
0.374999999999994
40
0.374999999999994
40
0.499999999999993
40
0.499999999999993
40
0.562499999999993
40
0.562499999999993
40
0.624999999999993
40
0.624999999999993
40
0.749999999999994
40
0.749999999999994
40
0.812499999999996
40
0.812499999999996
40
0.874999999999998
40
0.874999999999998
40
1
40
1
40
1
40
1
41
1
10
16.6598240797516
20
3.39858141846898
30
0
41
1
10
16.6380062553843
20
3.42425258941645
30
0
41
1
10
16.6125203588405
20
3.44645644969819
30
0
41
1
10
16.5757411811474
20
3.46941168371367
30
0
41
1
10
16.5681003404433
20
3.47377292459544
30
0
41
1
10
16.5525437750817
20
3.48184240497807
30
0
41
1
10
16.5446118360471
20
3.48556427711429
30
0
41
1
10
16.5203563389536
20
3.49578619570582
30
0
41
1
10
16.5035762570005
20
3.50134910814029
30
0
41
1
10
16.4774438907327
20
3.50768728791729
30
0
41
1
10
16.468571991847
20
3.50946412875032
30
0
41
1
10
16.4504872606707
20
3.51230203308333
30
0
41
1
10
16.4413399030023
20
3.51334924841555
30
0
41
1
10
16.4139447947352
20
3.51533327157466
30
0
41
1
10
16.3955997962264
20
3.51514440731833
30
0
41
1
10
16.3679617142985
20
3.51251986732831
30
0
41
1
10
16.3587288049637
20
3.5112529015174
30
0
41
1
10
16.3402212927168
20
3.50789590988484
30
0
41
1
10
16.3309533304962
20
3.50580083601298
30
0
41
1
10
16.3037268768879
20
3.49840624190045
30
0
41
1
10
16.2861257259428
20
3.49197167139454
30
0
41
1
10
16.2690745789228
20
3.4840322060999
30
0
0
SPLINE
5
102
100
AcDbEntity
8
1
62
256
6
ByLayer
370
18
48
1
60
0
100
AcDbSpline
70
4
71
3
72
34
73
30
40
0
40
0
40
0
40
0
40
0.124999999999999
40
0.124999999999999
40
0.187499999999998
40
0.187499999999998
40
0.218749999999998
40
0.218749999999998
40
0.249999999999998
40
0.249999999999998
40
0.374999999999998
40
0.374999999999998
40
0.406249999999998
40
0.406249999999998
40
0.437499999999998
40
0.499999999999998
40
0.562499999999998
40
0.562499999999998
40
0.624999999999998
40
0.624999999999998
40
0.687499999999998
40
0.687499999999998
40
0.749999999999998
40
0.749999999999998
40
0.874999999999999
40
0.874999999999999
40
0.937499999999999
40
0.937499999999999
40
1
40
1
40
1
40
1
41
1
10
16.6598240797516
20
3.39858141846898
30
0
41
1
10
16.6926686978093
20
3.3599359609444
30
0
41
1
10
16.7289792408889
20
3.32434613676148
30
0
41
1
10
16.7890911096908
20
3.27561485267446
30
0
41
1
10
16.8100769629984
20
3.2601517044327
30
0
41
1
10
16.8431241842404
20
3.23819460109385
30
0
41
1
10
16.854428423228
20
3.23106679820893
30
0
41
1
10
16.8774712670133
20
3.21731636992371
30
0
41
1
10
16.8891715070718
20
3.21071484436016
30
0
41
1
10
16.9485873315213
20
3.17908315440587
30
0
41
1
10
16.9990066565388
20
3.15812141759443
30
0
41
1
10
17.0663389961249
20
3.13801476257882
30
0
41
1
10
17.0800428375974
20
3.1343009447244
30
0
41
1
10
17.107460608657
20
3.12762306726424
30
0
41
1
10
17.1487597495034
20
3.11868122750928
30
0
41
1
10
17.2184480166217
20
3.1090920540079
30
0
41
1
10
17.2751212134247
20
3.10712692983213
30
0
41
1
10
17.332272656867
20
3.1081288714486
30
0
41
1
10
17.3603994798744
20
3.11010122581683
30
0
41
1
10
17.4157817270679
20
3.11677849877151
30
0
41
1
10
17.4430470864543
20
3.12148440131784
30
0
41
1
10
17.4967859207957
20
3.13353229341664
30
0
41
1
10
17.5233418539836
20
3.14091793552245
30
0
41
1
10
17.6000631858618
20
3.16632795436092
30
0
41
1
10
17.6479594932681
20
3.18766975374686
30
0
41
1
10
17.7157386024485
20
3.22566818837376
30
0
41
1
10
17.737711432118
20
3.23939060145133
30
0
41
1
10
17.7799594587427
20
3.26858863944992
30
0
41
1
10
17.8002250999651
20
3.28404584835138
30
0
41
1
10
17.8196771087034
20
3.30034270512795
30
0
0
SPLINE
5
103
100
AcDbEntity
8
1
62
256
6
ByLayer
370
18
48
1
60
0
100
AcDbSpline
70
4
71
3
72
34
73
30
40
0
40
0
40
0
40
0
40
0.125
40
0.125
40
0.1875
40
0.1875
40
0.21875
40
0.21875
40
0.25
40
0.25
40
0.375
40
0.375
40
0.406250000000001
40
0.406250000000001
40
0.437500000000001
40
0.500000000000001
40
0.562500000000001
40
0.562500000000001
40
0.625
40
0.625
40
0.6875
40
0.6875
40
0.75
40
0.75
40
0.875
40
0.875
40
0.9375
40
0.9375
40
1
40
1
40
1
40
1
41
1
10
17.5401759202483
20
0.0004185815310791
30
0
41
1
10
17.5073313021907
20
0.0390640390556598
30
0
41
1
10
17.4710207591111
20
0.0746538632385523
30
0
41
1
10
17.4109088903091
20
0.123385147325564
30
0
41
1
10
17.3899230370015
20
0.138848295567328
30
0
41
1
10
17.3568758157596
20
0.160805398906206
30
0
41
1
10
17.3455715767719
20
0.167933201791101
30
0
41
1
10
17.3225287329866
20
0.18168363007635
30
0
41
1
10
17.3108284929282
20
0.188285155639875
30
0
41
1
10
17.2514126684787
20
0.219916845594156
30
0
41
1
10
17.2009933434611
20
0.240878582405628
30
0
41
1
10
17.1336610038751
20
0.260985237421238
30
0
41
1
10
17.1199571624026
20
0.264699055275656
30
0
41
1
10
17.0925393913429
20
0.271376932735819
30
0
41
1
10
17.0512402504965
20
0.280318772490773
30
0
41
1
10
16.9815520255075
20
0.289908253566722
30
0
41
1
10
16.9248787865753
20
0.291873070167895
30
0
41
1
10
16.867727343133
20
0.290871128551459
30
0
41
1
10
16.8396005201255
20
0.288898774183195
30
0
41
1
10
16.7842182729321
20
0.28222150122852
30
0
41
1
10
16.7569529135457
20
0.277515598682214
30
0
41
1
10
16.7032140792042
20
0.265467706583422
30
0
41
1
10
16.6766581460163
20
0.258082064477577
30
0
41
1
10
16.5999368141382
20
0.232672045639134
30
0
41
1
10
16.5520405067318
20
0.211330246253169
30
0
41
1
10
16.4842613975515
20
0.173331811626298
30
0
41
1
10
16.462288567882
20
0.159609398548696
30
0
41
1
10
16.4200405412573
20
0.130411360550141
30
0
41
1
10
16.3997749000349
20
0.114954151648675
30
0
41
1
10
16.3803228912966
20
0.0986572948721118
30
0
0
SPLINE
5
104
100
AcDbEntity
8
1
62
256
6
ByLayer
370
18
48
1
60
0
100
AcDbSpline
70
4
71
3
72
24
73
20
40
0
40
0
40
0
40
0
40
0.0624999999999991
40
0.0624999999999991
40
0.124999999999998
40
0.124999999999998
40
0.249999999999996
40
0.249999999999996
40
0.312499999999996
40
0.312499999999996
40
0.374999999999996
40
0.374999999999996
40
0.499999999999997
40
0.499999999999997
40
0.624999999999998
40
0.624999999999998
40
0.749999999999999
40
0.749999999999999
40
1
40
1
40
1
40
1
41
1
10
15.9807677702847
20
0.0801447375678777
30
0
41
1
10
15.9884934266305
20
0.0748050793850723
30
0
41
1
10
15.9965191983942
20
0.0697491391034362
30
0
41
1
10
16.0129505438962
20
0.0603647034340611
30
0
41
1
10
16.0213012641787
20
0.0560629837725912
30
0
41
1
10
16.0467435972097
20
0.0442868682485766
30
0
41
1
10
16.0642227779592
20
0.0379338031355303
30
0
41
1
10
16.0912094885319
20
0.0306326121004759
30
0
41
1
10
16.1003500881408
20
0.0285736619965462
30
0
41
1
10
16.1185283554334
20
0.0252728705897596
30
0
41
1
10
16.1276099052263
20
0.0240173340536387
30
0
41
1
10
16.154830798947
20
0.0213892676175931
30
0
41
1
10
16.172946619788
20
0.021148131132378
30
0
41
1
10
16.209104609777
20
0.023633474960036
30
0
41
1
10
16.2266740003166
20
0.0263266685221026
30
0
41
1
10
16.2608541470604
20
0.0343449020728315
30
0
41
1
10
16.2775195830638
20
0.0396941711586294
30
0
41
1
10
16.3257468644761
20
0.0594696673294663
30
0
41
1
10
16.3545715160946
20
0.0770828405772761
30
0
41
1
10
16.3803228912966
20
0.0986572948721118
30
0
0
SPLINE
5
105
100
AcDbEntity
8
1
62
256
6
ByLayer
370
18
48
1
60
0
100
AcDbSpline
70
4
71
3
72
26
73
22
40
0
40
0
40
0
40
0
40
0.249999999999993
40
0.249999999999993
40
0.312499999999993
40
0.312499999999993
40
0.374999999999992
40
0.374999999999992
40
0.499999999999992
40
0.499999999999992
40
0.562499999999992
40
0.562499999999992
40
0.624999999999992
40
0.624999999999992
40
0.749999999999994
40
0.749999999999994
40
0.812499999999995
40
0.812499999999995
40
0.874999999999997
40
0.874999999999997
40
1
40
1
40
1
40
1
41
1
10
17.5401759202483
20
0.0004185815310791
30
0
41
1
10
17.5619937446156
20
-0.0252525894164251
30
0
41
1
10
17.5874796411594
20
-0.0474564496981316
30
0
41
1
10
17.6242588188526
20
-0.0704116837136155
30
0
41
1
10
17.6318996595567
20
-0.0747729245953792
30
0
41
1
10
17.6474562249183
20
-0.0828424049780097
30
0
41
1
10
17.6553881639529
20
-0.0865642771142632
30
0
41
1
10
17.6796436610464
20
-0.0967861957057892
30
0
41
1
10
17.6964237429994
20
-0.102349108140231
30
0
41
1
10
17.7225561092672
20
-0.108687287917235
30
0
41
1
10
17.731428008153
20
-0.110464128750266
30
0
41
1
10
17.7495127393292
20
-0.113302033083272
30
0
41
1
10
17.7586600969976
20
-0.114349248415522
30
0
41
1
10
17.7860552052647
20
-0.116333271574632
30
0
41
1
10
17.8044002037736
20
-0.116144407318274
30
0
41
1
10
17.8320382857015
20
-0.113519867328279
30
0
41
1
10
17.8412711950362
20
-0.112252901517337
30
0
41
1
10
17.8597787072832
20
-0.108895909884808
30
0
41
1
10
17.8690466695037
20
-0.106800836012923
30
0
41
1
10
17.8962731231121
20
-0.0994062419004251
30
0
41
1
10
17.9138742740571
20
-0.0929716713945083
30
0
41
1
10
17.9309254210772
20
-0.0850322060998394
30
0
0
SPLINE
5
106
100
AcDbEntity
8
1
62
256
6
ByLayer
370
18
48
1
60
0
100
AcDbSpline
70
4
71
3
72
24
73
20
40
0
40
0
40
0
40
0
40
0.0624999999999994
40
0.0624999999999994
40
0.124999999999999
40
0.124999999999999
40
0.249999999999996
40
0.249999999999996
40
0.312499999999996
40
0.312499999999996
40
0.374999999999996
40
0.374999999999996
40
0.499999999999996
40
0.499999999999996
40
0.624999999999997
40
0.624999999999997
40
0.749999999999997
40
0.749999999999997
40
1
40
1
40
1
40
1
41
1
10
19.0597200592317
20
1.51378640479302
30
0
41
1
10
19.0588340526533
20
1.50443692845334
30
0
41
1
10
19.057537742134
20
1.4950403799609
30
0
41
1
10
19.0541439322053
20
1.47642482726945
30
0
41
1
10
19.0520612468127
20
1.46726503781568
30
0
41
1
10
19.0446979738093
20
1.44021376395344
30
0
41
1
10
19.0383097482673
20
1.42274740284327
30
0
41
1
10
19.0265276757121
20
1.39739444040552
30
0
41
1
10
19.0222201422952
20
1.38907368367296
30
0
41
1
10
19.0130459736956
20
1.37303687425904
30
0
41
1
10
19.0081615753239
20
1.36527842266224
30
0
41
1
10
18.9926523154735
20
1.34275406591129
30
0
41
1
10
18.9811767114509
20
1.32873437890117
30
0
41
1
10
18.9560017192036
20
1.30266146308162
30
0
41
1
10
18.9426321075787
20
1.2909486384651
30
0
41
1
10
18.914495687773
20
1.26995062948285
30
0
41
1
10
18.8996751421098
20
1.26063919225865
30
0
41
1
10
18.8534992381721
20
1.2364580670417
30
0
41
1
10
18.8214666122639
20
1.22573448134409
30
0
41
1
10
18.7883804190889
20
1.21991260672331
30
0
0
SPLINE
5
107
100
AcDbEntity
8
1
62
256
6
ByLayer
370
18
48
1
60
0
100
AcDbSpline
70
4
71
3
72
34
73
30
40
0
40
0
40
0
40
0
40
0.125
40
0.125
40
0.1875
40
0.1875
40
0.21875
40
0.21875
40
0.25
40
0.25
40
0.374999999999999
40
0.374999999999999
40
0.406249999999999
40
0.406249999999999
40
0.437499999999999
40
0.499999999999999
40
0.562499999999999
40
0.562499999999999
40
0.624999999999999
40
0.624999999999999
40
0.687499999999999
40
0.687499999999999
40
0.75
40
0.75
40
0.875
40
0.875
40
0.9375
40
0.9375
40
1
40
1
40
1
40
1
41
1
10
18.7883804190889
20
1.21991260672331
30
0
41
1
10
18.7384305419809
20
1.21112338397083
30
0
41
1
10
18.6893637877951
20
1.19779878567596
30
0
41
1
10
18.616922573786
20
1.17058766187458
30
0
41
1
10
18.5929691804835
20
1.16030418443248
30
0
41
1
10
18.5573135120243
20
1.14289997862778
30
0
41
1
10
18.545447351889
20
1.13675297975169
30
0
41
1
10
18.5219311505405
20
1.12382876648067
30
0
41
1
10
18.510318717033
20
1.11707397832348
30
0
41
1
10
18.4529809662231
20
1.08181512577778
30
0
41
1
10
18.409397964953
20
1.04892098159752
30
0
41
1
10
18.3579988002714
20
1.00100389894072
30
0
41
1
10
18.3478641982751
20
0.991060178458412
30
0
41
1
10
18.3282366917594
20
0.970784841069388
30
0
41
1
10
18.2996355560646
20
0.939679363266094
30
0
41
1
10
18.2561180650529
20
0.884410611587327
30
0
41
1
10
18.2257600978123
20
0.836513779633833
30
0
41
1
10
18.1977198773443
20
0.786703770987685
30
0
41
1
10
18.1851961264173
20
0.761441858038353
30
0
41
1
10
18.1629466639943
20
0.710287769723749
30
0
41
1
10
18.1532167749526
20
0.684386522967628
30
0
41
1
10
18.1364315892745
20
0.631933959753837
30
0
41
1
10
18.1293722466982
20
0.605289429518649
30
0
41
1
10
18.1124907773621
20
0.526252424763157
30
0
41
1
10
18.1066781198587
20
0.474139646638292
30
0
41
1
10
18.1051789620555
20
0.396450259655637
30
0
41
1
10
18.105904133774
20
0.370554624358363
30
0
41
1
10
18.1097255187211
20
0.319341167119688
30
0
41
1
10
18.1128106776407
20
0.294040904319871
30
0
41
1
10
18.117031679875
20
0.269017889142418
30
0
0
SPLINE
5
108
100
AcDbEntity
8
1
62
256
6
ByLayer
370
18
48
1
60
0
100
AcDbSpline
70
4
71
3
72
26
73
22
40
0
40
0
40
0
40
0
40
0.125
40
0.125
40
0.250000000000001
40
0.250000000000001
40
0.312500000000001
40
0.312500000000001
40
0.375000000000001
40
0.375000000000001
40
0.5
40
0.5
40
0.5625
40
0.5625
40
0.625
40
0.625
40
0.749999999999999
40
0.749999999999999
40
0.874999999999999
40
0.874999999999999
40
1
40
1
40
1
40
1
41
1
10
17.9309254210772
20
-0.0850322060998394
30
0
41
1
10
17.9479159480229
20
-0.0771209671160591
30
0
41
1
10
17.9644926653131
20
-0.0675964246137823
30
0
41
1
10
17.9952344685249
20
-0.0462472533438074
30
0
41
1
10
18.0095415777095
20
-0.0343871841995735
30
0
41
1
10
18.0294371570627
20
-0.0148563680103564
30
0
41
1
10
18.0358352587836
20
-0.0080187863076162
30
0
41
1
10
18.0479055557692
20
0.006021786510388
30
0
41
1
10
18.0535891055027
20
0.0132295098444501
30
0
41
1
10
18.0696306003322
20
0.0353884527645221
30
0
41
1
10
18.0789857317628
20
0.0508721664321286
30
0
41
1
10
18.0910620232141
20
0.0751262414105724
30
0
41
1
10
18.09474581418
20
0.0833630802231085
30
0
41
1
10
18.1013538339396
20
0.0998924050225867
30
0
41
1
10
18.1042951326747
20
0.108218121190617
30
0
41
1
10
18.1120751174877
20
0.133367431629637
30
0
41
1
10
18.1158758107302
20
0.150362234337933
30
0
41
1
10
18.1207802741363
20
0.184777349532197
30
0
41
1
10
18.1218351352724
20
0.201890147724669
30
0
41
1
10
18.121356334455
20
0.235708068903762
30
0
41
1
10
18.1198264707336
20
0.252449763803384
30
0
41
1
10
18.117031679875
20
0.269017889142418
30
0
0
SPLINE
5
109
100
AcDbEntity
8
1
62
256
6
ByLayer
370
18
48
1
60
0
100
AcDbSpline
70
4
71
3
72
24
73
20
40
0
40
0
40
0
40
0
40
0.124999999999998
40
0.124999999999998
40
0.187499999999998
40
0.187499999999998
40
0.249999999999997
40
0.249999999999997
40
0.374999999999996
40
0.374999999999996
40
0.499999999999995
40
0.499999999999995
40
0.624999999999994
40
0.624999999999994
40
0.687499999999994
40
0.687499999999994
40
0.749999999999995
40
0.749999999999995
40
1
40
1
40
1
40
1
41
1
10
19.0597200592317
20
1.51378640479302
30
0
41
1
10
19.0615382887728
20
1.53297305022946
30
0
41
1
10
19.0616708961069
20
1.55213214833557
30
0
41
1
10
19.0593726019103
20
1.58082965496993
30
0
41
1
10
19.0581818091478
20
1.59042354008739
30
0
41
1
10
19.0549665477866
20
1.60944077846759
30
0
41
1
10
19.0529610365792
20
1.61877274234007
30
0
41
1
10
19.0458148386665
20
1.64626574910989
30
0
41
1
10
19.0395521068263
20
1.66392739027796
30
0
41
1
10
19.0241538079413
20
1.69796267767151
30
0
41
1
10
19.0149134454927
20
1.71444121525389
30
0
41
1
10
18.994409436934
20
1.74479959887347
30
0
41
1
10
18.9830918770835
20
1.75885087510315
30
0
41
1
10
18.9646340624734
20
1.77833934347157
30
0
41
1
10
18.9582331702801
20
1.78456930382137
30
0
41
1
10
18.9449393564086
20
1.79649809763004
30
0
41
1
10
18.9380196930384
20
1.80221424269482
30
0
41
1
10
18.9028030993019
20
1.82900148319268
30
0
41
1
10
18.8723618350387
20
1.84517225937279
30
0
41
1
10
18.8399196270627
20
1.85649338299805
30
0
0
SPLINE
5
10A
100
AcDbEntity
8
1
62
256
6
ByLayer
370
18
48
1
60
0
100
AcDbSpline
70
4
71
3
72
18
73
14
40
0
40
0
40
0
40
0
40
0.249999999999999
40
0.249999999999999
40
0.374999999999999
40
0.374999999999999
40
0.437499999999998
40
0.437499999999998
40
0.499999999999998
40
0.499999999999998
40
0.749999999999999
40
0.749999999999999
40
1
40
1
40
1
40
1
41
1
10
18.4406503980646
20
2.15525487947914
30
0
41
1
10
18.4669805546801
20
2.11851012637419
30
0
41
1
10
18.4954768423185
20
2.08504915400846
30
0
41
1
10
18.5411335244529
20
2.03906498068159
30
0
41
1
10
18.5568419088155
20
2.02444403432017
30
0
41
1
10
18.5811272839891
20
2.00352810881355
30
0
41
1
10
18.589343056499
20
1.99672564977618
30
0
41
1
10
18.6060160491826
20
1.98345527687724
30
0
41
1
10
18.6144927081905
20
1.97697344871088
30
0
41
1
10
18.6571971786186
20
1.94560075011916
30
0
41
1
10
18.6923613490517
20
1.92378011426263
30
0
41
1
10
18.7646495546173
20
1.88587794828376
30
0
41
1
10
18.8017747568725
20
1.86980452357804
30
0
41
1
10
18.8399196270627
20
1.85649338299805
30
0
0
SPLINE
5
10B
100
AcDbEntity
8
1
62
256
6
ByLayer
370
18
48
1
60
0
100
AcDbSpline
70
4
71
3
72
24
73
20
40
0
40
0
40
0
40
0
40
0.250000000000002
40
0.250000000000002
40
0.312500000000003
40
0.312500000000003
40
0.375000000000003
40
0.375000000000003
40
0.500000000000002
40
0.500000000000002
40
0.625000000000001
40
0.625000000000001
40
0.749999999999999
40
0.749999999999999
40
0.812499999999999
40
0.812499999999999
40
0.874999999999999
40
0.874999999999999
40
1
40
1
40
1
40
1
41
1
10
18.3400408842002
20
2.93005509281593
30
0
41
1
10
18.3522578058881
20
2.96217068907327
30
0
41
1
10
18.3594752730836
20
2.99587636722245
30
0
41
1
10
18.3616413158639
20
3.04006995257782
30
0
41
1
10
18.3617204147336
20
3.0490449065569
30
0
41
1
10
18.3611475096081
20
3.0668968921243
30
0
41
1
10
18.3604994687653
20
3.0758055323065
30
0
41
1
10
18.3574647413857
20
3.10247539824655
30
0
41
1
10
18.3539954431653
20
3.12018103278786
30
0
41
1
10
18.343958725616
20
3.15541326410809
30
0
41
1
10
18.3372948078596
20
3.17309146252228
30
0
41
1
10
18.3211578030574
20
3.20678278889164
30
0
41
1
10
18.3116718910944
20
3.22294363209619
30
0
41
1
10
18.2952304328012
20
3.2461085196428
30
0
41
1
10
18.2893792892092
20
3.25364985530606
30
0
41
1
10
18.2768944173871
20
3.26835091774441
30
0
41
1
10
18.2703184298687
20
3.27543731366959
30
0
41
1
10
18.249834810941
20
3.29566725185211
30
0
41
1
10
18.2350865325324
20
3.30789741574819
30
0
41
1
10
18.2192322297152
20
3.31885526243215
30
0
0
SPLINE
5
10C
100
AcDbEntity
8
1
62
256
6
ByLayer
370
18
48
1
60
0
100
AcDbSpline
70
4
71
3
72
17
73
13
40
0
40
0
40
0
40
0
40
0.250000000000001
40
0.250000000000001
40
0.500000000000002
40
0.500000000000002
40
0.562500000000002
40
0.562500000000002
40
0.625000000000002
40
0.750000000000001
40
0.750000000000001
40
1
40
1
40
1
40
1
41
1
10
18.3400408842002
20
2.93005509281593
30
0
41
1
10
18.3256780736432
20
2.89229842736805
30
0
41
1
10
18.314091298638
20
2.85356069493383
30
0
41
1
10
18.2965820306325
20
2.77392316900489
30
0
41
1
10
18.2906528782239
20
2.7330274876301
30
0
41
1
10
18.2871674645077
20
2.68026291643369
30
0
41
1
10
18.2866679313288
20
2.66960192411415
30
0
41
1
10
18.2860847191533
20
2.64825093592455
30
0
41
1
10
18.2858307089311
20
2.61618359656666
30
0
41
1
10
18.2874478627213
20
2.58398092766961
30
0
41
1
10
18.2932555777696
20
2.51935595918829
30
0
41
1
10
18.3005304913451
20
2.47598204421323
30
0
41
1
10
18.3117028506786
20
2.43218833869341
30
0
0
SPLINE
5
10D
100
AcDbEntity
8
1
62
256
6
ByLayer
370
18
48
1
60
0
100
AcDbSpline
70
4
71
3
72
24
73
20
40
0
40
0
40
0
40
0
40
0.124999999999999
40
0.124999999999999
40
0.187499999999998
40
0.187499999999998
40
0.249999999999998
40
0.249999999999998
40
0.374999999999997
40
0.374999999999997
40
0.499999999999996
40
0.499999999999996
40
0.624999999999995
40
0.624999999999995
40
0.687499999999996
40
0.687499999999996
40
0.749999999999996
40
0.749999999999996
40
1
40
1
40
1
40
1
41
1
10
15.1402799407682
20
1.88521359520701
30
0
41
1
10
15.1384617112271
20
1.86602694977057
30
0
41
1
10
15.1383291038931
20
1.84686785166446
30
0
41
1
10
15.1406273980896
20
1.81817034503013
30
0
41
1
10
15.1418181908522
20
1.80857645991264
30
0
41
1
10
15.1450334522134
20
1.78955922153244
30
0
41
1
10
15.1470389634207
20
1.78022725765999
30
0
41
1
10
15.1541851613335
20
1.75273425089014
30
0
41
1
10
15.1604478931737
20
1.7350726097221
30
0
41
1
10
15.1758461920587
20
1.70103732232855
30
0
41
1
10
15.1850865545073
20
1.68455878474614
30
0
41
1
10
15.205590563066
20
1.65420040112659
30
0
41
1
10
15.2169081229165
20
1.64014912489688
30
0
41
1
10
15.2353659375266
20
1.62066065652849
30
0
41
1
10
15.2417668297198
20
1.61443069617869
30
0
41
1
10
15.2550606435914
20
1.60250190236999
30
0
41
1
10
15.2619803069616
20
1.59678575730521
30
0
41
1
10
15.297196900698
20
1.56999851680734
30
0
41
1
10
15.3276381649613
20
1.55382774062727
30
0
41
1
10
15.3600803729372
20
1.542506617002
30
0
0
SPLINE
5
10E
100
AcDbEntity
8
1
62
256
6
ByLayer
370
18
48
1
60
0
100
AcDbSpline
70
4
71
3
72
17
73
13
40
0
40
0
40
0
40
0
40
0.25
40
0.25
40
0.5
40
0.5
40
0.5625
40
0.5625
40
0.625
40
0.750000000000001
40
0.750000000000001
40
1
40
1
40
1
40
1
41
1
10
15.8599591157997
20
0.468944907184124
30
0
41
1
10
15.8743219263567
20
0.506701572631954
30
0
41
1
10
15.8859087013619
20
0.545439305066083
30
0
41
1
10
15.9034179693674
20
0.625076830994914
30
0
41
1
10
15.909347121776
20
0.665972512369621
30
0
41
1
10
15.9128325354923
20
0.718737083565941
30
0
41
1
10
15.9133320686711
20
0.729398075885456
30
0
41
1
10
15.9139152808466
20
0.750749064075052
30
0
41
1
10
15.9141692910688
20
0.782816403432918
30
0
41
1
10
15.9125521372787
20
0.81501907232996
30
0
41
1
10
15.9067444222304
20
0.879644040811371
30
0
41
1
10
15.8994695086549
20
0.923017955786577
30
0
41
1
10
15.8882971493213
20
0.966811661306622
30
0
0
SPLINE
5
10F
100
AcDbEntity
8
1
62
256
6
ByLayer
370
18
48
1
60
0
100
AcDbSpline
70
4
71
3
72
18
73
14
40
0
40
0
40
0
40
0
40
0.249999999999999
40
0.249999999999999
40
0.374999999999998
40
0.374999999999998
40
0.437499999999998
40
0.437499999999998
40
0.499999999999998
40
0.499999999999998
40
0.749999999999999
40
0.749999999999999
40
1
40
1
40
1
40
1
41
1
10
15.7593496019353
20
1.24374512052088
30
0
41
1
10
15.73301944532
20
1.28048987362558
30
0
41
1
10
15.7045231576817
20
1.31395084599129
30
0
41
1
10
15.6588664755472
20
1.35993501931827
30
0
41
1
10
15.6431580911846
20
1.37455596567975
30
0
41
1
10
15.6188727160109
20
1.3954718911865
30
0
41
1
10
15.6106569435009
20
1.40227435022393
30
0
41
1
10
15.5939839508171
20
1.41554472312299
30
0
41
1
10
15.5855072918091
20
1.42202655128941
30
0
41
1
10
15.5428028213812
20
1.45339924988096
30
0
41
1
10
15.5076386509482
20
1.47521988573743
30
0
41
1
10
15.4353504453827
20
1.51312205171627
30
0
41
1
10
15.3982252431275
20
1.52919547642196
30
0
41
1
10
15.3600803729372
20
1.542506617002
30
0
0
SPLINE
5
110
100
AcDbEntity
8
1
62
256
6
ByLayer
370
18
48
1
60
0
100
AcDbSpline
70
4
71
3
72
24
73
20
40
0
40
0
40
0
40
0
40
0.250000000000003
40
0.250000000000003
40
0.312500000000004
40
0.312500000000004
40
0.375000000000004
40
0.375000000000004
40
0.500000000000003
40
0.500000000000003
40
0.625000000000002
40
0.625000000000002
40
0.750000000000001
40
0.750000000000001
40
0.812500000000001
40
0.812500000000001
40
0.875
40
0.875
40
1
40
1
40
1
40
1
41
1
10
15.8599591157997
20
0.468944907184124
30
0
41
1
10
15.8477421941119
20
0.436829310926783
30
0
41
1
10
15.8405247269164
20
0.403123632777607
30
0
41
1
10
15.838358684136
20
0.358930047422234
30
0
41
1
10
15.8382795852664
20
0.349955093443157
30
0
41
1
10
15.8388524903918
20
0.332103107875724
30
0
41
1
10
15.8395005312347
20
0.323194467693526
30
0
41
1
10
15.8425352586142
20
0.296524601753504
30
0
41
1
10
15.8460045568346
20
0.278818967212203
30
0
41
1
10
15.856041274384
20
0.243586735891938
30
0
41
1
10
15.8627051921403
20
0.22590853747775
30
0
41
1
10
15.8788421969426
20
0.192217211108414
30
0
41
1
10
15.8883281089056
20
0.176056367903868
30
0
41
1
10
15.9047695671987
20
0.152891480357226
30
0
41
1
10
15.9106207107907
20
0.145350144693992
30
0
41
1
10
15.9231055826128
20
0.130649082255644
30
0
41
1
10
15.9296815701312
20
0.123562686330473
30
0
41
1
10
15.9501651890589
20
0.103332748147949
30
0
41
1
10
15.9649134674676
20
0.0911025842518711
30
0
41
1
10
15.9807677702847
20
0.0801447375678777
30
0
0
SPLINE
5
111
100
AcDbEntity
8
1
62
256
6
ByLayer
370
35
48
1
60
0
100
AcDbSpline
70
4
71
2
72
6
73
3
40
0
40
0
40
0
40
1
40
1
40
1
41
0.988258297047508
10
13.6012791826674
20
7.98778727058349
30
0
41
0.753292107064928
10
13.6214419516143
20
8.16520327716595
30
0
41
1.03186391735993
10
13.8
20
8.16520327716594
30
0
0
SPLINE
5
112
100
AcDbEntity
8
SK1
62
256
6
ByLayer
370
18
48
1
60
0
100
AcDbSpline
70
4
71
3
72
42
73
38
40
0
40
0
40
0
40
0
40
0.0004649681544267
40
0.0004649681544267
40
0.125406847135124
40
0.125406847135124
40
0.25034872611582
40
0.25034872611582
40
0.375290605096518
40
0.375290605096518
40
0.500232484077214
40
0.500232484077214
40
0.625174363057911
40
0.625174363057911
40
0.656409832803085
40
0.656409832803085
40
0.687645302548259
40
0.687645302548259
40
0.750116242038607
40
0.750116242038607
40
0.781351711783781
40
0.781351711783781
40
0.812587181528955
40
0.812587181528955
40
0.843822651274129
40
0.843822651274129
40
0.875058121019304
40
0.875058121019304
40
0.906293590764478
40
0.906293590764478
40
0.937529060509652
40
0.937529060509652
40
0.968764530254826
40
0.968764530254826
40
0.984382265127413
40
0.984382265127413
40
1
40
1
40
1
40
1
41
1
10
-37.1507820920868
20
-3.37499868813319
30
0
41
1
10
-37.1507820337059
20
-3.37499968652775
30
0
41
1
10
-37.150781971558
20
-3.37500068469253
30
0
41
1
10
-37.1507808035125
20
-3.37501933676055
30
0
41
1
10
-37.1509086508489
20
-3.37263670366258
30
0
41
1
10
-37.1516727685263
20
-3.36314797671454
30
0
41
1
10
-37.1523084612743
20
-3.35605356957785
30
0
41
1
10
-37.1548365021344
20
-3.33726517175074
30
0
41
1
10
-37.1567249617846
20
-3.32557063880151
30
0
41
1
10
-37.1630526937416
20
-3.29764391727366
30
0
41
1
10
-37.1674773256441
20
-3.28141094170704
30
0
41
1
10
-37.1809590090204
20
-3.24445030337552
30
0
41
1
10
-37.189964147643
20
-3.22372056776709
30
0
41
1
10
-37.2064390734747
20
-3.19503742880542
30
0
41
1
10
-37.2100019026165
20
-3.18916241045997
30
0
41
1
10
-37.2177598146238
20
-3.17713758816566
30
0
41
1
10
-37.2219639256434
20
-3.17097559436007
30
0
41
1
10
-37.2356147622684
20
-3.15220714270348
30
0
41
1
10
-37.2460847245826
20
-3.13930275549555
30
0
41
1
10
-37.2646730712017
20
-3.11951750377571
30
0
41
1
10
-37.2713740366819
20
-3.11283385876894
30
0
41
1
10
-37.285830669235
20
-3.09948147347021
30
0
41
1
10
-37.2935857525637
20
-3.09280947389638
30
0
41
1
10
-37.3103600939093
20
-3.07955187467397
30
0
41
1
10
-37.3193774432844
20
-3.07296571692353
30
0
41
1
10
-37.3389807264066
20
-3.05998668828195
30
0
41
1
10
-37.3495622351403
20
-3.05359254280515
30
0
41
1
10
-37.3727808698846
20
-3.04115908273545
30
0
41
1
10
-37.3855366408268
20
-3.03507342387968
30
0
41
1
10
-37.4129896346891
20
-3.02390458356047
30
0
41
1
10
-37.4277392480273
20
-3.01877859207013
30
0
41
1
10
-37.4598574657061
20
-3.00993362507381
30
0
41
1
10
-37.4766890886561
20
-3.00636678669261
30
0
41
1
10
-37.5033280748665
20
-3.00263098952044
30
0
41
1
10
-37.5124785340208
20
-3.00165378724805
30
0
41
1
10
-37.5311473099661
20
-3.00033496312344
30
0
41
1
10
-37.5405424252856
20
-2.99999999999983
30
0
41
1
10
-37.5499999999998
20
-2.99999999999992
30
0
0
SPLINE
5
113
100
AcDbEntity
8
SK1
62
256
6
ByLayer
370
18
48
1
60
0
100
AcDbSpline
70
4
71
3
72
43
73
39
40
0
40
0
40
0
40
0
40
0.0312055498756659
40
0.0312055498756659
40
0.0468083248134988
40
0.0468083248134988
40
0.0624110997513317
40
0.0624110997513317
40
0.0780138746891646
40
0.0780138746891646
40
0.0936166496269975
40
0.0936166496269975
40
0.124822199502663
40
0.124822199502663
40
0.140424974440496
40
0.140424974440496
40
0.156027749378329
40
0.156027749378329
40
0.187233299253995
40
0.187233299253995
40
0.249644399005327
40
0.249644399005327
40
0.312055498756658
40
0.312055498756658
40
0.374466598507989
40
0.374466598507989
40
0.436877698259321
40
0.436877698259321
40
0.499288798010652
40
0.499288798010652
40
0.624110997513315
40
0.624110997513315
40
0.748933197015977
40
0.748933197015977
40
0.87375539651864
40
0.998577596021303
40
0.998577596021303
40
1
40
1
40
1
40
1
41
1
10
-37.5499999999998
20
2.99999999999986
30
0
41
1
10
-37.5312396553144
20
2.99999999999997
30
0
41
1
10
-37.5129886319104
20
3.00131094481512
30
0
41
1
10
-37.4862926995883
20
3.00500369508398
30
0
41
1
10
-37.4774999746388
20
3.0065305281569
30
0
41
1
10
-37.4605968982003
20
3.01002363617974
30
0
41
1
10
-37.4524205960598
20
3.01199755505118
30
0
41
1
10
-37.4365547672806
20
3.0163363236729
30
0
41
1
10
-37.4288295907699
20
3.01871412489783
30
0
41
1
10
-37.4140154820953
20
3.02374291034502
30
0
41
1
10
-37.4069349526943
20
3.02638758676733
30
0
41
1
10
-37.3865250979883
20
3.03463534826065
30
0
41
1
10
-37.3740202116974
20
3.04054869606657
30
0
41
1
10
-37.3565395032699
20
3.04983351437343
30
0
41
1
10
-37.3509125178568
20
3.05300784259717
30
0
41
1
10
-37.3401253040217
20
3.05942402487372
30
0
41
1
10
-37.3349716468463
20
3.06266060717371
30
0
41
1
10
-37.3201357678616
20
3.07242913860807
30
0
41
1
10
-37.3110742947205
20
3.07901874028752
30
0
41
1
10
-37.2858495466303
20
3.09886483947528
30
0
41
1
10
-37.2716173400617
20
3.11219607668684
30
0
41
1
10
-37.2467478068391
20
3.13853086038338
30
0
41
1
10
-37.2363120328142
20
3.15133401662328
30
0
41
1
10
-37.2182034138477
20
3.17606711393029
30
0
41
1
10
-37.2105438347647
20
3.18799845562185
30
0
41
1
10
-37.1972732186671
20
3.21089960162521
30
0
41
1
10
-37.1916672426108
20
3.22186996398838
30
0
41
1
10
-37.1820106096291
20
3.24278523185757
30
0
41
1
10
-37.1779592933946
20
3.25273852018358
30
0
41
1
10
-37.1676076149272
20
3.28093284637248
30
0
41
1
10
-37.163126365469
20
3.29734968958664
30
0
41
1
10
-37.1567345140735
20
3.32549796712712
30
0
41
1
10
-37.1548419272923
20
3.33722960933642
30
0
41
1
10
-37.1523101608526
20
3.35603619432987
30
0
41
1
10
-37.151041591873
20
3.37018615791362
30
0
41
1
10
-37.1507832402924
20
3.37498042469289
30
0
41
1
10
-37.1507819608493
20
3.37500110101082
30
0
41
1
10
-37.1507820185799
20
3.37499985625636
30
0
41
1
10
-37.1507820678238
20
3.37499885736902
30
0
0
SPLINE
5
114
100
AcDbEntity
8
1
62
256
6
ByLayer
370
18
48
1
60
0
100
AcDbSpline
70
4
71
3
72
24
73
20
40
0
40
0
40
0
40
0
40
0.0625000000000011
40
0.0625000000000011
40
0.125000000000002
40
0.125000000000002
40
0.250000000000005
40
0.250000000000005
40
0.312500000000005
40
0.312500000000005
40
0.375000000000005
40
0.375000000000005
40
0.500000000000004
40
0.500000000000004
40
0.625000000000004
40
0.625000000000004
40
0.750000000000003
40
0.750000000000003
40
1
40
1
40
1
40
1
41
1
10
15.1402799407682
20
1.88521359520701
30
0
41
1
10
15.1411659473467
20
1.89456307154669
30
0
41
1
10
15.1424622578659
20
1.90395962003916
30
0
41
1
10
15.1458560677946
20
1.9225751727306
30
0
41
1
10
15.1479387531872
20
1.93173496218435
30
0
41
1
10
15.1553020261907
20
1.95878623604659
30
0
41
1
10
15.1616902517326
20
1.97625259715679
30
0
41
1
10
15.1734723242879
20
2.00160555959451
30
0
41
1
10
15.1777798577048
20
2.0099263163271
30
0
41
1
10
15.1869540263044
20
2.02596312574099
30
0
41
1
10
15.191838424676
20
2.03372157733781
30
0
41
1
10
15.2073476845264
20
2.05624593408874
30
0
41
1
10
15.2188232885491
20
2.07026562109886
30
0
41
1
10
15.2439982807964
20
2.09633853691844
30
0
41
1
10
15.2573678924213
20
2.10805136153493
30
0
41
1
10
15.2855043122269
20
2.12904937051718
30
0
41
1
10
15.3003248578902
20
2.13836080774141
30
0
41
1
10
15.3465007618278
20
2.16254193295836
30
0
41
1
10
15.378533387736
20
2.17326551865597
30
0
41
1
10
15.411619580911
20
2.17908739327674
30
0
0
LINE
5
74
100
AcDbEntity
8
1
62
256
6
ByLayer
370
18
48
1
60
1
100
AcDbLine
10
0
20
0
30
0
11
0
21
297
31
0
39
0
210
0
220
0
230
1
0
LINE
5
76
100
AcDbEntity
8
1
62
256
6
ByLayer
370
18
48
1
60
1
100
AcDbLine
10
420
20
297
30
0
11
0
21
297
31
0
39
0
210
0
220
0
230
1
0
LINE
5
77
100
AcDbEntity
8
1
62
256
6
ByLayer
370
18
48
1
60
1
100
AcDbLine
10
420
20
297
30
0
11
420
21
0
31
0
39
0
210
0
220
0
230
1
0
LINE
5
78
100
AcDbEntity
8
1
62
256
6
ByLayer
370
18
48
1
60
1
100
AcDbLine
10
0
20
0
30
0
11
420
21
0
31
0
39
0
210
0
220
0
230
1
0
LINE
5
79
100
AcDbEntity
8
1
62
256
6
ByLayer
370
18
48
1
60
0
100
AcDbLine
10
20.418649
20
3.445659
30
0
11
20.418649
21
7.9875
31
0
39
0
210
0
220
0
230
1
0
LINE
5
7A
100
AcDbEntity
8
1
62
256
6
ByLayer
370
18
48
1
60
0
100
AcDbLine
10
1.6
20
7.9875
30
0
11
2.6
21
7.9875
31
0
39
0
210
0
220
0
230
1
0
LINE
5
7B
100
AcDbEntity
8
1
62
256
6
ByLayer
370
18
48
1
60
0
100
AcDbLine
10
1.6
20
-7.9875
30
0
11
1.6
21
7.9875
31
0
39
0
210
0
220
0
230
1
0
LINE
5
7C
100
AcDbEntity
8
1
62
256
6
ByLayer
370
18
48
1
60
0
100
AcDbLine
10
2.6
20
-7.9875
30
0
11
1.6
21
-7.9875
31
0
39
0
210
0
220
0
230
1
0
LINE
5
7D
100
AcDbEntity
8
1
62
256
6
ByLayer
370
18
48
1
60
0
100
AcDbLine
10
2.6
20
7.9875
30
0
11
2.6
21
-7.9875
31
0
39
0
210
0
220
0
230
1
0
LINE
5
7E
100
AcDbEntity
8
1
62
256
6
ByLayer
370
35
48
1
60
0
100
AcDbLine
10
30.939893
20
6.3625
30
0
11
28.263214
21
6.3625
31
0
39
0
210
0
220
0
230
1
0
LINE
5
7F
100
AcDbEntity
8
1
62
256
6
ByLayer
370
35
48
1
60
0
100
AcDbLine
10
31.532822
20
8.078575
30
0
11
31.187522
21
7.9927
31
0
39
0
210
0
220
0
230
1
0
LINE
5
80
100
AcDbEntity
8
1
62
256
6
ByLayer
370
35
48
1
60
0
100
AcDbLine
10
28.30267
20
7.788484
30
0
11
28.726524
21
7.530498
31
0
39
0
210
0
220
0
230
1
0
LINE
5
81
100
AcDbEntity
8
1
62
256
6
ByLayer
370
35
48
1
60
0
100
AcDbLine
10
29.821739
20
7.363256
30
0
11
29.865948
21
7.359835
31
0
39
0
210
0
220
0
230
1
0
LINE
5
82
100
AcDbEntity
8
1
62
256
6
ByLayer
370
35
48
1
60
0
100
AcDbLine
10
29.865948
20
6.965165
30
0
11
29.821739
21
6.961744
31
0
39
0
210
0
220
0
230
1
0
LINE
5
83
100
AcDbEntity
8
1
62
256
6
ByLayer
370
35
48
1
60
0
100
AcDbLine
10
28.726524
20
6.794502
30
0
11
28.30267
21
6.536516
31
0
39
0
210
0
220
0
230
1
0
LINE
5
84
100
AcDbEntity
8
1
62
256
6
ByLayer
370
35
48
1
60
0
100
AcDbLine
10
31.187522
20
6.3323
30
0
11
31.532822
21
6.246425
31
0
39
0
210
0
220
0
230
1
0
LINE
5
85
100
AcDbEntity
8
1
62
256
6
ByLayer
370
35
48
1
60
0
100
AcDbLine
10
31.532822
20
6.246425
30
0
11
31.532822
21
8.078575
31
0
39
0
210
0
220
0
230
1
0
LINE
5
86
100
AcDbEntity
8
1
62
256
6
ByLayer
370
35
48
1
60
0
100
AcDbLine
10
28.263214
20
7.9625
30
0
11
28.263214
21
7.837938
31
0
39
0
210
0
220
0
230
1
0
LINE
5
87
100
AcDbEntity
8
1
62
256
6
ByLayer
370
35
48
1
60
0
100
AcDbLine
10
28.263214
20
7.9625
30
0
11
24.116742
21
7.9625
31
0
39
0
210
0
220
0
230
1
0
LINE
5
88
100
AcDbEntity
8
1
62
256
6
ByLayer
370
35
48
1
60
0
100
AcDbLine
10
28.263214
20
6.487062
30
0
11
28.263214
21
6.3625
31
0
39
0
210
0
220
0
230
1
0
LINE
5
89
100
AcDbEntity
8
1
62
256
6
ByLayer
370
35
48
1
60
0
100
AcDbLine
10
28.263214
20
6.487062
30
0
11
27.479211
21
6.487062
31
0
39
0
210
0
220
0
230
1
0
LINE
5
8A
100
AcDbEntity
8
1
62
256
6
ByLayer
370
35
48
1
60
0
100
AcDbLine
10
27.479211
20
6.3625
30
0
11
28.263214
21
6.3625
31
0
39
0
210
0
220
0
230
1
0
LINE
5
8B
100
AcDbEntity
8
1
62
256
6
ByLayer
370
35
48
1
60
0
100
AcDbLine
10
24.32105
20
7.837938
30
0
11
28.263214
21
7.837938
31
0
39
0
210
0
220
0
230
1
0
LINE
5
8C
100
AcDbEntity
8
1
62
256
6
ByLayer
370
35
48
1
60
0
100
AcDbLine
10
28.30267
20
7.788484
30
0
11
27.479115
21
7.788484
31
0
39
0
210
0
220
0
230
1
0
LINE
5
8D
100
AcDbEntity
8
1
62
256
6
ByLayer
370
18
48
1
60
0
100
AcDbLine
10
24.093986
20
7.9875
30
0
11
31.165441
21
7.9875
31
0
39
0
210
0
220
0
230
1
0
LINE
5
8E
100
AcDbEntity
8
1
62
256
6
ByLayer
370
18
48
1
60
0
100
AcDbLine
10
27.495699
20
6.1375
30
0
11
27.479239
21
6.1375
31
0
39
0
210
0
220
0
230
1
0
LINE
5
8F
100
AcDbEntity
8
1
62
256
6
ByLayer
370
18
48
1
60
0
100
AcDbLine
10
33.1
20
6.1375
30
0
11
33.1
21
6.17068
31
0
39
0
210
0
220
0
230
1
0
LINE
5
90
100
AcDbEntity
8
1
62
256
6
ByLayer
370
18
48
1
60
0
100
AcDbLine
10
33.1
20
6.1375
30
0
11
28.414095
21
6.1375
31
0
39
0
210
0
220
0
230
1
0
LINE
5
91
100
AcDbEntity
8
1
62
256
6
ByLayer
370
18
48
1
60
0
100
AcDbLine
10
28.414095
20
6.1375
30
0
11
28.411958
21
6.362504
31
0
39
0
210
0
220
0
230
1
0
LINE
5
92
100
AcDbEntity
8
1
62
256
6
ByLayer
370
18
48
1
60
0
100
AcDbLine
10
27.495699
20
6.1375
30
0
11
27.493562
21
6.362504
31
0
39
0
210
0
220
0
230
1
0
LINE
5
93
100
AcDbEntity
8
1
62
256
6
ByLayer
370
18
48
1
60
0
100
AcDbLine
10
28.414095
20
6.1375
30
0
11
27.495699
21
6.1375
31
0
39
0
210
0
220
0
230
1
0
LINE
5
94
100
AcDbEntity
8
1
62
256
6
ByLayer
370
18
48
1
60
0
100
AcDbLine
10
24.034784
20
-0.251006
30
0
11
31.414488
21
4.009668
31
0
39
0
210
0
220
0
230
1
0
LINE
5
95
100
AcDbEntity
8
1
62
256
6
ByLayer
370
18
48
1
60
0
100
AcDbLine
10
31.414488
20
4.009668
30
0
11
31.414488
21
5.7375
31
0
39
0
210
0
220
0
230
1
0
LINE
5
96
100
AcDbEntity
8
1
62
256
6
ByLayer
370
18
48
1
60
0
100
AcDbLine
10
24.027291
20
5.7375
30
0
11
31.414488
21
5.7375
31
0
39
0
210
0
220
0
230
1
0
LINE
5
97
100
AcDbEntity
8
SK1
62
256
6
ByLayer
370
18
48
1
60
0
100
AcDbLine
10
-35.9
20
-5.509222
30
0
11
-36.4
21
-5.013566
31
0
39
0
210
0
220
0
230
1
0
LINE
5
99
100
AcDbEntity
8
SK1
62
256
6
ByLayer
370
18
48
1
60
0
100
AcDbLine
10
-36.4
20
5.013566
30
0
11
-35.9
21
5.509222
31
0
39
0
210
0
220
0
230
1
0
LINE
5
9A
100
AcDbEntity
8
SK1
62
256
6
ByLayer
370
18
48
1
60
0
100
AcDbLine
10
-36.4
20
-5.013566
30
0
11
-36.4
21
5.013566
31
0
39
0
210
0
220
0
230
1
0
LINE
5
9B
100
AcDbEntity
8
SK1
62
256
6
ByLayer
370
18
48
1
60
0
100
AcDbLine
10
-33.4
20
7.9875
30
0
11
0
21
7.9875
31
0
39
0
210
0
220
0
230
1
0
LINE
5
9C
100
AcDbEntity
8
SK1
62
256
6
ByLayer
370
18
48
1
60
0
100
AcDbLine
10
0
20
-7.9875
30
0
11
-33.4
21
-7.9875
31
0
39
0
210
0
220
0
230
1
0
LINE
5
9D
100
AcDbEntity
8
SK1
62
256
6
ByLayer
370
18
48
1
60
0
100
AcDbLine
10
-35.9
20
-5.509222
30
0
11
-33.4
21
-7.9875
31
0
39
0
210
0
220
0
230
1
0
LINE
5
9E
100
AcDbEntity
8
SK1
62
256
6
ByLayer
370
18
48
1
60
0
100
AcDbLine
10
-35.9
20
5.509222
30
0
11
-33.4
21
7.9875
31
0
39
0
210
0
220
0
230
1
0
LINE
5
9F
100
AcDbEntity
8
SK1
62
256
6
ByLayer
370
18
48
1
60
0
100
AcDbLine
10
-35.9
20
5.509222
30
0
11
-35.9
21
-5.509222
31
0
39
0
210
0
220
0
230
1
0
LINE
5
A0
100
AcDbEntity
8
1
62
256
6
ByLayer
370
18
48
1
60
0
100
AcDbLine
10
1.6
20
7.9875
30
0
11
0
21
7.9875
31
0
39
0
210
0
220
0
230
1
0
LINE
5
A1
100
AcDbEntity
8
1
62
256
6
ByLayer
370
18
48
1
60
0
100
AcDbLine
10
1.6
20
-7.9875
30
0
11
0
21
-7.9875
31
0
39
0
210
0
220
0
230
1
0
LINE
5
A2
100
AcDbEntity
8
1
62
256
6
ByLayer
370
18
48
1
60
0
100
AcDbLine
10
0
20
7.9875
30
0
11
0
21
-7.9875
31
0
39
0
210
0
220
0
230
1
0
LINE
5
A3
100
AcDbEntity
8
1
62
256
6
ByLayer
370
18
48
1
60
0
100
AcDbLine
10
2.6
20
7.9875
30
0
11
20.418649
21
7.9875
31
0
39
0
210
0
220
0
230
1
0
LINE
5
A4
100
AcDbEntity
8
1
62
256
6
ByLayer
370
18
48
1
60
0
100
AcDbLine
10
10.634782
20
-7.9875
30
0
11
20.418649
21
-2.338782
31
0
39
0
210
0
220
0
230
1
0
LINE
5
A5
100
AcDbEntity
8
1
62
256
6
ByLayer
370
18
48
1
60
0
100
AcDbLine
10
10.634782
20
-7.9875
30
0
11
2.6
21
-7.9875
31
0
39
0
210
0
220
0
230
1
0
LINE
5
A6
100
AcDbEntity
8
1
62
256
6
ByLayer
370
18
48
1
60
0
100
AcDbLine
10
20.418649
20
-2.338782
30
0
11
24.034693
21
-0.251058
31
0
39
0
210
0
220
0
230
1
0
LINE
5
A7
100
AcDbEntity
8
1
62
256
6
ByLayer
370
18
48
1
60
0
100
AcDbLine
10
20.418649
20
-2.338782
30
0
11
20.418649
21
-0.046659
31
0
39
0
210
0
220
0
230
1
0
LINE
5
A8
100
AcDbEntity
8
1
62
256
6
ByLayer
370
18
48
1
60
0
100
AcDbLine
10
24.034693
20
5.7375
30
0
11
24.034693
21
-0.251058
31
0
39
0
210
0
220
0
230
1
0
LINE
5
A9
100
AcDbEntity
8
1
62
256
6
ByLayer
370
18
48
1
60
0
100
AcDbLine
10
27.479261
20
6.1375
30
0
11
27.479261
21
7.8375
31
0
39
0
210
0
220
0
230
1
0
LINE
5
AA
100
AcDbEntity
8
1
62
256
6
ByLayer
370
18
48
1
60
0
100
AcDbLine
10
27.479261
20
7.8375
30
0
11
24.323314
21
7.8375
31
0
39
0
210
0
220
0
230
1
0
LINE
5
AB
100
AcDbEntity
8
1
62
256
6
ByLayer
370
35
48
1
60
0
100
AcDbLine
10
33.155806
20
8.157742
30
0
11
32.133378
21
8.095208
31
0
39
0
210
0
220
0
230
1
0
LINE
5
AC
100
AcDbEntity
8
1
62
256
6
ByLayer
370
35
48
1
60
0
100
AcDbLine
10
32.133378
20
6.229792
30
0
11
33.155806
21
6.167258
31
0
39
0
210
0
220
0
230
1
0
LINE
5
AD
100
AcDbEntity
8
1
62
256
6
ByLayer
370
35
48
1
60
0
100
AcDbLine
10
33.6
20
6.359797
30
0
11
33.6
21
7.965203
31
0
39
0
210
0
220
0
230
1
0
LINE
5
AE
100
AcDbEntity
8
1
62
256
6
ByLayer
370
35
48
1
60
0
100
AcDbLine
10
15.624379
20
8.087621
30
0
11
15.667178
21
8.078575
31
0
39
0
210
0
220
0
230
1
0
LINE
5
AF
100
AcDbEntity
8
1
62
256
6
ByLayer
370
35
48
1
60
0
100
AcDbLine
10
15.066622
20
7.98748
30
0
11
15.066622
21
8.095208
31
0
39
0
210
0
220
0
230
1
0
LINE
5
B0
100
AcDbEntity
8
1
62
256
6
ByLayer
370
35
48
1
60
0
100
AcDbLine
10
15.066622
20
8.095208
30
0
11
15.584472
21
8.091898
31
0
39
0
210
0
220
0
230
1
0
LINE
5
B1
100
AcDbEntity
8
1
62
256
6
ByLayer
370
35
48
1
60
0
100
AcDbLine
10
31.575621
20
8.087621
30
0
11
31.532822
21
8.078575
31
0
39
0
210
0
220
0
230
1
0
LINE
5
B2
100
AcDbEntity
8
1
62
256
6
ByLayer
370
35
48
1
60
0
100
AcDbLine
10
31.532822
20
6.246425
30
0
11
31.575621
21
6.237379
31
0
39
0
210
0
220
0
230
1
0
LINE
5
B3
100
AcDbEntity
8
1
62
256
6
ByLayer
370
35
48
1
60
0
100
AcDbLine
10
31.615528
20
6.233102
30
0
11
32.133378
21
6.229792
31
0
39
0
210
0
220
0
230
1
0
LINE
5
B4
100
AcDbEntity
8
1
62
256
6
ByLayer
370
35
48
1
60
0
100
AcDbLine
10
32.133378
20
6.229792
30
0
11
32.133378
21
8.095208
31
0
39
0
210
0
220
0
230
1
0
LINE
5
B5
100
AcDbEntity
8
1
62
256
6
ByLayer
370
35
48
1
60
0
100
AcDbLine
10
32.133378
20
8.095208
30
0
11
31.615528
21
8.091898
31
0
39
0
210
0
220
0
230
1
0
LINE
5
B6
100
AcDbEntity
8
1
62
256
6
ByLayer
370
35
48
1
60
0
100
AcDbLine
10
30.516013
20
7.1625
30
0
11
27.479235
21
7.1625
31
0
39
0
210
0
220
0
230
1
0
LINE
5
B7
100
AcDbEntity
8
1
62
256
6
ByLayer
370
35
48
1
60
0
100
AcDbLine
10
27.479209
20
7.359835
30
0
11
29.865948
21
7.359835
31
0
39
0
210
0
220
0
230
1
0
LINE
5
B8
100
AcDbEntity
8
1
62
256
6
ByLayer
370
35
48
1
60
0
100
AcDbLine
10
29.865948
20
6.965165
30
0
11
27.479209
21
6.965165
31
0
39
0
210
0
220
0
230
1
0
LINE
5
B9
100
AcDbEntity
8
1
62
256
6
ByLayer
370
35
48
1
60
0
100
AcDbLine
10
27.479254
20
6.961744
30
0
11
29.821739
21
6.961744
31
0
39
0
210
0
220
0
230
1
0
LINE
5
BA
100
AcDbEntity
8
1
62
256
6
ByLayer
370
35
48
1
60
0
100
AcDbLine
10
27.479254
20
7.363256
30
0
11
29.821739
21
7.363256
31
0
39
0
210
0
220
0
230
1
0
LINE
5
BB
100
AcDbEntity
8
1
62
256
6
ByLayer
370
35
48
1
60
0
100
AcDbLine
10
27.479202
20
7.413524
30
0
11
29.234281
21
7.413524
31
0
39
0
210
0
220
0
230
1
0
LINE
5
BC
100
AcDbEntity
8
1
62
256
6
ByLayer
370
35
48
1
60
0
100
AcDbLine
10
27.479202
20
6.911476
30
0
11
29.234281
21
6.911476
31
0
39
0
210
0
220
0
230
1
0
LINE
5
BD
100
AcDbEntity
8
1
62
256
6
ByLayer
370
35
48
1
60
0
100
AcDbLine
10
27.479177
20
7.530498
30
0
11
28.726524
21
7.530498
31
0
39
0
210
0
220
0
230
1
0
LINE
5
BE
100
AcDbEntity
8
1
62
256
6
ByLayer
370
35
48
1
60
0
100
AcDbLine
10
27.479177
20
6.794502
30
0
11
28.726524
21
6.794502
31
0
39
0
210
0
220
0
230
1
0
LINE
5
BF
100
AcDbEntity
8
1
62
256
6
ByLayer
370
35
48
1
60
0
100
AcDbLine
10
27.479115
20
6.536516
30
0
11
28.30267
21
6.536516
31
0
39
0
210
0
220
0
230
1
0
LINE
5
C0
100
AcDbEntity
8
1
62
256
6
ByLayer
370
35
48
1
60
0
100
AcDbLine
10
15.667178
20
7.987483
30
0
11
15.667178
21
8.078575
31
0
39
0
210
0
220
0
230
1
0
LINE
5
C1
100
AcDbEntity
8
1
62
256
6
ByLayer
370
35
48
1
60
0
100
AcDbLine
10
15.667178
20
8.078575
30
0
11
16.012478
21
7.9927
31
0
39
0
210
0
220
0
230
1
0
LINE
5
C2
100
AcDbEntity
8
1
62
256
6
ByLayer
370
35
48
1
60
0
100
AcDbLine
10
28.263214
20
7.9625
30
0
11
30.939893
21
7.9625
31
0
39
0
210
0
220
0
230
1
0
LINE
5
C3
100
AcDbEntity
8
1
62
256
6
ByLayer
370
35
48
1
60
0
100
AcDbLine
10
14.044194
20
8.157742
30
0
11
15.066622
21
8.095208
31
0
39
0
210
0
220
0
230
1
0
LINE
5
C4
100
AcDbEntity
8
SK1
62
256
6
ByLayer
370
18
48
1
60
0
100
AcDbLine
10
-58.15
20
-1.707051
30
0
11
-58.15
21
1.707051
31
0
39
0
210
0
220
0
230
1
0
LINE
5
C5
100
AcDbEntity
8
SK1
62
256
6
ByLayer
370
18
48
1
60
0
100
AcDbLine
10
-58.15
20
-1.707051
30
0
11
-57.15
21
-1.975
31
0
39
0
210
0
220
0
230
1
0
LINE
5
C6
100
AcDbEntity
8
SK1
62
256
6
ByLayer
370
18
48
1
60
0
100
AcDbLine
10
-57.15
20
1.975
30
0
11
-58.15
21
1.707051
31
0
39
0
210
0
220
0
230
1
0
LINE
5
C7
100
AcDbEntity
8
SK1
62
256
6
ByLayer
370
18
48
1
60
0
100
AcDbLine
10
-57.15
20
1.975
30
0
11
-57.15
21
-1.975
31
0
39
0
210
0
220
0
230
1
0
LINE
5
C8
100
AcDbEntity
8
SK1
62
256
6
ByLayer
370
18
48
1
60
0
100
AcDbLine
10
-57.15
20
-1.975
30
0
11
-42.55
21
-1.975
31
0
39
0
210
0
220
0
230
1
0
LINE
5
C9
100
AcDbEntity
8
SK1
62
256
6
ByLayer
370
18
48
1
60
0
100
AcDbLine
10
-42.55
20
1.975
30
0
11
-57.15
21
1.975
31
0
39
0
210
0
220
0
230
1
0
LINE
5
CA
100
AcDbEntity
8
SK1
62
256
6
ByLayer
370
18
48
1
60
0
100
AcDbLine
10
-42.55
20
-1.975
30
0
11
-42.55
21
1.975
31
0
39
0
210
0
220
0
230
1
0
LINE
5
CB
100
AcDbEntity
8
SK1
62
256
6
ByLayer
370
18
48
1
60
0
100
AcDbLine
10
-42.15
20
3
30
0
11
-37.55
21
3
31
0
39
0
210
0
220
0
230
1
0
LINE
5
CC
100
AcDbEntity
8
SK1
62
256
6
ByLayer
370
18
48
1
60
0
100
AcDbLine
10
-42.15
20
3
30
0
11
-42.15
21
-3
31
0
39
0
210
0
220
0
230
1
0
LINE
5
CD
100
AcDbEntity
8
SK1
62
256
6
ByLayer
370
18
48
1
60
0
100
AcDbLine
10
-37.55
20
-3
30
0
11
-42.15
21
-3
31
0
39
0
210
0
220
0
230
1
0
LINE
5
CE
100
AcDbEntity
8
SK1
62
256
6
ByLayer
370
18
48
1
60
0
100
AcDbLine
10
-37.151325
20
-3.375
30
0
11
-36.399989
21
-3.375
31
0
39
0
210
0
220
0
230
1
0
LINE
5
CF
100
AcDbEntity
8
SK1
62
256
6
ByLayer
370
18
48
1
60
0
100
AcDbLine
10
-36.399989
20
3.375
30
0
11
-37.151325
21
3.375
31
0
39
0
210
0
220
0
230
1
0
LINE
5
D0
100
AcDbEntity
8
1
62
256
6
ByLayer
370
18
48
1
60
0
100
AcDbLine
10
20.418649
20
7.9875
30
0
11
24.093986
21
7.9875
31
0
39
0
210
0
220
0
230
1
0
LINE
5
D1
100
AcDbEntity
8
1
62
256
6
ByLayer
370
18
48
1
60
0
100
AcDbLine
10
24.323314
20
6.1375
30
0
11
27.479239
21
6.1375
31
0
39
0
210
0
220
0
230
1
0
LINE
5
D2
100
AcDbEntity
8
81
62
256
6
ByLayer
370
70
48
1
60
0
100
AcDbLine
10
33.6
20
8.1625
30
0
11
38.6
21
8.1625
31
0
39
0
210
0
220
0
230
1
0
LINE
5
D3
100
AcDbEntity
8
80
62
256
6
ByLayer
370
70
48
1
60
0
100
AcDbLine
10
0
20
0
30
0
11
-5
21
0
31
0
39
0
210
0
220
0
230
1
0
MTEXT
5
115
100
AcDbEntity
8
SK6
62
256
6
ByLayer
370
13
48
1
60
0
100
AcDbMText
10
-21.410865
20
-35.460544
30
0
210
0
220
0
230
1
1
\fMonospac821 BT|b0|i0;\W1.0000;C2R-QS16-RE11AD
40
3.5
41
0
44
1.072372
50
0
71
7
72
5
7
Monospac821 BT
0
DIMENSION
5
119
100
AcDbEntity
8
SK2
62
256
6
ByLayer
370
18
48
1
60
0
100
AcDbDimension
2
_U0
10
33.6
20
-22.674427
30
0
11
-1.4
21
-22.674427
31
0
70
32
71
1
72
1
41
1
210
0
220
0
230
1
3
Standard
100
AcDbAlignedDimension
13
-36.4
23
-5.013566
33
0
14
33.6
24
8.1625
34
0
50
0
100
AcDbRotatedDimension
1001
ACAD
1000
DSTYLE
1002
{
1070
   371
1070
    13
1070
   372
1070
    13
1070
   170
1070
     0
1070
   144
1040
1.0
1070
   277
1070
     2
1070
   284
1070
     8
1070
   278
1070
    46
1070
   146
1040
1.0
1070
   345
1005
16
1070
   347
1005
16
1070
   346
1005
16
1070
   344
1005
0
1070
   343
1005
0
1070
   172
1070
     1
1070
    76
1070
     0
1070
    75
1070
     0
1070
   282
1070
     0
1070
   281
1070
     0
1070
    71
1070
     0
1070
   272
1070
     4
1070
   271
1070
     4
1070
    74
1070
     0
1070
   279
1070
     0
1070
   173
1070
     1
1070
   340
1005
11A
1070
    77
1070
     1
1070
    73
1070
     1
1070
   171
1070
     4
1070
   274
1070
     4
1070
   177
1070
     7
1070
   176
1070
     7
1070
   178
1070
     7
1070
    78
1070
     8
1070
    41
1040
3.175
1070
   147
1040
1.75
1070
    42
1040
0.0
1070
    44
1040
2.0
1070
   140
1040
3.5
1002
}
1001
ACAD_DSTYLE_DIM_LINETYPE
1070
   380
1005
16
1001
ACAD_DSTYLE_DIM_EXT1_LINETYPE
1070
   381
1005
16
1001
ACAD_DSTYLE_DIM_EXT2_LINETYPE
1070
   382
1005
16
0
DIMENSION
5
135
100
AcDbEntity
8
2
62
256
6
ByLayer
370
18
48
1
60
0
100
AcDbDimension
2
_U1
10
48.208324
20
-7.9875
30
0
11
48.208324
21
0.0875
31
0
70
32
71
1
72
1
41
1
210
0
220
0
230
1
3
Standard
100
AcDbAlignedDimension
13
33.6
23
8.1625
33
0
14
10.634782
24
-7.9875
34
0
50
90
100
AcDbRotatedDimension
1001
ACAD
1000
DSTYLE
1002
{
1070
   371
1070
    13
1070
   372
1070
    13
1070
   170
1070
     0
1070
   144
1040
1.0
1070
   277
1070
     2
1070
   284
1070
     8
1070
   278
1070
    46
1070
   146
1040
1.0
1070
   345
1005
16
1070
   347
1005
16
1070
   346
1005
16
1070
   344
1005
0
1070
   343
1005
0
1070
   172
1070
     1
1070
    76
1070
     0
1070
    75
1070
     0
1070
   282
1070
     0
1070
   281
1070
     0
1070
    71
1070
     0
1070
   272
1070
     4
1070
   271
1070
     4
1070
    74
1070
     0
1070
   279
1070
     0
1070
   173
1070
     1
1070
   340
1005
11A
1070
    77
1070
     1
1070
    73
1070
     0
1070
   171
1070
     4
1070
   274
1070
     4
1070
   177
1070
     7
1070
   176
1070
     7
1070
   178
1070
     7
1070
    78
1070
     8
1070
    41
1040
3.175
1070
   147
1040
1.75
1070
    42
1040
0.0
1070
    44
1040
2.0
1070
   140
1040
3.5
1002
}
1001
ACAD_DSTYLE_DIM_LINETYPE
1070
   380
1005
16
1001
ACAD_DSTYLE_DIM_EXT1_LINETYPE
1070
   381
1005
16
1001
ACAD_DSTYLE_DIM_EXT2_LINETYPE
1070
   382
1005
16
0
DIMENSION
5
14F
100
AcDbEntity
8
2
62
256
6
ByLayer
370
18
48
1
60
0
100
AcDbDimension
2
_U2
10
0
20
15.892674
30
0
11
16.8
21
15.892674
31
0
70
32
71
1
72
1
41
1
210
0
220
0
230
1
3
Standard
100
AcDbAlignedDimension
13
33.6
23
8.1625
33
0
14
0
24
7.9875
34
0
50
0
100
AcDbRotatedDimension
1001
ACAD
1000
DSTYLE
1002
{
1070
   371
1070
    13
1070
   372
1070
    13
1070
   170
1070
     0
1070
   144
1040
1.0
1070
   277
1070
     2
1070
   284
1070
     8
1070
   278
1070
    46
1070
   146
1040
1.0
1070
   345
1005
16
1070
   347
1005
16
1070
   346
1005
16
1070
   344
1005
0
1070
   343
1005
0
1070
   172
1070
     1
1070
    76
1070
     0
1070
    75
1070
     0
1070
   282
1070
     0
1070
   281
1070
     0
1070
    71
1070
     0
1070
   272
1070
     4
1070
   271
1070
     4
1070
    74
1070
     0
1070
   279
1070
     0
1070
   173
1070
     1
1070
   340
1005
11A
1070
    77
1070
     1
1070
    73
1070
     1
1070
   171
1070
     4
1070
   274
1070
     4
1070
   177
1070
     7
1070
   176
1070
     7
1070
   178
1070
     7
1070
    78
1070
     8
1070
    41
1040
3.175
1070
   147
1040
1.75
1070
    42
1040
0.0
1070
    44
1040
2.0
1070
   140
1040
3.5
1002
}
1001
ACAD_DSTYLE_DIM_LINETYPE
1070
   380
1005
16
1001
ACAD_DSTYLE_DIM_EXT1_LINETYPE
1070
   381
1005
16
1001
ACAD_DSTYLE_DIM_EXT2_LINETYPE
1070
   382
1005
16
0
DIMENSION
5
167
100
AcDbEntity
8
SK2
62
256
6
ByLayer
370
18
48
1
60
0
100
AcDbDimension
2
_U3
10
-33.4
20
-16.525973
30
0
11
-18.883333
21
-16.525973
31
0
70
32
71
1
72
1
41
1
210
0
220
0
230
1
3
Standard
100
AcDbAlignedDimension
13
-36.4
23
-5.013566
33
0
14
-33.4
24
-7.9875
34
0
50
0
100
AcDbRotatedDimension
1001
ACAD
1000
DSTYLE
1002
{
1070
   371
1070
    13
1070
   372
1070
    13
1070
   170
1070
     0
1070
   144
1040
1.0
1070
   277
1070
     2
1070
   284
1070
     8
1070
   278
1070
    46
1070
   146
1040
1.0
1070
   345
1005
16
1070
   347
1005
16
1070
   346
1005
16
1070
   344
1005
0
1070
   343
1005
0
1070
   172
1070
     1
1070
    76
1070
     0
1070
    75
1070
     0
1070
   282
1070
     0
1070
   281
1070
     0
1070
    71
1070
     0
1070
   272
1070
     4
1070
   271
1070
     4
1070
    74
1070
     0
1070
   279
1070
     0
1070
   173
1070
     1
1070
   340
1005
11A
1070
    77
1070
     1
1070
    73
1070
     1
1070
   171
1070
     4
1070
   274
1070
     4
1070
   177
1070
     7
1070
   176
1070
     7
1070
   178
1070
     7
1070
    78
1070
     8
1070
    41
1040
3.175
1070
   147
1040
1.75
1070
    42
1040
0.0
1070
    44
1040
2.0
1070
   140
1040
3.5
1002
}
1001
ACAD_DSTYLE_DIM_LINETYPE
1070
   380
1005
16
1001
ACAD_DSTYLE_DIM_EXT1_LINETYPE
1070
   381
1005
16
1001
ACAD_DSTYLE_DIM_EXT2_LINETYPE
1070
   382
1005
16
0
DIMENSION
5
182
100
AcDbEntity
8
SK2
62
256
6
ByLayer
370
18
48
1
60
0
100
AcDbDimension
2
_U4
10
-33.4
20
15.892674
30
0
11
-18.883333
21
15.892674
31
0
70
32
71
1
72
1
41
1
210
0
220
0
230
1
3
Standard
100
AcDbAlignedDimension
13
-36.4
23
5.013566
33
0
14
-33.4
24
7.9875
34
0
50
0
100
AcDbRotatedDimension
1001
ACAD
1000
DSTYLE
1002
{
1070
   371
1070
    13
1070
   372
1070
    13
1070
   170
1070
     0
1070
   144
1040
1.0
1070
   277
1070
     2
1070
   284
1070
     8
1070
   278
1070
    46
1070
   146
1040
1.0
1070
   345
1005
16
1070
   347
1005
16
1070
   346
1005
16
1070
   344
1005
0
1070
   343
1005
0
1070
   172
1070
     1
1070
    76
1070
     0
1070
    75
1070
     0
1070
   282
1070
     0
1070
   281
1070
     0
1070
    71
1070
     0
1070
   272
1070
     4
1070
   271
1070
     4
1070
    74
1070
     0
1070
   279
1070
     0
1070
   173
1070
     1
1070
   340
1005
11A
1070
    77
1070
     1
1070
    73
1070
     1
1070
   171
1070
     4
1070
   274
1070
     4
1070
   177
1070
     7
1070
   176
1070
     7
1070
   178
1070
     7
1070
    78
1070
     8
1070
    41
1040
3.175
1070
   147
1040
1.75
1070
    42
1040
0.0
1070
    44
1040
2.0
1070
   140
1040
3.5
1002
}
1001
ACAD_DSTYLE_DIM_LINETYPE
1070
   380
1005
16
1001
ACAD_DSTYLE_DIM_EXT1_LINETYPE
1070
   381
1005
16
1001
ACAD_DSTYLE_DIM_EXT2_LINETYPE
1070
   382
1005
16
0
DIMENSION
5
19D
100
AcDbEntity
8
SK2
62
256
6
ByLayer
370
18
48
1
60
0
100
AcDbDimension
2
_U5
10
-63.187497
20
-7.9875
30
0
11
-63.187497
21
0
31
0
70
32
71
1
72
1
41
1
210
0
220
0
230
1
3
Standard
100
AcDbAlignedDimension
13
-33.4
23
7.9875
33
0
14
-33.4
24
-7.9875
34
0
50
90
100
AcDbRotatedDimension
1001
ACAD
1000
DSTYLE
1002
{
1070
   371
1070
    13
1070
   372
1070
    13
1070
   170
1070
     0
1070
   144
1040
1.0
1070
   277
1070
     2
1070
   284
1070
     8
1070
   278
1070
    46
1070
   146
1040
1.0
1070
   345
1005
16
1070
   347
1005
16
1070
   346
1005
16
1070
   344
1005
0
1070
   343
1005
0
1070
   172
1070
     1
1070
    76
1070
     0
1070
    75
1070
     0
1070
   282
1070
     0
1070
   281
1070
     0
1070
    71
1070
     0
1070
   272
1070
     4
1070
    74
1070
     0
1070
   279
1070
     0
1070
   173
1070
     1
1070
   340
1005
11A
1070
   271
1070
     0
1070
    77
1070
     1
1070
    73
1070
     0
1070
   171
1070
     4
1070
   274
1070
     4
1070
   177
1070
     7
1070
   176
1070
     7
1070
   178
1070
     7
1070
    78
1070
     8
1070
    41
1040
3.175
1070
   147
1040
1.75
1070
    42
1040
0.0
1070
    44
1040
2.0
1070
   140
1040
3.5
1002
}
1001
ACAD_DSTYLE_DIM_LINETYPE
1070
   380
1005
16
1001
ACAD_DSTYLE_DIM_EXT1_LINETYPE
1070
   381
1005
16
1001
ACAD_DSTYLE_DIM_EXT2_LINETYPE
1070
   382
1005
16
0
ENDSEC
0
SECTION
2
OBJECTS
0
DICTIONARY
5
225
330
0
100
AcDbDictionary
280
0
281
1
3
ACAD_GROUP
350
226
3
ACAD_MLINESTYLE
350
227
0
DICTIONARY
5
226
330
0
100
AcDbDictionary
280
0
281
1
0
DICTIONARY
5
227
330
0
100
AcDbDictionary
280
0
281
1
3
Standard
350
18
0
MLINESTYLE
5
18
330
227
100
AcDbMlineStyle
2
Standard
70
0
3

62
256
51
90
52
90
71
2
49
-0.5
62
256
6
ByLayer
49
0.5
62
256
6
ByLayer
0
RASTERVARIABLES
5
214
330

100
AcDbRasterVariables
90
0
70
1
71
1
72
1
0
ENDSEC
0
EOF
