0
SECTION
2
HEADER
9
$ACADVER
1
AC1015
9
$DWGCODEPAGE
3
ANSI_1252
9
$HANDSEED
5
230
9
$ANGBASE
50
0
9
$ANGDIR
70
0
9
$ATTMODE
70
1
9
$AUNITS
70
0
9
$AUPREC
70
0
9
$CECOLOR
62
256
9
$CELTSCALE
40
1
9
$CELTYPE
6
ByLayer
9
$CELWEIGHT
370
18
9
$CLAYER
8
0
9
$CMLJUST
70
0
9
$CMLSCALE
40
1
9
$CMLSTYLE
2
Standard
9
$DIMSTYLE
2
Standard
9
$TEXTSIZE
40
0.2
9
$TEXTSTYLE
7
Standard
9
$LUNITS
70
2
9
$LUPREC
70
4
9
$EXTNAMES
290
1
9
$INSUNITS
70
4
9
$LTSCALE
40
1
9
$LWDISPLAY
290
1
9
$PDMODE
70
0
9
$PDSIZE
40
0
9
$PLINEGEN
70
0
0
ENDSEC
0
SECTION
2
CLASSES
0
CLASS
1
RASTERVARIABLES
2
AcDbRasterVariables
3
ISM
90
0
280
0
281
0
0
ENDSEC
0
SECTION
2
TABLES
0
TABLE
2
VPORT
5
226
100
AcDbSymbolTable
0
VPORT
5
1
100
AcDbSymbolTableRecord
100
AcDbViewportTableRecord
2
*Active
70
0
10
0
20
0
11
1
21
1
12
-1
22
1
13
0
23
0
14
0.5
24
0.5
15
10
25
10
16
0
26
0
36
1
17
0
27
0
37
0
0
ENDTAB
0
TABLE
2
LTYPE
5
227
100
AcDbSymbolTable
0
LTYPE
5
14
100
AcDbSymbolTableRecord
100
AcDbLinetypeTableRecord
70
0
2
ByBlock
3

72
65
73
0
40
0
0
LTYPE
5
15
100
AcDbSymbolTableRecord
100
AcDbLinetypeTableRecord
70
0
2
ByLayer
3

72
65
73
0
40
0
0
LTYPE
5
16
100
AcDbSymbolTableRecord
100
AcDbLinetypeTableRecord
70
0
2
Continuous
3
Solid line
72
65
73
0
40
0
0
LTYPE
5
6E
100
AcDbSymbolTableRecord
100
AcDbLinetypeTableRecord
70
0
2
CENTER
3
____ _ ____ _ ____ _ ____
72
65
73
4
40
47.5
49
22
74
0
49
-8.5
74
0
49
8.5
74
0
49
-8.5
74
0
0
LTYPE
5
6F
100
AcDbSymbolTableRecord
100
AcDbLinetypeTableRecord
70
0
2
DASHED
3
__ __ __ __ __ __ __ __ __
72
65
73
2
40
25.72
49
12.86
74
0
49
-12.86
74
0
0
ENDTAB
0
TABLE
2
LAYER
5
228
100
AcDbSymbolTable
0
LAYER
5
10
100
AcDbSymbolTableRecord
100
AcDbLayerTableRecord
2
0
70
0
62
7
6
Continuous
290
1
370
-3
390
0
0
LAYER
5
71
100
AcDbSymbolTableRecord
100
AcDbLayerTableRecord
2
81
70
0
62
-3
6
Continuous
290
1
370
-3
390
0
0
LAYER
5
73
100
AcDbSymbolTableRecord
100
AcDbLayerTableRecord
2
80
70
0
62
-6
6
Continuous
290
1
370
-3
390
0
0
LAYER
5
75
100
AcDbSymbolTableRecord
100
AcDbLayerTableRecord
2
1
70
0
62
4
6
Continuous
290
1
370
-3
390
0
0
LAYER
5
11B
100
AcDbSymbolTableRecord
100
AcDbLayerTableRecord
2
Defpoints
70
0
62
7
6
Continuous
290
0
370
-3
390
0
0
LAYER
5
142
100
AcDbSymbolTableRecord
100
AcDbLayerTableRecord
2
2
70
0
62
7
6
Continuous
290
1
370
-3
390
0
0
LAYER
5
213
100
AcDbSymbolTableRecord
100
AcDbLayerTableRecord
2
SK1
70
0
62
4
6
Continuous
290
1
370
-3
390
0
0
LAYER
5
214
100
AcDbSymbolTableRecord
100
AcDbLayerTableRecord
2
SK6
70
0
62
5
6
Continuous
290
1
370
-3
390
0
0
LAYER
5
215
100
AcDbSymbolTableRecord
100
AcDbLayerTableRecord
2
SK2
70
0
62
7
6
Continuous
290
1
370
-3
390
0
0
ENDTAB
0
TABLE
2
STYLE
5
229
100
AcDbSymbolTable
0
STYLE
5
11
100
AcDbSymbolTableRecord
100
AcDbTextStyleTableRecord
2
Standard
3
txt
70
0
71
0
40
0
41
1
42
0
50
0
0
STYLE
5
114
100
AcDbSymbolTableRecord
100
AcDbTextStyleTableRecord
2
Monospac821 BT
3
Monospac821 BT
70
0
71
0
40
0
41
1
42
0
50
0
0
STYLE
5
118
100
AcDbSymbolTableRecord
100
AcDbTextStyleTableRecord
2
iso_b_vert
3
simplex.shx
70
0
71
0
40
0
41
1
42
0
50
0
0
STYLE
5
12B
100
AcDbSymbolTableRecord
100
AcDbTextStyleTableRecord
2
DWGDirectTextStyle
3
simplex
70
0
71
0
40
0
41
1
42
0
50
0
0
ENDTAB
0
TABLE
2
DIMSTYLE
5
22a
100
AcDbSymbolTable
100
AcDbDimStyleTable
0
DIMSTYLE
105
27
100
AcDbSymbolTableRecord
100
AcDbDimStyleTableRecord
2
Standard
70
0
3
<>
41
0.18
42
0.0625
44
0.18
140
0.18
147
0.09
73
0
74
0
77
1
271
2
275
0
278
52
280
0
340
11
0
ENDTAB
0
TABLE
2
VIEW
5
22b
100
AcDbSymbolTable
0
ENDTAB
0
TABLE
2
UCS
5
22c
100
AcDbSymbolTable
0
ENDTAB
0
TABLE
2
APPID
5
22d
100
AcDbSymbolTable
0
APPID
5
12
100
AcDbSymbolTableRecord
100
AcDbRegAppTableRecord
2
ACAD
70
0
0
APPID
5
116
100
AcDbSymbolTableRecord
100
AcDbRegAppTableRecord
2
ACAD_DSTYLE_DIMBREAK
70
0
0
APPID
5
1D2
100
AcDbSymbolTableRecord
100
AcDbRegAppTableRecord
2
ACAD_DSTYLE_DIM_LINETYPE
70
0
0
APPID
5
1D3
100
AcDbSymbolTableRecord
100
AcDbRegAppTableRecord
2
ACAD_DSTYLE_DIM_EXT1_LINETYPE
70
0
0
APPID
5
1D4
100
AcDbSymbolTableRecord
100
AcDbRegAppTableRecord
2
ACAD_DSTYLE_DIM_EXT2_LINETYPE
70
0
0
APPID
5
20F
100
AcDbSymbolTableRecord
100
AcDbRegAppTableRecord
2
ACAD_MLEADERVER
70
0
0
ENDTAB
0
TABLE
2
BLOCK_RECORD
5
22e
100
AcDbSymbolTable
0
BLOCK_RECORD
5
1F
100
AcDbSymbolTableRecord
100
AcDbBlockTableRecord
2
*Model_Space
340
0
70
0
0
BLOCK_RECORD
5
1B
100
AcDbSymbolTableRecord
100
AcDbBlockTableRecord
2
*Paper_Space
340
0
70
0
0
BLOCK_RECORD
5
23
100
AcDbSymbolTableRecord
100
AcDbBlockTableRecord
2
*Paper_Space0
340
0
70
0
0
BLOCK_RECORD
5
11C
100
AcDbSymbolTableRecord
100
AcDbBlockTableRecord
2
*D1
340
0
70
0
0
BLOCK_RECORD
5
129
100
AcDbSymbolTableRecord
100
AcDbBlockTableRecord
2
_U0
340
0
70
0
0
BLOCK_RECORD
5
136
100
AcDbSymbolTableRecord
100
AcDbBlockTableRecord
2
*D3
340
0
70
0
0
BLOCK_RECORD
5
143
100
AcDbSymbolTableRecord
100
AcDbBlockTableRecord
2
_U1
340
0
70
0
0
BLOCK_RECORD
5
14F
100
AcDbSymbolTableRecord
100
AcDbBlockTableRecord
2
*D5
340
0
70
0
0
BLOCK_RECORD
5
15C
100
AcDbSymbolTableRecord
100
AcDbBlockTableRecord
2
_U2
340
0
70
0
0
BLOCK_RECORD
5
168
100
AcDbSymbolTableRecord
100
AcDbBlockTableRecord
2
*D7
340
0
70
0
0
BLOCK_RECORD
5
175
100
AcDbSymbolTableRecord
100
AcDbBlockTableRecord
2
_U3
340
0
70
0
0
BLOCK_RECORD
5
181
100
AcDbSymbolTableRecord
100
AcDbBlockTableRecord
2
*D9
340
0
70
0
0
BLOCK_RECORD
5
18F
100
AcDbSymbolTableRecord
100
AcDbBlockTableRecord
2
_U4
340
0
70
0
0
BLOCK_RECORD
5
19C
100
AcDbSymbolTableRecord
100
AcDbBlockTableRecord
2
*D11
340
0
70
0
0
BLOCK_RECORD
5
1AA
100
AcDbSymbolTableRecord
100
AcDbBlockTableRecord
2
_U5
340
0
70
0
0
ENDTAB
0
ENDSEC
0
SECTION
2
BLOCKS
0
BLOCK
5
20
100
AcDbEntity
8
0
100
AcDbBlockBegin
2
*Model_Space
70
0
10
0
20
0
30
0
3
*Model_Space
0
ENDBLK
5
21
100
AcDbEntity
8
0
100
AcDbBlockEnd
0
BLOCK
5
1C
100
AcDbEntity
8
0
100
AcDbBlockBegin
2
*Paper_Space
70
0
10
0
20
0
30
0
3
*Paper_Space
0
ENDBLK
5
1D
100
AcDbEntity
8
0
100
AcDbBlockEnd
0
BLOCK
5
24
100
AcDbEntity
8
0
100
AcDbBlockBegin
2
*Paper_Space0
70
0
10
0
20
0
30
0
3
*Paper_Space0
0
ENDBLK
5
25
100
AcDbEntity
8
0
100
AcDbBlockEnd
0
BLOCK
5
11D
100
AcDbEntity
8
0
100
AcDbBlockBegin
2
*D1
70
1
10
0
20
0
30
0
3
*D1
0
LINE
5
11F
100
AcDbEntity
8
0
62
256
6
ByLayer
370
-2
48
1
60
0
100
AcDbLine
10
-36.4
20
-5.013566
30
0
11
-36.4
21
-24.670129
31
0
39
0
210
0
220
0
230
1
0
LINE
5
120
100
AcDbEntity
8
0
62
256
6
ByLayer
370
-2
48
1
60
0
100
AcDbLine
10
33.6
20
8.1625
30
0
11
33.6
21
-24.670129
31
0
39
0
210
0
220
0
230
1
0
LINE
5
121
100
AcDbEntity
8
0
62
256
6
ByLayer
370
-2
48
1
60
0
100
AcDbLine
10
-33.225
20
-22.670129
30
0
11
30.425
21
-22.670129
31
0
39
0
210
0
220
0
230
1
0
SOLID
5
122
100
AcDbEntity
8
0
62
256
6
ByLayer
370
-1
48
1
60
0
100
AcDbTrace
10
-33.225
20
-22.140963
30
0
11
-33.225
21
-23.199296
31
0
12
-36.4
22
-22.670129
32
0
13
-36.4
23
-22.670129
33
0
39
0
210
0
220
0
230
1
0
SOLID
5
123
100
AcDbEntity
8
0
62
256
6
ByLayer
370
-1
48
1
60
0
100
AcDbTrace
10
30.425
20
-23.199296
30
0
11
30.425
21
-22.140963
31
0
12
33.6
22
-22.670129
32
0
13
33.6
23
-22.670129
33
0
39
0
210
0
220
0
230
1
0
MTEXT
5
124
100
AcDbEntity
8
0
62
256
6
ByLayer
370
18
48
1
60
0
100
AcDbMText
10
-1.4
20
-13.920129
30
0
210
0
220
0
230
1
1
\A1;70
40
3.5
41
0
44
1
50
0
71
5
72
5
7
iso_b_vert
0
POINT
5
125
100
AcDbEntity
8
Defpoints
62
0
6
ByLayer
370
-1
48
1
60
0
100
AcDbPoint
10
-36.4
20
-5.013566
30
0
39
0
210
0
220
0
230
1
50
360
0
POINT
5
126
100
AcDbEntity
8
Defpoints
62
0
6
ByLayer
370
-1
48
1
60
0
100
AcDbPoint
10
33.6
20
8.1625
30
0
39
0
210
0
220
0
230
1
50
360
0
POINT
5
127
100
AcDbEntity
8
Defpoints
62
0
6
ByLayer
370
-1
48
1
60
0
100
AcDbPoint
10
33.6
20
-22.670129
30
0
39
0
210
0
220
0
230
1
50
360
0
ENDBLK
5
11E
100
AcDbEntity
8
0
100
AcDbBlockEnd
0
BLOCK
5
131
100
AcDbEntity
8
0
100
AcDbBlockBegin
2
_U0
70
0
10
0
20
0
30
0
3
_U0
0
MTEXT
5
12A
100
AcDbEntity
8
SK2
62
256
6
ByLayer
370
18
48
1
60
0
100
AcDbMText
10
-3.304966
20
-21.637496
30
0
210
0
220
0
230
1
1
\W0.6740;70
40
3.5
41
0
44
1.084337
50
0
71
7
72
5
7
iso_b_vert
0
LINE
5
12C
100
AcDbEntity
8
SK2
62
256
6
ByLayer
370
13
48
1
60
0
100
AcDbLine
10
-36.4
20
-5.013566
30
0
11
-36.4
21
-24.670129
31
0
39
0
210
0
220
0
230
1
0
LINE
5
12D
100
AcDbEntity
8
SK2
62
256
6
ByLayer
370
13
48
1
60
0
100
AcDbLine
10
33.6
20
8.1625
30
0
11
33.6
21
-24.670129
31
0
39
0
210
0
220
0
230
1
0
LINE
5
12E
100
AcDbEntity
8
SK2
62
256
6
ByLayer
370
13
48
1
60
0
100
AcDbLine
10
-36.4
20
-22.670129
30
0
11
33.6
21
-22.670129
31
0
39
0
210
0
220
0
230
1
0
SOLID
5
12F
100
AcDbEntity
8
SK2
62
256
6
ByLayer
370
18
48
1
60
0
100
AcDbTrace
10
-36.4
20
-22.670129
30
0
11
-33.225002
21
-22.252133
31
0
12
-33.224998
22
-23.088126
32
0
13
-33.224998
23
-23.088126
33
0
39
0
210
0
220
0
230
1
0
SOLID
5
130
100
AcDbEntity
8
SK2
62
256
6
ByLayer
370
18
48
1
60
0
100
AcDbTrace
10
33.6
20
-22.670129
30
0
11
30.425002
21
-23.088126
31
0
12
30.424998
22
-22.252133
32
0
13
30.424998
23
-22.252133
33
0
39
0
210
0
220
0
230
1
0
ENDBLK
5
132
100
AcDbEntity
8
0
100
AcDbBlockEnd
0
BLOCK
5
137
100
AcDbEntity
8
0
100
AcDbBlockBegin
2
*D3
70
1
10
0
20
0
30
0
3
*D3
0
LINE
5
139
100
AcDbEntity
8
0
62
256
6
ByLayer
370
-2
48
1
60
0
100
AcDbLine
10
33.6
20
8.1625
30
0
11
33.6
21
17.061344
31
0
39
0
210
0
220
0
230
1
0
LINE
5
13A
100
AcDbEntity
8
0
62
256
6
ByLayer
370
-2
48
1
60
0
100
AcDbLine
10
0
20
7.9875
30
0
11
0
21
17.061344
31
0
39
0
210
0
220
0
230
1
0
LINE
5
13B
100
AcDbEntity
8
0
62
256
6
ByLayer
370
-2
48
1
60
0
100
AcDbLine
10
30.425
20
15.061344
30
0
11
3.175
21
15.061344
31
0
39
0
210
0
220
0
230
1
0
SOLID
5
13C
100
AcDbEntity
8
0
62
256
6
ByLayer
370
-1
48
1
60
0
100
AcDbTrace
10
30.425
20
14.532178
30
0
11
30.425
21
15.590511
31
0
12
33.6
22
15.061344
32
0
13
33.6
23
15.061344
33
0
39
0
210
0
220
0
230
1
0
SOLID
5
13D
100
AcDbEntity
8
0
62
256
6
ByLayer
370
-1
48
1
60
0
100
AcDbTrace
10
3.175
20
15.590511
30
0
11
3.175
21
14.532178
31
0
12
0
22
15.061344
32
0
13
0
23
15.061344
33
0
39
0
210
0
220
0
230
1
0
MTEXT
5
13E
100
AcDbEntity
8
0
62
256
6
ByLayer
370
18
48
1
60
0
100
AcDbMText
10
16.8
20
23.811344
30
0
210
0
220
0
230
1
1
\A1;33.6
40
3.5
41
0
44
1
50
0
71
5
72
5
7
iso_b_vert
0
POINT
5
13F
100
AcDbEntity
8
Defpoints
62
0
6
ByLayer
370
-1
48
1
60
0
100
AcDbPoint
10
33.6
20
8.1625
30
0
39
0
210
0
220
0
230
1
50
360
0
POINT
5
140
100
AcDbEntity
8
Defpoints
62
0
6
ByLayer
370
-1
48
1
60
0
100
AcDbPoint
10
0
20
7.9875
30
0
39
0
210
0
220
0
230
1
50
360
0
POINT
5
141
100
AcDbEntity
8
Defpoints
62
0
6
ByLayer
370
-1
48
1
60
0
100
AcDbPoint
10
0
20
15.061344
30
0
39
0
210
0
220
0
230
1
50
360
0
ENDBLK
5
138
100
AcDbEntity
8
0
100
AcDbBlockEnd
0
BLOCK
5
14A
100
AcDbEntity
8
0
100
AcDbBlockBegin
2
_U1
70
0
10
0
20
0
30
0
3
_U1
0
MTEXT
5
144
100
AcDbEntity
8
2
62
256
6
ByLayer
370
18
48
1
60
0
100
AcDbMText
10
12.878301
20
16.093978
30
0
210
0
220
0
230
1
1
\W0.7346;33.6
40
3.5
41
0
44
1.084337
50
0
71
7
72
5
7
iso_b_vert
0
LINE
5
145
100
AcDbEntity
8
2
62
256
6
ByLayer
370
13
48
1
60
0
100
AcDbLine
10
33.6
20
8.1625
30
0
11
33.6
21
17.061344
31
0
39
0
210
0
220
0
230
1
0
LINE
5
146
100
AcDbEntity
8
2
62
256
6
ByLayer
370
13
48
1
60
0
100
AcDbLine
10
0
20
7.9875
30
0
11
0
21
17.061344
31
0
39
0
210
0
220
0
230
1
0
LINE
5
147
100
AcDbEntity
8
2
62
256
6
ByLayer
370
13
48
1
60
0
100
AcDbLine
10
33.6
20
15.061344
30
0
11
0
21
15.061344
31
0
39
0
210
0
220
0
230
1
0
SOLID
5
148
100
AcDbEntity
8
2
62
256
6
ByLayer
370
18
48
1
60
0
100
AcDbTrace
10
33.6
20
15.061344
30
0
11
30.425002
21
14.643348
31
0
12
30.424998
22
15.479341
32
0
13
30.424998
23
15.479341
33
0
39
0
210
0
220
0
230
1
0
SOLID
5
149
100
AcDbEntity
8
2
62
256
6
ByLayer
370
18
48
1
60
0
100
AcDbTrace
10
0
20
15.061344
30
0
11
3.174998
21
15.479341
31
0
12
3.175002
22
14.643348
32
0
13
3.175002
23
14.643348
33
0
39
0
210
0
220
0
230
1
0
ENDBLK
5
14B
100
AcDbEntity
8
0
100
AcDbBlockEnd
0
BLOCK
5
150
100
AcDbEntity
8
0
100
AcDbBlockBegin
2
*D5
70
1
10
0
20
0
30
0
3
*D5
0
LINE
5
152
100
AcDbEntity
8
0
62
256
6
ByLayer
370
-2
48
1
60
0
100
AcDbLine
10
33.6
20
8.1625
30
0
11
52.46789
21
8.1625
31
0
39
0
210
0
220
0
230
1
0
LINE
5
153
100
AcDbEntity
8
0
62
256
6
ByLayer
370
-2
48
1
60
0
100
AcDbLine
10
9.241
20
-7.9875
30
0
11
52.46789
21
-7.9875
31
0
39
0
210
0
220
0
230
1
0
LINE
5
154
100
AcDbEntity
8
0
62
256
6
ByLayer
370
-2
48
1
60
0
100
AcDbLine
10
50.46789
20
11.3375
30
0
11
50.46789
21
14.5125
31
0
39
0
210
0
220
0
230
1
0
LINE
5
155
100
AcDbEntity
8
0
62
256
6
ByLayer
370
-2
48
1
60
0
100
AcDbLine
10
50.46789
20
-11.1625
30
0
11
50.46789
21
-14.3375
31
0
39
0
210
0
220
0
230
1
0
SOLID
5
156
100
AcDbEntity
8
0
62
256
6
ByLayer
370
-1
48
1
60
0
100
AcDbTrace
10
49.938723
20
11.3375
30
0
11
50.997056
21
11.3375
31
0
12
50.46789
22
8.1625
32
0
13
50.46789
23
8.1625
33
0
39
0
210
0
220
0
230
1
0
SOLID
5
157
100
AcDbEntity
8
0
62
256
6
ByLayer
370
-1
48
1
60
0
100
AcDbTrace
10
50.997056
20
-11.1625
30
0
11
49.938723
21
-11.1625
31
0
12
50.46789
22
-7.9875
32
0
13
50.46789
23
-7.9875
33
0
39
0
210
0
220
0
230
1
0
MTEXT
5
158
100
AcDbEntity
8
0
62
256
6
ByLayer
370
18
48
1
60
0
100
AcDbMText
10
41.71789
20
0.0875
30
0
210
0
220
0
230
1
1
\A1;16.15
40
3.5
41
0
44
1
50
90
71
5
72
5
7
iso_b_vert
0
POINT
5
159
100
AcDbEntity
8
Defpoints
62
0
6
ByLayer
370
-1
48
1
60
0
100
AcDbPoint
10
33.6
20
8.1625
30
0
39
0
210
0
220
0
230
1
50
360
0
POINT
5
15A
100
AcDbEntity
8
Defpoints
62
0
6
ByLayer
370
-1
48
1
60
0
100
AcDbPoint
10
9.241
20
-7.9875
30
0
39
0
210
0
220
0
230
1
50
360
0
POINT
5
15B
100
AcDbEntity
8
Defpoints
62
0
6
ByLayer
370
-1
48
1
60
0
100
AcDbPoint
10
50.46789
20
-7.9875
30
0
39
0
210
0
220
0
230
1
50
360
0
ENDBLK
5
151
100
AcDbEntity
8
0
100
AcDbBlockEnd
0
BLOCK
5
163
100
AcDbEntity
8
0
100
AcDbBlockBegin
2
_U2
70
0
10
0
20
0
30
0
3
_U2
0
MTEXT
5
15D
100
AcDbEntity
8
2
62
256
6
ByLayer
370
18
48
1
60
0
100
AcDbMText
10
49.778256
20
-4.295066
30
0
210
0
220
0
230
1
1
\W0.6261;16.15
40
3.5
41
0
44
1.084337
50
90
71
7
72
5
7
iso_b_vert
0
LINE
5
15E
100
AcDbEntity
8
2
62
256
6
ByLayer
370
13
48
1
60
0
100
AcDbLine
10
33.6
20
8.1625
30
0
11
52.46789
21
8.1625
31
0
39
0
210
0
220
0
230
1
0
LINE
5
15F
100
AcDbEntity
8
2
62
256
6
ByLayer
370
13
48
1
60
0
100
AcDbLine
10
9.241
20
-7.9875
30
0
11
52.46789
21
-7.9875
31
0
39
0
210
0
220
0
230
1
0
LINE
5
160
100
AcDbEntity
8
2
62
256
6
ByLayer
370
13
48
1
60
0
100
AcDbLine
10
50.46789
20
8.1625
30
0
11
50.46789
21
-7.9875
31
0
39
0
210
0
220
0
230
1
0
SOLID
5
161
100
AcDbEntity
8
2
62
256
6
ByLayer
370
18
48
1
60
0
100
AcDbTrace
10
50.46789
20
8.1625
30
0
11
50.885887
21
4.987502
31
0
12
50.049893
22
4.987498
32
0
13
50.049893
23
4.987498
33
0
39
0
210
0
220
0
230
1
0
SOLID
5
162
100
AcDbEntity
8
2
62
256
6
ByLayer
370
18
48
1
60
0
100
AcDbTrace
10
50.46789
20
-7.9875
30
0
11
50.049893
21
-4.812502
31
0
12
50.885887
22
-4.812498
32
0
13
50.885887
23
-4.812498
33
0
39
0
210
0
220
0
230
1
0
ENDBLK
5
164
100
AcDbEntity
8
0
100
AcDbBlockEnd
0
BLOCK
5
169
100
AcDbEntity
8
0
100
AcDbBlockBegin
2
*D7
70
1
10
0
20
0
30
0
3
*D7
0
LINE
5
16B
100
AcDbEntity
8
0
62
256
6
ByLayer
370
-2
48
1
60
0
100
AcDbLine
10
-33.4
20
-7.9875
30
0
11
-66.047315
21
-7.9875
31
0
39
0
210
0
220
0
230
1
0
LINE
5
16C
100
AcDbEntity
8
0
62
256
6
ByLayer
370
-2
48
1
60
0
100
AcDbLine
10
-33.4
20
7.9875
30
0
11
-66.047315
21
7.9875
31
0
39
0
210
0
220
0
230
1
0
LINE
5
16D
100
AcDbEntity
8
0
62
256
6
ByLayer
370
-2
48
1
60
0
100
AcDbLine
10
-64.047315
20
-11.1625
30
0
11
-64.047315
21
-14.3375
31
0
39
0
210
0
220
0
230
1
0
LINE
5
16E
100
AcDbEntity
8
0
62
256
6
ByLayer
370
-2
48
1
60
0
100
AcDbLine
10
-64.047315
20
11.1625
30
0
11
-64.047315
21
14.3375
31
0
39
0
210
0
220
0
230
1
0
SOLID
5
16F
100
AcDbEntity
8
0
62
256
6
ByLayer
370
-1
48
1
60
0
100
AcDbTrace
10
-63.518148
20
-11.1625
30
0
11
-64.576481
21
-11.1625
31
0
12
-64.047315
22
-7.9875
32
0
13
-64.047315
23
-7.9875
33
0
39
0
210
0
220
0
230
1
0
SOLID
5
170
100
AcDbEntity
8
0
62
256
6
ByLayer
370
-1
48
1
60
0
100
AcDbTrace
10
-64.576481
20
11.1625
30
0
11
-63.518148
21
11.1625
31
0
12
-64.047315
22
7.9875
32
0
13
-64.047315
23
7.9875
33
0
39
0
210
0
220
0
230
1
0
MTEXT
5
171
100
AcDbEntity
8
0
62
256
6
ByLayer
370
18
48
1
60
0
100
AcDbMText
10
-72.797315
20
0
30
0
210
0
220
0
230
1
1
\A1;16
40
3.5
41
0
44
1
50
90
71
5
72
5
7
iso_b_vert
0
POINT
5
172
100
AcDbEntity
8
Defpoints
62
0
6
ByLayer
370
-1
48
1
60
0
100
AcDbPoint
10
-33.4
20
-7.9875
30
0
39
0
210
0
220
0
230
1
50
360
0
POINT
5
173
100
AcDbEntity
8
Defpoints
62
0
6
ByLayer
370
-1
48
1
60
0
100
AcDbPoint
10
-33.4
20
7.9875
30
0
39
0
210
0
220
0
230
1
50
360
0
POINT
5
174
100
AcDbEntity
8
Defpoints
62
0
6
ByLayer
370
-1
48
1
60
0
100
AcDbPoint
10
-64.047315
20
7.9875
30
0
39
0
210
0
220
0
230
1
50
360
0
ENDBLK
5
16A
100
AcDbEntity
8
0
100
AcDbBlockEnd
0
BLOCK
5
17C
100
AcDbEntity
8
0
100
AcDbBlockBegin
2
_U3
70
0
10
0
20
0
30
0
3
_U3
0
MTEXT
5
176
100
AcDbEntity
8
SK2
62
256
6
ByLayer
370
18
48
1
60
0
100
AcDbMText
10
-64.736948
20
-1.495533
30
0
210
0
220
0
230
1
1
\W0.5321;16
40
3.5
41
0
44
1.084337
50
90
71
7
72
5
7
iso_b_vert
0
LINE
5
177
100
AcDbEntity
8
SK2
62
256
6
ByLayer
370
13
48
1
60
0
100
AcDbLine
10
-33.4
20
-7.9875
30
0
11
-66.047315
21
-7.9875
31
0
39
0
210
0
220
0
230
1
0
LINE
5
178
100
AcDbEntity
8
SK2
62
256
6
ByLayer
370
13
48
1
60
0
100
AcDbLine
10
-33.4
20
7.9875
30
0
11
-66.047315
21
7.9875
31
0
39
0
210
0
220
0
230
1
0
LINE
5
179
100
AcDbEntity
8
SK2
62
256
6
ByLayer
370
13
48
1
60
0
100
AcDbLine
10
-64.047315
20
-7.9875
30
0
11
-64.047315
21
7.9875
31
0
39
0
210
0
220
0
230
1
0
SOLID
5
17A
100
AcDbEntity
8
SK2
62
256
6
ByLayer
370
18
48
1
60
0
100
AcDbTrace
10
-64.047315
20
-7.9875
30
0
11
-64.465311
21
-4.812502
31
0
12
-63.629318
22
-4.812498
32
0
13
-63.629318
23
-4.812498
33
0
39
0
210
0
220
0
230
1
0
SOLID
5
17B
100
AcDbEntity
8
SK2
62
256
6
ByLayer
370
18
48
1
60
0
100
AcDbTrace
10
-64.047315
20
7.9875
30
0
11
-63.629318
21
4.812502
31
0
12
-64.465311
22
4.812498
32
0
13
-64.465311
23
4.812498
33
0
39
0
210
0
220
0
230
1
0
ENDBLK
5
17D
100
AcDbEntity
8
0
100
AcDbBlockEnd
0
BLOCK
5
182
100
AcDbEntity
8
0
100
AcDbBlockBegin
2
*D9
70
1
10
0
20
0
30
0
3
*D9
0
LINE
5
184
100
AcDbEntity
8
0
62
256
6
ByLayer
370
-2
48
1
60
0
100
AcDbLine
10
-36.4
20
-5.013566
30
0
11
-36.4
21
-18.804414
31
0
39
0
210
0
220
0
230
1
0
LINE
5
185
100
AcDbEntity
8
0
62
256
6
ByLayer
370
-2
48
1
60
0
100
AcDbLine
10
-33.4
20
-7.9875
30
0
11
-33.4
21
-18.804414
31
0
39
0
210
0
220
0
230
1
0
LINE
5
186
100
AcDbEntity
8
0
62
256
6
ByLayer
370
-2
48
1
60
0
100
AcDbLine
10
-33.4
20
-16.804414
30
0
11
-10.716667
21
-16.804414
31
0
39
0
210
0
220
0
230
1
0
LINE
5
187
100
AcDbEntity
8
0
62
256
6
ByLayer
370
-2
48
1
60
0
100
AcDbLine
10
-39.575
20
-16.804414
30
0
11
-42.75
21
-16.804414
31
0
39
0
210
0
220
0
230
1
0
LINE
5
188
100
AcDbEntity
8
0
62
256
6
ByLayer
370
-2
48
1
60
0
100
AcDbLine
10
-30.225
20
-16.804414
30
0
11
-27.05
21
-16.804414
31
0
39
0
210
0
220
0
230
1
0
SOLID
5
189
100
AcDbEntity
8
0
62
256
6
ByLayer
370
-1
48
1
60
0
100
AcDbTrace
10
-39.575
20
-17.333581
30
0
11
-39.575
21
-16.275247
31
0
12
-36.4
22
-16.804414
32
0
13
-36.4
23
-16.804414
33
0
39
0
210
0
220
0
230
1
0
SOLID
5
18A
100
AcDbEntity
8
0
62
256
6
ByLayer
370
-1
48
1
60
0
100
AcDbTrace
10
-30.225
20
-16.275247
30
0
11
-30.225
21
-17.333581
31
0
12
-33.4
22
-16.804414
32
0
13
-33.4
23
-16.804414
33
0
39
0
210
0
220
0
230
1
0
MTEXT
5
18B
100
AcDbEntity
8
0
62
256
6
ByLayer
370
18
48
1
60
0
100
AcDbMText
10
-18.883333
20
-8.054414
30
0
210
0
220
0
230
1
1
\A1;3
40
3.5
41
0
44
1
50
0
71
5
72
5
7
iso_b_vert
0
POINT
5
18C
100
AcDbEntity
8
Defpoints
62
0
6
ByLayer
370
-1
48
1
60
0
100
AcDbPoint
10
-36.4
20
-5.013566
30
0
39
0
210
0
220
0
230
1
50
360
0
POINT
5
18D
100
AcDbEntity
8
Defpoints
62
0
6
ByLayer
370
-1
48
1
60
0
100
AcDbPoint
10
-33.4
20
-7.9875
30
0
39
0
210
0
220
0
230
1
50
360
0
POINT
5
18E
100
AcDbEntity
8
Defpoints
62
0
6
ByLayer
370
-1
48
1
60
0
100
AcDbPoint
10
-33.4
20
-16.804414
30
0
39
0
210
0
220
0
230
1
50
360
0
ENDBLK
5
183
100
AcDbEntity
8
0
100
AcDbBlockEnd
0
BLOCK
5
197
100
AcDbEntity
8
0
100
AcDbBlockBegin
2
_U4
70
0
10
0
20
0
30
0
3
_U4
0
MTEXT
5
190
100
AcDbEntity
8
SK2
62
256
6
ByLayer
370
18
48
1
60
0
100
AcDbMText
10
-24.284379
20
-15.77178
30
0
210
0
220
0
230
1
1
\W0.9050;x45%%d
40
3.5
41
0
44
1.084337
50
0
71
7
72
5
7
iso_b_vert
0
MTEXT
5
191
100
AcDbEntity
8
SK2
62
256
6
ByLayer
370
18
48
1
60
0
100
AcDbMText
10
-29.349845
20
-15.77178
30
0
210
0
220
0
230
1
1
\W0.5404;3
40
3.5
41
0
44
1.084337
50
0
71
7
72
5
7
iso_b_vert
0
LINE
5
192
100
AcDbEntity
8
SK2
62
256
6
ByLayer
370
13
48
1
60
0
100
AcDbLine
10
-36.4
20
-5.013566
30
0
11
-36.4
21
-18.804414
31
0
39
0
210
0
220
0
230
1
0
LINE
5
193
100
AcDbEntity
8
SK2
62
256
6
ByLayer
370
13
48
1
60
0
100
AcDbLine
10
-33.4
20
-7.9875
30
0
11
-33.4
21
-18.804414
31
0
39
0
210
0
220
0
230
1
0
LINE
5
194
100
AcDbEntity
8
SK2
62
256
6
ByLayer
370
13
48
1
60
0
100
AcDbLine
10
-15.080713
20
-16.804414
30
0
11
-45.15
21
-16.804414
31
0
39
0
210
0
220
0
230
1
0
SOLID
5
195
100
AcDbEntity
8
SK2
62
256
6
ByLayer
370
18
48
1
60
0
100
AcDbTrace
10
-36.4
20
-16.804414
30
0
11
-39.574998
21
-17.222411
31
0
12
-39.575002
22
-16.386417
32
0
13
-39.575002
23
-16.386417
33
0
39
0
210
0
220
0
230
1
0
SOLID
5
196
100
AcDbEntity
8
SK2
62
256
6
ByLayer
370
18
48
1
60
0
100
AcDbTrace
10
-33.4
20
-16.804414
30
0
11
-30.225002
21
-16.386417
31
0
12
-30.224998
22
-17.222411
32
0
13
-30.224998
23
-17.222411
33
0
39
0
210
0
220
0
230
1
0
ENDBLK
5
198
100
AcDbEntity
8
0
100
AcDbBlockEnd
0
BLOCK
5
19D
100
AcDbEntity
8
0
100
AcDbBlockBegin
2
*D11
70
1
10
0
20
0
30
0
3
*D11
0
LINE
5
19F
100
AcDbEntity
8
0
62
256
6
ByLayer
370
-2
48
1
60
0
100
AcDbLine
10
-36.4
20
5.013566
30
0
11
-36.4
21
17.061344
31
0
39
0
210
0
220
0
230
1
0
LINE
5
1A0
100
AcDbEntity
8
0
62
256
6
ByLayer
370
-2
48
1
60
0
100
AcDbLine
10
-33.4
20
7.9875
30
0
11
-33.4
21
17.061344
31
0
39
0
210
0
220
0
230
1
0
LINE
5
1A1
100
AcDbEntity
8
0
62
256
6
ByLayer
370
-2
48
1
60
0
100
AcDbLine
10
-33.4
20
15.061344
30
0
11
-10.716667
21
15.061344
31
0
39
0
210
0
220
0
230
1
0
LINE
5
1A2
100
AcDbEntity
8
0
62
256
6
ByLayer
370
-2
48
1
60
0
100
AcDbLine
10
-39.575
20
15.061344
30
0
11
-42.75
21
15.061344
31
0
39
0
210
0
220
0
230
1
0
LINE
5
1A3
100
AcDbEntity
8
0
62
256
6
ByLayer
370
-2
48
1
60
0
100
AcDbLine
10
-30.225
20
15.061344
30
0
11
-27.05
21
15.061344
31
0
39
0
210
0
220
0
230
1
0
SOLID
5
1A4
100
AcDbEntity
8
0
62
256
6
ByLayer
370
-1
48
1
60
0
100
AcDbTrace
10
-39.575
20
14.532178
30
0
11
-39.575
21
15.590511
31
0
12
-36.4
22
15.061344
32
0
13
-36.4
23
15.061344
33
0
39
0
210
0
220
0
230
1
0
SOLID
5
1A5
100
AcDbEntity
8
0
62
256
6
ByLayer
370
-1
48
1
60
0
100
AcDbTrace
10
-30.225
20
15.590511
30
0
11
-30.225
21
14.532178
31
0
12
-33.4
22
15.061344
32
0
13
-33.4
23
15.061344
33
0
39
0
210
0
220
0
230
1
0
MTEXT
5
1A6
100
AcDbEntity
8
0
62
256
6
ByLayer
370
18
48
1
60
0
100
AcDbMText
10
-18.883333
20
23.811344
30
0
210
0
220
0
230
1
1
\A1;3
40
3.5
41
0
44
1
50
0
71
5
72
5
7
iso_b_vert
0
POINT
5
1A7
100
AcDbEntity
8
Defpoints
62
0
6
ByLayer
370
-1
48
1
60
0
100
AcDbPoint
10
-36.4
20
5.013566
30
0
39
0
210
0
220
0
230
1
50
360
0
POINT
5
1A8
100
AcDbEntity
8
Defpoints
62
0
6
ByLayer
370
-1
48
1
60
0
100
AcDbPoint
10
-33.4
20
7.9875
30
0
39
0
210
0
220
0
230
1
50
360
0
POINT
5
1A9
100
AcDbEntity
8
Defpoints
62
0
6
ByLayer
370
-1
48
1
60
0
100
AcDbPoint
10
-33.4
20
15.061344
30
0
39
0
210
0
220
0
230
1
50
360
0
ENDBLK
5
19E
100
AcDbEntity
8
0
100
AcDbBlockEnd
0
BLOCK
5
1B2
100
AcDbEntity
8
0
100
AcDbBlockBegin
2
_U5
70
0
10
0
20
0
30
0
3
_U5
0
MTEXT
5
1AB
100
AcDbEntity
8
SK2
62
256
6
ByLayer
370
18
48
1
60
0
100
AcDbMText
10
-24.0517
20
16.093978
30
0
210
0
220
0
230
1
1
\W0.9050;x45%%d
40
3.5
41
0
44
1.084337
50
0
71
7
72
5
7
iso_b_vert
0
MTEXT
5
1AC
100
AcDbEntity
8
SK2
62
256
6
ByLayer
370
18
48
1
60
0
100
AcDbMText
10
-29.117166
20
16.093978
30
0
210
0
220
0
230
1
1
\W0.5404;3
40
3.5
41
0
44
1.084337
50
0
71
7
72
5
7
iso_b_vert
0
LINE
5
1AD
100
AcDbEntity
8
SK2
62
256
6
ByLayer
370
13
48
1
60
0
100
AcDbLine
10
-36.4
20
5.013566
30
0
11
-36.4
21
17.061344
31
0
39
0
210
0
220
0
230
1
0
LINE
5
1AE
100
AcDbEntity
8
SK2
62
256
6
ByLayer
370
13
48
1
60
0
100
AcDbLine
10
-33.4
20
7.9875
30
0
11
-33.4
21
17.061344
31
0
39
0
210
0
220
0
230
1
0
LINE
5
1AF
100
AcDbEntity
8
SK2
62
256
6
ByLayer
370
13
48
1
60
0
100
AcDbLine
10
-14.848035
20
15.061344
30
0
11
-45.15
21
15.061344
31
0
39
0
210
0
220
0
230
1
0
SOLID
5
1B0
100
AcDbEntity
8
SK2
62
256
6
ByLayer
370
18
48
1
60
0
100
AcDbTrace
10
-36.4
20
15.061344
30
0
11
-39.574998
21
14.643348
31
0
12
-39.575002
22
15.479341
32
0
13
-39.575002
23
15.479341
33
0
39
0
210
0
220
0
230
1
0
SOLID
5
1B1
100
AcDbEntity
8
SK2
62
256
6
ByLayer
370
18
48
1
60
0
100
AcDbTrace
10
-33.4
20
15.061344
30
0
11
-30.225002
21
15.479341
31
0
12
-30.224998
22
14.643348
32
0
13
-30.224998
23
14.643348
33
0
39
0
210
0
220
0
230
1
0
ENDBLK
5
1B3
100
AcDbEntity
8
0
100
AcDbBlockEnd
0
ENDSEC
0
SECTION
2
ENTITIES
0
ARC
5
D4
100
AcDbEntity
8
1
62
256
6
ByLayer
370
18
48
1
60
0
100
AcDbCircle
39
0
10
13.2
20
1.4125
30
0
40
1.416
210
0
220
0
230
1
100
AcDbArc
50
18.775495
51
31.160371
0
ARC
5
D5
100
AcDbEntity
8
1
62
256
6
ByLayer
370
18
48
1
60
0
100
AcDbCircle
39
0
10
13.2
20
1.4125
30
0
40
1.416
210
0
220
0
230
1
100
AcDbArc
50
198.775495
51
211.160371
0
ARC
5
D8
100
AcDbEntity
8
1
62
256
6
ByLayer
370
18
48
1
60
0
100
AcDbCircle
39
0
10
13.2
20
1.4125
30
0
40
1.9685
210
0
220
0
230
1
100
AcDbArc
50
55.349355
51
114.967933
0
ARC
5
D9
100
AcDbEntity
8
1
62
256
6
ByLayer
370
18
48
1
60
0
100
AcDbCircle
39
0
10
13.2
20
1.4125
30
0
40
1.9685
210
0
220
0
230
1
100
AcDbArc
50
354.586511
51
55.349355
0
ARC
5
DA
100
AcDbEntity
8
1
62
256
6
ByLayer
370
18
48
1
60
0
100
AcDbCircle
39
0
10
13.2
20
1.4125
30
0
40
1.9685
210
0
220
0
230
1
100
AcDbArc
50
235.349355
51
294.967933
0
ARC
5
DB
100
AcDbEntity
8
1
62
256
6
ByLayer
370
18
48
1
60
0
100
AcDbCircle
39
0
10
13.2
20
1.4125
30
0
40
1.9685
210
0
220
0
230
1
100
AcDbArc
50
174.586511
51
235.349355
0
ARC
5
DC
100
AcDbEntity
8
1
62
256
6
ByLayer
370
18
48
1
60
0
100
AcDbCircle
39
0
10
13.2
20
1.4125
30
0
40
1.9685
210
0
220
0
230
1
100
AcDbArc
50
114.967933
51
174.586511
0
ARC
5
DD
100
AcDbEntity
8
1
62
256
6
ByLayer
370
18
48
1
60
0
100
AcDbCircle
39
0
10
13.2
20
1.4125
30
0
40
1.9685
210
0
220
0
230
1
100
AcDbArc
50
294.967933
51
354.586511
0
ARC
5
DE
100
AcDbEntity
8
SK1
62
256
6
ByLayer
370
70
48
1
60
0
100
AcDbCircle
39
0
10
-42.55
20
-2.375
30
0
40
0.4
210
0
220
0
230
1
100
AcDbArc
50
0
51
90
0
ARC
5
DF
100
AcDbEntity
8
SK1
62
256
6
ByLayer
370
70
48
1
60
0
100
AcDbCircle
39
0
10
-42.55
20
2.375
30
0
40
0.4
210
0
220
0
230
1
100
AcDbArc
50
270
51
0
0
ARC
5
E0
100
AcDbEntity
8
1
62
256
6
ByLayer
370
18
48
1
60
0
100
AcDbCircle
39
0
10
13.2
20
1.4125
30
0
40
1.416
210
0
220
0
230
1
100
AcDbArc
50
211.160371
51
265.158644
0
ARC
5
E1
100
AcDbEntity
8
1
62
256
6
ByLayer
370
18
48
1
60
0
100
AcDbCircle
39
0
10
13.2
20
1.4125
30
0
40
1.416
210
0
220
0
230
1
100
AcDbArc
50
265.158644
51
324.777222
0
ARC
5
E2
100
AcDbEntity
8
1
62
256
6
ByLayer
370
18
48
1
60
0
100
AcDbCircle
39
0
10
13.2
20
1.4125
30
0
40
1.416
210
0
220
0
230
1
100
AcDbArc
50
31.160371
51
85.158644
0
ARC
5
E3
100
AcDbEntity
8
1
62
256
6
ByLayer
370
18
48
1
60
0
100
AcDbCircle
39
0
10
13.2
20
1.4125
30
0
40
1.416
210
0
220
0
230
1
100
AcDbArc
50
85.158644
51
144.777222
0
ARC
5
E4
100
AcDbEntity
8
1
62
256
6
ByLayer
370
18
48
1
60
0
100
AcDbCircle
39
0
10
13.2
20
1.4125
30
0
40
1.416
210
0
220
0
230
1
100
AcDbArc
50
144.777222
51
198.775495
0
ARC
5
E5
100
AcDbEntity
8
1
62
256
6
ByLayer
370
18
48
1
60
0
100
AcDbCircle
39
0
10
13.2
20
1.4125
30
0
40
1.416
210
0
220
0
230
1
100
AcDbArc
50
324.777222
51
18.775495
0
CIRCLE
5
D6
100
AcDbEntity
8
1
62
256
6
ByLayer
370
18
48
1
60
0
100
AcDbCircle
10
13.2
20
1.4125
30
0
40
3.5
39
0
210
0
220
0
230
1
0
CIRCLE
5
D7
100
AcDbEntity
8
1
62
256
6
ByLayer
370
18
48
1
60
0
100
AcDbCircle
10
13.2
20
1.4125
30
0
40
3
39
0
210
0
220
0
230
1
0
CIRCLE
5
E6
100
AcDbEntity
8
1
62
256
6
ByLayer
370
70
48
1
60
0
100
AcDbCircle
10
13.2
20
1.4125
30
0
40
3.75
39
0
210
0
220
0
230
1
0
ELLIPSE
5
E7
100
AcDbEntity
8
1
62
256
6
ByLayer
370
35
48
1
60
0
100
AcDbEllipse
10
30.294849
20
8.7125
30
0
11
0.909842477997821
21
1.06583985177561E-15
31
0
210
0
220
0
230
1
40
0.879273
41
-1.5707963267949
42
-1.29515256584523
0
ELLIPSE
5
E8
100
AcDbEntity
8
1
62
256
6
ByLayer
370
35
48
1
60
0
100
AcDbEllipse
10
29.007075
20
7.787938
30
0
11
0.705694516481335
21
8.26689627088531E-16
31
0
210
0
220
0
230
1
40
0.212557
41
3.14159265358979
42
-2.80561677259525
0
ELLIPSE
5
E9
100
AcDbEntity
8
1
62
256
6
ByLayer
370
35
48
1
60
0
100
AcDbEllipse
10
29.981595
20
7.346436
30
0
11
0.940926021895678
21
1.10225283602499E-15
31
0
210
0
220
0
230
1
40
0.212557
41
-2.80561677258089
42
-1.9871782510841
0
ELLIPSE
5
EA
100
AcDbEntity
8
1
62
256
6
ByLayer
370
35
48
1
60
0
100
AcDbEllipse
10
33.406648
20
8.992641
30
0
11
9.40926032988619
21
1.49922299236786E-08
31
0
210
0
220
0
230
1
40
0.212557
41
-1.98717825463854
42
-1.91986218144548
0
ELLIPSE
5
EB
100
AcDbEntity
8
1
62
256
6
ByLayer
370
35
48
1
60
0
100
AcDbEllipse
10
29.894794
20
6.9125
30
0
11
0.987972322989439
21
1.15736547782504E-15
31
0
210
0
220
0
230
1
40
0.212557
41
0
42
1.2217304763967
0
ELLIPSE
5
EC
100
AcDbEntity
8
1
62
256
6
ByLayer
370
35
48
1
60
0
100
AcDbEllipse
10
29.894794
20
6.9125
30
0
11
0.987972322990062
21
1.15736547782577E-15
31
0
210
0
220
0
230
1
40
0.212557
41
-1.2217304763963
42
0
0
ELLIPSE
5
ED
100
AcDbEntity
8
1
62
256
6
ByLayer
370
35
48
1
60
0
100
AcDbEllipse
10
33.406648
20
4.832359
30
0
11
9.40926027328981
21
-7.37885530224908E-09
31
0
210
0
220
0
230
1
40
0.212557
41
1.91986217930193
42
1.98717825285143
0
ELLIPSE
5
EE
100
AcDbEntity
8
1
62
256
6
ByLayer
370
35
48
1
60
0
100
AcDbEllipse
10
29.981595
20
6.478564
30
0
11
0.940926021898147
21
1.10225283602788E-15
31
0
210
0
220
0
230
1
40
0.212557
41
1.98717825108523
42
2.80561677258006
0
ELLIPSE
5
EF
100
AcDbEntity
8
1
62
256
6
ByLayer
370
35
48
1
60
0
100
AcDbEllipse
10
29.007075
20
6.037062
30
0
11
0.70569451644549
21
8.26689627046539E-16
31
0
210
0
220
0
230
1
40
0.212557
41
2.80561677258658
42
3.14159265358979
0
ELLIPSE
5
F0
100
AcDbEntity
8
1
62
256
6
ByLayer
370
35
48
1
60
0
100
AcDbEllipse
10
30.294849
20
5.1125
30
0
11
0.909842477997821
21
1.06583985177561E-15
31
0
210
0
220
0
230
1
40
0.879273
41
1.29515256584522
42
1.5707963267949
0
ELLIPSE
5
F1
100
AcDbEntity
8
1
62
256
6
ByLayer
370
35
48
1
60
0
100
AcDbEllipse
10
29.515997
20
7.5625
30
0
11
7.85307604188958E-18
21
0.128254700253313
31
0
210
0
220
0
230
1
40
0.978148
41
0
42
6.28318530717959
0
POINT
5
70
100
AcDbEntity
8
81
62
256
6
ByLayer
370
70
48
1
60
0
100
AcDbPoint
10
33.6
20
8.1625
30
0
39
0
210
0
220
0
230
1
50
360
0
POINT
5
72
100
AcDbEntity
8
80
62
256
6
ByLayer
370
70
48
1
60
0
100
AcDbPoint
10
0
20
0
30
0
39
0
210
0
220
0
230
1
50
360
0
SPLINE
5
F2
100
AcDbEntity
8
1
62
256
6
ByLayer
370
35
48
1
60
0
100
AcDbSpline
70
4
71
2
72
6
73
3
40
0
40
0
40
0
40
1
40
1
40
1
41
1.03186391735993
10
13.8
20
8.1651694862014
30
0
41
1.03138264657361
10
13.9222110531943
20
8.16516948620139
30
0
41
1.03186391735993
10
14.0441941581394
20
8.15770867988884
30
0
0
SPLINE
5
F3
100
AcDbEntity
8
1
62
256
6
ByLayer
370
35
48
1
60
0
100
AcDbSpline
70
4
71
2
72
6
73
3
40
0
40
0
40
0
40
1
40
1
40
1
41
0.988194433038809
10
13.6012833641069
20
7.9877902425835
30
0
41
0.75332997071547
10
13.6214751947459
20
8.16516948620136
30
0
41
1.03186391735993
10
13.8
20
8.1651694862014
30
0
0
SPLINE
5
F4
100
AcDbEntity
8
1
62
256
6
ByLayer
370
35
48
1
60
0
100
AcDbSpline
70
4
71
3
72
8
73
4
40
0
40
0
40
0
40
0
40
1
40
1
40
1
40
1
41
1
10
31.112432385659
20
8.08028903897943
30
0
41
1
10
31.0990608709805
20
8.07972032733286
30
0
41
1
10
31.0857630337702
20
8.07781314894669
30
0
41
1
10
31.0727590928241
20
8.07457910918643
30
0
0
SPLINE
5
F5
100
AcDbEntity
8
1
62
256
6
ByLayer
370
18
48
1
60
0
100
AcDbSpline
70
4
71
3
72
26
73
22
40
0
40
0
40
0
40
0
40
0.249999999999996
40
0.249999999999996
40
0.312499999999995
40
0.312499999999995
40
0.374999999999994
40
0.374999999999994
40
0.499999999999993
40
0.499999999999993
40
0.562499999999993
40
0.562499999999993
40
0.624999999999993
40
0.624999999999993
40
0.749999999999994
40
0.749999999999994
40
0.812499999999996
40
0.812499999999996
40
0.874999999999998
40
0.874999999999998
40
1
40
1
40
1
40
1
41
1
10
12.7598240797516
20
3.11158141846897
30
0
41
1
10
12.7380062553844
20
3.13725258941645
30
0
41
1
10
12.7125203588405
20
3.15945644969818
30
0
41
1
10
12.6757411811474
20
3.18241168371367
30
0
41
1
10
12.6681003404434
20
3.18677292459543
30
0
41
1
10
12.6525437750817
20
3.19484240497806
30
0
41
1
10
12.6446118360471
20
3.19856427711429
30
0
41
1
10
12.6203563389536
20
3.20878619570581
30
0
41
1
10
12.6035762570006
20
3.21434910814028
30
0
41
1
10
12.5774438907328
20
3.22068728791729
30
0
41
1
10
12.568571991847
20
3.22246412875032
30
0
41
1
10
12.5504872606708
20
3.22530203308332
30
0
41
1
10
12.5413399030023
20
3.22634924841554
30
0
41
1
10
12.5139447947353
20
3.22833327157465
30
0
41
1
10
12.4955997962264
20
3.22814440731833
30
0
41
1
10
12.4679617142985
20
3.2255198673283
30
0
41
1
10
12.4587288049638
20
3.22425290151739
30
0
41
1
10
12.4402212927168
20
3.22089590988483
30
0
41
1
10
12.4309533304963
20
3.21880083601297
30
0
41
1
10
12.4037268768879
20
3.21140624190045
30
0
41
1
10
12.3861257259429
20
3.20497167139453
30
0
41
1
10
12.3690745789228
20
3.19703220609989
30
0
0
SPLINE
5
F6
100
AcDbEntity
8
1
62
256
6
ByLayer
370
18
48
1
60
0
100
AcDbSpline
70
4
71
3
72
34
73
30
40
0
40
0
40
0
40
0
40
0.124999999999999
40
0.124999999999999
40
0.187499999999998
40
0.187499999999998
40
0.218749999999998
40
0.218749999999998
40
0.249999999999998
40
0.249999999999998
40
0.374999999999998
40
0.374999999999998
40
0.406249999999998
40
0.406249999999998
40
0.437499999999998
40
0.499999999999998
40
0.562499999999998
40
0.562499999999998
40
0.624999999999998
40
0.624999999999998
40
0.687499999999998
40
0.687499999999998
40
0.749999999999998
40
0.749999999999998
40
0.874999999999999
40
0.874999999999999
40
0.937499999999999
40
0.937499999999999
40
1
40
1
40
1
40
1
41
1
10
12.7598240797516
20
3.11158141846897
30
0
41
1
10
12.7926686978093
20
3.07293596094439
30
0
41
1
10
12.8289792408889
20
3.03734613676147
30
0
41
1
10
12.8890911096908
20
2.98861485267446
30
0
41
1
10
12.9100769629985
20
2.97315170443269
30
0
41
1
10
12.9431241842404
20
2.95119460109385
30
0
41
1
10
12.9544284232281
20
2.94406679820892
30
0
41
1
10
12.9774712670134
20
2.9303163699237
30
0
41
1
10
12.9891715070718
20
2.92371484436015
30
0
41
1
10
13.0485873315213
20
2.89208315440587
30
0
41
1
10
13.0990066565388
20
2.87112141759442
30
0
41
1
10
13.1663389961249
20
2.85101476257881
30
0
41
1
10
13.1800428375974
20
2.84730094472439
30
0
41
1
10
13.207460608657
20
2.84062306726423
30
0
41
1
10
13.2487597495034
20
2.83168122750928
30
0
41
1
10
13.3184480166218
20
2.82209205400792
30
0
41
1
10
13.3751212134247
20
2.82012692983213
30
0
41
1
10
13.432272656867
20
2.82112887144859
30
0
41
1
10
13.4603994798744
20
2.82310122581683
30
0
41
1
10
13.5157817270679
20
2.8297784987715
30
0
41
1
10
13.5430470864543
20
2.83448440131784
30
0
41
1
10
13.5967859207957
20
2.84653229341663
30
0
41
1
10
13.6233418539837
20
2.85391793552245
30
0
41
1
10
13.7000631858618
20
2.87932795436092
30
0
41
1
10
13.7479594932681
20
2.90066975374685
30
0
41
1
10
13.8157386024485
20
2.93866818837375
30
0
41
1
10
13.837711432118
20
2.95239060145133
30
0
41
1
10
13.8799594587427
20
2.98158863944991
30
0
41
1
10
13.9002250999651
20
2.99704584835138
30
0
41
1
10
13.9196771087034
20
3.01334270512794
30
0
0
SPLINE
5
F7
100
AcDbEntity
8
1
62
256
6
ByLayer
370
18
48
1
60
0
100
AcDbSpline
70
4
71
3
72
24
73
20
40
0
40
0
40
0
40
0
40
0.0624999999999999
40
0.0624999999999999
40
0.125
40
0.125
40
0.249999999999999
40
0.249999999999999
40
0.312499999999999
40
0.312499999999999
40
0.374999999999999
40
0.374999999999999
40
0.499999999999999
40
0.499999999999999
40
0.625
40
0.625
40
0.75
40
0.75
40
1
40
1
40
1
40
1
41
1
10
14.3192322297153
20
3.03185526243215
30
0
41
1
10
14.3115065733694
20
3.03719492061498
30
0
41
1
10
14.3034808016058
20
3.04225086089662
30
0
41
1
10
14.2870494561037
20
3.05163529656599
30
0
41
1
10
14.2786987358213
20
3.05593701622746
30
0
41
1
10
14.2532564027903
20
3.06771313175145
30
0
41
1
10
14.2357772220408
20
3.07406619686452
30
0
41
1
10
14.208790511468
20
3.08136738789955
30
0
41
1
10
14.1996499118592
20
3.08342633800351
30
0
41
1
10
14.1814716445666
20
3.08672712941026
30
0
41
1
10
14.1723900947737
20
3.08798266594638
30
0
41
1
10
14.145169201053
20
3.09061073238243
30
0
41
1
10
14.127053380212
20
3.09085186886767
30
0
41
1
10
14.090895390223
20
3.08836652504002
30
0
41
1
10
14.0733259996833
20
3.08567333147795
30
0
41
1
10
14.0391458529396
20
3.07765509792719
30
0
41
1
10
14.0224804169362
20
3.07230582884142
30
0
41
1
10
13.974253135524
20
3.05253033267056
30
0
41
1
10
13.9454284839054
20
3.03491715942278
30
0
41
1
10
13.9196771087034
20
3.01334270512794
30
0
0
SPLINE
5
F8
100
AcDbEntity
8
1
62
256
6
ByLayer
370
18
48
1
60
0
100
AcDbSpline
70
4
71
3
72
24
73
20
40
0
40
0
40
0
40
0
40
0.124999999999998
40
0.124999999999998
40
0.187499999999998
40
0.187499999999998
40
0.249999999999997
40
0.249999999999997
40
0.374999999999996
40
0.374999999999996
40
0.499999999999995
40
0.499999999999995
40
0.624999999999994
40
0.624999999999994
40
0.687499999999994
40
0.687499999999994
40
0.749999999999995
40
0.749999999999995
40
1
40
1
40
1
40
1
41
1
10
15.1597200592317
20
1.22678640479302
30
0
41
1
10
15.1615382887728
20
1.24597305022945
30
0
41
1
10
15.1616708961069
20
1.2651321483356
30
0
41
1
10
15.1593726019104
20
1.29382965496993
30
0
41
1
10
15.1581818091478
20
1.30342354008738
30
0
41
1
10
15.1549665477866
20
1.32244077846758
30
0
41
1
10
15.1529610365792
20
1.33177274234006
30
0
41
1
10
15.1458148386665
20
1.35926574910988
30
0
41
1
10
15.1395521068263
20
1.37692739027796
30
0
41
1
10
15.1241538079413
20
1.41096267767151
30
0
41
1
10
15.1149134454927
20
1.42744121525388
30
0
41
1
10
15.094409436934
20
1.45779959887346
30
0
41
1
10
15.0830918770835
20
1.47185087510314
30
0
41
1
10
15.0646340624734
20
1.49133934347157
30
0
41
1
10
15.0582331702802
20
1.49756930382137
30
0
41
1
10
15.0449393564086
20
1.50949809763003
30
0
41
1
10
15.0380196930384
20
1.51521424269481
30
0
41
1
10
15.002803099302
20
1.54200148319268
30
0
41
1
10
14.9723618350387
20
1.55817225937278
30
0
41
1
10
14.9399196270627
20
1.56949338299805
30
0
0
SPLINE
5
F9
100
AcDbEntity
8
1
62
256
6
ByLayer
370
18
48
1
60
0
100
AcDbSpline
70
4
71
3
72
18
73
14
40
0
40
0
40
0
40
0
40
0.249999999999999
40
0.249999999999999
40
0.374999999999999
40
0.374999999999999
40
0.437499999999998
40
0.437499999999998
40
0.499999999999998
40
0.499999999999998
40
0.749999999999999
40
0.749999999999999
40
1
40
1
40
1
40
1
41
1
10
14.5406503980647
20
1.86825487947914
30
0
41
1
10
14.5669805546802
20
1.83151012637418
30
0
41
1
10
14.5954768423185
20
1.79804915400845
30
0
41
1
10
14.641133524453
20
1.75206498068158
30
0
41
1
10
14.6568419088155
20
1.73744403432016
30
0
41
1
10
14.6811272839891
20
1.71652810881355
30
0
41
1
10
14.689343056499
20
1.70972564977618
30
0
41
1
10
14.7060160491827
20
1.69645527687723
30
0
41
1
10
14.7144927081905
20
1.68997344871087
30
0
41
1
10
14.7571971786187
20
1.65860075011918
30
0
41
1
10
14.7923613490518
20
1.63678011426262
30
0
41
1
10
14.8646495546173
20
1.59887794828376
30
0
41
1
10
14.9017747568726
20
1.58280452357806
30
0
41
1
10
14.9399196270627
20
1.56949338299805
30
0
0
SPLINE
5
FA
100
AcDbEntity
8
1
62
256
6
ByLayer
370
18
48
1
60
0
100
AcDbSpline
70
4
71
3
72
24
73
20
40
0
40
0
40
0
40
0
40
0.250000000000002
40
0.250000000000002
40
0.312500000000003
40
0.312500000000003
40
0.375000000000003
40
0.375000000000003
40
0.500000000000002
40
0.500000000000002
40
0.625000000000001
40
0.625000000000001
40
0.749999999999999
40
0.749999999999999
40
0.812499999999999
40
0.812499999999999
40
0.874999999999999
40
0.874999999999999
40
1
40
1
40
1
40
1
41
1
10
14.4400408842003
20
2.64305509281593
30
0
41
1
10
14.4522578058881
20
2.67517068907327
30
0
41
1
10
14.4594752730836
20
2.70887636722245
30
0
41
1
10
14.461641315864
20
2.75306995257782
30
0
41
1
10
14.4617204147336
20
2.76204490655689
30
0
41
1
10
14.4611475096082
20
2.77989689212433
30
0
41
1
10
14.4604994687653
20
2.7888055323065
30
0
41
1
10
14.4574647413858
20
2.81547539824655
30
0
41
1
10
14.4539954431654
20
2.83318103278785
30
0
41
1
10
14.443958725616
20
2.86841326410809
30
0
41
1
10
14.4372948078596
20
2.88609146252227
30
0
41
1
10
14.4211578030574
20
2.91978278889164
30
0
41
1
10
14.4116718910944
20
2.93594363209618
30
0
41
1
10
14.3952304328012
20
2.9591085196428
30
0
41
1
10
14.3893792892092
20
2.96664985530606
30
0
41
1
10
14.3768944173872
20
2.98135091774441
30
0
41
1
10
14.3703184298687
20
2.98843731366958
30
0
41
1
10
14.3498348109411
20
3.0086672518521
30
0
41
1
10
14.3350865325324
20
3.02089741574818
30
0
41
1
10
14.3192322297153
20
3.03185526243215
30
0
0
SPLINE
5
FB
100
AcDbEntity
8
1
62
256
6
ByLayer
370
18
48
1
60
0
100
AcDbSpline
70
4
71
3
72
17
73
13
40
0
40
0
40
0
40
0
40
0.250000000000001
40
0.250000000000001
40
0.500000000000002
40
0.500000000000002
40
0.562500000000002
40
0.562500000000002
40
0.625000000000002
40
0.750000000000001
40
0.750000000000001
40
1
40
1
40
1
40
1
41
1
10
14.4400408842003
20
2.64305509281593
30
0
41
1
10
14.4256780736432
20
2.60529842736804
30
0
41
1
10
14.4140912986381
20
2.56656069493383
30
0
41
1
10
14.3965820306325
20
2.48692316900488
30
0
41
1
10
14.390652878224
20
2.44602748763009
30
0
41
1
10
14.3871674645077
20
2.39326291643368
30
0
41
1
10
14.3866679313288
20
2.38260192411414
30
0
41
1
10
14.3860847191534
20
2.36125093592455
30
0
41
1
10
14.3858307089312
20
2.32918359656665
30
0
41
1
10
14.3874478627213
20
2.29698092766961
30
0
41
1
10
14.3932555777696
20
2.23235595918828
30
0
41
1
10
14.4005304913452
20
2.18898204421322
30
0
41
1
10
14.4117028506786
20
2.14518833869343
30
0
0
SPLINE
5
FC
100
AcDbEntity
8
1
62
256
6
ByLayer
370
18
48
1
60
0
100
AcDbSpline
70
4
71
3
72
26
73
22
40
0
40
0
40
0
40
0
40
0.249999999999993
40
0.249999999999993
40
0.312499999999993
40
0.312499999999993
40
0.374999999999992
40
0.374999999999992
40
0.499999999999992
40
0.499999999999992
40
0.562499999999992
40
0.562499999999992
40
0.624999999999992
40
0.624999999999992
40
0.749999999999994
40
0.749999999999994
40
0.812499999999995
40
0.812499999999995
40
0.874999999999997
40
0.874999999999997
40
1
40
1
40
1
40
1
41
1
10
13.6401759202484
20
-0.286581418468927
30
0
41
1
10
13.6619937446156
20
-0.312252589416431
30
0
41
1
10
13.6874796411595
20
-0.334456449698138
30
0
41
1
10
13.7242588188526
20
-0.357411683713622
30
0
41
1
10
13.7318996595567
20
-0.361772924595385
30
0
41
1
10
13.7474562249183
20
-0.369842404978016
30
0
41
1
10
13.7553881639529
20
-0.373564277114269
30
0
41
1
10
13.7796436610464
20
-0.383786195705795
30
0
41
1
10
13.7964237429994
20
-0.389349108140237
30
0
41
1
10
13.8225561092672
20
-0.395687287917241
30
0
41
1
10
13.831428008153
20
-0.397464128750272
30
0
41
1
10
13.8495127393292
20
-0.400302033083278
30
0
41
1
10
13.8586600969976
20
-0.401349248415528
30
0
41
1
10
13.8860552052648
20
-0.403333271574638
30
0
41
1
10
13.9044002037736
20
-0.40314440731828
30
0
41
1
10
13.9320382857015
20
-0.400519867328285
30
0
41
1
10
13.9412711950363
20
-0.399252901517343
30
0
41
1
10
13.9597787072832
20
-0.395895909884814
30
0
41
1
10
13.9690466695038
20
-0.393800836012929
30
0
41
1
10
13.9962731231121
20
-0.386406241900431
30
0
41
1
10
14.0138742740571
20
-0.379971671394486
30
0
41
1
10
14.0309254210772
20
-0.372032206099846
30
0
0
SPLINE
5
FD
100
AcDbEntity
8
1
62
256
6
ByLayer
370
18
48
1
60
0
100
AcDbSpline
70
4
71
3
72
34
73
30
40
0
40
0
40
0
40
0
40
0.125
40
0.125
40
0.1875
40
0.1875
40
0.21875
40
0.21875
40
0.25
40
0.25
40
0.375
40
0.375
40
0.406250000000001
40
0.406250000000001
40
0.437500000000001
40
0.500000000000001
40
0.562500000000001
40
0.562500000000001
40
0.625
40
0.625
40
0.6875
40
0.6875
40
0.75
40
0.75
40
0.875
40
0.875
40
0.9375
40
0.9375
40
1
40
1
40
1
40
1
41
1
10
13.6401759202484
20
-0.286581418468927
30
0
41
1
10
13.6073313021907
20
-0.247935960944346
30
0
41
1
10
13.5710207591111
20
-0.212346136761454
30
0
41
1
10
13.5109088903092
20
-0.163614852674442
30
0
41
1
10
13.4899230370015
20
-0.148151704432678
30
0
41
1
10
13.4568758157596
20
-0.1261946010938
30
0
41
1
10
13.445571576772
20
-0.119066798208877
30
0
41
1
10
13.4225287329867
20
-0.105316369923656
30
0
41
1
10
13.4108284929282
20
-0.0987148443601029
30
0
41
1
10
13.3514126684787
20
-0.0670831544058501
30
0
41
1
10
13.3009933434612
20
-0.046121417594378
30
0
41
1
10
13.2336610038751
20
-0.0260147625787681
30
0
41
1
10
13.2199571624026
20
-0.0223009447243498
30
0
41
1
10
13.192539391343
20
-0.0156230672641868
30
0
41
1
10
13.1512402504966
20
-0.0066812275092332
30
0
41
1
10
13.0815520255075
20
0.0029082535667158
30
0
41
1
10
13.0248787865753
20
0.0048730701679176
30
0
41
1
10
12.967727343133
20
0.0038711285514523
30
0
41
1
10
12.9396005201256
20
0.0018987741831893
30
0
41
1
10
12.8842182729321
20
-0.0047784987714863
30
0
41
1
10
12.8569529135457
20
-0.0094844013177919
30
0
41
1
10
12.8032140792043
20
-0.021532293416584
30
0
41
1
10
12.7766581460163
20
-0.0289179355224292
30
0
41
1
10
12.6999368141382
20
-0.0543279543608719
30
0
41
1
10
12.6520405067319
20
-0.0756697537468369
30
0
41
1
10
12.5842613975515
20
-0.113668188373708
30
0
41
1
10
12.562288567882
20
-0.12739060145131
30
0
41
1
10
12.5200405412573
20
-0.156588639449865
30
0
41
1
10
12.4997749000349
20
-0.172045848351331
30
0
41
1
10
12.4803228912966
20
-0.188342705127894
30
0
0
SPLINE
5
FE
100
AcDbEntity
8
1
62
256
6
ByLayer
370
18
48
1
60
0
100
AcDbSpline
70
4
71
3
72
24
73
20
40
0
40
0
40
0
40
0
40
0.0624999999999991
40
0.0624999999999991
40
0.124999999999998
40
0.124999999999998
40
0.249999999999996
40
0.249999999999996
40
0.312499999999996
40
0.312499999999996
40
0.374999999999996
40
0.374999999999996
40
0.499999999999997
40
0.499999999999997
40
0.624999999999998
40
0.624999999999998
40
0.749999999999999
40
0.749999999999999
40
1
40
1
40
1
40
1
41
1
10
12.0807677702847
20
-0.206855262432129
30
0
41
1
10
12.0884934266306
20
-0.212194920614934
30
0
41
1
10
12.0965191983942
20
-0.21725086089657
30
0
41
1
10
12.1129505438963
20
-0.226635296565945
30
0
41
1
10
12.1213012641787
20
-0.230937016227415
30
0
41
1
10
12.1467435972097
20
-0.24271313175143
30
0
41
1
10
12.1642227779592
20
-0.249066196864476
30
0
41
1
10
12.191209488532
20
-0.25636738789953
30
0
41
1
10
12.2003500881408
20
-0.25842633800346
30
0
41
1
10
12.2185283554335
20
-0.261727129410247
30
0
41
1
10
12.2276099052263
20
-0.262982665946367
30
0
41
1
10
12.2548307989471
20
-0.265610732382413
30
0
41
1
10
12.272946619788
20
-0.265851868867628
30
0
41
1
10
12.309104609777
20
-0.26336652503997
30
0
41
1
10
12.3266740003167
20
-0.260673331477904
30
0
41
1
10
12.3608541470604
20
-0.252655097927175
30
0
41
1
10
12.3775195830638
20
-0.247305828841377
30
0
41
1
10
12.4257468644761
20
-0.227530332670511
30
0
41
1
10
12.4545715160946
20
-0.20991715942273
30
0
41
1
10
12.4803228912966
20
-0.188342705127894
30
0
0
SPLINE
5
FF
100
AcDbEntity
8
1
62
256
6
ByLayer
370
18
48
1
60
0
100
AcDbSpline
70
4
71
3
72
24
73
20
40
0
40
0
40
0
40
0
40
0.124999999999999
40
0.124999999999999
40
0.187499999999998
40
0.187499999999998
40
0.249999999999998
40
0.249999999999998
40
0.374999999999997
40
0.374999999999997
40
0.499999999999996
40
0.499999999999996
40
0.624999999999995
40
0.624999999999995
40
0.687499999999996
40
0.687499999999996
40
0.749999999999996
40
0.749999999999996
40
1
40
1
40
1
40
1
41
1
10
11.2402799407683
20
1.598213595207
30
0
41
1
10
11.2384617112272
20
1.57902694977056
30
0
41
1
10
11.2383291038931
20
1.55986785166445
30
0
41
1
10
11.2406273980897
20
1.53117034503012
30
0
41
1
10
11.2418181908522
20
1.52157645991264
30
0
41
1
10
11.2450334522134
20
1.50255922153244
30
0
41
1
10
11.2470389634208
20
1.49322725765998
30
0
41
1
10
11.2541851613335
20
1.46573425089014
30
0
41
1
10
11.2604478931737
20
1.44807260972209
30
0
41
1
10
11.2758461920587
20
1.41403732232854
30
0
41
1
10
11.2850865545073
20
1.39755878474617
30
0
41
1
10
11.305590563066
20
1.36720040112658
30
0
41
1
10
11.3169081229165
20
1.35314912489687
30
0
41
1
10
11.3353659375266
20
1.33366065652848
30
0
41
1
10
11.3417668297199
20
1.32743069617868
30
0
41
1
10
11.3550606435914
20
1.31550190236999
30
0
41
1
10
11.3619803069616
20
1.30978575730521
30
0
41
1
10
11.3971969006981
20
1.28299851680734
30
0
41
1
10
11.4276381649613
20
1.26682774062726
30
0
41
1
10
11.4600803729372
20
1.255506617002
30
0
0
SPLINE
5
100
100
AcDbEntity
8
1
62
256
6
ByLayer
370
18
48
1
60
0
100
AcDbSpline
70
4
71
3
72
17
73
13
40
0
40
0
40
0
40
0
40
0.25
40
0.25
40
0.5
40
0.5
40
0.5625
40
0.5625
40
0.625
40
0.750000000000001
40
0.750000000000001
40
1
40
1
40
1
40
1
41
1
10
11.9599591157997
20
0.181944907184118
30
0
41
1
10
11.9743219263568
20
0.219701572631948
30
0
41
1
10
11.9859087013619
20
0.258439305066076
30
0
41
1
10
12.0034179693674
20
0.338076830994908
30
0
41
1
10
12.009347121776
20
0.378972512369614
30
0
41
1
10
12.0128325354923
20
0.431737083565935
30
0
41
1
10
12.0133320686712
20
0.44239807588545
30
0
41
1
10
12.0139152808466
20
0.463749064075046
30
0
41
1
10
12.0141692910688
20
0.495816403432912
30
0
41
1
10
12.0125521372787
20
0.528019072329954
30
0
41
1
10
12.0067444222304
20
0.592644040811365
30
0
41
1
10
11.9994695086549
20
0.636017955786571
30
0
41
1
10
11.9882971493214
20
0.679811661306616
30
0
0
SPLINE
5
101
100
AcDbEntity
8
1
62
256
6
ByLayer
370
18
48
1
60
0
100
AcDbSpline
70
4
71
3
72
18
73
14
40
0
40
0
40
0
40
0
40
0.249999999999999
40
0.249999999999999
40
0.374999999999998
40
0.374999999999998
40
0.437499999999998
40
0.437499999999998
40
0.499999999999998
40
0.499999999999998
40
0.749999999999999
40
0.749999999999999
40
1
40
1
40
1
40
1
41
1
10
11.8593496019353
20
0.956745120520878
30
0
41
1
10
11.83301944532
20
0.993489873625578
30
0
41
1
10
11.8045231576818
20
1.02695084599128
30
0
41
1
10
11.7588664755473
20
1.07293501931826
30
0
41
1
10
11.7431580911846
20
1.08755596567974
30
0
41
1
10
11.7188727160109
20
1.1084718911865
30
0
41
1
10
11.7106569435009
20
1.11527435022393
30
0
41
1
10
11.6939839508171
20
1.12854472312299
30
0
41
1
10
11.6855072918092
20
1.1350265512894
30
0
41
1
10
11.6428028213812
20
1.16639924988095
30
0
41
1
10
11.6076386509482
20
1.18821988573745
30
0
41
1
10
11.5353504453828
20
1.22612205171626
30
0
41
1
10
11.4982252431275
20
1.24219547642198
30
0
41
1
10
11.4600803729372
20
1.255506617002
30
0
0
SPLINE
5
102
100
AcDbEntity
8
1
62
256
6
ByLayer
370
18
48
1
60
0
100
AcDbSpline
70
4
71
3
72
24
73
20
40
0
40
0
40
0
40
0
40
0.250000000000003
40
0.250000000000003
40
0.312500000000004
40
0.312500000000004
40
0.375000000000004
40
0.375000000000004
40
0.500000000000003
40
0.500000000000003
40
0.625000000000002
40
0.625000000000002
40
0.750000000000001
40
0.750000000000001
40
0.812500000000001
40
0.812500000000001
40
0.875
40
0.875
40
1
40
1
40
1
40
1
41
1
10
11.9599591157997
20
0.181944907184118
30
0
41
1
10
11.9477421941119
20
0.149829310926776
30
0
41
1
10
11.9405247269164
20
0.116123632777601
30
0
41
1
10
11.938358684136
20
0.071930047422228
30
0
41
1
10
11.9382795852664
20
0.0629550934431506
30
0
41
1
10
11.9388524903919
20
0.0451031078757183
30
0
41
1
10
11.9395005312347
20
0.0361944676935195
30
0
41
1
10
11.9425352586142
20
0.0095246017534976
30
0
41
1
10
11.9460045568346
20
-0.0081810327878031
30
0
41
1
10
11.956041274384
20
-0.043413264108068
30
0
41
1
10
11.9627051921404
20
-0.0610914625222279
30
0
41
1
10
11.9788421969427
20
-0.0947827888915924
30
0
41
1
10
11.9883281089056
20
-0.110943632096138
30
0
41
1
10
12.0047695671988
20
-0.13410851964278
30
0
41
1
10
12.0106207107908
20
-0.141649855306014
30
0
41
1
10
12.0231055826129
20
-0.156350917744362
30
0
41
1
10
12.0296815701313
20
-0.163437313669533
30
0
41
1
10
12.0501651890589
20
-0.183667251852057
30
0
41
1
10
12.0649134674676
20
-0.195897415748135
30
0
41
1
10
12.0807677702847
20
-0.206855262432129
30
0
0
SPLINE
5
103
100
AcDbEntity
8
1
62
256
6
ByLayer
370
18
48
1
60
0
100
AcDbSpline
70
4
71
3
72
34
73
30
40
0
40
0
40
0
40
0
40
0.125
40
0.125
40
0.187499999999999
40
0.187499999999999
40
0.218749999999999
40
0.218749999999999
40
0.249999999999998
40
0.249999999999998
40
0.374999999999999
40
0.374999999999999
40
0.406249999999999
40
0.406249999999999
40
0.4375
40
0.5
40
0.5625
40
0.5625
40
0.625
40
0.625
40
0.6875
40
0.6875
40
0.75
40
0.75
40
0.875
40
0.875
40
0.9375
40
0.9375
40
1
40
1
40
1
40
1
41
1
10
11.5116195809111
20
1.89208739327674
30
0
41
1
10
11.5615694580191
20
1.90087661602919
30
0
41
1
10
11.6106362122049
20
1.91420121432407
30
0
41
1
10
11.683077426214
20
1.94141233812547
30
0
41
1
10
11.7070308195165
20
1.95169581556755
30
0
41
1
10
11.7426864879757
20
1.96910002137227
30
0
41
1
10
11.7545526481109
20
1.97524702024833
30
0
41
1
10
11.7780688494595
20
1.98817123351935
30
0
41
1
10
11.789681282967
20
1.99492602167658
30
0
41
1
10
11.8470190337769
20
2.03018487422227
30
0
41
1
10
11.890602035047
20
2.06307901840253
30
0
41
1
10
11.9420011997285
20
2.11099610105933
30
0
41
1
10
11.9521358017249
20
2.12093982154164
30
0
41
1
10
11.9717633082406
20
2.14121515893066
30
0
41
1
10
12.0003644439354
20
2.17232063673396
30
0
41
1
10
12.0438821789761
20
2.22758919651309
30
0
41
1
10
12.0742399021877
20
2.27548622036622
30
0
41
1
10
12.1022801226557
20
2.32529622901237
30
0
41
1
10
12.1148038735827
20
2.3505581419617
30
0
41
1
10
12.1370533360057
20
2.40171223027627
30
0
41
1
10
12.1467832250474
20
2.42761347703239
30
0
41
1
10
12.1635684107255
20
2.48006604024621
30
0
41
1
10
12.1706277533018
20
2.50671057048137
30
0
41
1
10
12.1875092226379
20
2.58574757523687
30
0
41
1
10
12.1933218801412
20
2.63786035336176
30
0
41
1
10
12.1948210379445
20
2.71554974034441
30
0
41
1
10
12.194095866226
20
2.74144537564169
30
0
41
1
10
12.1902744812789
20
2.79265883288033
30
0
41
1
10
12.1871893223593
20
2.81795909568018
30
0
41
1
10
12.182968320125
20
2.84298211085763
30
0
0
SPLINE
5
104
100
AcDbEntity
8
1
62
256
6
ByLayer
370
18
48
1
60
0
100
AcDbSpline
70
4
71
3
72
26
73
22
40
0
40
0
40
0
40
0
40
0.125
40
0.125
40
0.25
40
0.25
40
0.312500000000001
40
0.312500000000001
40
0.375000000000001
40
0.375000000000001
40
0.5
40
0.5
40
0.562499999999999
40
0.562499999999999
40
0.624999999999999
40
0.624999999999999
40
0.749999999999999
40
0.749999999999999
40
0.874999999999999
40
0.874999999999999
40
1
40
1
40
1
40
1
41
1
10
12.3690745789228
20
3.19703220609989
30
0
41
1
10
12.352084051977
20
3.18912096711608
30
0
41
1
10
12.3355073346868
20
3.17959642461383
30
0
41
1
10
12.3047655314751
20
3.15824725334386
30
0
41
1
10
12.2904584222905
20
3.14638718419963
30
0
41
1
10
12.2705628429372
20
3.12685636801038
30
0
41
1
10
12.2641647412164
20
3.12001878630767
30
0
41
1
10
12.2520944442309
20
3.10597821348966
30
0
41
1
10
12.2464108944973
20
3.0987704901556
30
0
41
1
10
12.2303693996678
20
3.07661154723553
30
0
41
1
10
12.2210142682372
20
3.0611278335679
30
0
41
1
10
12.2089379767858
20
3.03687375858945
30
0
41
1
10
12.20525418582
20
3.02863691977692
30
0
41
1
10
12.1986461660604
20
3.01210759497744
30
0
41
1
10
12.1957048673253
20
3.00378187880941
30
0
41
1
10
12.1879248825122
20
2.97863256837041
30
0
41
1
10
12.1841241892698
20
2.96163776566212
30
0
41
1
10
12.1792197258637
20
2.92722265046785
30
0
41
1
10
12.1781648647275
20
2.91010985227538
30
0
41
1
10
12.178643665545
20
2.87629193109626
30
0
41
1
10
12.1801735292664
20
2.85955023619667
30
0
41
1
10
12.182968320125
20
2.84298211085763
30
0
0
SPLINE
5
105
100
AcDbEntity
8
1
62
256
6
ByLayer
370
18
48
1
60
0
100
AcDbSpline
70
4
71
3
72
24
73
20
40
0
40
0
40
0
40
0
40
0.0625000000000011
40
0.0625000000000011
40
0.125000000000002
40
0.125000000000002
40
0.250000000000005
40
0.250000000000005
40
0.312500000000005
40
0.312500000000005
40
0.375000000000005
40
0.375000000000005
40
0.500000000000004
40
0.500000000000004
40
0.625000000000004
40
0.625000000000004
40
0.750000000000003
40
0.750000000000003
40
1
40
1
40
1
40
1
41
1
10
11.2402799407683
20
1.598213595207
30
0
41
1
10
11.2411659473467
20
1.60756307154668
30
0
41
1
10
11.242462257866
20
1.61695962003915
30
0
41
1
10
11.2458560677946
20
1.6355751727306
30
0
41
1
10
11.2479387531872
20
1.64473496218434
30
0
41
1
10
11.2553020261907
20
1.67178623604659
30
0
41
1
10
11.2616902517327
20
1.68925259715678
30
0
41
1
10
11.2734723242879
20
1.7146055595945
30
0
41
1
10
11.2777798577048
20
1.72292631632709
30
0
41
1
10
11.2869540263044
20
1.73896312574098
30
0
41
1
10
11.2918384246761
20
1.74672157733781
30
0
41
1
10
11.3073476845265
20
1.76924593408873
30
0
41
1
10
11.3188232885491
20
1.78326562109885
30
0
41
1
10
11.3439982807964
20
1.80933853691843
30
0
41
1
10
11.3573678924213
20
1.82105136153493
30
0
41
1
10
11.385504312227
20
1.84204937051717
30
0
41
1
10
11.4003248578902
20
1.8513608077414
30
0
41
1
10
11.4465007618278
20
1.87554193295836
30
0
41
1
10
11.478533387736
20
1.88626551865596
30
0
41
1
10
11.5116195809111
20
1.89208739327674
30
0
0
SPLINE
5
106
100
AcDbEntity
8
1
62
256
6
ByLayer
370
18
48
1
60
0
100
AcDbSpline
70
4
71
3
72
34
73
30
40
0
40
0
40
0
40
0
40
0.125
40
0.125
40
0.1875
40
0.1875
40
0.21875
40
0.21875
40
0.25
40
0.25
40
0.374999999999999
40
0.374999999999999
40
0.406249999999999
40
0.406249999999999
40
0.437499999999999
40
0.499999999999999
40
0.562499999999999
40
0.562499999999999
40
0.624999999999999
40
0.624999999999999
40
0.687499999999999
40
0.687499999999999
40
0.75
40
0.75
40
0.875
40
0.875
40
0.9375
40
0.9375
40
1
40
1
40
1
40
1
41
1
10
14.8883804190889
20
0.932912606723306
30
0
41
1
10
14.838430541981
20
0.924123383970851
30
0
41
1
10
14.7893637877951
20
0.910798785675951
30
0
41
1
10
14.716922573786
20
0.883587661874572
30
0
41
1
10
14.6929691804835
20
0.87330418443247
30
0
41
1
10
14.6573135120243
20
0.855899978627775
30
0
41
1
10
14.6454473518891
20
0.849752979751685
30
0
41
1
10
14.6219311505406
20
0.836828766480693
30
0
41
1
10
14.610318717033
20
0.830073978323469
30
0
41
1
10
14.5529809662231
20
0.794815125777774
30
0
41
1
10
14.509397964953
20
0.761920981597513
30
0
41
1
10
14.4579988002715
20
0.714003898940717
30
0
41
1
10
14.4478641982751
20
0.704060178458406
30
0
41
1
10
14.4282366917594
20
0.683784841069382
30
0
41
1
10
14.3996355560646
20
0.652679363266088
30
0
41
1
10
14.3561180650529
20
0.597410611587321
30
0
41
1
10
14.3257600978123
20
0.549513779633827
30
0
41
1
10
14.2977198773443
20
0.499703770987679
30
0
41
1
10
14.2851961264173
20
0.474441858038347
30
0
41
1
10
14.2629466639943
20
0.423287769723771
30
0
41
1
10
14.2532167749526
20
0.397386522967622
30
0
41
1
10
14.2364315892746
20
0.344933959753831
30
0
41
1
10
14.2293722466982
20
0.318289429518643
30
0
41
1
10
14.2124907773621
20
0.239252424763151
30
0
41
1
10
14.2066781198588
20
0.187139646638286
30
0
41
1
10
14.2051789620555
20
0.109450259655631
30
0
41
1
10
14.205904133774
20
0.0835546243583565
30
0
41
1
10
14.2097255187211
20
0.0323411671197107
30
0
41
1
10
14.2128106776407
20
0.0070409043198651
30
0
41
1
10
14.217031679875
20
-0.0179821108575879
30
0
0
SPLINE
5
107
100
AcDbEntity
8
1
62
256
6
ByLayer
370
18
48
1
60
0
100
AcDbSpline
70
4
71
3
72
26
73
22
40
0
40
0
40
0
40
0
40
0.125
40
0.125
40
0.250000000000001
40
0.250000000000001
40
0.312500000000001
40
0.312500000000001
40
0.375000000000001
40
0.375000000000001
40
0.5
40
0.5
40
0.5625
40
0.5625
40
0.625
40
0.625
40
0.749999999999999
40
0.749999999999999
40
0.874999999999999
40
0.874999999999999
40
1
40
1
40
1
40
1
41
1
10
14.0309254210772
20
-0.372032206099846
30
0
41
1
10
14.047915948023
20
-0.364120967116065
30
0
41
1
10
14.0644926653132
20
-0.354596424613788
30
0
41
1
10
14.0952344685249
20
-0.333247253343814
30
0
41
1
10
14.1095415777095
20
-0.32138718419958
30
0
41
1
10
14.1294371570628
20
-0.301856368010334
30
0
41
1
10
14.1358352587836
20
-0.295018786307622
30
0
41
1
10
14.1479055557692
20
-0.280978213489618
30
0
41
1
10
14.1535891055027
20
-0.273770490155556
30
0
41
1
10
14.1696306003322
20
-0.251611547235484
30
0
41
1
10
14.1789857317628
20
-0.236127833567878
30
0
41
1
10
14.1910620232142
20
-0.211873758589434
30
0
41
1
10
14.19474581418
20
-0.203636919776898
30
0
41
1
10
14.2013538339396
20
-0.187107594977391
30
0
41
1
10
14.2042951326747
20
-0.178781878809389
30
0
41
1
10
14.2120751174878
20
-0.153632568370369
30
0
41
1
10
14.2158758107303
20
-0.136637765662073
30
0
41
1
10
14.2207802741363
20
-0.102222650467809
30
0
41
1
10
14.2218351352725
20
-0.0851098522753375
30
0
41
1
10
14.221356334455
20
-0.0512919310962445
30
0
41
1
10
14.2198264707336
20
-0.0345502361966226
30
0
41
1
10
14.217031679875
20
-0.0179821108575879
30
0
0
SPLINE
5
108
100
AcDbEntity
8
1
62
256
6
ByLayer
370
18
48
1
60
0
100
AcDbSpline
70
4
71
3
72
24
73
20
40
0
40
0
40
0
40
0
40
0.0624999999999994
40
0.0624999999999994
40
0.124999999999999
40
0.124999999999999
40
0.249999999999996
40
0.249999999999996
40
0.312499999999996
40
0.312499999999996
40
0.374999999999996
40
0.374999999999996
40
0.499999999999996
40
0.499999999999996
40
0.624999999999997
40
0.624999999999997
40
0.749999999999997
40
0.749999999999997
40
1
40
1
40
1
40
1
41
1
10
15.1597200592317
20
1.22678640479302
30
0
41
1
10
15.1588340526533
20
1.21743692845334
30
0
41
1
10
15.157537742134
20
1.20804037996089
30
0
41
1
10
15.1541439322054
20
1.18942482726945
30
0
41
1
10
15.1520612468128
20
1.1802650378157
30
0
41
1
10
15.1446979738093
20
1.15321376395343
30
0
41
1
10
15.1383097482673
20
1.13574740284327
30
0
41
1
10
15.1265276757121
20
1.11039444040551
30
0
41
1
10
15.1222201422952
20
1.10207368367296
30
0
41
1
10
15.1130459736956
20
1.08603687425904
30
0
41
1
10
15.1081615753239
20
1.07827842266224
30
0
41
1
10
15.0926523154735
20
1.05575406591132
30
0
41
1
10
15.0811767114509
20
1.04173437890117
30
0
41
1
10
15.0560017192036
20
1.01566146308161
30
0
41
1
10
15.0426321075787
20
1.00394863846512
30
0
41
1
10
15.014495687773
20
0.982950629482872
30
0
41
1
10
14.9996751421098
20
0.973639192258645
30
0
41
1
10
14.9534992381722
20
0.949458067041689
30
0
41
1
10
14.921466612264
20
0.938734481344085
30
0
41
1
10
14.8883804190889
20
0.932912606723306
30
0
0
SPLINE
5
109
100
AcDbEntity
8
1
62
256
6
ByLayer
370
35
48
1
60
0
100
AcDbSpline
70
4
71
3
72
8
73
4
40
0
40
0
40
0
40
0
40
1
40
1
40
1
40
1
41
1
10
31.0727590928255
20
5.7504208908133
30
0
41
1
10
31.0857631246237
20
5.74718682845838
30
0
41
1
10
31.0990607875047
20
5.74527967621722
30
0
41
1
10
31.1124323856723
20
5.74471096102008
30
0
0
SPLINE
5
10A
100
AcDbEntity
8
1
62
256
6
ByLayer
370
35
48
1
60
0
100
AcDbSpline
70
4
71
3
72
8
73
4
40
0
40
0
40
0
40
0
40
1
40
1
40
1
40
1
41
1
10
16.0875676143279
20
8.08028903897994
30
0
41
1
10
16.1009391290104
20
8.07972032733355
30
0
41
1
10
16.1142369662246
20
8.07781314894797
30
0
41
1
10
16.1272409071745
20
8.07457910918674
30
0
0
SPLINE
5
10B
100
AcDbEntity
8
SK1
62
256
6
ByLayer
370
70
48
1
60
0
100
AcDbSpline
70
4
71
3
72
43
73
39
40
0
40
0
40
0
40
0
40
0.0312055502452044
40
0.0312055502452044
40
0.0468083253678065
40
0.0468083253678065
40
0.0624111004904087
40
0.0624111004904087
40
0.0780138756130108
40
0.0780138756130108
40
0.093616650735613
40
0.093616650735613
40
0.124822200980817
40
0.124822200980817
40
0.14042497610342
40
0.14042497610342
40
0.156027751226022
40
0.156027751226022
40
0.187233301471226
40
0.187233301471226
40
0.249644401961634
40
0.249644401961634
40
0.312055502452043
40
0.312055502452043
40
0.374466602942451
40
0.374466602942451
40
0.436877703432859
40
0.436877703432859
40
0.499288803923268
40
0.499288803923268
40
0.624111004904085
40
0.624111004904085
40
0.748933205884901
40
0.748933205884901
40
0.873755406865718
40
0.998577607846535
40
0.998577607846535
40
1
40
1
40
1
40
1
41
1
10
-37.5499999999998
20
2.99999999999986
30
0
41
1
10
-37.5312396553144
20
2.99999999999997
30
0
41
1
10
-37.5129886319104
20
3.00131094481512
30
0
41
1
10
-37.4862926995883
20
3.00500369508398
30
0
41
1
10
-37.4774999746387
20
3.0065305281569
30
0
41
1
10
-37.4605968982003
20
3.01002363617974
30
0
41
1
10
-37.4524205960598
20
3.01199755505118
30
0
41
1
10
-37.4365547672805
20
3.0163363236729
30
0
41
1
10
-37.4288295907699
20
3.01871412489783
30
0
41
1
10
-37.4140154820953
20
3.02374291034502
30
0
41
1
10
-37.4069349526943
20
3.02638758676733
30
0
41
1
10
-37.3865250979882
20
3.03463534826065
30
0
41
1
10
-37.3740202116974
20
3.04054869606657
30
0
41
1
10
-37.3565395032699
20
3.04983351437343
30
0
41
1
10
-37.3509125178568
20
3.05300784259717
30
0
41
1
10
-37.3401253040217
20
3.05942402487372
30
0
41
1
10
-37.3349716468462
20
3.06266060717371
30
0
41
1
10
-37.3201357678616
20
3.07242913860807
30
0
41
1
10
-37.3110742947204
20
3.07901874028752
30
0
41
1
10
-37.2858495466303
20
3.09886483947528
30
0
41
1
10
-37.2716173400617
20
3.11219607668684
30
0
41
1
10
-37.246747806839
20
3.13853086038338
30
0
41
1
10
-37.2363120328142
20
3.15133401662328
30
0
41
1
10
-37.2182034138477
20
3.17606711393029
30
0
41
1
10
-37.2105438347647
20
3.18799845562185
30
0
41
1
10
-37.1972732186671
20
3.21089960162521
30
0
41
1
10
-37.1916672426108
20
3.22186996398838
30
0
41
1
10
-37.1820106096291
20
3.24278523185757
30
0
41
1
10
-37.1779592933945
20
3.25273852018358
30
0
41
1
10
-37.1676076149272
20
3.28093284637248
30
0
41
1
10
-37.163126365469
20
3.29734968958664
30
0
41
1
10
-37.1567345140735
20
3.32549796712712
30
0
41
1
10
-37.1548419272923
20
3.33722960933642
30
0
41
1
10
-37.1523101608526
20
3.35603619432987
30
0
41
1
10
-37.151041591873
20
3.37018615791362
30
0
41
1
10
-37.1507832402924
20
3.37498042469289
30
0
41
1
10
-37.1507819608498
20
3.37500110100903
30
0
41
1
10
-37.1507820185797
20
3.37499985626051
30
0
41
1
10
-37.1507820678236
20
3.37499885737317
30
0
0
SPLINE
5
10C
100
AcDbEntity
8
SK1
62
256
6
ByLayer
370
70
48
1
60
0
100
AcDbSpline
70
4
71
3
72
42
73
38
40
0
40
0
40
0
40
0
40
0.0004649297804121
40
0.0004649297804121
40
0.125406813557861
40
0.125406813557861
40
0.25034869733531
40
0.25034869733531
40
0.375290581112758
40
0.375290581112758
40
0.500232464890207
40
0.500232464890207
40
0.625174348667656
40
0.625174348667656
40
0.656409819612018
40
0.656409819612018
40
0.687645290556379
40
0.687645290556379
40
0.750116232445103
40
0.750116232445103
40
0.781351703389465
40
0.781351703389465
40
0.812587174333827
40
0.812587174333827
40
0.84382264527819
40
0.84382264527819
40
0.875058116222552
40
0.875058116222552
40
0.906293587166914
40
0.906293587166914
40
0.937529058111276
40
0.937529058111276
40
0.968764529055638
40
0.968764529055638
40
0.984382264527819
40
0.984382264527819
40
1
40
1
40
1
40
1
41
1
10
-37.1507820920855
20
-3.37499868815331
30
0
41
1
10
-37.1507820337047
20
-3.37499968654787
30
0
41
1
10
-37.1507819715568
20
-3.37500068471265
30
0
41
1
10
-37.1507808035125
20
-3.37501933676055
30
0
41
1
10
-37.1509086508489
20
-3.37263670366258
30
0
41
1
10
-37.1516727685263
20
-3.36314797671454
30
0
41
1
10
-37.1523084612743
20
-3.35605356957785
30
0
41
1
10
-37.1548365021343
20
-3.33726517175074
30
0
41
1
10
-37.1567249617846
20
-3.32557063880151
30
0
41
1
10
-37.1630526937415
20
-3.29764391727366
30
0
41
1
10
-37.1674773256441
20
-3.28141094170704
30
0
41
1
10
-37.1809590090204
20
-3.24445030337552
30
0
41
1
10
-37.189964147643
20
-3.22372056776709
30
0
41
1
10
-37.2064390734746
20
-3.19503742880542
30
0
41
1
10
-37.2100019026165
20
-3.18916241045997
30
0
41
1
10
-37.2177598146237
20
-3.17713758816566
30
0
41
1
10
-37.2219639256434
20
-3.17097559436007
30
0
41
1
10
-37.2356147622684
20
-3.15220714270348
30
0
41
1
10
-37.2460847245826
20
-3.13930275549555
30
0
41
1
10
-37.2646730712017
20
-3.11951750377571
30
0
41
1
10
-37.2713740366819
20
-3.11283385876894
30
0
41
1
10
-37.285830669235
20
-3.09948147347021
30
0
41
1
10
-37.2935857525637
20
-3.09280947389638
30
0
41
1
10
-37.3103600939092
20
-3.07955187467397
30
0
41
1
10
-37.3193774432844
20
-3.07296571692353
30
0
41
1
10
-37.3389807264065
20
-3.05998668828195
30
0
41
1
10
-37.3495622351403
20
-3.05359254280515
30
0
41
1
10
-37.3727808698845
20
-3.04115908273545
30
0
41
1
10
-37.3855366408268
20
-3.03507342387968
30
0
41
1
10
-37.4129896346891
20
-3.02390458356047
30
0
41
1
10
-37.4277392480273
20
-3.01877859207013
30
0
41
1
10
-37.4598574657061
20
-3.00993362507381
30
0
41
1
10
-37.4766890886561
20
-3.00636678669261
30
0
41
1
10
-37.5033280748664
20
-3.00263098952044
30
0
41
1
10
-37.5124785340208
20
-3.00165378724805
30
0
41
1
10
-37.5311473099661
20
-3.00033496312344
30
0
41
1
10
-37.5405424252855
20
-2.99999999999983
30
0
41
1
10
-37.5499999999998
20
-2.99999999999992
30
0
0
SPLINE
5
10D
100
AcDbEntity
8
1
62
256
6
ByLayer
370
70
48
1
60
0
100
AcDbSpline
70
4
71
3
72
37
73
33
40
0
40
0
40
0
40
0
40
0.0156249999999932
40
0.0156249999999932
40
0.0312499999999865
40
0.0468749999999797
40
0.0468749999999797
40
0.062499999999973
40
0.062499999999973
40
0.0937499999999633
40
0.0937499999999633
40
0.124999999999954
40
0.124999999999954
40
0.187499999999957
40
0.187499999999957
40
0.249999999999961
40
0.249999999999961
40
0.312499999999964
40
0.312499999999964
40
0.374999999999968
40
0.374999999999968
40
0.437499999999972
40
0.437499999999972
40
0.499999999999975
40
0.499999999999975
40
0.624999999999981
40
0.624999999999981
40
0.749999999999988
40
0.749999999999988
40
0.874999999999994
40
0.874999999999994
40
1
40
1
40
1
40
1
41
1
10
26.5112765606211
20
5.38750000000004
30
0
41
1
10
26.5112765606211
20
5.39387293147556
30
0
41
1
10
26.5116590043936
20
5.40029665773275
30
0
41
1
10
26.5131473482609
20
5.41290564647912
30
0
41
1
10
26.5153556632306
20
5.42536302026909
30
0
41
1
10
26.5189207362227
20
5.43753468146903
30
0
41
1
10
26.5231307965709
20
5.44957051814831
30
0
41
1
10
26.5255582058365
20
5.45550833054162
30
0
41
1
10
26.5335674943203
20
5.47276577005059
30
0
41
1
10
26.5399146576407
20
5.48366918604492
30
0
41
1
10
26.5542080414833
20
5.5045214062867
30
0
41
1
10
26.5622149940649
20
5.51452579759388
30
0
41
1
10
26.5876759745727
20
5.54275022655861
30
0
41
1
10
26.6065707406195
20
5.55936081915667
30
0
41
1
10
26.6468207306573
20
5.58975658004445
30
0
41
1
10
26.6682726480438
20
5.60353608938331
30
0
41
1
10
26.712010900897
20
5.62845272818703
30
0
41
1
10
26.7344313699633
20
5.63968442842827
30
0
41
1
10
26.7800907378135
20
5.66032699826764
30
0
41
1
10
26.8033325894147
20
5.6697312984804
30
0
41
1
10
26.8504746258405
20
5.6870752486364
30
0
41
1
10
26.8744181049949
20
5.69502471881862
30
0
41
1
10
26.922666841529
20
5.70963334418582
30
0
41
1
10
26.946888187926
20
5.71626943554168
30
0
41
1
10
27.0197950883727
20
5.73450429034568
30
0
41
1
10
27.0687209821806
20
5.74444700874056
30
0
41
1
10
27.1670639851964
20
5.76094775862038
30
0
41
1
10
27.2164828156313
20
5.76749393010647
30
0
41
1
10
27.3157325946548
20
5.77774660046288
30
0
41
1
10
27.3655641956957
20
5.78144860365413
30
0
41
1
10
27.4655937879968
20
5.7863280226986
30
0
41
1
10
27.5158695995669
20
5.78750000000005
30
0
41
1
10
27.5659300633818
20
5.78750000000005
30
0
0
SPLINE
5
10E
100
AcDbEntity
8
1
62
256
6
ByLayer
370
70
48
1
60
0
100
AcDbSpline
70
4
71
3
72
30
73
26
40
0
40
0
40
0
40
0
40
0.124999999999967
40
0.124999999999967
40
0.18749999999995
40
0.18749999999995
40
0.249999999999934
40
0.249999999999934
40
0.37499999999993
40
0.37499999999993
40
0.43749999999994
40
0.43749999999994
40
0.49999999999995
40
0.49999999999995
40
0.624999999999946
40
0.624999999999946
40
0.687499999999954
40
0.687499999999954
40
0.749999999999962
40
0.749999999999962
40
0.874999999999977
40
0.874999999999977
40
0.937499999999989
40
0.937499999999989
40
1
40
1
40
1
40
1
41
1
10
19.7288068285385
20
5.78750000000002
30
0
41
1
10
19.6997440419698
20
5.78750000000002
30
0
41
1
10
19.6707097088555
20
5.78543278497671
30
0
41
1
10
19.6272029861718
20
5.7790788016807
30
0
41
1
10
19.6126866911671
20
5.77640533144719
30
0
41
1
10
19.5841631987846
20
5.77003063328351
30
0
41
1
10
19.5700952727601
20
5.76632278651138
30
0
41
1
10
19.5284773662264
20
5.75362590742182
30
0
41
1
10
19.5015075113562
20
5.74307896675899
30
0
41
1
10
19.4623256293613
20
5.72384022379913
30
0
41
1
10
19.4494784421121
20
5.7168541231496
30
0
41
1
10
19.4242499150352
20
5.70163090390446
30
0
41
1
10
19.4120137648719
20
5.69347734013209
30
0
41
1
10
19.3767199648509
20
5.6675073087124
30
0
41
1
10
19.3549523265125
20
5.64813776447374
30
0
41
1
10
19.3253210057321
20
5.61555818136009
30
0
41
1
10
19.315937089945
20
5.60407353208663
30
0
41
1
10
19.2986207246812
20
5.58024758038098
30
0
41
1
10
19.2906154317151
20
5.56781365062011
30
0
41
1
10
19.2689600531907
20
5.52930764621306
30
0
41
1
10
19.2578158318035
20
5.50240811742617
30
0
41
1
10
19.2463648193295
20
5.46009376790764
30
0
41
1
10
19.2434270267895
20
5.44555468829287
30
0
41
1
10
19.2395555570777
20
5.416550326665
30
0
41
1
10
19.2385933836548
20
5.4020327641976
30
0
41
1
10
19.2385933836548
20
5.38750000000002
30
0
0
SPLINE
5
10F
100
AcDbEntity
8
1
62
256
6
ByLayer
370
35
48
1
60
0
100
AcDbSpline
70
4
71
2
72
6
73
3
40
0
40
0
40
0
40
1
40
1
40
1
41
1.03186391735993
10
33.6
20
7.96516948620143
30
0
41
0.729637973226922
10
33.6
20
8.16516948620141
30
0
41
1.03186391735993
10
33.4
20
8.16516948620143
30
0
0
SPLINE
5
110
100
AcDbEntity
8
1
62
256
6
ByLayer
370
35
48
1
60
0
100
AcDbSpline
70
4
71
2
72
6
73
3
40
0
40
0
40
0
40
1
40
1
40
1
41
1.03186391735993
10
33.4
20
5.65983051379865
30
0
41
0.729637973226922
10
33.6
20
5.65983051379865
30
0
41
1.03186391735993
10
33.6
20
5.85983051379867
30
0
0
SPLINE
5
111
100
AcDbEntity
8
1
62
256
6
ByLayer
370
35
48
1
60
0
100
AcDbSpline
70
4
71
2
72
6
73
3
40
0
40
0
40
0
40
1
40
1
40
1
41
1.03186391735993
10
33.4
20
8.16516948620143
30
0
41
1.03138264657361
10
33.2777889468057
20
8.16516948620142
30
0
41
1.03186391735993
10
33.1558058418606
20
8.15770867988886
30
0
0
SPLINE
5
112
100
AcDbEntity
8
1
62
256
6
ByLayer
370
35
48
1
60
0
100
AcDbSpline
70
4
71
2
72
6
73
3
40
0
40
0
40
0
40
1
40
1
40
1
41
1.03186391735993
10
33.1558058418606
20
5.66729132011118
30
0
41
1.03138264657361
10
33.2777889468057
20
5.65983051379865
30
0
41
1.03186391735993
10
33.4
20
5.65983051379865
30
0
0
LINE
5
74
100
AcDbEntity
8
1
62
256
6
ByLayer
370
35
48
1
60
0
100
AcDbLine
10
14.044194
20
8.157709
30
0
11
14.966813
21
8.101279
31
0
39
0
210
0
220
0
230
1
0
LINE
5
76
100
AcDbEntity
8
1
62
256
6
ByLayer
370
35
48
1
60
0
100
AcDbLine
10
14.966813
20
8.101279
30
0
11
15.750626
21
8.09462
31
0
39
0
210
0
220
0
230
1
0
LINE
5
77
100
AcDbEntity
8
1
62
256
6
ByLayer
370
35
48
1
60
0
100
AcDbLine
10
14.966813
20
7.98749
30
0
11
14.966813
21
8.101279
31
0
39
0
210
0
220
0
230
1
0
LINE
5
78
100
AcDbEntity
8
1
62
256
6
ByLayer
370
35
48
1
60
0
100
AcDbLine
10
32.233187
20
8.101279
30
0
11
31.449374
21
8.09462
31
0
39
0
210
0
220
0
230
1
0
LINE
5
79
100
AcDbEntity
8
1
62
256
6
ByLayer
370
35
48
1
60
0
100
AcDbLine
10
31.449374
20
5.73038
30
0
11
32.233187
21
5.723721
31
0
39
0
210
0
220
0
230
1
0
LINE
5
7A
100
AcDbEntity
8
1
62
256
6
ByLayer
370
35
48
1
60
0
100
AcDbLine
10
32.233187
20
5.723721
30
0
11
32.233187
21
8.101279
31
0
39
0
210
0
220
0
230
1
0
LINE
5
7B
100
AcDbEntity
8
1
62
256
6
ByLayer
370
35
48
1
60
0
100
AcDbLine
10
30.882766
20
6.9125
30
0
11
27.469652
21
6.9125
31
0
39
0
210
0
220
0
230
1
0
LINE
5
7C
100
AcDbEntity
8
1
62
256
6
ByLayer
370
35
48
1
60
0
100
AcDbLine
10
30.2327
20
6.715165
30
0
11
27.469766
21
6.715165
31
0
39
0
210
0
220
0
230
1
0
LINE
5
7D
100
AcDbEntity
8
1
62
256
6
ByLayer
370
35
48
1
60
0
100
AcDbLine
10
27.469766
20
7.109835
30
0
11
30.2327
21
7.109835
31
0
39
0
210
0
220
0
230
1
0
LINE
5
7E
100
AcDbEntity
8
1
62
256
6
ByLayer
370
35
48
1
60
0
100
AcDbLine
10
27.469709
20
6.711744
30
0
11
30.188491
21
6.711744
31
0
39
0
210
0
220
0
230
1
0
LINE
5
7F
100
AcDbEntity
8
1
62
256
6
ByLayer
370
35
48
1
60
0
100
AcDbLine
10
27.469709
20
7.113256
30
0
11
30.188491
21
7.113256
31
0
39
0
210
0
220
0
230
1
0
LINE
5
80
100
AcDbEntity
8
1
62
256
6
ByLayer
370
35
48
1
60
0
100
AcDbLine
10
27.469729
20
7.163524
30
0
11
29.601033
21
7.163524
31
0
39
0
210
0
220
0
230
1
0
LINE
5
81
100
AcDbEntity
8
1
62
256
6
ByLayer
370
35
48
1
60
0
100
AcDbLine
10
27.469729
20
6.661476
30
0
11
29.601033
21
6.661476
31
0
39
0
210
0
220
0
230
1
0
LINE
5
82
100
AcDbEntity
8
1
62
256
6
ByLayer
370
35
48
1
60
0
100
AcDbLine
10
27.46967
20
6.544502
30
0
11
29.093277
21
6.544502
31
0
39
0
210
0
220
0
230
1
0
LINE
5
83
100
AcDbEntity
8
1
62
256
6
ByLayer
370
35
48
1
60
0
100
AcDbLine
10
27.46967
20
7.280498
30
0
11
29.093277
21
7.280498
31
0
39
0
210
0
220
0
230
1
0
LINE
5
84
100
AcDbEntity
8
1
62
256
6
ByLayer
370
35
48
1
60
0
100
AcDbLine
10
27.469708
20
6.086516
30
0
11
28.340837
21
6.086516
31
0
39
0
210
0
220
0
230
1
0
LINE
5
85
100
AcDbEntity
8
1
62
256
6
ByLayer
370
35
48
1
60
0
100
AcDbLine
10
27.469677
20
5.9125
30
0
11
28.301381
21
5.9125
31
0
39
0
210
0
220
0
230
1
0
LINE
5
86
100
AcDbEntity
8
1
62
256
6
ByLayer
370
35
48
1
60
0
100
AcDbLine
10
28.301381
20
6.037062
30
0
11
27.469677
21
6.037062
31
0
39
0
210
0
220
0
230
1
0
LINE
5
87
100
AcDbEntity
8
1
62
256
6
ByLayer
370
35
48
1
60
0
100
AcDbLine
10
28.340837
20
7.738484
30
0
11
27.469708
21
7.738484
31
0
39
0
210
0
220
0
230
1
0
LINE
5
88
100
AcDbEntity
8
1
62
256
6
ByLayer
370
35
48
1
60
0
100
AcDbLine
10
28.301381
20
7.9125
30
0
11
27.469677
21
7.9125
31
0
39
0
210
0
220
0
230
1
0
LINE
5
89
100
AcDbEntity
8
1
62
256
6
ByLayer
370
35
48
1
60
0
100
AcDbLine
10
27.469677
20
7.787938
30
0
11
28.301381
21
7.787938
31
0
39
0
210
0
220
0
230
1
0
LINE
5
8A
100
AcDbEntity
8
1
62
256
6
ByLayer
370
35
48
1
60
0
100
AcDbLine
10
31.449374
20
8.09462
30
0
11
31.112432
21
8.080289
31
0
39
0
210
0
220
0
230
1
0
LINE
5
8B
100
AcDbEntity
8
1
62
256
6
ByLayer
370
35
48
1
60
0
100
AcDbLine
10
31.072759
20
8.074579
30
0
11
30.542478
21
7.9427
31
0
39
0
210
0
220
0
230
1
0
LINE
5
8C
100
AcDbEntity
8
1
62
256
6
ByLayer
370
35
48
1
60
0
100
AcDbLine
10
28.301381
20
7.9125
30
0
11
30.294849
21
7.9125
31
0
39
0
210
0
220
0
230
1
0
LINE
5
8D
100
AcDbEntity
8
1
62
256
6
ByLayer
370
35
48
1
60
0
100
AcDbLine
10
28.301381
20
7.9125
30
0
11
28.301381
21
7.787938
31
0
39
0
210
0
220
0
230
1
0
LINE
5
8E
100
AcDbEntity
8
1
62
256
6
ByLayer
370
35
48
1
60
0
100
AcDbLine
10
28.340837
20
7.738484
30
0
11
29.093277
21
7.280498
31
0
39
0
210
0
220
0
230
1
0
LINE
5
8F
100
AcDbEntity
8
SK1
62
256
6
ByLayer
370
70
48
1
60
0
100
AcDbLine
10
-58.15
20
1.707051
30
0
11
-58.15
21
0
31
0
39
0
210
0
220
0
230
1
0
LINE
5
91
100
AcDbEntity
8
SK1
62
256
6
ByLayer
370
70
48
1
60
0
100
AcDbLine
10
-58.15
20
0
30
0
11
-58.15
21
-1.707051
31
0
39
0
210
0
220
0
230
1
0
LINE
5
92
100
AcDbEntity
8
1
62
256
6
ByLayer
370
35
48
1
60
0
100
AcDbLine
10
30.188491
20
7.113256
30
0
11
30.2327
21
7.109835
31
0
39
0
210
0
220
0
230
1
0
LINE
5
93
100
AcDbEntity
8
1
62
256
6
ByLayer
370
35
48
1
60
0
100
AcDbLine
10
30.2327
20
6.715165
30
0
11
30.188491
21
6.711744
31
0
39
0
210
0
220
0
230
1
0
LINE
5
94
100
AcDbEntity
8
1
62
256
6
ByLayer
370
35
48
1
60
0
100
AcDbLine
10
29.093277
20
6.544502
30
0
11
28.340837
21
6.086516
31
0
39
0
210
0
220
0
230
1
0
LINE
5
95
100
AcDbEntity
8
1
62
256
6
ByLayer
370
35
48
1
60
0
100
AcDbLine
10
28.301381
20
6.037062
30
0
11
28.301381
21
5.9125
31
0
39
0
210
0
220
0
230
1
0
LINE
5
96
100
AcDbEntity
8
1
62
256
6
ByLayer
370
35
48
1
60
0
100
AcDbLine
10
30.294849
20
5.9125
30
0
11
28.301381
21
5.9125
31
0
39
0
210
0
220
0
230
1
0
LINE
5
97
100
AcDbEntity
8
1
62
256
6
ByLayer
370
35
48
1
60
0
100
AcDbLine
10
30.542478
20
5.8823
30
0
11
31.072759
21
5.750421
31
0
39
0
210
0
220
0
230
1
0
LINE
5
98
100
AcDbEntity
8
1
62
256
6
ByLayer
370
35
48
1
60
0
100
AcDbLine
10
31.112432
20
5.744711
30
0
11
31.449374
21
5.73038
31
0
39
0
210
0
220
0
230
1
0
LINE
5
99
100
AcDbEntity
8
1
62
256
6
ByLayer
370
35
48
1
60
0
100
AcDbLine
10
31.449374
20
5.73038
30
0
11
31.449374
21
8.09462
31
0
39
0
210
0
220
0
230
1
0
LINE
5
9A
100
AcDbEntity
8
1
62
256
6
ByLayer
370
35
48
1
60
0
100
AcDbLine
10
15.750626
20
7.98749
30
0
11
15.750626
21
8.09462
31
0
39
0
210
0
220
0
230
1
0
LINE
5
9B
100
AcDbEntity
8
1
62
256
6
ByLayer
370
35
48
1
60
0
100
AcDbLine
10
16.127241
20
8.074579
30
0
11
16.477376
21
7.987502
31
0
39
0
210
0
220
0
230
1
0
LINE
5
9C
100
AcDbEntity
8
1
62
256
6
ByLayer
370
35
48
1
60
0
100
AcDbLine
10
15.750626
20
8.09462
30
0
11
16.087568
21
8.080289
31
0
39
0
210
0
220
0
230
1
0
LINE
5
9D
100
AcDbEntity
8
SK1
62
256
6
ByLayer
370
70
48
1
60
0
100
AcDbLine
10
-58.15
20
-1.707051
30
0
11
-57.15
21
-1.975
31
0
39
0
210
0
220
0
230
1
0
LINE
5
9E
100
AcDbEntity
8
SK1
62
256
6
ByLayer
370
70
48
1
60
0
100
AcDbLine
10
-57.15
20
1.975
30
0
11
-58.15
21
1.707051
31
0
39
0
210
0
220
0
230
1
0
LINE
5
9F
100
AcDbEntity
8
SK1
62
256
6
ByLayer
370
70
48
1
60
0
100
AcDbLine
10
-57.15
20
-1.975
30
0
11
-57.15
21
0
31
0
39
0
210
0
220
0
230
1
0
LINE
5
A0
100
AcDbEntity
8
SK1
62
256
6
ByLayer
370
70
48
1
60
0
100
AcDbLine
10
-57.15
20
0
30
0
11
-57.15
21
1.975
31
0
39
0
210
0
220
0
230
1
0
LINE
5
A1
100
AcDbEntity
8
SK1
62
256
6
ByLayer
370
70
48
1
60
0
100
AcDbLine
10
-57.15
20
-1.975
30
0
11
-42.55
21
-1.975
31
0
39
0
210
0
220
0
230
1
0
LINE
5
A2
100
AcDbEntity
8
SK1
62
256
6
ByLayer
370
70
48
1
60
0
100
AcDbLine
10
-42.55
20
1.975
30
0
11
-57.15
21
1.975
31
0
39
0
210
0
220
0
230
1
0
LINE
5
A3
100
AcDbEntity
8
SK1
62
256
6
ByLayer
370
70
48
1
60
0
100
AcDbLine
10
-42.55
20
1.975
30
0
11
-42.55
21
0
31
0
39
0
210
0
220
0
230
1
0
LINE
5
A4
100
AcDbEntity
8
SK1
62
256
6
ByLayer
370
70
48
1
60
0
100
AcDbLine
10
-42.55
20
0
30
0
11
-42.55
21
-1.975
31
0
39
0
210
0
220
0
230
1
0
LINE
5
A5
100
AcDbEntity
8
SK1
62
256
6
ByLayer
370
70
48
1
60
0
100
AcDbLine
10
-42.15
20
3
30
0
11
-37.55
21
3
31
0
39
0
210
0
220
0
230
1
0
LINE
5
A6
100
AcDbEntity
8
SK1
62
256
6
ByLayer
370
70
48
1
60
0
100
AcDbLine
10
-42.15
20
3
30
0
11
-42.15
21
-3
31
0
39
0
210
0
220
0
230
1
0
LINE
5
A7
100
AcDbEntity
8
SK1
62
256
6
ByLayer
370
70
48
1
60
0
100
AcDbLine
10
-37.55
20
-3
30
0
11
-42.15
21
-3
31
0
39
0
210
0
220
0
230
1
0
LINE
5
A8
100
AcDbEntity
8
SK1
62
256
6
ByLayer
370
70
48
1
60
0
100
AcDbLine
10
-37.151325
20
-3.375
30
0
11
-36.399989
21
-3.375
31
0
39
0
210
0
220
0
230
1
0
LINE
5
A9
100
AcDbEntity
8
SK1
62
256
6
ByLayer
370
70
48
1
60
0
100
AcDbLine
10
-36.399989
20
3.375
30
0
11
-37.151325
21
3.375
31
0
39
0
210
0
220
0
230
1
0
LINE
5
AA
100
AcDbEntity
8
1
62
256
6
ByLayer
370
70
48
1
60
0
100
AcDbLine
10
27.496649
20
5.7875
30
0
11
27.469685
21
5.7875
31
0
39
0
210
0
220
0
230
1
0
LINE
5
AB
100
AcDbEntity
8
1
62
256
6
ByLayer
370
70
48
1
60
0
100
AcDbLine
10
27.496174
20
7.9875
30
0
11
27.469758
21
7.9875
31
0
39
0
210
0
220
0
230
1
0
LINE
5
AC
100
AcDbEntity
8
1
62
256
6
ByLayer
370
70
48
1
60
0
100
AcDbLine
10
30.722657
20
7.9875
30
0
11
28.41457
21
7.9875
31
0
39
0
210
0
220
0
230
1
0
LINE
5
AD
100
AcDbEntity
8
1
62
256
6
ByLayer
370
70
48
1
60
0
100
AcDbLine
10
28.41457
20
7.9875
30
0
11
27.496174
21
7.9875
31
0
39
0
210
0
220
0
230
1
0
LINE
5
AE
100
AcDbEntity
8
1
62
256
6
ByLayer
370
70
48
1
60
0
100
AcDbLine
10
27.495461
20
7.912489
30
0
11
27.496174
21
7.9875
31
0
39
0
210
0
220
0
230
1
0
LINE
5
AF
100
AcDbEntity
8
1
62
256
6
ByLayer
370
70
48
1
60
0
100
AcDbLine
10
28.413858
20
7.912489
30
0
11
28.41457
21
7.9875
31
0
39
0
210
0
220
0
230
1
0
LINE
5
B0
100
AcDbEntity
8
1
62
256
6
ByLayer
370
70
48
1
60
0
100
AcDbLine
10
27.496649
20
5.7875
30
0
11
27.495461
21
5.912502
31
0
39
0
210
0
220
0
230
1
0
LINE
5
B1
100
AcDbEntity
8
1
62
256
6
ByLayer
370
70
48
1
60
0
100
AcDbLine
10
28.415045
20
5.7875
30
0
11
27.496649
21
5.7875
31
0
39
0
210
0
220
0
230
1
0
LINE
5
B2
100
AcDbEntity
8
1
62
256
6
ByLayer
370
70
48
1
60
0
100
AcDbLine
10
28.415045
20
5.7875
30
0
11
28.413858
21
5.912502
31
0
39
0
210
0
220
0
230
1
0
LINE
5
B3
100
AcDbEntity
8
1
62
256
6
ByLayer
370
70
48
1
60
0
100
AcDbLine
10
30.923619
20
5.7875
30
0
11
28.415045
21
5.7875
31
0
39
0
210
0
220
0
230
1
0
LINE
5
B4
100
AcDbEntity
8
1
62
256
6
ByLayer
370
70
48
1
60
0
100
AcDbLine
10
19.238617
20
-2.215373
30
0
11
26.511277
21
1.983499
31
0
39
0
210
0
220
0
230
1
0
LINE
5
B5
100
AcDbEntity
8
1
62
256
6
ByLayer
370
70
48
1
60
0
100
AcDbLine
10
26.511277
20
5.3875
30
0
11
26.511277
21
1.983499
31
0
39
0
210
0
220
0
230
1
0
LINE
5
B6
100
AcDbEntity
8
1
62
256
6
ByLayer
370
70
48
1
60
0
100
AcDbLine
10
19.23868
20
5.3875
30
0
11
26.511277
21
5.3875
31
0
39
0
210
0
220
0
230
1
0
LINE
5
B7
100
AcDbEntity
8
SK1
62
256
6
ByLayer
370
70
48
1
60
0
100
AcDbLine
10
-35.9
20
-5.509222
30
0
11
-36.4
21
-5.013566
31
0
39
0
210
0
220
0
230
1
0
LINE
5
B8
100
AcDbEntity
8
SK1
62
256
6
ByLayer
370
70
48
1
60
0
100
AcDbLine
10
-36.4
20
5.013566
30
0
11
-35.9
21
5.509222
31
0
39
0
210
0
220
0
230
1
0
LINE
5
B9
100
AcDbEntity
8
SK1
62
256
6
ByLayer
370
70
48
1
60
0
100
AcDbLine
10
-36.4
20
-5.013566
30
0
11
-36.4
21
5.013566
31
0
39
0
210
0
220
0
230
1
0
LINE
5
BA
100
AcDbEntity
8
SK1
62
256
6
ByLayer
370
70
48
1
60
0
100
AcDbLine
10
-33.4
20
7.9875
30
0
11
0
21
7.9875
31
0
39
0
210
0
220
0
230
1
0
LINE
5
BB
100
AcDbEntity
8
SK1
62
256
6
ByLayer
370
70
48
1
60
0
100
AcDbLine
10
0
20
-7.9875
30
0
11
-33.4
21
-7.9875
31
0
39
0
210
0
220
0
230
1
0
LINE
5
BC
100
AcDbEntity
8
SK1
62
256
6
ByLayer
370
70
48
1
60
0
100
AcDbLine
10
-35.9
20
-5.509222
30
0
11
-33.4
21
-7.9875
31
0
39
0
210
0
220
0
230
1
0
LINE
5
BD
100
AcDbEntity
8
SK1
62
256
6
ByLayer
370
70
48
1
60
0
100
AcDbLine
10
-35.9
20
5.509222
30
0
11
-33.4
21
7.9875
31
0
39
0
210
0
220
0
230
1
0
LINE
5
BE
100
AcDbEntity
8
SK1
62
256
6
ByLayer
370
70
48
1
60
0
100
AcDbLine
10
-35.9
20
5.509222
30
0
11
-35.9
21
-5.509222
31
0
39
0
210
0
220
0
230
1
0
LINE
5
BF
100
AcDbEntity
8
1
62
256
6
ByLayer
370
70
48
1
60
0
100
AcDbLine
10
1.6
20
7.9875
30
0
11
0
21
7.9875
31
0
39
0
210
0
220
0
230
1
0
LINE
5
C0
100
AcDbEntity
8
1
62
256
6
ByLayer
370
70
48
1
60
0
100
AcDbLine
10
1.6
20
-7.9875
30
0
11
0
21
-7.9875
31
0
39
0
210
0
220
0
230
1
0
LINE
5
C1
100
AcDbEntity
8
1
62
256
6
ByLayer
370
70
48
1
60
0
100
AcDbLine
10
0
20
7.9875
30
0
11
0
21
-7.9875
31
0
39
0
210
0
220
0
230
1
0
LINE
5
C2
100
AcDbEntity
8
1
62
256
6
ByLayer
370
70
48
1
60
0
100
AcDbLine
10
2.6
20
7.9875
30
0
11
20.411347
21
7.9875
31
0
39
0
210
0
220
0
230
1
0
LINE
5
C3
100
AcDbEntity
8
1
62
256
6
ByLayer
370
70
48
1
60
0
100
AcDbLine
10
9.241
20
-7.9875
30
0
11
19.238593
21
-2.215387
31
0
39
0
210
0
220
0
230
1
0
LINE
5
C4
100
AcDbEntity
8
1
62
256
6
ByLayer
370
70
48
1
60
0
100
AcDbLine
10
19.728807
20
5.7875
30
0
11
20.411347
21
5.7875
31
0
39
0
210
0
220
0
230
1
0
LINE
5
C5
100
AcDbEntity
8
1
62
256
6
ByLayer
370
70
48
1
60
0
100
AcDbLine
10
9.241
20
-7.9875
30
0
11
2.6
21
-7.9875
31
0
39
0
210
0
220
0
230
1
0
LINE
5
C6
100
AcDbEntity
8
1
62
256
6
ByLayer
370
70
48
1
60
0
100
AcDbLine
10
1.6
20
7.9875
30
0
11
2.6
21
7.9875
31
0
39
0
210
0
220
0
230
1
0
LINE
5
C7
100
AcDbEntity
8
1
62
256
6
ByLayer
370
70
48
1
60
0
100
AcDbLine
10
1.6
20
-7.9875
30
0
11
1.6
21
7.9875
31
0
39
0
210
0
220
0
230
1
0
LINE
5
C8
100
AcDbEntity
8
1
62
256
6
ByLayer
370
70
48
1
60
0
100
AcDbLine
10
2.6
20
-7.9875
30
0
11
1.6
21
-7.9875
31
0
39
0
210
0
220
0
230
1
0
LINE
5
C9
100
AcDbEntity
8
1
62
256
6
ByLayer
370
70
48
1
60
0
100
AcDbLine
10
2.6
20
7.9875
30
0
11
2.6
21
-7.9875
31
0
39
0
210
0
220
0
230
1
0
LINE
5
CA
100
AcDbEntity
8
1
62
256
6
ByLayer
370
70
48
1
60
0
100
AcDbLine
10
20.411347
20
5.7875
30
0
11
20.411347
21
7.9875
31
0
39
0
210
0
220
0
230
1
0
LINE
5
CB
100
AcDbEntity
8
1
62
256
6
ByLayer
370
70
48
1
60
0
100
AcDbLine
10
27.469767
20
5.7875
30
0
11
27.469767
21
7.9875
31
0
39
0
210
0
220
0
230
1
0
LINE
5
CC
100
AcDbEntity
8
1
62
256
6
ByLayer
370
70
48
1
60
0
100
AcDbLine
10
19.238593
20
-2.215387
30
0
11
19.238593
21
5.3875
31
0
39
0
210
0
220
0
230
1
0
LINE
5
CD
100
AcDbEntity
8
1
62
256
6
ByLayer
370
35
48
1
60
0
100
AcDbLine
10
33.155806
20
8.157709
30
0
11
32.233187
21
8.101279
31
0
39
0
210
0
220
0
230
1
0
LINE
5
CE
100
AcDbEntity
8
1
62
256
6
ByLayer
370
35
48
1
60
0
100
AcDbLine
10
32.233187
20
5.723721
30
0
11
33.155806
21
5.667291
31
0
39
0
210
0
220
0
230
1
0
LINE
5
CF
100
AcDbEntity
8
1
62
256
6
ByLayer
370
35
48
1
60
0
100
AcDbLine
10
33.6
20
5.859831
30
0
11
33.6
21
7.965169
31
0
39
0
210
0
220
0
230
1
0
LINE
5
D0
100
AcDbEntity
8
1
62
256
6
ByLayer
370
70
48
1
60
0
100
AcDbLine
10
20.411347
20
5.7875
30
0
11
27.469685
21
5.7875
31
0
39
0
210
0
220
0
230
1
0
LINE
5
D1
100
AcDbEntity
8
1
62
256
6
ByLayer
370
70
48
1
60
0
100
AcDbLine
10
20.411347
20
7.9875
30
0
11
27.469758
21
7.9875
31
0
39
0
210
0
220
0
230
1
0
LINE
5
D2
100
AcDbEntity
8
81
62
256
6
ByLayer
370
70
48
1
60
0
100
AcDbLine
10
33.6
20
8.1625
30
0
11
38.6
21
8.1625
31
0
39
0
210
0
220
0
230
1
0
LINE
5
D3
100
AcDbEntity
8
80
62
256
6
ByLayer
370
70
48
1
60
0
100
AcDbLine
10
0
20
0
30
0
11
-5
21
0
31
0
39
0
210
0
220
0
230
1
0
MTEXT
5
113
100
AcDbEntity
8
SK6
62
256
6
ByLayer
370
35
48
1
60
0
100
AcDbMText
10
-22.282294
20
-33.184774
30
0
210
0
220
0
230
1
1
\fMonospac821 BT|b0|i0;\W1.0000;C2R-QS16-RF17AD
40
3.5
41
0
44
1.072372
50
0
71
7
72
5
7
Monospac821 BT
0
DIMENSION
5
117
100
AcDbEntity
8
SK2
62
256
6
ByLayer
370
18
48
1
60
0
100
AcDbDimension
2
_U0
10
33.6
20
-22.670129
30
0
11
-1.4
21
-22.670129
31
0
70
32
71
1
72
1
41
1
210
0
220
0
230
1
3
Standard
100
AcDbAlignedDimension
13
-36.4
23
-5.013566
33
0
14
33.6
24
8.1625
34
0
50
0
100
AcDbRotatedDimension
1001
ACAD
1000
DSTYLE
1002
{
1070
   371
1070
    13
1070
   372
1070
    13
1070
   170
1070
     0
1070
   144
1040
1.0
1070
   277
1070
     2
1070
   284
1070
     8
1070
   278
1070
    46
1070
   146
1040
1.0
1070
   345
1005
16
1070
   347
1005
16
1070
   346
1005
16
1070
   344
1005
0
1070
   343
1005
0
1070
   172
1070
     1
1070
    76
1070
     0
1070
    75
1070
     0
1070
   282
1070
     0
1070
   281
1070
     0
1070
    71
1070
     0
1070
   272
1070
     4
1070
   271
1070
     4
1070
    74
1070
     0
1070
   279
1070
     0
1070
   173
1070
     1
1070
   340
1005
118
1070
    77
1070
     1
1070
    73
1070
     1
1070
   171
1070
     4
1070
   274
1070
     4
1070
   177
1070
     7
1070
   176
1070
     7
1070
   178
1070
     7
1070
    78
1070
     8
1070
    41
1040
3.175
1070
   147
1040
1.75
1070
    42
1040
0.0
1070
    44
1040
2.0
1070
   140
1040
3.5
1002
}
1001
ACAD_DSTYLE_DIM_LINETYPE
1070
   380
1005
16
1001
ACAD_DSTYLE_DIM_EXT1_LINETYPE
1070
   381
1005
16
1001
ACAD_DSTYLE_DIM_EXT2_LINETYPE
1070
   382
1005
16
0
DIMENSION
5
133
100
AcDbEntity
8
2
62
256
6
ByLayer
370
18
48
1
60
0
100
AcDbDimension
2
_U1
10
0
20
15.061344
30
0
11
16.8
21
15.061344
31
0
70
32
71
1
72
1
41
1
210
0
220
0
230
1
3
Standard
100
AcDbAlignedDimension
13
33.6
23
8.1625
33
0
14
0
24
7.9875
34
0
50
0
100
AcDbRotatedDimension
1001
ACAD
1000
DSTYLE
1002
{
1070
   371
1070
    13
1070
   372
1070
    13
1070
   170
1070
     0
1070
   144
1040
1.0
1070
   277
1070
     2
1070
   284
1070
     8
1070
   278
1070
    46
1070
   146
1040
1.0
1070
   345
1005
16
1070
   347
1005
16
1070
   346
1005
16
1070
   344
1005
0
1070
   343
1005
0
1070
   172
1070
     1
1070
    76
1070
     0
1070
    75
1070
     0
1070
   282
1070
     0
1070
   281
1070
     0
1070
    71
1070
     0
1070
   272
1070
     4
1070
   271
1070
     4
1070
    74
1070
     0
1070
   279
1070
     0
1070
   173
1070
     1
1070
   340
1005
118
1070
    77
1070
     1
1070
    73
1070
     1
1070
   171
1070
     4
1070
   274
1070
     4
1070
   177
1070
     7
1070
   176
1070
     7
1070
   178
1070
     7
1070
    78
1070
     8
1070
    41
1040
3.175
1070
   147
1040
1.75
1070
    42
1040
0.0
1070
    44
1040
2.0
1070
   140
1040
3.5
1002
}
1001
ACAD_DSTYLE_DIM_LINETYPE
1070
   380
1005
16
1001
ACAD_DSTYLE_DIM_EXT1_LINETYPE
1070
   381
1005
16
1001
ACAD_DSTYLE_DIM_EXT2_LINETYPE
1070
   382
1005
16
0
DIMENSION
5
14C
100
AcDbEntity
8
2
62
256
6
ByLayer
370
18
48
1
60
0
100
AcDbDimension
2
_U2
10
50.46789
20
-7.9875
30
0
11
50.46789
21
0.0875
31
0
70
32
71
1
72
1
41
1
210
0
220
0
230
1
3
Standard
100
AcDbAlignedDimension
13
33.6
23
8.1625
33
0
14
9.241
24
-7.9875
34
0
50
90
100
AcDbRotatedDimension
1001
ACAD
1000
DSTYLE
1002
{
1070
   371
1070
    13
1070
   372
1070
    13
1070
   170
1070
     0
1070
   144
1040
1.0
1070
   277
1070
     2
1070
   284
1070
     8
1070
   278
1070
    46
1070
   146
1040
1.0
1070
   345
1005
16
1070
   347
1005
16
1070
   346
1005
16
1070
   344
1005
0
1070
   343
1005
0
1070
   172
1070
     1
1070
    76
1070
     0
1070
    75
1070
     0
1070
   282
1070
     0
1070
   281
1070
     0
1070
    71
1070
     0
1070
   272
1070
     4
1070
   271
1070
     4
1070
    74
1070
     0
1070
   279
1070
     0
1070
   173
1070
     1
1070
   340
1005
118
1070
    77
1070
     1
1070
    73
1070
     0
1070
   171
1070
     4
1070
   274
1070
     4
1070
   177
1070
     7
1070
   176
1070
     7
1070
   178
1070
     7
1070
    78
1070
     8
1070
    41
1040
3.175
1070
   147
1040
1.75
1070
    42
1040
0.0
1070
    44
1040
2.0
1070
   140
1040
3.5
1002
}
1001
ACAD_DSTYLE_DIM_LINETYPE
1070
   380
1005
16
1001
ACAD_DSTYLE_DIM_EXT1_LINETYPE
1070
   381
1005
16
1001
ACAD_DSTYLE_DIM_EXT2_LINETYPE
1070
   382
1005
16
0
DIMENSION
5
165
100
AcDbEntity
8
SK2
62
256
6
ByLayer
370
18
48
1
60
0
100
AcDbDimension
2
_U3
10
-64.047315
20
7.9875
30
0
11
-64.047315
21
0
31
0
70
32
71
1
72
1
41
1
210
0
220
0
230
1
3
Standard
100
AcDbAlignedDimension
13
-33.4
23
-7.9875
33
0
14
-33.4
24
7.9875
34
0
50
90
100
AcDbRotatedDimension
1001
ACAD
1000
DSTYLE
1002
{
1070
   371
1070
    13
1070
   372
1070
    13
1070
   170
1070
     0
1070
   144
1040
1.0
1070
   277
1070
     2
1070
   284
1070
     8
1070
   278
1070
    46
1070
   146
1040
1.0
1070
   345
1005
16
1070
   347
1005
16
1070
   346
1005
16
1070
   344
1005
0
1070
   343
1005
0
1070
   172
1070
     1
1070
    76
1070
     0
1070
    75
1070
     0
1070
   282
1070
     0
1070
   281
1070
     0
1070
    71
1070
     0
1070
   272
1070
     4
1070
    74
1070
     0
1070
   279
1070
     0
1070
   173
1070
     1
1070
   340
1005
118
1070
   271
1070
     0
1070
    77
1070
     1
1070
    73
1070
     0
1070
   171
1070
     4
1070
   274
1070
     4
1070
   177
1070
     7
1070
   176
1070
     7
1070
   178
1070
     7
1070
    78
1070
     8
1070
    41
1040
3.175
1070
   147
1040
1.75
1070
    42
1040
0.0
1070
    44
1040
2.0
1070
   140
1040
3.5
1002
}
1001
ACAD_DSTYLE_DIM_LINETYPE
1070
   380
1005
16
1001
ACAD_DSTYLE_DIM_EXT1_LINETYPE
1070
   381
1005
16
1001
ACAD_DSTYLE_DIM_EXT2_LINETYPE
1070
   382
1005
16
0
DIMENSION
5
17E
100
AcDbEntity
8
SK2
62
256
6
ByLayer
370
18
48
1
60
0
100
AcDbDimension
2
_U4
10
-33.4
20
-16.804414
30
0
11
-18.883333
21
-16.804414
31
0
70
32
71
1
72
1
41
1
210
0
220
0
230
1
3
Standard
100
AcDbAlignedDimension
13
-36.4
23
-5.013566
33
0
14
-33.4
24
-7.9875
34
0
50
0
100
AcDbRotatedDimension
1001
ACAD
1000
DSTYLE
1002
{
1070
   371
1070
    13
1070
   372
1070
    13
1070
   170
1070
     0
1070
   144
1040
1.0
1070
   277
1070
     2
1070
   284
1070
     8
1070
   278
1070
    46
1070
   146
1040
1.0
1070
   345
1005
16
1070
   347
1005
16
1070
   346
1005
16
1070
   344
1005
0
1070
   343
1005
0
1070
   172
1070
     1
1070
    76
1070
     0
1070
    75
1070
     0
1070
   282
1070
     0
1070
   281
1070
     0
1070
    71
1070
     0
1070
   272
1070
     4
1070
   271
1070
     4
1070
    74
1070
     0
1070
   279
1070
     0
1070
   173
1070
     1
1070
   340
1005
118
1070
    77
1070
     1
1070
    73
1070
     1
1070
   171
1070
     4
1070
   274
1070
     4
1070
   177
1070
     7
1070
   176
1070
     7
1070
   178
1070
     7
1070
    78
1070
     8
1070
    41
1040
3.175
1070
   147
1040
1.75
1070
    42
1040
0.0
1070
    44
1040
2.0
1070
   140
1040
3.5
1002
}
1001
ACAD_DSTYLE_DIM_LINETYPE
1070
   380
1005
16
1001
ACAD_DSTYLE_DIM_EXT1_LINETYPE
1070
   381
1005
16
1001
ACAD_DSTYLE_DIM_EXT2_LINETYPE
1070
   382
1005
16
0
DIMENSION
5
199
100
AcDbEntity
8
SK2
62
256
6
ByLayer
370
18
48
1
60
0
100
AcDbDimension
2
_U5
10
-33.4
20
15.061344
30
0
11
-18.883333
21
15.061344
31
0
70
32
71
1
72
1
41
1
210
0
220
0
230
1
3
Standard
100
AcDbAlignedDimension
13
-36.4
23
5.013566
33
0
14
-33.4
24
7.9875
34
0
50
0
100
AcDbRotatedDimension
1001
ACAD
1000
DSTYLE
1002
{
1070
   371
1070
    13
1070
   372
1070
    13
1070
   170
1070
     0
1070
   144
1040
1.0
1070
   277
1070
     2
1070
   284
1070
     8
1070
   278
1070
    46
1070
   146
1040
1.0
1070
   345
1005
16
1070
   347
1005
16
1070
   346
1005
16
1070
   344
1005
0
1070
   343
1005
0
1070
   172
1070
     1
1070
    76
1070
     0
1070
    75
1070
     0
1070
   282
1070
     0
1070
   281
1070
     0
1070
    71
1070
     0
1070
   272
1070
     4
1070
   271
1070
     4
1070
    74
1070
     0
1070
   279
1070
     0
1070
   173
1070
     1
1070
   340
1005
118
1070
    77
1070
     1
1070
    73
1070
     1
1070
   171
1070
     4
1070
   274
1070
     4
1070
   177
1070
     7
1070
   176
1070
     7
1070
   178
1070
     7
1070
    78
1070
     8
1070
    41
1040
3.175
1070
   147
1040
1.75
1070
    42
1040
0.0
1070
    44
1040
2.0
1070
   140
1040
3.5
1002
}
1001
ACAD_DSTYLE_DIM_LINETYPE
1070
   380
1005
16
1001
ACAD_DSTYLE_DIM_EXT1_LINETYPE
1070
   381
1005
16
1001
ACAD_DSTYLE_DIM_EXT2_LINETYPE
1070
   382
1005
16
0
ENDSEC
0
SECTION
2
OBJECTS
0
DICTIONARY
5
223
330
0
100
AcDbDictionary
280
0
281
1
3
ACAD_GROUP
350
224
3
ACAD_MLINESTYLE
350
225
0
DICTIONARY
5
224
330
0
100
AcDbDictionary
280
0
281
1
0
DICTIONARY
5
225
330
0
100
AcDbDictionary
280
0
281
1
3
Standard
350
18
0
MLINESTYLE
5
18
330
225
100
AcDbMlineStyle
2
Standard
70
0
3

62
256
51
90
52
90
71
2
49
-0.5
62
256
6
ByLayer
49
0.5
62
256
6
ByLayer
0
RASTERVARIABLES
5
212
330

100
AcDbRasterVariables
90
0
70
1
71
1
72
1
0
ENDSEC
0
EOF
