0
SECTION
2
HEADER
9
$ACADVER
1
AC1015
9
$DWGCODEPAGE
3
ANSI_1252
9
$HANDSEED
5
2f7
9
$ANGBASE
50
0
9
$ANGDIR
70
0
9
$ATTMODE
70
1
9
$AUNITS
70
0
9
$AUPREC
70
0
9
$CECOLOR
62
256
9
$CELTSCALE
40
1
9
$CELTYPE
6
ByLayer
9
$CELWEIGHT
370
18
9
$CLAYER
8
0
9
$CMLJUST
70
0
9
$CMLSCALE
40
1
9
$CMLSTYLE
2
Standard
9
$DIMSTYLE
2
Standard
9
$TEXTSIZE
40
0.2
9
$TEXTSTYLE
7
Standard
9
$LUNITS
70
2
9
$LUPREC
70
4
9
$EXTNAMES
290
1
9
$INSUNITS
70
4
9
$LTSCALE
40
1
9
$LWDISPLAY
290
1
9
$PDMODE
70
0
9
$PDSIZE
40
0
9
$PLINEGEN
70
0
0
ENDSEC
0
SECTION
2
CLASSES
0
CLASS
1
RASTERVARIABLES
2
AcDbRasterVariables
3
ISM
90
0
280
0
281
0
0
ENDSEC
0
SECTION
2
TABLES
0
TABLE
2
VPORT
5
2ed
100
AcDbSymbolTable
0
VPORT
5
1
100
AcDbSymbolTableRecord
100
AcDbViewportTableRecord
2
*Active
70
0
10
0
20
0
11
1
21
1
12
-1
22
1
13
0
23
0
14
0.5
24
0.5
15
10
25
10
16
0
26
0
36
1
17
0
27
0
37
0
0
ENDTAB
0
TABLE
2
LTYPE
5
2ee
100
AcDbSymbolTable
0
LTYPE
5
14
100
AcDbSymbolTableRecord
100
AcDbLinetypeTableRecord
70
0
2
ByBlock
3

72
65
73
0
40
0
0
LTYPE
5
15
100
AcDbSymbolTableRecord
100
AcDbLinetypeTableRecord
70
0
2
ByLayer
3

72
65
73
0
40
0
0
LTYPE
5
16
100
AcDbSymbolTableRecord
100
AcDbLinetypeTableRecord
70
0
2
Continuous
3
Solid line
72
65
73
0
40
0
0
LTYPE
5
6E
100
AcDbSymbolTableRecord
100
AcDbLinetypeTableRecord
70
0
2
CENTER
3
____ _ ____ _ ____ _ ____
72
65
73
4
40
47.5
49
22
74
0
49
-8.5
74
0
49
8.5
74
0
49
-8.5
74
0
0
LTYPE
5
6F
100
AcDbSymbolTableRecord
100
AcDbLinetypeTableRecord
70
0
2
DASHED
3
__ __ __ __ __ __ __ __ __
72
65
73
2
40
25.72
49
12.86
74
0
49
-12.86
74
0
0
ENDTAB
0
TABLE
2
LAYER
5
2ef
100
AcDbSymbolTable
0
LAYER
5
10
100
AcDbSymbolTableRecord
100
AcDbLayerTableRecord
2
0
70
0
62
7
6
Continuous
290
1
370
-3
390
0
0
LAYER
5
71
100
AcDbSymbolTableRecord
100
AcDbLayerTableRecord
2
81
70
0
62
-3
6
Continuous
290
1
370
-3
390
0
0
LAYER
5
73
100
AcDbSymbolTableRecord
100
AcDbLayerTableRecord
2
80
70
0
62
-6
6
Continuous
290
1
370
-3
390
0
0
LAYER
5
75
100
AcDbSymbolTableRecord
100
AcDbLayerTableRecord
2
1
70
0
62
4
6
Continuous
290
1
370
-3
390
0
0
LAYER
5
81
100
AcDbSymbolTableRecord
100
AcDbLayerTableRecord
2
4
70
0
62
-2
6
CENTER
290
1
370
-3
390
0
0
LAYER
5
CF
100
AcDbSymbolTableRecord
100
AcDbLayerTableRecord
2
2
70
0
62
7
6
Continuous
290
1
370
-3
390
0
0
LAYER
5
1FF
100
AcDbSymbolTableRecord
100
AcDbLayerTableRecord
2
Defpoints
70
0
62
7
6
Continuous
290
0
370
-3
390
0
0
LAYER
5
2d9
100
AcDbSymbolTableRecord
100
AcDbLayerTableRecord
2
SK4
70
0
62
2
6
CENTER
290
1
370
-3
390
0
0
LAYER
5
2da
100
AcDbSymbolTableRecord
100
AcDbLayerTableRecord
2
SK1
70
0
62
4
6
Continuous
290
1
370
-3
390
0
0
LAYER
5
2db
100
AcDbSymbolTableRecord
100
AcDbLayerTableRecord
2
SK2
70
0
62
7
6
Continuous
290
1
370
-3
390
0
0
LAYER
5
2dc
100
AcDbSymbolTableRecord
100
AcDbLayerTableRecord
2
SK6
70
0
62
5
6
Continuous
290
1
370
-3
390
0
0
ENDTAB
0
TABLE
2
STYLE
5
2f0
100
AcDbSymbolTable
0
STYLE
5
11
100
AcDbSymbolTableRecord
100
AcDbTextStyleTableRecord
2
Standard
3
txt
70
0
71
0
40
0
41
1
42
0
50
0
0
STYLE
5
1E5
100
AcDbSymbolTableRecord
100
AcDbTextStyleTableRecord
2
iso_b_vert
3
simplex.shx
70
0
71
0
40
0
41
1
42
0
50
0
0
STYLE
5
1E6
100
AcDbSymbolTableRecord
100
AcDbTextStyleTableRecord
2
DWGDirectTextStyle
3
simplex
70
0
71
0
40
0
41
1
42
0
50
0
0
ENDTAB
0
TABLE
2
DIMSTYLE
5
2f1
100
AcDbSymbolTable
100
AcDbDimStyleTable
0
DIMSTYLE
105
27
100
AcDbSymbolTableRecord
100
AcDbDimStyleTableRecord
2
Standard
70
0
3
<>
41
0.18
42
0.0625
44
0.18
140
0.18
147
0.09
73
0
74
0
77
1
271
2
275
0
278
52
280
0
340
11
0
ENDTAB
0
TABLE
2
VIEW
5
2f2
100
AcDbSymbolTable
0
ENDTAB
0
TABLE
2
UCS
5
2f3
100
AcDbSymbolTable
0
ENDTAB
0
TABLE
2
APPID
5
2f4
100
AcDbSymbolTable
0
APPID
5
12
100
AcDbSymbolTableRecord
100
AcDbRegAppTableRecord
2
ACAD
70
0
0
APPID
5
1FB
100
AcDbSymbolTableRecord
100
AcDbRegAppTableRecord
2
ACAD_DSTYLE_DIMBREAK
70
0
0
APPID
5
298
100
AcDbSymbolTableRecord
100
AcDbRegAppTableRecord
2
ACAD_DSTYLE_DIM_LINETYPE
70
0
0
APPID
5
299
100
AcDbSymbolTableRecord
100
AcDbRegAppTableRecord
2
ACAD_DSTYLE_DIM_EXT1_LINETYPE
70
0
0
APPID
5
29A
100
AcDbSymbolTableRecord
100
AcDbRegAppTableRecord
2
ACAD_DSTYLE_DIM_EXT2_LINETYPE
70
0
0
APPID
5
2D5
100
AcDbSymbolTableRecord
100
AcDbRegAppTableRecord
2
ACAD_MLEADERVER
70
0
0
ENDTAB
0
TABLE
2
BLOCK_RECORD
5
2f5
100
AcDbSymbolTable
0
BLOCK_RECORD
5
1F
100
AcDbSymbolTableRecord
100
AcDbBlockTableRecord
2
*Model_Space
340
0
70
0
0
BLOCK_RECORD
5
1B
100
AcDbSymbolTableRecord
100
AcDbBlockTableRecord
2
*Paper_Space
340
0
70
0
0
BLOCK_RECORD
5
23
100
AcDbSymbolTableRecord
100
AcDbBlockTableRecord
2
*Paper_Space0
340
0
70
0
0
BLOCK_RECORD
5
200
100
AcDbSymbolTableRecord
100
AcDbBlockTableRecord
2
*D1
340
0
70
0
0
BLOCK_RECORD
5
20E
100
AcDbSymbolTableRecord
100
AcDbBlockTableRecord
2
_U0
340
0
70
0
0
BLOCK_RECORD
5
21A
100
AcDbSymbolTableRecord
100
AcDbBlockTableRecord
2
*D3
340
0
70
0
0
BLOCK_RECORD
5
227
100
AcDbSymbolTableRecord
100
AcDbBlockTableRecord
2
_U1
340
0
70
0
0
BLOCK_RECORD
5
234
100
AcDbSymbolTableRecord
100
AcDbBlockTableRecord
2
*D5
340
0
70
0
0
BLOCK_RECORD
5
240
100
AcDbSymbolTableRecord
100
AcDbBlockTableRecord
2
_U2
340
0
70
0
0
BLOCK_RECORD
5
24D
100
AcDbSymbolTableRecord
100
AcDbBlockTableRecord
2
*D7
340
0
70
0
0
BLOCK_RECORD
5
259
100
AcDbSymbolTableRecord
100
AcDbBlockTableRecord
2
_U3
340
0
70
0
0
BLOCK_RECORD
5
265
100
AcDbSymbolTableRecord
100
AcDbBlockTableRecord
2
*D9
340
0
70
0
0
BLOCK_RECORD
5
271
100
AcDbSymbolTableRecord
100
AcDbBlockTableRecord
2
_U4
340
0
70
0
0
ENDTAB
0
ENDSEC
0
SECTION
2
BLOCKS
0
BLOCK
5
20
100
AcDbEntity
8
0
100
AcDbBlockBegin
2
*Model_Space
70
0
10
0
20
0
30
0
3
*Model_Space
0
ENDBLK
5
21
100
AcDbEntity
8
0
100
AcDbBlockEnd
0
BLOCK
5
1C
100
AcDbEntity
8
0
100
AcDbBlockBegin
2
*Paper_Space
70
0
10
0
20
0
30
0
3
*Paper_Space
0
ENDBLK
5
1D
100
AcDbEntity
8
0
100
AcDbBlockEnd
0
BLOCK
5
24
100
AcDbEntity
8
0
100
AcDbBlockBegin
2
*Paper_Space0
70
0
10
0
20
0
30
0
3
*Paper_Space0
0
ENDBLK
5
25
100
AcDbEntity
8
0
100
AcDbBlockEnd
0
BLOCK
5
201
100
AcDbEntity
8
0
100
AcDbBlockBegin
2
*D1
70
1
10
0
20
0
30
0
3
*D1
0
LINE
5
203
100
AcDbEntity
8
0
62
256
6
ByLayer
370
-2
48
1
60
0
100
AcDbLine
10
61.5875
20
7.089301
30
0
11
81.5
21
7.089301
31
0
39
0
210
0
220
0
230
1
0
LINE
5
204
100
AcDbEntity
8
0
62
256
6
ByLayer
370
-2
48
1
60
0
100
AcDbLine
10
61.5875
20
-7.089301
30
0
11
81.5
21
-7.089301
31
0
39
0
210
0
220
0
230
1
0
LINE
5
205
100
AcDbEntity
8
0
62
256
6
ByLayer
370
-2
48
1
60
0
100
AcDbLine
10
79.5
20
7.089301
30
0
11
79.5
21
37.375016
31
0
39
0
210
0
220
0
230
1
0
LINE
5
206
100
AcDbEntity
8
0
62
256
6
ByLayer
370
-2
48
1
60
0
100
AcDbLine
10
79.5
20
10.589301
30
0
11
79.5
21
14.089301
31
0
39
0
210
0
220
0
230
1
0
LINE
5
207
100
AcDbEntity
8
0
62
256
6
ByLayer
370
-2
48
1
60
0
100
AcDbLine
10
79.5
20
-10.589301
30
0
11
79.5
21
-14.089301
31
0
39
0
210
0
220
0
230
1
0
SOLID
5
208
100
AcDbEntity
8
0
62
256
6
ByLayer
370
-1
48
1
60
0
100
AcDbTrace
10
78.916667
20
10.589301
30
0
11
80.083333
21
10.589301
31
0
12
79.5
22
7.089301
32
0
13
79.5
23
7.089301
33
0
39
0
210
0
220
0
230
1
0
SOLID
5
209
100
AcDbEntity
8
0
62
256
6
ByLayer
370
-1
48
1
60
0
100
AcDbTrace
10
80.083333
20
-10.589301
30
0
11
78.916667
21
-10.589301
31
0
12
79.5
22
-7.089301
32
0
13
79.5
23
-7.089301
33
0
39
0
210
0
220
0
230
1
0
MTEXT
5
20A
100
AcDbEntity
8
0
62
256
6
ByLayer
370
18
48
1
60
0
100
AcDbMText
10
73.5
20
25.732159
30
0
210
0
220
0
230
1
1
\A1;14.179
40
3
41
0
44
1
50
90
71
5
72
5
7
iso_b_vert
0
POINT
5
20B
100
AcDbEntity
8
Defpoints
62
0
6
ByLayer
370
-1
48
1
60
0
100
AcDbPoint
10
60
20
7.089301
30
0
39
0
210
0
220
0
230
1
50
360
0
POINT
5
20C
100
AcDbEntity
8
Defpoints
62
0
6
ByLayer
370
-1
48
1
60
0
100
AcDbPoint
10
60
20
-7.089301
30
0
39
0
210
0
220
0
230
1
50
360
0
POINT
5
20D
100
AcDbEntity
8
Defpoints
62
0
6
ByLayer
370
-1
48
1
60
0
100
AcDbPoint
10
79.5
20
-7.089301
30
0
39
0
210
0
220
0
230
1
50
360
0
ENDBLK
5
202
100
AcDbEntity
8
0
100
AcDbBlockEnd
0
BLOCK
5
215
100
AcDbEntity
8
0
100
AcDbBlockBegin
2
_U0
70
0
10
0
20
0
30
0
3
_U0
0
MTEXT
5
20F
100
AcDbEntity
8
2
62
256
6
ByLayer
370
18
48
1
60
0
100
AcDbMText
10
78.908886
20
17.224301
30
0
210
0
220
0
230
1
1
\W0.7316;M14x1.50
40
3
41
0
44
1.084337
50
90
71
7
72
5
7
iso_b_vert
0
LINE
5
210
100
AcDbEntity
8
2
62
256
6
ByLayer
370
13
48
1
60
0
100
AcDbLine
10
61.5875
20
7.089301
30
0
11
81.5
21
7.089301
31
0
39
0
210
0
220
0
230
1
0
LINE
5
211
100
AcDbEntity
8
2
62
256
6
ByLayer
370
13
48
1
60
0
100
AcDbLine
10
61.5875
20
-7.089301
30
0
11
81.5
21
-7.089301
31
0
39
0
210
0
220
0
230
1
0
LINE
5
212
100
AcDbEntity
8
2
62
256
6
ByLayer
370
13
48
1
60
0
100
AcDbLine
10
79.5
20
-7.089301
30
0
11
79.5
21
32.584784
31
0
39
0
210
0
220
0
230
1
0
SOLID
5
213
100
AcDbEntity
8
2
62
256
6
ByLayer
370
18
48
1
60
0
100
AcDbTrace
10
79.5
20
7.089301
30
0
11
79.960784
21
3.589303
31
0
12
79.039216
22
3.5893
32
0
13
79.039216
23
3.5893
33
0
39
0
210
0
220
0
230
1
0
SOLID
5
214
100
AcDbEntity
8
2
62
256
6
ByLayer
370
18
48
1
60
0
100
AcDbTrace
10
79.5
20
-7.089301
30
0
11
79.039216
21
-3.589303
31
0
12
79.960784
22
-3.5893
32
0
13
79.960784
23
-3.5893
33
0
39
0
210
0
220
0
230
1
0
ENDBLK
5
216
100
AcDbEntity
8
0
100
AcDbBlockEnd
0
BLOCK
5
21B
100
AcDbEntity
8
0
100
AcDbBlockBegin
2
*D3
70
1
10
0
20
0
30
0
3
*D3
0
LINE
5
21D
100
AcDbEntity
8
0
62
256
6
ByLayer
370
-2
48
1
60
0
100
AcDbLine
10
60
20
8.676801
30
0
11
60
21
19.331002
31
0
39
0
210
0
220
0
230
1
0
LINE
5
21E
100
AcDbEntity
8
0
62
256
6
ByLayer
370
-2
48
1
60
0
100
AcDbLine
10
57.375
20
1.5875
30
0
11
57.375
21
19.331002
31
0
39
0
210
0
220
0
230
1
0
LINE
5
21F
100
AcDbEntity
8
0
62
256
6
ByLayer
370
-2
48
1
60
0
100
AcDbLine
10
63.5
20
17.331002
30
0
11
67
21
17.331002
31
0
39
0
210
0
220
0
230
1
0
LINE
5
220
100
AcDbEntity
8
0
62
256
6
ByLayer
370
-2
48
1
60
0
100
AcDbLine
10
53.875
20
17.331002
30
0
11
50.375
21
17.331002
31
0
39
0
210
0
220
0
230
1
0
SOLID
5
221
100
AcDbEntity
8
0
62
256
6
ByLayer
370
-1
48
1
60
0
100
AcDbTrace
10
63.5
20
17.914335
30
0
11
63.5
21
16.747668
31
0
12
60
22
17.331002
32
0
13
60
23
17.331002
33
0
39
0
210
0
220
0
230
1
0
SOLID
5
222
100
AcDbEntity
8
0
62
256
6
ByLayer
370
-1
48
1
60
0
100
AcDbTrace
10
53.875
20
16.747668
30
0
11
53.875
21
17.914335
31
0
12
57.375
22
17.331002
32
0
13
57.375
23
17.331002
33
0
39
0
210
0
220
0
230
1
0
MTEXT
5
223
100
AcDbEntity
8
0
62
256
6
ByLayer
370
18
48
1
60
0
100
AcDbMText
10
58.6875
20
23.331002
30
0
210
0
220
0
230
1
1
\A1;2.625
40
3
41
0
44
1
50
0
71
5
72
5
7
iso_b_vert
0
POINT
5
224
100
AcDbEntity
8
Defpoints
62
0
6
ByLayer
370
-1
48
1
60
0
100
AcDbPoint
10
60
20
7.089301
30
0
39
0
210
0
220
0
230
1
50
360
0
POINT
5
225
100
AcDbEntity
8
Defpoints
62
0
6
ByLayer
370
-1
48
1
60
0
100
AcDbPoint
10
57.375
20
0
30
0
39
0
210
0
220
0
230
1
50
360
0
POINT
5
226
100
AcDbEntity
8
Defpoints
62
0
6
ByLayer
370
-1
48
1
60
0
100
AcDbPoint
10
57.375
20
17.331002
30
0
39
0
210
0
220
0
230
1
50
360
0
ENDBLK
5
21C
100
AcDbEntity
8
0
100
AcDbBlockEnd
0
BLOCK
5
22F
100
AcDbEntity
8
0
100
AcDbBlockBegin
2
_U1
70
0
10
0
20
0
30
0
3
_U1
0
MTEXT
5
228
100
AcDbEntity
8
SK2
62
256
6
ByLayer
370
18
48
1
60
0
100
AcDbMText
10
54.23163
20
18.113635
30
0
210
0
220
0
230
1
1
\W0.6844;'E'
40
3.5
41
0
44
1.084337
50
0
71
7
72
5
7
iso_b_vert
0
MTEXT
5
229
100
AcDbEntity
8
SK2
62
256
6
ByLayer
370
18
48
1
60
0
100
AcDbMText
10
54.20513
20
25.216116
30
0
210
0
220
0
230
1
1
\W0.7468;2.625
40
3
41
0
44
1.084337
50
0
71
7
72
5
7
iso_b_vert
0
LINE
5
22A
100
AcDbEntity
8
SK2
62
256
6
ByLayer
370
13
48
1
60
0
100
AcDbLine
10
60
20
8.676801
30
0
11
60
21
19.331002
31
0
39
0
210
0
220
0
230
1
0
LINE
5
22B
100
AcDbEntity
8
SK2
62
256
6
ByLayer
370
13
48
1
60
0
100
AcDbLine
10
57.375
20
1.5875
30
0
11
57.375
21
19.331002
31
0
39
0
210
0
220
0
230
1
0
LINE
5
22C
100
AcDbEntity
8
SK2
62
256
6
ByLayer
370
13
48
1
60
0
100
AcDbLine
10
67.5
20
17.331002
30
0
11
49.875
21
17.331002
31
0
39
0
210
0
220
0
230
1
0
SOLID
5
22D
100
AcDbEntity
8
SK2
62
256
6
ByLayer
370
18
48
1
60
0
100
AcDbTrace
10
60
20
17.331002
30
0
11
63.499998
21
17.791785
31
0
12
63.500002
22
16.870218
32
0
13
63.500002
23
16.870218
33
0
39
0
210
0
220
0
230
1
0
SOLID
5
22E
100
AcDbEntity
8
SK2
62
256
6
ByLayer
370
18
48
1
60
0
100
AcDbTrace
10
57.375
20
17.331002
30
0
11
53.875002
21
16.870218
31
0
12
53.874998
22
17.791785
32
0
13
53.874998
23
17.791785
33
0
39
0
210
0
220
0
230
1
0
ENDBLK
5
230
100
AcDbEntity
8
0
100
AcDbBlockEnd
0
BLOCK
5
235
100
AcDbEntity
8
0
100
AcDbBlockBegin
2
*D5
70
1
10
0
20
0
30
0
3
*D5
0
LINE
5
237
100
AcDbEntity
8
0
62
256
6
ByLayer
370
-2
48
1
60
0
100
AcDbLine
10
60
20
-8.676801
30
0
11
60
21
-16.089301
31
0
39
0
210
0
220
0
230
1
0
LINE
5
238
100
AcDbEntity
8
0
62
256
6
ByLayer
370
-2
48
1
60
0
100
AcDbLine
10
39
20
-8.676801
30
0
11
39
21
-16.089301
31
0
39
0
210
0
220
0
230
1
0
LINE
5
239
100
AcDbEntity
8
0
62
256
6
ByLayer
370
-2
48
1
60
0
100
AcDbLine
10
56.5
20
-14.089301
30
0
11
42.5
21
-14.089301
31
0
39
0
210
0
220
0
230
1
0
SOLID
5
23A
100
AcDbEntity
8
0
62
256
6
ByLayer
370
-1
48
1
60
0
100
AcDbTrace
10
56.5
20
-14.672635
30
0
11
56.5
21
-13.505968
31
0
12
60
22
-14.089301
32
0
13
60
23
-14.089301
33
0
39
0
210
0
220
0
230
1
0
SOLID
5
23B
100
AcDbEntity
8
0
62
256
6
ByLayer
370
-1
48
1
60
0
100
AcDbTrace
10
42.5
20
-13.505968
30
0
11
42.5
21
-14.672635
31
0
12
39
22
-14.089301
32
0
13
39
23
-14.089301
33
0
39
0
210
0
220
0
230
1
0
MTEXT
5
23C
100
AcDbEntity
8
0
62
256
6
ByLayer
370
18
48
1
60
0
100
AcDbMText
10
47.884615
20
-8.089301
30
0
210
0
220
0
230
1
1
\A1;21
40
3
41
0
44
1
50
0
71
5
72
5
7
iso_b_vert
0
POINT
5
23D
100
AcDbEntity
8
Defpoints
62
0
6
ByLayer
370
-1
48
1
60
0
100
AcDbPoint
10
60
20
-7.089301
30
0
39
0
210
0
220
0
230
1
50
360
0
POINT
5
23E
100
AcDbEntity
8
Defpoints
62
0
6
ByLayer
370
-1
48
1
60
0
100
AcDbPoint
10
39
20
-7.089301
30
0
39
0
210
0
220
0
230
1
50
360
0
POINT
5
23F
100
AcDbEntity
8
Defpoints
62
0
6
ByLayer
370
-1
48
1
60
0
100
AcDbPoint
10
39
20
-14.089301
30
0
39
0
210
0
220
0
230
1
50
360
0
ENDBLK
5
236
100
AcDbEntity
8
0
100
AcDbBlockEnd
0
BLOCK
5
248
100
AcDbEntity
8
0
100
AcDbBlockBegin
2
_U2
70
0
10
0
20
0
30
0
3
_U2
0
MTEXT
5
241
100
AcDbEntity
8
SK2
62
256
6
ByLayer
370
18
48
1
60
0
100
AcDbMText
10
41.752111
20
-13.204187
30
0
210
0
220
0
230
1
1
\W0.6351;21
40
3
41
0
44
1.084337
50
0
71
7
72
5
7
iso_b_vert
0
MTEXT
5
242
100
AcDbEntity
8
SK2
62
256
6
ByLayer
370
18
48
1
60
0
100
AcDbMText
10
47.059382
20
-12.851706
30
0
210
0
220
0
230
1
1
\W0.8315;\W0.4158;%%p\W0.8315;0.5
40
2.5
41
0
44
1.084337
50
0
71
7
72
5
7
iso_b_vert
0
LINE
5
243
100
AcDbEntity
8
SK2
62
256
6
ByLayer
370
13
48
1
60
0
100
AcDbLine
10
60
20
-8.676801
30
0
11
60
21
-16.089301
31
0
39
0
210
0
220
0
230
1
0
LINE
5
244
100
AcDbEntity
8
SK2
62
256
6
ByLayer
370
13
48
1
60
0
100
AcDbLine
10
39
20
-8.676801
30
0
11
39
21
-16.089301
31
0
39
0
210
0
220
0
230
1
0
LINE
5
245
100
AcDbEntity
8
SK2
62
256
6
ByLayer
370
13
48
1
60
0
100
AcDbLine
10
60
20
-14.089301
30
0
11
39
21
-14.089301
31
0
39
0
210
0
220
0
230
1
0
SOLID
5
246
100
AcDbEntity
8
SK2
62
256
6
ByLayer
370
18
48
1
60
0
100
AcDbTrace
10
60
20
-14.089301
30
0
11
56.500002
21
-14.550085
31
0
12
56.499998
22
-13.628518
32
0
13
56.499998
23
-13.628518
33
0
39
0
210
0
220
0
230
1
0
SOLID
5
247
100
AcDbEntity
8
SK2
62
256
6
ByLayer
370
18
48
1
60
0
100
AcDbTrace
10
39
20
-14.089301
30
0
11
42.499998
21
-13.628518
31
0
12
42.500002
22
-14.550085
32
0
13
42.500002
23
-14.550085
33
0
39
0
210
0
220
0
230
1
0
ENDBLK
5
249
100
AcDbEntity
8
0
100
AcDbBlockEnd
0
BLOCK
5
24E
100
AcDbEntity
8
0
100
AcDbBlockBegin
2
*D7
70
1
10
0
20
0
30
0
3
*D7
0
LINE
5
250
100
AcDbEntity
8
0
62
256
6
ByLayer
370
-2
48
1
60
0
100
AcDbLine
10
60
20
-8.676801
30
0
11
60
21
-38.589301
31
0
39
0
210
0
220
0
230
1
0
LINE
5
251
100
AcDbEntity
8
0
62
256
6
ByLayer
370
-2
48
1
60
0
100
AcDbLine
10
16
20
-6.6875
30
0
11
16
21
-38.589301
31
0
39
0
210
0
220
0
230
1
0
LINE
5
252
100
AcDbEntity
8
0
62
256
6
ByLayer
370
-2
48
1
60
0
100
AcDbLine
10
56.5
20
-36.589301
30
0
11
19.5
21
-36.589301
31
0
39
0
210
0
220
0
230
1
0
SOLID
5
253
100
AcDbEntity
8
0
62
256
6
ByLayer
370
-1
48
1
60
0
100
AcDbTrace
10
56.5
20
-37.172635
30
0
11
56.5
21
-36.005968
31
0
12
60
22
-36.589301
32
0
13
60
23
-36.589301
33
0
39
0
210
0
220
0
230
1
0
SOLID
5
254
100
AcDbEntity
8
0
62
256
6
ByLayer
370
-1
48
1
60
0
100
AcDbTrace
10
19.5
20
-36.005968
30
0
11
19.5
21
-37.172635
31
0
12
16
22
-36.589301
32
0
13
16
23
-36.589301
33
0
39
0
210
0
220
0
230
1
0
MTEXT
5
255
100
AcDbEntity
8
0
62
256
6
ByLayer
370
18
48
1
60
0
100
AcDbMText
10
38
20
-30.589301
30
0
210
0
220
0
230
1
1
\A1;44
40
3
41
0
44
1
50
0
71
5
72
5
7
iso_b_vert
0
POINT
5
256
100
AcDbEntity
8
Defpoints
62
0
6
ByLayer
370
-1
48
1
60
0
100
AcDbPoint
10
60
20
-7.089301
30
0
39
0
210
0
220
0
230
1
50
360
0
POINT
5
257
100
AcDbEntity
8
Defpoints
62
0
6
ByLayer
370
-1
48
1
60
0
100
AcDbPoint
10
16
20
-5.1
30
0
39
0
210
0
220
0
230
1
50
360
0
POINT
5
258
100
AcDbEntity
8
Defpoints
62
0
6
ByLayer
370
-1
48
1
60
0
100
AcDbPoint
10
16
20
-36.589301
30
0
39
0
210
0
220
0
230
1
50
360
0
ENDBLK
5
24F
100
AcDbEntity
8
0
100
AcDbBlockEnd
0
BLOCK
5
260
100
AcDbEntity
8
0
100
AcDbBlockBegin
2
_U3
70
0
10
0
20
0
30
0
3
_U3
0
MTEXT
5
25A
100
AcDbEntity
8
SK2
62
256
6
ByLayer
370
18
48
1
60
0
100
AcDbMText
10
36.051286
20
-35.704187
30
0
210
0
220
0
230
1
1
\W0.7685;44
40
3
41
0
44
1.084337
50
0
71
7
72
5
7
iso_b_vert
0
LINE
5
25B
100
AcDbEntity
8
SK2
62
256
6
ByLayer
370
13
48
1
60
0
100
AcDbLine
10
60
20
-8.676801
30
0
11
60
21
-38.589301
31
0
39
0
210
0
220
0
230
1
0
LINE
5
25C
100
AcDbEntity
8
SK2
62
256
6
ByLayer
370
13
48
1
60
0
100
AcDbLine
10
16
20
-6.6875
30
0
11
16
21
-38.589301
31
0
39
0
210
0
220
0
230
1
0
LINE
5
25D
100
AcDbEntity
8
SK2
62
256
6
ByLayer
370
13
48
1
60
0
100
AcDbLine
10
60
20
-36.589301
30
0
11
16
21
-36.589301
31
0
39
0
210
0
220
0
230
1
0
SOLID
5
25E
100
AcDbEntity
8
SK2
62
256
6
ByLayer
370
18
48
1
60
0
100
AcDbTrace
10
60
20
-36.589301
30
0
11
56.500002
21
-37.050085
31
0
12
56.499998
22
-36.128518
32
0
13
56.499998
23
-36.128518
33
0
39
0
210
0
220
0
230
1
0
SOLID
5
25F
100
AcDbEntity
8
SK2
62
256
6
ByLayer
370
18
48
1
60
0
100
AcDbTrace
10
16
20
-36.589301
30
0
11
19.499998
21
-36.128518
31
0
12
19.500002
22
-37.050085
32
0
13
19.500002
23
-37.050085
33
0
39
0
210
0
220
0
230
1
0
ENDBLK
5
261
100
AcDbEntity
8
0
100
AcDbBlockEnd
0
BLOCK
5
266
100
AcDbEntity
8
0
100
AcDbBlockBegin
2
*D9
70
1
10
0
20
0
30
0
3
*D9
0
LINE
5
268
100
AcDbEntity
8
0
62
256
6
ByLayer
370
-2
48
1
60
0
100
AcDbLine
10
60
20
-8.676801
30
0
11
60
21
-27.589301
31
0
39
0
210
0
220
0
230
1
0
LINE
5
269
100
AcDbEntity
8
0
62
256
6
ByLayer
370
-2
48
1
60
0
100
AcDbLine
10
22.6
20
-1.5875
30
0
11
22.6
21
-27.589301
31
0
39
0
210
0
220
0
230
1
0
LINE
5
26A
100
AcDbEntity
8
0
62
256
6
ByLayer
370
-2
48
1
60
0
100
AcDbLine
10
56.5
20
-25.589301
30
0
11
26.1
21
-25.589301
31
0
39
0
210
0
220
0
230
1
0
SOLID
5
26B
100
AcDbEntity
8
0
62
256
6
ByLayer
370
-1
48
1
60
0
100
AcDbTrace
10
56.5
20
-26.172635
30
0
11
56.5
21
-25.005968
31
0
12
60
22
-25.589301
32
0
13
60
23
-25.589301
33
0
39
0
210
0
220
0
230
1
0
SOLID
5
26C
100
AcDbEntity
8
0
62
256
6
ByLayer
370
-1
48
1
60
0
100
AcDbTrace
10
26.1
20
-25.005968
30
0
11
26.1
21
-26.172635
31
0
12
22.6
22
-25.589301
32
0
13
22.6
23
-25.589301
33
0
39
0
210
0
220
0
230
1
0
MTEXT
5
26D
100
AcDbEntity
8
0
62
256
6
ByLayer
370
18
48
1
60
0
100
AcDbMText
10
41.3
20
-19.589301
30
0
210
0
220
0
230
1
1
\A1;37.4
40
3
41
0
44
1
50
0
71
5
72
5
7
iso_b_vert
0
POINT
5
26E
100
AcDbEntity
8
Defpoints
62
0
6
ByLayer
370
-1
48
1
60
0
100
AcDbPoint
10
60
20
-7.089301
30
0
39
0
210
0
220
0
230
1
50
360
0
POINT
5
26F
100
AcDbEntity
8
Defpoints
62
0
6
ByLayer
370
-1
48
1
60
0
100
AcDbPoint
10
22.6
20
0
30
0
39
0
210
0
220
0
230
1
50
360
0
POINT
5
270
100
AcDbEntity
8
Defpoints
62
0
6
ByLayer
370
-1
48
1
60
0
100
AcDbPoint
10
22.6
20
-25.589301
30
0
39
0
210
0
220
0
230
1
50
360
0
ENDBLK
5
267
100
AcDbEntity
8
0
100
AcDbBlockEnd
0
BLOCK
5
278
100
AcDbEntity
8
0
100
AcDbBlockBegin
2
_U4
70
0
10
0
20
0
30
0
3
_U4
0
MTEXT
5
272
100
AcDbEntity
8
2
62
256
6
ByLayer
370
18
48
1
60
0
100
AcDbMText
10
37.780601
20
-24.704187
30
0
210
0
220
0
230
1
1
\W0.7528;37.4
40
3
41
0
44
1.084337
50
0
71
7
72
5
7
iso_b_vert
0
LINE
5
273
100
AcDbEntity
8
2
62
256
6
ByLayer
370
13
48
1
60
0
100
AcDbLine
10
60
20
-8.676801
30
0
11
60
21
-27.589301
31
0
39
0
210
0
220
0
230
1
0
LINE
5
274
100
AcDbEntity
8
2
62
256
6
ByLayer
370
13
48
1
60
0
100
AcDbLine
10
22.6
20
-1.5875
30
0
11
22.6
21
-27.589301
31
0
39
0
210
0
220
0
230
1
0
LINE
5
275
100
AcDbEntity
8
2
62
256
6
ByLayer
370
13
48
1
60
0
100
AcDbLine
10
60
20
-25.589301
30
0
11
22.6
21
-25.589301
31
0
39
0
210
0
220
0
230
1
0
SOLID
5
276
100
AcDbEntity
8
2
62
256
6
ByLayer
370
18
48
1
60
0
100
AcDbTrace
10
60
20
-25.589301
30
0
11
56.500002
21
-26.050085
31
0
12
56.499998
22
-25.128518
32
0
13
56.499998
23
-25.128518
33
0
39
0
210
0
220
0
230
1
0
SOLID
5
277
100
AcDbEntity
8
2
62
256
6
ByLayer
370
18
48
1
60
0
100
AcDbTrace
10
22.6
20
-25.589301
30
0
11
26.099998
21
-25.128518
31
0
12
26.100002
22
-26.050085
32
0
13
26.100002
23
-26.050085
33
0
39
0
210
0
220
0
230
1
0
ENDBLK
5
279
100
AcDbEntity
8
0
100
AcDbBlockEnd
0
ENDSEC
0
SECTION
2
ENTITIES
0
ARC
5
D8
100
AcDbEntity
8
SK1
62
256
6
ByLayer
370
18
48
1
60
0
100
AcDbCircle
39
0
10
-21
20
0
30
0
40
5.03999999999999
210
0
220
0
230
1
100
AcDbArc
50
322.528005
51
37.471995
0
ARC
5
D9
100
AcDbEntity
8
1
62
256
6
ByLayer
370
18
48
1
60
0
100
AcDbCircle
39
0
10
16.653835
20
-6.6
30
0
40
1.5
210
0
220
0
230
1
100
AcDbArc
50
90
51
115.841933
0
ARC
5
DA
100
AcDbEntity
8
1
62
256
6
ByLayer
370
18
48
1
60
0
100
AcDbCircle
39
0
10
16.653835
20
6.6
30
0
40
1.5
210
0
220
0
230
1
100
AcDbArc
50
244.158067
51
270
0
POINT
5
70
100
AcDbEntity
8
81
62
256
6
ByLayer
370
18
48
1
60
0
100
AcDbPoint
10
60
20
0
30
0
39
0
210
0
220
0
230
1
50
360
0
POINT
5
72
100
AcDbEntity
8
80
62
256
6
ByLayer
370
18
48
1
60
0
100
AcDbPoint
10
0
20
0
30
0
39
0
210
0
220
0
230
1
50
360
0
POINT
5
74
100
AcDbEntity
8
1
62
256
6
ByLayer
370
18
48
1
60
1
100
AcDbPoint
10
60
20
7.089301
30
0
39
0
210
0
220
0
230
1
50
360
0
POINT
5
76
100
AcDbEntity
8
1
62
256
6
ByLayer
370
18
48
1
60
1
100
AcDbPoint
10
60
20
-7.089301
30
0
39
0
210
0
220
0
230
1
50
360
0
POINT
5
77
100
AcDbEntity
8
1
62
256
6
ByLayer
370
18
48
1
60
1
100
AcDbPoint
10
60
20
7.089301
30
0
39
0
210
0
220
0
230
1
50
360
0
POINT
5
78
100
AcDbEntity
8
1
62
256
6
ByLayer
370
18
48
1
60
1
100
AcDbPoint
10
57.375
20
0
30
0
39
0
210
0
220
0
230
1
50
360
0
POINT
5
79
100
AcDbEntity
8
1
62
256
6
ByLayer
370
18
48
1
60
1
100
AcDbPoint
10
60
20
-7.089301
30
0
39
0
210
0
220
0
230
1
50
360
0
POINT
5
7A
100
AcDbEntity
8
1
62
256
6
ByLayer
370
18
48
1
60
1
100
AcDbPoint
10
39
20
-7.089301
30
0
39
0
210
0
220
0
230
1
50
360
0
POINT
5
7B
100
AcDbEntity
8
1
62
256
6
ByLayer
370
18
48
1
60
1
100
AcDbPoint
10
60
20
-7.089301
30
0
39
0
210
0
220
0
230
1
50
360
0
POINT
5
7C
100
AcDbEntity
8
1
62
256
6
ByLayer
370
18
48
1
60
1
100
AcDbPoint
10
16
20
-5.1
30
0
39
0
210
0
220
0
230
1
50
360
0
POINT
5
7D
100
AcDbEntity
8
1
62
256
6
ByLayer
370
18
48
1
60
1
100
AcDbPoint
10
60
20
-7.089301
30
0
39
0
210
0
220
0
230
1
50
360
0
POINT
5
7E
100
AcDbEntity
8
1
62
256
6
ByLayer
370
18
48
1
60
1
100
AcDbPoint
10
22.6
20
0
30
0
39
0
210
0
220
0
230
1
50
360
0
SPLINE
5
DB
100
AcDbEntity
8
1
62
256
6
ByLayer
370
18
48
1
60
0
100
AcDbSpline
70
4
71
3
72
8
73
4
40
0
40
0
40
0
40
0
40
1
40
1
40
1
40
1
41
1
10
59.4530949251988
20
6.28009724842334
30
0
41
1
10
59.4579528503627
20
6.28850225573362
30
0
41
1
10
59.4626758967981
20
6.29138206344885
30
0
41
1
10
59.4672746122412
20
6.28873655632893
30
0
0
SPLINE
5
DC
100
AcDbEntity
8
1
62
256
6
ByLayer
370
13
48
1
60
0
100
AcDbSpline
70
4
71
2
72
6
73
3
40
0
40
0
40
0
40
1
40
1
40
1
41
1
10
58.0316816666048
20
6.39894070103676
30
0
41
1
10
58.1353968578755
20
6.5787318163633
30
0
41
1
10
58.2391120491463
20
6.75852293168984
30
0
0
SPLINE
5
DD
100
AcDbEntity
8
1
62
256
6
ByLayer
370
18
48
1
60
0
100
AcDbSpline
70
4
71
3
72
8
73
4
40
0
40
0
40
0
40
0
40
1
40
1
40
1
40
1
41
1
10
58.2256264002651
20
6.75088582696142
30
0
41
1
10
58.2302320925733
20
6.75886853703196
30
0
41
1
10
58.2347154652407
20
6.76142352183919
30
0
41
1
10
58.2391120491462
20
6.7585229316897
30
0
0
SPLINE
5
DE
100
AcDbEntity
8
1
62
256
6
ByLayer
370
18
48
1
60
0
100
AcDbSpline
70
4
71
3
72
8
73
4
40
0
40
0
40
0
40
0
40
1
40
1
40
1
40
1
41
1
10
58.2391120491463
20
6.75852293168987
30
0
41
1
10
58.2396834287794
20
6.7581459738505
30
0
41
1
10
58.2402528697223
20
6.75767698494633
30
0
41
1
10
58.2408204002134
20
6.7571160302696
30
0
0
SPLINE
5
DF
100
AcDbEntity
8
1
62
256
6
ByLayer
370
13
48
1
60
0
100
AcDbSpline
70
4
71
3
72
8
73
4
40
0
40
0
40
0
40
0
40
1
40
1
40
1
40
1
41
1
10
48.9192642206275
20
6.22155526006264
30
0
41
1
10
48.9249874616122
20
6.23141853136801
30
0
41
1
10
48.9307107024829
20
6.23590568131689
30
0
41
1
10
48.9364339432737
20
6.23503886989002
30
0
0
SPLINE
5
E0
100
AcDbEntity
8
1
62
256
6
ByLayer
370
18
48
1
60
0
100
AcDbSpline
70
4
71
3
72
25
73
21
40
0
40
0
40
0
40
0
40
0.0759989866047302
40
0.0759989866047302
40
0.260799189283784
40
0.260799189283784
40
0.353199290623311
40
0.353199290623311
40
0.399399341293074
40
0.399399341293074
40
0.445599391962838
40
0.445599391962838
40
0.537999493302365
40
0.537999493302365
40
0.630399594641892
40
0.630399594641892
40
0.722799695981419
40
0.722799695981419
40
0.815199797320946
40
1
40
1
40
1
40
1
41
1
10
60
20
-3.09562758819848
30
0
41
1
10
60
20
-3.14801274014761
30
0
41
1
10
60
20
-3.20184853840084
30
0
41
1
10
60
20
-3.39152413430313
30
0
41
1
10
60
20
-3.53443842736061
30
0
41
1
10
60
20
-3.76141805185233
30
0
41
1
10
60
20
-3.83918759680554
30
0
41
1
10
60
20
-3.95909269127623
30
0
41
1
10
59.9999999999999
20
-3.99965087451065
30
0
41
1
10
60
20
-4.08166752550815
30
0
41
1
10
60
20
-4.12299890896259
30
0
41
1
10
60
20
-4.24794690825775
30
0
41
1
10
60
20
-4.3325119851518
30
0
41
1
10
60
20
-4.5041572500885
30
0
41
1
10
60
20
-4.59125806945471
30
0
41
1
10
60
20
-4.7677881936392
30
0
41
1
10
60
20
-4.85610752063786
30
0
41
1
10
60
20
-5.03274572233516
30
0
41
1
10
60
20
-5.297756210399
30
0
41
1
10
60
20
-5.56292238494521
30
0
41
1
10
60
20
-5.73976558823455
30
0
0
SPLINE
5
E1
100
AcDbEntity
8
1
62
256
6
ByLayer
370
18
48
1
60
0
100
AcDbSpline
70
4
71
3
72
8
73
4
40
0
40
0
40
0
40
0
40
1
40
1
40
1
40
1
41
1
10
46.2471297304203
20
-6.14849151215989
30
0
41
1
10
45.9769928688469
20
-6.11230518637672
30
0
41
1
10
45.7068560093029
20
-6.07611962029236
30
0
41
1
10
45.4367191517866
20
-6.03993483508188
30
0
0
SPLINE
5
E2
100
AcDbEntity
8
1
62
256
6
ByLayer
370
18
48
1
60
0
100
AcDbSpline
70
4
71
3
72
10
73
6
40
0
40
0
40
0
40
0
40
0.991766317695517
40
0.991766317695517
40
1
40
1
40
1
40
1
41
1
10
46.3854821793693
20
-5.92418401807342
30
0
41
1
10
46.3397500371952
20
-5.99832948768301
30
0
41
1
10
46.2940120937783
20
-6.07248293210685
30
0
41
1
10
46.2478892531592
20
-6.14726012709147
30
0
41
1
10
46.2475094919669
20
-6.14787581934795
30
0
41
1
10
46.2471297304202
20
-6.14849151215989
30
0
0
SPLINE
5
E3
100
AcDbEntity
8
1
62
256
6
ByLayer
370
18
48
1
60
0
100
AcDbSpline
70
4
71
3
72
32
73
28
40
0
40
0
40
0
40
0
40
0.125000000000078
40
0.125000000000078
40
0.187500000000117
40
0.187500000000117
40
0.250000000000157
40
0.312500000000196
40
0.312500000000196
40
0.375000000000235
40
0.375000000000235
40
0.437500000000274
40
0.437500000000274
40
0.500000000000313
40
0.500000000000313
40
0.6250000000003
40
0.6250000000003
40
0.68750000000025
40
0.68750000000025
40
0.7500000000002
40
0.7500000000002
40
0.81250000000015
40
0.81250000000015
40
0.8750000000001
40
0.93750000000005
40
0.93750000000005
40
1
40
1
40
1
40
1
41
1
10
46.7607242513658
20
-5.92510092629743
30
0
41
1
10
46.7511629155036
20
-5.90964708725775
30
0
41
1
10
46.7396723066929
20
-5.8956854804965
30
0
41
1
10
46.7196279338919
20
-5.87691499637339
30
0
41
1
10
46.7124159766701
20
-5.87098976707296
30
0
41
1
10
46.6973865642977
20
-5.86018737650389
30
0
41
1
10
46.681718681064
20
-5.85037794262311
30
0
41
1
10
46.6647977369026
20
-5.84251718460536
30
0
41
1
10
46.6472295204682
20
-5.83566297836021
30
0
41
1
10
46.6382010194059
20
-5.83277784799586
30
0
41
1
10
46.6199963545204
20
-5.82816814671799
30
0
41
1
10
46.610770850095
20
-5.82642377493784
30
0
41
1
10
46.5920728165162
20
-5.82405907085351
30
0
41
1
10
46.5825327581628
20
-5.823439943745
30
0
41
1
10
46.5540497147361
20
-5.82335431403229
30
0
41
1
10
46.5353960220571
20
-5.82559152395947
30
0
41
1
10
46.5079164747741
20
-5.83237856048729
30
0
41
1
10
46.4988471890951
20
-5.835230469181
30
0
41
1
10
46.4814117651328
20
-5.84193245514373
30
0
41
1
10
46.4729753799079
20
-5.84579725505012
30
0
41
1
10
46.4566620325197
20
-5.85454861944783
30
0
41
1
10
46.4487563954436
20
-5.85945575864139
30
0
41
1
10
46.4336550094241
20
-5.87024944991521
30
0
41
1
10
46.4194723727923
20
-5.88186144406737
30
0
41
1
10
46.4070630306114
20
-5.89505297534896
30
0
41
1
10
46.3955544094768
20
-5.90904686910659
30
0
41
1
10
46.3902392312143
20
-5.91647141537794
30
0
41
1
10
46.3854821793693
20
-5.92418401807342
30
0
0
SPLINE
5
E4
100
AcDbEntity
8
1
62
256
6
ByLayer
370
18
48
1
60
0
100
AcDbSpline
70
4
71
3
72
8
73
4
40
0
40
0
40
0
40
0
40
1
40
1
40
1
40
1
41
1
10
46.9577624379425
20
-6.24368642886409
30
0
41
1
10
46.8920913197368
20
-6.13746726761448
30
0
41
1
10
46.8264123681272
20
-6.03127161184574
30
0
41
1
10
46.7607242513658
20
-5.92510092629743
30
0
0
SPLINE
5
E5
100
AcDbEntity
8
1
62
256
6
ByLayer
370
18
48
1
60
0
100
AcDbSpline
70
4
71
3
72
8
73
4
40
0
40
0
40
0
40
0
40
1
40
1
40
1
40
1
41
1
10
47.6343137537171
20
-6.33431900183931
30
0
41
1
10
47.4087966468299
20
-6.30410767757346
30
0
41
1
10
47.1832795417039
20
-6.27389678971684
30
0
41
1
10
46.9577624379425
20
-6.24368642886412
30
0
0
SPLINE
5
E6
100
AcDbEntity
8
1
62
256
6
ByLayer
370
18
48
1
60
0
100
AcDbSpline
70
4
71
3
72
10
73
6
40
0
40
0
40
0
40
0
40
0.547275073096688
40
0.547275073096688
40
1
40
1
40
1
40
1
41
1
10
47.8850099272516
20
-5.92780010018538
30
0
41
1
10
47.8392872039733
20
-6.00194500496099
30
0
41
1
10
47.7935582920781
20
-6.07609768606633
30
0
41
1
10
47.7099908213874
20
-6.21160644087578
30
0
41
1
10
47.6721539761992
20
-6.27296010849889
30
0
41
1
10
47.6343137537171
20
-6.33431900183933
30
0
0
SPLINE
5
E7
100
AcDbEntity
8
1
62
256
6
ByLayer
370
18
48
1
60
0
100
AcDbSpline
70
4
71
3
72
32
73
28
40
0
40
0
40
0
40
0
40
0.124999999999996
40
0.124999999999996
40
0.187499999999997
40
0.187499999999997
40
0.249999999999997
40
0.312499999999997
40
0.312499999999997
40
0.374999999999997
40
0.374999999999997
40
0.437499999999998
40
0.437499999999998
40
0.499999999999998
40
0.499999999999998
40
0.624999999999998
40
0.624999999999998
40
0.687499999999999
40
0.687499999999999
40
0.749999999999999
40
0.749999999999999
40
0.812499999999999
40
0.812499999999999
40
0.874999999999999
40
0.9375
40
0.9375
40
1
40
1
40
1
40
1
41
1
10
48.2602598779851
20
-5.9287405223665
30
0
41
1
10
48.2506980294743
20
-5.91328685598535
30
0
41
1
10
48.2392074382766
20
-5.89932485534291
30
0
41
1
10
48.2191637123105
20
-5.88055307262036
30
0
41
1
10
48.2119520430191
20
-5.87462723669927
30
0
41
1
10
48.1969229281524
20
-5.86382316422782
30
0
41
1
10
48.1812554158089
20
-5.85401185504662
30
0
41
1
10
48.1643349512835
20
-5.84614889692966
30
0
41
1
10
48.1467672565082
20
-5.83929234476372
30
0
41
1
10
48.1377381958873
20
-5.83640570582725
30
0
41
1
10
48.1195330093969
20
-5.83179331577594
30
0
41
1
10
48.1103072633532
20
-5.83004763394646
30
0
41
1
10
48.0916087851933
20
-5.82768037777046
30
0
41
1
10
48.0820686878052
20
-5.82705997753121
30
0
41
1
10
48.0535829039079
20
-5.8269708305171
30
0
41
1
10
48.0349278154897
20
-5.82920628646625
30
0
41
1
10
48.0074467762015
20
-5.83599127941025
30
0
41
1
10
47.9983764153263
20
-5.83884281375481
30
0
41
1
10
47.9809393770894
20
-5.84554435217325
30
0
41
1
10
47.972502393736
20
-5.84940905642642
30
0
41
1
10
47.9561882216204
20
-5.85816040385737
30
0
41
1
10
47.9482825934188
20
-5.86306744802414
30
0
41
1
10
47.9331804274884
20
-5.87386189739789
30
0
41
1
10
47.9189975134505
20
-5.88547476520478
30
0
41
1
10
47.9065886930862
20
-5.89866724136689
30
0
41
1
10
47.8950809189571
20
-5.91266204433953
30
0
41
1
10
47.8897663082215
20
-5.9200870553619
30
0
41
1
10
47.8850099272516
20
-5.92780010018538
30
0
0
SPLINE
5
E8
100
AcDbEntity
8
1
62
256
6
ByLayer
370
18
48
1
60
0
100
AcDbSpline
70
4
71
3
72
10
73
6
40
0
40
0
40
0
40
0
40
0.281980322609311
40
0.281980322609311
40
1
40
1
40
1
40
1
41
1
10
48.5902483291489
20
-6.46238278106142
30
0
41
1
10
48.5592378608447
20
-6.41220602811103
30
0
41
1
10
48.5282257788481
20
-6.36203371743105
30
0
41
1
10
48.418240005636
20
-6.18412329628364
30
0
41
1
10
48.3392567599466
20
-6.05641368698556
30
0
41
1
10
48.2602598779851
20
-5.9287405223665
30
0
0
SPLINE
5
E9
100
AcDbEntity
8
1
62
256
6
ByLayer
370
18
48
1
60
0
100
AcDbSpline
70
4
71
3
72
8
73
4
40
0
40
0
40
0
40
0
40
1
40
1
40
1
40
1
41
1
10
49.0217001852712
20
-6.52018439121309
30
0
41
1
10
48.8778828988755
20
-6.50091708453337
30
0
41
1
10
48.7340656135347
20
-6.48164987269087
30
0
41
1
10
48.5902483291489
20
-6.46238278106142
30
0
0
SPLINE
5
EA
100
AcDbEntity
8
1
62
256
6
ByLayer
370
18
48
1
60
0
100
AcDbSpline
70
4
71
3
72
12
73
8
40
0
40
0
40
0
40
0
40
0.378088038518878
40
0.378088038518878
40
0.756176074688936
40
0.756176074688936
40
1
40
1
40
1
40
1
41
1
10
49.3845477223129
20
-5.93171698584646
30
0
41
1
10
49.3388338475085
20
-6.00586104205942
30
0
41
1
10
49.2931134427658
20
-6.08001270062246
30
0
41
1
10
49.2016610628857
20
-6.22833147387718
30
0
41
1
10
49.1559290551321
20
-6.30249877746607
30
0
41
1
10
49.0806967448314
20
-6.42450755160269
30
0
41
1
10
49.0511994127614
20
-6.47234469373447
30
0
41
1
10
49.0217001852713
20
-6.52018439121312
30
0
0
SPLINE
5
EB
100
AcDbEntity
8
1
62
256
6
ByLayer
370
18
48
1
60
0
100
AcDbSpline
70
4
71
3
72
32
73
28
40
0
40
0
40
0
40
0
40
0.125000000000007
40
0.125000000000007
40
0.18749999999998
40
0.18749999999998
40
0.249999999999953
40
0.312499999999926
40
0.312499999999926
40
0.3749999999999
40
0.3749999999999
40
0.437499999999872
40
0.437499999999872
40
0.499999999999846
40
0.499999999999846
40
0.624999999999883
40
0.624999999999883
40
0.687499999999903
40
0.687499999999903
40
0.749999999999922
40
0.749999999999922
40
0.812499999999941
40
0.812499999999941
40
0.874999999999961
40
0.93749999999998
40
0.93749999999998
40
1
40
1
40
1
40
1
41
1
10
49.7597982429888
20
-5.93269412930582
30
0
41
1
10
49.7502367311974
20
-5.91724031002315
30
0
41
1
10
49.7387470574444
20
-5.90327739687177
30
0
41
1
10
49.718705315633
20
-5.88450332293681
30
0
41
1
10
49.7114943767719
20
-5.87857650436874
30
0
41
1
10
49.6964663599683
20
-5.86776992597873
30
0
41
1
10
49.6807999782045
20
-5.85795587542705
30
0
41
1
10
49.6638806578262
20
-5.85008979185611
30
0
41
1
10
49.6463140924158
20
-5.84322994965805
30
0
41
1
10
49.6372846548117
20
-5.84034129620252
30
0
41
1
10
49.6190793234544
20
-5.83572527233446
30
0
41
1
10
49.6098534996728
20
-5.83397782429805
30
0
41
1
10
49.5911548545518
20
-5.83160714121161
30
0
41
1
10
49.5816148476488
20
-5.83098504477388
30
0
41
1
10
49.5531264075144
20
-5.83089121024935
30
0
41
1
10
49.5344699457297
20
-5.83312428271813
30
0
41
1
10
49.5069873929856
20
-5.83990648291095
30
0
41
1
10
49.4979159259934
20
-5.84275743179356
30
0
41
1
10
49.4804772215666
20
-5.84945816919844
30
0
41
1
10
49.472039617112
20
-5.85332263280543
30
0
41
1
10
49.4557245747788
20
-5.86207372647615
30
0
41
1
10
49.4478189053975
20
-5.86698060413229
30
0
41
1
10
49.4327159908312
20
-5.87777561522276
30
0
41
1
10
49.4185328971247
20
-5.8893892681354
30
0
41
1
10
49.406124499778
20
-5.90258252042986
30
0
41
1
10
49.3946175229297
20
-5.91657815537411
30
0
41
1
10
49.3893034621973
20
-5.92400357614687
30
0
41
1
10
49.3845477223129
20
-5.93171698584646
30
0
0
SPLINE
5
EC
100
AcDbEntity
8
1
62
256
6
ByLayer
370
18
48
1
60
0
100
AcDbSpline
70
4
71
3
72
12
73
8
40
0
40
0
40
0
40
0
40
0.189729403363448
40
0.189729403363448
40
0.487691442110706
40
0.487691442110706
40
1
40
1
40
1
40
1
41
1
10
50.222437352064
20
-6.68104967833634
30
0
41
1
10
50.1931863988919
20
-6.63370005644109
30
0
41
1
10
50.1639341481171
20
-6.58635362052706
30
0
41
1
10
50.0887388871704
20
-6.46466112031612
30
0
41
1
10
50.0427938339315
20
-6.39032048063393
30
0
41
1
10
49.9178415301649
20
-6.18819074680786
30
0
41
1
10
49.8388267511623
20
-6.0604241692964
30
0
41
1
10
49.7597982429888
20
-5.93269412930582
30
0
0
SPLINE
5
ED
100
AcDbEntity
8
1
62
256
6
ByLayer
370
18
48
1
60
0
100
AcDbSpline
70
4
71
3
72
8
73
4
40
0
40
0
40
0
40
0
40
1
40
1
40
1
40
1
41
1
10
50.4088557345366
20
-6.70602472508497
30
0
41
1
10
50.3467162734622
20
-6.69769970631776
30
0
41
1
10
50.2845768126404
20
-6.68937469005479
30
0
41
1
10
50.2224373520641
20
-6.68104967833634
30
0
0
SPLINE
5
EE
100
AcDbEntity
8
1
62
256
6
ByLayer
370
18
48
1
60
0
100
AcDbSpline
70
4
71
3
72
12
73
8
40
0
40
0
40
0
40
0
40
0.288658121915091
40
0.288658121915091
40
0.577316242018307
40
0.577316242018307
40
1
40
1
40
1
40
1
41
1
10
50.8840845144386
20
-5.93520177527168
30
0
41
1
10
50.8383793110437
20
-6.00934484027559
30
0
41
1
10
50.7926671433816
20
-6.08349528408104
30
0
41
1
10
50.7012304618015
20
-6.23181122934687
30
0
41
1
10
50.6555059152754
20
-6.30597691508913
30
0
41
1
10
50.5428132953885
20
-6.48876138050565
30
0
41
1
10
50.4758390948577
20
-6.59738791164568
30
0
41
1
10
50.4088557345366
20
-6.70602472508497
30
0
0
SPLINE
5
EF
100
AcDbEntity
8
1
62
256
6
ByLayer
370
18
48
1
60
0
100
AcDbSpline
70
4
71
3
72
32
73
28
40
0
40
0
40
0
40
0
40
0.124999999999992
40
0.124999999999992
40
0.187500000000019
40
0.187500000000019
40
0.250000000000045
40
0.312500000000072
40
0.312500000000072
40
0.375000000000099
40
0.375000000000099
40
0.437500000000125
40
0.437500000000125
40
0.500000000000152
40
0.500000000000152
40
0.625000000000114
40
0.625000000000114
40
0.687500000000095
40
0.687500000000095
40
0.750000000000076
40
0.750000000000076
40
0.812500000000057
40
0.812500000000057
40
0.875000000000038
40
0.937500000000019
40
0.937500000000019
40
1
40
1
40
1
40
1
41
1
10
51.2593293800391
20
-5.93621066113903
30
0
41
1
10
51.2497680354091
20
-5.92075730026087
30
0
41
1
10
51.238279137805
20
-5.90679414472095
30
0
41
1
10
51.2182392703083
20
-5.88801882319424
30
0
41
1
10
51.211029045158
20
-5.88209138192067
30
0
41
1
10
51.1960021503331
20
-5.8712830121257
30
0
41
1
10
51.1803369663595
20
-5.86146692183922
30
0
41
1
10
51.1634189522778
20
-5.85359837366821
30
0
41
1
10
51.1458537326368
20
-5.8467358731159
30
0
41
1
10
51.1368240873426
20
-5.84384551355828
30
0
41
1
10
51.118618949379
20
-5.83922639779624
30
0
41
1
10
51.1093932337548
20
-5.83747742563531
30
0
41
1
10
51.09069482788
20
-5.83510373827178
30
0
41
1
10
51.0811551380736
20
-5.83448012779604
30
0
41
1
10
51.0526647783123
20
-5.83438203578021
30
0
41
1
10
51.0340074413038
20
-5.83661285975208
30
0
41
1
10
51.0065241338319
20
-5.84339224989321
30
0
41
1
10
50.9974518004659
20
-5.84624257327687
30
0
41
1
10
50.9800118781992
20
-5.8529423721013
30
0
41
1
10
50.9715738685163
20
-5.85680649539148
30
0
41
1
10
50.9552583729017
20
-5.86555707772459
30
0
41
1
10
50.9473528981335
20
-5.8704636050773
30
0
41
1
10
50.9322495277701
20
-5.88125887434828
30
0
41
1
10
50.9180663805434
20
-5.89287283018129
30
0
41
1
10
50.9056588303856
20
-5.90606658202273
30
0
41
1
10
50.8941529129992
20
-5.92006259861458
30
0
41
1
10
50.8888395128269
20
-5.92748820814134
30
0
41
1
10
50.8840845144386
20
-5.93520177527168
30
0
0
SPLINE
5
F0
100
AcDbEntity
8
1
62
256
6
ByLayer
370
18
48
1
60
0
100
AcDbSpline
70
4
71
3
72
12
73
8
40
0
40
0
40
0
40
0
40
0.241922908257162
40
0.241922908257162
40
0.520575320274247
40
0.520575320274247
40
1
40
1
40
1
40
1
41
1
10
51.7539961385669
20
-6.73640247113022
30
0
41
1
10
51.7141168772178
20
-6.67184407524988
30
0
41
1
10
51.6742352696117
20
-6.60729126856657
30
0
41
1
10
51.5884115427499
20
-6.46839988445302
30
0
41
1
10
51.5424685784859
20
-6.39406355530528
30
0
41
1
10
51.4174697828616
20
-6.19186113548184
30
0
41
1
10
51.3384064354113
20
-6.06401760892075
30
0
41
1
10
51.2593293800391
20
-5.93621066113903
30
0
0
SPLINE
5
F1
100
AcDbEntity
8
1
62
256
6
ByLayer
370
18
48
1
60
0
100
AcDbSpline
70
4
71
3
72
8
73
4
40
0
40
0
40
0
40
0
40
1
40
1
40
1
40
1
41
1
10
51.7539961385669
20
-6.73640247113025
30
0
41
1
10
51.7999725688594
20
-6.73651669486108
30
0
41
1
10
51.8459489991342
20
-6.73663089226403
30
0
41
1
10
51.8919254293911
20
-6.73674506333867
30
0
0
SPLINE
5
F2
100
AcDbEntity
8
1
62
256
6
ByLayer
370
18
48
1
60
0
100
AcDbSpline
70
4
71
3
72
12
73
8
40
0
40
0
40
0
40
0
40
0.278938269939689
40
0.278938269939689
40
0.557876538114824
40
0.557876538114824
40
1
40
1
40
1
40
1
41
1
10
52.3836250719075
20
-5.93906247628445
30
0
41
1
10
52.3379297655284
20
-6.01320524265864
30
0
41
1
10
52.2922271738687
20
-6.08735522541065
30
0
41
1
10
52.2008090722485
20
-6.23566996016271
30
0
41
1
10
52.1550935298277
20
-6.30983489248689
30
0
41
1
10
52.0369031443897
20
-6.50157102699941
30
0
41
1
10
51.9644198132885
20
-6.6191523627885
30
0
41
1
10
51.8919254293911
20
-6.73674506333865
30
0
0
SPLINE
5
F3
100
AcDbEntity
8
1
62
256
6
ByLayer
370
18
48
1
60
0
100
AcDbSpline
70
4
71
3
72
32
73
28
40
0
40
0
40
0
40
0
40
0.125000000000099
40
0.125000000000099
40
0.187500000000117
40
0.187500000000117
40
0.250000000000136
40
0.312500000000155
40
0.312500000000155
40
0.375000000000174
40
0.375000000000174
40
0.437500000000192
40
0.437500000000192
40
0.500000000000211
40
0.500000000000211
40
0.625000000000157
40
0.625000000000157
40
0.687500000000131
40
0.687500000000131
40
0.750000000000105
40
0.750000000000105
40
0.812500000000079
40
0.812500000000079
40
0.875000000000053
40
0.937500000000026
40
0.937500000000026
40
1
40
1
40
1
40
1
41
1
10
52.7588701053907
20
-5.94000499042392
30
0
41
1
10
52.7493073166313
20
-5.92455322559138
30
0
41
1
10
52.7378168663183
20
-5.91059186118122
30
0
41
1
10
52.7177743069156
20
-5.89181966834448
30
0
41
1
10
52.7105631327594
20
-5.88589337808742
30
0
41
1
10
52.6955345255073
20
-5.87508761350745
30
0
41
1
10
52.6798676014442
20
-5.86527427201048
30
0
41
1
10
52.6629477605197
20
-5.85740880481848
30
0
41
1
10
52.6453806479088
20
-5.85054958995519
30
0
41
1
10
52.636350530313
20
-5.8476611277286
30
0
41
1
10
52.6181442208427
20
-5.84304575240509
30
0
41
1
10
52.6089179474323
20
-5.84129869767878
30
0
41
1
10
52.5902184768634
20
-5.83892896361172
30
0
41
1
10
52.580678134856
20
-5.83830741976212
30
0
41
1
10
52.5521879830283
20
-5.83821555279261
30
0
41
1
10
52.533530913517
20
-5.84045038060381
30
0
41
1
10
52.5060482246759
20
-5.84723572686778
30
0
41
1
10
52.4969768060396
20
-5.85008782823519
30
0
41
1
10
52.4795385954053
20
-5.85679091015143
30
0
41
1
10
52.4711014138832
20
-5.86065657647387
30
0
41
1
10
52.4547875417897
20
-5.86941008952101
30
0
41
1
10
52.4468824690544
20
-5.87431830319116
30
0
41
1
10
52.431781793715
20
-5.88511538541351
30
0
41
1
10
52.4176010744164
20
-5.89673090925493
30
0
41
1
10
52.4051955519123
20
-5.90992585894742
30
0
41
1
10
52.3936915105199
20
-5.92392293136703
30
0
41
1
10
52.3883791002472
20
-5.93134884351866
30
0
41
1
10
52.3836250719075
20
-5.93906247628445
30
0
0
SPLINE
5
F4
100
AcDbEntity
8
1
62
256
6
ByLayer
370
18
48
1
60
0
100
AcDbSpline
70
4
71
3
72
12
73
8
40
0
40
0
40
0
40
0
40
0.242007168857394
40
0.242007168857394
40
0.520653642095713
40
0.520653642095713
40
1
40
1
40
1
40
1
41
1
10
53.2536151973351
20
-6.74011878393037
30
0
41
1
10
53.2137156904501
20
-6.67554415752289
30
0
41
1
10
53.1738138386483
20
-6.61097513816574
30
0
41
1
10
53.0879635428889
20
-6.47207638131215
30
0
41
1
10
53.0420142580167
20
-6.39774889111231
30
0
41
1
10
52.917009543208
20
-6.19558871822281
30
0
41
1
10
52.8379466336047
20
-6.06777858748541
30
0
41
1
10
52.7588701053907
20
-5.94000499042392
30
0
0
SPLINE
5
F5
100
AcDbEntity
8
1
62
256
6
ByLayer
370
18
48
1
60
0
100
AcDbSpline
70
4
71
3
72
8
73
4
40
0
40
0
40
0
40
0
40
1
40
1
40
1
40
1
41
1
10
53.2536151973351
20
-6.74011878393037
30
0
41
1
10
53.2995919446834
20
-6.74023243589792
30
0
41
1
10
53.3455686920135
20
-6.74034606153214
30
0
41
1
10
53.3915454393253
20
-6.74045966083253
30
0
0
SPLINE
5
F6
100
AcDbEntity
8
1
62
256
6
ByLayer
370
18
48
1
60
0
100
AcDbSpline
70
4
71
3
72
12
73
8
40
0
40
0
40
0
40
0
40
0.278940143981849
40
0.278940143981849
40
0.557880286169987
40
0.557880286169987
40
1
40
1
40
1
40
1
41
1
10
53.8831527536925
20
-5.94279464672772
30
0
41
1
10
53.8374671670096
20
-6.01693700101782
30
0
41
1
10
53.7917738365578
20
-6.09108633540851
30
0
41
1
10
53.7003734400645
20
-6.23939935302064
30
0
41
1
10
53.6546663414859
20
-6.31356321211794
30
0
41
1
10
53.5364979363324
20
-6.50529434881193
30
0
41
1
10
53.4640275919505
20
-6.62287149778709
30
0
41
1
10
53.3915454393252
20
-6.74045966083253
30
0
0
SPLINE
5
F7
100
AcDbEntity
8
1
62
256
6
ByLayer
370
18
48
1
60
0
100
AcDbSpline
70
4
71
3
72
32
73
28
40
0
40
0
40
0
40
0
40
0.124999999999991
40
0.124999999999991
40
0.187499999999985
40
0.187499999999985
40
0.249999999999979
40
0.312499999999973
40
0.312499999999973
40
0.374999999999966
40
0.374999999999966
40
0.43749999999996
40
0.43749999999996
40
0.499999999999954
40
0.499999999999954
40
0.625000000000033
40
0.625000000000033
40
0.687500000000027
40
0.687500000000027
40
0.750000000000022
40
0.750000000000022
40
0.812500000000016
40
0.812500000000016
40
0.875000000000011
40
0.937500000000005
40
0.937500000000005
40
1
40
1
40
1
40
1
41
1
10
54.2584010798967
20
-5.94370573614418
30
0
41
1
10
54.2488369389341
20
-5.92825527901553
30
0
41
1
10
54.237345313382
20
-5.91429515733728
30
0
41
1
10
54.2173011256389
20
-5.89552482893322
30
0
41
1
10
54.2100894237087
20
-5.88959915917596
30
0
41
1
10
54.1950597852581
20
-5.87879460530817
30
0
41
1
10
54.179391880136
20
-5.86898247130534
30
0
41
1
10
54.1624711320426
20
-5.86111824334537
30
0
41
1
10
54.1449031370954
20
-5.85426030481671
30
0
41
1
10
54.1358725273379
20
-5.85137247304124
30
0
41
1
10
54.117665375416
20
-5.84675842405159
30
0
41
1
10
54.1084387195645
20
-5.84501205590479
30
0
41
1
10
54.0897385598004
20
-5.84264375150315
30
0
41
1
10
54.0801979085516
20
-5.84202295543935
30
0
41
1
10
54.0517069110446
20
-5.84193340039226
30
0
41
1
10
54.033049557963
20
-5.84416984730575
30
0
41
1
10
54.0055668580351
20
-5.85095770671728
30
0
41
1
10
53.9964955593207
20
-5.85381064571618
30
0
41
1
10
53.9790577472296
20
-5.86051534781129
30
0
41
1
10
53.9706208408236
20
-5.86438180599566
30
0
41
1
10
53.9543076639496
20
-5.87313685600819
30
0
41
1
10
53.9464029309188
20
-5.87804587867146
30
0
41
1
10
53.9313034719407
20
-5.88884421345307
30
0
41
1
10
53.9171241313533
20
-5.90046095054862
30
0
41
1
10
53.9047199828758
20
-5.9136567555845
30
0
41
1
10
53.8932174668358
20
-5.92765463801862
30
0
41
1
10
53.8879059015575
20
-5.9350808446606
30
0
41
1
10
53.8831527536926
20
-5.94279464672772
30
0
0
SPLINE
5
F8
100
AcDbEntity
8
1
62
256
6
ByLayer
370
18
48
1
60
0
100
AcDbSpline
70
4
71
3
72
12
73
8
40
0
40
0
40
0
40
0
40
0.242114658971166
40
0.242114658971166
40
0.520731469920238
40
0.520731469920238
40
1
40
1
40
1
40
1
41
1
10
54.7532537654354
20
-6.74381646802243
30
0
41
1
10
54.7133279696315
20
-6.67921328106641
30
0
41
1
10
54.6733997988731
20
-6.6146157376817
30
0
41
1
10
54.5875181196397
20
-6.47569662881989
30
0
41
1
10
54.5415637642485
20
-6.40137731318211
30
0
41
1
10
54.4165495794347
20
-6.19924664016153
30
0
41
1
10
54.3374822046617
20
-6.07145788164803
30
0
41
1
10
54.2584010798967
20
-5.94370573614418
30
0
0
SPLINE
5
F9
100
AcDbEntity
8
1
62
256
6
ByLayer
370
18
48
1
60
0
100
AcDbSpline
70
4
71
3
72
8
73
4
40
0
40
0
40
0
40
0
40
1
40
1
40
1
40
1
41
1
10
54.7532537654353
20
-6.74381646802243
30
0
41
1
10
54.799181234598
20
-6.7439294261176
30
0
41
1
10
54.8451087037418
20
-6.74404235793043
30
0
41
1
10
54.8910361728669
20
-6.74415526346036
30
0
0
SPLINE
5
FA
100
AcDbEntity
8
1
62
256
6
ByLayer
370
18
48
1
60
0
100
AcDbSpline
70
4
71
3
72
12
73
8
40
0
40
0
40
0
40
0
40
0.278861330735385
40
0.278861330735385
40
0.557722659659384
40
0.557722659659384
40
1
40
1
40
1
40
1
41
1
10
55.3826884801963
20
-5.94627456726772
30
0
41
1
10
55.3370127361607
20
-6.02041654566648
30
0
41
1
10
55.2913288990718
20
-6.09456532723553
30
0
41
1
10
55.1999468649143
20
-6.2428769238806
30
0
41
1
10
55.1542486356303
20
-6.31703990991505
30
0
41
1
10
55.0360561194071
20
-6.50884362667927
30
0
41
1
10
54.9635523510716
20
-6.62649405991453
30
0
41
1
10
54.891036172867
20
-6.74415526346039
30
0
0
SPLINE
5
FB
100
AcDbEntity
8
1
62
256
6
ByLayer
370
18
48
1
60
0
100
AcDbSpline
70
4
71
3
72
32
73
28
40
0
40
0
40
0
40
0
40
0.124999999999954
40
0.124999999999954
40
0.187499999999932
40
0.187499999999932
40
0.249999999999909
40
0.312499999999886
40
0.312499999999886
40
0.374999999999863
40
0.374999999999863
40
0.43749999999984
40
0.43749999999984
40
0.499999999999817
40
0.499999999999817
40
0.624999999999863
40
0.624999999999863
40
0.687499999999886
40
0.687499999999886
40
0.749999999999909
40
0.749999999999909
40
0.812499999999932
40
0.812499999999932
40
0.874999999999954
40
0.937499999999977
40
0.937499999999977
40
1
40
1
40
1
40
1
41
1
10
55.7579398429291
20
-5.94722599994964
30
0
41
1
10
55.7483760755555
20
-5.93177509593113
30
0
41
1
10
55.7368854477587
20
-5.91781369632716
30
0
41
1
10
55.7168433814826
20
-5.89904046025944
30
0
41
1
10
55.7096324558565
20
-5.89311358449129
30
0
41
1
10
55.6946039571382
20
-5.88230604265345
30
0
41
1
10
55.6789372518281
20
-5.87249061985907
30
0
41
1
10
55.6620176109847
20
-5.86462283922828
30
0
41
1
10
55.6444507277231
20
-5.85776113066748
30
0
41
1
10
55.6354196387096
20
-5.85487102244468
30
0
41
1
10
55.6172121804899
20
-5.85025288143061
30
0
41
1
10
55.6079853615315
20
-5.8485045372957
30
0
41
1
10
55.5892848545122
20
-5.84613242618812
30
0
41
1
10
55.5797442206383
20
-5.84550976113724
30
0
41
1
10
55.551250064813
20
-5.84541508264931
30
0
41
1
10
55.5325910428882
20
-5.8476489850112
30
0
41
1
10
55.5051064395804
20
-5.85443396852247
30
0
41
1
10
55.4960338700204
20
-5.8572863350615
30
0
41
1
10
55.4785941098412
20
-5.8639903178464
30
0
41
1
10
55.4701564629488
20
-5.86785660166424
30
0
41
1
10
55.453842215112
20
-5.87661157238918
30
0
41
1
10
55.4459373625386
20
-5.88152053480113
30
0
41
1
10
55.4308370186016
20
-5.89231968985808
30
0
41
1
10
55.4166573285041
20
-5.90393742900548
30
0
41
1
10
55.4042536574175
20
-5.91713440366487
30
0
41
1
10
55.3927519434099
20
-5.93113345612605
30
0
41
1
10
55.3874409513497
20
-5.93856024052744
30
0
41
1
10
55.3826884801963
20
-5.94627456726772
30
0
0
SPLINE
5
FC
100
AcDbEntity
8
1
62
256
6
ByLayer
370
18
48
1
60
0
100
AcDbSpline
70
4
71
3
72
12
73
8
40
0
40
0
40
0
40
0
40
0.242179042909126
40
0.242179042909126
40
0.520730517563441
40
0.520730517563441
40
1
40
1
40
1
40
1
41
1
10
56.2528531199427
20
-6.74749537511474
30
0
41
1
10
56.2129120129148
20
-6.68286202233995
30
0
41
1
10
56.1729684847974
20
-6.61823435844963
30
0
41
1
10
56.0870766697559
20
-6.47928777604392
30
0
41
1
10
56.0411275238208
20
-6.40497111392767
30
0
41
1
10
55.9161086397643
20
-6.20281758260037
30
0
41
1
10
55.8370312292911
20
-6.07500340937745
30
0
41
1
10
55.7579398429291
20
-5.94722599994964
30
0
0
SPLINE
5
FD
100
AcDbEntity
8
1
62
256
6
ByLayer
370
18
48
1
60
0
100
AcDbSpline
70
4
71
3
72
8
73
4
40
0
40
0
40
0
40
0
40
1
40
1
40
1
40
1
41
1
10
56.2528531199427
20
-6.74749537511471
30
0
41
1
10
56.2988144205957
20
-6.74760784383002
30
0
41
1
10
56.3447757212293
20
-6.74772028621845
30
0
41
1
10
56.3907370218436
20
-6.74783270227942
30
0
0
SPLINE
5
FE
100
AcDbEntity
8
1
62
256
6
ByLayer
370
18
48
1
60
0
100
AcDbSpline
70
4
71
3
72
12
73
8
40
0
40
0
40
0
40
0
40
0.278907063736752
40
0.278907063736752
40
0.557814125626055
40
0.557814125626055
40
1
40
1
40
1
40
1
41
1
10
56.8822267604715
20
-5.95009895110906
30
0
41
1
10
56.8365600251809
20
-6.02424013276004
30
0
41
1
10
56.7908847515598
20
-6.09838788846034
30
0
41
1
10
56.6995190551207
20
-6.24669702808154
30
0
41
1
10
56.6538286001916
20
-6.32085857854793
30
0
41
1
10
56.5356821464097
20
-6.51261455102801
30
0
41
1
10
56.4632161479776
20
-6.63021841229948
30
0
41
1
10
56.3907370218436
20
-6.74783270227942
30
0
0
SPLINE
5
FF
100
AcDbEntity
8
1
62
256
6
ByLayer
370
18
48
1
60
0
100
AcDbSpline
70
4
71
3
72
32
73
28
40
0
40
0
40
0
40
0
40
0.125000000000025
40
0.125000000000025
40
0.187500000000004
40
0.187500000000004
40
0.249999999999984
40
0.312499999999963
40
0.312499999999963
40
0.374999999999943
40
0.374999999999943
40
0.437499999999923
40
0.437499999999923
40
0.499999999999902
40
0.499999999999902
40
0.624999999999862
40
0.624999999999862
40
0.687499999999885
40
0.687499999999885
40
0.749999999999908
40
0.749999999999908
40
0.812499999999931
40
0.812499999999931
40
0.874999999999954
40
0.937499999999977
40
0.937499999999977
40
1
40
1
40
1
40
1
41
1
10
57.2574743590076
20
-5.95107012640344
30
0
41
1
10
57.2479106163569
20
-5.93561966063996
30
0
41
1
10
57.2364205187834
20
-5.92165809815998
30
0
41
1
10
57.2163797861442
20
-5.90288389505696
30
0
41
1
10
57.2091693704895
20
-5.8969565285183
30
0
41
1
10
57.1941416329941
20
-5.88614757153508
30
0
41
1
10
57.1784756995861
20
-5.8763305998128
30
0
41
1
10
57.1615569603675
20
-5.86846083897078
30
0
41
1
10
57.1439909483514
20
-5.86159707848029
30
0
41
1
10
57.1349595796629
20
-5.85870565490634
30
0
41
1
10
57.116752051537
20
-5.85408517621943
30
0
41
1
10
57.1075252061512
20
-5.85233569835506
30
0
41
1
10
57.0888246621721
20
-5.84996139565294
30
0
41
1
10
57.0792841640556
20
-5.84933764738571
30
0
41
1
10
57.0507881798561
20
-5.84924000863987
30
0
41
1
10
57.0321283089692
20
-5.85147248353846
30
0
41
1
10
57.00464294753
20
-5.858255885121
30
0
41
1
10
56.9955696996804
20
-5.86110797637321
30
0
41
1
10
56.978129017996
20
-5.86781166275844
30
0
41
1
10
56.9696910866832
20
-5.87167790687659
30
0
41
1
10
56.9533765809296
20
-5.88043294180503
30
0
41
1
10
56.9454718966631
20
-5.88534190459177
30
0
41
1
10
56.9303714907152
20
-5.89614164257748
30
0
41
1
10
56.916192038872
20
-5.90775996969623
30
0
41
1
10
56.9037893521023
20
-5.92095768981605
30
0
41
1
10
56.8922887706966
20
-5.93495736313716
30
0
41
1
10
56.8869784713426
20
-5.94238441980732
30
0
41
1
10
56.8822267604715
20
-5.95009895110906
30
0
0
SPLINE
5
100
100
AcDbEntity
8
1
62
256
6
ByLayer
370
18
48
1
60
0
100
AcDbSpline
70
4
71
3
72
12
73
8
40
0
40
0
40
0
40
0
40
0.0343860236680733
40
0.0343860236680733
40
0.389160762082805
40
0.389160762082805
40
1
40
1
40
1
40
1
41
1
10
57.6460681794148
20
-6.57929518078615
30
0
41
1
10
57.6416151503918
20
-6.57209153652488
30
0
41
1
10
57.6371620892373
20
-6.56488797732905
30
0
41
1
10
57.5867645998269
20
-6.48336332272621
30
0
41
1
10
57.540816750789
20
-6.40905138444498
30
0
41
1
10
57.4157469818093
20
-6.20682233093612
30
0
41
1
10
57.3366175237761
20
-6.07892789112279
30
0
41
1
10
57.2574743590076
20
-5.95107012640344
30
0
0
SPLINE
5
101
100
AcDbEntity
8
1
62
256
6
ByLayer
370
18
48
1
60
0
100
AcDbSpline
70
4
71
3
72
8
73
4
40
0
40
0
40
0
40
0
40
1
40
1
40
1
40
1
41
1
10
58.0951204881676
20
-6.4192020225187
30
0
41
1
10
57.9454399917939
20
-6.47256909501632
30
0
41
1
10
57.7957557681637
20
-6.52593344596758
30
0
41
1
10
57.6460681794148
20
-6.57929518078615
30
0
0
SPLINE
5
102
100
AcDbEntity
8
1
62
256
6
ByLayer
370
18
48
1
60
0
100
AcDbSpline
70
4
71
3
72
12
73
8
40
0
40
0
40
0
40
0
40
0.474112962973986
40
0.474112962973986
40
0.948225922867518
40
0.948225922867518
40
1
40
1
40
1
40
1
41
1
10
58.3817600008092
20
-5.95381190214158
30
0
41
1
10
58.3364772429266
20
-6.02734748957045
30
0
41
1
10
58.2911857122482
20
-6.10088935422405
30
0
41
1
10
58.2005870651822
20
-6.24798614751472
30
0
41
1
10
58.1552799185957
20
-6.32154122818318
30
0
41
1
10
58.1050174987123
20
-6.40313569855772
30
0
41
1
10
58.1000690337486
20
-6.41116882484499
30
0
41
1
10
58.0951204881676
20
-6.41920202251868
30
0
0
SPLINE
5
103
100
AcDbEntity
8
1
62
256
6
ByLayer
370
18
48
1
60
0
100
AcDbSpline
70
4
71
3
72
32
73
28
40
0
40
0
40
0
40
0
40
0.124999999999898
40
0.124999999999898
40
0.18749999999988
40
0.18749999999988
40
0.249999999999861
40
0.312499999999843
40
0.312499999999843
40
0.374999999999824
40
0.374999999999824
40
0.437499999999806
40
0.437499999999806
40
0.499999999999787
40
0.499999999999787
40
0.624999999999842
40
0.624999999999842
40
0.687499999999868
40
0.687499999999868
40
0.749999999999894
40
0.749999999999894
40
0.812499999999921
40
0.812499999999921
40
0.874999999999947
40
0.937499999999974
40
0.937499999999974
40
1
40
1
40
1
40
1
41
1
10
58.7570102209224
20
-5.9547329492168
30
0
41
1
10
58.7474453131297
20
-5.93928352680496
30
0
41
1
10
58.7359540742885
20
-5.92532300304197
30
0
41
1
10
58.7159113976788
20
-5.9065505571597
30
0
41
1
10
58.7087002950327
20
-5.9006238238446
30
0
41
1
10
58.6936712478379
20
-5.88981629964385
30
0
41
1
10
58.6780039698489
20
-5.88000085322858
30
0
41
1
10
58.661083772245
20
-5.87213286969265
30
0
41
1
10
58.6435162165697
20
-5.86527105782073
30
0
41
1
10
58.6344842716274
20
-5.86238076559812
30
0
41
1
10
58.6162755210559
20
-5.85776263014753
30
0
41
1
10
58.6070480823006
20
-5.85601439535066
30
0
41
1
10
58.588346382343
20
-5.85364274507683
30
0
41
1
10
58.5788052280696
20
-5.85302042565684
30
0
41
1
10
58.5503085649395
20
-5.85292724651961
30
0
41
1
10
58.5316484448244
20
-5.85516280612066
30
0
41
1
10
58.5041630238361
20
-5.86195107162035
30
0
41
1
10
58.4950902724878
20
-5.86480468927766
30
0
41
1
10
58.4776506066731
20
-5.87151129087675
30
0
41
1
10
58.4692132071865
20
-5.87537895363553
30
0
41
1
10
58.4528998209737
20
-5.8841367637429
30
0
41
1
10
58.4449954010364
20
-5.88904732982525
30
0
41
1
10
58.4298971573063
20
-5.89984903829313
30
0
41
1
10
58.4157197342655
20
-5.91146916828671
30
0
41
1
10
58.4033188823637
20
-5.92466842441621
30
0
41
1
10
58.3918200647804
20
-5.93866952266896
30
0
41
1
10
58.3865107358589
20
-5.94609708729956
30
0
41
1
10
58.3817600008092
20
-5.95381190214158
30
0
0
SPLINE
5
104
100
AcDbEntity
8
1
62
256
6
ByLayer
370
18
48
1
60
0
100
AcDbSpline
70
4
71
3
72
8
73
4
40
0
40
0
40
0
40
0
40
1
40
1
40
1
40
1
41
1
10
58.8728452688377
20
-6.1418733173594
30
0
41
1
10
58.8342366851875
20
-6.07948466570704
30
0
41
1
10
58.7956250988627
20
-6.01710444025576
30
0
41
1
10
58.7570102209224
20
-5.95473294921692
30
0
0
SPLINE
5
105
100
AcDbEntity
8
1
62
256
6
ByLayer
370
18
48
1
60
0
100
AcDbSpline
70
4
71
3
72
8
73
4
40
0
40
0
40
0
40
0
40
1
40
1
40
1
40
1
41
1
10
60.0000000000001
20
-5.73976558823455
30
0
41
1
10
59.6243138264635
20
-5.87383411112182
30
0
41
1
10
59.2485932597602
20
-6.00786498666247
30
0
41
1
10
58.8728452688377
20
-6.1418733173594
30
0
0
SPLINE
5
106
100
AcDbEntity
8
1
62
256
6
ByLayer
370
18
48
1
60
0
100
AcDbSpline
70
4
71
3
72
32
73
28
40
0
40
0
40
0
40
0
40
0.125000000000023
40
0.125000000000023
40
0.187500000000003
40
0.187500000000003
40
0.249999999999983
40
0.312499999999962
40
0.312499999999962
40
0.374999999999942
40
0.374999999999942
40
0.437499999999922
40
0.437499999999922
40
0.499999999999901
40
0.499999999999901
40
0.62499999999986
40
0.62499999999986
40
0.687499999999884
40
0.687499999999884
40
0.749999999999907
40
0.749999999999907
40
0.81249999999993
40
0.81249999999993
40
0.874999999999953
40
0.937499999999977
40
0.937499999999977
40
1
40
1
40
1
40
1
41
1
10
58.0607617909879
20
-3.14061207164354
30
0
41
1
10
58.0701839061061
20
-3.13012956055499
30
0
41
1
10
58.08155573182
20
-3.12064314759437
30
0
41
1
10
58.101480785273
20
-3.10787737732673
30
0
41
1
10
58.1086620518551
20
-3.10384610594133
30
0
41
1
10
58.1236411538849
20
-3.09650055207317
30
0
41
1
10
58.1392786326731
20
-3.0898294430018
30
0
41
1
10
58.1562130621312
20
-3.08448653237997
30
0
41
1
10
58.1738202252492
20
-3.07983237445743
30
0
41
1
10
58.182855563061
20
-3.07788178439424
30
0
41
1
10
58.2011028184928
20
-3.07477072715983
30
0
41
1
10
58.2103570708847
20
-3.07359888598052
30
0
41
1
10
58.2291280663041
20
-3.07202613356384
30
0
41
1
10
58.2387178706042
20
-3.07162698799627
30
0
41
1
10
58.2672587869767
20
-3.07164155002144
30
0
41
1
10
58.2859686939843
20
-3.07321557466108
30
0
41
1
10
58.3135579382116
20
-3.07792135908824
30
0
41
1
10
58.3226128078406
20
-3.07988141792905
30
0
41
1
10
58.3400512620668
20
-3.08447784679598
30
0
41
1
10
58.3484953040742
20
-3.08712388907935
30
0
41
1
10
58.3648352688607
20
-3.09310897486571
30
0
41
1
10
58.3727817374321
20
-3.09647369742248
30
0
41
1
10
58.3878405607813
20
-3.10379857697274
30
0
41
1
10
58.4020068574544
20
-3.11167467438702
30
0
41
1
10
58.4144443351533
20
-3.12061888616247
30
0
41
1
10
58.4260008139157
20
-3.13010759296955
30
0
41
1
10
58.4313334496418
20
-3.1351277118255
30
0
41
1
10
58.43611582111
20
-3.14033634949593
30
0
0
SPLINE
5
107
100
AcDbEntity
8
1
62
256
6
ByLayer
370
18
48
1
60
0
100
AcDbSpline
70
4
71
3
72
9
73
5
40
0
40
0
40
0
40
0
40
0.235397118476297
40
1
40
1
40
1
40
1
41
1
10
60
20
-3.04355798880525
30
0
41
1
10
60
20
-2.71612274128807
30
0
41
1
10
60
20
-1.27898321292454
30
0
41
1
10
60.0000000000001
20
0.261728393027539
30
0
41
1
10
60.0000000000001
20
1.34910479635366
30
0
0
SPLINE
5
108
100
AcDbEntity
8
1
62
256
6
ByLayer
370
18
48
1
60
0
100
AcDbSpline
70
4
71
3
72
8
73
4
40
0
40
0
40
0
40
0
40
1
40
1
40
1
40
1
41
1
10
59.8384103117939
20
-3.08298222913115
30
0
41
1
10
59.8922742648558
20
-3.06983895377221
30
0
41
1
10
59.9461374920123
20
-3.0566973894031
30
0
41
1
10
59.9999999999997
20
-3.04355798880522
30
0
0
SPLINE
5
109
100
AcDbEntity
8
1
62
256
6
ByLayer
370
18
48
1
60
0
100
AcDbSpline
70
4
71
3
72
30
73
26
40
0
40
0
40
0
40
0
40
0.0625000000000008
40
0.0625000000000008
40
0.093750000000001
40
0.093750000000001
40
0.125000000000001
40
0.125000000000001
40
0.250000000000001
40
0.250000000000001
40
0.375000000000001
40
0.375000000000001
40
0.437500000000001
40
0.437500000000001
40
0.500000000000001
40
0.500000000000001
40
0.625000000000001
40
0.625000000000001
40
0.750000000000001
40
0.750000000000001
40
0.812500000000001
40
0.812500000000001
40
0.875000000000001
40
0.875000000000001
40
1
40
1
40
1
40
1
41
1
10
59.6421258472026
20
1.36764737282914
30
0
41
1
10
59.6483282419841
20
1.2737459088149
30
0
41
1
10
59.6543438035183
20
1.17937058391004
30
0
41
1
10
59.6631374038183
20
1.03709710568219
30
0
41
1
10
59.6660321151257
20
0.989522752102033
30
0
41
1
10
59.67174304744
20
0.894295994638952
30
0
41
1
10
59.6745579970411
20
0.846667303710461
30
0
41
1
10
59.6884390759061
20
0.608448289200766
30
0
41
1
10
59.698923493694
20
0.417631745143808
30
0
41
1
10
59.7188846549509
20
0.0355337627732979
30
0
41
1
10
59.7283774846952
20
-0.155747007619425
30
0
41
1
10
59.7419829613943
20
-0.443014803343487
30
0
41
1
10
59.7464084907175
20
-0.53882877159694
30
0
41
1
10
59.7550477620487
20
-0.730574111874574
30
0
41
1
10
59.75926765188
20
-0.826658892578564
30
0
41
1
10
59.7715236204577
20
-1.11249465941646
30
0
41
1
10
59.7792085554191
20
-1.30057577411057
30
0
41
1
10
59.7936382564913
20
-1.67189044498278
30
0
41
1
10
59.800373626573
20
-1.85512473083193
30
0
41
1
10
59.8098758670693
20
-2.12631830601978
30
0
41
1
10
59.8129471926488
20
-2.21610558841067
30
0
41
1
10
59.8188446251309
20
-2.3944410952987
30
0
41
1
10
59.8216744556974
20
-2.48312603220162
30
0
41
1
10
59.8296849560269
20
-2.74572916682959
30
0
41
1
10
59.834396109745
20
-2.91650164194317
30
0
41
1
10
59.8384103117935
20
-3.08298222913115
30
0
0
SPLINE
5
10A
100
AcDbEntity
8
1
62
256
6
ByLayer
370
18
48
1
60
0
100
AcDbSpline
70
4
71
3
72
28
73
24
40
0
40
0
40
0
40
0
40
0.124999999999869
40
0.124999999999869
40
0.187499999999845
40
0.187499999999845
40
0.249999999999821
40
0.249999999999821
40
0.374999999999774
40
0.374999999999774
40
0.437499999999748
40
0.437499999999748
40
0.499999999999722
40
0.499999999999722
40
0.624999999999792
40
0.624999999999792
40
0.749999999999861
40
0.749999999999861
40
0.874999999999931
40
0.874999999999931
40
0.937499999999966
40
0.937499999999966
40
1
40
1
40
1
40
1
41
1
10
59.5607116615644
20
-3.1394448963475
30
0
41
1
10
59.5673509213564
20
-3.13205675549091
30
0
41
1
10
59.5749666749863
20
-3.12516755216913
30
0
41
1
10
59.5878043068184
20
-3.11555587380786
30
0
41
1
10
59.5923207178641
20
-3.11247311808529
30
0
41
1
10
59.6018378317724
20
-3.10655486080239
30
0
41
1
10
59.6068670995355
20
-3.10370565091924
30
0
41
1
10
59.6224458627572
20
-3.09567932239389
30
0
41
1
10
59.6334882354796
20
-3.09100108312154
30
0
41
1
10
59.6510176906213
20
-3.0849728919284
30
0
41
1
10
59.657022843415
20
-3.08312939991797
30
0
41
1
10
59.6693666385441
20
-3.0797838748436
30
0
41
1
10
59.6756952119366
20
-3.07828738115964
30
0
41
1
10
59.6947811013584
20
-3.07440502039489
30
0
41
1
10
59.707766309369
20
-3.07258429855133
30
0
41
1
10
59.734256799443
20
-3.07047029129555
30
0
41
1
10
59.7478461364118
20
-3.07019504560978
30
0
41
1
10
59.7744570307241
20
-3.07122263583912
30
0
41
1
10
59.7876064399871
20
-3.07250586201221
30
0
41
1
10
59.8070938939874
20
-3.07559786371186
30
0
41
1
10
59.8135736372757
20
-3.07683123524552
30
0
41
1
10
59.8261993456352
20
-3.07964456058016
30
0
41
1
10
59.8323728618334
20
-3.08122737273808
30
0
41
1
10
59.8384103117939
20
-3.08298222913132
30
0
0
SPLINE
5
10B
100
AcDbEntity
8
1
62
256
6
ByLayer
370
18
48
1
60
0
100
AcDbSpline
70
4
71
3
72
32
73
28
40
0
40
0
40
0
40
0
40
0.125000000000044
40
0.125000000000044
40
0.187500000000067
40
0.187500000000067
40
0.25000000000009
40
0.312500000000113
40
0.312500000000113
40
0.375000000000136
40
0.375000000000136
40
0.437500000000158
40
0.437500000000158
40
0.500000000000181
40
0.500000000000181
40
0.625000000000136
40
0.625000000000136
40
0.687500000000113
40
0.687500000000113
40
0.750000000000091
40
0.750000000000091
40
0.812500000000068
40
0.812500000000068
40
0.875000000000045
40
0.937500000000023
40
0.937500000000023
40
1
40
1
40
1
40
1
41
1
10
46.0611623025141
20
-3.14966956199109
30
0
41
1
10
46.0705877196653
20
-3.13920293231368
30
0
41
1
10
46.0819629965738
20
-3.12973145782561
30
0
41
1
10
46.1018927330328
20
-3.11698655963653
30
0
41
1
10
46.1090754523989
20
-3.11296205483234
30
0
41
1
10
46.1240569307783
20
-3.10562920111619
30
0
41
1
10
46.1396964496174
20
-3.09896993411746
30
0
41
1
10
46.1566321336282
20
-3.09363713128096
30
0
41
1
10
46.1742400791021
20
-3.08899215392765
30
0
41
1
10
46.1832750946307
20
-3.08704572750386
30
0
41
1
10
46.2015218314765
20
-3.08394162741479
30
0
41
1
10
46.2107756729833
20
-3.08277266366872
30
0
41
1
10
46.2295455324505
20
-3.08120444983558
30
0
41
1
10
46.2391345647969
20
-3.08080697589315
30
0
41
1
10
46.2676723668491
20
-3.08082449519924
30
0
41
1
10
46.2863801586016
20
-3.08239783537158
30
0
41
1
10
46.3139661532132
20
-3.08709862862753
30
0
41
1
10
46.3230201540025
20
-3.08905639539088
30
0
41
1
10
46.3404569606272
20
-3.09364708449266
30
0
41
1
10
46.3489002475744
20
-3.09628967163172
30
0
41
1
10
46.3652388132467
20
-3.10226667774654
30
0
41
1
10
46.3731845095267
20
-3.10562666298708
30
0
41
1
10
46.3882431069775
20
-3.11294166705076
30
0
41
1
10
46.4024092124342
20
-3.12080694112657
30
0
41
1
10
46.4148463097336
20
-3.12973856869294
30
0
41
1
10
46.4264023702147
20
-3.13921371978364
30
0
41
1
10
46.4317350989024
20
-3.14422689162549
30
0
41
1
10
46.4365174307976
20
-3.14942828985463
30
0
0
SPLINE
5
10C
100
AcDbEntity
8
1
62
256
6
ByLayer
370
18
48
1
60
0
100
AcDbSpline
70
4
71
3
72
32
73
28
40
0
40
0
40
0
40
0
40
0.124999999999999
40
0.124999999999999
40
0.187499999999999
40
0.187499999999999
40
0.25
40
0.3125
40
0.3125
40
0.375
40
0.375
40
0.4375
40
0.4375
40
0.5
40
0.5
40
0.625000000000001
40
0.625000000000001
40
0.687500000000001
40
0.687500000000001
40
0.750000000000001
40
0.750000000000001
40
0.8125
40
0.8125
40
0.875
40
0.9375
40
0.9375
40
1
40
1
40
1
40
1
41
1
10
50.5610146632553
20
-3.14626034930751
30
0
41
1
10
50.5704384723418
20
-3.13578763621808
30
0
41
1
10
50.5818118070361
20
-3.12631027332125
30
0
41
1
10
50.6017382292831
20
-3.11355679856803
30
0
41
1
10
50.6089198101186
20
-3.10952942415628
30
0
41
1
10
50.623899331306
20
-3.10219090491324
30
0
41
1
10
50.6395369138803
20
-3.09552617454918
30
0
41
1
10
50.6564707227558
20
-3.09018829789358
30
0
41
1
10
50.6740768308132
20
-3.08553844124995
30
0
41
1
10
50.6831117687751
20
-3.08358952599485
30
0
41
1
10
50.7013578364268
20
-3.08048101823678
30
0
41
1
10
50.7106113869356
20
-3.0793100369483
30
0
41
1
10
50.7293807508422
20
-3.07773815189515
30
0
41
1
10
50.7389695787109
20
-3.07733899563104
30
0
41
1
10
50.767508895977
20
-3.07735223966796
30
0
41
1
10
50.7862176277732
20
-3.0789237962573
30
0
41
1
10
50.8138049604087
20
-3.08362337569929
30
0
41
1
10
50.8228602327455
20
-3.08558117065033
30
0
41
1
10
50.8402988327415
20
-3.09017238977137
30
0
41
1
10
50.848742907482
20
-3.0928155081522
30
0
41
1
10
50.8650828674642
20
-3.09879407492724
30
0
41
1
10
50.8730290894527
20
-3.10215504700915
30
0
41
1
10
50.8880894147749
20
-3.10947292957465
30
0
41
1
10
50.902256917317
20
-3.11734152349854
30
0
41
1
10
50.9146949197498
20
-3.12627726305837
30
0
41
1
10
50.9262517072068
20
-3.13575689905193
30
0
41
1
10
50.9315847770544
20
-3.14077256268334
30
0
41
1
10
50.9363673824519
20
-3.14597660022915
30
0
0
SPLINE
5
10D
100
AcDbEntity
8
1
62
256
6
ByLayer
370
18
48
1
60
0
100
AcDbSpline
70
4
71
3
72
32
73
28
40
0
40
0
40
0
40
0
40
0.125000000000001
40
0.125000000000001
40
0.187500000000001
40
0.187500000000001
40
0.250000000000001
40
0.312500000000001
40
0.312500000000001
40
0.375000000000001
40
0.375000000000001
40
0.437500000000001
40
0.437500000000001
40
0.500000000000001
40
0.500000000000001
40
0.625000000000001
40
0.625000000000001
40
0.687500000000001
40
0.687500000000001
40
0.75
40
0.75
40
0.8125
40
0.8125
40
0.875
40
0.9375
40
0.9375
40
1
40
1
40
1
40
1
41
1
10
53.5609165205773
20
-3.14400264340529
30
0
41
1
10
53.5703399218326
20
-3.13352583546612
30
0
41
1
10
53.5817132268574
20
-3.12404483888119
30
0
41
1
10
53.6016407267238
20
-3.11128682649789
30
0
41
1
10
53.6088228224256
20
-3.10725812118506
30
0
41
1
10
53.6238033299762
20
-3.09991756467079
30
0
41
1
10
53.6394421784374
20
-3.09325123021725
30
0
41
1
10
53.6563778940571
20
-3.08791267463502
30
0
41
1
10
53.6739862964652
20
-3.08326266579436
30
0
41
1
10
53.6830216343501
20
-3.08131414964095
30
0
41
1
10
53.7012692441117
20
-3.07820675308943
30
0
41
1
10
53.7105236326779
20
-3.07703657172854
30
0
41
1
10
53.7292948190522
20
-3.07546680705801
30
0
41
1
10
53.7388846764018
20
-3.07506901083767
30
0
41
1
10
53.7674241822416
20
-3.07508694960202
30
0
41
1
10
53.7861331664696
20
-3.07666230862003
30
0
41
1
10
53.8137210290767
20
-3.08136880890012
30
0
41
1
10
53.8227748226738
20
-3.0833287518
30
0
41
1
10
53.8402116682608
20
-3.08792453071456
30
0
41
1
10
53.8486549797341
20
-3.09057001663095
30
0
41
1
10
53.8649936046815
20
-3.09655354690537
30
0
41
1
10
53.8729395210254
20
-3.09991729925704
30
0
41
1
10
53.8879967318787
20
-3.10723949400153
30
0
41
1
10
53.9021617037492
20
-3.11511247977614
30
0
41
1
10
53.9145981148559
20
-3.12405290382418
30
0
41
1
10
53.9261537037496
20
-3.13353743608198
30
0
41
1
10
53.9314859057799
20
-3.1385552388669
30
0
41
1
10
53.9362678966215
20
-3.14376141537764
30
0
0
SPLINE
5
10E
100
AcDbEntity
8
1
62
256
6
ByLayer
370
18
48
1
60
0
100
AcDbSpline
70
4
71
3
72
32
73
28
40
0
40
0
40
0
40
0
40
0.125000000000047
40
0.125000000000047
40
0.18750000000007
40
0.18750000000007
40
0.250000000000093
40
0.312500000000116
40
0.312500000000116
40
0.375000000000139
40
0.375000000000139
40
0.437500000000162
40
0.437500000000162
40
0.500000000000185
40
0.500000000000185
40
0.62500000000014
40
0.62500000000014
40
0.687500000000116
40
0.687500000000116
40
0.750000000000093
40
0.750000000000093
40
0.81250000000007
40
0.81250000000007
40
0.875000000000047
40
0.937500000000023
40
0.937500000000023
40
1
40
1
40
1
40
1
41
1
10
47.5611167162965
20
-3.14837048760097
30
0
41
1
10
47.5705419521741
20
-3.13790209552928
30
0
41
1
10
47.5819170470165
20
-3.12842903540764
30
0
41
1
10
47.6018466090928
20
-3.1156820438064
30
0
41
1
10
47.6090292837284
20
-3.11165688817755
30
0
41
1
10
47.6240106756104
20
-3.10432288687537
30
0
41
1
10
47.6396501381676
20
-3.09766260382872
30
0
41
1
10
47.6565858388774
20
-3.09232904815724
30
0
41
1
10
47.6741938467468
20
-3.08768345798336
30
0
41
1
10
47.6832288343461
20
-3.08573681819459
30
0
41
1
10
47.7014755816665
20
-3.08263242822011
30
0
41
1
10
47.7107294365674
20
-3.08146339361659
30
0
41
1
10
47.7294993409588
20
-3.07989518976905
30
0
41
1
10
47.73908841059
20
-3.07949780085235
30
0
41
1
10
47.7676260347779
20
-3.07951579650936
30
0
41
1
10
47.7863337122885
20
-3.08108972625533
30
0
41
1
10
47.8139195362044
20
-3.08579184893625
30
0
41
1
10
47.8229732918681
20
-3.08775009313712
30
0
41
1
10
47.8404097272882
20
-3.09234185761048
30
0
41
1
10
47.8488528349831
20
-3.09498503915324
30
0
41
1
10
47.8651910511443
20
-3.10096335593656
30
0
41
1
10
47.8731366110098
20
-3.10432408423642
30
0
41
1
10
47.8881946046481
20
-3.11164049940206
30
0
41
1
10
47.9023601638466
20
-3.11950727017674
30
0
41
1
10
47.9147968111545
20
-3.12844057924554
30
0
41
1
10
47.9263524656806
20
-3.13791751374472
30
0
41
1
10
47.9316849461103
20
-3.14293156887311
30
0
41
1
10
47.9364670665797
20
-3.14813387498515
30
0
0
SPLINE
5
10F
100
AcDbEntity
8
1
62
256
6
ByLayer
370
18
48
1
60
0
100
AcDbSpline
70
4
71
3
72
32
73
28
40
0
40
0
40
0
40
0
40
0.124999999999902
40
0.124999999999902
40
0.187499999999882
40
0.187499999999882
40
0.249999999999863
40
0.312499999999843
40
0.312499999999843
40
0.374999999999824
40
0.374999999999824
40
0.437499999999804
40
0.437499999999804
40
0.499999999999785
40
0.499999999999785
40
0.624999999999838
40
0.624999999999838
40
0.687499999999865
40
0.687499999999865
40
0.749999999999892
40
0.749999999999892
40
0.812499999999919
40
0.812499999999919
40
0.874999999999946
40
0.937499999999973
40
0.937499999999973
40
1
40
1
40
1
40
1
41
1
10
55.0608679746242
20
-3.14273962261112
30
0
41
1
10
55.070290940969
20
-3.13226150280462
30
0
41
1
10
55.0816635632747
20
-3.12277926150659
30
0
41
1
10
55.101589398981
20
-3.11001931248009
30
0
41
1
10
55.1087708526573
20
-3.10598992228307
30
0
41
1
10
55.1237501531955
20
-3.0986478513008
30
0
41
1
10
55.1393876607889
20
-3.09197996447071
30
0
41
1
10
55.1563217262427
20
-3.08663972451052
30
0
41
1
10
55.1739282889132
20
-3.08198792797177
30
0
41
1
10
55.1829632184343
20
-3.08003834364524
30
0
41
1
10
55.2012095730978
20
-3.07692888924143
30
0
41
1
10
55.2104633137148
20
-3.07575765599512
30
0
41
1
10
55.2292331564709
20
-3.07418571903574
30
0
41
1
10
55.2388222936922
20
-3.07378677717875
30
0
41
1
10
55.2673614828558
20
-3.07380130926509
30
0
41
1
10
55.2860702353177
20
-3.07537450750192
30
0
41
1
10
55.3136577437948
20
-3.08007782054864
30
0
41
1
10
55.3227124187625
20
-3.08203692794982
30
0
41
1
10
55.3401503231624
20
-3.08663111920242
30
0
41
1
10
55.3485941053114
20
-3.08927588175686
30
0
41
1
10
55.3649335770301
20
-3.09525808207525
30
0
41
1
10
55.3728797193156
20
-3.09862113016041
30
0
41
1
10
55.3879388282348
20
-3.10594286315757
30
0
41
1
10
55.4021053731284
20
-3.11381555838898
30
0
41
1
10
55.4145428460051
20
-3.12275596108822
30
0
41
1
10
55.4260992899928
20
-3.1322405810424
30
0
41
1
10
55.4314320739222
20
-3.13725871379992
30
0
41
1
10
55.4362145128203
20
-3.14246531057176
30
0
0
SPLINE
5
110
100
AcDbEntity
8
1
62
256
6
ByLayer
370
18
48
1
60
0
100
AcDbSpline
70
4
71
3
72
32
73
28
40
0
40
0
40
0
40
0
40
0.124999999999946
40
0.124999999999946
40
0.18749999999995
40
0.18749999999995
40
0.249999999999953
40
0.312499999999957
40
0.312499999999957
40
0.37499999999996
40
0.37499999999996
40
0.437499999999964
40
0.437499999999964
40
0.499999999999968
40
0.499999999999968
40
0.624999999999975
40
0.624999999999975
40
0.687499999999979
40
0.687499999999979
40
0.749999999999983
40
0.749999999999983
40
0.812499999999987
40
0.812499999999987
40
0.874999999999992
40
0.937499999999996
40
0.937499999999996
40
1
40
1
40
1
40
1
41
1
10
49.061067263649
20
-3.14736195249253
30
0
41
1
10
49.0704918931255
20
-3.13689202814629
30
0
41
1
10
49.0818660990135
20
-3.12741747093258
30
0
41
1
10
49.1017935242711
20
-3.11466806258378
30
0
41
1
10
49.1089753797842
20
-3.1106420356264
30
0
41
1
10
49.1239552581539
20
-3.10330606951109
30
0
41
1
10
49.1395930466257
20
-3.09664374483816
30
0
41
1
10
49.156526697548
20
-3.09130792599152
30
0
41
1
10
49.1741324228536
20
-3.08665991448188
30
0
41
1
10
49.1831669703403
20
-3.08471181948568
30
0
41
1
10
49.2014122600826
20
-3.08160461072328
30
0
41
1
10
49.2106653667415
20
-3.08043412849577
30
0
41
1
10
49.2294337265235
20
-3.07886292370654
30
0
41
1
10
49.2390219666296
20
-3.07846394709665
30
0
41
1
10
49.2675596099809
20
-3.07847720176682
30
0
41
1
10
49.286267288519
20
-3.080048096989
30
0
41
1
10
49.3138531326592
20
-3.0847456861367
30
0
41
1
10
49.3229082397039
20
-3.08670271407834
30
0
41
1
10
49.3403464468655
20
-3.09129214335419
30
0
41
1
10
49.3487903654234
20
-3.09393424310551
30
0
41
1
10
49.3651300856764
20
-3.09991053127379
30
0
41
1
10
49.373076130825
20
-3.10327017717455
30
0
41
1
10
49.3881370648242
20
-3.11058568641104
30
0
41
1
10
49.4023051354094
20
-3.1184517642815
30
0
41
1
10
49.4147436201395
20
-3.12738470581672
30
0
41
1
10
49.4263008382132
20
-3.13686140030268
30
0
41
1
10
49.4316343114068
20
-3.14187571106919
30
0
41
1
10
49.4364172428561
20
-3.14707839227177
30
0
0
SPLINE
5
111
100
AcDbEntity
8
1
62
256
6
ByLayer
370
18
48
1
60
0
100
AcDbSpline
70
4
71
3
72
32
73
28
40
0
40
0
40
0
40
0
40
0.124999999999952
40
0.124999999999952
40
0.187499999999929
40
0.187499999999929
40
0.249999999999907
40
0.312499999999884
40
0.312499999999884
40
0.374999999999861
40
0.374999999999861
40
0.437499999999838
40
0.437499999999838
40
0.499999999999815
40
0.499999999999815
40
0.62499999999986
40
0.62499999999986
40
0.687499999999884
40
0.687499999999884
40
0.749999999999907
40
0.749999999999907
40
0.81249999999993
40
0.81249999999993
40
0.874999999999953
40
0.937499999999977
40
0.937499999999977
40
1
40
1
40
1
40
1
41
1
10
52.0609606586351
20
-3.14497775681045
30
0
41
1
10
52.0703849041573
20
-3.13450362413713
30
0
41
1
10
52.0817590396685
20
-3.12502529193847
30
0
41
1
10
52.1016872262603
20
-3.11227101194825
30
0
41
1
10
52.1088694594889
20
-3.10824350966857
30
0
41
1
10
52.1238500987199
20
-3.10090510464565
30
0
41
1
10
52.139488872504
20
-3.09424071691251
30
0
41
1
10
52.1564240146481
20
-3.08890362044119
30
0
41
1
10
52.1740315328992
20
-3.08425476944527
30
0
41
1
10
52.1830664866053
20
-3.08230662282159
30
0
41
1
10
52.2013131172547
20
-3.07919962220592
30
0
41
1
10
52.2105669534808
20
-3.07802945733974
30
0
41
1
10
52.2293369000339
20
-3.07645933707357
30
0
41
1
10
52.2389260321955
20
-3.07606115427149
30
0
41
1
10
52.267464382362
20
-3.07607736868928
30
0
41
1
10
52.2861726395663
20
-3.07765089951718
30
0
41
1
10
52.3137594833161
20
-3.08235359832187
30
0
41
1
10
52.322813780893
20
-3.08431227321989
30
0
41
1
10
52.3402511795675
20
-3.08890527443998
30
0
41
1
10
52.3486947670615
20
-3.09154926995527
30
0
41
1
10
52.3650339468244
20
-3.09752960774907
30
0
41
1
10
52.372979976518
20
-3.10089154236866
30
0
41
1
10
52.3880390808488
20
-3.10821083248564
30
0
41
1
10
52.4022057080622
20
-3.11608082893227
30
0
41
1
10
52.4146433727384
20
-3.1250180527642
30
0
41
1
10
52.4262000343674
20
-3.13449925777294
30
0
41
1
10
52.4315330264321
20
-3.13951564022619
30
0
41
1
10
52.4363156504627
20
-3.14472041911174
30
0
0
SPLINE
5
112
100
AcDbEntity
8
1
62
256
6
ByLayer
370
18
48
1
60
0
100
AcDbSpline
70
4
71
3
72
32
73
28
40
0
40
0
40
0
40
0
40
0.124999999999977
40
0.124999999999977
40
0.187499999999934
40
0.187499999999934
40
0.249999999999891
40
0.312499999999848
40
0.312499999999848
40
0.374999999999805
40
0.374999999999805
40
0.437499999999763
40
0.437499999999763
40
0.49999999999972
40
0.49999999999972
40
0.624999999999725
40
0.624999999999725
40
0.687499999999771
40
0.687499999999771
40
0.749999999999817
40
0.749999999999817
40
0.812499999999863
40
0.812499999999863
40
0.874999999999908
40
0.937499999999954
40
0.937499999999954
40
1
40
1
40
1
40
1
41
1
10
56.5608132399033
20
-3.14168007253576
30
0
41
1
10
56.5702357526347
20
-3.13119996062218
30
0
41
1
10
56.5816078876753
20
-3.12171583391699
30
0
41
1
10
56.6015328793834
20
-3.10895315349853
30
0
41
1
10
56.6087140428111
20
-3.10492285295797
30
0
41
1
10
56.6236928589106
20
-3.0975789792881
30
0
41
1
10
56.6393298851153
20
-3.09090934820665
30
0
41
1
10
56.6562634680382
20
-3.08556746108673
30
0
41
1
10
56.6738695424595
20
-3.08091405743949
30
0
41
1
10
56.6829044839706
20
-3.07896364295709
30
0
41
1
10
56.7011507123061
20
-3.07585267659434
30
0
41
1
10
56.7104044048388
20
-3.07468073157534
30
0
41
1
10
56.7291741803783
20
-3.07310745331415
30
0
41
1
10
56.7387632942925
20
-3.07270787121351
30
0
41
1
10
56.7673031825739
20
-3.0727206809087
30
0
41
1
10
56.7860124196235
20
-3.07429301400825
30
0
41
1
10
56.8136006934091
20
-3.07899541043355
30
0
41
1
10
56.8226559800665
20
-3.08095435410033
30
0
41
1
10
56.8400948408991
20
-3.08554835734614
30
0
41
1
10
56.8485390750496
20
-3.0881931063937
30
0
41
1
10
56.8648794099405
20
-3.09417543039947
30
0
41
1
10
56.8728259188394
20
-3.09753858829532
30
0
41
1
10
56.8878861863639
20
-3.10486093552271
30
0
41
1
10
56.9020537194847
20
-3.11273442532553
30
0
41
1
10
56.914492093719
20
-3.12167583422817
30
0
41
1
10
56.9260493204005
20
-3.13116161832127
30
0
41
1
10
56.9313825273526
20
-3.13618045781598
30
0
41
1
10
56.9361653477592
20
-3.14138782515371
30
0
0
SPLINE
5
113
100
AcDbEntity
8
1
62
256
6
ByLayer
370
18
48
1
60
0
100
AcDbSpline
70
4
71
3
72
8
73
4
40
0
40
0
40
0
40
0
40
1
40
1
40
1
40
1
41
1
10
44.5593994540754
20
-3.15365068238341
30
0
41
1
10
44.5521641907709
20
-2.97628485741515
30
0
41
1
10
44.5449675974434
20
-2.79411017452711
30
0
41
1
10
44.5377295746312
20
-2.60709293446999
30
0
0
SPLINE
5
114
100
AcDbEntity
8
1
62
256
6
ByLayer
370
18
48
1
60
0
100
AcDbSpline
70
4
71
3
72
26
73
22
40
0
40
0
40
0
40
0
40
0.0625000000000009
40
0.0625000000000009
40
0.0937500000000013
40
0.0937500000000013
40
0.125000000000002
40
0.125000000000002
40
0.250000000000002
40
0.375000000000003
40
0.500000000000004
40
0.500000000000004
40
0.531250000000004
40
0.531250000000004
40
0.562500000000004
40
0.562500000000004
40
0.625000000000004
40
0.625000000000004
40
0.750000000000002
40
0.875000000000001
40
1
40
1
40
1
40
1
41
1
10
44.5377295746312
20
-2.60709293446882
30
0
41
1
10
44.5347968838131
20
-2.53131758020595
30
0
41
1
10
44.5318649038332
20
-2.45490587606679
30
0
41
1
10
44.5274560674623
20
-2.33933523634298
30
0
41
1
10
44.5259843809731
20
-2.30065278956482
30
0
41
1
10
44.5230369192713
20
-2.22296980766259
30
0
41
1
10
44.5215607005088
20
-2.18395416125097
30
0
41
1
10
44.5141885725627
20
-1.98852088756206
30
0
41
1
10
44.5024306338628
20
-1.67295335399797
30
0
41
1
10
44.484979666614
20
-1.19116301400467
30
0
41
1
10
44.4734331463938
20
-0.864357595772645
30
0
41
1
10
44.4662003866913
20
-0.658321681932563
30
0
41
1
10
44.4647528871051
20
-0.617025238702041
30
0
41
1
10
44.4618543210947
20
-0.534252561309813
30
0
41
1
10
44.4604018415979
20
-0.492735900272578
30
0
41
1
10
44.4560505486542
20
-0.368325494405127
30
0
41
1
10
44.4531562164656
20
-0.285521387900275
30
0
41
1
10
44.4444662005017
20
-0.0375124997847536
30
0
41
1
10
44.4328498219389
20
0.292090996981131
30
0
41
1
10
44.4155041627571
20
0.783331498437349
30
0
41
1
10
44.404016476705
20
1.10871125543557
30
0
41
1
10
44.3982700634655
20
1.27086014051292
30
0
0
SPLINE
5
115
100
AcDbEntity
8
1
62
256
6
ByLayer
370
13
48
1
60
0
100
AcDbSpline
70
4
71
3
72
8
73
4
40
0
40
0
40
0
40
0
40
1
40
1
40
1
40
1
41
1
10
44.5377295746316
20
-2.60709293447746
30
0
41
1
10
44.5455713138543
20
-2.79310050974095
30
0
41
1
10
44.5534130529839
20
-2.97487887874931
30
0
41
1
10
44.5612547920436
20
-3.15158402891308
30
0
0
SPLINE
5
116
100
AcDbEntity
8
1
62
256
6
ByLayer
370
18
48
1
60
0
100
AcDbSpline
70
4
71
3
72
8
73
4
40
0
40
0
40
0
40
0
40
1
40
1
40
1
40
1
41
1
10
45.4367228575956
20
-6.03993535072058
30
0
41
1
10
45.3995740921136
20
-6.03505335219609
30
0
41
1
10
45.362425436156
20
-6.03017593803293
30
0
41
1
10
45.3252768904407
20
-6.02530310240616
30
0
0
SPLINE
5
117
100
AcDbEntity
8
1
62
256
6
ByLayer
370
18
48
1
60
0
100
AcDbSpline
70
4
71
3
72
25
73
21
40
0
40
0
40
0
40
0
40
0.0653618877916981
40
0.137230583827601
40
0.153815667528194
40
0.153815667528194
40
0.198042557396442
40
0.24226944726469
40
0.330723227001186
40
0.419177006737682
40
0.507630786474178
40
0.596084566210674
40
0.68453834594717
40
0.772992125683666
40
0.817219015551914
40
0.861445905420162
40
0.90567279528841
40
0.927786240222534
40
0.949899685156658
40
1
40
1
40
1
40
1
41
1
10
45.4367191517867
20
-6.03993531820211
30
0
41
1
10
45.4367191036303
20
-5.8382205807267
30
0
41
1
10
45.4367190029633
20
-5.41486983443278
30
0
41
1
10
45.4367188912301
20
-4.94075683590515
30
0
41
1
10
45.4367188274107
20
-4.66827162565178
30
0
41
1
10
45.4367187880732
20
-4.50011659249404
30
0
41
1
10
45.4367187432193
20
-4.26459439657373
30
0
41
1
10
45.4367187002916
20
-3.79590993460531
30
0
41
1
10
45.4367187476596
20
-3.22927411085035
30
0
41
1
10
45.436718999409
20
-2.63979018522269
30
0
41
1
10
45.4367194568806
20
-2.20209332785331
30
0
41
1
10
45.4367200997332
20
-1.96293939751647
30
0
41
1
10
45.4367208774623
20
-1.94017187359449
30
0
41
1
10
45.4367215815564
20
-2.08896284877363
30
0
41
1
10
45.4367221448488
20
-2.2882854379838
30
0
41
1
10
45.4367225607866
20
-2.47146348951091
30
0
41
1
10
45.4367228961893
20
-2.64668920518744
30
0
41
1
10
45.4367231566985
20
-2.79744408016191
30
0
41
1
10
45.4367234391793
20
-2.97343776319775
30
0
41
1
10
45.4367236768659
20
-3.12203999886359
30
0
41
1
10
45.4367238451947
20
-3.22738429198458
30
0
0
SPLINE
5
118
100
AcDbEntity
8
1
62
256
6
ByLayer
370
18
48
1
60
0
100
AcDbSpline
70
4
71
3
72
32
73
28
40
0
40
0
40
0
40
0
40
0.124999999999971
40
0.124999999999971
40
0.187499999999954
40
0.187499999999954
40
0.249999999999937
40
0.31249999999992
40
0.31249999999992
40
0.374999999999903
40
0.374999999999903
40
0.437499999999886
40
0.437499999999886
40
0.49999999999987
40
0.49999999999987
40
0.624999999999836
40
0.624999999999836
40
0.687499999999863
40
0.687499999999863
40
0.749999999999891
40
0.749999999999891
40
0.812499999999918
40
0.812499999999918
40
0.874999999999945
40
0.937499999999973
40
0.937499999999973
40
1
40
1
40
1
40
1
41
1
10
44.5612547920436
20
-3.15158402891308
30
0
41
1
10
44.5706771593458
20
-3.14108857475199
30
0
41
1
10
44.5820479732798
20
-3.13158329444005
30
0
41
1
10
44.6019683041653
20
-3.11878085480819
30
0
41
1
10
44.6091475384662
20
-3.11473574344998
30
0
41
1
10
44.6241226391425
20
-3.10735986346208
30
0
41
1
10
44.639755339439
20
-3.10065617270539
30
0
41
1
10
44.6566832658492
20
-3.09527630152354
30
0
41
1
10
44.6742829110438
20
-3.09058289958404
30
0
41
1
10
44.6833164026595
20
-3.08861123741616
30
0
41
1
10
44.7015580234091
20
-3.08545749295928
30
0
41
1
10
44.7108092688109
20
-3.08426371169526
30
0
41
1
10
44.729573841687
20
-3.08264584756878
30
0
41
1
10
44.7391600972739
20
-3.08222328301031
30
0
41
1
10
44.7676976892711
20
-3.08216747934711
30
0
41
1
10
44.7864049583428
20
-3.0836948444535
30
0
41
1
10
44.8139897276395
20
-3.08833023801938
30
0
41
1
10
44.8230471188301
20
-3.09026776192968
30
0
41
1
10
44.8404877404296
20
-3.09482024152834
30
0
41
1
10
44.8489325883247
20
-3.09744485224798
30
0
41
1
10
44.8652737130205
20
-3.10338791612372
30
0
41
1
10
44.8732198581648
20
-3.10673150282551
30
0
41
1
10
44.8882841842599
20
-3.11401891286144
30
0
41
1
10
44.9024546712974
20
-3.12185924951311
30
0
41
1
10
44.9148942890014
20
-3.1307703966178
30
0
41
1
10
44.9264520701741
20
-3.14022711439122
30
0
41
1
10
44.9317860414799
20
-3.14523276351835
30
0
41
1
10
44.9365692227121
20
-3.15042785196468
30
0
0
SPLINE
5
119
100
AcDbEntity
8
1
62
256
6
ByLayer
370
18
48
1
60
0
100
AcDbSpline
70
4
71
3
72
8
73
4
40
0
40
0
40
0
40
0
40
1
40
1
40
1
40
1
41
1
10
44.5593994540754
20
-3.15365068238339
30
0
41
1
10
44.5600179036769
20
-3.15296178847075
30
0
41
1
10
44.5606363496647
20
-3.15227290395157
30
0
41
1
10
44.5612547920436
20
-3.15158402891308
30
0
0
SPLINE
5
11A
100
AcDbEntity
8
1
62
256
6
ByLayer
370
18
48
1
60
0
100
AcDbSpline
70
4
71
3
72
17
73
13
40
0
40
0
40
0
40
0
40
0.250000000000002
40
0.250000000000002
40
0.375000000000003
40
0.375000000000003
40
0.500000000000004
40
0.500000000000004
40
0.625000000000005
40
0.625000000000005
40
0.750000000000006
40
1
40
1
40
1
40
1
41
1
10
39
20
-2.77769433793438
30
0
41
1
10
39.4630786828431
20
-2.79602306460154
30
0
41
1
10
39.9262476582436
20
-2.81841286045827
30
0
41
1
10
40.6211084559456
20
-2.85772555950345
30
0
41
1
10
40.8527472926277
20
-2.87180984419069
30
0
41
1
10
41.316061217142
20
-2.90196749110797
30
0
41
1
10
41.5477349925772
20
-2.91796797721426
30
0
41
1
10
42.0111048254586
20
-2.95119955242239
30
0
41
1
10
42.242786605815
20
-2.96838669572645
30
0
41
1
10
42.7061366645854
20
-3.00339762614757
30
0
41
1
10
43.4011457575119
20
-3.05706595368775
30
0
41
1
10
44.0961087896183
20
-3.11413461604533
30
0
41
1
10
44.5593994540754
20
-3.15365068238339
30
0
0
SPLINE
5
11B
100
AcDbEntity
8
1
62
256
6
ByLayer
370
18
48
1
60
0
100
AcDbSpline
70
4
71
3
72
20
73
16
40
0
40
0
40
0
40
0
40
0.250000000000032
40
0.250000000000032
40
0.375000000000066
40
0.375000000000066
40
0.437500000000082
40
0.437500000000082
40
0.500000000000098
40
0.500000000000098
40
0.750000000000049
40
0.750000000000049
40
0.875000000000025
40
0.875000000000025
40
1
40
1
40
1
40
1
41
1
10
39
20
-5.23675218276494
30
0
41
1
10
38.9360269426375
20
-5.18392084822597
30
0
41
1
10
38.8678131024471
20
-5.13743438487478
30
0
41
1
10
38.7593911350188
20
-5.07683983581336
30
0
41
1
10
38.7222270161021
20
-5.05817403443908
30
0
41
1
10
38.6649198366539
20
-5.0325133099069
30
0
41
1
10
38.6455568749177
20
-5.02434999889962
30
0
41
1
10
38.6063004104262
20
-5.00881810680141
30
0
41
1
10
38.5863781497173
20
-5.00144203465646
30
0
41
1
10
38.4864410096405
20
-4.96693020730729
30
0
41
1
10
38.4047293047787
20
-4.94652913693315
30
0
41
1
10
38.2795867360537
20
-4.92646701790187
30
0
41
1
10
38.2374406855795
20
-4.92154721181595
30
0
41
1
10
38.1522633695206
20
-4.91533120732035
30
0
41
1
10
38.109159182201
20
-4.91404628565479
30
0
41
1
10
38.0661097494887
20
-4.91463829516385
30
0
0
SPLINE
5
11C
100
AcDbEntity
8
1
62
256
6
ByLayer
370
18
48
1
60
0
100
AcDbSpline
70
4
71
3
72
10
73
6
40
0
40
0
40
0
40
0
40
0.5
40
0.5
40
1
40
1
40
1
40
1
41
1
10
44.8596098848209
20
-5.96445935587383
30
0
41
1
10
43.8824230921222
20
-5.83728023538796
30
0
41
1
10
42.9053481432663
20
-5.71328197484041
30
0
41
1
10
40.9519769049801
20
-5.47105017756888
30
0
41
1
10
39.975719267311
20
-5.35283122033692
30
0
41
1
10
39
20
-5.23675218276492
30
0
0
SPLINE
5
11D
100
AcDbEntity
8
1
62
256
6
ByLayer
370
18
48
1
60
0
100
AcDbSpline
70
4
71
3
72
8
73
4
40
0
40
0
40
0
40
0
40
1
40
1
40
1
40
1
41
1
10
44.8857324490991
20
-5.92203060950635
30
0
41
1
10
44.8770251235722
20
-5.93617297109978
30
0
41
1
10
44.868317600662
20
-5.95031588623448
30
0
41
1
10
44.8596098848209
20
-5.96445935587383
30
0
0
SPLINE
5
11E
100
AcDbEntity
8
1
62
256
6
ByLayer
370
18
48
1
60
0
100
AcDbSpline
70
4
71
3
72
32
73
28
40
0
40
0
40
0
40
0
40
0.124999999999976
40
0.124999999999976
40
0.187499999999997
40
0.187499999999997
40
0.250000000000017
40
0.312500000000037
40
0.312500000000037
40
0.375000000000058
40
0.375000000000058
40
0.437500000000078
40
0.437500000000078
40
0.500000000000098
40
0.500000000000098
40
0.625000000000139
40
0.625000000000139
40
0.687500000000116
40
0.687500000000116
40
0.750000000000092
40
0.750000000000092
40
0.812500000000069
40
0.812500000000069
40
0.875000000000046
40
0.937500000000023
40
0.937500000000023
40
1
40
1
40
1
40
1
41
1
10
45.2611321735208
20
-5.92179097234225
30
0
41
1
10
45.2515695591804
20
-5.90636227066858
30
0
41
1
10
45.2400779259367
20
-5.89243216267042
30
0
41
1
10
45.2200336061828
20
-5.873717987151
30
0
41
1
10
45.2128218468439
20
-5.86781308344655
30
0
41
1
10
45.1977919310185
20
-5.85705240762499
30
0
41
1
10
45.1821237856973
20
-5.84728673989653
30
0
41
1
10
45.1652032565307
20
-5.83947368685762
30
0
41
1
10
45.1476359357142
20
-5.83266911729621
30
0
41
1
10
45.1386053585448
20
-5.82980863714931
30
0
41
1
10
45.1203981331197
20
-5.82524969520983
30
0
41
1
10
45.1111713344716
20
-5.82353121566476
30
0
41
1
10
45.0924707142187
20
-5.82121923271791
30
0
41
1
10
45.0829301384864
20
-5.82062703436509
30
0
41
1
10
45.0544341300099
20
-5.82062249556864
30
0
41
1
10
45.0357719361983
20
-5.82291447099934
30
0
41
1
10
45.0082797291724
20
-5.82978364085184
30
0
41
1
10
44.9992024255092
20
-5.83266404685244
30
0
41
1
10
44.9817522559663
20
-5.83942214005799
30
0
41
1
10
44.973308945371
20
-5.84331462892035
30
0
41
1
10
44.9569825228484
20
-5.85212033148534
30
0
41
1
10
44.9490730288914
20
-5.85705249868687
30
0
41
1
10
44.9339536082745
20
-5.86790263431698
30
0
41
1
10
44.9197552604552
20
-5.87956892502928
30
0
41
1
10
44.9073337342039
20
-5.89280950161324
30
0
41
1
10
44.8958145908299
20
-5.90684952902362
30
0
41
1
10
44.8904942243899
20
-5.9142965759296
30
0
41
1
10
44.8857324490992
20
-5.92203060950635
30
0
0
SPLINE
5
11F
100
AcDbEntity
8
1
62
256
6
ByLayer
370
18
48
1
60
0
100
AcDbSpline
70
4
71
3
72
8
73
4
40
0
40
0
40
0
40
0
40
1
40
1
40
1
40
1
41
1
10
45.3252768904407
20
-6.02530310240616
30
0
41
1
10
45.303896324741
20
-5.99079456339459
30
0
41
1
10
45.2825147689018
20
-5.95629050075524
30
0
41
1
10
45.2611321735208
20
-5.92179097234225
30
0
0
SPLINE
5
120
100
AcDbEntity
8
1
62
256
6
ByLayer
370
18
48
1
60
0
100
AcDbSpline
70
4
71
3
72
8
73
4
40
0
40
0
40
0
40
0
40
1
40
1
40
1
40
1
41
1
10
59.5476926459458
20
-3.15393251038839
30
0
41
1
10
59.5520325220411
20
-3.14910304795643
30
0
41
1
10
59.5563721940035
20
-3.14427383791437
30
0
41
1
10
59.5607116615644
20
-3.1394448963475
30
0
0
SPLINE
5
121
100
AcDbEntity
8
1
62
256
6
ByLayer
370
13
48
1
60
0
100
AcDbSpline
70
4
71
3
72
13
73
9
40
0
40
0
40
0
40
0
40
0.0323430797340423
40
0.250290599603476
40
0.46823811947291
40
0.686185639342344
40
0.904133159211777
40
1
40
1
40
1
40
1
41
1
10
59.5607116615644
20
-3.1394448963475
30
0
41
1
10
59.5587790004714
20
-3.09584051411872
30
0
41
1
10
59.5438228840322
20
-2.75601554377494
30
0
41
1
10
59.5158433510021
20
-2.08708649956148
30
0
41
1
10
59.4767731946801
20
-1.09689561010884
30
0
41
1
10
59.4377030438764
20
-0.0773750785661207
30
0
41
1
10
59.405927612507
20
0.753146149470183
30
0
41
1
10
59.3871756458681
20
1.2345848984705
30
0
41
1
10
59.3814471288439
20
1.38047467210296
30
0
0
SPLINE
5
122
100
AcDbEntity
8
1
62
256
6
ByLayer
370
13
48
1
60
0
100
AcDbSpline
70
4
71
3
72
10
73
6
40
0
40
0
40
0
40
0
40
0.314041523702154
40
0.799535125046738
40
1
40
1
40
1
40
1
41
1
10
44.7610752471047
20
1.27179760738153
30
0
41
1
10
44.7794460474007
20
0.802026069508969
30
0
41
1
10
44.8262172515114
20
-0.422731373275866
30
0
41
1
10
44.8847152358768
20
-1.94300459862737
30
0
41
1
10
44.9248424297071
20
-2.88614456199025
30
0
41
1
10
44.9365692227121
20
-3.15042785196468
30
0
0
SPLINE
5
123
100
AcDbEntity
8
1
62
256
6
ByLayer
370
18
48
1
60
0
100
AcDbSpline
70
4
71
3
72
8
73
4
40
0
40
0
40
0
40
0
40
1
40
1
40
1
40
1
41
1
10
44.9365692227121
20
-3.15042785196468
30
0
41
1
10
44.9484830903495
20
-3.16336769118649
30
0
41
1
10
44.9603967612123
20
-3.1763114696962
30
0
41
1
10
44.9723102656281
20
-3.18925858483416
30
0
0
SPLINE
5
124
100
AcDbEntity
8
1
62
256
6
ByLayer
370
18
48
1
60
0
100
AcDbSpline
70
4
71
3
72
27
73
23
40
0
40
0
40
0
40
0
40
0.125
40
0.125
40
0.25
40
0.25
40
0.375000000000001
40
0.375000000000001
40
0.406250000000001
40
0.406250000000001
40
0.437500000000001
40
0.437500000000001
40
0.5
40
0.5
40
0.625
40
0.75
40
0.75
40
0.875
40
0.875
40
0.9375
40
0.9375
40
1
40
1
40
1
40
1
41
1
10
44.7809851495097
20
1.27712591454778
30
0
41
1
10
44.7890380199967
20
1.08779142353683
30
0
41
1
10
44.7970079048577
20
0.897820472241989
30
0
41
1
10
44.8128498983448
20
0.516641884468811
30
0
41
1
10
44.8207220588809
20
0.325434173001156
30
0
41
1
10
44.8365280403451
20
-0.0582089478733678
30
0
41
1
10
44.8444844624266
20
-0.250643131420674
30
0
41
1
10
44.8545416372735
20
-0.491968424138747
30
0
41
1
10
44.8565574172872
20
-0.540272755543327
30
0
41
1
10
44.8605967526989
20
-0.636960823167783
30
0
41
1
10
44.8626218803899
20
-0.685382020892462
30
0
41
1
10
44.868677262366
20
-0.830029446537253
30
0
41
1
10
44.8726965820617
20
-0.925861634148362
30
0
41
1
10
44.8847024459777
20
-1.21159278966189
30
0
41
1
10
44.9005656641336
20
-1.58786741384762
30
0
41
1
10
44.9162881871316
20
-1.9549034556714
30
0
41
1
10
44.9321069820041
20
-2.3172840626597
30
0
41
1
10
44.9400908639736
20
-2.49614702125433
30
0
41
1
10
44.9521938259738
20
-2.76083270239124
30
0
41
1
10
44.956228127611
20
-2.84807024696545
30
0
41
1
10
44.9642789187247
20
-3.02028732791843
30
0
41
1
10
44.9682975565034
20
-3.10531386844025
30
0
41
1
10
44.9723102656204
20
-3.18925858482794
30
0
0
SPLINE
5
125
100
AcDbEntity
8
1
62
256
6
ByLayer
370
18
48
1
60
0
100
AcDbSpline
70
4
71
3
72
8
73
4
40
0
40
0
40
0
40
0
40
1
40
1
40
1
40
1
41
1
10
44.9723102656298
20
-3.18925858482649
30
0
41
1
10
45.1271163348134
20
-3.20275396320906
30
0
41
1
10
45.2819204936932
20
-3.21641240365949
30
0
41
1
10
45.4367228575971
20
-3.23023267108738
30
0
0
SPLINE
5
126
100
AcDbEntity
8
1
62
256
6
ByLayer
370
18
48
1
60
0
100
AcDbSpline
70
4
71
3
72
8
73
4
40
0
40
0
40
0
40
0
40
1
40
1
40
1
40
1
41
1
10
45.4367238499015
20
-3.23032994426063
30
0
41
1
10
45.6070771901555
20
-3.24540329216066
30
0
41
1
10
45.777430836274
20
-3.26047818768566
30
0
41
1
10
45.9477847851066
20
-3.27555435478161
30
0
0
SPLINE
5
127
100
AcDbEntity
8
1
62
256
6
ByLayer
370
18
48
1
60
0
100
AcDbSpline
70
4
71
3
72
27
73
23
40
0
40
0
40
0
40
0
40
0.125
40
0.125
40
0.25
40
0.25
40
0.375
40
0.375
40
0.4375
40
0.4375
40
0.5
40
0.5
40
0.625
40
0.749999999999999
40
0.749999999999999
40
0.812499999999999
40
0.812499999999999
40
0.843749999999999
40
0.843749999999999
40
0.874999999999999
40
0.874999999999999
40
1
40
1
40
1
40
1
41
1
10
45.9477847851066
20
-3.27555435478161
30
0
41
1
10
45.9409914925225
20
-3.1044830441713
30
0
41
1
10
45.9341823665254
20
-2.92982407762435
30
0
41
1
10
45.9205979490754
20
-2.57349710771217
30
0
41
1
10
45.9138237903366
20
-2.39182879451556
30
0
41
1
10
45.9002996400598
20
-2.02146655105702
30
0
41
1
10
45.8935498882487
20
-1.83277307093158
30
0
41
1
10
45.8833689154047
20
-1.5443143040894
30
0
41
1
10
45.8799586848843
20
-1.44707017720498
30
0
41
1
10
45.8731648737877
20
-1.25269100814432
30
0
41
1
10
45.8697741000709
20
-1.15535792270748
30
0
41
1
10
45.8595833128123
20
-0.862936372907996
30
0
41
1
10
45.8459626635842
20
-0.471916232427475
30
0
41
1
10
45.8323969977355
20
-0.0786762065787912
30
0
41
1
10
45.8222257069567
20
0.21709482093982
30
0
41
1
10
45.8188351113072
20
0.315825533792634
30
0
41
1
10
45.8137405654919
20
0.464135128368071
30
0
41
1
10
45.8120408969953
20
0.513607261105108
30
0
41
1
10
45.8086366340629
20
0.612623394369422
30
0
41
1
10
45.806930490928
20
0.662212310199465
30
0
41
1
10
45.7984064895909
20
0.90961698344438
30
0
41
1
10
45.7916030852162
20
1.10594918109376
30
0
41
1
10
45.7847314525677
20
1.30068936174806
30
0
0
SPLINE
5
128
100
AcDbEntity
8
1
62
256
6
ByLayer
370
18
48
1
60
0
100
AcDbSpline
70
4
71
3
72
8
73
4
40
0
40
0
40
0
40
0
40
1
40
1
40
1
40
1
41
1
10
45.9477847851066
20
-3.27555435478161
30
0
41
1
10
45.9855927041544
20
-3.23358385395866
30
0
41
1
10
46.0233853815759
20
-3.19161964605357
30
0
41
1
10
46.0611623025142
20
-3.14966956199109
30
0
0
SPLINE
5
129
100
AcDbEntity
8
1
62
256
6
ByLayer
370
13
48
1
60
0
100
AcDbSpline
70
4
71
3
72
11
73
7
40
0
40
0
40
0
40
0
40
0.0235766579750562
40
0.508956801397466
40
0.994336944819876
40
1
40
1
40
1
40
1
41
1
10
45.8856273373069
20
1.27382237341396
30
0
41
1
10
45.8870068463062
20
1.2385557132842
30
0
41
1
10
45.9167867454662
20
0.475860535578448
30
0
41
1
10
45.9749670495262
20
-1.06787592880514
30
0
41
1
10
46.0320991797135
20
-2.49383654088487
30
0
41
1
10
46.0608309475765
20
-3.14220136462276
30
0
41
1
10
46.0611623025142
20
-3.14966956199109
30
0
0
SPLINE
5
12A
100
AcDbEntity
8
1
62
256
6
ByLayer
370
13
48
1
60
0
100
AcDbSpline
70
4
71
3
72
11
73
7
40
0
40
0
40
0
40
0
40
0.0212415891076573
40
0.506330967733549
40
0.99142034635944
40
1
40
1
40
1
40
1
41
1
10
46.260877213628
20
1.27679262041335
30
0
41
1
10
46.2621208393266
20
1.24500323744758
30
0
41
1
10
46.2917648646453
20
0.486002540468519
30
0
41
1
10
46.3498092942769
20
-1.05408846890913
30
0
41
1
10
46.4071124098678
20
-2.48543884153233
30
0
41
1
10
46.4360151200868
20
-3.13810646785748
30
0
41
1
10
46.4365174307976
20
-3.14942828985468
30
0
0
SPLINE
5
12B
100
AcDbEntity
8
1
62
256
6
ByLayer
370
18
48
1
60
0
100
AcDbSpline
70
4
71
3
72
10
73
6
40
0
40
0
40
0
40
0
40
0.811887022139776
40
0.811887022139776
40
1
40
1
40
1
40
1
41
1
10
46.4365174307976
20
-3.14942828985465
30
0
41
1
10
46.4823671309937
20
-3.19929570906137
30
0
41
1
10
46.5282156344389
20
-3.24919319090671
30
0
41
1
10
46.5846864814987
20
-3.31067264943835
30
0
41
1
10
46.5953093504095
20
-3.32223865377338
30
0
41
1
10
46.605932195319
20
-3.33380543388162
30
0
0
SPLINE
5
12C
100
AcDbEntity
8
1
62
256
6
ByLayer
370
18
48
1
60
0
100
AcDbSpline
70
4
71
3
72
8
73
4
40
0
40
0
40
0
40
0
40
1
40
1
40
1
40
1
41
1
10
58.6496778118659
20
-3.37315737641058
30
0
41
1
10
58.9490381065576
20
-3.30008166251051
30
0
41
1
10
59.2483766839983
20
-3.22699197907431
30
0
41
1
10
59.5476926459458
20
-3.15393251038839
30
0
0
SPLINE
5
12D
100
AcDbEntity
8
1
62
256
6
ByLayer
370
18
48
1
60
0
100
AcDbSpline
70
4
71
3
72
30
73
26
40
0
40
0
40
0
40
0
40
0.125
40
0.125
40
0.25
40
0.25
40
0.375
40
0.375
40
0.40625
40
0.40625
40
0.4375
40
0.4375
40
0.5
40
0.5
40
0.625000000000001
40
0.625000000000001
40
0.750000000000001
40
0.750000000000001
40
0.812500000000001
40
0.812500000000001
40
0.843750000000001
40
0.843750000000001
40
0.875000000000001
40
0.875000000000001
40
1
40
1
40
1
40
1
41
1
10
59.5476926459459
20
-3.15393251038836
30
0
41
1
10
59.5379457466762
20
-2.98539710882758
30
0
41
1
10
59.5286483057626
20
-2.8130148820548
30
0
41
1
10
59.5108694941663
20
-2.46080287035542
30
0
41
1
10
59.5023911095467
20
-2.28097260637611
30
0
41
1
10
59.4859715709352
20
-1.91400051712219
30
0
41
1
10
59.4780283219324
20
-1.72686070303647
30
0
41
1
10
59.4684533070573
20
-1.4882131962311
30
0
41
1
10
59.4665555609089
20
-1.44024716917661
30
0
41
1
10
59.462793344502
20
-1.343836513334
30
0
41
1
10
59.4609347742217
20
-1.295542486199
30
0
41
1
10
59.4554315085369
20
-1.15063114391174
30
0
41
1
10
59.4518537673393
20
-1.05388393707716
30
0
41
1
10
59.4413711612458
20
-0.763231591360153
30
0
41
1
10
59.4347280825754
20
-0.568916048956595
30
0
41
1
10
59.4220345704212
20
-0.179210221838702
30
0
41
1
10
59.4159704819546
20
0.0161792726201213
30
0
41
1
10
59.4072199328662
20
0.310075943341417
30
0
41
1
10
59.4043632377382
20
0.408177283804321
30
0
41
1
10
59.4001624760108
20
0.555536456796091
30
0
41
1
10
59.3987750758861
20
0.604732650036624
30
0
41
1
10
59.3960364937733
20
0.702845493984142
30
0
41
1
10
59.3946844525996
20
0.751791349221691
30
0
41
1
10
59.3880048515587
20
0.995969807932624
30
0
41
1
10
59.3829083859836
20
1.18955482500559
30
0
41
1
10
59.3780487428197
20
1.38137011225388
30
0
0
SPLINE
5
12E
100
AcDbEntity
8
1
62
256
6
ByLayer
370
18
48
1
60
0
100
AcDbSpline
70
4
71
3
72
30
73
26
40
0
40
0
40
0
40
0
40
0.125
40
0.125
40
0.25
40
0.25
40
0.375
40
0.375
40
0.40625
40
0.40625
40
0.4375
40
0.4375
40
0.5
40
0.5
40
0.625
40
0.625
40
0.75
40
0.75
40
0.8125
40
0.8125
40
0.84375
40
0.84375
40
0.875
40
0.875
40
1
40
1
40
1
40
1
41
1
10
58.4639839512251
20
1.42913079325146
30
0
41
1
10
58.4732663217902
20
1.22553742209109
30
0
41
1
10
58.4823059210208
20
1.02118240419415
30
0
41
1
10
58.4999980257865
20
0.611001593548963
30
0
41
1
10
58.5086603362899
20
0.405175762301667
30
0
41
1
10
58.5256621810798
20
-0.0079407330455297
30
0
41
1
10
58.5339953413477
20
-0.215231467783582
30
0
41
1
10
58.5442439416691
20
-0.475283746265177
30
0
41
1
10
58.5462856290298
20
-0.527341248423681
30
0
41
1
10
58.550353153355
20
-0.631551382929132
30
0
41
1
10
58.5523813196
20
-0.683767738997858
30
0
41
1
10
58.558411005726
20
-0.839776012990654
30
0
41
1
10
58.5623643599069
20
-0.943099529282705
30
0
41
1
10
58.574034984895
20
-1.25106250828338
30
0
41
1
10
58.5815613561155
20
-1.45369875957783
30
0
41
1
10
58.5962172459238
20
-1.85371303349441
30
0
41
1
10
58.6033382634647
20
-2.05109193846357
30
0
41
1
10
58.6137745175138
20
-2.34318801251837
30
0
41
1
10
58.6172117769492
20
-2.43988961884162
30
0
41
1
10
58.622303392086
20
-2.58392443932928
30
0
41
1
10
58.6239901109147
20
-2.63176635615758
30
0
41
1
10
58.6273415084314
20
-2.72710649644864
30
0
41
1
10
58.6290071265599
20
-2.77463376452684
30
0
41
1
10
58.6372475113124
20
-3.01053279341275
30
0
41
1
10
58.643573299986
20
-3.19431543415013
30
0
41
1
10
58.6496778118659
20
-3.37315737641058
30
0
0
SPLINE
5
12F
100
AcDbEntity
8
1
62
256
6
ByLayer
370
13
48
1
60
0
100
AcDbSpline
70
4
71
3
72
12
73
8
40
0
40
0
40
0
40
0
40
0.168201220446469
40
0.386529402551154
40
0.60485758465584
40
0.823185766760526
40
1
40
1
40
1
40
1
41
1
10
58.43611582111
20
-3.14033634949675
30
0
41
1
10
58.4260825089834
20
-2.91393583412
30
0
41
1
10
58.4030257792863
20
-2.37457628124713
30
0
41
1
10
58.3669456350305
20
-1.4771101922081
30
0
41
1
10
58.3278753917479
20
-0.465654614796733
30
0
41
1
10
58.2912814713104
20
0.493409259332054
30
0
41
1
10
58.2677109674602
20
1.10289635737016
30
0
41
1
10
58.257163883748
20
1.37160424361417
30
0
0
SPLINE
5
130
100
AcDbEntity
8
1
62
256
6
ByLayer
370
18
48
1
60
0
100
AcDbSpline
70
4
71
3
72
8
73
4
40
0
40
0
40
0
40
0
40
1
40
1
40
1
40
1
41
1
10
58.43611582111
20
-3.14033634949749
30
0
41
1
10
58.5073058827815
20
-3.21787178133369
30
0
41
1
10
58.5784923038583
20
-3.29549614181821
30
0
41
1
10
58.6496778118659
20
-3.37315737641058
30
0
0
SPLINE
5
131
100
AcDbEntity
8
1
62
256
6
ByLayer
370
18
48
1
60
0
100
AcDbSpline
70
4
71
3
72
8
73
4
40
0
40
0
40
0
40
0
40
1
40
1
40
1
40
1
41
1
10
47.3359030826909
20
-3.39842396491366
30
0
41
1
10
47.4110330308346
20
-3.31505372619859
30
0
41
1
10
47.48610561552
20
-3.23168358690711
30
0
41
1
10
47.5611167162965
20
-3.14837048760097
30
0
0
SPLINE
5
132
100
AcDbEntity
8
1
62
256
6
ByLayer
370
13
48
1
60
0
100
AcDbSpline
70
4
71
3
72
10
73
6
40
0
40
0
40
0
40
0
40
0.217236990673097
40
0.701465374810631
40
1
40
1
40
1
40
1
41
1
10
47.3851640933596
20
1.28563719238451
30
0
41
1
10
47.3979052248457
20
0.959993551177263
30
0
41
1
10
47.4390467643524
20
-0.109142592147492
30
0
41
1
10
47.497697693007
20
-1.65211930217143
30
0
41
1
10
47.543607409039
20
-2.75358442803227
30
0
41
1
10
47.5611167162965
20
-3.14837048760094
30
0
0
SPLINE
5
133
100
AcDbEntity
8
1
62
256
6
ByLayer
370
18
48
1
60
0
100
AcDbSpline
70
4
71
3
72
29
73
25
40
0
40
0
40
0
40
0
40
0.125
40
0.125
40
0.250000000000001
40
0.250000000000001
40
0.375000000000001
40
0.375000000000001
40
0.406250000000001
40
0.406250000000001
40
0.437500000000001
40
0.437500000000001
40
0.500000000000001
40
0.500000000000001
40
0.625000000000001
40
0.75
40
0.75
40
0.8125
40
0.8125
40
0.84375
40
0.84375
40
0.875
40
0.875
40
1
40
1
40
1
40
1
41
1
10
46.4135454286348
20
1.31963361842173
30
0
41
1
10
46.4215995666695
20
1.12224946927867
30
0
41
1
10
46.4296652299537
20
0.92419245857468
30
0
41
1
10
46.4457491801564
20
0.52676351823186
30
0
41
1
10
46.4537641838854
20
0.327391349416899
30
0
41
1
10
46.469750773123
20
-0.0726678601407116
30
0
41
1
10
46.4777221295606
20
-0.27335484679611
30
0
41
1
10
46.4877307809563
20
-0.525053076539848
30
0
41
1
10
46.4897350011553
20
-0.575434771249377
30
0
41
1
10
46.4937513166036
20
-0.676283007716222
30
0
41
1
10
46.4957627321332
20
-0.726732162553532
30
0
41
1
10
46.5017819672701
20
-0.877412711575232
30
0
41
1
10
46.5057851236208
20
-0.977240907110257
30
0
41
1
10
46.517810509086
20
-1.27488238704689
30
0
41
1
10
46.533877641051
20
-1.66683064957559
30
0
41
1
10
46.5498597533436
20
-2.0491251431674
30
0
41
1
10
46.5618338504721
20
-2.3321928112895
30
0
41
1
10
46.5658239275548
20
-2.42593887558692
30
0
41
1
10
46.5718169347724
20
-2.56563016159669
30
0
41
1
10
46.5738159719896
20
-2.61203922454425
30
0
41
1
10
46.5778190739678
20
-2.70454497897751
30
0
41
1
10
46.5798243198911
20
-2.75066868431156
30
0
41
1
10
46.589856704415
20
-2.98019384754474
30
0
41
1
10
46.5978558413947
20
-3.15926204872099
30
0
41
1
10
46.6059321953136
20
-3.33380543387662
30
0
0
SPLINE
5
134
100
AcDbEntity
8
1
62
256
6
ByLayer
370
18
48
1
60
0
100
AcDbSpline
70
4
71
3
72
8
73
4
40
0
40
0
40
0
40
0
40
1
40
1
40
1
40
1
41
1
10
46.6059321953311
20
-3.33380543387725
30
0
41
1
10
46.849255219239
20
-3.35534326461826
30
0
41
1
10
47.0925788517624
20
-3.37688301222965
30
0
41
1
10
47.3359030826909
20
-3.39842396491366
30
0
0
SPLINE
5
135
100
AcDbEntity
8
1
62
256
6
ByLayer
370
18
48
1
60
0
100
AcDbSpline
70
4
71
3
72
29
73
25
40
0
40
0
40
0
40
0
40
0.124999999999999
40
0.124999999999999
40
0.249999999999999
40
0.249999999999999
40
0.374999999999998
40
0.374999999999998
40
0.406249999999998
40
0.406249999999998
40
0.437499999999998
40
0.437499999999998
40
0.499999999999998
40
0.499999999999998
40
0.624999999999999
40
0.749999999999999
40
0.749999999999999
40
0.812499999999999
40
0.812499999999999
40
0.843749999999999
40
0.843749999999999
40
0.874999999999999
40
0.874999999999999
40
1
40
1
40
1
40
1
41
1
10
47.3359030826909
20
-3.39842396491366
30
0
41
1
10
47.3290244722467
20
-3.22145160521706
30
0
41
1
10
47.3222130496338
20
-3.04072958031091
30
0
41
1
10
47.3086668745548
20
-2.67196455772333
30
0
41
1
10
47.3019321172617
20
-2.48392119502063
30
0
41
1
10
47.2883964987745
20
-2.10049882655957
30
0
41
1
10
47.2815735253053
20
-1.90511979537271
30
0
41
1
10
47.2729474026313
20
-1.65618389231656
30
0
41
1
10
47.2712182942815
20
-1.60616063258149
30
0
41
1
10
47.2677530647508
20
-1.50563675154274
30
0
41
1
10
47.2660222194529
20
-1.45528901152033
30
0
41
1
10
47.2608428623978
20
-1.30420054359746
30
0
41
1
10
47.257404576788
20
-1.20332401151552
30
0
41
1
10
47.2471320563466
20
-0.900249564274162
30
0
41
1
10
47.2335534681498
20
-0.494965788701705
30
0
41
1
10
47.2200656848915
20
-0.0873518958531747
30
0
41
1
10
47.2098647787106
20
0.219238646132851
30
0
41
1
10
47.2064476876061
20
0.321582347761364
30
0
41
1
10
47.2012861211575
20
0.475321262907414
30
0
41
1
10
47.1995603410136
20
0.526604829034824
30
0
41
1
10
47.1960995334995
20
0.629247270014105
30
0
41
1
10
47.1943629090013
20
0.680653297775535
30
0
41
1
10
47.1856843509335
20
0.93712500950565
30
0
41
1
10
47.1787558950831
20
1.14063772279704
30
0
41
1
10
47.1718453648346
20
1.34249079267471
30
0
0
SPLINE
5
136
100
AcDbEntity
8
1
62
256
6
ByLayer
370
18
48
1
60
0
100
AcDbSpline
70
4
71
3
72
8
73
4
40
0
40
0
40
0
40
0
40
1
40
1
40
1
40
1
41
1
10
45.4367238499013
20
6.36136422726389
30
0
41
1
10
45.4528112268343
20
6.36362218809921
30
0
41
1
10
45.4688986064948
20
6.36588012495343
30
0
41
1
10
45.4849859888804
20
6.36813803789218
30
0
0
SPLINE
5
137
100
AcDbEntity
8
1
62
256
6
ByLayer
370
18
48
1
60
0
100
AcDbSpline
70
4
71
3
72
8
73
4
40
0
40
0
40
0
40
0
40
1
40
1
40
1
40
1
41
1
10
45.7847314525677
20
1.30068936174803
30
0
41
1
10
45.6687273519333
20
1.29719534845813
30
0
41
1
10
45.5527232516729
20
1.29370180233136
30
0
41
1
10
45.4367191517865
20
1.29020872878004
30
0
0
SPLINE
5
138
100
AcDbEntity
8
1
62
256
6
ByLayer
370
18
48
1
60
0
100
AcDbSpline
70
4
71
3
72
8
73
4
40
0
40
0
40
0
40
0
40
1
40
1
40
1
40
1
41
1
10
45.8856273373069
20
1.27382237341391
30
0
41
1
10
45.8519983859785
20
1.28276202711177
30
0
41
1
10
45.8183663354788
20
1.29171776930934
30
0
41
1
10
45.7847314525677
20
1.30068936174806
30
0
0
SPLINE
5
139
100
AcDbEntity
8
1
62
256
6
ByLayer
370
18
48
1
60
0
100
AcDbSpline
70
4
71
3
72
32
73
28
40
0
40
0
40
0
40
0
40
0.125000000000012
40
0.125000000000012
40
0.187499999999985
40
0.187499999999985
40
0.249999999999959
40
0.312499999999932
40
0.312499999999932
40
0.374999999999905
40
0.374999999999905
40
0.437499999999879
40
0.437499999999879
40
0.499999999999852
40
0.499999999999852
40
0.62499999999989
40
0.62499999999989
40
0.687499999999909
40
0.687499999999909
40
0.749999999999927
40
0.749999999999927
40
0.812499999999945
40
0.812499999999945
40
0.874999999999963
40
0.937499999999982
40
0.937499999999982
40
1
40
1
40
1
40
1
41
1
10
46.260877213628
20
1.27679262041335
30
0
41
1
10
46.2513162000108
20
1.27411627969028
30
0
41
1
10
46.2398260683956
20
1.27167807013831
30
0
41
1
10
46.219782735036
20
1.26836646801681
30
0
41
1
10
46.2125711651404
20
1.26731463453424
30
0
41
1
10
46.1975423744887
20
1.26538309202053
30
0
41
1
10
46.1818751875897
20
1.26361415784257
30
0
41
1
10
46.1649549510526
20
1.26216411190106
30
0
41
1
10
46.1473875338246
20
1.26087864637154
30
0
41
1
10
46.1383590006263
20
1.2603252868561
30
0
41
1
10
46.1201545405711
20
1.25941277460132
30
0
41
1
10
46.1109291334195
20
1.25904990761035
30
0
41
1
10
46.0922312871144
20
1.25851141689546
30
0
41
1
10
46.0826914299783
20
1.25833548629285
30
0
41
1
10
46.0542072613434
20
1.25810677971879
30
0
41
1
10
46.0355528700184
20
1.25834280544632
30
0
41
1
10
46.0080723290907
20
1.25927813825692
30
0
41
1
10
45.9990021913411
20
1.25968985700615
30
0
41
1
10
45.9815652725775
20
1.26068672485951
30
0
41
1
10
45.9731282096774
20
1.26127381969735
30
0
41
1
10
45.9568136240133
20
1.26262444115804
30
0
41
1
10
45.9489077020971
20
1.26339118402552
30
0
41
1
10
45.9338045079659
20
1.26509540744985
30
0
41
1
10
45.9196203457163
20
1.26694465872154
30
0
41
1
10
45.9072099225813
20
1.2690741300984
30
0
41
1
10
45.8957004005439
20
1.27134608512677
30
0
41
1
10
45.8903847831075
20
1.27255769175531
30
0
41
1
10
45.8856273373069
20
1.27382237341391
30
0
0
SPLINE
5
13A
100
AcDbEntity
8
1
62
256
6
ByLayer
370
18
48
1
60
0
100
AcDbSpline
70
4
71
3
72
8
73
4
40
0
40
0
40
0
40
0
40
1
40
1
40
1
40
1
41
1
10
46.4135454286348
20
1.31963361842173
30
0
41
1
10
46.3626611712426
20
1.30531984252139
30
0
41
1
10
46.3117719802166
20
1.29103919947536
30
0
41
1
10
46.260877213628
20
1.27679262041335
30
0
0
SPLINE
5
13B
100
AcDbEntity
8
1
62
256
6
ByLayer
370
18
48
1
60
0
100
AcDbSpline
70
4
71
3
72
8
73
4
40
0
40
0
40
0
40
0
40
1
40
1
40
1
40
1
41
1
10
47.1718453648346
20
1.34249079267468
30
0
41
1
10
46.9190787176466
20
1.3348696054594
30
0
41
1
10
46.6663120722558
20
1.32725052380459
30
0
41
1
10
46.4135454286348
20
1.31963361842173
30
0
0
SPLINE
5
13C
100
AcDbEntity
8
1
62
256
6
ByLayer
370
18
48
1
60
0
100
AcDbSpline
70
4
71
3
72
10
73
6
40
0
40
0
40
0
40
0
40
0.64318089606786
40
0.64318089606786
40
1
40
1
40
1
40
1
41
1
10
47.3851640933596
20
1.28563719238451
30
0
41
1
10
47.3394387646316
20
1.29778048692739
30
0
41
1
10
47.2937073899938
20
1.30995352032153
30
0
41
1
10
47.2225971780449
20
1.32892512634714
30
0
41
1
10
47.197222044183
20
1.33570353295636
30
0
41
1
10
47.1718453648346
20
1.34249079267471
30
0
0
SPLINE
5
13D
100
AcDbEntity
8
1
62
256
6
ByLayer
370
18
48
1
60
0
100
AcDbSpline
70
4
71
3
72
32
73
28
40
0
40
0
40
0
40
0
40
0.12500000000003
40
0.12500000000003
40
0.187500000000047
40
0.187500000000047
40
0.250000000000065
40
0.312500000000082
40
0.312500000000082
40
0.375000000000099
40
0.375000000000099
40
0.437500000000116
40
0.437500000000116
40
0.500000000000133
40
0.500000000000133
40
0.625000000000167
40
0.625000000000167
40
0.687500000000139
40
0.687500000000139
40
0.750000000000111
40
0.750000000000111
40
0.812500000000084
40
0.812500000000084
40
0.875000000000056
40
0.937500000000028
40
0.937500000000028
40
1
40
1
40
1
40
1
41
1
10
47.7604150101848
20
1.28861581871078
30
0
41
1
10
47.7508546499471
20
1.28594238979605
30
0
41
1
10
47.7393658463513
20
1.28350664974911
30
0
41
1
10
47.7193251859469
20
1.28019814500462
30
0
41
1
10
47.7121145819569
20
1.27914723499046
30
0
41
1
10
47.6970872679799
20
1.27721722444753
30
0
41
1
10
47.6814215388894
20
1.27544959174816
30
0
41
1
10
47.6645028089706
20
1.27400037427668
30
0
41
1
10
47.6469368208303
20
1.27271551819521
30
0
41
1
10
47.6379078629826
20
1.27216227601593
30
0
41
1
10
47.6197032649646
20
1.27124986077331
30
0
41
1
10
47.6104777723445
20
1.27088694467975
30
0
41
1
10
47.5917797210219
20
1.270348160662
30
0
41
1
10
47.5822399562112
20
1.27017197989309
30
0
41
1
10
47.5537525538767
20
1.26994223797868
30
0
41
1
10
47.5350964466392
20
1.27017728678592
30
0
41
1
10
47.5076139324838
20
1.2711106592167
30
0
41
1
10
47.4985424172102
20
1.27152167525205
30
0
41
1
10
47.4811033821129
20
1.2725170270306
30
0
41
1
10
47.4726655067709
20
1.27310329996237
30
0
41
1
10
47.4563497259206
20
1.27445213218286
30
0
41
1
10
47.4484436622097
20
1.27521787560121
30
0
41
1
10
47.4333394102744
20
1.27692008396238
30
0
41
1
10
47.4191547628336
20
1.2787672010524
30
0
41
1
10
47.406744737351
20
1.28089427360698
30
0
41
1
10
47.395235954818
20
1.28316367872819
30
0
41
1
10
47.3899208849745
20
1.28437392925954
30
0
41
1
10
47.3851640933596
20
1.28563719238451
30
0
0
SPLINE
5
13E
100
AcDbEntity
8
1
62
256
6
ByLayer
370
18
48
1
60
0
100
AcDbSpline
70
4
71
3
72
32
73
28
40
0
40
0
40
0
40
0
40
0.125000000000016
40
0.125000000000016
40
0.187500000000021
40
0.187500000000021
40
0.250000000000027
40
0.312500000000033
40
0.312500000000033
40
0.375000000000039
40
0.375000000000039
40
0.437500000000044
40
0.437500000000044
40
0.50000000000005
40
0.50000000000005
40
0.62499999999997
40
0.62499999999997
40
0.687499999999975
40
0.687499999999975
40
0.74999999999998
40
0.74999999999998
40
0.812499999999985
40
0.812499999999985
40
0.87499999999999
40
0.937499999999995
40
0.937499999999995
40
1
40
1
40
1
40
1
41
1
10
49.2599514131055
20
1.30050132818602
30
0
41
1
10
49.2503905898328
20
1.29783110057045
30
0
41
1
10
49.2389017002369
20
1.29539821685293
30
0
41
1
10
49.2188614068532
20
1.2920935007804
30
0
41
1
10
49.211650992205
20
1.29104377226815
30
0
41
1
10
49.1966239537356
20
1.28911586741876
30
0
41
1
10
49.1809585923169
20
1.28735012167641
30
0
41
1
10
49.1640403951408
20
1.28590236579464
30
0
41
1
10
49.1464750189068
20
1.28461875308145
30
0
41
1
10
49.1374459395407
20
1.28406598739679
30
0
41
1
10
49.1192414627518
20
1.28315431912688
30
0
41
1
10
49.110016061717
20
1.28279166470926
30
0
41
1
10
49.091318255877
20
1.2822531796194
30
0
41
1
10
49.0817787449026
20
1.28207703387849
30
0
41
1
10
49.0532906467884
20
1.28184704814541
30
0
41
1
10
49.0346343642168
20
1.28208151794908
30
0
41
1
10
49.0071519943387
20
1.28301337132694
30
0
41
1
10
48.9980802015926
20
1.28342378614468
30
0
41
1
10
48.9806409091875
20
1.28441775961122
30
0
41
1
10
48.9722030265458
20
1.28500324999916
30
0
41
1
10
48.9558874472006
20
1.28635032360216
30
0
41
1
10
48.9479817426117
20
1.28711506952902
30
0
41
1
10
48.9328776848401
20
1.28881517420689
30
0
41
1
10
48.9186935110278
20
1.29066003062732
30
0
41
1
10
48.9062843997453
20
1.29278452416992
30
0
41
1
10
48.8947767084525
20
1.29505118131533
30
0
41
1
10
48.8894622562437
20
1.29625997189515
30
0
41
1
10
48.8847061279467
20
1.29752171463633
30
0
0
SPLINE
5
13F
100
AcDbEntity
8
1
62
256
6
ByLayer
370
18
48
1
60
0
100
AcDbSpline
70
4
71
3
72
32
73
28
40
0
40
0
40
0
40
0
40
0.125000000000082
40
0.125000000000082
40
0.187500000000121
40
0.187500000000121
40
0.25000000000016
40
0.3125000000002
40
0.3125000000002
40
0.375000000000239
40
0.375000000000239
40
0.437500000000278
40
0.437500000000278
40
0.500000000000317
40
0.500000000000317
40
0.625000000000304
40
0.625000000000304
40
0.687500000000253
40
0.687500000000253
40
0.750000000000203
40
0.750000000000203
40
0.812500000000152
40
0.812500000000152
40
0.875000000000101
40
0.937500000000051
40
0.937500000000051
40
1
40
1
40
1
40
1
41
1
10
50.7594853174617
20
1.31235110562093
30
0
41
1
10
50.7499233808038
20
1.30968401354693
30
0
41
1
10
50.7384334376087
20
1.30725396437637
30
0
41
1
10
50.718391321859
20
1.30395310181703
30
0
41
1
10
50.7111802576143
20
1.30290459911885
30
0
41
1
10
50.6961519558177
20
1.30097896902353
30
0
41
1
10
50.6804852829142
20
1.29921532049397
30
0
41
1
10
50.6635656234519
20
1.29776932750502
30
0
41
1
10
50.645998674664
20
1.29648731313665
30
0
41
1
10
50.6369689613485
20
1.29593526909775
30
0
41
1
10
50.6187631637822
20
1.2950248407202
30
0
41
1
10
50.6095371161924
20
1.29466271288879
30
0
41
1
10
50.5908380389498
20
1.2941250983107
30
0
41
1
10
50.5812978124359
20
1.29394929880641
30
0
41
1
10
50.5528088074337
20
1.29372005972905
30
0
41
1
10
50.5341521584296
20
1.29395462060049
30
0
41
1
10
50.5066696039382
20
1.29488601330556
30
0
41
1
10
50.497598299437
20
1.29529615160789
30
0
41
1
10
50.4801600333123
20
1.29628936135214
30
0
41
1
10
50.4717227018783
20
1.29687436695312
30
0
41
1
10
50.4554083066606
20
1.29822026833918
30
0
41
1
10
50.4475028732099
20
1.29898436652505
30
0
41
1
10
50.4324012002971
20
1.30068277343625
30
0
41
1
10
50.4182193623095
20
1.30252575803743
30
0
41
1
10
50.4058122423165
20
1.30464800648829
30
0
41
1
10
50.3943065493272
20
1.30691225673905
30
0
41
1
10
50.3889932041932
20
1.308119724162
30
0
41
1
10
50.3842381928318
20
1.30938004500882
30
0
0
SPLINE
5
140
100
AcDbEntity
8
1
62
256
6
ByLayer
370
18
48
1
60
0
100
AcDbSpline
70
4
71
3
72
32
73
28
40
0
40
0
40
0
40
0
40
0.12499999999997
40
0.12499999999997
40
0.187499999999953
40
0.187499999999953
40
0.249999999999936
40
0.312499999999919
40
0.312499999999919
40
0.374999999999901
40
0.374999999999901
40
0.437499999999884
40
0.437499999999884
40
0.499999999999867
40
0.499999999999867
40
0.624999999999833
40
0.624999999999833
40
0.687499999999861
40
0.687499999999861
40
0.749999999999889
40
0.749999999999889
40
0.812499999999916
40
0.812499999999916
40
0.874999999999944
40
0.937499999999972
40
0.937499999999972
40
1
40
1
40
1
40
1
41
1
10
52.2590234986615
20
1.32418690832432
30
0
41
1
10
52.2494598584031
20
1.32152318182529
30
0
41
1
10
52.2379682067446
20
1.31909624408175
30
0
41
1
10
52.2179235678185
20
1.31579967257122
30
0
41
1
10
52.2107116739878
20
1.31475254773042
30
0
41
1
10
52.1956819111248
20
1.31282948842951
30
0
41
1
10
52.1800139004684
20
1.31106821371179
30
0
41
1
10
52.1630930034562
20
1.30962424238578
30
0
41
1
10
52.1455249483218
20
1.30834404835764
30
0
41
1
10
52.1364949860934
20
1.30779282443166
30
0
41
1
10
52.1182886460929
20
1.30688377973107
30
0
41
1
10
52.1090623846416
20
1.30652222749143
30
0
41
1
10
52.0903629942889
20
1.30598553130474
30
0
41
1
10
52.0808226153989
20
1.30581007660456
30
0
41
1
10
52.0523341677723
20
1.30558149346558
30
0
41
1
10
52.0336780357965
20
1.30581597968501
30
0
41
1
10
52.006196486297
20
1.30674650904507
30
0
41
1
10
51.9971257710681
20
1.30715622108312
30
0
41
1
10
51.9796886464692
20
1.30814834243736
30
0
41
1
10
51.971251885273
20
1.30873268537448
30
0
41
1
10
51.9549386416681
20
1.31007702975401
30
0
41
1
10
51.9470337103172
20
1.31084023928491
30
0
41
1
10
51.9319334505506
20
1.31253660081796
30
0
41
1
10
51.9177528885871
20
1.31437733540687
30
0
41
1
10
51.9053471395544
20
1.31649699374932
30
0
41
1
10
51.893842732604
20
1.31875846116969
30
0
41
1
10
51.8885300398112
20
1.31996443922711
30
0
41
1
10
51.8837756843926
20
1.32122320195245
30
0
0
SPLINE
5
141
100
AcDbEntity
8
1
62
256
6
ByLayer
370
18
48
1
60
0
100
AcDbSpline
70
4
71
3
72
32
73
28
40
0
40
0
40
0
40
0
40
0.124999999999902
40
0.124999999999902
40
0.187499999999883
40
0.187499999999883
40
0.249999999999864
40
0.312499999999846
40
0.312499999999846
40
0.374999999999827
40
0.374999999999827
40
0.437499999999808
40
0.437499999999808
40
0.499999999999789
40
0.499999999999789
40
0.624999999999843
40
0.624999999999843
40
0.687499999999869
40
0.687499999999869
40
0.749999999999895
40
0.749999999999895
40
0.812499999999922
40
0.812499999999922
40
0.874999999999948
40
0.937499999999974
40
0.937499999999974
40
1
40
1
40
1
40
1
41
1
10
53.7585567759826
20
1.33607610075958
30
0
41
1
10
53.7489937432036
20
1.33341519094986
30
0
41
1
10
53.7375034839679
20
1.33099060958824
30
0
41
1
10
53.7174616990281
20
1.32769694860508
30
0
41
1
10
53.710250838813
20
1.32665067979025
30
0
41
1
10
53.6952226009111
20
1.32472900598523
30
0
41
1
10
53.6795561288411
20
1.32296887606634
30
0
41
1
10
53.6626367176337
20
1.32152559696507
30
0
41
1
10
53.6450700867433
20
1.32024586993933
30
0
41
1
10
53.6360395022987
20
1.31969468325227
30
0
41
1
10
53.6178327451507
20
1.31878559953463
30
0
41
1
10
53.6086062559396
20
1.31842393699159
30
0
41
1
10
53.589906369689
20
1.31788683941019
30
0
41
1
10
53.5803659740149
20
1.31771108700491
30
0
41
1
10
53.5518733915223
20
1.31748135139782
30
0
41
1
10
53.5332150512411
20
1.31771482917409
30
0
41
1
10
53.5057309417723
20
1.31864340941451
30
0
41
1
10
53.4966585728912
20
1.31905243700459
30
0
41
1
10
53.4792189025199
20
1.32004309866701
30
0
41
1
10
53.4707811663439
20
1.32062665719584
30
0
41
1
10
53.4544664951173
20
1.32196930251632
30
0
41
1
10
53.4465613633292
20
1.32273156432296
30
0
41
1
10
53.431459959447
20
1.3244260318466
30
0
41
1
10
53.4172790063031
20
1.32626477455315
30
0
41
1
10
53.4048737473925
20
1.32838216461227
30
0
41
1
10
53.393370313034
20
1.33064122807701
30
0
41
1
10
53.3880583295442
20
1.33184592224813
30
0
41
1
10
53.3833048128541
20
1.33310333507586
30
0
0
SPLINE
5
142
100
AcDbEntity
8
1
62
256
6
ByLayer
370
18
48
1
60
0
100
AcDbSpline
70
4
71
3
72
32
73
28
40
0
40
0
40
0
40
0
40
0.124999999999988
40
0.124999999999988
40
0.187499999999981
40
0.187499999999981
40
0.249999999999975
40
0.312499999999969
40
0.312499999999969
40
0.374999999999963
40
0.374999999999963
40
0.437499999999956
40
0.437499999999956
40
0.49999999999995
40
0.49999999999995
40
0.625000000000029
40
0.625000000000029
40
0.687500000000024
40
0.687500000000024
40
0.750000000000019
40
0.750000000000019
40
0.812500000000014
40
0.812500000000014
40
0.87500000000001
40
0.937500000000005
40
0.937500000000005
40
1
40
1
40
1
40
1
41
1
10
55.2580940774723
20
1.34788020739424
30
0
41
1
10
55.2485310204434
20
1.34522242098799
30
0
41
1
10
55.2370411480754
20
1.34280059003879
30
0
41
1
10
55.2170003752666
20
1.33951053174488
30
0
41
1
10
55.2097899051845
20
1.338465376263
30
0
41
1
10
55.1947622498203
20
1.33654566329864
30
0
41
1
10
55.1790963642917
20
1.3347872815452
30
0
41
1
10
55.1621776638339
20
1.33334530498863
30
0
41
1
10
55.144611714805
20
1.33206667303048
30
0
41
1
10
55.1355809137138
20
1.33151588458713
30
0
41
1
10
55.1173741125104
20
1.33060740814071
30
0
41
1
10
55.1081476103181
20
1.33024594263819
30
0
41
1
10
55.0894477154005
20
1.32970902593516
30
0
41
1
10
55.0799074362908
20
1.32953325467238
30
0
41
1
10
55.0514134799863
20
1.32930313526245
30
0
41
1
10
55.0327545220984
20
1.32953597440039
30
0
41
1
10
55.0052699025271
20
1.33046299052478
30
0
41
1
10
54.9961970386651
20
1.33087140960831
30
0
41
1
10
54.9787567207477
20
1.33186069142786
30
0
41
1
10
54.9703187997125
20
1.33244347308232
30
0
41
1
10
54.9540040044021
20
1.33378438234044
30
0
41
1
10
54.9460990406405
20
1.33454566867195
30
0
41
1
10
54.9309976821599
20
1.33623806239297
30
0
41
1
10
54.9168170719584
20
1.33807458120884
30
0
41
1
10
54.9044126159767
20
1.34018944017723
30
0
41
1
10
54.892910165297
20
1.34244580833743
30
0
41
1
10
54.8875987750024
20
1.34364906585421
30
0
41
1
10
54.882845905941
20
1.34490497649753
30
0
0
SPLINE
5
143
100
AcDbEntity
8
1
62
256
6
ByLayer
370
18
48
1
60
0
100
AcDbSpline
70
4
71
3
72
32
73
28
40
0
40
0
40
0
40
0
40
0.125000000000049
40
0.125000000000049
40
0.187500000000071
40
0.187500000000071
40
0.250000000000093
40
0.312500000000116
40
0.312500000000116
40
0.375000000000138
40
0.375000000000138
40
0.43750000000016
40
0.43750000000016
40
0.500000000000183
40
0.500000000000183
40
0.625000000000136
40
0.625000000000136
40
0.687500000000113
40
0.687500000000113
40
0.750000000000091
40
0.750000000000091
40
0.812500000000068
40
0.812500000000068
40
0.875000000000045
40
0.937500000000023
40
0.937500000000023
40
1
40
1
40
1
40
1
41
1
10
56.7576287875956
20
1.35975583411354
30
0
41
1
10
56.7480645340434
20
1.35710130200562
30
0
41
1
10
56.7365735956114
20
1.35468243188487
30
0
41
1
10
56.716531281453
20
1.35139640328308
30
0
41
1
10
56.7093203048604
20
1.35035252968831
30
0
41
1
10
56.6942917099485
20
1.34843518264168
30
0
41
1
10
56.6786249261125
20
1.34667897618559
30
0
41
1
10
56.6617053825832
20
1.3452388071598
30
0
41
1
10
56.6441386038369
20
1.34396179653294
30
0
41
1
10
56.6351074693676
20
1.3434117217981
30
0
41
1
10
56.6169000536757
20
1.34250444966094
30
0
41
1
10
56.6076732816502
20
1.34214348067417
30
0
41
1
10
56.5889729190372
20
1.3416073474508
30
0
41
1
10
56.5794324055366
20
1.34143186441293
30
0
41
1
10
56.5509383277383
20
1.34120227463148
30
0
41
1
10
56.532279524146
20
1.34143502045635
30
0
41
1
10
56.5047954906763
20
1.34236123293402
30
0
41
1
10
56.4957230827972
20
1.34276926172043
30
0
41
1
10
56.4782837591623
20
1.34375754971549
30
0
41
1
10
56.4698463813842
20
1.34433972766533
30
0
41
1
10
56.4535327647414
20
1.34567921744414
30
0
41
1
10
56.4456282808869
20
1.34643970297086
30
0
41
1
10
56.4305287320791
20
1.34813019980862
30
0
41
1
10
56.4163498335368
20
1.34996462573963
30
0
41
1
10
56.4039472323616
20
1.35207706399555
30
0
41
1
10
56.3924465555494
20
1.35433082188078
30
0
41
1
10
56.3871361177585
20
1.35553266776958
30
0
41
1
10
56.3823842101474
20
1.35678708537475
30
0
0
SPLINE
5
144
100
AcDbEntity
8
1
62
256
6
ByLayer
370
18
48
1
60
0
100
AcDbSpline
70
4
71
3
72
32
73
28
40
0
40
0
40
0
40
0
40
0.125000000000007
40
0.125000000000007
40
0.18749999999998
40
0.18749999999998
40
0.249999999999953
40
0.312499999999927
40
0.312499999999927
40
0.3749999999999
40
0.3749999999999
40
0.437499999999873
40
0.437499999999873
40
0.499999999999846
40
0.499999999999846
40
0.624999999999883
40
0.624999999999883
40
0.687499999999903
40
0.687499999999903
40
0.749999999999922
40
0.749999999999922
40
0.812499999999942
40
0.812499999999942
40
0.874999999999961
40
0.937499999999981
40
0.937499999999981
40
1
40
1
40
1
40
1
41
1
10
58.257163883748
20
1.37160424361417
30
0
41
1
10
58.247598983975
20
1.36895275200106
30
0
41
1
10
58.2361076078739
20
1.36653658247224
30
0
41
1
10
58.2160645893066
20
1.36325415221216
30
0
41
1
10
58.2088533579073
20
1.36221140612784
30
0
41
1
10
58.1938241416628
20
1.36029610289137
30
0
41
1
10
58.1781566889015
20
1.35854174819548
30
0
41
1
10
58.1612363204921
20
1.35710306953871
30
0
41
1
10
58.1436686029159
20
1.35582737090275
30
0
41
1
10
58.1346368010021
20
1.35527784753799
30
0
41
1
10
58.1164281903014
20
1.35437149624914
30
0
41
1
10
58.1072008215626
20
1.35401089526692
30
0
41
1
10
58.0884992621478
20
1.35347531640295
30
0
41
1
10
58.0789581355974
20
1.35330001990593
30
0
41
1
10
58.0504622266569
20
1.35307070654252
30
0
41
1
10
58.0318024970532
20
1.35330326995327
30
0
41
1
10
58.0043175060513
20
1.35422865052556
30
0
41
1
10
57.9952450189038
20
1.35463629954398
30
0
41
1
10
57.9778057467072
20
1.35562364593548
30
0
41
1
10
57.9693684897326
20
1.35620526178212
30
0
41
1
10
57.9530552925064
20
1.35754344247593
30
0
41
1
10
57.9451508838103
20
1.35830320409104
30
0
41
1
10
57.930052744357
20
1.35999194418264
30
0
41
1
10
57.9158753093005
20
1.36182444648571
30
0
41
1
10
57.9034742630995
20
1.3639346372791
30
0
41
1
10
57.8919751786717
20
1.3661859819355
30
0
41
1
10
57.8866656734201
20
1.36738651079281
30
0
41
1
10
57.8819147370023
20
1.36863952142417
30
0
0
SPLINE
5
145
100
AcDbEntity
8
1
62
256
6
ByLayer
370
18
48
1
60
0
100
AcDbSpline
70
4
71
3
72
8
73
4
40
0
40
0
40
0
40
0
40
1
40
1
40
1
40
1
41
1
10
58.4639839512251
20
1.42913079325146
30
0
41
1
10
58.3950532941676
20
1.40989417503005
30
0
41
1
10
58.3261137898915
20
1.39071788852536
30
0
41
1
10
58.257163883748
20
1.37160424361417
30
0
0
SPLINE
5
146
100
AcDbEntity
8
1
62
256
6
ByLayer
370
18
48
1
60
0
100
AcDbSpline
70
4
71
3
72
8
73
4
40
0
40
0
40
0
40
0
40
1
40
1
40
1
40
1
41
1
10
59.3780487428197
20
1.38137011225396
30
0
41
1
10
59.0733793617097
20
1.39722182227393
30
0
41
1
10
58.7686899972833
20
1.4131423660584
30
0
41
1
10
58.4639839512251
20
1.42913079325146
30
0
0
SPLINE
5
147
100
AcDbEntity
8
1
62
256
6
ByLayer
370
18
48
1
60
0
100
AcDbSpline
70
4
71
3
72
8
73
4
40
0
40
0
40
0
40
0
40
1
40
1
40
1
40
1
41
1
10
59.3814471288439
20
1.38047467210296
30
0
41
1
10
59.3803143391775
20
1.38077313397409
30
0
41
1
10
59.3791815438304
20
1.38107161402729
30
0
41
1
10
59.3780487428197
20
1.38137011225396
30
0
0
SPLINE
5
148
100
AcDbEntity
8
1
62
256
6
ByLayer
370
18
48
1
60
0
100
AcDbSpline
70
4
71
3
72
28
73
24
40
0
40
0
40
0
40
0
40
0.125000000000048
40
0.125000000000048
40
0.187500000000072
40
0.187500000000072
40
0.250000000000096
40
0.250000000000096
40
0.375000000000144
40
0.375000000000144
40
0.437500000000167
40
0.437500000000167
40
0.500000000000192
40
0.500000000000192
40
0.625000000000236
40
0.625000000000236
40
0.687500000000197
40
0.687500000000197
40
0.750000000000158
40
0.750000000000158
40
0.875000000000079
40
0.875000000000079
40
1
40
1
40
1
40
1
41
1
10
59.6421258472041
20
1.36764737282934
30
0
41
1
10
59.6302375455114
20
1.36688838916217
30
0
41
1
10
59.6181273292908
20
1.36629621511909
30
0
41
1
10
59.599638336669
20
1.36565113291161
30
0
41
1
10
59.5934210856408
20
1.36547686835817
30
0
41
1
10
59.5808758873495
20
1.36521150158413
30
0
41
1
10
59.5745176490225
20
1.36512037859441
30
0
41
1
10
59.5555938352631
20
1.36497839807947
30
0
41
1
10
59.5431283320191
20
1.36505510034903
30
0
41
1
10
59.5246504316373
20
1.36542133100733
30
0
41
1
10
59.5185280655861
20
1.36558550913898
30
0
41
1
10
59.5063588734751
20
1.36599999803286
30
0
41
1
10
59.5002932238099
20
1.36625161366507
30
0
41
1
10
59.4825544622798
20
1.36712273077936
30
0
41
1
10
59.4712321861022
20
1.36786001954971
30
0
41
1
10
59.4549902362839
20
1.36919668465794
30
0
41
1
10
59.449700525209
20
1.36968091156331
30
0
41
1
10
59.4393758967996
20
1.37072869939661
30
0
41
1
10
59.4343423531861
20
1.3712928254553
30
0
41
1
10
59.4199215353406
20
1.37307129841915
30
0
41
1
10
59.4111036563383
20
1.37438110499292
30
0
41
1
10
59.3950387782802
20
1.37724611288937
30
0
41
1
10
59.3877588822751
20
1.37881168223376
30
0
41
1
10
59.3814471288439
20
1.38047467210296
30
0
0
SPLINE
5
149
100
AcDbEntity
8
1
62
256
6
ByLayer
370
18
48
1
60
0
100
AcDbSpline
70
4
71
3
72
8
73
4
40
0
40
0
40
0
40
0
40
1
40
1
40
1
40
1
41
1
10
60.0000000000001
20
1.34910479635366
30
0
41
1
10
59.880712015875
20
1.35527504389904
30
0
41
1
10
59.7614205500898
20
1.36145591578452
30
0
41
1
10
59.6421258472038
20
1.36764737282917
30
0
0
SPLINE
5
14A
100
AcDbEntity
8
1
62
256
6
ByLayer
370
18
48
1
60
0
100
AcDbSpline
70
4
71
3
72
49
73
45
40
0
40
0
40
0
40
0
40
0.0244636294863072
40
0.0244636294863072
40
0.0489272589726145
40
0.0489272589726145
40
0.097854517945229
40
0.097854517945229
40
0.195709035890457
40
0.195709035890457
40
0.220172665376765
40
0.220172665376765
40
0.244636294863072
40
0.244636294863072
40
0.293563553835687
40
0.293563553835687
40
0.391418071780917
40
0.391418071780917
40
0.440345330753532
40
0.440345330753532
40
0.46480896023984
40
0.46480896023984
40
0.489272589726147
40
0.489272589726147
40
0.587127107671379
40
0.587127107671379
40
0.68498162561661
40
0.68498162561661
40
0.697213440359764
40
0.697213440359764
40
0.709445255102918
40
0.709445255102918
40
0.733908884589226
40
0.782836143561841
40
0.782836143561841
40
0.880690661507073
40
0.880690661507073
40
0.929617920479689
40
0.929617920479689
40
0.954081549965997
40
0.954081549965997
40
0.978545179452305
40
0.978545179452305
40
1
40
1
40
1
40
1
41
1
10
60
20
6.08502560181694
30
0
41
1
10
60
20
6.03845799701693
30
0
41
1
10
60
20
5.99189397547116
30
0
41
1
10
60
20
5.89872888170464
30
0
41
1
10
60
20
5.85212055711085
30
0
41
1
10
60
20
5.71204178285615
30
0
41
1
10
60
20
5.61832432740363
30
0
41
1
10
60
20
5.33634316627925
30
0
41
1
10
60
20
5.14719874941781
30
0
41
1
10
60
20
4.90924131692285
30
0
41
1
10
60
20
4.86157370694312
30
0
41
1
10
60
20
4.76608331725541
30
0
41
1
10
60
20
4.71851894618194
30
0
41
1
10
60
20
4.57660753446262
30
0
41
1
10
60
20
4.48293305432489
30
0
41
1
10
60
20
4.20467489637176
30
0
41
1
10
60
20
4.02283260593478
30
0
41
1
10
60
20
3.75550265747267
30
0
41
1
10
60.0000000000001
20
3.66730452194574
30
0
41
1
10
60.0000000000001
20
3.53642108525509
30
0
41
1
10
60
20
3.49297834590115
30
0
41
1
10
60
20
3.40680209607834
30
0
41
1
10
60
20
3.36420729907692
30
0
41
1
10
60.0000000000001
20
3.15364446051433
30
0
41
1
10
60
20
2.99284348554332
30
0
41
1
10
60
20
2.68626177287638
30
0
41
1
10
60
20
2.54057286418396
30
0
41
1
10
60
20
2.38532408082355
30
0
41
1
10
60
20
2.36819505139928
30
0
41
1
10
60
20
2.33418060693299
30
0
41
1
10
60
20
2.317288924553
30
0
41
1
10
60
20
2.26717482385647
30
0
41
1
10
60
20
2.16899819315987
30
0
41
1
10
60
20
2.07691715931176
30
0
41
1
10
60
20
1.90084388029061
30
0
41
1
10
60
20
1.79410838356793
30
0
41
1
10
60
20
1.64984491952524
30
0
41
1
10
60
20
1.60441422520586
30
0
41
1
10
60
20
1.54041166495486
30
0
41
1
10
60
20
1.51973801089025
30
0
41
1
10
60
20
1.48006543754079
30
0
41
1
10
60.0000000000001
20
1.46103897862133
30
0
41
1
10
60
20
1.42681624219171
30
0
41
1
10
60
20
1.41143161461628
30
0
41
1
10
60
20
1.39665060188545
30
0
0
SPLINE
5
14B
100
AcDbEntity
8
1
62
256
6
ByLayer
370
18
48
1
60
0
100
AcDbSpline
70
4
71
3
72
8
73
4
40
0
40
0
40
0
40
0
40
1
40
1
40
1
40
1
41
1
10
59.4672746122412
20
6.28873655632893
30
0
41
1
10
59.6448576521099
20
6.22085850158416
30
0
41
1
10
59.8224327494467
20
6.15295570399573
30
0
41
1
10
59.9999999999997
20
6.08502560181702
30
0
0
SPLINE
5
14C
100
AcDbEntity
8
1
62
256
6
ByLayer
370
18
48
1
60
0
100
AcDbSpline
70
4
71
3
72
8
73
4
40
0
40
0
40
0
40
0
40
1
40
1
40
1
40
1
41
1
10
59.4360780857192
20
6.23530235529987
30
0
41
1
10
59.4464770049992
20
6.25311408891594
30
0
41
1
10
59.456875843426
20
6.27092547817711
30
0
41
1
10
59.4672746122412
20
6.28873655632893
30
0
0
SPLINE
5
14D
100
AcDbEntity
8
1
62
256
6
ByLayer
370
18
48
1
60
0
100
AcDbSpline
70
4
71
3
72
32
73
28
40
0
40
0
40
0
40
0
40
0.124999999999997
40
0.124999999999997
40
0.187499999999998
40
0.187499999999998
40
0.249999999999998
40
0.312499999999999
40
0.312499999999999
40
0.374999999999999
40
0.374999999999999
40
0.4375
40
0.4375
40
0.5
40
0.5
40
0.625000000000001
40
0.625000000000001
40
0.687500000000001
40
0.687500000000001
40
0.750000000000001
40
0.750000000000001
40
0.812500000000001
40
0.812500000000001
40
0.875
40
0.9375
40
0.9375
40
1
40
1
40
1
40
1
41
1
10
59.0607248023625
20
6.23525448799944
30
0
41
1
10
59.070146799117
20
6.21879167096643
30
0
41
1
10
59.0815187311071
20
6.20389398628299
30
0
41
1
10
59.1014444554623
20
6.18384955944097
30
0
41
1
10
59.1086260122031
20
6.17752043835571
30
0
41
1
10
59.1236056306124
20
6.16598977253054
30
0
41
1
10
59.1392437360223
20
6.15551971697352
30
0
41
1
10
59.1561790352059
20
6.14713910551876
30
0
41
1
10
59.1737872112396
20
6.13984236373014
30
0
41
1
10
59.182822627076
20
6.13678646938965
30
0
41
1
10
59.2010704280612
20
6.13191740704008
30
0
41
1
10
59.2103249777957
20
6.13008648279882
30
0
41
1
10
59.2290966214472
20
6.12763762241212
30
0
41
1
10
59.2386867909339
20
6.12702258209097
30
0
41
1
10
59.2672273866464
20
6.12708356114956
30
0
41
1
10
59.2859371872473
20
6.12958434617775
30
0
41
1
10
59.3135264114744
20
6.1370223953239
30
0
41
1
10
59.3225805401763
20
6.14011692917467
30
0
41
1
10
59.3400181101557
20
6.14736840766329
30
0
41
1
10
59.3484617828753
20
6.15154060209292
30
0
41
1
10
59.3648011336605
20
6.1609734338935
30
0
41
1
10
59.3727474640547
20
6.16627461686275
30
0
41
1
10
59.3878050323932
20
6.17781035475255
30
0
41
1
10
59.4019704069004
20
6.19021070371801
30
0
41
1
10
59.4144073186793
20
6.20428599668256
30
0
41
1
10
59.4259634662143
20
6.21921474431358
30
0
41
1
10
59.4312958546204
20
6.22711113618095
30
0
41
1
10
59.4360780857192
20
6.23530235529987
30
0
0
SPLINE
5
14E
100
AcDbEntity
8
1
62
256
6
ByLayer
370
18
48
1
60
0
100
AcDbSpline
70
4
71
3
72
8
73
4
40
0
40
0
40
0
40
0
40
1
40
1
40
1
40
1
41
1
10
58.9076108669005
20
6.50256930440497
30
0
41
1
10
58.958676561196
20
6.41348619769374
30
0
41
1
10
59.0097148443431
20
6.32438289969514
30
0
41
1
10
59.0607248023625
20
6.23525448799944
30
0
0
SPLINE
5
14F
100
AcDbEntity
8
1
62
256
6
ByLayer
370
18
48
1
60
0
100
AcDbSpline
70
4
71
3
72
8
73
4
40
0
40
0
40
0
40
0
40
1
40
1
40
1
40
1
41
1
10
58.2408204002134
20
6.7571160302696
30
0
41
1
10
58.4630956846932
20
6.67229895771718
30
0
41
1
10
58.6853593354534
20
6.58745152114577
30
0
41
1
10
58.9076108669005
20
6.50256930440494
30
0
0
SPLINE
5
150
100
AcDbEntity
8
1
62
256
6
ByLayer
370
18
48
1
60
0
100
AcDbSpline
70
4
71
3
72
10
73
6
40
0
40
0
40
0
40
0
40
0.968438851385458
40
0.968438851385458
40
1
40
1
40
1
40
1
41
1
10
58.0316816666047
20
6.39894070103676
30
0
41
1
10
58.0991955840101
20
6.51457255739561
30
0
41
1
10
58.1667076990062
20
6.63019423513933
30
0
41
1
10
58.2364199996294
20
6.74958012997587
30
0
41
1
10
58.2386201999306
20
6.75334808204607
30
0
41
1
10
58.2408204002131
20
6.75711603026943
30
0
0
SPLINE
5
151
100
AcDbEntity
8
1
62
256
6
ByLayer
370
18
48
1
60
0
100
AcDbSpline
70
4
71
3
72
8
73
4
40
0
40
0
40
0
40
0
40
1
40
1
40
1
40
1
41
1
10
57.9361307666074
20
6.23528400328098
30
0
41
1
10
57.9679815957377
20
6.28983912295652
30
0
41
1
10
57.9998318031112
20
6.34439107356778
30
0
41
1
10
58.0316816666048
20
6.39894070103676
30
0
0
SPLINE
5
152
100
AcDbEntity
8
1
62
256
6
ByLayer
370
18
48
1
60
0
100
AcDbSpline
70
4
71
3
72
30
73
26
40
0
40
0
40
0
40
0
40
0.125000000000036
40
0.125000000000036
40
0.187500000000023
40
0.187500000000023
40
0.250000000000009
40
0.312499999999995
40
0.312499999999995
40
0.374999999999981
40
0.374999999999981
40
0.437499999999967
40
0.437499999999967
40
0.499999999999953
40
0.499999999999953
40
0.562499999999939
40
0.562499999999939
40
0.624999999999925
40
0.687499999999911
40
0.687499999999911
40
0.749999999999897
40
0.749999999999897
40
0.874999999999949
40
0.874999999999949
40
1
40
1
40
1
40
1
41
1
10
57.5607790984677
20
6.23525186644761
30
0
41
1
10
57.5701947828448
20
6.21880050952672
30
0
41
1
10
57.5815575983226
20
6.20391214288014
30
0
41
1
10
57.6014652284794
20
6.18387829912157
30
0
41
1
10
57.6086400742923
20
6.17755196796941
30
0
41
1
10
57.6236063203349
20
6.16602459427026
30
0
41
1
10
57.6392301153955
20
6.15555638744596
30
0
41
1
10
57.6561490948128
20
6.14717451845229
30
0
41
1
10
57.6737397701574
20
6.13987468340972
30
0
41
1
10
57.6827686645687
20
6.13681538289103
30
0
41
1
10
57.7010012494694
20
6.1319387310871
30
0
41
1
10
57.7102479996793
20
6.13010319722372
30
0
41
1
10
57.7290035951099
20
6.12764318200027
30
0
41
1
10
57.7385671698678
20
6.12702066301409
30
0
41
1
10
57.7576526252903
20
6.12704779906102
30
0
41
1
10
57.7671905614677
20
6.12769132141921
30
0
41
1
10
57.786121014067
20
6.13022900745139
30
0
41
1
10
57.8046822271129
20
6.13398095836115
30
0
41
1
10
57.8225337743887
20
6.14006664526437
30
0
41
1
10
57.8400263780814
20
6.14733268800157
30
0
41
1
10
57.8486278342302
20
6.15158485441859
30
0
41
1
10
57.8731689497326
20
6.16577269741026
30
0
41
1
10
57.8880987075563
20
6.17718828339926
30
0
41
1
10
57.9150469917559
20
6.20400053844102
30
0
41
1
10
57.9265725074945
20
6.21891231111104
30
0
41
1
10
57.9361307666074
20
6.23528400327839
30
0
0
SPLINE
5
153
100
AcDbEntity
8
1
62
256
6
ByLayer
370
18
48
1
60
0
100
AcDbSpline
70
4
71
3
72
8
73
4
40
0
40
0
40
0
40
0
40
1
40
1
40
1
40
1
41
1
10
57.3757879947955
20
6.5581583000677
30
0
41
1
10
57.4374920765568
20
6.45055356142819
30
0
41
1
10
57.4991563959324
20
6.34292084017449
30
0
41
1
10
57.5607790984677
20
6.23525186644579
30
0
0
SPLINE
5
154
100
AcDbEntity
8
1
62
256
6
ByLayer
370
18
48
1
60
0
100
AcDbSpline
70
4
71
3
72
10
73
6
40
0
40
0
40
0
40
0
40
0.432315962571539
40
0.432315962571539
40
1
40
1
40
1
40
1
41
1
10
57.0718599485591
20
7.08744025266677
30
0
41
1
10
57.1156997975206
20
7.01119281781189
30
0
41
1
10
57.1595226114891
20
6.9349356202454
30
0
41
1
10
57.2608468293789
20
6.75851828062827
30
0
41
1
10
57.3183345515456
20
6.65835041480318
30
0
41
1
10
57.3757879947955
20
6.55815830006767
30
0
0
SPLINE
5
155
100
AcDbEntity
8
1
62
256
6
ByLayer
370
18
48
1
60
0
100
AcDbSpline
70
4
71
3
72
8
73
4
40
0
40
0
40
0
40
0
40
1
40
1
40
1
40
1
41
1
10
57.0718599485591
20
7.08744025267106
30
0
41
1
10
57.0258682925576
20
7.08743942718743
30
0
41
1
10
56.9798766365533
20
7.08743860151245
30
0
41
1
10
56.9338849805461
20
7.08743777564624
30
0
0
SPLINE
5
156
100
AcDbEntity
8
1
62
256
6
ByLayer
370
18
48
1
60
0
100
AcDbSpline
70
4
71
3
72
12
73
8
40
0
40
0
40
0
40
0
40
0.276326875949825
40
0.276326875949825
40
0.552653724642953
40
0.552653724642953
40
1
40
1
40
1
40
1
41
1
10
56.436182940883
20
6.23504533293726
30
0
41
1
10
56.4820287801868
20
6.31357108132488
30
0
41
1
10
56.5278729712969
20
6.39209070103169
30
0
41
1
10
56.619559604413
20
6.549122425983
30
0
41
1
10
56.6654020410274
20
6.6276345107336
30
0
41
1
10
56.7854581021691
20
6.83324525730433
30
0
41
1
10
56.8596714855692
20
6.96034203192755
30
0
41
1
10
56.9338849805463
20
7.08743777564624
30
0
0
SPLINE
5
157
100
AcDbEntity
8
1
62
256
6
ByLayer
370
18
48
1
60
0
100
AcDbSpline
70
4
71
3
72
32
73
28
40
0
40
0
40
0
40
0
40
0.124999999999992
40
0.124999999999992
40
0.187499999999985
40
0.187499999999985
40
0.249999999999979
40
0.312499999999973
40
0.312499999999973
40
0.374999999999966
40
0.374999999999966
40
0.43749999999996
40
0.43749999999996
40
0.499999999999954
40
0.499999999999954
40
0.625000000000032
40
0.625000000000032
40
0.687500000000027
40
0.687500000000027
40
0.750000000000022
40
0.750000000000022
40
0.812500000000016
40
0.812500000000016
40
0.875000000000011
40
0.937500000000005
40
0.937500000000005
40
1
40
1
40
1
40
1
41
1
10
56.0608280100121
20
6.23499976746788
30
0
41
1
10
56.0702509179175
20
6.21853736294915
30
0
41
1
10
56.0816237065931
20
6.20364037061663
30
0
41
1
10
56.1015503597969
20
6.18359716039589
30
0
41
1
10
56.1087321687773
20
6.17726847490232
30
0
41
1
10
56.1237121872834
20
6.16573863081533
30
0
41
1
10
56.1393505567209
20
6.15526938197115
30
0
41
1
10
56.1562858061983
20
6.14688946945438
30
0
41
1
10
56.1738937443211
20
6.13959332750869
30
0
41
1
10
56.1829290580826
20
6.13653763803541
30
0
41
1
10
56.2011765084008
20
6.13166885645876
30
0
41
1
10
56.2104308334959
20
6.12983799861766
30
0
41
1
10
56.2292019245744
20
6.1273891017629
30
0
41
1
10
56.2387917475749
20
6.12677394916039
30
0
41
1
10
56.2673317734414
20
6.12683434680312
30
0
41
1
10
56.2860411379917
20
6.12933446662626
30
0
41
1
10
56.313629627492
20
6.1367710787159
30
0
41
1
10
56.322683920358
20
6.13986520007467
30
0
41
1
10
56.3401215498075
20
6.14711576523445
30
0
41
1
10
56.3485652335926
20
6.15128747806133
30
0
41
1
10
56.3649045721022
20
6.1607192934504
30
0
41
1
10
56.3728507962602
20
6.16601985722829
30
0
41
1
10
56.3879089537737
20
6.17755502455373
30
0
41
1
10
56.4020747711266
20
6.18995481990063
30
0
41
1
10
56.4145118749761
20
6.20402956481698
30
0
41
1
10
56.4260681003072
20
6.21895775626774
30
0
41
1
10
56.4314006419142
20
6.22685410749048
30
0
41
1
10
56.436182940883
20
6.23504533293726
30
0
0
SPLINE
5
158
100
AcDbEntity
8
1
62
256
6
ByLayer
370
18
48
1
60
0
100
AcDbSpline
70
4
71
3
72
8
73
4
40
0
40
0
40
0
40
0
40
1
40
1
40
1
40
1
41
1
10
55.571742768053
20
7.08741326009149
30
0
41
1
10
55.7350296272762
20
6.80343695318254
30
0
41
1
10
55.8980750731524
20
6.51933924208416
30
0
41
1
10
56.0608280100121
20
6.23499976746743
30
0
0
SPLINE
5
159
100
AcDbEntity
8
1
62
256
6
ByLayer
370
18
48
1
60
0
100
AcDbSpline
70
4
71
3
72
12
73
8
40
0
40
0
40
0
40
0
40
0.276361859026847
40
0.276361859026847
40
0.552723692052529
40
0.552723692052529
40
1
40
1
40
1
40
1
41
1
10
54.9362299222842
20
6.23513855397809
30
0
41
1
10
54.9820807198276
20
6.3136629946641
30
0
41
1
10
55.0279300529267
20
6.39218139595269
30
0
41
1
10
55.1196273001232
20
6.54921078529256
30
0
41
1
10
55.1654752087997
20
6.6277217532116
30
0
41
1
10
55.2855249977705
20
6.83329370865098
30
0
41
1
10
55.3597268842504
20
6.96035287539971
30
0
41
1
10
55.433929163602
20
7.08741077355995
30
0
0
SPLINE
5
15A
100
AcDbEntity
8
1
62
256
6
ByLayer
370
18
48
1
60
0
100
AcDbSpline
70
4
71
3
72
32
73
28
40
0
40
0
40
0
40
0
40
0.125000000000013
40
0.125000000000013
40
0.187499999999986
40
0.187499999999986
40
0.249999999999959
40
0.312499999999932
40
0.312499999999932
40
0.374999999999904
40
0.374999999999904
40
0.437499999999877
40
0.437499999999877
40
0.49999999999985
40
0.49999999999985
40
0.624999999999886
40
0.624999999999886
40
0.687499999999905
40
0.687499999999905
40
0.749999999999924
40
0.749999999999924
40
0.812499999999943
40
0.812499999999943
40
0.874999999999962
40
0.937499999999981
40
0.937499999999981
40
1
40
1
40
1
40
1
41
1
10
54.5608776578208
20
6.23514038333258
30
0
41
1
10
54.5703004566493
20
6.21867824341476
30
0
41
1
10
54.5816728653872
20
6.20378139074583
30
0
41
1
10
54.6015982503705
20
6.18373795951598
30
0
41
1
10
54.6087795415374
20
6.17740908819118
30
0
41
1
10
54.6237585884996
20
6.16587848464064
30
0
41
1
10
54.6393958311457
20
6.15540827399224
30
0
41
1
10
54.6563296024589
20
6.14702692543608
30
0
41
1
10
54.6739358511066
20
6.13972905359216
30
0
41
1
10
54.6829708462414
20
6.13667214344633
30
0
41
1
10
54.701217180075
20
6.13180090546047
30
0
41
1
10
54.710470915737
20
6.12996871269038
30
0
41
1
10
54.7292407583376
20
6.12751689893153
30
0
41
1
10
54.7388298965625
20
6.1269001240473
30
0
41
1
10
54.7673697587264
20
6.12695548340076
30
0
41
1
10
54.7860789431305
20
6.12945213904115
30
0
41
1
10
54.8136670843161
20
6.13688317950869
30
0
41
1
10
54.8227222860201
20
6.13997573601554
30
0
41
1
10
54.8401609871387
20
6.14722315495672
30
0
41
1
10
54.8486051365421
20
6.15139333260669
30
0
41
1
10
54.8649452912138
20
6.16082210495995
30
0
41
1
10
54.8728917078907
20
6.1661209956502
30
0
41
1
10
54.8879517425749
20
6.1776542085714
30
0
41
1
10
54.9021190909425
20
6.19005218136286
30
0
41
1
10
54.9145571766058
20
6.20412524371707
30
0
41
1
10
54.926114157619
20
6.21905177294369
30
0
41
1
10
54.9314472338612
20
6.22694768373128
30
0
41
1
10
54.9362299222842
20
6.23513855397809
30
0
0
SPLINE
5
15B
100
AcDbEntity
8
1
62
256
6
ByLayer
370
18
48
1
60
0
100
AcDbSpline
70
4
71
3
72
8
73
4
40
0
40
0
40
0
40
0
40
1
40
1
40
1
40
1
41
1
10
54.0718843417754
20
7.08738613776535
30
0
41
1
10
54.2351412578701
20
6.80346521717834
30
0
41
1
10
54.398156650633
20
6.51942279630362
30
0
41
1
10
54.5608776578208
20
6.23514038333255
30
0
0
SPLINE
5
15C
100
AcDbEntity
8
1
62
256
6
ByLayer
370
18
48
1
60
0
100
AcDbSpline
70
4
71
3
72
12
73
8
40
0
40
0
40
0
40
0
40
0.276389816553582
40
0.276389816553582
40
0.552779608294054
40
0.552779608294054
40
1
40
1
40
1
40
1
41
1
10
53.4362857819759
20
6.23517504101071
30
0
41
1
10
53.4821363437379
20
6.3137011568991
30
0
41
1
10
53.5279855341164
20
6.39222136877123
30
0
41
1
10
53.6196825879677
20
6.5492546104918
30
0
41
1
10
53.665530446217
20
6.62776762039979
30
0
41
1
10
53.7855633595805
20
6.83331648837699
30
0
41
1
10
53.8597484342254
20
6.96035070145396
30
0
41
1
10
53.933933785047
20
7.0873836364662
30
0
0
SPLINE
5
15D
100
AcDbEntity
8
1
62
256
6
ByLayer
370
18
48
1
60
0
100
AcDbSpline
70
4
71
3
72
32
73
28
40
0
40
0
40
0
40
0
40
0.125000000000057
40
0.125000000000057
40
0.187500000000053
40
0.187500000000053
40
0.250000000000049
40
0.312500000000045
40
0.312500000000045
40
0.375000000000042
40
0.375000000000042
40
0.437500000000038
40
0.437500000000038
40
0.500000000000034
40
0.500000000000034
40
0.625000000000027
40
0.625000000000027
40
0.687500000000022
40
0.687500000000022
40
0.750000000000018
40
0.750000000000018
40
0.812500000000013
40
0.812500000000013
40
0.875000000000009
40
0.937500000000004
40
0.937500000000004
40
1
40
1
40
1
40
1
41
1
10
53.0609376358025
20
6.23516128084063
30
0
41
1
10
53.0703611618358
20
6.21869986006169
30
0
41
1
10
53.0817342946386
20
6.20380397068783
30
0
41
1
10
53.1016606372049
20
6.18376223825581
30
0
41
1
10
53.1088422197835
20
6.17743399051958
30
0
41
1
10
53.1238217226444
20
6.1659047010528
30
0
41
1
10
53.1394593414448
20
6.15543583936977
30
0
41
1
10
53.1563933089661
20
6.14705586946553
30
0
41
1
10
53.1739996484573
20
6.13975937125477
30
0
41
1
10
53.1830345176881
20
6.13670317590376
30
0
41
1
10
53.201280627514
20
6.13183323477381
30
0
41
1
10
53.2105342141187
20
6.13000165029854
30
0
41
1
10
53.229303682369
20
6.12755096372405
30
0
41
1
10
53.2388925860876
20
6.12693471383224
30
0
41
1
10
53.2674314929725
20
6.12699144319814
30
0
41
1
10
53.2861400142721
20
6.12948874055914
30
0
41
1
10
53.3137271165889
20
6.13692037615627
30
0
41
1
10
53.3227819702903
20
6.14001306663556
30
0
41
1
10
53.3402200197069
20
6.14726064780953
30
0
41
1
10
53.3486638574137
20
6.15143085359142
30
0
41
1
10
53.3650034103911
20
6.160859590516
30
0
41
1
10
53.3729495162458
20
6.16615839857869
30
0
41
1
10
53.3880091363173
20
6.17769152101752
30
0
41
1
10
53.4021760808358
20
6.19008934421174
30
0
41
1
10
53.4146137652724
20
6.2041621622395
30
0
41
1
10
53.4261703364698
20
6.21908840950857
30
0
41
1
10
53.4315032621859
20
6.22698424271218
30
0
41
1
10
53.4362857819759
20
6.23517504101071
30
0
0
SPLINE
5
15E
100
AcDbEntity
8
1
62
256
6
ByLayer
370
18
48
1
60
0
100
AcDbSpline
70
4
71
3
72
8
73
4
40
0
40
0
40
0
40
0
40
1
40
1
40
1
40
1
41
1
10
52.5719212660888
20
7.08735888042935
30
0
41
1
10
52.7351840270792
20
6.8034521245861
30
0
41
1
10
52.8982076031881
20
6.51942510424897
30
0
41
1
10
53.0609376358025
20
6.23516128084063
30
0
0
SPLINE
5
15F
100
AcDbEntity
8
1
62
256
6
ByLayer
370
18
48
1
60
0
100
AcDbSpline
70
4
71
3
72
12
73
8
40
0
40
0
40
0
40
0
40
0.276366624387517
40
0.276366624387517
40
0.552733225069791
40
0.552733225069791
40
1
40
1
40
1
40
1
41
1
10
51.936330390154
20
6.23501145634972
30
0
41
1
10
51.9821745336644
20
6.3135428007038
30
0
41
1
10
52.0280171477069
20
6.39206851223818
30
0
41
1
10
52.1197007834738
20
6.54911317986711
30
0
41
1
10
52.1655417999098
20
6.62763211632605
30
0
41
1
10
52.285570439686
20
6.8332208166967
30
0
41
1
10
52.35975790199
20
6.96028919270137
30
0
41
1
10
52.4339453804502
20
7.08735636649004
30
0
0
SPLINE
5
160
100
AcDbEntity
8
1
62
256
6
ByLayer
370
18
48
1
60
0
100
AcDbSpline
70
4
71
3
72
32
73
28
40
0
40
0
40
0
40
0
40
0.124999999999981
40
0.124999999999981
40
0.187499999999937
40
0.187499999999937
40
0.249999999999893
40
0.312499999999849
40
0.312499999999849
40
0.374999999999805
40
0.374999999999805
40
0.437499999999762
40
0.437499999999762
40
0.499999999999718
40
0.499999999999718
40
0.624999999999721
40
0.624999999999721
40
0.687499999999768
40
0.687499999999768
40
0.749999999999814
40
0.749999999999814
40
0.812499999999861
40
0.812499999999861
40
0.874999999999907
40
0.937499999999953
40
0.937499999999953
40
1
40
1
40
1
40
1
41
1
10
51.5609819727853
20
6.23492422969156
30
0
41
1
10
51.5704060448263
20
6.21846235931227
30
0
41
1
10
51.5817801008653
20
6.20356641509679
30
0
41
1
10
51.6017086981811
20
6.18352542863983
30
0
41
1
10
51.6088911435612
20
6.17719763206193
30
0
41
1
10
51.6238722025769
20
6.16566985265064
30
0
41
1
10
51.6395115389924
20
6.15520283185461
30
0
41
1
10
51.6564475897291
20
6.14682542907715
30
0
41
1
10
51.6740562343402
20
6.13953192571066
30
0
41
1
10
51.6830914231944
20
6.13647774964773
30
0
41
1
10
51.701338852885
20
6.13161181426887
30
0
41
1
10
51.7105931196664
20
6.12978236897766
30
0
41
1
10
51.7293639974111
20
6.12733627326392
30
0
41
1
10
51.7389536581012
20
6.1267225340527
30
0
41
1
10
51.7674920966894
20
6.12678694894137
30
0
41
1
10
51.7862003944153
20
6.12928940610146
30
0
41
1
10
51.8137872532373
20
6.136729154515
30
0
41
1
10
51.8228406242135
20
6.13982412353869
30
0
41
1
10
51.840276767855
20
6.14707624701129
30
0
41
1
10
51.8487197616491
20
6.15124865300305
30
0
41
1
10
51.8650578065115
20
6.16068172412184
30
0
41
1
10
51.87300345029
20
6.16598288023928
30
0
41
1
10
51.8880602518204
20
6.17751887394297
30
0
41
1
10
51.9022248218726
20
6.18991942488464
30
0
41
1
10
51.9146610023596
20
6.20399468442847
30
0
41
1
10
51.92621633577
20
6.2189234004133
30
0
41
1
10
51.93154847076
20
6.2268199943689
30
0
41
1
10
51.936330390154
20
6.23501145634972
30
0
0
SPLINE
5
161
100
AcDbEntity
8
1
62
256
6
ByLayer
370
18
48
1
60
0
100
AcDbSpline
70
4
71
3
72
8
73
4
40
0
40
0
40
0
40
0
40
1
40
1
40
1
40
1
41
1
10
51.0718310293985
20
7.08733148892904
30
0
41
1
10
51.2351388233493
20
6.80335413397907
30
0
41
1
10
51.3982077212628
20
6.5192565881438
30
0
41
1
10
51.5609819727853
20
6.23492422969125
30
0
0
SPLINE
5
162
100
AcDbEntity
8
1
62
256
6
ByLayer
370
18
48
1
60
0
100
AcDbSpline
70
4
71
3
72
12
73
8
40
0
40
0
40
0
40
0
40
0.276446289558902
40
0.276446289558902
40
0.552892556518118
40
0.552892556518118
40
1
40
1
40
1
40
1
41
1
10
50.4363851538368
20
6.23523631975721
30
0
41
1
10
50.4822336081065
20
6.31376677820106
30
0
41
1
10
50.528080645366
20
6.39229172339543
30
0
41
1
10
50.6197733358605
20
6.54933502048991
30
0
41
1
10
50.6656189837859
20
6.62785335301035
30
0
41
1
10
50.7856122069644
20
6.83335877660937
30
0
41
1
10
50.8597597723803
20
6.96034452914085
30
0
41
1
10
50.9339074397968
20
7.08732896388364
30
0
0
SPLINE
5
163
100
AcDbEntity
8
1
62
256
6
ByLayer
370
18
48
1
60
0
100
AcDbSpline
70
4
71
3
72
32
73
28
40
0
40
0
40
0
40
0
40
0.125000000000023
40
0.125000000000023
40
0.187500000000003
40
0.187500000000003
40
0.249999999999982
40
0.312499999999962
40
0.312499999999962
40
0.374999999999941
40
0.374999999999941
40
0.437499999999921
40
0.437499999999921
40
0.4999999999999
40
0.4999999999999
40
0.624999999999859
40
0.624999999999859
40
0.687499999999883
40
0.687499999999883
40
0.749999999999906
40
0.749999999999906
40
0.81249999999993
40
0.81249999999993
40
0.874999999999953
40
0.937499999999977
40
0.937499999999977
40
1
40
1
40
1
40
1
41
1
10
50.0610309041308
20
6.23518671036675
30
0
41
1
10
50.0704552964733
20
6.21872489190437
30
0
41
1
10
50.0818294879979
20
6.20382899194405
30
0
41
1
10
50.1017577165309
20
6.18378781385948
30
0
41
1
10
50.1089399621011
20
6.17745987839817
30
0
41
1
10
50.1239206581937
20
6.16593152494332
30
0
41
1
10
50.1395594303524
20
6.15546368745837
30
0
41
1
10
50.156494713984
20
6.14708530038217
30
0
41
1
10
50.1741023336301
20
6.13979047865712
30
0
41
1
10
50.1831374288515
20
6.13673535236788
30
0
41
1
10
50.2013842649468
20
6.13186749256931
30
0
41
1
10
50.2106382012675
20
6.1300369931096
30
0
41
1
10
50.2294083439181
20
6.12758857358617
30
0
41
1
10
50.2389975780649
20
6.12697353102226
30
0
41
1
10
50.267536315105
20
6.12703387159127
30
0
41
1
10
50.2862447384688
20
6.12953349912956
30
0
41
1
10
50.3138316986862
20
6.13696865803811
30
0
41
1
10
50.3228860010256
20
6.14006235108354
30
0
41
1
10
50.3403233457394
20
6.14731190341277
30
0
41
1
10
50.3487668759214
20
6.15148305560268
30
0
41
1
10
50.3651058854668
20
6.16091364422721
30
0
41
1
10
50.3730518154767
20
6.16621342298873
30
0
41
1
10
50.3881105332882
20
6.17774792632341
30
0
41
1
10
50.4022766953975
20
6.19014710785379
30
0
41
1
10
50.4147139431602
20
6.2042211342951
30
0
41
1
10
50.4262701201526
20
6.21914864524104
30
0
41
1
10
50.4316028180269
20
6.22704500710415
30
0
41
1
10
50.4363851538368
20
6.23523631975721
30
0
0
SPLINE
5
164
100
AcDbEntity
8
1
62
256
6
ByLayer
370
18
48
1
60
0
100
AcDbSpline
70
4
71
3
72
8
73
4
40
0
40
0
40
0
40
0
40
1
40
1
40
1
40
1
41
1
10
49.649721575629
20
6.95216954880263
30
0
41
1
10
49.7870120986754
20
6.71329273924374
30
0
41
1
10
49.9241251727211
20
6.47432332682016
30
0
41
1
10
50.0610309041308
20
6.23518671036675
30
0
0
SPLINE
5
165
100
AcDbEntity
8
1
62
256
6
ByLayer
370
18
48
1
60
0
100
AcDbSpline
70
4
71
3
72
8
73
4
40
0
40
0
40
0
40
0
40
1
40
1
40
1
40
1
41
1
10
49.3289789076203
20
6.90722408250053
30
0
41
1
10
49.4358930246329
20
6.9222067441529
30
0
41
1
10
49.5428072479664
20
6.93718856135723
30
0
41
1
10
49.6497215756289
20
6.95216954880263
30
0
0
SPLINE
5
166
100
AcDbEntity
8
1
62
256
6
ByLayer
370
18
48
1
60
0
100
AcDbSpline
70
4
71
3
72
12
73
8
40
0
40
0
40
0
40
0
40
0.350431851002014
40
0.350431851002014
40
0.700863674657243
40
0.700863674657243
40
1
40
1
40
1
40
1
41
1
10
48.9364339432737
20
6.23503886989002
30
0
41
1
10
48.9822899381892
20
6.31356664306892
30
0
41
1
10
49.0281444166719
20
6.39208913460666
30
0
41
1
10
49.1198517371529
20
6.54912793752266
30
0
41
1
10
49.1657045739955
20
6.62764422964975
30
0
41
1
10
49.2506978613833
20
6.77318150688006
30
0
41
1
10
49.289838426475
20
6.84020297771758
30
0
41
1
10
49.3289789076152
20
6.9072240825034
30
0
0
SPLINE
5
167
100
AcDbEntity
8
1
62
256
6
ByLayer
370
18
48
1
60
0
100
AcDbSpline
70
4
71
3
72
32
73
28
40
0
40
0
40
0
40
0
40
0.125000000000101
40
0.125000000000101
40
0.18750000000012
40
0.18750000000012
40
0.250000000000138
40
0.312500000000157
40
0.312500000000157
40
0.375000000000175
40
0.375000000000175
40
0.437500000000194
40
0.437500000000194
40
0.500000000000212
40
0.500000000000212
40
0.625000000000158
40
0.625000000000158
40
0.687500000000132
40
0.687500000000132
40
0.750000000000105
40
0.750000000000105
40
0.812500000000079
40
0.812500000000079
40
0.875000000000053
40
0.937500000000026
40
0.937500000000026
40
1
40
1
40
1
40
1
41
1
10
48.5610802422126
20
6.23503824017681
30
0
41
1
10
48.5705049349044
20
6.21857725088543
30
0
41
1
10
48.581879210639
20
6.20368222805391
30
0
41
1
10
48.6018067618013
20
6.18364204051284
30
0
41
1
10
48.6089886651052
20
6.17731434914776
30
0
41
1
10
48.6239686614531
20
6.16578608587176
30
0
41
1
10
48.6396065778866
20
6.15531821486186
30
0
41
1
10
48.6565403790639
20
6.14693903343149
30
0
41
1
10
48.6741462679617
20
6.13964314561997
30
0
41
1
10
48.6831809375269
20
6.13658709889131
30
0
41
1
10
48.7014264499676
20
6.13171722660815
30
0
41
1
10
48.7106796713606
20
6.12988554882881
30
0
41
1
10
48.7294482681438
20
6.12743438335946
30
0
41
1
10
48.7390366329043
20
6.126817731145
30
0
41
1
10
48.767574721874
20
6.12687283735943
30
0
41
1
10
48.786282676086
20
6.12936857874536
30
0
41
1
10
48.8138689010129
20
6.1367971296425
30
0
41
1
10
48.8229241491324
20
6.13988889612889
30
0
41
1
10
48.8403625902439
20
6.14713449442459
30
0
41
1
10
48.848806610873
20
6.15130366962822
30
0
41
1
10
48.8651465075834
20
6.16073026292116
30
0
41
1
10
48.8730926293608
20
6.16602780979551
30
0
41
1
10
48.8881536727372
20
6.1775595577713
30
0
41
1
10
48.9023217732724
20
6.18995610181551
30
0
41
1
10
48.9147603375709
20
6.2040275970779
30
0
41
1
10
48.9263175686286
20
6.21895257922341
30
0
41
1
10
48.9316510278124
20
6.22684819163365
30
0
41
1
10
48.9364339432737
20
6.23503886989002
30
0
0
SPLINE
5
168
100
AcDbEntity
8
1
62
256
6
ByLayer
370
18
48
1
60
0
100
AcDbSpline
70
4
71
3
72
8
73
4
40
0
40
0
40
0
40
0
40
1
40
1
40
1
40
1
41
1
10
48.2614406485569
20
6.75759296248609
30
0
41
1
10
48.3614230350679
20
6.58347588162121
30
0
41
1
10
48.4613062106921
20
6.40930166903684
30
0
41
1
10
48.5610802422126
20
6.23503824017669
30
0
0
SPLINE
5
169
100
AcDbEntity
8
1
62
256
6
ByLayer
370
18
48
1
60
0
100
AcDbSpline
70
4
71
3
72
8
73
4
40
0
40
0
40
0
40
0
40
1
40
1
40
1
40
1
41
1
10
47.6952686650778
20
6.67821128250893
30
0
41
1
10
47.8839923041176
20
6.70467470088485
30
0
41
1
10
48.0727163001322
20
6.7311352282247
30
0
41
1
10
48.2614406485569
20
6.75759296248609
30
0
0
SPLINE
5
16A
100
AcDbEntity
8
1
62
256
6
ByLayer
370
18
48
1
60
0
100
AcDbSpline
70
4
71
3
72
10
73
6
40
0
40
0
40
0
40
0
40
0.53158599583176
40
0.53158599583176
40
1
40
1
40
1
40
1
41
1
10
47.4364830938428
20
6.23507690638917
30
0
41
1
10
47.4823404593471
20
6.31360551583543
30
0
41
1
10
47.528196466157
20
6.39212892753099
30
0
41
1
10
47.61445782979
20
6.53983857187984
30
0
41
1
10
47.6548633318686
20
6.60902546674544
30
0
41
1
10
47.6952686650698
20
6.6782112825135
30
0
0
SPLINE
5
16B
100
AcDbEntity
8
1
62
256
6
ByLayer
370
18
48
1
60
0
100
AcDbSpline
70
4
71
3
72
32
73
28
40
0
40
0
40
0
40
0
40
0.124999999999959
40
0.124999999999959
40
0.187499999999936
40
0.187499999999936
40
0.249999999999913
40
0.31249999999989
40
0.31249999999989
40
0.374999999999867
40
0.374999999999867
40
0.437499999999845
40
0.437499999999845
40
0.499999999999822
40
0.499999999999822
40
0.624999999999868
40
0.624999999999868
40
0.68749999999989
40
0.68749999999989
40
0.749999999999912
40
0.749999999999912
40
0.812499999999934
40
0.812499999999934
40
0.874999999999956
40
0.937499999999978
40
0.937499999999978
40
1
40
1
40
1
40
1
41
1
10
47.0611367595218
20
6.23510276523425
30
0
41
1
10
47.0705614703158
20
6.21864211237903
30
0
41
1
10
47.0819354997803
20
6.20374732254743
30
0
41
1
10
47.1018621303901
20
6.18370719658648
30
0
41
1
10
47.109043650538
20
6.17737944854034
30
0
41
1
10
47.1240229149685
20
6.16585080445336
30
0
41
1
10
47.1396599748237
20
6.15538241998468
30
0
41
1
10
47.1565926486038
20
6.14700242107753
30
0
41
1
10
47.1741972525463
20
6.13970552961035
30
0
41
1
10
47.183231656882
20
6.13664873644177
30
0
41
1
10
47.2014762731754
20
6.13177738889684
30
0
41
1
10
47.2107290161259
20
6.12994491023858
30
0
41
1
10
47.2294965904517
20
6.12749199440356
30
0
41
1
10
47.2390843921287
20
6.12687436591455
30
0
41
1
10
47.2676220912709
20
6.12692645227835
30
0
41
1
10
47.2863296877577
20
6.12942014351222
30
0
41
1
10
47.3139152499689
20
6.13684540689661
30
0
41
1
10
47.3229709545882
20
6.13993627984269
30
0
41
1
10
47.3404097884195
20
6.14718008324823
30
0
41
1
10
47.3488539461141
20
6.15134838823886
30
0
41
1
10
47.3651940165267
20
6.16077326112597
30
0
41
1
10
47.3731400653274
20
6.16606984735625
30
0
41
1
10
47.3882019309031
20
6.17760058573626
30
0
41
1
10
47.4023706569327
20
6.18999615080531
30
0
41
1
10
47.4148093580448
20
6.20406683291534
30
0
41
1
10
47.4263666132965
20
6.21899095511591
30
0
41
1
10
47.4317001719974
20
6.2268863747814
30
0
41
1
10
47.4364830938428
20
6.23507690638914
30
0
0
SPLINE
5
16C
100
AcDbEntity
8
1
62
256
6
ByLayer
370
18
48
1
60
0
100
AcDbSpline
70
4
71
3
72
8
73
4
40
0
40
0
40
0
40
0
40
1
40
1
40
1
40
1
41
1
10
46.8732560708463
20
6.56292720171786
30
0
41
1
10
46.9359242682851
20
6.45368181590905
30
0
41
1
10
46.9985519532355
20
6.34440975542282
30
0
41
1
10
47.0611367595219
20
6.23510276523422
30
0
0
SPLINE
5
16D
100
AcDbEntity
8
1
62
256
6
ByLayer
370
18
48
1
60
0
100
AcDbSpline
70
4
71
3
72
8
73
4
40
0
40
0
40
0
40
0
40
1
40
1
40
1
40
1
41
1
10
46.0613878006496
20
6.44902749635574
30
0
41
1
10
46.3320097998827
20
6.48700051001549
30
0
41
1
10
46.6026325612191
20
6.52496697739855
30
0
41
1
10
46.8732560708463
20
6.56292720171786
30
0
0
SPLINE
5
16E
100
AcDbEntity
8
1
62
256
6
ByLayer
370
18
48
1
60
0
100
AcDbSpline
70
4
71
3
72
8
73
4
40
0
40
0
40
0
40
0
40
1
40
1
40
1
40
1
41
1
10
45.9365363882884
20
6.23518190478862
30
0
41
1
10
45.9781544815797
20
6.30646737725274
30
0
41
1
10
46.0197714525006
20
6.37774870245315
30
0
41
1
10
46.0613878006382
20
6.44902749636219
30
0
0
SPLINE
5
16F
100
AcDbEntity
8
1
62
256
6
ByLayer
370
18
48
1
60
0
100
AcDbSpline
70
4
71
3
72
32
73
28
40
0
40
0
40
0
40
0
40
0.12500000000001
40
0.12500000000001
40
0.187499999999984
40
0.187499999999984
40
0.249999999999957
40
0.31249999999993
40
0.31249999999993
40
0.374999999999903
40
0.374999999999903
40
0.437499999999876
40
0.437499999999876
40
0.49999999999985
40
0.49999999999985
40
0.624999999999887
40
0.624999999999887
40
0.687499999999906
40
0.687499999999906
40
0.749999999999925
40
0.749999999999925
40
0.812499999999944
40
0.812499999999944
40
0.874999999999962
40
0.937499999999981
40
0.937499999999981
40
1
40
1
40
1
40
1
41
1
10
45.5611851874479
20
6.23511705803384
30
0
41
1
10
45.5706108896748
20
6.21865600739545
30
0
41
1
10
45.5819863889123
20
6.20376136871246
30
0
41
1
10
45.6019162542287
20
6.18372253397081
30
0
41
1
10
45.6090989835178
20
6.17739547427894
30
0
41
1
10
45.6240804347897
20
6.1658689507922
30
0
41
1
10
45.6397198571522
20
6.15540309256502
30
0
41
1
10
45.6566552877605
20
6.14702649483701
30
0
41
1
10
45.6742628868949
20
6.13973351198749
30
0
41
1
10
45.6832977553969
20
6.13667930045614
30
0
41
1
10
45.701544114485
20
6.1318130406689
30
0
41
1
10
45.7107977435323
20
6.12998325636013
30
0
41
1
10
45.7295671287669
20
6.12753607353631
30
0
41
1
10
45.7391558901394
20
6.12692155494327
30
0
41
1
10
45.7676931424459
20
6.1269830943211
30
0
41
1
10
45.7864005399629
20
6.12948305097575
30
0
41
1
10
45.8139859029979
20
6.13691803837173
30
0
41
1
10
45.8230398968987
20
6.14001163456223
30
0
41
1
10
45.8404765539958
20
6.1472608293931
30
0
41
1
10
45.8489197558545
20
6.1514317303286
30
0
41
1
10
45.8652581324105
20
6.16086168886983
30
0
41
1
10
45.873203684018
20
6.16616101643893
30
0
41
1
10
45.8882623717315
20
6.17769510788602
30
0
41
1
10
45.9024284486576
20
6.19009383299485
30
0
41
1
10
45.9148654967044
20
6.20416733019326
30
0
41
1
10
45.9264214089371
20
6.21909428405445
30
0
41
1
10
45.9317541138752
20
6.22699059509509
30
0
41
1
10
45.9365363882884
20
6.23518190478859
30
0
0
SPLINE
5
170
100
AcDbEntity
8
1
62
256
6
ByLayer
370
18
48
1
60
0
100
AcDbSpline
70
4
71
3
72
8
73
4
40
0
40
0
40
0
40
0
40
1
40
1
40
1
40
1
41
1
10
45.4849859888804
20
6.36813803789198
30
0
41
1
10
45.5103926888602
20
6.32380304168913
30
0
41
1
10
45.5357924726332
20
6.27946290668783
30
0
41
1
10
45.5611851874479
20
6.23511705803384
30
0
0
SPLINE
5
171
100
AcDbEntity
8
1
62
256
6
ByLayer
370
18
48
1
60
0
100
AcDbSpline
70
4
71
3
72
10
73
6
40
0
40
0
40
0
40
0
40
0.169905564833405
40
0.169905564833405
40
1
40
1
40
1
40
1
41
1
10
48.0460501971135
20
1.3688566029565
30
0
41
1
10
48.0298760929934
20
1.36429300502465
30
0
41
1
10
48.0137015342332
20
1.35973237163327
30
0
41
1
10
47.9185014100565
20
1.33290895522404
30
0
41
1
10
47.8394650294047
20
1.31072111619301
30
0
41
1
10
47.7604150101848
20
1.28861581871078
30
0
0
SPLINE
5
172
100
AcDbEntity
8
1
62
256
6
ByLayer
370
13
48
1
60
0
100
AcDbSpline
70
4
71
3
72
10
73
6
40
0
40
0
40
0
40
0
40
0.214792910355295
40
0.698747502870869
40
1
40
1
40
1
40
1
41
1
10
47.7604150101848
20
1.28861581871078
30
0
41
1
10
47.7730199220199
20
0.966487084091995
30
0
41
1
10
47.814025234837
20
-0.0988641354609285
30
0
41
1
10
47.8727092455945
20
-1.64330302127757
30
0
41
1
10
47.9187883575193
20
-2.74951710650205
30
0
41
1
10
47.9364670665797
20
-3.14813387498518
30
0
0
SPLINE
5
173
100
AcDbEntity
8
1
62
256
6
ByLayer
370
18
48
1
60
0
100
AcDbSpline
70
4
71
3
72
12
73
8
40
0
40
0
40
0
40
0
40
0.453420094378446
40
0.453420094378446
40
0.906840154465237
40
0.906840154465237
40
1
40
1
40
1
40
1
41
1
10
47.9364670665797
20
-3.14813387498518
30
0
41
1
10
47.9823148884492
20
-3.19801016009023
30
0
41
1
10
48.0281612448662
20
-3.24791745815435
30
0
41
1
10
48.1198524239721
20
-3.34776731349837
30
0
41
1
10
48.1656972414449
20
-3.39771003434964
30
0
41
1
10
48.2209610639024
20
-3.45792194231825
30
0
41
1
10
48.230380296972
20
-3.46818482538379
30
0
41
1
10
48.2397995238245
20
-3.47844789491424
30
0
0
SPLINE
5
174
100
AcDbEntity
8
1
62
256
6
ByLayer
370
13
48
1
60
0
100
AcDbSpline
70
4
71
3
72
10
73
6
40
0
40
0
40
0
40
0
40
0.309489125040573
40
0.790058633605113
40
1
40
1
40
1
40
1
41
1
10
52.2590234986614
20
1.32418690832432
30
0
41
1
10
52.2773134973797
20
0.857359247890997
30
0
41
1
10
52.3240039001812
20
-0.364061070092618
30
0
41
1
10
52.3831012819706
20
-1.90299407872885
30
0
41
1
10
52.4239086655276
20
-2.86492871055117
30
0
41
1
10
52.4363156504627
20
-3.14472041911179
30
0
0
SPLINE
5
175
100
AcDbEntity
8
1
62
256
6
ByLayer
370
18
48
1
60
0
100
AcDbSpline
70
4
71
3
72
12
73
8
40
0
40
0
40
0
40
0
40
0.276343846955688
40
0.276343846955688
40
0.552687669838538
40
0.552687669838538
40
1
40
1
40
1
40
1
41
1
10
52.4363156504627
20
-3.14472041911176
30
0
41
1
10
52.4821673889424
20
-3.19461941990696
30
0
41
1
10
52.5280175495117
20
-3.24455207973145
30
0
41
1
10
52.619716173392
20
-3.34445669071997
30
0
41
1
10
52.6655646314514
20
-3.39442881898523
30
0
41
1
10
52.7856262823457
20
-3.52531188921478
30
0
41
1
10
52.8598392257638
20
-3.60623057973993
30
0
41
1
10
52.9340520524326
20
-3.68715513244621
30
0
0
SPLINE
5
176
100
AcDbEntity
8
1
62
256
6
ByLayer
370
18
48
1
60
0
100
AcDbSpline
70
4
71
3
72
12
73
8
40
0
40
0
40
0
40
0
40
0.242125424013749
40
0.242125424013749
40
0.520734161152451
40
0.520734161152451
40
1
40
1
40
1
40
1
41
1
10
52.7538951552367
20
1.46307199700848
30
0
41
1
10
52.7139660756996
20
1.45179404202415
30
0
41
1
10
52.6740346212527
20
1.44052847940648
30
0
41
1
10
52.5881492454172
20
1.41633364888329
30
0
41
1
10
52.5421944763073
20
1.40340947057396
30
0
41
1
10
52.4171772861107
20
1.36832330434703
30
0
41
1
10
52.3381072920751
20
1.34621383431374
30
0
41
1
10
52.2590234986615
20
1.32418690832432
30
0
0
SPLINE
5
177
100
AcDbEntity
8
1
62
256
6
ByLayer
370
18
48
1
60
0
100
AcDbSpline
70
4
71
3
72
8
73
4
40
0
40
0
40
0
40
0
40
1
40
1
40
1
40
1
41
1
10
56.0718141187478
20
-3.68506347060045
30
0
41
1
10
56.2350733447362
20
-3.50394358114403
30
0
41
1
10
56.3980901179043
20
-3.32266752016261
30
0
41
1
10
56.5608132399033
20
-3.14168007253576
30
0
0
SPLINE
5
178
100
AcDbEntity
8
1
62
256
6
ByLayer
370
13
48
1
60
0
100
AcDbSpline
70
4
71
3
72
10
73
6
40
0
40
0
40
0
40
0
40
0.405376361530432
40
0.882883570915624
40
1
40
1
40
1
40
1
41
1
10
56.3823842101474
20
1.35678708537478
30
0
41
1
10
56.4064945552933
20
0.742183969288448
30
0
41
1
10
56.4590053269868
20
-0.641765008453859
30
0
41
1
10
56.5184815681257
20
-2.16647485876945
30
0
41
1
10
56.5538475860148
20
-2.98455676612971
30
0
41
1
10
56.5608132399032
20
-3.14168007253576
30
0
0
SPLINE
5
179
100
AcDbEntity
8
1
62
256
6
ByLayer
370
18
48
1
60
0
100
AcDbSpline
70
4
71
3
72
12
73
8
40
0
40
0
40
0
40
0
40
0.278910613582398
40
0.278910613582398
40
0.557821225325325
40
0.557821225325325
40
1
40
1
40
1
40
1
41
1
10
56.3823842101474
20
1.35678708537475
30
0
41
1
10
56.336713545479
20
1.36884331425966
30
0
41
1
10
56.2910344608811
20
1.38092912215495
30
0
41
1
10
56.1996613540616
20
1.40515874277264
30
0
41
1
10
56.1539672997083
20
1.41730303020415
30
0
41
1
10
56.0358138719587
20
1.44877067143958
30
0
41
1
10
55.9633446428717
20
1.46813351651156
30
0
41
1
10
55.8908624822957
20
1.48754304916994
30
0
0
SPLINE
5
17A
100
AcDbEntity
8
1
62
256
6
ByLayer
370
18
48
1
60
0
100
AcDbSpline
70
4
71
3
72
8
73
4
40
0
40
0
40
0
40
0
40
1
40
1
40
1
40
1
41
1
10
56.0718141187478
20
-3.68506347060045
30
0
41
1
10
56.0258608644704
20
-3.68509417718633
30
0
41
1
10
55.9799076101902
20
-3.68512488053338
30
0
41
1
10
55.9339543559072
20
-3.68515558064163
30
0
0
SPLINE
5
17B
100
AcDbEntity
8
1
62
256
6
ByLayer
370
18
48
1
60
0
100
AcDbSpline
70
4
71
3
72
29
73
25
40
0
40
0
40
0
40
0
40
0.124999999999999
40
0.124999999999999
40
0.187499999999999
40
0.187499999999999
40
0.218749999999999
40
0.218749999999999
40
0.249999999999999
40
0.249999999999999
40
0.374999999999999
40
0.374999999999999
40
0.499999999999999
40
0.499999999999999
40
0.624999999999999
40
0.624999999999999
40
0.656249999999999
40
0.656249999999999
40
0.687499999999999
40
0.687499999999999
40
0.75
40
0.75
40
0.875
40
1
40
1
40
1
40
1
41
1
10
56.0718141187478
20
-3.68506347060048
30
0
41
1
10
56.0643551025119
20
-3.49461120289456
30
0
41
1
10
56.0569129194809
20
-3.29867198111415
30
0
41
1
10
56.0456159021831
20
-2.99641798875868
30
0
41
1
10
56.0418238206398
20
-2.89427363548032
30
0
41
1
10
56.0361038633522
20
-2.73893058185178
30
0
41
1
10
56.034191581801
20
-2.68678236515285
30
0
41
1
10
56.030359840924
20
-2.58182030317343
30
0
41
1
10
56.0284472422214
20
-2.52919443740231
30
0
41
1
10
56.0189027369857
20
-2.26534896971984
30
0
41
1
10
56.0113306868594
20
-2.05198582478911
30
0
41
1
10
55.9962966128154
20
-1.62081083773416
30
0
41
1
10
55.9888345197386
20
-1.40299870221884
30
0
41
1
10
55.9738930121749
20
-0.962931979090882
30
0
41
1
10
55.9664102686749
20
-0.74067775022101
30
0
41
1
10
55.9569058505365
20
-0.460014436178426
30
0
41
1
10
55.9549984969753
20
-0.403739150254466
30
0
41
1
10
55.9511725658144
20
-0.290900135651128
30
0
41
1
10
55.9492561825241
20
-0.234401084539456
30
0
41
1
10
55.9435224025783
20
-0.0653580213595717
30
0
41
1
10
55.9397115428669
20
0.0469992279622318
30
0
41
1
10
55.9283219331916
20
0.383075069983278
30
0
41
1
10
55.9132571515646
20
0.828525104435272
30
0
41
1
10
55.8983518052421
20
1.26875234509902
30
0
41
1
10
55.8908624822957
20
1.48754304916994
30
0
0
SPLINE
5
17C
100
AcDbEntity
8
1
62
256
6
ByLayer
370
18
48
1
60
0
100
AcDbSpline
70
4
71
3
72
8
73
4
40
0
40
0
40
0
40
0
40
1
40
1
40
1
40
1
41
1
10
57.6272009073315
20
-3.62263280248652
30
0
41
1
10
57.7719297555993
20
-3.4619477317745
30
0
41
1
10
57.9164604054565
20
-3.30115361194154
30
0
41
1
10
58.0607617909879
20
-3.14061207164354
30
0
0
SPLINE
5
17D
100
AcDbEntity
8
1
62
256
6
ByLayer
370
13
48
1
60
0
100
AcDbSpline
70
4
71
3
72
12
73
8
40
0
40
0
40
0
40
0
40
0.165437007585651
40
0.383893194034446
40
0.602349380483242
40
0.820805566932038
40
1
40
1
40
1
40
1
41
1
10
58.0607617909879
20
-3.14061207164354
30
0
41
1
10
58.050899157046
20
-2.91806472218562
30
0
41
1
10
58.0280131437345
20
-2.3829942512173
30
0
41
1
10
57.9921037808931
20
-1.4902898928336
30
0
41
1
10
57.9530334250449
20
-0.479320775601735
30
0
41
1
10
57.9163037067724
20
0.483224608313776
30
0
41
1
10
57.8925975131363
20
1.09641991707974
30
0
41
1
10
57.8819147370023
20
1.36863952142417
30
0
0
SPLINE
5
17E
100
AcDbEntity
8
1
62
256
6
ByLayer
370
18
48
1
60
0
100
AcDbSpline
70
4
71
3
72
12
73
8
40
0
40
0
40
0
40
0
40
0.317356858794714
40
0.317356858794714
40
0.634713715537304
40
0.634713715537304
40
1
40
1
40
1
40
1
41
1
10
57.8819147370023
20
1.36863952142417
30
0
41
1
10
57.8366292288184
20
1.38058310858497
30
0
41
1
10
57.7913350636535
20
1.39255577037082
30
0
41
1
10
57.7007313561884
20
1.41655812438103
30
0
41
1
10
57.6554217836004
20
1.42858824922015
30
0
41
1
10
57.5579450584983
20
1.4545229725189
30
0
41
1
10
57.505775741971
20
1.46843546389337
30
0
41
1
10
57.4535988729507
20
1.4823751993446
30
0
0
SPLINE
5
17F
100
AcDbEntity
8
1
62
256
6
ByLayer
370
13
48
1
60
0
100
AcDbSpline
70
4
71
3
72
10
73
6
40
0
40
0
40
0
40
0
40
0.212449035509516
40
0.690783834079375
40
1
40
1
40
1
40
1
41
1
10
55.2580940774723
20
1.34788020739424
30
0
41
1
10
55.2707079170153
20
1.02621754311042
30
0
41
1
10
55.3117221604249
20
-0.037930902042433
30
0
41
1
10
55.3710956356144
20
-1.60253597464307
30
0
41
1
10
55.4178552736828
20
-2.72825696471233
30
0
41
1
10
55.4362145128203
20
-3.14246531057179
30
0
0
SPLINE
5
180
100
AcDbEntity
8
1
62
256
6
ByLayer
370
18
48
1
60
0
100
AcDbSpline
70
4
71
3
72
12
73
8
40
0
40
0
40
0
40
0
40
0.276330076692306
40
0.276330076692306
40
0.552660126973323
40
0.552660126973323
40
1
40
1
40
1
40
1
41
1
10
55.4362145128204
20
-3.14246531057176
30
0
41
1
10
55.4820636475448
20
-3.1923808373418
30
0
41
1
10
55.527911365591
20
-3.24233178973714
30
0
41
1
10
55.6196054566717
20
-3.34227557443791
30
0
41
1
10
55.6654518243152
20
-3.39226859466746
30
0
41
1
10
55.7855167287373
20
-3.52321837948648
30
0
41
1
10
55.8597353153728
20
-3.60418453572268
30
0
41
1
10
55.9339543559072
20
-3.68515558064163
30
0
0
SPLINE
5
181
100
AcDbEntity
8
1
62
256
6
ByLayer
370
18
48
1
60
0
100
AcDbSpline
70
4
71
3
72
29
73
25
40
0
40
0
40
0
40
0
40
0.125
40
0.125
40
0.249999999999999
40
0.249999999999999
40
0.281249999999999
40
0.281249999999999
40
0.312499999999999
40
0.312499999999999
40
0.375
40
0.375
40
0.5
40
0.625
40
0.625
40
0.6875
40
0.6875
40
0.71875
40
0.71875
40
0.75
40
0.75
40
0.875
40
0.875
40
1
40
1
40
1
40
1
41
1
10
55.7529624535265
20
1.48646754664517
30
0
41
1
10
55.7604504687528
20
1.26827641494648
30
0
41
1
10
55.7678879088885
20
1.04834926803108
30
0
41
1
10
55.7828201078869
20
0.605026724764429
30
0
41
1
10
55.7903355464072
20
0.381632245209289
30
0
41
1
10
55.7998625299081
20
0.100164882940874
30
0
41
1
10
55.8017729889993
20
0.0437598998749706
30
0
41
1
10
55.8056028127628
20
-0.0692756458474264
30
0
41
1
10
55.8075161553823
20
-0.125728522147966
30
0
41
1
10
55.8132424068908
20
-0.294664115640416
30
0
41
1
10
55.817044708099
20
-0.406824020816117
30
0
41
1
10
55.8284045557089
20
-0.741936533324292
30
0
41
1
10
55.8434188960798
20
-1.18511361830531
30
0
41
1
10
55.858318484054
20
-1.62111192755955
30
0
41
1
10
55.869588338771
20
-1.94538107138069
30
0
41
1
10
55.8733633478468
20
-2.05301502380234
30
0
41
1
10
55.8790702257772
20
-2.21377057429726
30
0
41
1
10
55.8809789937806
20
-2.26723984052941
30
0
41
1
10
55.884807707136
20
-2.37394409274288
30
0
41
1
10
55.8867272034718
20
-2.42716571240805
30
0
41
1
10
55.8962972030594
20
-2.69125410479981
30
0
41
1
10
55.9039020611875
20
-2.89722839062651
30
0
41
1
10
55.9189930482961
20
-3.29889676521088
30
0
41
1
10
55.9264792782797
20
-3.49459005763606
30
0
41
1
10
55.9339543559072
20
-3.68515558064158
30
0
0
SPLINE
5
182
100
AcDbEntity
8
1
62
256
6
ByLayer
370
18
48
1
60
0
100
AcDbSpline
70
4
71
3
72
12
73
8
40
0
40
0
40
0
40
0
40
0.241815523627387
40
0.241815523627387
40
0.520377039580722
40
0.520377039580722
40
1
40
1
40
1
40
1
41
1
10
55.7529624535265
20
1.48646754664517
30
0
41
1
10
55.7130847842036
20
1.47522772198334
30
0
41
1
10
55.6732047307769
20
1.46400034176821
30
0
41
1
10
55.5873788681941
20
1.43987337443417
30
0
41
1
10
55.54143220227
20
1.42697893672448
30
0
41
1
10
55.4163647302242
20
1.39195369768822
30
0
41
1
10
55.3372363239525
20
1.36987559926766
30
0
41
1
10
55.2580940774723
20
1.34788020739424
30
0
0
SPLINE
5
183
100
AcDbEntity
8
1
62
256
6
ByLayer
370
18
48
1
60
0
100
AcDbSpline
70
4
71
3
72
8
73
4
40
0
40
0
40
0
40
0
40
1
40
1
40
1
40
1
41
1
10
54.5717855714989
20
-3.68606465963902
30
0
41
1
10
54.7350711290549
20
-3.50496816859618
30
0
41
1
10
54.8981159776043
20
-3.32371606475394
30
0
41
1
10
55.0608679746242
20
-3.14273962261112
30
0
0
SPLINE
5
184
100
AcDbEntity
8
1
62
256
6
ByLayer
370
13
48
1
60
0
100
AcDbSpline
70
4
71
3
72
10
73
6
40
0
40
0
40
0
40
0
40
0.214847096207424
40
0.693446601946267
40
1
40
1
40
1
40
1
41
1
10
54.882845905941
20
1.34490497649753
30
0
41
1
10
54.8955950782804
20
1.01976204444136
30
0
41
1
10
54.9367446727752
20
-0.0481452556090005
30
0
41
1
10
54.9960853976435
20
-1.61136252942595
30
0
41
1
10
55.0426769002517
20
-2.7323361749778
30
0
41
1
10
55.0608679746242
20
-3.14273962261112
30
0
0
SPLINE
5
185
100
AcDbEntity
8
1
62
256
6
ByLayer
370
18
48
1
60
0
100
AcDbSpline
70
4
71
3
72
12
73
8
40
0
40
0
40
0
40
0
40
0.278850475160541
40
0.278850475160541
40
0.557700948518813
40
0.557700948518813
40
1
40
1
40
1
40
1
41
1
10
54.882845905941
20
1.34490497649753
30
0
41
1
10
54.8371656644681
20
1.35697564385953
30
0
41
1
10
54.7914774640776
20
1.36907592317257
30
0
41
1
10
54.7000869434951
20
1.39333454397789
30
0
41
1
10
54.6543845909789
20
1.40549337250309
30
0
41
1
10
54.5361753117289
20
1.43700796851954
30
0
41
1
10
54.4636590643191
20
1.45640327501388
30
0
41
1
10
54.3911306335592
20
1.47584525371406
30
0
0
SPLINE
5
186
100
AcDbEntity
8
1
62
256
6
ByLayer
370
18
48
1
60
0
100
AcDbSpline
70
4
71
3
72
8
73
4
40
0
40
0
40
0
40
0
40
1
40
1
40
1
40
1
41
1
10
51.5717969090087
20
-3.6880600910703
30
0
41
1
10
51.7351086601713
20
-3.50705259960597
30
0
41
1
10
51.89818173111
20
-3.32589070939758
30
0
41
1
10
52.0609606586351
20
-3.14497775681045
30
0
0
SPLINE
5
187
100
AcDbEntity
8
1
62
256
6
ByLayer
370
13
48
1
60
0
100
AcDbSpline
70
4
71
3
72
10
73
6
40
0
40
0
40
0
40
0
40
0.311965498389201
40
0.792825453737332
40
1
40
1
40
1
40
1
41
1
10
51.8837756843927
20
1.32122320195248
30
0
41
1
10
51.902200876766
20
0.850874922837619
30
0
41
1
10
51.9490264316548
20
-0.374435652846813
30
0
41
1
10
52.0080880882002
20
-1.91178177144448
30
0
41
1
10
52.0487245758123
20
-2.86905963539178
30
0
41
1
10
52.0609606586351
20
-3.14497775681048
30
0
0
SPLINE
5
188
100
AcDbEntity
8
1
62
256
6
ByLayer
370
18
48
1
60
0
100
AcDbSpline
70
4
71
3
72
12
73
8
40
0
40
0
40
0
40
0
40
0.278915181892096
40
0.278915181892096
40
0.557830362024573
40
0.557830362024573
40
1
40
1
40
1
40
1
41
1
10
51.8837756843926
20
1.32122320195245
30
0
41
1
10
51.8380754788246
20
1.33332278438684
30
0
41
1
10
51.7923680957671
20
1.34545202950946
30
0
41
1
10
51.7009406051589
20
1.3697686699598
30
0
41
1
10
51.6552204651159
20
1.38195657875198
30
0
41
1
10
51.5370048522566
20
1.41353603037382
30
0
41
1
10
51.4645010179424
20
1.43296697950336
30
0
41
1
10
51.3919863107706
20
1.4524444113905
30
0
0
SPLINE
5
189
100
AcDbEntity
8
1
62
256
6
ByLayer
370
13
48
1
60
0
100
AcDbSpline
70
4
71
3
72
11
73
7
40
0
40
0
40
0
40
0
40
0.0211419877005642
40
0.500578523789493
40
0.980015059878421
40
1
40
1
40
1
40
1
41
1
10
53.7585567759826
20
1.33607610075961
30
0
41
1
10
53.7598091646664
20
1.30412863433458
30
0
41
1
10
53.7894619525749
20
0.546396593966733
30
0
41
1
10
53.8475151368819
20
-0.993734011576436
30
0
41
1
10
53.9054997971836
20
-2.44693441323886
30
0
41
1
10
53.9350840478999
20
-3.11706229247034
30
0
41
1
10
53.9362678966216
20
-3.14376141537764
30
0
0
SPLINE
5
18A
100
AcDbEntity
8
1
62
256
6
ByLayer
370
18
48
1
60
0
100
AcDbSpline
70
4
71
3
72
12
73
8
40
0
40
0
40
0
40
0
40
0.276435410144977
40
0.276435410144977
40
0.552870795092099
40
0.552870795092099
40
1
40
1
40
1
40
1
41
1
10
53.9362678966215
20
-3.14376141537764
30
0
41
1
10
53.9821113086986
20
-3.19367135937964
30
0
41
1
10
54.027953418813
20
-3.24361575039137
30
0
41
1
10
54.1196364406755
20
-3.34354496823553
30
0
41
1
10
54.1654773471562
20
-3.39352997731362
30
0
41
1
10
54.285464854993
20
-3.52438818904724
30
0
41
1
10
54.3596115708462
20
-3.60526978335787
30
0
41
1
10
54.4337587046156
20
-3.68615666962631
30
0
0
SPLINE
5
18B
100
AcDbEntity
8
1
62
256
6
ByLayer
370
18
48
1
60
0
100
AcDbSpline
70
4
71
3
72
12
73
8
40
0
40
0
40
0
40
0
40
0.241622670896879
40
0.241622670896879
40
0.520299797499317
40
0.520299797499317
40
1
40
1
40
1
40
1
41
1
10
54.2532317739194
20
1.47476952376545
30
0
41
1
10
54.2134013923819
20
1.46353032297412
30
0
41
1
10
54.1735686527632
20
1.45230349607962
30
0
41
1
10
54.0877889769608
20
1.42816186935082
30
0
41
1
10
54.0418411841875
20
1.4152522423957
30
0
41
1
10
53.9167907995477
20
1.38019113185496
30
0
41
1
10
53.8376806602496
20
1.35809228795625
30
0
41
1
10
53.7585567759826
20
1.33607610075958
30
0
0
SPLINE
5
18C
100
AcDbEntity
8
1
62
256
6
ByLayer
370
18
48
1
60
0
100
AcDbSpline
70
4
71
3
72
8
73
4
40
0
40
0
40
0
40
0
40
1
40
1
40
1
40
1
41
1
10
54.5717855714989
20
-3.68606465963902
30
0
41
1
10
54.5257766158739
20
-3.68609533288111
30
0
41
1
10
54.4797676602462
20
-3.68612600287688
30
0
41
1
10
54.4337587046156
20
-3.68615666962631
30
0
0
SPLINE
5
18D
100
AcDbEntity
8
1
62
256
6
ByLayer
370
18
48
1
60
0
100
AcDbSpline
70
4
71
3
72
28
73
24
40
0
40
0
40
0
40
0
40
0.125
40
0.125
40
0.250000000000001
40
0.250000000000001
40
0.375000000000001
40
0.375000000000001
40
0.406250000000001
40
0.406250000000001
40
0.437500000000001
40
0.5
40
0.5
40
0.625
40
0.75
40
0.75
40
0.8125
40
0.8125
40
0.84375
40
0.84375
40
0.875
40
0.875
40
1
40
1
40
1
40
1
41
1
10
54.5717855714989
20
-3.68606465963902
30
0
41
1
10
54.5641889473678
20
-3.49453283650891
30
0
41
1
10
54.5566641127269
20
-3.29863839297613
30
0
41
1
10
54.5417108830921
20
-2.89832076054259
30
0
41
1
10
54.5342824858586
20
-2.69389719444587
30
0
41
1
10
54.5193661983224
20
-2.27649028114024
30
0
41
1
10
54.5118581413156
20
-2.06350826192596
30
0
41
1
10
54.5023367208068
20
-1.79176627326072
30
0
41
1
10
54.500425078609
20
-1.73708078299137
30
0
41
1
10
54.4966114991779
20
-1.62769723374925
30
0
41
1
10
54.49090033937
20
-1.46345431874047
30
0
41
1
10
54.4852210382906
20
-1.29871404012994
30
0
41
1
10
54.4739063830341
20
-0.96858059489881
30
0
41
1
10
54.458944010639
20
-0.526664255575923
30
0
41
1
10
54.4440820740553
20
-0.0813141420974546
30
0
41
1
10
54.4328370185367
20
0.25400169573183
30
0
41
1
10
54.4290699382719
20
0.365991132142057
30
0
41
1
10
54.4233732690548
20
0.534306848537994
30
0
41
1
10
54.4214654216485
20
0.59053118159008
30
0
41
1
10
54.4176484040244
20
0.702782251611637
30
0
41
1
10
54.4157417363743
20
0.758735794266528
30
0
41
1
10
54.4062210422573
20
1.03765302393808
30
0
41
1
10
54.3986493576287
20
1.25807132576927
30
0
41
1
10
54.3911306335592
20
1.47584525371408
30
0
0
SPLINE
5
18E
100
AcDbEntity
8
1
62
256
6
ByLayer
370
18
48
1
60
0
100
AcDbSpline
70
4
71
3
72
29
73
25
40
0
40
0
40
0
40
0
40
0.0625000000000005
40
0.0625000000000005
40
0.0937500000000005
40
0.0937500000000005
40
0.125000000000001
40
0.125000000000001
40
0.250000000000001
40
0.250000000000001
40
0.375000000000002
40
0.375000000000002
40
0.500000000000003
40
0.500000000000003
40
0.531250000000003
40
0.531250000000003
40
0.562500000000003
40
0.562500000000003
40
0.625000000000003
40
0.625000000000003
40
0.750000000000002
40
0.875000000000001
40
0.875000000000001
40
1
40
1
40
1
40
1
41
1
10
54.2532317739194
20
1.47476952376547
30
0
41
1
10
54.2569857497841
20
1.36565563488813
30
0
41
1
10
54.2607649334891
20
1.25577201668153
30
0
41
1
10
54.2664624142862
20
1.08977344541589
30
0
41
1
10
54.2683662833251
20
1.03424497598769
30
0
41
1
10
54.2721821492945
20
0.922792657358684
30
0
41
1
10
54.2740958373679
20
0.866819032794723
30
0
41
1
10
54.2836329299335
20
0.58740388817003
30
0
41
1
10
54.2911922655507
20
0.364318517514675
30
0
41
1
10
54.3061879357736
20
-0.0809855480734427
30
0
41
1
10
54.3136243824085
20
-0.303204167835844
30
0
41
1
10
54.3285017037332
20
-0.746773807942503
30
0
41
1
10
54.3359461808164
20
-0.96812474076745
30
0
41
1
10
54.3453929048393
20
-1.24425414405479
30
0
41
1
10
54.3472882097072
20
-1.29945203921005
30
0
41
1
10
54.3510891188718
20
-1.40979135806714
30
0
41
1
10
54.3529971130284
20
-1.46500167753609
30
0
41
1
10
54.3587162969211
20
-1.63001546728373
30
0
41
1
10
54.3625160444086
20
-1.73901909161995
30
0
41
1
10
54.3738692380893
20
-2.06307309812556
30
0
41
1
10
54.3888774146051
20
-2.48727361384911
30
0
41
1
10
54.4037174051531
20
-2.89602873426205
30
0
41
1
10
54.41862601032
20
-3.29699957178968
30
0
41
1
10
54.4261324295528
20
-3.49359304438872
30
0
41
1
10
54.4337587046156
20
-3.68615666962634
30
0
0
SPLINE
5
18F
100
AcDbEntity
8
1
62
256
6
ByLayer
370
13
48
1
60
0
100
AcDbSpline
70
4
71
3
72
10
73
6
40
0
40
0
40
0
40
0
40
0.11751631017582
40
0.599199979602825
40
1
40
1
40
1
40
1
41
1
10
50.7594853174617
20
1.3123511056209
30
0
41
1
10
50.7664141601338
20
1.13544479827655
30
0
41
1
10
50.8017434033799
20
0.225010510838928
30
0
41
1
10
50.8607040841318
20
-1.33737516334955
30
0
41
1
10
50.912735935851
20
-2.61298798058596
30
0
41
1
10
50.9363673824519
20
-3.14597660022915
30
0
0
SPLINE
5
190
100
AcDbEntity
8
1
62
256
6
ByLayer
370
18
48
1
60
0
100
AcDbSpline
70
4
71
3
72
12
73
8
40
0
40
0
40
0
40
0
40
0.276420081536397
40
0.276420081536397
40
0.552840140114937
40
0.552840140114937
40
1
40
1
40
1
40
1
41
1
10
50.9363673824519
20
-3.14597660022915
30
0
41
1
10
50.9822184457424
20
-3.19586795338242
30
0
41
1
10
51.0280680586543
20
-3.24579202146467
30
0
41
1
10
51.1197658329125
20
-3.3456780034428
30
0
41
1
10
51.1656139889404
20
-3.39564008955526
30
0
41
1
10
51.2856294098691
20
-3.52644527837651
30
0
41
1
10
51.3597966085742
20
-3.60729534911567
30
0
41
1
10
51.4339639245492
20
-3.68815154911115
30
0
0
SPLINE
5
191
100
AcDbEntity
8
1
62
256
6
ByLayer
370
18
48
1
60
0
100
AcDbSpline
70
4
71
3
72
12
73
8
40
0
40
0
40
0
40
0
40
0.241849581539233
40
0.241849581539233
40
0.520537225855741
40
0.520537225855741
40
1
40
1
40
1
40
1
41
1
10
51.2541279980101
20
1.45136852178138
30
0
41
1
10
51.2142625964277
20
1.44009293435158
30
0
41
1
10
51.1743948859028
20
1.42882966287129
30
0
41
1
10
51.0885814188446
20
1.40462113446284
30
0
41
1
10
51.0426348276815
20
1.39168099682473
30
0
41
1
10
50.9176300329789
20
1.35654841836043
30
0
41
1
10
50.8385644242769
20
1.33440848442953
30
0
41
1
10
50.7594853174617
20
1.31235110562093
30
0
0
SPLINE
5
192
100
AcDbEntity
8
1
62
256
6
ByLayer
370
18
48
1
60
0
100
AcDbSpline
70
4
71
3
72
8
73
4
40
0
40
0
40
0
40
0
40
1
40
1
40
1
40
1
41
1
10
53.07195801694
20
-3.68706341450175
30
0
41
1
10
53.2352029872685
20
-3.5060596416001
30
0
41
1
10
53.3982073101839
20
-3.32490050618711
30
0
41
1
10
53.5609165205773
20
-3.14400264340529
30
0
0
SPLINE
5
193
100
AcDbEntity
8
1
62
256
6
ByLayer
370
13
48
1
60
0
100
AcDbSpline
70
4
71
3
72
11
73
7
40
0
40
0
40
0
40
0
40
0.0234604550593553
40
0.503165654256675
40
0.982870853453995
40
1
40
1
40
1
40
1
41
1
10
53.3833048128541
20
1.33310333507589
30
0
41
1
10
53.384693762474
20
1.29766901755914
30
0
41
1
10
53.4144831149318
20
0.536238369224009
30
0
41
1
10
53.4726729075557
20
-1.00749749034557
30
0
41
1
10
53.5304878561859
20
-2.45531646361229
30
0
41
1
10
53.5599024075702
20
-3.12113336141479
30
0
41
1
10
53.5609165205773
20
-3.14400264340526
30
0
0
SPLINE
5
194
100
AcDbEntity
8
1
62
256
6
ByLayer
370
18
48
1
60
0
100
AcDbSpline
70
4
71
3
72
12
73
8
40
0
40
0
40
0
40
0
40
0.278966844309874
40
0.278966844309874
40
0.557933686831424
40
0.557933686831424
40
1
40
1
40
1
40
1
41
1
10
53.3833048128541
20
1.33310333507586
30
0
41
1
10
53.3376170983709
20
1.345188770345
30
0
41
1
10
53.2919217574061
20
1.35730383752036
30
0
41
1
10
53.2005175498003
20
1.38159206830707
30
0
41
1
10
53.1548086506136
20
1.39376573374906
30
0
41
1
10
53.0366515220266
20
1.42530032908556
30
0
41
1
10
52.9641944032688
20
1.44470062762761
30
0
41
1
10
52.8917256756614
20
1.46414743124217
30
0
0
SPLINE
5
195
100
AcDbEntity
8
1
62
256
6
ByLayer
370
18
48
1
60
0
100
AcDbSpline
70
4
71
3
72
8
73
4
40
0
40
0
40
0
40
0
40
1
40
1
40
1
40
1
41
1
10
48.7242150391244
20
-3.52133600744807
30
0
41
1
10
48.8366278677401
20
-3.39666834762789
30
0
41
1
10
48.9489168476406
20
-3.27195108079019
30
0
41
1
10
49.061067263649
20
-3.14736195249253
30
0
0
SPLINE
5
196
100
AcDbEntity
8
1
62
256
6
ByLayer
370
13
48
1
60
0
100
AcDbSpline
70
4
71
3
72
10
73
6
40
0
40
0
40
0
40
0
40
0.409972083311832
40
0.893078553297469
40
1
40
1
40
1
40
1
41
1
10
48.8847061279467
20
1.29752171463636
30
0
41
1
10
48.9088071840154
20
0.681845647019571
30
0
41
1
10
48.9613086117975
20
-0.702794984001713
30
0
41
1
10
49.0200956464795
20
-2.20579600991161
30
0
41
1
10
49.05478166397
20
-3.00568093930903
30
0
41
1
10
49.061067263649
20
-3.14736195249253
30
0
0
SPLINE
5
197
100
AcDbEntity
8
1
62
256
6
ByLayer
370
18
48
1
60
0
100
AcDbSpline
70
4
71
3
72
12
73
8
40
0
40
0
40
0
40
0
40
0.421490465078214
40
0.421490465078214
40
0.842980927541247
40
0.842980927541247
40
1
40
1
40
1
40
1
41
1
10
48.8847061279467
20
1.29752171463636
30
0
41
1
10
48.8389874848458
20
1.30965031219864
30
0
41
1
10
48.7932624028868
20
1.32180862046334
30
0
41
1
10
48.7018008327647
20
1.34618347036292
30
0
41
1
10
48.6560643120714
20
1.35840054961076
30
0
41
1
10
48.5932825730665
20
1.37520585677817
30
0
41
1
10
48.5762416606937
20
1.37977081326787
30
0
41
1
10
48.5592000971635
20
1.38433917073436
30
0
0
SPLINE
5
198
100
AcDbEntity
8
1
62
256
6
ByLayer
370
18
48
1
60
0
100
AcDbSpline
70
4
71
3
72
29
73
25
40
0
40
0
40
0
40
0
40
0.125
40
0.125
40
0.249999999999999
40
0.249999999999999
40
0.374999999999999
40
0.374999999999999
40
0.406249999999999
40
0.406249999999999
40
0.437499999999999
40
0.499999999999999
40
0.499999999999999
40
0.624999999999999
40
0.624999999999999
40
0.749999999999999
40
0.749999999999999
40
0.812499999999999
40
0.812499999999999
40
0.84375
40
0.84375
40
0.875
40
0.875
40
1
40
1
40
1
40
1
41
1
10
48.0460501971135
20
1.36885660295647
30
0
41
1
10
48.0541468799341
20
1.16322787090084
30
0
41
1
10
48.0621560577762
20
0.956842577899721
30
0
41
1
10
48.078158191479
20
0.542603189035447
30
0
41
1
10
48.0861671822892
20
0.334749803770421
30
0
41
1
10
48.1023410894465
20
-0.0824195565038224
30
0
41
1
10
48.1104755755024
20
-0.291736933837427
30
0
41
1
10
48.1206731267905
20
-0.554326732317037
30
0
41
1
10
48.1227156342338
20
-0.606924235682328
30
0
41
1
10
48.1267990888436
20
-0.712075463380899
30
0
41
1
10
48.1329060007744
20
-0.869323676579
30
0
41
1
10
48.1389614767234
20
-1.02515234456143
30
0
41
1
10
48.1510219465693
20
-1.33494791600484
30
0
41
1
10
48.1589918866499
20
-1.53899989498814
30
0
41
1
10
48.1749629367649
20
-1.9422117761616
30
0
41
1
10
48.1829898693983
20
-2.14137162896785
30
0
41
1
10
48.1951377670639
20
-2.43639587597141
30
0
41
1
10
48.1991997076304
20
-2.5341170562227
30
0
41
1
10
48.2053066690393
20
-2.67975334888303
30
0
41
1
10
48.2073447167834
20
-2.72814113273509
30
0
41
1
10
48.2114254288532
20
-2.82459804420489
30
0
41
1
10
48.2134660366386
20
-2.87261819556278
30
0
41
1
10
48.2236445785661
20
-3.11105986705408
30
0
41
1
10
48.2317296224194
20
-3.29710309044972
30
0
41
1
10
48.2397995238189
20
-3.47844789490898
30
0
0
SPLINE
5
199
100
AcDbEntity
8
1
62
256
6
ByLayer
370
18
48
1
60
0
100
AcDbSpline
70
4
71
3
72
8
73
4
40
0
40
0
40
0
40
0
40
1
40
1
40
1
40
1
41
1
10
48.2397995238373
20
-3.47844789490963
30
0
41
1
10
48.4012711059926
20
-3.49274380480526
30
0
41
1
10
48.5627429467963
20
-3.5070398414409
30
0
41
1
10
48.7242150391244
20
-3.5213360074481
30
0
0
SPLINE
5
19A
100
AcDbEntity
8
1
62
256
6
ByLayer
370
18
48
1
60
0
100
AcDbSpline
70
4
71
3
72
29
73
25
40
0
40
0
40
0
40
0
40
0.125
40
0.125
40
0.250000000000001
40
0.250000000000001
40
0.375000000000001
40
0.375000000000001
40
0.406250000000001
40
0.406250000000001
40
0.437500000000001
40
0.500000000000001
40
0.500000000000001
40
0.625000000000001
40
0.625000000000001
40
0.750000000000001
40
0.750000000000001
40
0.812500000000001
40
0.812500000000001
40
0.843750000000001
40
0.843750000000001
40
0.875000000000001
40
0.875000000000001
40
1
40
1
40
1
40
1
41
1
10
48.7242150391244
20
-3.52133600744807
30
0
41
1
10
48.7173699365502
20
-3.3385422661967
30
0
41
1
10
48.7105759594228
20
-3.15179553963472
30
0
41
1
10
48.6968979674928
20
-2.77057894656991
30
0
41
1
10
48.6900197038545
20
-2.57610892926121
30
0
41
1
10
48.6762536351862
20
-2.17943178683731
30
0
41
1
10
48.6693660799451
20
-1.97722516190944
30
0
41
1
10
48.6607353653629
20
-1.71949317064045
30
0
41
1
10
48.6590057741231
20
-1.66763296458004
30
0
41
1
10
48.6555539400586
20
-1.56375037406096
30
0
41
1
10
48.6503902944945
20
-1.40778030530129
30
0
41
1
10
48.645261367605
20
-1.25137665381743
30
0
41
1
10
48.6350223627827
20
-0.938000835932201
30
0
41
1
10
48.6282181572387
20
-0.728326884258649
30
0
41
1
10
48.614484695431
20
-0.307486678110308
30
0
41
1
10
48.6075785121938
20
-0.0963199396942116
30
0
41
1
10
48.5972019943247
20
0.22156728684908
30
0
41
1
10
48.5937395669116
20
0.327719505428036
30
0
41
1
10
48.5885390346518
20
0.48723744081488
30
0
41
1
10
48.5868031101274
20
0.540495697431055
30
0
41
1
10
48.5833336617997
20
0.646936447043259
30
0
41
1
10
48.5816022548983
20
0.700053959709351
30
0
41
1
10
48.5729586988136
20
0.965129223872253
30
0
41
1
10
48.5660907053109
20
1.17555366865636
30
0
41
1
10
48.5592000971635
20
1.38433917073348
30
0
0
SPLINE
5
19B
100
AcDbEntity
8
1
62
256
6
ByLayer
370
18
48
1
60
0
100
AcDbSpline
70
4
71
3
72
8
73
4
40
0
40
0
40
0
40
0
40
1
40
1
40
1
40
1
41
1
10
48.5592000971635
20
1.38433917073436
30
0
41
1
10
48.3881501291978
20
1.37917768526916
30
0
41
1
10
48.2171001625728
20
1.37401678452869
30
0
41
1
10
48.0460501971135
20
1.36885660295647
30
0
0
SPLINE
5
19C
100
AcDbEntity
8
1
62
256
6
ByLayer
370
18
48
1
60
0
100
AcDbSpline
70
4
71
3
72
12
73
8
40
0
40
0
40
0
40
0
40
0.103757998697425
40
0.103757998697425
40
0.433233115154801
40
0.433233115154801
40
1
40
1
40
1
40
1
41
1
10
49.6783335432796
20
1.41811631560995
30
0
41
1
10
49.6638668860015
20
1.41402587250792
30
0
41
1
10
49.649399905486
20
1.40993732320408
30
0
41
1
10
49.5889928029087
20
1.39287448358024
30
0
41
1
10
49.5430496403181
20
1.37991882801504
30
0
41
1
10
49.4180642346405
20
1.344746732354
30
0
41
1
10
49.3390145797625
20
1.32258275830569
30
0
41
1
10
49.2599514131055
20
1.30050132818602
30
0
0
SPLINE
5
19D
100
AcDbEntity
8
1
62
256
6
ByLayer
370
13
48
1
60
0
100
AcDbSpline
70
4
71
3
72
10
73
6
40
0
40
0
40
0
40
0
40
0.407444200673143
40
0.890264050933691
40
1
40
1
40
1
40
1
41
1
10
49.2599514131055
20
1.30050132818602
30
0
41
1
10
49.2839180722782
20
0.688306484841064
30
0
41
1
10
49.3362851373994
20
-0.692483523443684
30
0
41
1
10
49.3951070813169
20
-2.19727104206601
30
0
41
1
10
49.4299623617297
20
-3.00157530852175
30
0
41
1
10
49.4364172428561
20
-3.14707839227182
30
0
0
SPLINE
5
19E
100
AcDbEntity
8
1
62
256
6
ByLayer
370
18
48
1
60
0
100
AcDbSpline
70
4
71
3
72
12
73
8
40
0
40
0
40
0
40
0
40
0.314739958190336
40
0.314739958190336
40
0.629479891453238
40
0.629479891453238
40
1
40
1
40
1
40
1
41
1
10
49.436417242856
20
-3.14707839227179
30
0
41
1
10
49.4822740554472
20
-3.19695959575822
30
0
41
1
10
49.5281296312827
20
-3.24687256943582
30
0
41
1
10
49.6198396410203
20
-3.34673492987847
30
0
41
1
10
49.6656940697852
20
-3.39668448428247
30
0
41
1
10
49.765529371623
20
-3.50545147133394
30
0
41
1
10
49.8195103076035
20
-3.56426939658948
30
0
41
1
10
49.8734913622008
20
-3.62309098927719
30
0
0
SPLINE
5
19F
100
AcDbEntity
8
1
62
256
6
ByLayer
370
18
48
1
60
0
100
AcDbSpline
70
4
71
3
72
8
73
4
40
0
40
0
40
0
40
0
40
1
40
1
40
1
40
1
41
1
10
50.112468437771
20
-3.64425022000307
30
0
41
1
10
50.2622033130867
20
-3.47826614634368
30
0
41
1
10
50.4117323702146
20
-3.31215830097398
30
0
41
1
10
50.5610146632553
20
-3.14626034930751
30
0
0
SPLINE
5
1A0
100
AcDbEntity
8
1
62
256
6
ByLayer
370
13
48
1
60
0
100
AcDbSpline
70
4
71
3
72
10
73
6
40
0
40
0
40
0
40
0
40
0.119877379279309
40
0.601848603517905
40
1
40
1
40
1
40
1
41
1
10
50.3842381928318
20
1.30938004500882
30
0
41
1
10
50.3913020275693
20
1.12900623543578
30
0
41
1
10
50.4267662628434
20
0.214849665526231
30
0
41
1
10
50.4856918167425
20
-1.34634896487626
30
0
41
1
10
50.537553417801
20
-2.61709834675847
30
0
41
1
10
50.5610146632553
20
-3.14626034930751
30
0
0
SPLINE
5
1A1
100
AcDbEntity
8
1
62
256
6
ByLayer
370
18
48
1
60
0
100
AcDbSpline
70
4
71
3
72
12
73
8
40
0
40
0
40
0
40
0
40
0.313397657233756
40
0.313397657233756
40
0.626795312506326
40
0.626795312506326
40
1
40
1
40
1
40
1
41
1
10
50.3842381928318
20
1.30938004500882
30
0
41
1
10
50.338532148474
20
1.32149448094881
30
0
41
1
10
50.2928192793018
20
1.33363860316206
30
0
41
1
10
50.2013814423572
20
1.35798503839692
30
0
41
1
10
50.1556564418842
20
1.37018787748192
30
0
41
1
10
50.0554689112105
20
1.39698135405919
30
0
41
1
10
50.001004201651
20
1.41158245632494
30
0
41
1
10
49.9465332920913
20
1.42621254157012
30
0
0
SPLINE
5
1A2
100
AcDbEntity
8
1
62
256
6
ByLayer
370
18
48
1
60
0
100
AcDbSpline
70
4
71
3
72
26
73
22
40
0
40
0
40
0
40
0
40
0.125
40
0.125
40
0.25
40
0.25
40
0.375
40
0.375
40
0.40625
40
0.40625
40
0.4375
40
0.5
40
0.5
40
0.625
40
0.75
40
0.75
40
0.8125
40
0.8125
40
0.875000000000001
40
0.875000000000001
40
1
40
1
40
1
40
1
41
1
10
49.6783335432796
20
1.41811631560995
30
0
41
1
10
49.6865495237446
20
1.20429534353909
30
0
41
1
10
49.6947185102699
20
0.989603443458492
30
0
41
1
10
49.7109505212422
20
0.558515755125825
30
0
41
1
10
49.7190135738839
20
0.342119892266567
30
0
41
1
10
49.7351359921624
20
-0.0923776043917428
30
0
41
1
10
49.7431950326051
20
-0.310479136432861
30
0
41
1
10
49.7534041500004
20
-0.584198176028963
30
0
41
1
10
49.7554520285937
20
-0.638958917767553
30
0
41
1
10
49.7595438539337
20
-0.748042055503561
30
0
41
1
10
49.765681757503
20
-0.911206632306317
30
0
41
1
10
49.7718110743334
20
-1.07300455168567
30
0
41
1
10
49.7840443395444
20
-1.3948028086246
30
0
41
1
10
49.8002806910839
20
-1.81908135363491
30
0
41
1
10
49.8163909147347
20
-2.23385701036813
30
0
41
1
10
49.8285207037167
20
-2.54130660571047
30
0
41
1
10
49.8325737493045
20
-2.64320837276296
30
0
41
1
10
49.8407205672974
20
-2.84567377795946
30
0
41
1
10
49.8447929398897
20
-2.94569678485462
30
0
41
1
10
49.8570540318506
20
-3.24216965770685
30
0
41
1
10
49.8652731990017
20
-3.43503088543528
30
0
41
1
10
49.8734913621976
20
-3.62309098927429
30
0
0
SPLINE
5
1A3
100
AcDbEntity
8
1
62
256
6
ByLayer
370
18
48
1
60
0
100
AcDbSpline
70
4
71
3
72
8
73
4
40
0
40
0
40
0
40
0
40
1
40
1
40
1
40
1
41
1
10
49.8734913622078
20
-3.62309098927466
30
0
41
1
10
49.9531503304959
20
-3.63014402337987
30
0
41
1
10
50.0328093559469
20
-3.63719709971758
30
0
41
1
10
50.112468437771
20
-3.64425022000285
30
0
0
SPLINE
5
1A4
100
AcDbEntity
8
1
62
256
6
ByLayer
370
18
48
1
60
0
100
AcDbSpline
70
4
71
3
72
26
73
22
40
0
40
0
40
0
40
0
40
0.125000000000001
40
0.125000000000001
40
0.250000000000001
40
0.250000000000001
40
0.375000000000002
40
0.375000000000002
40
0.406250000000002
40
0.406250000000002
40
0.437500000000002
40
0.500000000000002
40
0.500000000000002
40
0.625000000000002
40
0.750000000000001
40
0.750000000000001
40
0.812500000000001
40
0.812500000000001
40
0.875
40
0.875
40
1
40
1
40
1
40
1
41
1
10
50.112468437771
20
-3.64425022000307
30
0
41
1
10
50.1055019659303
20
-3.45562986661176
30
0
41
1
10
50.0985622610932
20
-3.26284852403481
30
0
41
1
10
50.0847652845423
20
-2.86915922768492
30
0
41
1
10
50.0779079932552
20
-2.66825087755382
30
0
41
1
10
50.0642059321545
20
-2.25828310884211
30
0
41
1
10
50.0573614529349
20
-2.04922427691878
30
0
41
1
10
50.048706129169
20
-1.78265361867645
30
0
41
1
10
50.046968972976
20
-1.7290505061541
30
0
41
1
10
50.0434978756792
20
-1.62185351543033
30
0
41
1
10
50.0382883346648
20
-1.46087811194246
30
0
41
1
10
50.0330777199801
20
-1.29936829236382
30
0
41
1
10
50.0226706204793
20
-0.975645707015332
30
0
41
1
10
50.0088381024599
20
-0.542143946112134
30
0
41
1
10
49.9951095075973
20
-0.104928395651314
30
0
41
1
10
49.9847832412639
20
0.224400434336843
30
0
41
1
10
49.9813353920098
20
0.334413276263575
30
0
41
1
10
49.9744066610351
20
0.554920911657547
30
0
41
1
10
49.9709450786539
20
0.664799400300041
30
0
41
1
10
49.9605322749355
20
0.993184817519932
30
0
41
1
10
49.9535390973009
20
1.21050240195615
30
0
41
1
10
49.9465332920913
20
1.42621254156956
30
0
0
SPLINE
5
1A5
100
AcDbEntity
8
1
62
256
6
ByLayer
370
18
48
1
60
0
100
AcDbSpline
70
4
71
3
72
8
73
4
40
0
40
0
40
0
40
0
40
1
40
1
40
1
40
1
41
1
10
49.9465332920913
20
1.42621254157012
30
0
41
1
10
49.8571333753423
20
1.42351373272723
30
0
41
1
10
49.7677334590791
20
1.42081498434445
30
0
41
1
10
49.6783335432796
20
1.41811631560992
30
0
0
SPLINE
5
1A6
100
AcDbEntity
8
1
62
256
6
ByLayer
370
18
48
1
60
0
100
AcDbSpline
70
4
71
3
72
30
73
26
40
0
40
0
40
0
40
0
40
0.125000000000001
40
0.125000000000001
40
0.250000000000001
40
0.250000000000001
40
0.375000000000002
40
0.375000000000002
40
0.406250000000002
40
0.406250000000002
40
0.437500000000002
40
0.437500000000002
40
0.500000000000002
40
0.500000000000002
40
0.625000000000001
40
0.625000000000001
40
0.750000000000001
40
0.750000000000001
40
0.812500000000001
40
0.812500000000001
40
0.843750000000001
40
0.843750000000001
40
0.875
40
0.875
40
1
40
1
40
1
40
1
41
1
10
57.6272009073315
20
-3.62263280248652
30
0
41
1
10
57.6172136459864
20
-3.43414878791361
30
0
41
1
10
57.6076874783027
20
-3.24118796113268
30
0
41
1
10
57.5894837077258
20
-2.84658694009437
30
0
41
1
10
57.5807862442119
20
-2.6449505731251
30
0
41
1
10
57.5639807437942
20
-2.23313982140746
30
0
41
1
10
57.5558661863969
20
-2.02297903758372
30
0
41
1
10
57.546065414154
20
-1.75479364657869
30
0
41
1
10
57.5441219955921
20
-1.70088174460849
30
0
41
1
10
57.5402669034008
20
-1.59250189638232
30
0
41
1
10
57.5383592604071
20
-1.53813866671652
30
0
41
1
10
57.5327146877175
20
-1.37506760717781
30
0
41
1
10
57.5290486599709
20
-1.2661614596488
30
0
41
1
10
57.5183265234336
20
-0.938877316933628
30
0
41
1
10
57.5115493320967
20
-0.719934734445701
30
0
41
1
10
57.4985604912891
20
-0.280573829223812
30
0
41
1
10
57.4923560076102
20
-0.0601551897927664
30
0
41
1
10
57.4834285562605
20
0.271592895829343
30
0
41
1
10
57.4805151023968
20
0.382362565380674
30
0
41
1
10
57.4762241251257
20
0.548801957405516
30
0
41
1
10
57.4748055105533
20
0.604379339057118
30
0
41
1
10
57.4720024656741
20
0.715237781193679
30
0
41
1
10
57.4706175200373
20
0.770548317719317
30
0
41
1
10
57.4637754241939
20
1.04650968042662
30
0
41
1
10
57.4585698971288
20
1.26539114574712
30
0
41
1
10
57.4535988729507
20
1.4823751993446
30
0
0
SPLINE
5
1A7
100
AcDbEntity
8
1
62
256
6
ByLayer
370
18
48
1
60
0
100
AcDbSpline
70
4
71
3
72
8
73
4
40
0
40
0
40
0
40
0
40
1
40
1
40
1
40
1
41
1
10
57.4535988729507
20
1.4823751993446
30
0
41
1
10
57.3814472031157
20
1.48619220796746
30
0
41
1
10
57.3092947825587
20
1.49001211823742
30
0
41
1
10
57.2371416460257
20
1.49383472607786
30
0
0
SPLINE
5
1A8
100
AcDbEntity
8
1
62
256
6
ByLayer
370
18
48
1
60
0
100
AcDbSpline
70
4
71
3
72
8
73
4
40
0
40
0
40
0
40
0
40
1
40
1
40
1
40
1
41
1
10
57.4231306466536
20
-3.67238752935813
30
0
41
1
10
57.4911550513379
20
-3.65580449652484
30
0
41
1
10
57.5591784827297
20
-3.63921959638307
30
0
41
1
10
57.6272009073315
20
-3.62263280248652
30
0
0
SPLINE
5
1A9
100
AcDbEntity
8
1
62
256
6
ByLayer
370
18
48
1
60
0
100
AcDbSpline
70
4
71
3
72
30
73
26
40
0
40
0
40
0
40
0
40
0.125000000000001
40
0.125000000000001
40
0.250000000000001
40
0.250000000000001
40
0.312500000000001
40
0.312500000000001
40
0.343750000000002
40
0.343750000000002
40
0.375000000000002
40
0.375000000000002
40
0.500000000000001
40
0.500000000000001
40
0.625000000000001
40
0.625000000000001
40
0.75
40
0.75
40
0.78125
40
0.78125
40
0.8125
40
0.8125
40
0.875
40
0.875
40
1
40
1
40
1
40
1
41
1
10
57.2371416460257
20
1.49383472607786
30
0
41
1
10
57.2464591994771
20
1.27510288208183
30
0
41
1
10
57.2555592279277
20
1.05524946014324
30
0
41
1
10
57.2733431457538
20
0.613352468792186
30
0
41
1
10
57.2820266436737
20
0.391308739116056
30
0
41
1
10
57.2947988768813
20
0.0565893310454726
30
0
41
1
10
57.2990146249615
20
-0.055259951013511
30
0
41
1
10
57.3052884283644
20
-0.223454149894366
30
0
41
1
10
57.3073714329111
20
-0.279588961922457
30
0
41
1
10
57.3115235450589
20
-0.392000161988676
30
0
41
1
10
57.3135948977228
20
-0.448337943780189
30
0
41
1
10
57.3238976248179
20
-0.729651982758242
30
0
41
1
10
57.3319276600281
20
-0.95219768615334
30
0
41
1
10
57.3475070513167
20
-1.39244106898559
30
0
41
1
10
57.3550546599513
20
-1.61013819085375
30
0
41
1
10
57.3697056657471
20
-2.04070256736077
30
0
41
1
10
57.3768105967472
20
-2.25357067751733
30
0
41
1
10
57.3855108444892
20
-2.51656324746008
30
0
41
1
10
57.3872413827399
20
-2.56900650824582
30
0
41
1
10
57.3906839823843
20
-2.67357807799192
30
0
41
1
10
57.3923936814914
20
-2.72563484514848
30
0
41
1
10
57.3974762945887
20
-2.88069292738012
30
0
41
1
10
57.4008094197258
20
-2.98275376866158
30
0
41
1
10
57.4106603155534
20
-3.28501937090292
30
0
41
1
10
57.4170099777918
20
-3.48131657571454
30
0
41
1
10
57.4231306466536
20
-3.67238752935816
30
0
0
SPLINE
5
1AA
100
AcDbEntity
8
1
62
256
6
ByLayer
370
18
48
1
60
0
100
AcDbSpline
70
4
71
3
72
12
73
8
40
0
40
0
40
0
40
0
40
0.217435335288404
40
0.217435335288404
40
0.50495605303346
40
0.50495605303346
40
1
40
1
40
1
40
1
41
1
10
57.2371416460257
20
1.49383472607789
30
0
41
1
10
57.2023966374528
20
1.48405768794836
30
0
41
1
10
57.1676498436464
20
1.47429044105147
30
0
41
1
10
57.0869519182151
20
1.45163550668815
30
0
41
1
10
57.0409993383772
20
1.43875678278411
30
0
41
1
10
56.9159168357961
20
1.40377463433424
30
0
41
1
10
56.8367795252732
20
1.38172390233609
30
0
41
1
10
56.7576287875956
20
1.35975583411354
30
0
0
SPLINE
5
1AB
100
AcDbEntity
8
1
62
256
6
ByLayer
370
13
48
1
60
0
100
AcDbSpline
70
4
71
3
72
10
73
6
40
0
40
0
40
0
40
0
40
0.402878029568643
40
0.880097951092141
40
1
40
1
40
1
40
1
41
1
10
56.7576287875956
20
1.35975583411357
30
0
41
1
10
56.7816049386666
20
0.748602668861196
30
0
41
1
10
56.8339814889694
20
-0.631590111744742
30
0
41
1
10
56.8934936826855
20
-2.15793474059456
30
0
41
1
10
56.9290297151237
20
-2.98043055959289
30
0
41
1
10
56.9361653477592
20
-3.14138782515374
30
0
0
SPLINE
5
1AC
100
AcDbEntity
8
1
62
256
6
ByLayer
370
18
48
1
60
0
100
AcDbSpline
70
4
71
3
72
12
73
8
40
0
40
0
40
0
40
0
40
0.282461212328715
40
0.282461212328715
40
0.564922396387227
40
0.564922396387227
40
1
40
1
40
1
40
1
41
1
10
56.9361653477592
20
-3.14138782515374
30
0
41
1
10
56.9820174073684
20
-3.19130994166215
30
0
41
1
10
57.0278680027203
20
-3.24126843497962
30
0
41
1
10
57.1195677580779
20
-3.34122870664118
30
0
41
1
10
57.1654169127308
20
-3.39123067879416
30
0
41
1
10
57.2818874902389
20
-3.51827700231706
30
0
41
1
10
57.3525088887847
20
-3.59533018625839
30
0
41
1
10
57.4231306466536
20
-3.67238752935816
30
0
0
SPLINE
5
1AD
100
AcDbEntity
8
1
62
256
6
ByLayer
370
18
48
1
60
0
100
AcDbSpline
70
4
71
3
72
8
73
4
40
0
40
0
40
0
40
0
40
1
40
1
40
1
40
1
41
1
10
45.4367228575956
20
1.29020890039376
30
0
41
1
10
45.2181392643497
20
1.28535333133982
30
0
41
1
10
44.9995577622443
20
1.28099256415393
30
0
41
1
10
44.7809851495097
20
1.27712591454772
30
0
0
SPLINE
5
1AE
100
AcDbEntity
8
1
62
256
6
ByLayer
370
18
48
1
60
0
100
AcDbSpline
70
4
71
3
72
18
73
14
40
0
40
0
40
0
40
0
40
0.0640295849900865
40
0.206454633931872
40
0.348879682873657
40
0.491304731815442
40
0.633729780757227
40
0.704942305228119
40
0.776154829699012
40
0.847367354169904
40
0.882973616405351
40
0.918579878640797
40
1
40
1
40
1
40
1
41
1
10
45.4367188949003
20
1.26764203768721
30
0
41
1
10
45.436718934345
20
1.31508097002691
30
0
41
1
10
45.4367190833448
20
1.48953061453886
30
0
41
1
10
45.4367194568806
20
1.90312236986301
30
0
41
1
10
45.4367200997332
20
2.58574685754345
30
0
41
1
10
45.4367208774623
20
3.39091183343481
30
0
41
1
10
45.4367215815564
20
4.10670137007463
30
0
41
1
10
45.4367221448488
20
4.67312154540855
30
0
41
1
10
45.4367225607866
20
5.08857621145393
30
0
41
1
10
45.4367228961893
20
5.42145463778186
30
0
41
1
10
45.4367231566985
20
5.67886619094992
30
0
41
1
10
45.4367234405749
20
5.95839055804058
30
0
41
1
10
45.4367236799347
20
6.19404018402363
30
0
41
1
10
45.4367238498931
20
6.36135603763955
30
0
0
SPLINE
5
1AF
100
AcDbEntity
8
1
62
256
6
ByLayer
370
18
48
1
60
0
100
AcDbSpline
70
4
71
3
72
8
73
4
40
0
40
0
40
0
40
0
40
1
40
1
40
1
40
1
41
1
10
44.4267811819357
20
6.21957048359505
30
0
41
1
10
44.7634376669914
20
6.26685130426057
30
0
41
1
10
45.1000845122211
20
6.3141185431592
30
0
41
1
10
45.4367228575968
20
6.36136510359404
30
0
0
SPLINE
5
1B0
100
AcDbEntity
8
1
62
256
6
ByLayer
370
18
48
1
60
0
100
AcDbSpline
70
4
71
3
72
27
73
23
40
0
40
0
40
0
40
0
40
0.125000000000057
40
0.125000000000057
40
0.250000000000115
40
0.250000000000115
40
0.375000000000172
40
0.375000000000172
40
0.437500000000143
40
0.437500000000143
40
0.500000000000114
40
0.562500000000085
40
0.562500000000085
40
0.625000000000056
40
0.625000000000056
40
0.749999999999996
40
0.749999999999996
40
0.812500000000017
40
0.812500000000017
40
0.875000000000038
40
0.875000000000038
40
1
40
1
40
1
40
1
41
1
10
44.1118016365817
20
6.17533060838161
30
0
41
1
10
44.1233410697955
20
6.1658983690867
30
0
41
1
10
44.1356965401198
20
6.15778140290959
30
0
41
1
10
44.1620095379701
20
6.14412969778664
30
0
41
1
10
44.176109721124
20
6.13858233525551
30
0
41
1
10
44.2047262168608
20
6.13063215583188
30
0
41
1
10
44.2193555048194
20
6.12814132513347
30
0
41
1
10
44.2417928949365
20
6.12668650205481
30
0
41
1
10
44.2493269298913
20
6.12659170945824
30
0
41
1
10
44.2642135539481
20
6.12717047600734
30
0
41
1
10
44.2790016967245
20
6.12851083008826
30
0
41
1
10
44.2935955477547
20
6.131353701232
30
0
41
1
10
44.3080904743657
20
6.13496158144315
30
0
41
1
10
44.3153145225634
20
6.13716143629904
30
0
41
1
10
44.3363566138202
20
6.14477186448116
30
0
41
1
10
44.3496977045139
20
6.15120740736774
30
0
41
1
10
44.3686920777874
20
6.16287741080777
30
0
41
1
10
44.3748859960999
20
6.16713303829857
30
0
41
1
10
44.3867318813752
20
6.17620251835717
30
0
41
1
10
44.3923779169857
20
6.1810049519932
30
0
41
1
10
44.4085097637495
20
6.19619167894766
30
0
41
1
10
44.4182010633084
20
6.20735188728759
30
0
41
1
10
44.4267811819256
20
6.21957048359292
30
0
0
SPLINE
5
1B1
100
AcDbEntity
8
1
62
256
6
ByLayer
370
18
48
1
60
0
100
AcDbSpline
70
4
71
3
72
17
73
13
40
0
40
0
40
0
40
0
40
0.250000000000006
40
0.250000000000006
40
0.375000000000005
40
0.375000000000005
40
0.500000000000004
40
0.500000000000004
40
0.625000000000003
40
0.625000000000003
40
0.750000000000002
40
1
40
1
40
1
40
1
41
1
10
39
20
5.4567025466516
30
0
41
1
10
39.4257964048544
20
5.51670612303633
30
0
41
1
10
39.8516694623073
20
5.57661542515433
30
0
41
1
10
40.4905708261745
20
5.66645375479814
30
0
41
1
10
40.7035533359255
20
5.69639451540172
30
0
41
1
10
41.1295503217741
20
5.75627395019006
30
0
41
1
10
41.342564365157
20
5.78621265629064
30
0
41
1
10
41.7686141726724
20
5.84609060397827
30
0
41
1
10
41.9816511374097
20
5.87602979742607
30
0
41
1
10
42.4077050254373
20
5.93590338183381
30
0
41
1
10
43.0467721394351
20
6.02570849835692
30
0
41
1
10
43.6857994183377
20
6.11549288311235
30
0
41
1
10
44.1118016365816
20
6.17533060838161
30
0
0
SPLINE
5
1B2
100
AcDbEntity
8
1
62
256
6
ByLayer
370
18
48
1
60
0
100
AcDbSpline
70
4
71
3
72
10
73
6
40
0
40
0
40
0
40
0
40
0.5
40
0.5
40
1
40
1
40
1
40
1
41
1
10
44.3982700634655
20
1.27086014051289
30
0
41
1
10
43.4980284286726
20
1.25730810161869
30
0
41
1
10
42.5978817015276
20
1.25213329467022
30
0
41
1
10
40.798342828862
20
1.25835787740022
30
0
41
1
10
39.8989425212474
20
1.26975712806066
30
0
41
1
10
39
20
1.28929494930361
30
0
0
SPLINE
5
1B3
100
AcDbEntity
8
1
62
256
6
ByLayer
370
18
48
1
60
0
100
AcDbSpline
70
4
71
3
72
30
73
26
40
0
40
0
40
0
40
0
40
0.125000000000094
40
0.125000000000094
40
0.187500000000143
40
0.187500000000143
40
0.250000000000192
40
0.312500000000241
40
0.312500000000241
40
0.37500000000029
40
0.37500000000029
40
0.500000000000294
40
0.500000000000294
40
0.562500000000248
40
0.562500000000248
40
0.625000000000202
40
0.625000000000202
40
0.687500000000156
40
0.687500000000156
40
0.75000000000011
40
0.812500000000064
40
0.812500000000064
40
0.875000000000018
40
0.875000000000018
40
1
40
1
40
1
40
1
41
1
10
44.7610752471047
20
1.27179760738153
30
0
41
1
10
44.7519954193172
20
1.26936914288868
30
0
41
1
10
44.7411740602316
20
1.26717871807935
30
0
41
1
10
44.7224170316447
20
1.26423918650988
30
0
41
1
10
44.7156889986844
20
1.26331201007099
30
0
41
1
10
44.7016048645607
20
1.26161193455101
30
0
41
1
10
44.6869412640477
20
1.26006817332509
30
0
41
1
10
44.6711491834608
20
1.25882914274524
30
0
41
1
10
44.6547817691143
20
1.2577456161703
30
0
41
1
10
44.6462727245164
20
1.25728114286781
30
0
41
1
10
44.6205607725191
20
1.25616190310498
30
0
41
1
10
44.6029764834848
20
1.25576079266312
30
0
41
1
10
44.575922668444
20
1.25568711659861
30
0
41
1
10
44.5668686253087
20
1.25575284371197
30
0
41
1
10
44.5490081399661
20
1.25605800943995
30
0
41
1
10
44.540152778418
20
1.25629723606534
30
0
41
1
10
44.5225917223249
20
1.25694882383451
30
0
41
1
10
44.5138518462579
20
1.25736319581475
30
0
41
1
10
44.4966791277231
20
1.25836412933322
30
0
41
1
10
44.480027554564
20
1.25952319182545
30
0
41
1
10
44.464383220949
20
1.26098764589133
30
0
41
1
10
44.4492487742178
20
1.26260655244727
30
0
41
1
10
44.4418904745996
20
1.26350028238539
30
0
41
1
10
44.4211153956801
20
1.26635505497976
30
0
41
1
10
44.4088815172834
20
1.26849107375787
30
0
41
1
10
44.3982700634655
20
1.27086014051292
30
0
0
SPLINE
5
1B4
100
AcDbEntity
8
1
62
256
6
ByLayer
370
18
48
1
60
0
100
AcDbSpline
70
4
71
3
72
8
73
4
40
0
40
0
40
0
40
0
40
1
40
1
40
1
40
1
41
1
10
44.7809851495097
20
1.27712591454775
30
0
41
1
10
44.7743486146236
20
1.27534875209875
30
0
41
1
10
44.7677119810347
20
1.27357264905356
30
0
41
1
10
44.7610752471046
20
1.27179760738153
30
0
0
SPLINE
5
1B5
100
AcDbEntity
8
1
62
256
6
ByLayer
370
18
48
1
60
0
100
AcDbSpline
70
4
71
3
72
8
73
4
40
0
40
0
40
0
40
0
40
1
40
1
40
1
40
1
41
1
10
57.0718599485566
20
7.08744025267106
30
0
41
1
10
57.0711099155622
20
7.08795066348449
30
0
41
1
10
57.0703595656605
20
7.08835622303425
30
0
41
1
10
57.0696088075344
20
7.0886567781167
30
0
0
SPLINE
5
1B6
100
AcDbEntity
8
1
62
256
6
ByLayer
370
18
48
1
60
0
100
AcDbSpline
70
4
71
3
72
20
73
16
40
0
40
0
40
0
40
0
40
0.250000000000115
40
0.250000000000115
40
0.375000000000172
40
0.375000000000172
40
0.437500000000182
40
0.437500000000182
40
0.500000000000191
40
0.500000000000191
40
0.750000000000113
40
0.750000000000113
40
0.875000000000057
40
0.875000000000057
40
1
40
1
40
1
40
1
41
1
10
38.0661097494889
20
-2.64135866811
30
0
41
1
10
38.1520807496242
20
-2.63757365151378
30
0
41
1
10
38.2366800667646
20
-2.63737453045147
30
0
41
1
10
38.361630193324
20
-2.64247250858657
30
0
41
1
10
38.4029534665568
20
-2.64507987228433
30
0
41
1
10
38.4644445758741
20
-2.65043350525815
30
0
41
1
10
38.4848591999911
20
-2.65245911846077
30
0
41
1
10
38.5255216025196
20
-2.65701429687715
30
0
41
1
10
38.5457905640423
20
-2.65954812589695
30
0
41
1
10
38.6456872640596
20
-2.67338561860254
30
0
41
1
10
38.7218097448112
20
-2.68823562180768
30
0
41
1
10
38.8304809605328
20
-2.7167833083985
30
0
41
1
10
38.8657800687756
20
-2.72735196998894
30
0
41
1
10
38.934487595423
20
-2.7507936285372
30
0
41
1
10
38.9679329847279
20
-2.76369296386491
30
0
41
1
10
39.0000000000001
20
-2.77769433793438
30
0
0
SPLINE
5
1B7
100
AcDbEntity
8
1
62
256
6
ByLayer
370
18
48
1
60
0
100
AcDbSpline
70
4
71
3
72
124
73
120
40
0
40
0
40
0
40
0
40
0.0312500000000045
40
0.0312500000000045
40
0.0625000000000089
40
0.0625000000000089
40
0.125000000000018
40
0.125000000000018
40
0.187500000000027
40
0.187500000000027
40
0.218750000000031
40
0.218750000000031
40
0.250000000000036
40
0.250000000000036
40
0.28125000000004
40
0.28125000000004
40
0.312500000000045
40
0.312500000000045
40
0.343750000000049
40
0.343750000000049
40
0.375000000000054
40
0.375000000000054
40
0.390625000000056
40
0.390625000000056
40
0.406250000000057
40
0.406250000000057
40
0.421875000000059
40
0.421875000000059
40
0.437500000000061
40
0.437500000000061
40
0.445312500000062
40
0.445312500000062
40
0.453125000000063
40
0.453125000000063
40
0.460937500000063
40
0.460937500000063
40
0.468750000000064
40
0.468750000000064
40
0.472656250000064
40
0.472656250000064
40
0.476562500000065
40
0.476562500000065
40
0.480468750000066
40
0.480468750000066
40
0.484375000000066
40
0.484375000000066
40
0.486328125000066
40
0.486328125000066
40
0.488281250000067
40
0.488281250000067
40
0.492187500000066
40
0.492187500000066
40
0.493164062500066
40
0.493164062500066
40
0.494140625000066
40
0.496093750000067
40
0.498046875000067
40
0.498046875000067
40
0.500000000000067
40
0.500000000000067
40
0.503906250000068
40
0.503906250000068
40
0.505859375000068
40
0.505859375000068
40
0.507812500000068
40
0.507812500000068
40
0.511718750000069
40
0.511718750000069
40
0.513671875000069
40
0.513671875000069
40
0.515625000000069
40
0.515625000000069
40
0.519531250000069
40
0.519531250000069
40
0.523437500000069
40
0.523437500000069
40
0.527343750000069
40
0.527343750000069
40
0.529296875000069
40
0.529296875000069
40
0.531250000000069
40
0.531250000000069
40
0.539062500000068
40
0.539062500000068
40
0.546875000000068
40
0.546875000000068
40
0.554687500000068
40
0.554687500000068
40
0.562500000000068
40
0.562500000000068
40
0.578125000000067
40
0.578125000000067
40
0.585937500000066
40
0.585937500000066
40
0.593750000000065
40
0.593750000000065
40
0.609375000000063
40
0.609375000000063
40
0.625000000000061
40
0.625000000000061
40
0.656250000000056
40
0.656250000000056
40
0.687500000000051
40
0.687500000000051
40
0.718750000000046
40
0.718750000000046
40
0.75000000000004
40
0.75000000000004
40
0.781250000000035
40
0.781250000000035
40
0.81250000000003
40
0.81250000000003
40
0.843750000000025
40
0.843750000000025
40
0.87500000000002
40
0.87500000000002
40
0.93750000000001
40
0.93750000000001
40
1
40
1
40
1
40
1
41
1
10
38.0661097494896
20
-4.91463829516383
30
0
41
1
10
37.7276916163257
20
-4.91929217188758
30
0
41
1
10
37.3893772274635
20
-4.92416807253949
30
0
41
1
10
36.7130081871007
20
-4.93443242479486
30
0
41
1
10
36.3749511623542
20
-4.93981353134103
30
0
41
1
10
35.3611878402637
20
-4.95661165254458
30
0
41
1
10
34.6858869019893
20
-4.96869461493279
30
0
41
1
10
33.3365502192586
20
-4.99392251744416
30
0
41
1
10
32.6625127371135
20
-5.00707688448378
30
0
41
1
10
31.6526130562953
20
-5.02673585375854
30
0
41
1
10
31.3161734766132
20
-5.03327238168137
30
0
41
1
10
30.6437316247414
20
-5.0460894913991
30
0
41
1
10
30.3077291571489
20
-5.05237115098126
30
0
41
1
10
29.6362267020145
20
-5.06437651993912
30
0
41
1
10
29.3009430740031
20
-5.07009799827989
30
0
41
1
10
28.6316902400972
20
-5.08054855383591
30
0
41
1
10
28.2976891863379
20
-5.08528197190631
30
0
41
1
10
27.631212153493
20
-5.0931499581711
30
0
41
1
10
27.2987317748641
20
-5.09629108612697
30
0
41
1
10
26.6357129117704
20
-5.10003521775275
30
0
41
1
10
26.3051678680005
20
-5.10065494380754
30
0
41
1
10
25.8113302067651
20
-5.09848372480104
30
0
41
1
10
25.6471376184849
20
-5.09723662543826
30
0
41
1
10
25.320283336114
20
-5.09337843942541
30
0
41
1
10
25.1575523402723
20
-5.09076958520697
30
0
41
1
10
24.833815349045
20
-5.08373423907719
30
0
41
1
10
24.6728084224127
20
-5.07931297277597
30
0
41
1
10
24.3530768005423
20
-5.06793722726641
30
0
41
1
10
24.1943413430952
20
-5.06099689126213
30
0
41
1
10
23.9586642726392
20
-5.04775557369601
30
0
41
1
10
23.8804593902114
20
-5.04285958890813
30
0
41
1
10
23.7258394040217
20
-5.03191112898344
30
0
41
1
10
23.6493419152573
20
-5.0258566716077
30
0
41
1
10
23.4984005013495
20
-5.0122491029764
30
0
41
1
10
23.4239516510922
20
-5.00469989866926
30
0
41
1
10
23.2777645574538
20
-4.98758365122595
30
0
41
1
10
23.2060092285597
20
-4.97802844839813
30
0
41
1
10
23.1012844411832
20
-4.96150226497738
30
0
41
1
10
23.066847210111
20
-4.95562174228215
30
0
41
1
10
22.9992515574909
20
-4.94295022328814
30
0
41
1
10
22.9663442785003
20
-4.93620672079777
30
0
41
1
10
22.9027018892479
20
-4.92171698016841
30
0
41
1
10
22.87196335986
20
-4.91397231470276
30
0
41
1
10
22.8132295067408
20
-4.89720943157931
30
0
41
1
10
22.7852267170081
20
-4.88819463474854
30
0
41
1
10
22.7459591757839
20
-4.87339824038767
30
0
41
1
10
22.7332924421837
20
-4.86823386915663
30
0
41
1
10
22.7092356628348
20
-4.85749188961904
30
0
41
1
10
22.6978713406216
20
-4.85192831075406
30
0
41
1
10
22.6660201145636
20
-4.83458657526594
30
0
41
1
10
22.6477469205032
20
-4.82216556611513
30
0
41
1
10
22.6297667855593
20
-4.80522489642695
30
0
41
1
10
22.6264275567603
20
-4.80177429333423
30
0
41
1
10
22.6203384957664
20
-4.79480443520194
30
0
41
1
10
22.612061533849
20
-4.78422126179541
30
0
41
1
10
22.6026469213217
20
-4.76592585632477
30
0
41
1
10
22.6000160464639
20
-4.75055438014121
30
0
41
1
10
22.5999627815935
20
-4.7347962629249
30
0
41
1
10
22.601254531615
20
-4.72667702327263
30
0
41
1
10
22.6088978961228
20
-4.70240933797984
30
0
41
1
10
22.6189439892266
20
-4.6861718591457
30
0
41
1
10
22.6404024098363
20
-4.66174118382449
30
0
41
1
10
22.6486530748988
20
-4.6535678294739
30
0
41
1
10
22.6667393409082
20
-4.6375255731412
30
0
41
1
10
22.6766074427057
20
-4.62961361121111
30
0
41
1
10
22.7083475375784
20
-4.60616108736465
30
0
41
1
10
22.7323396602876
20
-4.59090183075204
30
0
41
1
10
22.7716168733465
20
-4.56845232994962
30
0
41
1
10
22.7853007222716
20
-4.56102372863415
30
0
41
1
10
22.813387924716
20
-4.54643533579409
30
0
41
1
10
22.8278035819783
20
-4.53926563245255
30
0
41
1
10
22.8720242177278
20
-4.51808522910412
30
0
41
1
10
22.9027918787724
20
-4.5043989130823
30
0
41
1
10
22.9663145191101
20
-4.47769996260567
30
0
41
1
10
22.9990734241998
20
-4.46468867021665
30
0
41
1
10
23.0661997795136
20
-4.43921605792335
30
0
41
1
10
23.1005691672646
20
-4.42675539734191
30
0
41
1
10
23.1531294923397
20
-4.4084122858518
30
0
41
1
10
23.1708307574266
20
-4.40235206004365
30
0
41
1
10
23.2063890172866
20
-4.39039066355002
30
0
41
1
10
23.2242635326213
20
-4.38448322787372
30
0
41
1
10
23.3140696015741
20
-4.35528060380597
30
0
41
1
10
23.387287665523
20
-4.33298056337401
30
0
41
1
10
23.5356800288312
20
-4.28991735961532
30
0
41
1
10
23.6108591296825
20
-4.26915638867291
30
0
41
1
10
23.7627237410252
20
-4.22883895398675
30
0
41
1
10
23.8394123366699
20
-4.20928473902978
30
0
41
1
10
23.9940000438097
20
-4.17116349481324
30
0
41
1
10
24.0719006771969
20
-4.15259757574961
30
0
41
1
10
24.3071060792226
20
-4.0981508422561
30
0
41
1
10
24.4658985067521
20
-4.06350942658881
30
0
41
1
10
24.7062589343005
20
-4.01343348852112
30
0
41
1
10
24.7867399298813
20
-3.99706139969729
30
0
41
1
10
24.9478201581283
20
-3.96498655926064
30
0
41
1
10
25.0284906175167
20
-3.94926898967233
30
0
41
1
10
25.2708448674506
20
-3.90297138658818
30
0
41
1
10
25.4328693768519
20
-3.87324181077318
30
0
41
1
10
25.757642629384
20
-3.81564981614639
30
0
41
1
10
25.9203931536607
20
-3.78779209154337
30
0
41
1
10
26.4095697167549
20
-3.70671064621231
30
0
41
1
10
26.7368970668256
20
-3.65590665787295
30
0
41
1
10
27.3933147421671
20
-3.55934547255637
30
0
41
1
10
27.7224125111685
20
-3.5136057402606
30
0
41
1
10
28.3820092271499
20
-3.42639298329218
30
0
41
1
10
28.7125110702343
20
-3.38492667490334
30
0
41
1
10
29.3746795385406
20
-3.30575902164227
30
0
41
1
10
29.7063474984637
20
-3.26806073540482
30
0
41
1
10
30.3706825429614
20
-3.19607995863305
30
0
41
1
10
30.7033483229536
20
-3.16179056265307
30
0
41
1
10
31.3695452313807
20
-3.09631743297814
30
0
41
1
10
31.7030775370518
20
-3.06513793894771
30
0
41
1
10
32.3709124153732
20
-3.00567564325826
30
0
41
1
10
32.7052742199418
20
-2.9773888483914
30
0
41
1
10
33.3741946956517
20
-2.92357419923386
30
0
41
1
10
33.7087990993868
20
-2.89804200652864
30
0
41
1
10
34.7130075507128
20
-2.82533378272009
30
0
41
1
10
35.3830051621496
20
-2.7820361338868
30
0
41
1
10
36.723903867549
20
-2.70482454954268
30
0
41
1
10
37.3948055995324
20
-2.67091395238927
30
0
41
1
10
38.06610974949
20
-2.64135866811071
30
0
0
SPLINE
5
1B8
100
AcDbEntity
8
1
62
256
6
ByLayer
370
18
48
1
60
0
100
AcDbSpline
70
4
71
3
72
8
73
4
40
0
40
0
40
0
40
0
40
1
40
1
40
1
40
1
41
1
10
55.571742768053
20
7.08741326009149
30
0
41
1
10
55.5258048999055
20
7.08741243143669
30
0
41
1
10
55.4798670317552
20
7.08741160259279
30
0
41
1
10
55.433929163602
20
7.08741077355995
30
0
0
SPLINE
5
1B9
100
AcDbEntity
8
1
62
256
6
ByLayer
370
18
48
1
60
0
100
AcDbSpline
70
4
71
3
72
8
73
4
40
0
40
0
40
0
40
0
40
1
40
1
40
1
40
1
41
1
10
54.0718843417754
20
7.08738613776535
30
0
41
1
10
54.0259008228687
20
7.08738530418657
30
0
41
1
10
53.9799173039593
20
7.08738447042015
30
0
41
1
10
53.933933785047
20
7.0873836364662
30
0
0
SPLINE
5
1BA
100
AcDbEntity
8
1
62
256
6
ByLayer
370
18
48
1
60
0
100
AcDbSpline
70
4
71
3
72
8
73
4
40
0
40
0
40
0
40
0
40
1
40
1
40
1
40
1
41
1
10
52.5719212660888
20
7.08735888042935
30
0
41
1
10
52.5259293042121
20
7.08735804263543
30
0
41
1
10
52.4799373423326
20
7.08735720465563
30
0
41
1
10
52.4339453804502
20
7.08735636649004
30
0
0
SPLINE
5
1BB
100
AcDbEntity
8
1
62
256
6
ByLayer
370
18
48
1
60
0
100
AcDbSpline
70
4
71
3
72
8
73
4
40
0
40
0
40
0
40
0
40
1
40
1
40
1
40
1
41
1
10
51.0718310293985
20
7.08733148892904
30
0
41
1
10
51.0258564995341
20
7.08733064743114
30
0
41
1
10
50.9798819696669
20
7.08732980574931
30
0
41
1
10
50.9339074397968
20
7.08732896388364
30
0
0
SPLINE
5
1BC
100
AcDbEntity
8
1
62
256
6
ByLayer
370
18
48
1
60
0
100
AcDbSpline
70
4
71
3
72
8
73
4
40
0
40
0
40
0
40
0
40
1
40
1
40
1
40
1
41
1
10
51.5717969090088
20
-3.68806009107033
30
0
41
1
10
51.5258525808584
20
-3.68809058032053
30
0
41
1
10
51.4799082527052
20
-3.68812106633413
30
0
41
1
10
51.4339639245492
20
-3.68815154911115
30
0
0
SPLINE
5
1BD
100
AcDbEntity
8
1
62
256
6
ByLayer
370
18
48
1
60
0
100
AcDbSpline
70
4
71
3
72
8
73
4
40
0
40
0
40
0
40
0
40
1
40
1
40
1
40
1
41
1
10
51.2541279980101
20
1.45136852178138
30
0
41
1
10
51.3000807689482
20
1.45172715531353
30
0
41
1
10
51.3460335398684
20
1.45208578518276
30
0
41
1
10
51.3919863107706
20
1.45244441139047
30
0
0
SPLINE
5
1BE
100
AcDbEntity
8
1
62
256
6
ByLayer
370
18
48
1
60
0
100
AcDbSpline
70
4
71
3
72
8
73
4
40
0
40
0
40
0
40
0
40
1
40
1
40
1
40
1
41
1
10
55.7529624535265
20
1.48646754664517
30
0
41
1
10
55.7989291298013
20
1.48682605110434
30
0
41
1
10
55.8448958060577
20
1.48718455194546
30
0
41
1
10
55.8908624822957
20
1.48754304916994
30
0
0
SPLINE
5
1BF
100
AcDbEntity
8
1
62
256
6
ByLayer
370
18
48
1
60
0
100
AcDbSpline
70
4
71
3
72
8
73
4
40
0
40
0
40
0
40
0
40
1
40
1
40
1
40
1
41
1
10
53.0719580169401
20
-3.68706341450175
30
0
41
1
10
53.0259893621071
20
-3.68709399039025
30
0
41
1
10
52.9800207072713
20
-3.68712456303839
30
0
41
1
10
52.9340520524326
20
-3.68715513244621
30
0
0
SPLINE
5
1C0
100
AcDbEntity
8
1
62
256
6
ByLayer
370
18
48
1
60
0
100
AcDbSpline
70
4
71
3
72
8
73
4
40
0
40
0
40
0
40
0
40
1
40
1
40
1
40
1
41
1
10
52.7538951552367
20
1.46307199700848
30
0
41
1
10
52.7998386620629
20
1.46343047873165
30
0
41
1
10
52.8457821688712
20
1.46378895680905
30
0
41
1
10
52.8917256756614
20
1.46414743124217
30
0
0
SPLINE
5
1C1
100
AcDbEntity
8
1
62
256
6
ByLayer
370
18
48
1
60
0
100
AcDbSpline
70
4
71
3
72
27
73
23
40
0
40
0
40
0
40
0
40
0.125
40
0.25
40
0.25
40
0.375
40
0.375
40
0.40625
40
0.40625
40
0.4375
40
0.5
40
0.5
40
0.625
40
0.75
40
0.75
40
0.8125
40
0.8125
40
0.84375
40
0.84375
40
0.875
40
0.875
40
1
40
1
40
1
40
1
41
1
10
52.7538951552367
20
1.46307199700851
30
0
41
1
10
52.761443947686
20
1.24436138441044
30
0
41
1
10
52.7763895312763
20
0.805047858235753
30
0
41
1
10
52.7911838795
20
0.362030355535438
30
0
41
1
10
52.8060842585195
20
-0.0828446885107041
30
0
41
1
10
52.8136175607813
20
-0.306209787567838
30
0
41
1
10
52.8231376721215
20
-0.586614884490047
30
0
41
1
10
52.8250437661008
20
-0.64268734352936
30
0
41
1
10
52.8288440805841
20
-0.75437111524738
30
0
41
1
10
52.8345334593551
20
-0.9213996924247
30
0
41
1
10
52.8401871549493
20
-1.08695275367907
30
0
41
1
10
52.8514501705484
20
-1.41611996517003
30
0
41
1
10
52.8663427935682
20
-1.84984770762961
30
0
41
1
10
52.8811795891675
20
-2.27333826830969
30
0
41
1
10
52.8924393687289
20
-2.58704442223916
30
0
41
1
10
52.8962192703497
20
-2.69095996562396
30
0
41
1
10
52.9019241714479
20
-2.84583495264999
30
0
41
1
10
52.9038333974748
20
-2.89734783464351
30
0
41
1
10
52.9076424701874
20
-2.99952639189556
30
0
41
1
10
52.9095441244874
20
-3.05024180995235
30
0
41
1
10
52.9190355782187
20
-3.30196903912784
30
0
41
1
10
52.926570560356
20
-3.49744412013365
30
0
41
1
10
52.9340520524326
20
-3.68715513244621
30
0
0
SPLINE
5
1C2
100
AcDbEntity
8
1
62
256
6
ByLayer
370
18
48
1
60
0
100
AcDbSpline
70
4
71
3
72
29
73
25
40
0
40
0
40
0
40
0
40
0.125
40
0.125
40
0.25
40
0.25
40
0.28125
40
0.28125
40
0.3125
40
0.3125
40
0.375
40
0.375
40
0.5
40
0.625000000000001
40
0.625000000000001
40
0.687500000000001
40
0.687500000000001
40
0.718750000000001
40
0.718750000000001
40
0.750000000000001
40
0.750000000000001
40
0.875
40
0.875
40
1
40
1
40
1
40
1
41
1
10
51.5717969090088
20
-3.6880600910703
30
0
41
1
10
51.5643348529439
20
-3.49855488450225
30
0
41
1
10
51.5569292175826
20
-3.30409115172776
30
0
41
1
10
51.5420976485892
20
-2.90526111789623
30
0
41
1
10
51.5346656661775
20
-2.70089552243701
30
0
41
1
10
51.5252290047943
20
-2.43909436688233
30
0
41
1
10
51.5233356793791
20
-2.3864162041578
30
0
41
1
10
51.5195385781741
20
-2.28041714448466
30
0
41
1
10
51.5176348664359
20
-2.22709732901345
30
0
41
1
10
51.5119405780654
20
-2.06703274910538
30
0
41
1
10
51.508156809808
20
-1.95989739331392
30
0
41
1
10
51.4968488980578
20
-1.63723748974695
30
0
41
1
10
51.4818939136273
20
-1.20368602726023
30
0
41
1
10
51.4670867960285
20
-0.763570082153734
30
0
41
1
10
51.455920713608
20
-0.431000684731771
30
0
41
1
10
51.4521877271751
20
-0.319729833842274
30
0
41
1
10
51.4465494529486
20
-0.152193334564743
30
0
41
1
10
51.4446630274094
20
-0.0962427706378719
30
0
41
1
10
51.4408762882927
20
0.0158706230821508
30
0
41
1
10
51.438973680896
20
0.0721092386295936
30
0
41
1
10
51.4294706075974
20
0.352684883946296
30
0
41
1
10
51.4219027506286
20
0.57523024627784
30
0
41
1
10
51.4068783183804
20
1.01661377806121
30
0
41
1
10
51.3994216038247
20
1.2354516176523
30
0
41
1
10
51.3919863107706
20
1.45244441139044
30
0
0
SPLINE
5
1C3
100
AcDbEntity
8
1
62
256
6
ByLayer
370
18
48
1
60
0
100
AcDbSpline
70
4
71
3
72
8
73
4
40
0
40
0
40
0
40
0
40
1
40
1
40
1
40
1
41
1
10
54.2532317739195
20
1.47476952376547
30
0
41
1
10
54.2991980604843
20
1.47512810404817
30
0
41
1
10
54.3451643470308
20
1.47548668069723
30
0
41
1
10
54.3911306335592
20
1.47584525371406
30
0
0
SPLINE
5
1C4
100
AcDbEntity
8
1
62
256
6
ByLayer
370
18
48
1
60
0
100
AcDbSpline
70
4
71
3
72
28
73
24
40
0
40
0
40
0
40
0
40
0.125
40
0.125
40
0.187500000000001
40
0.187500000000001
40
0.218750000000001
40
0.218750000000001
40
0.250000000000001
40
0.250000000000001
40
0.375000000000001
40
0.375000000000001
40
0.500000000000001
40
0.500000000000001
40
0.625000000000001
40
0.625000000000001
40
0.65625
40
0.65625
40
0.6875
40
0.75
40
0.75
40
0.875
40
1
40
1
40
1
40
1
41
1
10
51.2541279980101
20
1.45136852178135
30
0
41
1
10
51.2615486457606
20
1.23450149520332
30
0
41
1
10
51.2689748821592
20
1.01537859011947
30
0
41
1
10
51.2802769064949
20
0.683257707388634
30
0
41
1
10
51.2840664332937
20
0.571976890734845
30
0
41
1
10
51.2897747626938
20
0.404178354852661
30
0
41
1
10
51.2916840729821
20
0.348026312892273
30
0
41
1
10
51.2954926737824
20
0.235933731515303
30
0
41
1
10
51.2973928667628
20
0.179966756464125
30
0
41
1
10
51.3068721991165
20
-0.099475745425508
30
0
41
1
10
51.3143821611506
20
-0.321776994486242
30
0
41
1
10
51.3292966782563
20
-0.76393465822477
30
0
41
1
10
51.3367012686591
20
-0.983790936770902
30
0
41
1
10
51.351554592405
20
-1.42104959647043
30
0
41
1
10
51.3590206069065
20
-1.63845156390539
30
0
41
1
10
51.3684868569922
20
-1.90862323765572
30
0
41
1
10
51.3703860796507
20
-1.96260343695073
30
0
41
1
10
51.374189743042
20
-2.07029840362287
30
0
41
1
10
51.3798856552823
20
-2.23094729687625
30
0
41
1
10
51.3855483180401
20
-2.38894717452175
30
0
41
1
10
51.3968270366945
20
-2.70147487867081
30
0
41
1
10
51.4117346136148
20
-3.10893502505897
30
0
41
1
10
51.4265169052397
20
-3.49815885690816
30
0
41
1
10
51.4339639245492
20
-3.68815154911118
30
0
0
SPLINE
5
1C5
100
AcDbEntity
8
1
62
256
6
ByLayer
370
18
48
1
60
0
100
AcDbSpline
70
4
71
3
72
26
73
22
40
0
40
0
40
0
40
0
40
0.0624999999999996
40
0.0624999999999996
40
0.0937499999999995
40
0.0937499999999995
40
0.124999999999999
40
0.124999999999999
40
0.249999999999999
40
0.249999999999999
40
0.374999999999999
40
0.499999999999999
40
0.499999999999999
40
0.562499999999999
40
0.562499999999999
40
0.624999999999999
40
0.624999999999999
40
0.75
40
0.875
40
0.875
40
1
40
1
40
1
40
1
41
1
10
53.07195801694
20
-3.68706341450175
30
0
41
1
10
53.0682246187537
20
-3.59199963329058
30
0
41
1
10
53.0644722340383
20
-3.49539485911259
30
0
41
1
10
53.0588033117575
20
-3.34814238644728
30
0
41
1
10
53.0569078237423
20
-3.29866714888135
30
0
41
1
10
53.0531067746489
20
-3.19892665962442
30
0
41
1
10
53.0511988226645
20
-3.14859783725618
30
0
41
1
10
53.0416676882212
20
-2.89577374966063
30
0
41
1
10
53.0341000015646
20
-2.69042710450844
30
0
41
1
10
53.01908707217
20
-2.27375880447121
30
0
41
1
10
53.0041961144748
20
-1.8511142510464
30
0
41
1
10
52.9893486703442
20
-1.41659616346894
30
0
41
1
10
52.978071782901
20
-1.0861679455239
30
0
41
1
10
52.9742853372676
20
-0.975267483866702
30
0
41
1
10
52.9666681855561
20
-0.751919305015491
30
0
41
1
10
52.9628649037868
20
-0.640255967460519
30
0
41
1
10
52.9515017045648
20
-0.305825618434909
30
0
41
1
10
52.9364659636347
20
0.139059112738408
30
0
41
1
10
52.9216255520737
20
0.581941203540907
30
0
41
1
10
52.9067564538758
20
1.02381249384067
30
0
41
1
10
52.8993046952249
20
1.24424272428607
30
0
41
1
10
52.8917256756614
20
1.46414743124217
30
0
0
SPLINE
5
1C6
100
AcDbEntity
8
1
62
256
6
ByLayer
370
18
48
1
60
0
100
AcDbSpline
70
4
71
3
72
20
73
16
40
0
40
0
40
0
40
0
40
0.250000000000114
40
0.250000000000114
40
0.375000000000171
40
0.375000000000171
40
0.43750000000018
40
0.43750000000018
40
0.500000000000189
40
0.500000000000189
40
0.750000000000112
40
0.750000000000112
40
0.875000000000056
40
0.875000000000056
40
1
40
1
40
1
40
1
41
1
10
38.066109749489
20
5.09889561820512
30
0
41
1
10
38.1520807496242
20
5.09898769449208
30
0
41
1
10
38.2366800667645
20
5.1069340995046
30
0
41
1
10
38.3616301933239
20
5.13011219536622
30
0
41
1
10
38.4029534665568
20
5.13972700996342
30
0
41
1
10
38.4644445758741
20
5.15702663418074
30
0
41
1
10
38.484859199991
20
5.16327349848569
30
0
41
1
10
38.5255216025195
20
5.17674488117734
30
0
41
1
10
38.5457905640423
20
5.18398034229904
30
0
41
1
10
38.6456872640595
20
5.22224162118198
30
0
41
1
10
38.7218097448111
20
5.25970972464853
30
0
41
1
10
38.8304809605328
20
5.32595346878969
30
0
41
1
10
38.8657800687756
20
5.34971908769802
30
0
41
1
10
38.934487595423
20
5.40070966117676
30
0
41
1
10
38.9679329847278
20
5.42798422964361
30
0
41
1
10
39
20
5.4567025466516
30
0
0
SPLINE
5
1C7
100
AcDbEntity
8
1
62
256
6
ByLayer
370
18
48
1
60
0
100
AcDbSpline
70
4
71
3
72
124
73
120
40
0
40
0
40
0
40
0
40
0.0312500000000028
40
0.0312500000000028
40
0.0625000000000056
40
0.0625000000000056
40
0.125000000000011
40
0.125000000000011
40
0.187500000000017
40
0.187500000000017
40
0.21875000000002
40
0.21875000000002
40
0.250000000000022
40
0.250000000000022
40
0.281250000000025
40
0.281250000000025
40
0.312500000000028
40
0.312500000000028
40
0.343750000000031
40
0.343750000000031
40
0.375000000000033
40
0.375000000000033
40
0.390625000000035
40
0.390625000000035
40
0.406250000000036
40
0.406250000000036
40
0.421875000000037
40
0.421875000000037
40
0.437500000000038
40
0.437500000000038
40
0.445312500000038
40
0.445312500000038
40
0.453125000000039
40
0.453125000000039
40
0.460937500000039
40
0.460937500000039
40
0.46875000000004
40
0.46875000000004
40
0.472656250000041
40
0.472656250000041
40
0.476562500000041
40
0.476562500000041
40
0.480468750000042
40
0.480468750000042
40
0.484375000000042
40
0.484375000000042
40
0.486328125000042
40
0.486328125000042
40
0.488281250000043
40
0.488281250000043
40
0.492187500000043
40
0.492187500000043
40
0.493164062500043
40
0.493164062500043
40
0.494140625000043
40
0.496093750000043
40
0.498046875000042
40
0.498046875000042
40
0.500000000000042
40
0.500000000000042
40
0.503906250000042
40
0.503906250000042
40
0.505859375000042
40
0.505859375000042
40
0.507812500000042
40
0.507812500000042
40
0.511718750000042
40
0.511718750000042
40
0.513671875000041
40
0.513671875000041
40
0.515625000000041
40
0.515625000000041
40
0.519531250000041
40
0.519531250000041
40
0.52343750000004
40
0.52343750000004
40
0.527343750000039
40
0.527343750000039
40
0.529296875000039
40
0.529296875000039
40
0.531250000000038
40
0.531250000000038
40
0.539062500000038
40
0.539062500000038
40
0.546875000000037
40
0.546875000000037
40
0.554687500000036
40
0.554687500000036
40
0.562500000000035
40
0.562500000000035
40
0.578125000000033
40
0.578125000000033
40
0.585937500000032
40
0.585937500000032
40
0.593750000000032
40
0.593750000000032
40
0.60937500000003
40
0.60937500000003
40
0.625000000000029
40
0.625000000000029
40
0.656250000000027
40
0.656250000000027
40
0.687500000000024
40
0.687500000000024
40
0.718750000000022
40
0.718750000000022
40
0.750000000000019
40
0.750000000000019
40
0.781250000000017
40
0.781250000000017
40
0.812500000000015
40
0.812500000000015
40
0.843750000000012
40
0.843750000000012
40
0.87500000000001
40
0.87500000000001
40
0.937500000000005
40
0.937500000000005
40
1
40
1
40
1
40
1
41
1
10
38.0661097494887
20
1.27738363206373
30
0
41
1
10
37.7276916163248
20
1.29424872979956
30
0
41
1
10
37.3893772274626
20
1.31220286007672
30
0
41
1
10
36.7130081870998
20
1.35082353588271
30
0
41
1
10
36.3749511623533
20
1.37146443012085
30
0
41
1
10
35.3611878402629
20
1.43759639239167
30
0
41
1
10
34.6858869019884
20
1.48727692195865
30
0
41
1
10
33.3365502192577
20
1.59938262521621
30
0
41
1
10
32.6625127371125
20
1.66179384306463
30
0
41
1
10
31.6526130562943
20
1.76672073187919
30
0
41
1
10
31.3161734766122
20
1.80358867253403
30
0
41
1
10
30.6437316247404
20
1.88152658687301
30
0
41
1
10
30.3077291571479
20
1.92259499700617
30
0
41
1
10
29.6362267020134
20
2.00947407410587
30
0
41
1
10
29.300943074002
20
2.05525640775753
30
0
41
1
10
28.631690240096
20
2.15214928551228
30
0
41
1
10
28.2976891863367
20
2.2032621313713
30
0
41
1
10
27.6312121534919
20
2.3118087443541
30
0
41
1
10
27.298731774863
20
2.36922516265648
30
0
41
1
10
26.6357129117693
20
2.49187802090785
30
0
41
1
10
26.3051678679994
20
2.55709175327004
30
0
41
1
10
25.8113302067639
20
2.66265209249448
30
0
41
1
10
25.6471376184838
20
2.69912249899383
30
0
41
1
10
25.3202833361129
20
2.77502992231626
30
0
41
1
10
25.1575523402711
20
2.81447116861571
30
0
41
1
10
24.8338153490438
20
2.89696336681854
30
0
41
1
10
24.6728084224115
20
2.9400148007214
30
0
41
1
10
24.3530768005412
20
3.03081988089443
30
0
41
1
10
24.1943413430941
20
3.07855261163317
30
0
41
1
10
23.9586642726381
20
3.15507140285652
30
0
41
1
10
23.8804593902102
20
3.18142702601983
30
0
41
1
10
23.7258394040206
20
3.23590262036871
30
0
41
1
10
23.6493419152562
20
3.26404483398738
30
0
41
1
10
23.4984005013484
20
3.3225935673029
30
0
41
1
10
23.423951651091
20
3.35299486610035
30
0
41
1
10
23.2777645574527
20
3.41675963260423
30
0
41
1
10
23.2060092285586
20
3.45010384012562
30
0
41
1
10
23.1012844411822
20
3.50327918815699
30
0
41
1
10
23.0668472101101
20
3.5215430608738
30
0
41
1
10
22.9992515574899
20
3.55933969002265
30
0
41
1
10
22.9663442784993
20
3.57873125671233
30
0
41
1
10
22.9027018892469
20
3.6187114134938
30
0
41
1
10
22.871963359859
20
3.6392981151678
30
0
41
1
10
22.8132295067399
20
3.6819778690903
30
0
41
1
10
22.7852267170073
20
3.70406678793938
30
0
41
1
10
22.7459591757831
20
3.7387001694359
30
0
41
1
10
22.7332924421829
20
3.75053724666316
30
0
41
1
10
22.709235662834
20
3.77459794201664
30
0
41
1
10
22.6978713406208
20
3.7867918160166
30
0
41
1
10
22.6660201145629
20
3.82392478544097
30
0
41
1
10
22.6477469205026
20
3.84940833915931
30
0
41
1
10
22.6297667855588
20
3.88245630194305
30
0
41
1
10
22.6264275567598
20
3.88910825159141
30
0
41
1
10
22.6203384957659
20
3.90238299866169
30
0
41
1
10
22.6120615338487
20
3.92230108608899
30
0
41
1
10
22.6026469213213
20
3.95552817108734
30
0
41
1
10
22.6000160464638
20
3.98214343851635
30
0
41
1
10
22.5999627815936
20
4.00877639098937
30
0
41
1
10
22.6012545316152
20
4.02217367380268
30
0
41
1
10
22.6088978961231
20
4.06128456230201
30
0
41
1
10
22.6189439892269
20
4.0862372216281
30
0
41
1
10
22.6404024098366
20
4.12222056136216
30
0
41
1
10
22.6486530748992
20
4.13399536542505
30
0
41
1
10
22.6667393409087
20
4.15664221786631
30
0
41
1
10
22.6766074427061
20
4.16757899720702
30
0
41
1
10
22.708347537579
20
4.19938900254348
30
0
41
1
10
22.7323396602882
20
4.21926924948821
30
0
41
1
10
22.7716168733471
20
4.24755189089933
30
0
41
1
10
22.7853007222724
20
4.25674406805234
30
0
41
1
10
22.8133879247168
20
4.27450253418553
30
0
41
1
10
22.827803581979
20
4.28308220220103
30
0
41
1
10
22.8720242177286
20
4.30804006753485
30
0
41
1
10
22.9027918787733
20
4.3236453404092
30
0
41
1
10
22.966314519111
20
4.35326420505072
30
0
41
1
10
22.9990734242007
20
4.36727466347199
30
0
41
1
10
23.0661997795145
20
4.39401180741319
30
0
41
1
10
23.1005691672654
20
4.40673694357062
30
0
41
1
10
23.1531294923405
20
4.42502528470479
30
0
41
1
10
23.1708307574275
20
4.43099142137271
30
0
41
1
10
23.2063890172874
20
4.44262871031884
30
0
41
1
10
23.2242635326222
20
4.44830620518172
30
0
41
1
10
23.3140696015751
20
4.47605394842867
30
0
41
1
10
23.387287665524
20
4.4962280774954
30
0
41
1
10
23.5356800288323
20
4.53371890320895
30
0
41
1
10
23.6108591296836
20
4.55102686789525
30
0
41
1
10
23.7627237410262
20
4.58346528885818
30
0
41
1
10
23.839412336671
20
4.59859104834783
30
0
41
1
10
23.9940000438107
20
4.62711373579026
30
0
41
1
10
24.0719006771979
20
4.64050834779607
30
0
41
1
10
24.3071060792236
20
4.67857200844571
30
0
41
1
10
24.465898506753
20
4.7011449171556
30
0
41
1
10
24.7062589343012
20
4.73202776344283
30
0
41
1
10
24.7867399298821
20
4.74181684684376
30
0
41
1
10
24.9478201581292
20
4.76047005197199
30
0
41
1
10
25.0284906175176
20
4.76934321693241
30
0
41
1
10
25.2708448674516
20
4.79478919281138
30
0
41
1
10
25.4328693768529
20
4.81019686333076
30
0
41
1
10
25.757642629385
20
4.83861878346298
30
0
41
1
10
25.9203931536618
20
4.85162728994118
30
0
41
1
10
26.409569716756
20
4.88774576867533
30
0
41
1
10
26.7368970668267
20
4.90801162166386
30
0
41
1
10
27.3933147421683
20
4.94341957509965
30
0
41
1
10
27.7224125111696
20
4.95853465866549
30
0
41
1
10
28.3820092271509
20
4.98505051685038
30
0
41
1
10
28.7125110702353
20
4.9964406699979
30
0
41
1
10
29.3746795385415
20
5.0164387310455
30
0
41
1
10
29.7063474984646
20
5.02504169261971
30
0
41
1
10
30.3706825429622
20
5.04012193751515
30
0
41
1
10
30.7033483229543
20
5.04659857208333
30
0
41
1
10
31.3695452313813
20
5.057916932777
30
0
41
1
10
31.7030775370523
20
5.06275645527631
30
0
41
1
10
32.3709124153736
20
5.07116545080527
30
0
41
1
10
32.7052742199421
20
5.07473442706734
30
0
41
1
10
33.374194695652
20
5.08088251066516
30
0
41
1
10
33.7087990993871
20
5.08346179906104
30
0
41
1
10
34.7130075507131
20
5.09005710312482
30
0
41
1
10
35.3830051621497
20
5.09294718316647
30
0
41
1
10
36.7239038675491
20
5.09701052910685
30
0
41
1
10
37.3948055995317
20
5.09817664094959
30
0
41
1
10
38.0661097494892
20
5.09889561820287
30
0
0
SPLINE
5
1C8
100
AcDbEntity
8
1
62
256
6
ByLayer
370
18
48
1
60
0
100
AcDbSpline
70
4
71
3
72
20
73
16
40
0
40
0
40
0
40
0
40
0.250000000000082
40
0.250000000000082
40
0.375000000000123
40
0.375000000000123
40
0.437500000000126
40
0.437500000000126
40
0.500000000000129
40
0.500000000000129
40
0.750000000000065
40
0.750000000000065
40
0.875000000000033
40
0.875000000000033
40
1
40
1
40
1
40
1
41
1
10
39
20
1.28929494930358
30
0
41
1
10
38.9360269426374
20
1.28314689678672
30
0
41
1
10
38.867813102447
20
1.27828572948496
30
0
41
1
10
38.7593911350187
20
1.27286129104152
30
0
41
1
10
38.7222270161018
20
1.27136634115624
30
0
41
1
10
38.6649198366536
20
1.26960339932762
30
0
41
1
10
38.6455568749174
20
1.2690957874386
30
0
41
1
10
38.6063004104259
20
1.26824379809602
30
0
41
1
10
38.586378149717
20
1.26789947330658
30
0
41
1
10
38.48644100964
20
1.26660577716294
30
0
41
1
10
38.4047293047782
20
1.26690978639755
30
0
41
1
10
38.279586736053
20
1.26933172841277
30
0
41
1
10
38.2374406855788
20
1.27046869079689
30
0
41
1
10
38.1522633695198
20
1.27341923908358
30
0
41
1
10
38.109159182201
20
1.27523825975945
30
0
41
1
10
38.0661097494887
20
1.27738363206376
30
0
0
SPLINE
5
1C9
100
AcDbEntity
8
SK1
62
256
6
ByLayer
370
18
48
1
60
0
100
AcDbSpline
70
4
71
3
72
26
73
22
40
0
40
0
40
0
40
0
40
0.124961723442778
40
0.124961723442778
40
0.249923446885556
40
0.249923446885556
40
0.374885170328333
40
0.374885170328333
40
0.499846893771111
40
0.624808617213889
40
0.624808617213889
40
0.687289478935277
40
0.718529909795972
40
0.718529909795972
40
0.749770340656666
40
0.749770340656666
40
0.874732064099443
40
0.874732064099443
40
0.99969378754222
40
0.99969378754222
40
1
40
1
40
1
40
1
41
1
10
-26.6
20
3.99999999999997
30
0
41
1
10
-26.6710062365827
20
3.99999999999997
30
0
41
1
10
-26.7402739415625
20
3.99999999999997
30
0
41
1
10
-26.8745573813249
20
3.99999999999997
30
0
41
1
10
-26.9392423196071
20
3.99999999999997
30
0
41
1
10
-27.0626728157255
20
3.99999999999997
30
0
41
1
10
-27.1214301765196
20
3.99999999999997
30
0
41
1
10
-27.2318645443434
20
3.99999999999997
30
0
41
1
10
-27.3352200036157
20
3.99999999999997
30
0
41
1
10
-27.421623334863
20
3.99999999999997
30
0
41
1
10
-27.4788315328965
20
3.99999999999997
30
0
41
1
10
-27.5055340372476
20
3.99999999999997
30
0
41
1
10
-27.5291257140119
20
3.99999999999997
30
0
41
1
10
-27.544131772154
20
3.99999999999997
30
0
41
1
10
-27.5512780696462
20
3.99999999999997
30
0
41
1
10
-27.5849647402608
20
3.99999999999997
30
0
41
1
10
-27.6055053420655
20
3.99999999999997
30
0
41
1
10
-27.6330229257328
20
3.99999999999997
30
0
41
1
10
-27.6399949986262
20
3.99999999999997
30
0
41
1
10
-27.6400049445836
20
4.00000000000065
30
0
41
1
10
-27.6400039034078
20
3.99999999999991
30
0
41
1
10
-27.6400029033078
20
3.99999999999945
30
0
0
SPLINE
5
1CA
100
AcDbEntity
8
SK1
62
256
6
ByLayer
370
18
48
1
60
0
100
AcDbSpline
70
4
71
3
72
26
73
22
40
0
40
0
40
0
40
0
40
0.0003062141959679
40
0.0003062141959679
40
0.125267937421472
40
0.125267937421472
40
0.250229660646976
40
0.250229660646976
40
0.281470091453352
40
0.281470091453352
40
0.312710522259728
40
0.37519138387248
40
0.37519138387248
40
0.500153107097984
40
0.625114830323488
40
0.625114830323488
40
0.750076553548992
40
0.750076553548992
40
0.875038276774496
40
0.875038276774496
40
1
40
1
40
1
40
1
41
1
10
-27.6400029033073
20
-4.00000000000003
30
0
41
1
10
-27.6400039034073
20
-4.00000000000003
30
0
41
1
10
-27.6400049445837
20
-4.00000000000003
30
0
41
1
10
-27.6399949986261
20
-4.00000000000003
30
0
41
1
10
-27.6330229257328
20
-4.00000000000003
30
0
41
1
10
-27.6055053420655
20
-4.00000000000003
30
0
41
1
10
-27.5849647402608
20
-4.00000000000003
30
0
41
1
10
-27.5512780696461
20
-4.00000000000003
30
0
41
1
10
-27.5441317721539
20
-4.00000000000003
30
0
41
1
10
-27.5291257140119
20
-4.00000000000003
30
0
41
1
10
-27.5055340372475
20
-4.00000000000003
30
0
41
1
10
-27.4788315328964
20
-4.00000000000003
30
0
41
1
10
-27.4216233348629
20
-4.00000000000003
30
0
41
1
10
-27.3352200036156
20
-4.00000000000003
30
0
41
1
10
-27.2318645443433
20
-4.00000000000003
30
0
41
1
10
-27.1214301765195
20
-4.00000000000003
30
0
41
1
10
-27.0626728157254
20
-4.00000000000003
30
0
41
1
10
-26.9392423196069
20
-4.00000000000003
30
0
41
1
10
-26.8745573813247
20
-4.00000000000003
30
0
41
1
10
-26.7402739415623
20
-4.00000000000003
30
0
41
1
10
-26.6710062365825
20
-4.00000000000003
30
0
41
1
10
-26.5999999999999
20
-4.00000000000003
30
0
0
SPLINE
5
1CB
100
AcDbEntity
8
SK1
62
256
6
ByLayer
370
18
48
1
60
0
100
AcDbSpline
70
4
71
3
72
44
73
40
40
0
40
0
40
0
40
0
40
0.0625
40
0.0625
40
0.125
40
0.125
40
0.15625
40
0.15625
40
0.1875
40
0.1875
40
0.25
40
0.25
40
0.374999999999999
40
0.374999999999999
40
0.406249999999999
40
0.406249999999999
40
0.421874999999999
40
0.421874999999999
40
0.437499999999999
40
0.437499999999999
40
0.499999999999999
40
0.499999999999999
40
0.562499999999999
40
0.562499999999999
40
0.624999999999999
40
0.624999999999999
40
0.640624999999999
40
0.640624999999999
40
0.656249999999999
40
0.687499999999999
40
0.687499999999999
40
0.749999999999999
40
0.812499999999999
40
0.812499999999999
40
0.874999999999999
40
0.874999999999999
40
0.9375
40
0.9375
40
1
40
1
40
1
40
1
41
1
10
-26.6
20
-3.06620286347794
30
0
41
1
10
-26.6705834928899
20
-2.95018288045523
30
0
41
1
10
-26.7394238972863
20
-2.83289857497976
30
0
41
1
10
-26.8728572585152
20
-2.59524914320858
30
0
41
1
10
-26.9374524586358
20
-2.47488564404739
30
0
41
1
10
-27.0304250040001
20
-2.29149689871676
30
0
41
1
10
-27.0607990303348
20
-2.22980896730277
30
0
41
1
10
-27.1198359740746
20
-2.1059081963256
30
0
41
1
10
-27.1485077616264
20
-2.04368335645046
30
0
41
1
10
-27.2317580392676
20
-1.85611252908029
30
0
41
1
10
-27.283577620261
20
-1.72987223577684
30
0
41
1
10
-27.4259737080634
20
-1.34691707050433
30
0
41
1
10
-27.5035638356485
20
-1.08599263817371
30
0
41
1
10
-27.5707917338372
20
-0.750190412618309
30
0
41
1
10
-27.5827436064003
20
-0.682545779421787
30
0
41
1
10
-27.5982661766754
20
-0.580299166815081
30
0
41
1
10
-27.6030442572572
20
-0.546043222385038
30
0
41
1
10
-27.6117285745643
20
-0.477621407425005
30
0
41
1
10
-27.6156402372226
20
-0.443427017281749
30
0
41
1
10
-27.633033475864
20
-0.272538136483632
30
0
41
1
10
-27.6400028456055
20
-0.136093507162485
30
0
41
1
10
-27.6399971526468
20
0.136260729344684
30
0
41
1
10
-27.6330229257328
20
0.272170368598267
30
0
41
1
10
-27.6055053420655
20
0.543469024638483
30
0
41
1
10
-27.5849647402608
20
0.678858147127386
30
0
41
1
10
-27.5512780696461
20
0.847787186087089
30
0
41
1
10
-27.5441317721539
20
0.881596185948723
30
0
41
1
10
-27.5291257140119
20
0.948874433420372
30
0
41
1
10
-27.5055340372475
20
1.0493578842194
30
0
41
1
10
-27.4788315328964
20
1.14859446211508
30
0
41
1
10
-27.4216233348629
20
1.34554323457394
30
0
41
1
10
-27.3352200036156
20
1.60408303053032
30
0
41
1
10
-27.2318645443433
20
1.85582812363052
30
0
41
1
10
-27.1214301765195
20
2.10473586910786
30
0
41
1
10
-27.0626728157254
20
2.22777077840212
30
0
41
1
10
-26.9392423196069
20
2.47146945337741
30
0
41
1
10
-26.8745573813247
20
2.5921519133756
30
0
41
1
10
-26.7402739415623
20
2.83145256676909
30
0
41
1
10
-26.6710062365825
20
2.94948800529335
30
0
41
1
10
-26.5999999999998
20
3.0662028634782
30
0
0
SPLINE
5
1CC
100
AcDbEntity
8
1
62
256
6
ByLayer
370
18
48
1
60
0
100
AcDbSpline
70
4
71
1
72
4
73
2
40
0
40
0
40
1
40
1
41
1
10
60
20
6.08502633959827
30
0
41
1
10
59.4667354709
20
6.28904835945303
30
0
0
SPLINE
5
1CD
100
AcDbEntity
8
1
62
256
6
ByLayer
370
18
48
1
60
0
100
AcDbSpline
70
4
71
2
72
6
73
3
40
0
40
0
40
0
40
1
40
1
40
1
41
1
10
59.4580174261963
20
6.28860094685882
30
0
41
1
10
59.4386623162018
20
6.2551620911963
30
0
41
1
10
59.4193061441738
20
6.22172388501377
30
0
0
SPLINE
5
1CE
100
AcDbEntity
8
1
62
256
6
ByLayer
370
18
48
1
60
0
100
AcDbSpline
70
4
71
3
72
8
73
4
40
0
40
0
40
0
40
0
40
1
40
1
40
1
40
1
41
1
10
59.419306147934
20
6.22172389150967
30
0
41
1
10
59.4118230747225
20
6.19175862292534
30
0
41
1
10
59.3856771895986
20
6.17179590423103
30
0
41
1
10
59.3433786676799
20
6.15059501687847
30
0
0
SPLINE
5
1CF
100
AcDbEntity
8
1
62
256
6
ByLayer
370
18
48
1
60
0
100
AcDbSpline
70
4
71
3
72
8
73
4
40
0
40
0
40
0
40
0
40
1
40
1
40
1
40
1
41
1
10
57.9193936715844
20
6.22172121799821
30
0
41
1
10
57.9112681896942
20
6.18997056677233
30
0
41
1
10
57.8825485277923
20
6.1693469524684
30
0
41
1
10
57.8359303253211
20
6.14688422007578
30
0
0
SPLINE
5
1D0
100
AcDbEntity
8
1
62
256
6
ByLayer
370
18
48
1
60
0
100
AcDbSpline
70
4
71
3
72
8
73
4
40
0
40
0
40
0
40
0
40
1
40
1
40
1
40
1
41
1
10
57.7653010841851
20
6.12808631128351
30
0
41
1
10
57.7582523932165
20
6.12820343444352
30
0
41
1
10
57.7508781467867
20
6.12891091505853
30
0
41
1
10
57.7432297936609
20
6.12996128210133
30
0
0
SPLINE
5
1D1
100
AcDbEntity
8
1
62
256
6
ByLayer
370
18
48
1
60
0
100
AcDbSpline
70
4
71
3
72
8
73
4
40
0
40
0
40
0
40
0
40
1
40
1
40
1
40
1
41
1
10
56.4192254883911
20
6.22144404677854
30
0
41
1
10
56.4119216673128
20
6.19097468955806
30
0
41
1
10
56.3853252764488
20
6.170972113235
30
0
41
1
10
56.3419096065003
20
6.14961494329776
30
0
0
SPLINE
5
1D2
100
AcDbEntity
8
1
62
256
6
ByLayer
370
18
48
1
60
0
100
AcDbSpline
70
4
71
3
72
8
73
4
40
0
40
0
40
0
40
0
40
1
40
1
40
1
40
1
41
1
10
54.9193430214109
20
6.22149369499505
30
0
41
1
10
54.9117634252319
20
6.19134990862185
30
0
41
1
10
54.885532133652
20
6.17131375102537
30
0
41
1
10
54.8429621638018
20
6.15017594352426
30
0
0
SPLINE
5
1D3
100
AcDbEntity
8
1
62
256
6
ByLayer
370
18
48
1
60
0
100
AcDbSpline
70
4
71
3
72
8
73
4
40
0
40
0
40
0
40
0
40
1
40
1
40
1
40
1
41
1
10
53.4193307926951
20
6.22171418193682
30
0
41
1
10
53.4115947391935
20
6.19053923931608
30
0
41
1
10
53.3846628615739
20
6.17023244566991
30
0
41
1
10
53.3404011478122
20
6.14898970121726
30
0
0
SPLINE
5
1D4
100
AcDbEntity
8
1
62
256
6
ByLayer
370
18
48
1
60
0
100
AcDbSpline
70
4
71
3
72
8
73
4
40
0
40
0
40
0
40
0
40
1
40
1
40
1
40
1
41
1
10
51.9192482606427
20
6.22136662975467
30
0
41
1
10
51.9117625103513
20
6.19059262535808
30
0
41
1
10
51.8850451243908
20
6.17041142681654
30
0
41
1
10
51.8411987024338
20
6.1491593016182
30
0
0
SPLINE
5
1D5
100
AcDbEntity
8
1
62
256
6
ByLayer
370
18
48
1
60
0
100
AcDbSpline
70
4
71
3
72
8
73
4
40
0
40
0
40
0
40
0
40
1
40
1
40
1
40
1
41
1
10
50.4193947086331
20
6.22168679278047
30
0
41
1
10
50.4114907913472
20
6.19050529277723
30
0
41
1
10
50.3846275029454
20
6.17014274328611
30
0
41
1
10
50.3405019940851
20
6.14901569020415
30
0
0
SPLINE
5
1D6
100
AcDbEntity
8
1
62
256
6
ByLayer
370
18
48
1
60
0
100
AcDbSpline
70
4
71
3
72
8
73
4
40
0
40
0
40
0
40
0
40
1
40
1
40
1
40
1
41
1
10
48.9192279703256
20
6.22149271542651
30
0
41
1
10
48.9117085282885
20
6.18981279020363
30
0
41
1
10
48.8843105478427
20
6.16947626269356
30
0
41
1
10
48.8388371964136
20
6.14810423179745
30
0
0
SPLINE
5
1D7
100
AcDbEntity
8
1
62
256
6
ByLayer
370
18
48
1
60
0
100
AcDbSpline
70
4
71
3
72
8
73
4
40
0
40
0
40
0
40
0
40
1
40
1
40
1
40
1
41
1
10
47.4193321937266
20
6.22145844488952
30
0
41
1
10
47.411563036705
20
6.19025122514083
30
0
41
1
10
47.3846284452674
20
6.16989876125663
30
0
41
1
10
47.3402428965111
20
6.14874957240818
30
0
0
SPLINE
5
1D8
100
AcDbEntity
8
1
62
256
6
ByLayer
370
18
48
1
60
0
100
AcDbSpline
70
4
71
3
72
10
73
6
40
0
40
0
40
0
40
0
40
0.655125086562577
40
0.918365376085515
40
1
40
1
40
1
40
1
41
1
10
45.9193512800516
20
6.22176497727185
30
0
41
1
10
45.9109649816362
20
6.18792093674867
30
0
41
1
10
45.8690149528983
20
6.15848600795556
30
0
41
1
10
45.7802613829856
20
6.12363948289993
30
0
41
1
10
45.7423215274056
20
6.1288645960866
30
0
41
1
10
45.7329726057462
20
6.13064055178603
30
0
0
SPLINE
5
1D9
100
AcDbEntity
8
1
62
256
6
ByLayer
370
18
48
1
60
0
100
AcDbSpline
70
4
71
3
72
8
73
4
40
0
40
0
40
0
40
0
40
1
40
1
40
1
40
1
41
1
10
44.4129070924734
20
6.21133436680873
30
0
41
1
10
44.4015905881327
20
6.18063495389003
30
0
41
1
10
44.3734441273275
20
6.16134719637114
30
0
41
1
10
44.3277732696981
20
6.14294037554203
30
0
0
SPLINE
5
1DA
100
AcDbEntity
8
1
62
256
6
ByLayer
370
18
48
1
60
0
100
AcDbSpline
70
4
71
2
72
6
73
3
40
0
40
0
40
0
40
1
40
1
40
1
41
1
10
58.2335669245466
20
6.76460667855633
30
0
41
1
10
58.0765120374749
20
6.49314556859679
30
0
41
1
10
57.9193936715984
20
6.22172121802234
30
0
0
SPLINE
5
1DB
100
AcDbEntity
8
1
62
256
6
ByLayer
370
18
48
1
60
0
100
AcDbSpline
70
4
71
2
72
6
73
3
40
0
40
0
40
0
40
1
40
1
40
1
41
1
10
46.0442760202273
20
6.43762931382031
30
0
41
1
10
45.9818188682776
20
6.32969382007968
30
0
41
1
10
45.9193512159165
20
6.22176486645981
30
0
0
SPLINE
5
1DC
100
AcDbEntity
8
1
62
256
6
ByLayer
370
18
48
1
60
0
100
AcDbSpline
70
4
71
2
72
6
73
3
40
0
40
0
40
0
40
1
40
1
40
1
41
1
10
47.6783172025082
20
6.66886517104879
30
0
41
1
10
47.5488469009291
20
6.44514997853469
30
0
41
1
10
47.4193321936378
20
6.22145844473624
30
0
0
SPLINE
5
1DD
100
AcDbEntity
8
1
62
256
6
ByLayer
370
18
48
1
60
0
100
AcDbSpline
70
4
71
1
72
4
73
2
40
0
40
0
40
1
40
1
41
1
10
58.9127261725577
20
6.5010071340059
30
0
41
1
10
58.2386316521176
20
6.75890939124542
30
0
0
SPLINE
5
1DE
100
AcDbEntity
8
1
62
256
6
ByLayer
370
18
48
1
60
0
100
AcDbSpline
70
4
71
2
72
6
73
3
40
0
40
0
40
0
40
1
40
1
40
1
41
1
10
49.3121273896511
20
6.9003787141265
30
0
41
1
10
49.1157334279478
20
6.56091401680268
30
0
41
1
10
48.91922803885
20
6.22149283379093
30
0
0
SPLINE
5
1DF
100
AcDbEntity
8
1
62
256
6
ByLayer
370
18
48
1
60
0
100
AcDbSpline
70
4
71
2
72
6
73
3
40
0
40
0
40
0
40
1
40
1
40
1
41
1
10
56.9175149275933
20
7.08260326696848
30
0
41
1
10
56.6684499992531
20
6.65198027544417
30
0
41
1
10
56.4192255908644
20
6.22144422380274
30
0
0
SPLINE
5
1E0
100
AcDbEntity
8
1
62
256
6
ByLayer
370
18
48
1
60
0
100
AcDbSpline
70
4
71
2
72
6
73
3
40
0
40
0
40
0
40
1
40
1
40
1
41
1
10
55.4176480144939
20
7.082533362633
30
0
41
1
10
55.1685702704164
20
6.65197025964846
30
0
41
1
10
54.9193430211273
20
6.2214936945052
30
0
0
SPLINE
5
1E1
100
AcDbEntity
8
1
62
256
6
ByLayer
370
18
48
1
60
0
100
AcDbSpline
70
4
71
2
72
6
73
3
40
0
40
0
40
0
40
1
40
1
40
1
41
1
10
53.9175369998479
20
7.08272447315977
30
0
41
1
10
53.6685110807811
20
6.65218276375606
30
0
41
1
10
53.4193304921968
20
6.22171366280213
30
0
0
SPLINE
5
1E2
100
AcDbEntity
8
1
62
256
6
ByLayer
370
18
48
1
60
0
100
AcDbSpline
70
4
71
2
72
6
73
3
40
0
40
0
40
0
40
1
40
1
40
1
41
1
10
52.4174830736478
20
7.08251648795166
30
0
41
1
10
52.1684418217795
20
6.65189875609644
30
0
41
1
10
51.9192482614886
20
6.2213666312162
30
0
0
SPLINE
5
1E3
100
AcDbEntity
8
1
62
256
6
ByLayer
370
18
48
1
60
0
100
AcDbSpline
70
4
71
2
72
6
73
3
40
0
40
0
40
0
40
1
40
1
40
1
41
1
10
50.9176567532684
20
7.08279402591003
30
0
41
1
10
50.6686012983377
20
6.65219668203287
30
0
41
1
10
50.4193947079345
20
6.22168679157372
30
0
0
LINE
5
7F
100
AcDbEntity
8
80
62
256
6
ByLayer
370
18
48
1
60
0
100
AcDbLine
10
0
20
0
30
0
11
-5
21
0
31
0
39
0
210
0
220
0
230
1
0
LINE
5
80
100
AcDbEntity
8
4
62
256
6
ByLayer
370
18
48
0.05
60
0
100
AcDbLine
10
0
20
0
30
0
11
60
21
0
31
0
39
0
210
0
220
0
230
1
0
LINE
5
82
100
AcDbEntity
8
81
62
256
6
ByLayer
370
18
48
1
60
0
100
AcDbLine
10
60
20
0
30
0
11
65
21
0
31
0
39
0
210
0
220
0
230
1
0
LINE
5
83
100
AcDbEntity
8
SK4
62
256
6
ByLayer
370
18
48
0.05
60
0
100
AcDbLine
10
-28
20
0
30
0
11
60
21
0
31
0
39
0
210
0
220
0
230
1
0
LINE
5
85
100
AcDbEntity
8
1
62
256
6
ByLayer
370
18
48
1
60
0
100
AcDbLine
10
0
20
5.25
30
0
11
0
21
-5.25
31
0
39
0
210
0
220
0
230
1
0
LINE
5
86
100
AcDbEntity
8
1
62
256
6
ByLayer
370
18
48
1
60
0
100
AcDbLine
10
45.484986
20
6.368138
30
0
11
45.482981
21
6.368124
31
0
39
0
210
0
220
0
230
1
0
LINE
5
87
100
AcDbEntity
8
1
62
256
6
ByLayer
370
18
48
1
60
0
100
AcDbLine
10
44.425185
20
6.21946
30
0
11
44.426781
21
6.21957
31
0
39
0
210
0
220
0
230
1
0
LINE
5
88
100
AcDbEntity
8
1
62
256
6
ByLayer
370
18
48
1
60
0
100
AcDbLine
10
46.873256
20
6.562927
30
0
11
46.870295
21
6.563099
31
0
39
0
210
0
220
0
230
1
0
LINE
5
89
100
AcDbEntity
8
1
62
256
6
ByLayer
370
18
48
1
60
0
100
AcDbLine
10
46.058534
20
6.449013
30
0
11
46.061388
21
6.449027
31
0
39
0
210
0
220
0
230
1
0
LINE
5
8A
100
AcDbEntity
8
1
62
256
6
ByLayer
370
18
48
1
60
0
100
AcDbLine
10
58.907611
20
6.502569
30
0
11
58.904307
21
6.504229
31
0
39
0
210
0
220
0
230
1
0
LINE
5
8B
100
AcDbEntity
8
1
62
256
6
ByLayer
370
18
48
1
60
0
100
AcDbLine
10
44.111802
20
6.175331
30
0
11
44.110723
21
6.175265
31
0
39
0
210
0
220
0
230
1
0
LINE
5
8C
100
AcDbEntity
8
1
62
256
6
ByLayer
370
18
48
1
60
0
100
AcDbLine
10
48.261441
20
6.757593
30
0
11
48.257638
21
6.758078
31
0
39
0
210
0
220
0
230
1
0
LINE
5
8D
100
AcDbEntity
8
1
62
256
6
ByLayer
370
18
48
1
60
0
100
AcDbLine
10
47.6912
20
6.67847
30
0
11
47.695269
21
6.678211
31
0
39
0
210
0
220
0
230
1
0
LINE
5
8E
100
AcDbEntity
8
1
62
256
6
ByLayer
370
18
48
1
60
0
100
AcDbLine
10
49.649722
20
6.95217
30
0
11
49.645059
21
6.953068
31
0
39
0
210
0
220
0
230
1
0
LINE
5
8F
100
AcDbEntity
8
1
62
256
6
ByLayer
370
18
48
1
60
0
100
AcDbLine
10
49.323701
20
6.907903
30
0
11
49.328979
21
6.907224
31
0
39
0
210
0
220
0
230
1
0
LINE
5
90
100
AcDbEntity
8
1
62
256
6
ByLayer
370
18
48
1
60
0
100
AcDbLine
10
56.928419
20
7.089301
30
0
11
56.933885
21
7.087438
31
0
39
0
210
0
220
0
230
1
0
LINE
5
91
100
AcDbEntity
8
1
62
256
6
ByLayer
370
18
48
1
60
0
100
AcDbLine
10
39
20
5.456703
30
0
11
39
21
5.457
31
0
39
0
210
0
220
0
230
1
0
LINE
5
92
100
AcDbEntity
8
1
62
256
6
ByLayer
370
18
48
1
60
0
100
AcDbLine
10
39
20
1.289295
30
0
11
39
21
-2.777694
31
0
39
0
210
0
220
0
230
1
0
LINE
5
93
100
AcDbEntity
8
1
62
256
6
ByLayer
370
18
48
1
60
0
100
AcDbLine
10
57.069609
20
7.088657
30
0
11
57.066399
21
7.089303
31
0
39
0
210
0
220
0
230
1
0
LINE
5
94
100
AcDbEntity
8
1
62
256
6
ByLayer
370
18
48
1
60
0
100
AcDbLine
10
55.428461
20
7.089304
30
0
11
55.433929
21
7.087411
31
0
39
0
210
0
220
0
230
1
0
LINE
5
95
100
AcDbEntity
8
1
62
256
6
ByLayer
370
18
48
1
60
0
100
AcDbLine
10
55.571743
20
7.087413
30
0
11
55.566257
21
7.089304
31
0
39
0
210
0
220
0
230
1
0
LINE
5
96
100
AcDbEntity
8
1
62
256
6
ByLayer
370
18
48
1
60
0
100
AcDbLine
10
53.92836
20
7.089304
30
0
11
53.933934
21
7.087384
31
0
39
0
210
0
220
0
230
1
0
LINE
5
97
100
AcDbEntity
8
1
62
256
6
ByLayer
370
18
48
1
60
0
100
AcDbLine
10
54.071884
20
7.087386
30
0
11
54.06631
21
7.089304
31
0
39
0
210
0
220
0
230
1
0
LINE
5
98
100
AcDbEntity
8
1
62
256
6
ByLayer
370
18
48
1
60
0
100
AcDbLine
10
52.571921
20
7.087359
30
0
11
52.566364
21
7.089301
31
0
39
0
210
0
220
0
230
1
0
LINE
5
99
100
AcDbEntity
8
1
62
256
6
ByLayer
370
18
48
1
60
0
100
AcDbLine
10
52.414391
20
7.07717
30
0
11
52.419493
21
7.084399
31
0
39
0
210
0
220
0
230
1
0
LINE
5
9A
100
AcDbEntity
8
1
62
256
6
ByLayer
370
18
48
1
60
0
100
AcDbLine
10
52.428369
20
7.089302
30
0
11
52.433945
21
7.087356
31
0
39
0
210
0
220
0
230
1
0
LINE
5
9B
100
AcDbEntity
8
1
62
256
6
ByLayer
370
18
48
1
60
0
100
AcDbLine
10
50.928289
20
7.089304
30
0
11
50.933907
21
7.087329
31
0
39
0
210
0
220
0
230
1
0
LINE
5
9C
100
AcDbEntity
8
1
62
256
6
ByLayer
370
18
48
1
60
0
100
AcDbLine
10
51.071831
20
7.087331
30
0
11
51.066212
21
7.089304
31
0
39
0
210
0
220
0
230
1
0
LINE
5
9D
100
AcDbEntity
8
1
62
256
6
ByLayer
370
13
48
1
60
0
100
AcDbLine
10
38.06611
20
5.1
30
0
11
38.06611
21
5.098896
31
0
39
0
210
0
220
0
230
1
0
LINE
5
9E
100
AcDbEntity
8
1
62
256
6
ByLayer
370
13
48
1
60
0
100
AcDbLine
10
16.653835
20
-5.1
30
0
11
16.653835
21
5.1
31
0
39
0
210
0
220
0
230
1
0
LINE
5
9F
100
AcDbEntity
8
1
62
256
6
ByLayer
370
18
48
1
60
0
100
AcDbLine
10
16
20
5.25
30
0
11
16
21
-5.25
31
0
39
0
210
0
220
0
230
1
0
LINE
5
A0
100
AcDbEntity
8
1
62
256
6
ByLayer
370
13
48
1
60
0
100
AcDbLine
10
38.06611
20
-2.641359
30
0
11
38.06611
21
1.277384
31
0
39
0
210
0
220
0
230
1
0
LINE
5
A1
100
AcDbEntity
8
SK1
62
256
6
ByLayer
370
18
48
1
60
0
100
AcDbLine
10
-28
20
3.64
30
0
11
-28
21
-3.64
31
0
39
0
210
0
220
0
230
1
0
LINE
5
A3
100
AcDbEntity
8
SK1
62
256
6
ByLayer
370
18
48
1
60
0
100
AcDbLine
10
-17
20
4
30
0
11
-15.96
21
5.04
31
0
39
0
210
0
220
0
230
1
0
LINE
5
A4
100
AcDbEntity
8
SK1
62
256
6
ByLayer
370
18
48
1
60
0
100
AcDbLine
10
-26.6
20
4
30
0
11
-17
21
4
31
0
39
0
210
0
220
0
230
1
0
LINE
5
A5
100
AcDbEntity
8
SK1
62
256
6
ByLayer
370
18
48
1
60
0
100
AcDbLine
10
-26.6
20
3.066203
30
0
11
-26.6
21
4
31
0
39
0
210
0
220
0
230
1
0
LINE
5
A6
100
AcDbEntity
8
SK1
62
256
6
ByLayer
370
18
48
1
60
0
100
AcDbLine
10
-17
20
3.066203
30
0
11
-26.6
21
3.066203
31
0
39
0
210
0
220
0
230
1
0
LINE
5
A7
100
AcDbEntity
8
SK1
62
256
6
ByLayer
370
18
48
1
60
0
100
AcDbLine
10
-26.6
20
-3.066203
30
0
11
-17
21
-3.066203
31
0
39
0
210
0
220
0
230
1
0
LINE
5
A8
100
AcDbEntity
8
SK1
62
256
6
ByLayer
370
18
48
1
60
0
100
AcDbLine
10
-26.6
20
-4
30
0
11
-26.6
21
-3.066203
31
0
39
0
210
0
220
0
230
1
0
LINE
5
A9
100
AcDbEntity
8
SK1
62
256
6
ByLayer
370
18
48
1
60
0
100
AcDbLine
10
-17
20
-4
30
0
11
-26.6
21
-4
31
0
39
0
210
0
220
0
230
1
0
LINE
5
AA
100
AcDbEntity
8
SK1
62
256
6
ByLayer
370
18
48
1
60
0
100
AcDbLine
10
-17
20
-4
30
0
11
-15.96
21
-5.04
31
0
39
0
210
0
220
0
230
1
0
LINE
5
AB
100
AcDbEntity
8
SK1
62
256
6
ByLayer
370
18
48
1
60
0
100
AcDbLine
10
-17
20
3.066203
30
0
11
-17
21
-3.066203
31
0
39
0
210
0
220
0
230
1
0
LINE
5
AC
100
AcDbEntity
8
SK1
62
256
6
ByLayer
370
18
48
1
60
0
100
AcDbLine
10
0
20
5.25
30
0
11
0
21
-5.25
31
0
39
0
210
0
220
0
230
1
0
LINE
5
AD
100
AcDbEntity
8
SK1
62
256
6
ByLayer
370
18
48
1
60
0
100
AcDbLine
10
-14.8
20
5.04
30
0
11
-14.8
21
-5.04
31
0
39
0
210
0
220
0
230
1
0
LINE
5
AE
100
AcDbEntity
8
SK1
62
256
6
ByLayer
370
18
48
1
60
0
100
AcDbLine
10
-14.59
20
-5.25
30
0
11
-14.59
21
5.25
31
0
39
0
210
0
220
0
230
1
0
LINE
5
AF
100
AcDbEntity
8
1
62
256
6
ByLayer
370
18
48
1
60
0
100
AcDbLine
10
46.869483
20
6.562984
30
0
11
46.05814
21
6.448957
31
0
39
0
210
0
220
0
230
1
0
LINE
5
B0
100
AcDbEntity
8
1
62
256
6
ByLayer
370
18
48
1
60
0
100
AcDbLine
10
44.110651
20
6.175255
30
0
11
43.863131
21
6.140468
31
0
39
0
210
0
220
0
230
1
0
LINE
5
B1
100
AcDbEntity
8
1
62
256
6
ByLayer
370
18
48
1
60
0
100
AcDbLine
10
40.685847
20
5.69393
30
0
11
39
21
5.457
31
0
39
0
210
0
220
0
230
1
0
LINE
5
B2
100
AcDbEntity
8
1
62
256
6
ByLayer
370
18
48
1
60
0
100
AcDbLine
10
48.256577
20
6.757927
30
0
11
47.69056
21
6.678379
31
0
39
0
210
0
220
0
230
1
0
LINE
5
B3
100
AcDbEntity
8
1
62
256
6
ByLayer
370
18
48
1
60
0
100
AcDbLine
10
49.643789
20
6.952887
30
0
11
49.322606
21
6.907748
31
0
39
0
210
0
220
0
230
1
0
LINE
5
B4
100
AcDbEntity
8
1
62
256
6
ByLayer
370
18
48
1
60
0
100
AcDbLine
10
16
20
5.25
30
0
11
0
21
5.25
31
0
39
0
210
0
220
0
230
1
0
LINE
5
B5
100
AcDbEntity
8
1
62
256
6
ByLayer
370
18
48
1
60
0
100
AcDbLine
10
0
20
-5.25
30
0
11
16
21
-5.25
31
0
39
0
210
0
220
0
230
1
0
LINE
5
B6
100
AcDbEntity
8
1
62
256
6
ByLayer
370
18
48
1
60
0
100
AcDbLine
10
45.482408
20
6.368043
30
0
11
44.424847
21
6.219413
31
0
39
0
210
0
220
0
230
1
0
LINE
5
B7
100
AcDbEntity
8
1
62
256
6
ByLayer
370
18
48
1
60
0
100
AcDbLine
10
57.066379
20
7.089301
30
0
11
56.928405
21
7.089301
31
0
39
0
210
0
220
0
230
1
0
LINE
5
B8
100
AcDbEntity
8
1
62
256
6
ByLayer
370
18
48
1
60
0
100
AcDbLine
10
55.566262
20
7.089301
30
0
11
55.428437
21
7.089301
31
0
39
0
210
0
220
0
230
1
0
LINE
5
B9
100
AcDbEntity
8
1
62
256
6
ByLayer
370
18
48
1
60
0
100
AcDbLine
10
54.066319
20
7.089301
30
0
11
53.928377
21
7.089301
31
0
39
0
210
0
220
0
230
1
0
LINE
5
BA
100
AcDbEntity
8
1
62
256
6
ByLayer
370
18
48
1
60
0
100
AcDbLine
10
52.566357
20
7.089301
30
0
11
52.42836
21
7.089301
31
0
39
0
210
0
220
0
230
1
0
LINE
5
BB
100
AcDbEntity
8
1
62
256
6
ByLayer
370
18
48
1
60
0
100
AcDbLine
10
51.066229
20
7.089301
30
0
11
50.928307
21
7.089301
31
0
39
0
210
0
220
0
230
1
0
LINE
5
BC
100
AcDbEntity
8
1
62
256
6
ByLayer
370
18
48
1
60
0
100
AcDbLine
10
16.653835
20
-5.1
30
0
11
26.409565
21
-5.1
31
0
39
0
210
0
220
0
230
1
0
LINE
5
BD
100
AcDbEntity
8
1
62
256
6
ByLayer
370
18
48
1
60
0
100
AcDbLine
10
38.06611
20
5.1
30
0
11
16.653835
21
5.1
31
0
39
0
210
0
220
0
230
1
0
LINE
5
BE
100
AcDbEntity
8
SK1
62
256
6
ByLayer
370
18
48
1
60
0
100
AcDbLine
10
-28
20
-3.64
30
0
11
-27.64
21
-4
31
0
39
0
210
0
220
0
230
1
0
LINE
5
BF
100
AcDbEntity
8
SK1
62
256
6
ByLayer
370
18
48
1
60
0
100
AcDbLine
10
-27.64
20
4
30
0
11
-28
21
3.64
31
0
39
0
210
0
220
0
230
1
0
LINE
5
C0
100
AcDbEntity
8
SK1
62
256
6
ByLayer
370
18
48
1
60
0
100
AcDbLine
10
-14.8
20
5.04
30
0
11
-15.96
21
5.04
31
0
39
0
210
0
220
0
230
1
0
LINE
5
C1
100
AcDbEntity
8
SK1
62
256
6
ByLayer
370
18
48
1
60
0
100
AcDbLine
10
-15.96
20
-5.04
30
0
11
-14.8
21
-5.04
31
0
39
0
210
0
220
0
230
1
0
LINE
5
C2
100
AcDbEntity
8
SK1
62
256
6
ByLayer
370
18
48
1
60
0
100
AcDbLine
10
0
20
5.25
30
0
11
-14.59
21
5.25
31
0
39
0
210
0
220
0
230
1
0
LINE
5
C3
100
AcDbEntity
8
SK1
62
256
6
ByLayer
370
18
48
1
60
0
100
AcDbLine
10
-14.59
20
-5.25
30
0
11
0
21
-5.25
31
0
39
0
210
0
220
0
230
1
0
LINE
5
C4
100
AcDbEntity
8
SK1
62
256
6
ByLayer
370
18
48
1
60
0
100
AcDbLine
10
-14.8
20
-5.04
30
0
11
-14.59
21
-5.25
31
0
39
0
210
0
220
0
230
1
0
LINE
5
C5
100
AcDbEntity
8
SK1
62
256
6
ByLayer
370
18
48
1
60
0
100
AcDbLine
10
-14.59
20
5.25
30
0
11
-14.8
21
5.04
31
0
39
0
210
0
220
0
230
1
0
LINE
5
C6
100
AcDbEntity
8
SK2
62
256
6
ByLayer
370
18
48
1
60
0
100
AcDbLine
10
8.705
20
-5.25
30
0
11
8.705
21
23.041027
31
0
39
0
210
0
220
0
230
1
0
LINE
5
C8
100
AcDbEntity
8
1
62
256
6
ByLayer
370
18
48
1
60
1
100
AcDbLine
10
8.705
20
5.25
30
0
11
9.165784
21
1.750002
31
0
39
0
210
0
220
0
230
1
0
LINE
5
C9
100
AcDbEntity
8
1
62
256
6
ByLayer
370
18
48
1
60
1
100
AcDbLine
10
9.165784
20
1.750002
30
0
11
8.244216
21
1.749998
31
0
39
0
210
0
220
0
230
1
0
LINE
5
CA
100
AcDbEntity
8
1
62
256
6
ByLayer
370
18
48
1
60
1
100
AcDbLine
10
8.244216
20
1.749998
30
0
11
8.705
21
5.25
31
0
39
0
210
0
220
0
230
1
0
LINE
5
CB
100
AcDbEntity
8
1
62
256
6
ByLayer
370
18
48
1
60
1
100
AcDbLine
10
8.705
20
-5.25
30
0
11
8.244216
21
-1.750002
31
0
39
0
210
0
220
0
230
1
0
LINE
5
CC
100
AcDbEntity
8
1
62
256
6
ByLayer
370
18
48
1
60
1
100
AcDbLine
10
8.244216
20
-1.750002
30
0
11
9.165784
21
-1.749998
31
0
39
0
210
0
220
0
230
1
0
LINE
5
CD
100
AcDbEntity
8
1
62
256
6
ByLayer
370
18
48
1
60
1
100
AcDbLine
10
9.165784
20
-1.749998
30
0
11
8.705
21
-5.25
31
0
39
0
210
0
220
0
230
1
0
LINE
5
CE
100
AcDbEntity
8
2
62
256
6
ByLayer
370
18
48
1
60
0
100
AcDbLine
10
60
20
-44.589301
30
0
11
-28
21
-44.589301
31
0
39
0
210
0
220
0
230
1
0
LINE
5
D0
100
AcDbEntity
8
2
62
256
6
ByLayer
370
18
48
1
60
0
100
AcDbLine
10
-28
20
-5.2275
30
0
11
-28
21
-46.589301
31
0
39
0
210
0
220
0
230
1
0
LINE
5
D1
100
AcDbEntity
8
2
62
256
6
ByLayer
370
18
48
1
60
0
100
AcDbLine
10
60
20
-8.676801
30
0
11
60
21
-46.589301
31
0
39
0
210
0
220
0
230
1
0
LINE
5
D2
100
AcDbEntity
8
1
62
256
6
ByLayer
370
18
48
1
60
1
100
AcDbLine
10
-28
20
-44.589301
30
0
11
-24.500002
21
-44.128518
31
0
39
0
210
0
220
0
230
1
0
LINE
5
D3
100
AcDbEntity
8
1
62
256
6
ByLayer
370
18
48
1
60
1
100
AcDbLine
10
-24.500002
20
-44.128518
30
0
11
-24.499998
21
-45.050085
31
0
39
0
210
0
220
0
230
1
0
LINE
5
D4
100
AcDbEntity
8
1
62
256
6
ByLayer
370
18
48
1
60
1
100
AcDbLine
10
-24.499998
20
-45.050085
30
0
11
-28
21
-44.589301
31
0
39
0
210
0
220
0
230
1
0
LINE
5
D5
100
AcDbEntity
8
1
62
256
6
ByLayer
370
18
48
1
60
1
100
AcDbLine
10
60
20
-44.589301
30
0
11
56.500002
21
-45.050085
31
0
39
0
210
0
220
0
230
1
0
LINE
5
D6
100
AcDbEntity
8
1
62
256
6
ByLayer
370
18
48
1
60
1
100
AcDbLine
10
56.500002
20
-45.050085
30
0
11
56.499998
21
-44.128518
31
0
39
0
210
0
220
0
230
1
0
LINE
5
D7
100
AcDbEntity
8
1
62
256
6
ByLayer
370
18
48
1
60
1
100
AcDbLine
10
56.499998
20
-44.128518
30
0
11
60
21
-44.589301
31
0
39
0
210
0
220
0
230
1
0
LINE
5
1E8
100
AcDbEntity
8
1
62
256
6
ByLayer
370
18
48
1
60
1
100
AcDbLine
10
8.705
20
5.25
30
0
11
9.165784
21
1.750002
31
0
39
0
210
0
220
0
230
1
0
LINE
5
1E9
100
AcDbEntity
8
1
62
256
6
ByLayer
370
18
48
1
60
1
100
AcDbLine
10
9.165784
20
1.750002
30
0
11
8.244216
21
1.749998
31
0
39
0
210
0
220
0
230
1
0
LINE
5
1EA
100
AcDbEntity
8
1
62
256
6
ByLayer
370
18
48
1
60
1
100
AcDbLine
10
8.244216
20
1.749998
30
0
11
8.705
21
5.25
31
0
39
0
210
0
220
0
230
1
0
LINE
5
1EC
100
AcDbEntity
8
1
62
256
6
ByLayer
370
18
48
1
60
1
100
AcDbLine
10
8.705
20
-5.25
30
0
11
8.244216
21
-1.750002
31
0
39
0
210
0
220
0
230
1
0
LINE
5
1ED
100
AcDbEntity
8
1
62
256
6
ByLayer
370
18
48
1
60
1
100
AcDbLine
10
8.244216
20
-1.750002
30
0
11
9.165784
21
-1.749998
31
0
39
0
210
0
220
0
230
1
0
LINE
5
1EE
100
AcDbEntity
8
1
62
256
6
ByLayer
370
18
48
1
60
1
100
AcDbLine
10
9.165784
20
-1.749998
30
0
11
8.705
21
-5.25
31
0
39
0
210
0
220
0
230
1
0
LINE
5
1F1
100
AcDbEntity
8
1
62
256
6
ByLayer
370
18
48
1
60
1
100
AcDbLine
10
-28
20
-44.589301
30
0
11
-24.500002
21
-44.128518
31
0
39
0
210
0
220
0
230
1
0
LINE
5
1F2
100
AcDbEntity
8
1
62
256
6
ByLayer
370
18
48
1
60
1
100
AcDbLine
10
-24.500002
20
-44.128518
30
0
11
-24.499998
21
-45.050085
31
0
39
0
210
0
220
0
230
1
0
LINE
5
1F3
100
AcDbEntity
8
1
62
256
6
ByLayer
370
18
48
1
60
1
100
AcDbLine
10
-24.499998
20
-45.050085
30
0
11
-28
21
-44.589301
31
0
39
0
210
0
220
0
230
1
0
LINE
5
1F5
100
AcDbEntity
8
1
62
256
6
ByLayer
370
18
48
1
60
1
100
AcDbLine
10
60
20
-44.589301
30
0
11
56.500002
21
-45.050085
31
0
39
0
210
0
220
0
230
1
0
LINE
5
1F6
100
AcDbEntity
8
1
62
256
6
ByLayer
370
18
48
1
60
1
100
AcDbLine
10
56.500002
20
-45.050085
30
0
11
56.499998
21
-44.128518
31
0
39
0
210
0
220
0
230
1
0
LINE
5
1F7
100
AcDbEntity
8
1
62
256
6
ByLayer
370
18
48
1
60
1
100
AcDbLine
10
56.499998
20
-44.128518
30
0
11
60
21
-44.589301
31
0
39
0
210
0
220
0
230
1
0
MTEXT
5
1E4
100
AcDbEntity
8
SK2
62
256
6
ByLayer
370
18
48
1
60
0
100
AcDbMText
10
7.363886
20
10.908438
30
0
210
0
220
0
230
1
1
%%c
40
3
41
0
44
1.084337
50
90
71
7
72
5
7
iso_b_vert
0
MTEXT
5
1E7
100
AcDbEntity
8
SK2
62
256
6
ByLayer
370
18
48
1
60
0
100
AcDbMText
10
7.363886
20
16.885
30
0
210
0
220
0
230
1
1
\W0.6563;10.5
40
3
41
0
44
1.084337
50
90
71
7
72
5
7
iso_b_vert
0
MTEXT
5
1F0
100
AcDbEntity
8
2
62
256
6
ByLayer
370
18
48
1
60
0
100
AcDbMText
10
14.367172
20
-43.704187
30
0
210
0
220
0
230
1
1
\W0.6740;88
40
3
41
0
44
1.084337
50
0
71
7
72
5
7
iso_b_vert
0
MTEXT
5
1F9
100
AcDbEntity
8
SK6
62
256
6
ByLayer
370
18
48
1
60
0
100
AcDbMText
10
6.589761
20
-82.114886
30
0
210
0
220
0
230
1
1
\W0.7482;T100-NM107JB-M14X150N1PR
40
3
41
0
44
1.084337
50
0
71
7
72
5
7
iso_b_vert
0
HATCH
5
1EB
100
AcDbEntity
8
SK2
62
256
6
ByLayer
370
13
48
1
60
0
100
AcDbHatch
10
0
20
0
30
0
210
0
220
0
230
1
2
ANSI31
70
0
71
0
91
1
92
5
93
3
72
1
10
8.70500000000001
20
5.25000000000003
11
9.16578374155279
21
1.75000169255321
72
1
10
9.16578374155279
20
1.75000169255321
11
8.24421625844724
21
1.74999830744685
72
1
10
8.24421625844724
20
1.74999830744685
11
8.70500000000001
21
5.25000000000003
97
0
75
0
76
1
52
0
41
0.0062
77
0
78
1
53
45
43
0
44
0
45
-0.0139193969876572
46
0.0139193969876572
79
0
47
0
98
1
10
0
20
0
0
HATCH
5
1EF
100
AcDbEntity
8
SK2
62
256
6
ByLayer
370
13
48
1
60
0
100
AcDbHatch
10
0
20
0
30
0
210
0
220
0
230
1
2
ANSI31
70
0
71
0
91
1
92
5
93
3
72
1
10
8.70500000000001
20
-5.24999999999997
11
8.24421625844724
21
-1.75000169255315
72
1
10
8.24421625844724
20
-1.75000169255315
11
9.16578374155279
21
-1.74999830744679
72
1
10
9.16578374155279
20
-1.74999830744679
11
8.70500000000001
21
-5.24999999999997
97
0
75
0
76
1
52
0
41
0.0062
77
0
78
1
53
45
43
0
44
0
45
-0.0139193969876572
46
0.0139193969876572
79
0
47
0
98
1
10
0
20
0
0
HATCH
5
1F4
100
AcDbEntity
8
2
62
256
6
ByLayer
370
13
48
1
60
0
100
AcDbHatch
10
0
20
0
30
0
210
0
220
0
230
1
2
ANSI31
70
0
71
0
91
1
92
5
93
3
72
1
10
-28
20
-44.5893014551338
11
-24.5000016925532
21
-44.128517713581
72
1
10
-24.5000016925532
20
-44.128517713581
11
-24.4999983074468
21
-45.0500851966866
72
1
10
-24.4999983074468
20
-45.0500851966866
11
-28
21
-44.5893014551338
97
0
75
0
76
1
52
0
41
0.0062
77
0
78
1
53
45
43
0
44
0
45
-0.0139193969876572
46
0.0139193969876572
79
0
47
0
98
1
10
0
20
0
0
HATCH
5
1F8
100
AcDbEntity
8
2
62
256
6
ByLayer
370
13
48
1
60
0
100
AcDbHatch
10
0
20
0
30
0
210
0
220
0
230
1
2
ANSI31
70
0
71
0
91
1
92
5
93
3
72
1
10
60
20
-44.5893014551338
11
56.5000016925532
21
-45.0500851966866
72
1
10
56.5000016925532
20
-45.0500851966866
11
56.4999983074468
21
-44.128517713581
72
1
10
56.4999983074468
20
-44.128517713581
11
60
21
-44.5893014551338
97
0
75
0
76
1
52
0
41
0.0062
77
0
78
1
53
45
43
0
44
0
45
-0.0139193969876572
46
0.0139193969876572
79
0
47
0
98
1
10
0
20
0
0
DIMENSION
5
1FC
100
AcDbEntity
8
2
62
256
6
ByLayer
370
18
48
1
60
0
100
AcDbDimension
2
_U0
10
79.5
20
-7.089301
30
0
11
79.5
21
25.732159
31
0
70
32
71
1
72
1
41
1
210
0
220
0
230
1
3
Standard
100
AcDbAlignedDimension
13
60
23
7.089301
33
0
14
60
24
-7.089301
34
0
50
90
100
AcDbRotatedDimension
1001
ACAD
1000
DSTYLE
1002
{
1070
   371
1070
    13
1070
   372
1070
    13
1070
     3
1000

1070
   170
1070
     0
1070
   144
1040
1.0
1070
   277
1070
     2
1070
   284
1070
     8
1070
   278
1070
    46
1070
   146
1040
1.166667
1070
   345
1005
16
1070
   347
1005
16
1070
   346
1005
16
1070
   344
1005
0
1070
   343
1005
0
1070
   172
1070
     1
1070
    76
1070
     0
1070
    75
1070
     0
1070
   282
1070
     0
1070
   281
1070
     0
1070
    71
1070
     0
1070
    74
1070
     0
1070
   279
1070
     0
1070
   173
1070
     1
1070
   340
1005
1E5
1070
   271
1070
     3
1070
   272
1070
     3
1070
    77
1070
     1
1070
    73
1070
     0
1070
   171
1070
     3
1070
   274
1070
     4
1070
   177
1070
     2
1070
   176
1070
     2
1070
   178
1070
     2
1070
    78
1070
     8
1070
    48
1040
-0.1
1070
    41
1040
3.5
1070
   147
1040
1.5
1070
    42
1040
1.5875
1070
    44
1040
2.0
1070
   140
1040
3.0
1002
}
1001
ACAD_DSTYLE_DIM_LINETYPE
1070
   380
1005
16
1001
ACAD_DSTYLE_DIM_EXT1_LINETYPE
1070
   381
1005
16
1001
ACAD_DSTYLE_DIM_EXT2_LINETYPE
1070
   382
1005
16
0
DIMENSION
5
217
100
AcDbEntity
8
SK2
62
256
6
ByLayer
370
18
48
1
60
0
100
AcDbDimension
2
_U1
10
57.375
20
17.331002
30
0
11
58.6875
21
17.331002
31
0
70
32
71
1
72
1
41
1
210
0
220
0
230
1
3
Standard
100
AcDbAlignedDimension
13
60
23
7.089301
33
0
14
57.375
24
0
34
0
50
0
100
AcDbRotatedDimension
1001
ACAD
1000
DSTYLE
1002
{
1070
   371
1070
    13
1070
   372
1070
    13
1070
   170
1070
     0
1070
   144
1040
1.0
1070
   277
1070
     2
1070
   284
1070
     8
1070
   278
1070
    46
1070
   146
1040
1.166667
1070
   345
1005
16
1070
   347
1005
16
1070
   346
1005
16
1070
   344
1005
0
1070
   343
1005
0
1070
   172
1070
     1
1070
    76
1070
     0
1070
    75
1070
     0
1070
   282
1070
     0
1070
   281
1070
     0
1070
    71
1070
     0
1070
    74
1070
     0
1070
   279
1070
     0
1070
   173
1070
     1
1070
   340
1005
1E5
1070
   271
1070
     3
1070
   272
1070
     3
1070
    77
1070
     1
1070
    73
1070
     1
1070
   171
1070
     3
1070
   274
1070
     4
1070
   177
1070
     2
1070
   176
1070
     2
1070
   178
1070
     2
1070
    78
1070
     8
1070
    48
1040
-0.1
1070
    41
1040
3.5
1070
   147
1040
1.5
1070
    42
1040
1.5875
1070
    44
1040
2.0
1070
   140
1040
3.0
1002
}
1001
ACAD_DSTYLE_DIM_LINETYPE
1070
   380
1005
16
1001
ACAD_DSTYLE_DIM_EXT1_LINETYPE
1070
   381
1005
16
1001
ACAD_DSTYLE_DIM_EXT2_LINETYPE
1070
   382
1005
16
0
DIMENSION
5
231
100
AcDbEntity
8
SK2
62
256
6
ByLayer
370
18
48
1
60
0
100
AcDbDimension
2
_U2
10
39
20
-14.089301
30
0
11
47.884615
21
-14.089301
31
0
70
32
71
1
72
1
41
1
210
0
220
0
230
1
3
Standard
100
AcDbAlignedDimension
13
60
23
-7.089301
33
0
14
39
24
-7.089301
34
0
50
0
100
AcDbRotatedDimension
1001
ACAD
1000
DSTYLE
1002
{
1070
   371
1070
    13
1070
   372
1070
    13
1070
   170
1070
     0
1070
   144
1040
1.0
1070
   277
1070
     2
1070
   284
1070
     8
1070
   278
1070
    46
1070
   146
1040
0.833333
1070
   345
1005
16
1070
   347
1005
16
1070
   346
1005
16
1070
   344
1005
0
1070
   343
1005
0
1070
   172
1070
     1
1070
    76
1070
     0
1070
    75
1070
     0
1070
   282
1070
     0
1070
   281
1070
     0
1070
    47
1040
0.5
1070
    72
1070
     0
1070
    71
1070
     1
1070
    74
1070
     0
1070
   279
1070
     0
1070
   173
1070
     1
1070
   340
1005
1E5
1070
   271
1070
     1
1070
   272
1070
     3
1070
    77
1070
     1
1070
    73
1070
     1
1070
   171
1070
     3
1070
   274
1070
     4
1070
   177
1070
     2
1070
   176
1070
     2
1070
   178
1070
     2
1070
    78
1070
     8
1070
    48
1040
0.5
1070
    41
1040
3.5
1070
   147
1040
1.5
1070
    42
1040
1.5875
1070
    44
1040
2.0
1070
   140
1040
3.0
1002
}
1001
ACAD_DSTYLE_DIM_LINETYPE
1070
   380
1005
16
1001
ACAD_DSTYLE_DIM_EXT1_LINETYPE
1070
   381
1005
16
1001
ACAD_DSTYLE_DIM_EXT2_LINETYPE
1070
   382
1005
16
0
DIMENSION
5
24A
100
AcDbEntity
8
SK2
62
256
6
ByLayer
370
18
48
1
60
0
100
AcDbDimension
2
_U3
10
16
20
-36.589301
30
0
11
38
21
-36.589301
31
0
70
32
71
1
72
1
41
1
210
0
220
0
230
1
3
Standard
100
AcDbAlignedDimension
13
60
23
-7.089301
33
0
14
16
24
-5.1
34
0
50
0
100
AcDbRotatedDimension
1001
ACAD
1000
DSTYLE
1002
{
1070
   371
1070
    13
1070
   372
1070
    13
1070
   170
1070
     0
1070
   144
1040
1.0
1070
   277
1070
     2
1070
   284
1070
     8
1070
   278
1070
    46
1070
   146
1040
1.166667
1070
   345
1005
16
1070
   347
1005
16
1070
   346
1005
16
1070
   344
1005
0
1070
   343
1005
0
1070
   172
1070
     1
1070
    76
1070
     0
1070
    75
1070
     0
1070
   282
1070
     0
1070
   281
1070
     0
1070
    71
1070
     0
1070
    74
1070
     0
1070
   279
1070
     0
1070
   173
1070
     1
1070
   340
1005
1E5
1070
   271
1070
     1
1070
   272
1070
     3
1070
    77
1070
     1
1070
    73
1070
     1
1070
   171
1070
     3
1070
   274
1070
     4
1070
   177
1070
     2
1070
   176
1070
     2
1070
   178
1070
     2
1070
    78
1070
     8
1070
    48
1040
-0.1
1070
    41
1040
3.5
1070
   147
1040
1.5
1070
    42
1040
1.5875
1070
    44
1040
2.0
1070
   140
1040
3.0
1002
}
1001
ACAD_DSTYLE_DIM_LINETYPE
1070
   380
1005
16
1001
ACAD_DSTYLE_DIM_EXT1_LINETYPE
1070
   381
1005
16
1001
ACAD_DSTYLE_DIM_EXT2_LINETYPE
1070
   382
1005
16
0
DIMENSION
5
262
100
AcDbEntity
8
2
62
256
6
ByLayer
370
18
48
1
60
0
100
AcDbDimension
2
_U4
10
22.6
20
-25.589301
30
0
11
41.3
21
-25.589301
31
0
70
32
71
1
72
1
41
1
210
0
220
0
230
1
3
Standard
100
AcDbAlignedDimension
13
60
23
-7.089301
33
0
14
22.6
24
0
34
0
50
0
100
AcDbRotatedDimension
1001
ACAD
1000
DSTYLE
1002
{
1070
   371
1070
    13
1070
   372
1070
    13
1070
   170
1070
     0
1070
   144
1040
1.0
1070
   277
1070
     2
1070
   284
1070
     8
1070
   278
1070
    46
1070
   146
1040
1.166667
1070
   345
1005
16
1070
   347
1005
16
1070
   346
1005
16
1070
   344
1005
0
1070
   343
1005
0
1070
   172
1070
     1
1070
    76
1070
     0
1070
    75
1070
     0
1070
   282
1070
     0
1070
   281
1070
     0
1070
    71
1070
     0
1070
    74
1070
     0
1070
   279
1070
     0
1070
   173
1070
     1
1070
   340
1005
1E5
1070
   271
1070
     1
1070
   272
1070
     3
1070
    77
1070
     1
1070
    73
1070
     1
1070
   171
1070
     3
1070
   274
1070
     4
1070
   177
1070
     2
1070
   176
1070
     2
1070
   178
1070
     2
1070
    78
1070
     8
1070
    48
1040
-0.1
1070
    41
1040
3.5
1070
   147
1040
1.5
1070
    42
1040
1.5875
1070
    44
1040
2.0
1070
   140
1040
3.0
1002
}
1001
ACAD_DSTYLE_DIM_LINETYPE
1070
   380
1005
16
1001
ACAD_DSTYLE_DIM_EXT1_LINETYPE
1070
   381
1005
16
1001
ACAD_DSTYLE_DIM_EXT2_LINETYPE
1070
   382
1005
16
0
ENDSEC
0
SECTION
2
OBJECTS
0
DICTIONARY
5
2ea
330
0
100
AcDbDictionary
280
0
281
1
3
ACAD_GROUP
350
2eb
3
ACAD_MLINESTYLE
350
2ec
0
DICTIONARY
5
2eb
330
0
100
AcDbDictionary
280
0
281
1
0
DICTIONARY
5
2ec
330
0
100
AcDbDictionary
280
0
281
1
3
Standard
350
18
0
MLINESTYLE
5
18
330
2ec
100
AcDbMlineStyle
2
Standard
70
0
3

62
256
51
90
52
90
71
2
49
-0.5
62
256
6
ByLayer
49
0.5
62
256
6
ByLayer
0
RASTERVARIABLES
5
2d8
330

100
AcDbRasterVariables
90
0
70
1
71
1
72
1
0
ENDSEC
0
EOF
