0
SECTION
2
HEADER
9
$ACADVER
1
AC1015
9
$DWGCODEPAGE
3
ANSI_1252
9
$HANDSEED
5
316
9
$ANGBASE
50
0
9
$ANGDIR
70
0
9
$ATTMODE
70
1
9
$AUNITS
70
0
9
$AUPREC
70
0
9
$CECOLOR
62
256
9
$CELTSCALE
40
1
9
$CELTYPE
6
ByLayer
9
$CELWEIGHT
370
18
9
$CLAYER
8
0
9
$CMLJUST
70
0
9
$CMLSCALE
40
1
9
$CMLSTYLE
2
Standard
9
$DIMSTYLE
2
Standard
9
$TEXTSIZE
40
0.2
9
$TEXTSTYLE
7
Standard
9
$LUNITS
70
2
9
$LUPREC
70
4
9
$EXTNAMES
290
1
9
$INSUNITS
70
4
9
$LTSCALE
40
1
9
$LWDISPLAY
290
1
9
$PDMODE
70
0
9
$PDSIZE
40
0
9
$PLINEGEN
70
0
0
ENDSEC
0
SECTION
2
CLASSES
0
CLASS
1
RASTERVARIABLES
2
AcDbRasterVariables
3
ISM
90
0
280
0
281
0
0
ENDSEC
0
SECTION
2
TABLES
0
TABLE
2
VPORT
5
30c
100
AcDbSymbolTable
0
VPORT
5
1
100
AcDbSymbolTableRecord
100
AcDbViewportTableRecord
2
*Active
70
0
10
0
20
0
11
1
21
1
12
-1
22
1
13
0
23
0
14
0.5
24
0.5
15
10
25
10
16
0
26
0
36
1
17
0
27
0
37
0
0
ENDTAB
0
TABLE
2
LTYPE
5
30d
100
AcDbSymbolTable
0
LTYPE
5
14
100
AcDbSymbolTableRecord
100
AcDbLinetypeTableRecord
70
0
2
ByBlock
3

72
65
73
0
40
0
0
LTYPE
5
15
100
AcDbSymbolTableRecord
100
AcDbLinetypeTableRecord
70
0
2
ByLayer
3

72
65
73
0
40
0
0
LTYPE
5
16
100
AcDbSymbolTableRecord
100
AcDbLinetypeTableRecord
70
0
2
Continuous
3
Solid line
72
65
73
0
40
0
0
LTYPE
5
6E
100
AcDbSymbolTableRecord
100
AcDbLinetypeTableRecord
70
0
2
CENTER
3
____ _ ____ _ ____ _ ____
72
65
73
4
40
47.5
49
22
74
0
49
-8.5
74
0
49
8.5
74
0
49
-8.5
74
0
0
LTYPE
5
6F
100
AcDbSymbolTableRecord
100
AcDbLinetypeTableRecord
70
0
2
DASHED
3
__ __ __ __ __ __ __ __ __
72
65
73
2
40
25.72
49
12.86
74
0
49
-12.86
74
0
0
ENDTAB
0
TABLE
2
LAYER
5
30e
100
AcDbSymbolTable
0
LAYER
5
10
100
AcDbSymbolTableRecord
100
AcDbLayerTableRecord
2
0
70
0
62
7
6
Continuous
290
1
370
-3
390
0
0
LAYER
5
71
100
AcDbSymbolTableRecord
100
AcDbLayerTableRecord
2
81
70
0
62
-3
6
Continuous
290
1
370
-3
390
0
0
LAYER
5
73
100
AcDbSymbolTableRecord
100
AcDbLayerTableRecord
2
80
70
0
62
-6
6
Continuous
290
1
370
-3
390
0
0
LAYER
5
75
100
AcDbSymbolTableRecord
100
AcDbLayerTableRecord
2
1
70
0
62
4
6
Continuous
290
1
370
-3
390
0
0
LAYER
5
81
100
AcDbSymbolTableRecord
100
AcDbLayerTableRecord
2
4
70
0
62
-2
6
CENTER
290
1
370
-3
390
0
0
LAYER
5
D1
100
AcDbSymbolTableRecord
100
AcDbLayerTableRecord
2
2
70
0
62
7
6
Continuous
290
1
370
-3
390
0
0
LAYER
5
21E
100
AcDbSymbolTableRecord
100
AcDbLayerTableRecord
2
Defpoints
70
0
62
7
6
Continuous
290
0
370
-3
390
0
0
LAYER
5
2f8
100
AcDbSymbolTableRecord
100
AcDbLayerTableRecord
2
SK4
70
0
62
2
6
CENTER
290
1
370
-3
390
0
0
LAYER
5
2f9
100
AcDbSymbolTableRecord
100
AcDbLayerTableRecord
2
SK1
70
0
62
4
6
Continuous
290
1
370
-3
390
0
0
LAYER
5
2fa
100
AcDbSymbolTableRecord
100
AcDbLayerTableRecord
2
SK2
70
0
62
7
6
Continuous
290
1
370
-3
390
0
0
LAYER
5
2fb
100
AcDbSymbolTableRecord
100
AcDbLayerTableRecord
2
SK6
70
0
62
5
6
Continuous
290
1
370
-3
390
0
0
ENDTAB
0
TABLE
2
STYLE
5
30f
100
AcDbSymbolTable
0
STYLE
5
11
100
AcDbSymbolTableRecord
100
AcDbTextStyleTableRecord
2
Standard
3
txt
70
0
71
0
40
0
41
1
42
0
50
0
0
STYLE
5
204
100
AcDbSymbolTableRecord
100
AcDbTextStyleTableRecord
2
iso_b_vert
3
simplex.shx
70
0
71
0
40
0
41
1
42
0
50
0
0
STYLE
5
205
100
AcDbSymbolTableRecord
100
AcDbTextStyleTableRecord
2
DWGDirectTextStyle
3
simplex
70
0
71
0
40
0
41
1
42
0
50
0
0
ENDTAB
0
TABLE
2
DIMSTYLE
5
310
100
AcDbSymbolTable
100
AcDbDimStyleTable
0
DIMSTYLE
105
27
100
AcDbSymbolTableRecord
100
AcDbDimStyleTableRecord
2
Standard
70
0
3
<>
41
0.18
42
0.0625
44
0.18
140
0.18
147
0.09
73
0
74
0
77
1
271
2
275
0
278
52
280
0
340
11
0
ENDTAB
0
TABLE
2
VIEW
5
311
100
AcDbSymbolTable
0
ENDTAB
0
TABLE
2
UCS
5
312
100
AcDbSymbolTable
0
ENDTAB
0
TABLE
2
APPID
5
313
100
AcDbSymbolTable
0
APPID
5
12
100
AcDbSymbolTableRecord
100
AcDbRegAppTableRecord
2
ACAD
70
0
0
APPID
5
21A
100
AcDbSymbolTableRecord
100
AcDbRegAppTableRecord
2
ACAD_DSTYLE_DIMBREAK
70
0
0
APPID
5
2B7
100
AcDbSymbolTableRecord
100
AcDbRegAppTableRecord
2
ACAD_DSTYLE_DIM_LINETYPE
70
0
0
APPID
5
2B8
100
AcDbSymbolTableRecord
100
AcDbRegAppTableRecord
2
ACAD_DSTYLE_DIM_EXT1_LINETYPE
70
0
0
APPID
5
2B9
100
AcDbSymbolTableRecord
100
AcDbRegAppTableRecord
2
ACAD_DSTYLE_DIM_EXT2_LINETYPE
70
0
0
APPID
5
2F4
100
AcDbSymbolTableRecord
100
AcDbRegAppTableRecord
2
ACAD_MLEADERVER
70
0
0
ENDTAB
0
TABLE
2
BLOCK_RECORD
5
314
100
AcDbSymbolTable
0
BLOCK_RECORD
5
1F
100
AcDbSymbolTableRecord
100
AcDbBlockTableRecord
2
*Model_Space
340
0
70
0
0
BLOCK_RECORD
5
1B
100
AcDbSymbolTableRecord
100
AcDbBlockTableRecord
2
*Paper_Space
340
0
70
0
0
BLOCK_RECORD
5
23
100
AcDbSymbolTableRecord
100
AcDbBlockTableRecord
2
*Paper_Space0
340
0
70
0
0
BLOCK_RECORD
5
21F
100
AcDbSymbolTableRecord
100
AcDbBlockTableRecord
2
*D1
340
0
70
0
0
BLOCK_RECORD
5
22D
100
AcDbSymbolTableRecord
100
AcDbBlockTableRecord
2
_U0
340
0
70
0
0
BLOCK_RECORD
5
239
100
AcDbSymbolTableRecord
100
AcDbBlockTableRecord
2
*D3
340
0
70
0
0
BLOCK_RECORD
5
246
100
AcDbSymbolTableRecord
100
AcDbBlockTableRecord
2
_U1
340
0
70
0
0
BLOCK_RECORD
5
253
100
AcDbSymbolTableRecord
100
AcDbBlockTableRecord
2
*D5
340
0
70
0
0
BLOCK_RECORD
5
25F
100
AcDbSymbolTableRecord
100
AcDbBlockTableRecord
2
_U2
340
0
70
0
0
BLOCK_RECORD
5
26C
100
AcDbSymbolTableRecord
100
AcDbBlockTableRecord
2
*D7
340
0
70
0
0
BLOCK_RECORD
5
278
100
AcDbSymbolTableRecord
100
AcDbBlockTableRecord
2
_U3
340
0
70
0
0
BLOCK_RECORD
5
284
100
AcDbSymbolTableRecord
100
AcDbBlockTableRecord
2
*D9
340
0
70
0
0
BLOCK_RECORD
5
290
100
AcDbSymbolTableRecord
100
AcDbBlockTableRecord
2
_U4
340
0
70
0
0
ENDTAB
0
ENDSEC
0
SECTION
2
BLOCKS
0
BLOCK
5
20
100
AcDbEntity
8
0
100
AcDbBlockBegin
2
*Model_Space
70
0
10
0
20
0
30
0
3
*Model_Space
0
ENDBLK
5
21
100
AcDbEntity
8
0
100
AcDbBlockEnd
0
BLOCK
5
1C
100
AcDbEntity
8
0
100
AcDbBlockBegin
2
*Paper_Space
70
0
10
0
20
0
30
0
3
*Paper_Space
0
ENDBLK
5
1D
100
AcDbEntity
8
0
100
AcDbBlockEnd
0
BLOCK
5
24
100
AcDbEntity
8
0
100
AcDbBlockBegin
2
*Paper_Space0
70
0
10
0
20
0
30
0
3
*Paper_Space0
0
ENDBLK
5
25
100
AcDbEntity
8
0
100
AcDbBlockEnd
0
BLOCK
5
220
100
AcDbEntity
8
0
100
AcDbBlockBegin
2
*D1
70
1
10
0
20
0
30
0
3
*D1
0
LINE
5
222
100
AcDbEntity
8
0
62
256
6
ByLayer
370
-2
48
1
60
0
100
AcDbLine
10
53.5875
20
5.080072
30
0
11
73.5
21
5.080072
31
0
39
0
210
0
220
0
230
1
0
LINE
5
223
100
AcDbEntity
8
0
62
256
6
ByLayer
370
-2
48
1
60
0
100
AcDbLine
10
53.5875
20
-5.080072
30
0
11
73.5
21
-5.080072
31
0
39
0
210
0
220
0
230
1
0
LINE
5
224
100
AcDbEntity
8
0
62
256
6
ByLayer
370
-2
48
1
60
0
100
AcDbLine
10
71.5
20
5.080072
30
0
11
71.5
21
32.955584
31
0
39
0
210
0
220
0
230
1
0
LINE
5
225
100
AcDbEntity
8
0
62
256
6
ByLayer
370
-2
48
1
60
0
100
AcDbLine
10
71.5
20
8.580072
30
0
11
71.5
21
12.080072
31
0
39
0
210
0
220
0
230
1
0
LINE
5
226
100
AcDbEntity
8
0
62
256
6
ByLayer
370
-2
48
1
60
0
100
AcDbLine
10
71.5
20
-8.580072
30
0
11
71.5
21
-12.080072
31
0
39
0
210
0
220
0
230
1
0
SOLID
5
227
100
AcDbEntity
8
0
62
256
6
ByLayer
370
-1
48
1
60
0
100
AcDbTrace
10
70.916667
20
8.580072
30
0
11
72.083333
21
8.580072
31
0
12
71.5
22
5.080072
32
0
13
71.5
23
5.080072
33
0
39
0
210
0
220
0
230
1
0
SOLID
5
228
100
AcDbEntity
8
0
62
256
6
ByLayer
370
-1
48
1
60
0
100
AcDbTrace
10
72.083333
20
-8.580072
30
0
11
70.916667
21
-8.580072
31
0
12
71.5
22
-5.080072
32
0
13
71.5
23
-5.080072
33
0
39
0
210
0
220
0
230
1
0
MTEXT
5
229
100
AcDbEntity
8
0
62
256
6
ByLayer
370
18
48
1
60
0
100
AcDbMText
10
65.5
20
22.66987
30
0
210
0
220
0
230
1
1
\A1;10.16
40
3
41
0
44
1
50
90
71
5
72
5
7
iso_b_vert
0
POINT
5
22A
100
AcDbEntity
8
Defpoints
62
0
6
ByLayer
370
-1
48
1
60
0
100
AcDbPoint
10
52
20
5.080072
30
0
39
0
210
0
220
0
230
1
50
360
0
POINT
5
22B
100
AcDbEntity
8
Defpoints
62
0
6
ByLayer
370
-1
48
1
60
0
100
AcDbPoint
10
52
20
-5.080072
30
0
39
0
210
0
220
0
230
1
50
360
0
POINT
5
22C
100
AcDbEntity
8
Defpoints
62
0
6
ByLayer
370
-1
48
1
60
0
100
AcDbPoint
10
71.5
20
-5.080072
30
0
39
0
210
0
220
0
230
1
50
360
0
ENDBLK
5
221
100
AcDbEntity
8
0
100
AcDbBlockEnd
0
BLOCK
5
234
100
AcDbEntity
8
0
100
AcDbBlockBegin
2
_U0
70
0
10
0
20
0
30
0
3
_U0
0
MTEXT
5
22E
100
AcDbEntity
8
2
62
256
6
ByLayer
370
18
48
1
60
0
100
AcDbMText
10
70.908886
20
15.215072
30
0
210
0
220
0
230
1
1
\W0.7161;M10x1.25
40
3
41
0
44
1.084337
50
90
71
7
72
5
7
iso_b_vert
0
LINE
5
22F
100
AcDbEntity
8
2
62
256
6
ByLayer
370
13
48
1
60
0
100
AcDbLine
10
53.5875
20
5.080072
30
0
11
73.5
21
5.080072
31
0
39
0
210
0
220
0
230
1
0
LINE
5
230
100
AcDbEntity
8
2
62
256
6
ByLayer
370
13
48
1
60
0
100
AcDbLine
10
53.5875
20
-5.080072
30
0
11
73.5
21
-5.080072
31
0
39
0
210
0
220
0
230
1
0
LINE
5
231
100
AcDbEntity
8
2
62
256
6
ByLayer
370
13
48
1
60
0
100
AcDbLine
10
71.5
20
-5.080072
30
0
11
71.5
21
30.259669
31
0
39
0
210
0
220
0
230
1
0
SOLID
5
232
100
AcDbEntity
8
2
62
256
6
ByLayer
370
18
48
1
60
0
100
AcDbTrace
10
71.5
20
5.080072
30
0
11
71.960784
21
1.580073
31
0
12
71.039216
22
1.58007
32
0
13
71.039216
23
1.58007
33
0
39
0
210
0
220
0
230
1
0
SOLID
5
233
100
AcDbEntity
8
2
62
256
6
ByLayer
370
18
48
1
60
0
100
AcDbTrace
10
71.5
20
-5.080072
30
0
11
71.039216
21
-1.580073
31
0
12
71.960784
22
-1.58007
32
0
13
71.960784
23
-1.58007
33
0
39
0
210
0
220
0
230
1
0
ENDBLK
5
235
100
AcDbEntity
8
0
100
AcDbBlockEnd
0
BLOCK
5
23A
100
AcDbEntity
8
0
100
AcDbBlockBegin
2
*D3
70
1
10
0
20
0
30
0
3
*D3
0
LINE
5
23C
100
AcDbEntity
8
0
62
256
6
ByLayer
370
-2
48
1
60
0
100
AcDbLine
10
52
20
6.667572
30
0
11
52
21
16.585798
31
0
39
0
210
0
220
0
230
1
0
LINE
5
23D
100
AcDbEntity
8
0
62
256
6
ByLayer
370
-2
48
1
60
0
100
AcDbLine
10
49.8125
20
1.5875
30
0
11
49.8125
21
16.585798
31
0
39
0
210
0
220
0
230
1
0
LINE
5
23E
100
AcDbEntity
8
0
62
256
6
ByLayer
370
-2
48
1
60
0
100
AcDbLine
10
55.5
20
14.585798
30
0
11
59
21
14.585798
31
0
39
0
210
0
220
0
230
1
0
LINE
5
23F
100
AcDbEntity
8
0
62
256
6
ByLayer
370
-2
48
1
60
0
100
AcDbLine
10
46.3125
20
14.585798
30
0
11
42.8125
21
14.585798
31
0
39
0
210
0
220
0
230
1
0
SOLID
5
240
100
AcDbEntity
8
0
62
256
6
ByLayer
370
-1
48
1
60
0
100
AcDbTrace
10
55.5
20
15.169131
30
0
11
55.5
21
14.002464
31
0
12
52
22
14.585798
32
0
13
52
23
14.585798
33
0
39
0
210
0
220
0
230
1
0
SOLID
5
241
100
AcDbEntity
8
0
62
256
6
ByLayer
370
-1
48
1
60
0
100
AcDbTrace
10
46.3125
20
14.002464
30
0
11
46.3125
21
15.169131
31
0
12
49.8125
22
14.585798
32
0
13
49.8125
23
14.585798
33
0
39
0
210
0
220
0
230
1
0
MTEXT
5
242
100
AcDbEntity
8
0
62
256
6
ByLayer
370
18
48
1
60
0
100
AcDbMText
10
50.90625
20
20.585798
30
0
210
0
220
0
230
1
1
\A1;2.188
40
3
41
0
44
1
50
0
71
5
72
5
7
iso_b_vert
0
POINT
5
243
100
AcDbEntity
8
Defpoints
62
0
6
ByLayer
370
-1
48
1
60
0
100
AcDbPoint
10
52
20
5.080072
30
0
39
0
210
0
220
0
230
1
50
360
0
POINT
5
244
100
AcDbEntity
8
Defpoints
62
0
6
ByLayer
370
-1
48
1
60
0
100
AcDbPoint
10
49.8125
20
0
30
0
39
0
210
0
220
0
230
1
50
360
0
POINT
5
245
100
AcDbEntity
8
Defpoints
62
0
6
ByLayer
370
-1
48
1
60
0
100
AcDbPoint
10
49.8125
20
14.585798
30
0
39
0
210
0
220
0
230
1
50
360
0
ENDBLK
5
23B
100
AcDbEntity
8
0
100
AcDbBlockEnd
0
BLOCK
5
24E
100
AcDbEntity
8
0
100
AcDbBlockBegin
2
_U1
70
0
10
0
20
0
30
0
3
_U1
0
MTEXT
5
247
100
AcDbEntity
8
SK2
62
256
6
ByLayer
370
18
48
1
60
0
100
AcDbMText
10
46.825322
20
15.368431
30
0
210
0
220
0
230
1
1
\W0.6844;'E'
40
3.5
41
0
44
1.084337
50
0
71
7
72
5
7
iso_b_vert
0
MTEXT
5
248
100
AcDbEntity
8
SK2
62
256
6
ByLayer
370
18
48
1
60
0
100
AcDbMText
10
46.798822
20
22.470912
30
0
210
0
220
0
230
1
1
\W0.6864;2.188
40
3
41
0
44
1.084337
50
0
71
7
72
5
7
iso_b_vert
0
LINE
5
249
100
AcDbEntity
8
SK2
62
256
6
ByLayer
370
13
48
1
60
0
100
AcDbLine
10
52
20
6.667572
30
0
11
52
21
16.585798
31
0
39
0
210
0
220
0
230
1
0
LINE
5
24A
100
AcDbEntity
8
SK2
62
256
6
ByLayer
370
13
48
1
60
0
100
AcDbLine
10
49.8125
20
1.5875
30
0
11
49.8125
21
16.585798
31
0
39
0
210
0
220
0
230
1
0
LINE
5
24B
100
AcDbEntity
8
SK2
62
256
6
ByLayer
370
13
48
1
60
0
100
AcDbLine
10
59.5
20
14.585798
30
0
11
42.3125
21
14.585798
31
0
39
0
210
0
220
0
230
1
0
SOLID
5
24C
100
AcDbEntity
8
SK2
62
256
6
ByLayer
370
18
48
1
60
0
100
AcDbTrace
10
52
20
14.585798
30
0
11
55.499998
21
15.046581
31
0
12
55.500002
22
14.125014
32
0
13
55.500002
23
14.125014
33
0
39
0
210
0
220
0
230
1
0
SOLID
5
24D
100
AcDbEntity
8
SK2
62
256
6
ByLayer
370
18
48
1
60
0
100
AcDbTrace
10
49.8125
20
14.585798
30
0
11
46.312502
21
14.125014
31
0
12
46.312498
22
15.046581
32
0
13
46.312498
23
15.046581
33
0
39
0
210
0
220
0
230
1
0
ENDBLK
5
24F
100
AcDbEntity
8
0
100
AcDbBlockEnd
0
BLOCK
5
254
100
AcDbEntity
8
0
100
AcDbBlockBegin
2
*D5
70
1
10
0
20
0
30
0
3
*D5
0
LINE
5
256
100
AcDbEntity
8
0
62
256
6
ByLayer
370
-2
48
1
60
0
100
AcDbLine
10
52
20
-6.667572
30
0
11
52
21
-14.080072
31
0
39
0
210
0
220
0
230
1
0
LINE
5
257
100
AcDbEntity
8
0
62
256
6
ByLayer
370
-2
48
1
60
0
100
AcDbLine
10
32
20
-6.667572
30
0
11
32
21
-14.080072
31
0
39
0
210
0
220
0
230
1
0
LINE
5
258
100
AcDbEntity
8
0
62
256
6
ByLayer
370
-2
48
1
60
0
100
AcDbLine
10
48.5
20
-12.080072
30
0
11
35.5
21
-12.080072
31
0
39
0
210
0
220
0
230
1
0
SOLID
5
259
100
AcDbEntity
8
0
62
256
6
ByLayer
370
-1
48
1
60
0
100
AcDbTrace
10
48.5
20
-12.663405
30
0
11
48.5
21
-11.496738
31
0
12
52
22
-12.080072
32
0
13
52
23
-12.080072
33
0
39
0
210
0
220
0
230
1
0
SOLID
5
25A
100
AcDbEntity
8
0
62
256
6
ByLayer
370
-1
48
1
60
0
100
AcDbTrace
10
35.5
20
-11.496738
30
0
11
35.5
21
-12.663405
31
0
12
32
22
-12.080072
32
0
13
32
23
-12.080072
33
0
39
0
210
0
220
0
230
1
0
MTEXT
5
25B
100
AcDbEntity
8
0
62
256
6
ByLayer
370
18
48
1
60
0
100
AcDbMText
10
38.813187
20
-6.080072
30
0
210
0
220
0
230
1
1
\A1;20
40
3
41
0
44
1
50
0
71
5
72
5
7
iso_b_vert
0
POINT
5
25C
100
AcDbEntity
8
Defpoints
62
0
6
ByLayer
370
-1
48
1
60
0
100
AcDbPoint
10
52
20
-5.080072
30
0
39
0
210
0
220
0
230
1
50
360
0
POINT
5
25D
100
AcDbEntity
8
Defpoints
62
0
6
ByLayer
370
-1
48
1
60
0
100
AcDbPoint
10
32
20
-5.080072
30
0
39
0
210
0
220
0
230
1
50
360
0
POINT
5
25E
100
AcDbEntity
8
Defpoints
62
0
6
ByLayer
370
-1
48
1
60
0
100
AcDbPoint
10
32
20
-12.080072
30
0
39
0
210
0
220
0
230
1
50
360
0
ENDBLK
5
255
100
AcDbEntity
8
0
100
AcDbBlockEnd
0
BLOCK
5
267
100
AcDbEntity
8
0
100
AcDbBlockBegin
2
_U2
70
0
10
0
20
0
30
0
3
_U2
0
MTEXT
5
260
100
AcDbEntity
8
SK2
62
256
6
ByLayer
370
18
48
1
60
0
100
AcDbMText
10
32.30574
20
-11.194957
30
0
210
0
220
0
230
1
1
\W0.6740;20
40
3
41
0
44
1.084337
50
0
71
7
72
5
7
iso_b_vert
0
MTEXT
5
261
100
AcDbEntity
8
SK2
62
256
6
ByLayer
370
18
48
1
60
0
100
AcDbMText
10
38.362896
20
-10.842476
30
0
210
0
220
0
230
1
1
\W0.8315;\W0.4158;%%p\W0.8315;0.5
40
2.5
41
0
44
1.084337
50
0
71
7
72
5
7
iso_b_vert
0
LINE
5
262
100
AcDbEntity
8
SK2
62
256
6
ByLayer
370
13
48
1
60
0
100
AcDbLine
10
52
20
-6.667572
30
0
11
52
21
-14.080072
31
0
39
0
210
0
220
0
230
1
0
LINE
5
263
100
AcDbEntity
8
SK2
62
256
6
ByLayer
370
13
48
1
60
0
100
AcDbLine
10
32
20
-6.667572
30
0
11
32
21
-14.080072
31
0
39
0
210
0
220
0
230
1
0
LINE
5
264
100
AcDbEntity
8
SK2
62
256
6
ByLayer
370
13
48
1
60
0
100
AcDbLine
10
52
20
-12.080072
30
0
11
32
21
-12.080072
31
0
39
0
210
0
220
0
230
1
0
SOLID
5
265
100
AcDbEntity
8
SK2
62
256
6
ByLayer
370
18
48
1
60
0
100
AcDbTrace
10
52
20
-12.080072
30
0
11
48.500002
21
-12.540855
31
0
12
48.499998
22
-11.619288
32
0
13
48.499998
23
-11.619288
33
0
39
0
210
0
220
0
230
1
0
SOLID
5
266
100
AcDbEntity
8
SK2
62
256
6
ByLayer
370
18
48
1
60
0
100
AcDbTrace
10
32
20
-12.080072
30
0
11
35.499998
21
-11.619288
31
0
12
35.500002
22
-12.540855
32
0
13
35.500002
23
-12.540855
33
0
39
0
210
0
220
0
230
1
0
ENDBLK
5
268
100
AcDbEntity
8
0
100
AcDbBlockEnd
0
BLOCK
5
26D
100
AcDbEntity
8
0
100
AcDbBlockBegin
2
*D7
70
1
10
0
20
0
30
0
3
*D7
0
LINE
5
26F
100
AcDbEntity
8
0
62
256
6
ByLayer
370
-2
48
1
60
0
100
AcDbLine
10
52
20
-6.667572
30
0
11
52
21
-36.580072
31
0
39
0
210
0
220
0
230
1
0
LINE
5
270
100
AcDbEntity
8
0
62
256
6
ByLayer
370
-2
48
1
60
0
100
AcDbLine
10
14.5
20
-4.9375
30
0
11
14.5
21
-36.580072
31
0
39
0
210
0
220
0
230
1
0
LINE
5
271
100
AcDbEntity
8
0
62
256
6
ByLayer
370
-2
48
1
60
0
100
AcDbLine
10
48.5
20
-34.580072
30
0
11
18
21
-34.580072
31
0
39
0
210
0
220
0
230
1
0
SOLID
5
272
100
AcDbEntity
8
0
62
256
6
ByLayer
370
-1
48
1
60
0
100
AcDbTrace
10
48.5
20
-35.163405
30
0
11
48.5
21
-33.996738
31
0
12
52
22
-34.580072
32
0
13
52
23
-34.580072
33
0
39
0
210
0
220
0
230
1
0
SOLID
5
273
100
AcDbEntity
8
0
62
256
6
ByLayer
370
-1
48
1
60
0
100
AcDbTrace
10
18
20
-33.996738
30
0
11
18
21
-35.163405
31
0
12
14.5
22
-34.580072
32
0
13
14.5
23
-34.580072
33
0
39
0
210
0
220
0
230
1
0
MTEXT
5
274
100
AcDbEntity
8
0
62
256
6
ByLayer
370
18
48
1
60
0
100
AcDbMText
10
33.25
20
-28.580072
30
0
210
0
220
0
230
1
1
\A1;37.5
40
3
41
0
44
1
50
0
71
5
72
5
7
iso_b_vert
0
POINT
5
275
100
AcDbEntity
8
Defpoints
62
0
6
ByLayer
370
-1
48
1
60
0
100
AcDbPoint
10
52
20
-5.080072
30
0
39
0
210
0
220
0
230
1
50
360
0
POINT
5
276
100
AcDbEntity
8
Defpoints
62
0
6
ByLayer
370
-1
48
1
60
0
100
AcDbPoint
10
14.5
20
-3.35
30
0
39
0
210
0
220
0
230
1
50
360
0
POINT
5
277
100
AcDbEntity
8
Defpoints
62
0
6
ByLayer
370
-1
48
1
60
0
100
AcDbPoint
10
14.5
20
-34.580072
30
0
39
0
210
0
220
0
230
1
50
360
0
ENDBLK
5
26E
100
AcDbEntity
8
0
100
AcDbBlockEnd
0
BLOCK
5
27F
100
AcDbEntity
8
0
100
AcDbBlockBegin
2
_U3
70
0
10
0
20
0
30
0
3
_U3
0
MTEXT
5
279
100
AcDbEntity
8
SK2
62
256
6
ByLayer
370
18
48
1
60
0
100
AcDbMText
10
29.888544
20
-33.694957
30
0
210
0
220
0
230
1
1
\W0.7346;37.5
40
3
41
0
44
1.084337
50
0
71
7
72
5
7
iso_b_vert
0
LINE
5
27A
100
AcDbEntity
8
SK2
62
256
6
ByLayer
370
13
48
1
60
0
100
AcDbLine
10
52
20
-6.667572
30
0
11
52
21
-36.580072
31
0
39
0
210
0
220
0
230
1
0
LINE
5
27B
100
AcDbEntity
8
SK2
62
256
6
ByLayer
370
13
48
1
60
0
100
AcDbLine
10
14.5
20
-4.9375
30
0
11
14.5
21
-36.580072
31
0
39
0
210
0
220
0
230
1
0
LINE
5
27C
100
AcDbEntity
8
SK2
62
256
6
ByLayer
370
13
48
1
60
0
100
AcDbLine
10
52
20
-34.580072
30
0
11
14.5
21
-34.580072
31
0
39
0
210
0
220
0
230
1
0
SOLID
5
27D
100
AcDbEntity
8
SK2
62
256
6
ByLayer
370
18
48
1
60
0
100
AcDbTrace
10
52
20
-34.580072
30
0
11
48.500002
21
-35.040855
31
0
12
48.499998
22
-34.119288
32
0
13
48.499998
23
-34.119288
33
0
39
0
210
0
220
0
230
1
0
SOLID
5
27E
100
AcDbEntity
8
SK2
62
256
6
ByLayer
370
18
48
1
60
0
100
AcDbTrace
10
14.5
20
-34.580072
30
0
11
17.999998
21
-34.119288
31
0
12
18.000002
22
-35.040855
32
0
13
18.000002
23
-35.040855
33
0
39
0
210
0
220
0
230
1
0
ENDBLK
5
280
100
AcDbEntity
8
0
100
AcDbBlockEnd
0
BLOCK
5
285
100
AcDbEntity
8
0
100
AcDbBlockBegin
2
*D9
70
1
10
0
20
0
30
0
3
*D9
0
LINE
5
287
100
AcDbEntity
8
0
62
256
6
ByLayer
370
-2
48
1
60
0
100
AcDbLine
10
52
20
-6.667572
30
0
11
52
21
-25.580072
31
0
39
0
210
0
220
0
230
1
0
LINE
5
288
100
AcDbEntity
8
0
62
256
6
ByLayer
370
-2
48
1
60
0
100
AcDbLine
10
20.125
20
-1.5875
30
0
11
20.125
21
-25.580072
31
0
39
0
210
0
220
0
230
1
0
LINE
5
289
100
AcDbEntity
8
0
62
256
6
ByLayer
370
-2
48
1
60
0
100
AcDbLine
10
48.5
20
-23.580072
30
0
11
23.625
21
-23.580072
31
0
39
0
210
0
220
0
230
1
0
SOLID
5
28A
100
AcDbEntity
8
0
62
256
6
ByLayer
370
-1
48
1
60
0
100
AcDbTrace
10
48.5
20
-24.163405
30
0
11
48.5
21
-22.996738
31
0
12
52
22
-23.580072
32
0
13
52
23
-23.580072
33
0
39
0
210
0
220
0
230
1
0
SOLID
5
28B
100
AcDbEntity
8
0
62
256
6
ByLayer
370
-1
48
1
60
0
100
AcDbTrace
10
23.625
20
-22.996738
30
0
11
23.625
21
-24.163405
31
0
12
20.125
22
-23.580072
32
0
13
20.125
23
-23.580072
33
0
39
0
210
0
220
0
230
1
0
MTEXT
5
28C
100
AcDbEntity
8
0
62
256
6
ByLayer
370
18
48
1
60
0
100
AcDbMText
10
36.0625
20
-17.580072
30
0
210
0
220
0
230
1
1
\A1;31.9
40
3
41
0
44
1
50
0
71
5
72
5
7
iso_b_vert
0
POINT
5
28D
100
AcDbEntity
8
Defpoints
62
0
6
ByLayer
370
-1
48
1
60
0
100
AcDbPoint
10
52
20
-5.080072
30
0
39
0
210
0
220
0
230
1
50
360
0
POINT
5
28E
100
AcDbEntity
8
Defpoints
62
0
6
ByLayer
370
-1
48
1
60
0
100
AcDbPoint
10
20.125
20
0
30
0
39
0
210
0
220
0
230
1
50
360
0
POINT
5
28F
100
AcDbEntity
8
Defpoints
62
0
6
ByLayer
370
-1
48
1
60
0
100
AcDbPoint
10
20.125
20
-23.580072
30
0
39
0
210
0
220
0
230
1
50
360
0
ENDBLK
5
286
100
AcDbEntity
8
0
100
AcDbBlockEnd
0
BLOCK
5
297
100
AcDbEntity
8
0
100
AcDbBlockBegin
2
_U4
70
0
10
0
20
0
30
0
3
_U4
0
MTEXT
5
291
100
AcDbEntity
8
2
62
256
6
ByLayer
370
18
48
1
60
0
100
AcDbMText
10
33.075986
20
-22.694957
30
0
210
0
220
0
230
1
1
\W0.6662;31.9
40
3
41
0
44
1.084337
50
0
71
7
72
5
7
iso_b_vert
0
LINE
5
292
100
AcDbEntity
8
2
62
256
6
ByLayer
370
13
48
1
60
0
100
AcDbLine
10
52
20
-6.667572
30
0
11
52
21
-25.580072
31
0
39
0
210
0
220
0
230
1
0
LINE
5
293
100
AcDbEntity
8
2
62
256
6
ByLayer
370
13
48
1
60
0
100
AcDbLine
10
20.125
20
-1.5875
30
0
11
20.125
21
-25.580072
31
0
39
0
210
0
220
0
230
1
0
LINE
5
294
100
AcDbEntity
8
2
62
256
6
ByLayer
370
13
48
1
60
0
100
AcDbLine
10
52
20
-23.580072
30
0
11
20.125
21
-23.580072
31
0
39
0
210
0
220
0
230
1
0
SOLID
5
295
100
AcDbEntity
8
2
62
256
6
ByLayer
370
18
48
1
60
0
100
AcDbTrace
10
52
20
-23.580072
30
0
11
48.500002
21
-24.040855
31
0
12
48.499998
22
-23.119288
32
0
13
48.499998
23
-23.119288
33
0
39
0
210
0
220
0
230
1
0
SOLID
5
296
100
AcDbEntity
8
2
62
256
6
ByLayer
370
18
48
1
60
0
100
AcDbTrace
10
20.125
20
-23.580072
30
0
11
23.624998
21
-23.119288
31
0
12
23.625002
22
-24.040855
32
0
13
23.625002
23
-24.040855
33
0
39
0
210
0
220
0
230
1
0
ENDBLK
5
298
100
AcDbEntity
8
0
100
AcDbBlockEnd
0
ENDSEC
0
SECTION
2
ENTITIES
0
ARC
5
DA
100
AcDbEntity
8
SK1
62
256
6
ByLayer
370
18
48
1
60
0
100
AcDbCircle
39
0
10
-17.75
20
0
30
0
40
3.35999999999988
210
0
220
0
230
1
100
AcDbArc
50
324.93017
51
35.06983
0
ARC
5
DB
100
AcDbEntity
8
1
62
256
6
ByLayer
370
18
48
1
60
0
100
AcDbCircle
39
0
10
15.153835
20
-4.85
30
0
40
1.5
210
0
220
0
230
1
100
AcDbArc
50
90
51
115.841933
0
ARC
5
DC
100
AcDbEntity
8
1
62
256
6
ByLayer
370
18
48
1
60
0
100
AcDbCircle
39
0
10
15.153835
20
4.85
30
0
40
1.5
210
0
220
0
230
1
100
AcDbArc
50
244.158067
51
270
0
POINT
5
70
100
AcDbEntity
8
81
62
256
6
ByLayer
370
18
48
1
60
0
100
AcDbPoint
10
52
20
0
30
0
39
0
210
0
220
0
230
1
50
360
0
POINT
5
72
100
AcDbEntity
8
80
62
256
6
ByLayer
370
18
48
1
60
0
100
AcDbPoint
10
0
20
0
30
0
39
0
210
0
220
0
230
1
50
360
0
POINT
5
74
100
AcDbEntity
8
1
62
256
6
ByLayer
370
18
48
1
60
1
100
AcDbPoint
10
52
20
5.080072
30
0
39
0
210
0
220
0
230
1
50
360
0
POINT
5
76
100
AcDbEntity
8
1
62
256
6
ByLayer
370
18
48
1
60
1
100
AcDbPoint
10
52
20
-5.080072
30
0
39
0
210
0
220
0
230
1
50
360
0
POINT
5
77
100
AcDbEntity
8
1
62
256
6
ByLayer
370
18
48
1
60
1
100
AcDbPoint
10
52
20
5.080072
30
0
39
0
210
0
220
0
230
1
50
360
0
POINT
5
78
100
AcDbEntity
8
1
62
256
6
ByLayer
370
18
48
1
60
1
100
AcDbPoint
10
49.8125
20
0
30
0
39
0
210
0
220
0
230
1
50
360
0
POINT
5
79
100
AcDbEntity
8
1
62
256
6
ByLayer
370
18
48
1
60
1
100
AcDbPoint
10
52
20
-5.080072
30
0
39
0
210
0
220
0
230
1
50
360
0
POINT
5
7A
100
AcDbEntity
8
1
62
256
6
ByLayer
370
18
48
1
60
1
100
AcDbPoint
10
32
20
-5.080072
30
0
39
0
210
0
220
0
230
1
50
360
0
POINT
5
7B
100
AcDbEntity
8
1
62
256
6
ByLayer
370
18
48
1
60
1
100
AcDbPoint
10
52
20
-5.080072
30
0
39
0
210
0
220
0
230
1
50
360
0
POINT
5
7C
100
AcDbEntity
8
1
62
256
6
ByLayer
370
18
48
1
60
1
100
AcDbPoint
10
14.5
20
-3.35
30
0
39
0
210
0
220
0
230
1
50
360
0
POINT
5
7D
100
AcDbEntity
8
1
62
256
6
ByLayer
370
18
48
1
60
1
100
AcDbPoint
10
52
20
-5.080072
30
0
39
0
210
0
220
0
230
1
50
360
0
POINT
5
7E
100
AcDbEntity
8
1
62
256
6
ByLayer
370
18
48
1
60
1
100
AcDbPoint
10
20.125
20
0
30
0
39
0
210
0
220
0
230
1
50
360
0
SPLINE
5
DD
100
AcDbEntity
8
1
62
256
6
ByLayer
370
18
48
1
60
0
100
AcDbSpline
70
4
71
3
72
8
73
4
40
0
40
0
40
0
40
0
40
1
40
1
40
1
40
1
41
1
10
51.5421340588854
20
4.40179947336952
30
0
41
1
10
51.546897166514
20
4.41003059581587
30
0
41
1
10
51.5515268273013
20
4.41282335383619
30
0
41
1
10
51.5560812109532
20
4.41021353749733
30
0
0
SPLINE
5
DE
100
AcDbEntity
8
1
62
256
6
ByLayer
370
18
48
1
60
0
100
AcDbSpline
70
4
71
3
72
8
73
4
40
0
40
0
40
0
40
0
40
1
40
1
40
1
40
1
41
1
10
50.5201445761446
20
4.79542362956343
30
0
41
1
10
50.5246167784795
20
4.80316286298481
30
0
41
1
10
50.528975846811
20
4.8056823403067
30
0
41
1
10
50.5332732960599
20
4.80299688992704
30
0
0
SPLINE
5
DF
100
AcDbEntity
8
1
62
256
6
ByLayer
370
18
48
1
60
0
100
AcDbSpline
70
4
71
3
72
8
73
4
40
0
40
0
40
0
40
0
40
1
40
1
40
1
40
1
41
1
10
50.5332732960599
20
4.8029968899271
30
0
41
1
10
50.5338945862692
20
4.80260865167915
30
0
41
1
10
50.5345142916375
20
4.80211163901842
30
0
41
1
10
50.5351325236357
20
4.80150605350048
30
0
0
SPLINE
5
E0
100
AcDbEntity
8
1
62
256
6
ByLayer
370
18
48
1
60
0
100
AcDbSpline
70
4
71
2
72
6
73
3
40
0
40
0
40
0
40
1
40
1
40
1
41
1
10
50.3489150039649
20
4.48330480214187
30
0
41
1
10
50.4410941500124
20
4.6431508460345
30
0
41
1
10
50.5332732960599
20
4.8029968899271
30
0
0
SPLINE
5
E1
100
AcDbEntity
8
1
62
256
6
ByLayer
370
13
48
1
60
0
100
AcDbSpline
70
4
71
3
72
9
73
5
40
0
40
0
40
0
40
0
40
0.31389404145808
40
1
40
1
40
1
40
1
41
1
10
49.0138337603184
20
4.35293855266988
30
0
41
1
10
49.0155232131801
20
4.35574908699715
30
0
41
1
10
49.020905452529
20
4.36320408216602
30
0
41
1
10
49.0262876918496
20
4.36587193607653
30
0
41
1
10
49.0299804783312
20
4.36544910182948
30
0
0
SPLINE
5
E2
100
AcDbEntity
8
1
62
256
6
ByLayer
370
18
48
1
60
0
100
AcDbSpline
70
4
71
3
72
8
73
4
40
0
40
0
40
0
40
0
40
1
40
1
40
1
40
1
41
1
10
45.2565918042035
20
4.33794456020041
30
0
41
1
10
45.2589639390787
20
4.34378197266011
30
0
41
1
10
45.2613360739727
20
4.34869598820814
30
0
41
1
10
45.2637082088968
20
4.3526823095078
30
0
0
SPLINE
5
E3
100
AcDbEntity
8
1
62
256
6
ByLayer
370
13
48
1
60
0
100
AcDbSpline
70
4
71
3
72
9
73
5
40
0
40
0
40
0
40
0
40
0.611406835383571
40
1
40
1
40
1
40
1
41
1
10
45.2637082088968
20
4.35268230950769
30
0
41
1
10
45.2670545563162
20
4.35830577377962
30
0
41
1
10
45.2725277491
20
4.36448383579008
30
0
41
1
10
45.27800094213
20
4.36569098299859
30
0
41
1
10
45.2801277875571
20
4.36541122805738
30
0
0
SPLINE
5
E4
100
AcDbEntity
8
1
62
256
6
ByLayer
370
18
48
1
60
0
100
AcDbSpline
70
4
71
3
72
9
73
5
40
0
40
0
40
0
40
0
40
0.360005989684291
40
1
40
1
40
1
40
1
41
1
10
52
20
-2.12007513853473
30
0
41
1
10
52
20
-1.77290572797895
30
0
41
1
10
52.0000000000001
20
-0.759178561583809
30
0
41
1
10
51.9999999999999
20
0.299418213145429
30
0
41
1
10
51.9999999999999
20
0.932603731657281
30
0
0
SPLINE
5
E5
100
AcDbEntity
8
1
62
256
6
ByLayer
370
18
48
1
60
0
100
AcDbSpline
70
4
71
3
72
29
73
25
40
0
40
0
40
0
40
0
40
0.0625000000000004
40
0.0937500000000005
40
0.0937500000000005
40
0.125000000000001
40
0.125000000000001
40
0.250000000000001
40
0.250000000000001
40
0.375000000000002
40
0.375000000000002
40
0.500000000000003
40
0.500000000000003
40
0.531250000000003
40
0.531250000000003
40
0.562500000000002
40
0.562500000000002
40
0.625000000000002
40
0.625000000000002
40
0.750000000000001
40
0.750000000000001
40
0.875000000000001
40
0.875000000000001
40
1
40
1
40
1
40
1
41
1
10
51.7146393463504
20
0.947204203292046
30
0
41
1
10
51.719087483395
20
0.881494572973082
30
0
41
1
10
51.7256138070492
20
0.782452720785301
30
0
41
1
10
51.7319602554708
20
0.682696439816425
30
0
41
1
10
51.7361555109582
20
0.616033113352614
30
0
41
1
10
51.73823537082
20
0.582624744468347
30
0
41
1
10
51.748514963086
20
0.415753549483185
30
0
41
1
10
51.7563796040849
20
0.282347997847296
30
0
41
1
10
51.7714762709579
20
0.0157184212156096
30
0
41
1
10
51.7787198658226
20
-0.11750487726303
30
0
41
1
10
51.7926528444031
20
-0.383765119717708
30
0
41
1
10
51.7993302452812
20
-0.516802793494577
30
0
41
1
10
51.8073251729365
20
-0.682979857242117
30
0
41
1
10
51.8089067668108
20
-0.716209241041696
30
0
41
1
10
51.8120357455039
20
-0.782655755627871
30
0
41
1
10
51.8135843878775
20
-0.81590456879141
30
0
41
1
10
51.8181524004994
20
-0.915092655351401
30
0
41
1
10
51.8211011031056
20
-0.98062940493395
30
0
41
1
10
51.829665501831
20
-1.17550902357218
30
0
41
1
10
51.8349985960998
20
-1.3031250853858
30
0
41
1
10
51.8449345579575
20
-1.55382009262101
30
0
41
1
10
51.8495243928881
20
-1.67690076466496
30
0
41
1
10
51.8578454040544
20
-1.91851699750029
30
0
41
1
10
51.8615803538403
20
-2.0370517331115
30
0
41
1
10
51.8648987991825
20
-2.15325084894121
30
0
0
SPLINE
5
E6
100
AcDbEntity
8
1
62
256
6
ByLayer
370
18
48
1
60
0
100
AcDbSpline
70
4
71
3
72
8
73
4
40
0
40
0
40
0
40
0
40
1
40
1
40
1
40
1
41
1
10
38.0334201368674
20
-4.199191967264
30
0
41
1
10
37.7458447824294
20
-4.16147109949594
30
0
41
1
10
37.4582734256151
20
-4.12402659840572
30
0
41
1
10
37.1707193026881
20
-4.08685522171285
30
0
0
SPLINE
5
E7
100
AcDbEntity
8
1
62
256
6
ByLayer
370
18
48
1
60
0
100
AcDbSpline
70
4
71
3
72
17
73
13
40
0
40
0
40
0
40
0
40
0.249999999999976
40
0.249999999999976
40
0.374999999999963
40
0.374999999999963
40
0.499999999999949
40
0.624999999999935
40
0.624999999999935
40
0.749999999999921
40
0.749999999999921
40
1
40
1
40
1
40
1
41
1
10
37.8841772106329
20
-2.21062760200735
30
0
41
1
10
37.8917337017699
20
-2.20216726436377
30
0
41
1
10
37.9008037727154
20
-2.19448349111468
30
0
41
1
10
37.9166292767965
20
-2.18409692833896
30
0
41
1
10
37.922324183175
20
-2.18080408423202
30
0
41
1
10
37.934234118361
20
-2.17475226906001
30
0
41
1
10
37.9466570609724
20
-2.16922474829323
30
0
41
1
10
37.960085495607
20
-2.16472964155599
30
0
41
1
10
37.9740307502164
20
-2.16076673722361
30
0
41
1
10
37.9812602888287
20
-2.15905834129978
30
0
41
1
10
38.0030967533767
20
-2.15488651968903
30
0
41
1
10
38.0180528147543
20
-2.15329786169855
30
0
41
1
10
38.0334201368673
20
-2.15294122310422
30
0
0
SPLINE
5
E8
100
AcDbEntity
8
1
62
256
6
ByLayer
370
18
48
1
60
0
100
AcDbSpline
70
4
71
3
72
18
73
14
40
0
40
0
40
0
40
0
40
0.25
40
0.25
40
0.5
40
0.5
40
0.562499999999994
40
0.562499999999994
40
0.624999999999988
40
0.624999999999988
40
0.75
40
0.75
40
1
40
1
40
1
40
1
41
1
10
32.0000000000001
20
-3.44483479950961
30
0
41
1
10
31.9425347755745
20
-3.40981225379593
30
0
41
1
10
31.8830208029817
20
-3.3794481509062
30
0
41
1
10
31.7600091196195
20
-3.32735416659739
30
0
41
1
10
31.6965111091141
20
-3.30562627863512
30
0
41
1
10
31.6145463872132
20
-3.28385497500651
30
0
41
1
10
31.5980231464126
20
-3.27977174039773
30
0
41
1
10
31.5647106614173
20
-3.2721536620862
30
0
41
1
10
31.5479390681788
20
-3.26862408751029
30
0
41
1
10
31.4975806186728
20
-3.25893083909196
30
0
41
1
10
31.4638378933981
20
-3.25363477563468
30
0
41
1
10
31.3620967244999
20
-3.24118648244399
30
0
41
1
10
31.2935875586374
20
-3.23745252428026
30
0
41
1
10
31.2243649376157
20
-3.23838890535731
30
0
0
SPLINE
5
E9
100
AcDbEntity
8
1
62
256
6
ByLayer
370
18
48
1
60
0
100
AcDbSpline
70
4
71
3
72
15
73
11
40
0
40
0
40
0
40
0
40
0.499999999999996
40
0.499999999999996
40
0.749999999999996
40
0.749999999999996
40
0.874999999999998
40
0.937499999999999
40
0.937499999999999
40
1
40
1
40
1
40
1
41
1
10
36.9971377602366
20
-4.06444959906506
30
0
41
1
10
36.1638324870117
20
-3.95704516722802
30
0
41
1
10
35.3306096011004
20
-3.85193799623633
30
0
41
1
10
34.0812374353326
20
-3.69727340253269
30
0
41
1
10
33.6648592049189
20
-3.64621340896031
30
0
41
1
10
33.0404276170069
20
-3.57025306360038
30
0
41
1
10
32.7282458619744
20
-3.53242968502553
30
0
41
1
10
32.4161193340562
20
-3.49481386544997
30
0
41
1
10
32.2080478219618
20
-3.46977937885558
30
0
41
1
10
32.1040159899381
20
-3.45726722492012
30
0
41
1
10
32
20
-3.44483479950961
30
0
0
SPLINE
5
EA
100
AcDbEntity
8
1
62
256
6
ByLayer
370
18
48
1
60
0
100
AcDbSpline
70
4
71
3
72
19
73
15
40
0
40
0
40
0
40
0
40
0.250000000000078
40
0.250000000000078
40
0.375000000000065
40
0.375000000000065
40
0.500000000000052
40
0.500000000000052
40
0.625000000000039
40
0.625000000000039
40
0.750000000000026
40
0.875000000000013
40
0.875000000000013
40
1
40
1
40
1
40
1
41
1
10
37.170719302688
20
-4.08685522171285
30
0
41
1
10
37.1585258159572
20
-4.07832226450344
30
0
41
1
10
37.1453520941339
20
-4.07131791261602
30
0
41
1
10
37.1240976539675
20
-4.0631412072041
30
0
41
1
10
37.1168180169468
20
-4.06083668250164
30
0
41
1
10
37.1021465602438
20
-4.05713345397575
30
0
41
1
10
37.0947148549435
20
-4.05571892092502
30
0
41
1
10
37.0796594756462
20
-4.05376410532449
30
0
41
1
10
37.0719967525591
20
-4.05322368625238
30
0
41
1
10
37.0566489418449
20
-4.05306041250708
30
0
41
1
10
37.0414344080206
20
-4.0538063222923
30
0
41
1
10
37.0264780483318
20
-4.05631342773736
30
0
41
1
10
37.011652860876
20
-4.05971534135256
30
0
41
1
10
37.0042648236508
20
-4.06188315957417
30
0
41
1
10
36.9971377602366
20
-4.06444959906506
30
0
0
SPLINE
5
EB
100
AcDbEntity
8
1
62
256
6
ByLayer
370
18
48
1
60
0
100
AcDbSpline
70
4
71
3
72
19
73
15
40
0
40
0
40
0
40
0
40
0.249999999999999
40
0.249999999999999
40
0.374999999999999
40
0.374999999999999
40
0.499999999999999
40
0.499999999999999
40
0.624999999999999
40
0.624999999999999
40
0.75
40
0.875
40
0.875
40
1
40
1
40
1
40
1
41
1
10
38.033420178716
20
-2.15303341507993
30
0
41
1
10
38.0499596875769
20
-2.15263889729653
30
0
41
1
10
38.0661959030715
20
-2.15367731167891
30
0
41
1
10
38.0901106087545
20
-2.15731251970789
30
0
41
1
10
38.0980447157224
20
-2.15888941848146
30
0
41
1
10
38.1132999620125
20
-2.1626615439375
30
0
41
1
10
38.1206755895903
20
-2.164861523485
30
0
41
1
10
38.1349309866167
20
-2.16987950670222
30
0
41
1
10
38.1418286250008
20
-2.17270597817753
30
0
41
1
10
38.1550333043291
20
-2.17896571227743
30
0
41
1
10
38.1674253896555
20
-2.1857219423535
30
0
41
1
10
38.1782577529924
20
-2.19343176100702
30
0
41
1
10
38.1882996668381
20
-2.20162507698876
30
0
41
1
10
38.1929307898867
20
-2.2059755107708
30
0
41
1
10
38.1970698762372
20
-2.21049675372188
30
0
0
SPLINE
5
EC
100
AcDbEntity
8
1
62
256
6
ByLayer
370
18
48
1
60
0
100
AcDbSpline
70
4
71
3
72
23
73
19
40
0
40
0
40
0
40
0
40
0.119354911356713
40
0.145587204111726
40
0.145587204111726
40
0.198051789621753
40
0.25051637513178
40
0.355445546151834
40
0.460374717171887
40
0.565303888191941
40
0.670233059211995
40
0.775162230232049
40
0.880091401252102
40
0.932555986762129
40
0.958788279517143
40
0.97190442589465
40
0.985020572272156
40
1
40
1
40
1
40
1
41
1
10
38.033418254304
20
-4.19919196066209
30
0
41
1
10
38.0334182196491
20
-3.95052564773536
30
0
41
1
10
38.0334181775831
20
-3.64733441593844
30
0
41
1
10
38.0334181358826
20
-3.34431081151627
30
0
41
1
10
38.033418115494
20
-3.19591874410108
30
0
41
1
10
38.0334180951861
20
-3.00707754861875
30
0
41
1
10
38.0334180807673
20
-2.63256871242834
30
0
41
1
10
38.0334181199802
20
-2.18567268657898
30
0
41
1
10
38.0334182770091
20
-1.74522851845856
30
0
41
1
10
38.0334185448503
20
-1.46000329030474
30
0
41
1
10
38.0334189022191
20
-1.36617894735298
30
0
41
1
10
38.0334193104708
20
-1.46274413909836
30
0
41
1
10
38.033419658162
20
-1.67391754347773
30
0
41
1
10
38.0334198886837
20
-1.86614531116845
30
0
41
1
10
38.0334200020388
20
-1.97283868713308
30
0
41
1
10
38.0334200619247
20
-2.03254915157064
30
0
41
1
10
38.0334201146279
20
-2.08681329734381
30
0
41
1
10
38.0334201519084
20
-2.12531595098383
30
0
41
1
10
38.033420172042
20
-2.14613224805913
30
0
0
SPLINE
5
ED
100
AcDbEntity
8
1
62
256
6
ByLayer
370
18
48
1
60
0
100
AcDbSpline
70
4
71
3
72
8
73
4
40
0
40
0
40
0
40
0
40
1
40
1
40
1
40
1
41
1
10
38.1109151300818
20
-4.20953815862413
30
0
41
1
10
38.0850828381334
20
-4.20608933916049
30
0
41
1
10
38.0592505462075
20
-4.20264052440874
30
0
41
1
10
38.0334182543039
20
-4.19919171447671
30
0
0
SPLINE
5
EE
100
AcDbEntity
8
1
62
256
6
ByLayer
370
18
48
1
60
0
100
AcDbSpline
70
4
71
3
72
8
73
4
40
0
40
0
40
0
40
0
40
1
40
1
40
1
40
1
41
1
10
38.1556901395791
20
-4.13706891071516
30
0
41
1
10
38.140765813629
20
-4.16122464215263
30
0
41
1
10
38.1258407961189
20
-4.18538106631709
30
0
41
1
10
38.1109151300818
20
-4.2095381586241
30
0
0
SPLINE
5
EF
100
AcDbEntity
8
1
62
256
6
ByLayer
370
18
48
1
60
0
100
AcDbSpline
70
4
71
3
72
32
73
28
40
0
40
0
40
0
40
0
40
0.125000000000047
40
0.125000000000047
40
0.187500000000071
40
0.187500000000071
40
0.250000000000095
40
0.312500000000118
40
0.312500000000118
40
0.375000000000142
40
0.375000000000142
40
0.437500000000166
40
0.437500000000166
40
0.500000000000189
40
0.500000000000189
40
0.625000000000182
40
0.625000000000182
40
0.687500000000152
40
0.687500000000152
40
0.750000000000121
40
0.750000000000121
40
0.812500000000091
40
0.812500000000091
40
0.875000000000061
40
0.93750000000003
40
0.93750000000003
40
1
40
1
40
1
40
1
41
1
10
38.4684888666442
20
-4.13778722066823
30
0
41
1
10
38.4605161267613
20
-4.1249319379404
30
0
41
1
10
38.4509354833829
20
-4.11331919977229
30
0
41
1
10
38.4342248463251
20
-4.09770792595484
30
0
41
1
10
38.4282126429939
20
-4.09278018442578
30
0
41
1
10
38.4156837235481
20
-4.08379648312746
30
0
41
1
10
38.4026230552519
20
-4.07563893050903
30
0
41
1
10
38.3885189317697
20
-4.06910247424284
30
0
41
1
10
38.3738758937715
20
-4.06340324040943
30
0
41
1
10
38.3663503218494
20
-4.0610041909342
30
0
41
1
10
38.3511766975963
20
-4.05717143120492
30
0
41
1
10
38.3434873638046
20
-4.05572118746937
30
0
41
1
10
38.3279030993468
20
-4.05375547879547
30
0
41
1
10
38.3199521360317
20
-4.05324099204728
30
0
41
1
10
38.2962104559856
20
-4.0531709887621
30
0
41
1
10
38.280662146474
20
-4.05503258406884
30
0
41
1
10
38.257757620567
20
-4.06067873997773
30
0
41
1
10
38.2501968978278
20
-4.06305155218999
30
0
41
1
10
38.2356619564019
20
-4.06862768753848
30
0
41
1
10
38.2286291283725
20
-4.07184321041663
30
0
41
1
10
38.2150300422849
20
-4.07912425239101
30
0
41
1
10
38.2084408872275
20
-4.08320614437881
30
0
41
1
10
38.1958497015449
20
-4.09218821558997
30
0
41
1
10
38.1840251492253
20
-4.10185112568715
30
0
41
1
10
38.1736800953367
20
-4.11282803531574
30
0
41
1
10
38.1640864496337
20
-4.12447233502843
30
0
41
1
10
38.1596556112411
20
-4.13065060620946
30
0
41
1
10
38.1556901395791
20
-4.13706891071519
30
0
0
SPLINE
5
F0
100
AcDbEntity
8
1
62
256
6
ByLayer
370
18
48
1
60
0
100
AcDbSpline
70
4
71
3
72
8
73
4
40
0
40
0
40
0
40
0
40
1
40
1
40
1
40
1
41
1
10
38.549268229001
20
-4.26806226766649
30
0
41
1
10
38.5223443695117
20
-4.22463303158716
30
0
41
1
10
38.4954180008085
20
-4.18120788136699
30
0
41
1
10
38.4684888666442
20
-4.13778722066823
30
0
0
SPLINE
5
F1
100
AcDbEntity
8
1
62
256
6
ByLayer
370
18
48
1
60
0
100
AcDbSpline
70
4
71
3
72
8
73
4
40
0
40
0
40
0
40
0
40
1
40
1
40
1
40
1
41
1
10
39.266703078951
20
-4.3638479623468
30
0
41
1
10
39.0275581268516
20
-4.33191910291404
30
0
41
1
10
38.7884131769159
20
-4.29999050952074
30
0
41
1
10
38.549268229001
20
-4.26806226766646
30
0
0
SPLINE
5
F2
100
AcDbEntity
8
1
62
256
6
ByLayer
370
18
48
1
60
0
100
AcDbSpline
70
4
71
3
72
10
73
6
40
0
40
0
40
0
40
0
40
0.820739902797243
40
0.820739902797243
40
1
40
1
40
1
40
1
41
1
10
39.4052706023104
20
-4.13955461270444
30
0
41
1
10
39.3673668587317
20
-4.20091176763069
30
0
41
1
10
39.3294582643296
20
-4.26227319668968
30
0
41
1
10
39.2832649141995
20
-4.33704147423882
30
0
41
1
10
39.2749840920213
20
-4.35044462807679
30
0
41
1
10
39.266703078951
20
-4.3638479623468
30
0
0
SPLINE
5
F3
100
AcDbEntity
8
1
62
256
6
ByLayer
370
18
48
1
60
0
100
AcDbSpline
70
4
71
3
72
32
73
28
40
0
40
0
40
0
40
0
40
0.125
40
0.125
40
0.187500000000001
40
0.187500000000001
40
0.250000000000001
40
0.312500000000001
40
0.312500000000001
40
0.375000000000002
40
0.375000000000002
40
0.437500000000002
40
0.437500000000002
40
0.500000000000002
40
0.500000000000002
40
0.625000000000003
40
0.625000000000003
40
0.687500000000002
40
0.687500000000002
40
0.750000000000002
40
0.750000000000002
40
0.812500000000001
40
0.812500000000001
40
0.875000000000001
40
0.9375
40
0.9375
40
1
40
1
40
1
40
1
41
1
10
39.7180727170482
20
-4.14028655789815
30
0
41
1
10
39.7100990434752
20
-4.12743222619559
30
0
41
1
10
39.7005178776453
20
-4.11582017790084
30
0
41
1
10
39.6838071131914
20
-4.10020951384422
30
0
41
1
10
39.6777949563408
20
-4.0952818708752
30
0
41
1
10
39.6652660189394
20
-4.08629800039685
30
0
41
1
10
39.6522054731323
20
-4.07814011479621
30
0
41
1
10
39.6381017500203
20
-4.07160300045868
30
0
41
1
10
39.623459260824
20
-4.06590293296935
30
0
41
1
10
39.6159334288948
20
-4.06350318298226
30
0
41
1
10
39.6007597610744
20
-4.05966912752979
30
0
41
1
10
39.5930704523104
20
-4.05821820165491
30
0
41
1
10
39.5774863343858
20
-4.05625104809582
30
0
41
1
10
39.5695356372657
20
-4.05573577516194
30
0
41
1
10
39.545792704723
20
-4.0556634094462
30
0
41
1
10
39.5302438918306
20
-4.05752358687477
30
0
41
1
10
39.507339075349
20
-4.0631676366788
30
0
41
1
10
39.4997777063714
20
-4.06553993760176
30
0
41
1
10
39.4852418419042
20
-4.07111520066962
30
0
41
1
10
39.4782087021185
20
-4.07433033708153
30
0
41
1
10
39.4646092596314
20
-4.08161064908805
30
0
41
1
10
39.458020371444
20
-4.08569196686639
30
0
41
1
10
39.4454284773805
20
-4.09467398234335
30
0
41
1
10
39.4336037034893
20
-4.1043369431714
30
0
41
1
10
39.4232589783437
20
-4.11531376408678
30
0
41
1
10
39.4136660121854
20
-4.12695796743287
30
0
41
1
10
39.4092355860662
20
-4.13313624608378
30
0
41
1
10
39.4052706023104
20
-4.13955461270444
30
0
0
SPLINE
5
F4
100
AcDbEntity
8
1
62
256
6
ByLayer
370
18
48
1
60
0
100
AcDbSpline
70
4
71
3
72
8
73
4
40
0
40
0
40
0
40
0
40
1
40
1
40
1
40
1
41
1
10
39.9099324353602
20
-4.44972775221962
30
0
41
1
10
39.8459932055523
20
-4.34655855320307
30
0
41
1
10
39.7820410652017
20
-4.24340971162306
30
0
41
1
10
39.7180727170482
20
-4.14028655789815
30
0
0
SPLINE
5
F5
100
AcDbEntity
8
1
62
256
6
ByLayer
370
18
48
1
60
0
100
AcDbSpline
70
4
71
3
72
8
73
4
40
0
40
0
40
0
40
0
40
1
40
1
40
1
40
1
41
1
10
40.4229529388889
20
-4.51822357682724
30
0
41
1
10
40.2519461031745
20
-4.49539155923074
30
0
41
1
10
40.0809392686814
20
-4.47255960728953
30
0
41
1
10
39.9099324353607
20
-4.44972775221987
30
0
0
SPLINE
5
F6
100
AcDbEntity
8
1
62
256
6
ByLayer
370
18
48
1
60
0
100
AcDbSpline
70
4
71
3
72
12
73
8
40
0
40
0
40
0
40
0
40
0.490323369949405
40
0.490323369949405
40
0.980646734271983
40
0.980646734271983
40
1
40
1
40
1
40
1
41
1
10
40.6548562324215
20
-4.14275561420689
30
0
41
1
10
40.6169633918759
20
-4.20411475566496
30
0
41
1
10
40.5790652842217
20
-4.2654779580881
30
0
41
1
10
40.5032600826024
20
-4.38821175162781
30
0
41
1
10
40.4653529848183
20
-4.44958234507112
30
0
41
1
10
40.4259456783219
20
-4.51337865817888
30
0
41
1
10
40.4244493115923
20
-4.51580111497395
30
0
41
1
10
40.422952938889
20
-4.51822357682724
30
0
0
SPLINE
5
F7
100
AcDbEntity
8
1
62
256
6
ByLayer
370
18
48
1
60
0
100
AcDbSpline
70
4
71
3
72
32
73
28
40
0
40
0
40
0
40
0
40
0.12500000000005
40
0.12500000000005
40
0.187500000000077
40
0.187500000000077
40
0.250000000000105
40
0.312500000000132
40
0.312500000000132
40
0.37500000000016
40
0.37500000000016
40
0.437500000000187
40
0.437500000000187
40
0.500000000000214
40
0.500000000000214
40
0.625000000000159
40
0.625000000000159
40
0.687500000000133
40
0.687500000000133
40
0.750000000000106
40
0.750000000000106
40
0.81250000000008
40
0.81250000000008
40
0.875000000000053
40
0.937500000000027
40
0.937500000000027
40
1
40
1
40
1
40
1
41
1
10
40.9676547592803
20
-4.14353043820063
30
0
41
1
10
40.9596817804214
20
-4.13067530405613
30
0
41
1
10
40.9501020089672
20
-4.11906154903079
30
0
41
1
10
40.9333940134333
20
-4.10344727205916
30
0
41
1
10
40.9273828552874
20
-4.09851817080687
30
0
41
1
10
40.9148554660457
20
-4.08953078693781
30
0
41
1
10
40.9017964849112
20
-4.0813691463328
30
0
41
1
10
40.8876942894893
20
-4.07482791053994
30
0
41
1
10
40.873053277562
20
-4.06912358092811
30
0
41
1
10
40.8655270677435
20
-4.06672129788746
30
0
41
1
10
40.8503533393136
20
-4.06288271252356
30
0
41
1
10
40.8426639849122
20
-4.06142961643806
30
0
41
1
10
40.8270797430006
20
-4.05945832135623
30
0
41
1
10
40.8191291787672
20
-4.05894103673776
30
0
41
1
10
40.7953832463696
20
-4.05886322564686
30
0
41
1
10
40.7798328946657
20
-4.06072079311531
30
0
41
1
10
40.7569264032978
20
-4.0663620711473
30
0
41
1
10
40.7493638332083
20
-4.06873387246145
30
0
41
1
10
40.7348261808726
20
-4.07430862183767
30
0
41
1
10
40.7277923939525
20
-4.0775237150261
30
0
41
1
10
40.7141920890369
20
-4.08480425825761
30
0
41
1
10
40.7076031839803
20
-4.08888570639746
30
0
41
1
10
40.6950107038847
20
-4.09786890219772
30
0
41
1
10
40.6831858204049
20
-4.1075331926622
30
0
41
1
10
40.6728419445133
20
-4.11851166620104
30
0
41
1
10
40.6632500775549
20
-4.13015747613079
30
0
41
1
10
40.6588203849681
20
-4.136336538905
30
0
41
1
10
40.6548562324215
20
-4.14275561420689
30
0
0
SPLINE
5
F8
100
AcDbEntity
8
1
62
256
6
ByLayer
370
18
48
1
60
0
100
AcDbSpline
70
4
71
3
72
10
73
6
40
0
40
0
40
0
40
0
40
0.335281536347067
40
0.335281536347067
40
1
40
1
40
1
40
1
41
1
10
41.2699724852224
20
-4.63131398446305
30
0
41
1
10
41.2361960522692
20
-4.57678221249671
30
0
41
1
10
41.2024164197969
20
-4.5222553470015
30
0
41
1
10
41.1016556730831
20
-4.35964207861974
30
0
41
1
10
41.0346641145944
20
-4.25157214591744
30
0
41
1
10
40.9676547592803
20
-4.14353043820063
30
0
0
SPLINE
5
F9
100
AcDbEntity
8
1
62
256
6
ByLayer
370
18
48
1
60
0
100
AcDbSpline
70
4
71
3
72
8
73
4
40
0
40
0
40
0
40
0
40
1
40
1
40
1
40
1
41
1
10
41.579018701254
20
-4.67257660767479
30
0
41
1
10
41.4760032954325
20
-4.65882239934376
30
0
41
1
10
41.3729878900918
20
-4.64506818933492
30
0
41
1
10
41.2699724852224
20
-4.63131398446305
30
0
0
SPLINE
5
FA
100
AcDbEntity
8
1
62
256
6
ByLayer
370
18
48
1
60
0
100
AcDbSpline
70
4
71
3
72
12
73
8
40
0
40
0
40
0
40
0
40
0.349380559418158
40
0.349380559418158
40
0.698761114752936
40
0.698761114752936
40
1
40
1
40
1
40
1
41
1
10
41.9044378906178
20
-4.14561634818528
30
0
41
1
10
41.8665536465916
20
-4.20697620511351
30
0
41
1
10
41.8286637132774
20
-4.26833990782649
30
0
41
1
10
41.7528741253469
20
-4.39107432847973
30
0
41
1
10
41.714974466751
20
-4.45244504873708
30
0
41
1
10
41.6443896360112
20
-4.56673590719379
30
0
41
1
10
41.6117055300679
20
-4.61965524907271
30
0
41
1
10
41.579018701254
20
-4.67257660767479
30
0
0
SPLINE
5
FB
100
AcDbEntity
8
1
62
256
6
ByLayer
370
18
48
1
60
0
100
AcDbSpline
70
4
71
3
72
32
73
28
40
0
40
0
40
0
40
0
40
0.125000000000068
40
0.125000000000068
40
0.187500000000063
40
0.187500000000063
40
0.250000000000059
40
0.312500000000054
40
0.312500000000054
40
0.375000000000049
40
0.375000000000049
40
0.437500000000044
40
0.437500000000044
40
0.500000000000039
40
0.500000000000039
40
0.625000000000029
40
0.625000000000029
40
0.687500000000024
40
0.687500000000024
40
0.75000000000002
40
0.75000000000002
40
0.812500000000015
40
0.812500000000015
40
0.87500000000001
40
0.937500000000005
40
0.937500000000005
40
1
40
1
40
1
40
1
41
1
10
42.2172371625404
20
-4.14636899141121
30
0
41
1
10
42.2092630499021
20
-4.13351488212024
30
0
41
1
10
42.1996823626672
20
-4.12190206770725
30
0
41
1
10
42.1829732219089
20
-4.10628914734519
30
0
41
1
10
42.1769617113786
20
-4.10136048236396
30
0
41
1
10
42.164433618536
20
-4.09237389431163
30
0
41
1
10
42.1513739986227
20
-4.08421302814082
30
0
41
1
10
42.1372712726956
20
-4.07767255413373
30
0
41
1
10
42.122629776415
20
-4.07196899491046
30
0
41
1
10
42.1151031941567
20
-4.06956704807195
30
0
41
1
10
42.0999289106172
20
-4.06572921603072
30
0
41
1
10
42.0922393166512
20
-4.06427651490765
30
0
41
1
10
42.0766546704445
20
-4.06230605257932
30
0
41
1
10
42.0687039656677
20
-4.06178920544963
30
0
41
1
10
42.0449573194676
20
-4.06171278096434
30
0
41
1
10
42.0294067641288
20
-4.06357138820331
30
0
41
1
10
42.0065003659889
20
-4.06921434175183
30
0
41
1
10
41.9989378312332
20
-4.0715867416092
30
0
41
1
10
41.9844004340482
20
-4.07716268401143
30
0
41
1
10
41.97736685873
20
-4.08037837476715
30
0
41
1
10
41.9637671342671
20
-4.08766009745796
30
0
41
1
10
41.9571785836008
20
-4.091742141526
30
0
41
1
10
41.9445870368972
20
-4.10072643040985
30
0
41
1
10
41.9327632860092
20
-4.11039180534215
30
0
41
1
10
41.9224206348807
20
-4.12137108806499
30
0
41
1
10
41.9128301583645
20
-4.13301767270764
30
0
41
1
10
41.9084012355766
20
-4.13919704945357
30
0
41
1
10
41.9044378906178
20
-4.14561634818528
30
0
0
SPLINE
5
FC
100
AcDbEntity
8
1
62
256
6
ByLayer
370
18
48
1
60
0
100
AcDbSpline
70
4
71
3
72
12
73
8
40
0
40
0
40
0
40
0
40
0.237052459056717
40
0.237052459056717
40
0.513713876412509
40
0.513713876412509
40
1
40
1
40
1
40
1
41
1
10
42.6303641727513
20
-4.81294775571718
30
0
41
1
10
42.5977332599752
20
-4.76025607740604
30
0
41
1
10
42.5650996510202
20
-4.70756829888418
30
0
41
1
10
42.4943732015769
20
-4.59339899545179
30
0
41
1
10
42.4562792766662
20
-4.53191910901384
30
0
41
1
10
42.3512150851759
20
-4.36239631391683
30
0
41
1
10
42.2842351787442
20
-4.25436844685115
30
0
41
1
10
42.2172371625404
20
-4.14636899141121
30
0
0
SPLINE
5
FD
100
AcDbEntity
8
1
62
256
6
ByLayer
370
18
48
1
60
0
100
AcDbSpline
70
4
71
3
72
8
73
4
40
0
40
0
40
0
40
0
40
1
40
1
40
1
40
1
41
1
10
42.6415442040782
20
-4.81444045920898
30
0
41
1
10
42.6378175269686
20
-4.81394289141113
30
0
41
1
10
42.6340908498597
20
-4.8134453235804
30
0
41
1
10
42.6303641727513
20
-4.81294775571718
30
0
0
SPLINE
5
FE
100
AcDbEntity
8
1
62
256
6
ByLayer
370
18
48
1
60
0
100
AcDbSpline
70
4
71
3
72
8
73
4
40
0
40
0
40
0
40
0
40
1
40
1
40
1
40
1
41
1
10
42.6415442040782
20
-4.81444045920898
30
0
41
1
10
42.6752438103834
20
-4.81451815878029
30
0
41
1
10
42.7089434166801
20
-4.81459584214349
30
0
41
1
10
42.7426430229681
20
-4.81467350929842
30
0
0
SPLINE
5
FF
100
AcDbEntity
8
1
62
256
6
ByLayer
370
18
48
1
60
0
100
AcDbSpline
70
4
71
3
72
12
73
8
40
0
40
0
40
0
40
0
40
0.276344911310956
40
0.276344911310956
40
0.552689819330213
40
0.552689819330213
40
1
40
1
40
1
40
1
41
1
10
43.1540236663906
20
-4.14841748827612
30
0
41
1
10
43.1161478875837
20
-4.20977798185493
30
0
41
1
10
43.0782660023737
20
-4.27114210916668
30
0
41
1
10
43.0024917845146
20
-4.39387701106122
30
0
41
1
10
42.9645994477241
20
-4.45524778795519
30
0
41
1
10
42.8653603140878
20
-4.61596507934678
30
0
41
1
10
42.8040062721315
20
-4.71531638788184
30
0
41
1
10
42.7426430229688
20
-4.81467350929822
30
0
0
SPLINE
5
100
100
AcDbEntity
8
1
62
256
6
ByLayer
370
18
48
1
60
0
100
AcDbSpline
70
4
71
3
72
32
73
28
40
0
40
0
40
0
40
0
40
0.124999999999946
40
0.124999999999946
40
0.187499999999959
40
0.187499999999959
40
0.249999999999971
40
0.312499999999983
40
0.312499999999983
40
0.374999999999996
40
0.374999999999996
40
0.437500000000008
40
0.437500000000008
40
0.500000000000021
40
0.500000000000021
40
0.624999999999936
40
0.624999999999936
40
0.687499999999946
40
0.687499999999946
40
0.749999999999957
40
0.749999999999957
40
0.812499999999968
40
0.812499999999968
40
0.874999999999979
40
0.937499999999989
40
0.937499999999989
40
1
40
1
40
1
40
1
41
1
10
43.4668198061584
20
-4.14918864379104
30
0
41
1
10
43.4588455818622
20
-4.1363347812993
30
0
41
1
10
43.4492652823258
20
-4.12472168754707
30
0
41
1
10
43.4325572809014
20
-4.10910771269263
30
0
41
1
10
43.4265462194639
20
-4.10417854394757
30
0
41
1
10
43.4140187883648
20
-4.09519054639725
30
0
41
1
10
43.4009598930669
20
-4.08702810191951
30
0
41
1
10
43.3868579784038
20
-4.08048577527586
30
0
41
1
10
43.3722173223554
20
-4.07478024618962
30
0
41
1
10
43.3646904729932
20
-4.07237703764406
30
0
41
1
10
43.3495161427941
20
-4.06853696828014
30
0
41
1
10
43.3418265400609
20
-4.0670831838373
30
0
41
1
10
43.3262419050736
20
-4.065110627764
30
0
41
1
10
43.318291368621
20
-4.06459274548686
30
0
41
1
10
43.2945430191305
20
-4.06451348969
30
0
41
1
10
43.2789916911317
20
-4.06637073415303
30
0
41
1
10
43.2560846394196
20
-4.07201217591296
30
0
41
1
10
43.2485214495036
20
-4.07438432119355
30
0
41
1
10
43.2339831528543
20
-4.079960011476
30
0
41
1
10
43.2269492989303
20
-4.08317568380622
30
0
41
1
10
43.2133493195858
20
-4.09045751482506
30
0
41
1
10
43.2067609633819
20
-4.09453956130551
30
0
41
1
10
43.1941692723157
20
-4.10352453379431
30
0
41
1
10
43.1823456951539
20
-4.11319061878356
30
0
41
1
10
43.1720039506505
20
-4.12417076812937
30
0
41
1
10
43.162414551006
20
-4.13581812009397
30
0
41
1
10
43.1579862848354
20
-4.14199786520038
30
0
41
1
10
43.1540236663906
20
-4.14841748827612
30
0
0
SPLINE
5
101
100
AcDbEntity
8
1
62
256
6
ByLayer
370
18
48
1
60
0
100
AcDbSpline
70
4
71
3
72
12
73
8
40
0
40
0
40
0
40
0
40
0.238460436377744
40
0.238460436377744
40
0.514477100891027
40
0.514477100891027
40
1
40
1
40
1
40
1
41
1
10
43.8808989091474
20
-4.8172906724426
30
0
41
1
10
43.8479988055575
20
-4.76416471411164
30
0
41
1
10
43.8150959122465
20
-4.71104274823944
30
0
41
1
10
43.7441013983495
20
-4.59644241470255
30
0
41
1
10
43.7060087243383
20
-4.53496562216557
30
0
41
1
10
43.6008966767726
20
-4.36536909250174
30
0
41
1
10
43.53386746913
20
-4.25726454035828
30
0
41
1
10
43.4668198061584
20
-4.14918864379104
30
0
0
SPLINE
5
102
100
AcDbEntity
8
1
62
256
6
ByLayer
370
18
48
1
60
0
100
AcDbSpline
70
4
71
3
72
8
73
4
40
0
40
0
40
0
40
0
40
1
40
1
40
1
40
1
41
1
10
43.8808989091474
20
-4.8172906724426
30
0
41
1
10
43.9180354052245
20
-4.81737585833295
30
0
41
1
10
43.9551719012909
20
-4.81746102453681
30
0
41
1
10
43.9923083973464
20
-4.81754617105386
30
0
0
SPLINE
5
103
100
AcDbEntity
8
1
62
256
6
ByLayer
370
18
48
1
60
0
100
AcDbSpline
70
4
71
3
72
12
73
8
40
0
40
0
40
0
40
0
40
0.276346977625053
40
0.276346977625053
40
0.552693951890303
40
0.552693951890303
40
1
40
1
40
1
40
1
41
1
10
44.4036027979725
20
-4.15129246123399
30
0
41
1
10
44.365736018272
20
-4.21265388031284
30
0
41
1
10
44.3278626998372
20
-4.27401871287645
30
0
41
1
10
44.252104862874
20
-4.39675464289186
30
0
41
1
10
44.2142203400343
20
-4.4581257426525
30
0
41
1
10
44.1150018309456
20
-4.61884178209735
30
0
41
1
10
44.0536600680364
20
-4.71819124651645
30
0
41
1
10
43.9923083973472
20
-4.81754617105364
30
0
0
SPLINE
5
104
100
AcDbEntity
8
1
62
256
6
ByLayer
370
18
48
1
60
0
100
AcDbSpline
70
4
71
3
72
32
73
28
40
0
40
0
40
0
40
0
40
0.124999999999991
40
0.124999999999991
40
0.187500000000023
40
0.187500000000023
40
0.250000000000055
40
0.312500000000087
40
0.312500000000087
40
0.375000000000119
40
0.375000000000119
40
0.43750000000015
40
0.43750000000015
40
0.500000000000182
40
0.500000000000182
40
0.625000000000137
40
0.625000000000137
40
0.687500000000114
40
0.687500000000114
40
0.750000000000091
40
0.750000000000091
40
0.812500000000068
40
0.812500000000068
40
0.875000000000046
40
0.937500000000023
40
0.937500000000023
40
1
40
1
40
1
40
1
41
1
10
44.7164022239375
20
-4.15204976954658
30
0
41
1
10
44.7084269374717
20
-4.13919664581979
30
0
41
1
10
44.6988458530418
20
-4.12758412258
30
0
41
1
10
44.6821369745203
20
-4.11197083811268
30
0
41
1
10
44.676125657693
20
-4.10704185536594
30
0
41
1
10
44.6635976583524
20
-4.09805408288332
30
0
41
1
10
44.6505382601152
20
-4.0898918167089
30
0
41
1
10
44.6364359477756
20
-4.08334961205529
30
0
41
1
10
44.6217949373035
20
-4.07764419309558
30
0
41
1
10
44.6142676421739
20
-4.07524093885587
30
0
41
1
10
44.5990926896311
20
-4.07140092004522
30
0
41
1
10
44.5914028102665
20
-4.06994718850956
30
0
41
1
10
44.575817690105
20
-4.06797479901019
30
0
41
1
10
44.5678670016961
20
-4.06745702428134
30
0
41
1
10
44.5441174234849
20
-4.06737822994131
30
0
41
1
10
44.5285655890082
20
-4.06923601910904
30
0
41
1
10
44.5056582295761
20
-4.07487852764589
30
0
41
1
10
44.4980948325675
20
-4.07725112688297
30
0
41
1
10
44.48355637584
20
-4.08282779346948
30
0
41
1
10
44.4765225541425
20
-4.0860439853615
30
0
41
1
10
44.4629228453742
20
-4.09332688702236
30
0
41
1
10
44.4563347612944
20
-4.09740946278856
30
0
41
1
10
44.4437436533561
20
-4.10639560214972
30
0
41
1
10
44.431920870445
20
-4.11606282791794
30
0
41
1
10
44.4215802676489
20
-4.12704401478791
30
0
41
1
10
44.4119921571274
20
-4.13869232621232
30
0
41
1
10
44.4075646274985
20
-4.14487249408106
30
0
41
1
10
44.4036027979725
20
-4.15129246123399
30
0
0
SPLINE
5
105
100
AcDbEntity
8
1
62
256
6
ByLayer
370
18
48
1
60
0
100
AcDbSpline
70
4
71
3
72
12
73
8
40
0
40
0
40
0
40
0
40
0.238767279291173
40
0.238767279291173
40
0.514759584081013
40
0.514759584081013
40
1
40
1
40
1
40
1
41
1
10
45.1305548313851
20
-4.82014977595517
30
0
41
1
10
45.0976067604131
20
-4.76695547177289
30
0
41
1
10
45.0646558452029
20
-4.71376520230666
30
0
41
1
10
44.9936099789285
20
-4.59910214535009
30
0
41
1
10
44.9555139660611
20
-4.53763093161939
30
0
41
1
10
44.8504255879769
20
-4.36810329470904
30
0
41
1
10
44.7834232516332
20
-4.26006213561871
30
0
41
1
10
44.7164022239375
20
-4.15204976954658
30
0
0
SPLINE
5
106
100
AcDbEntity
8
1
62
256
6
ByLayer
370
18
48
1
60
0
100
AcDbSpline
70
4
71
3
72
8
73
4
40
0
40
0
40
0
40
0
40
1
40
1
40
1
40
1
41
1
10
45.130554831385
20
-4.82014977595517
30
0
41
1
10
45.167689345662
20
-4.82023451564061
30
0
41
1
10
45.2048238599279
20
-4.82031923563761
30
0
41
1
10
45.2419583741826
20
-4.82040393594573
30
0
0
SPLINE
5
107
100
AcDbEntity
8
1
62
256
6
ByLayer
370
18
48
1
60
0
100
AcDbSpline
70
4
71
3
72
12
73
8
40
0
40
0
40
0
40
0
40
0.27633373602785
40
0.27633373602785
40
0.552667468621892
40
0.552667468621892
40
1
40
1
40
1
40
1
41
1
10
45.6531888389948
20
-4.15411543327474
30
0
41
1
10
45.6153311337225
20
-4.21547781056506
30
0
41
1
10
45.5774664471458
20
-4.2768433760167
30
0
41
1
10
45.5017251037577
20
-4.39958038077563
30
0
41
1
10
45.4638484424673
20
-4.46095182239824
30
0
41
1
10
45.3646430693235
20
-4.62167895321832
30
0
41
1
10
45.303306034233
20
-4.72103889383393
30
0
41
1
10
45.2419583741835
20
-4.82040393594548
30
0
0
SPLINE
5
108
100
AcDbEntity
8
1
62
256
6
ByLayer
370
18
48
1
60
0
100
AcDbSpline
70
4
71
3
72
32
73
28
40
0
40
0
40
0
40
0
40
0.124999999999941
40
0.124999999999941
40
0.187499999999914
40
0.187499999999914
40
0.249999999999887
40
0.31249999999986
40
0.31249999999986
40
0.374999999999833
40
0.374999999999833
40
0.437499999999805
40
0.437499999999805
40
0.499999999999778
40
0.499999999999778
40
0.624999999999834
40
0.624999999999834
40
0.687499999999861
40
0.687499999999861
40
0.749999999999889
40
0.749999999999889
40
0.812499999999917
40
0.812499999999917
40
0.874999999999945
40
0.937499999999972
40
0.937499999999972
40
1
40
1
40
1
40
1
41
1
10
45.9659840083986
20
-4.15487139465878
30
0
41
1
10
45.9580083442505
20
-4.14201880453044
30
0
41
1
10
45.9484272584598
20
-4.13040644780989
30
0
41
1
10
45.9317187413583
20
-4.11479302087861
30
0
41
1
10
45.9257075895114
20
-4.10986389697007
30
0
41
1
10
45.9131797790939
20
-4.10087559972973
30
0
41
1
10
45.9001206144768
20
-4.0927127124167
30
0
41
1
10
45.8860185862064
20
-4.08616975525774
30
0
41
1
10
45.8713778679869
20
-4.08046354365374
30
0
41
1
10
45.8638502912409
20
-4.07805973755754
30
0
41
1
10
45.8486751038285
20
-4.07421883213666
30
0
41
1
10
45.8409851253179
20
-4.07276469879662
30
0
41
1
10
45.825399841872
20
-4.0707915964928
30
0
41
1
10
45.8174491727501
20
-4.07027349868179
30
0
41
1
10
45.7936984254483
20
-4.07019396544959
30
0
41
1
10
45.7781461278746
20
-4.07205165167781
30
0
41
1
10
45.7552385231801
20
-4.07769442927858
30
0
41
1
10
45.7476748706171
20
-4.08006726766655
30
0
41
1
10
45.7331361981209
20
-4.08564455260623
30
0
41
1
10
45.7261023958389
20
-4.08886111681437
30
0
41
1
10
45.7125029542412
20
-4.09614484379222
30
0
41
1
10
45.7059151528778
20
-4.10022784979742
30
0
41
1
10
45.6933246597664
20
-4.10921500138613
30
0
41
1
10
45.681502793004
20
-4.11888330974406
30
0
41
1
10
45.6711633365682
20
-4.12986540434846
30
0
41
1
10
45.6615765848254
20
-4.14151461926613
30
0
41
1
10
45.657149837803
20
-4.14769517347389
30
0
41
1
10
45.6531888389948
20
-4.15411543327474
30
0
0
SPLINE
5
109
100
AcDbEntity
8
1
62
256
6
ByLayer
370
18
48
1
60
0
100
AcDbSpline
70
4
71
3
72
12
73
8
40
0
40
0
40
0
40
0
40
0.238312218062355
40
0.238312218062355
40
0.514276905665644
40
0.514276905665644
40
1
40
1
40
1
40
1
41
1
10
46.3801838853008
20
-4.82299395412235
30
0
41
1
10
46.3472950348099
20
-4.76989911339606
30
0
41
1
10
46.3144033114245
20
-4.71680831987766
30
0
41
1
10
46.2434161999983
20
-4.60224872517986
30
0
41
1
10
46.205319724922
20
-4.54078152396403
30
0
41
1
10
46.1001565662805
20
-4.37114675089282
30
0
41
1
10
46.03307975762
20
-4.26299457388129
30
0
41
1
10
45.9659840083986
20
-4.15487139465878
30
0
0
SPLINE
5
10A
100
AcDbEntity
8
1
62
256
6
ByLayer
370
18
48
1
60
0
100
AcDbSpline
70
4
71
3
72
8
73
4
40
0
40
0
40
0
40
0
40
1
40
1
40
1
40
1
41
1
10
46.3801838853008
20
-4.82299395412235
30
0
41
1
10
46.4173186744003
20
-4.82307825268711
30
0
41
1
10
46.4544534634883
20
-4.82316253155875
30
0
41
1
10
46.4915882525647
20
-4.82324679073685
30
0
0
SPLINE
5
10B
100
AcDbEntity
8
1
62
256
6
ByLayer
370
18
48
1
60
0
100
AcDbSpline
70
4
71
3
72
12
73
8
40
0
40
0
40
0
40
0
40
0.276309106833781
40
0.276309106833781
40
0.552618210155628
40
0.552618210155628
40
1
40
1
40
1
40
1
41
1
10
46.9027711594159
20
-4.15689578412776
30
0
41
1
10
46.8649225838486
20
-4.21825914222512
30
0
41
1
10
46.8270665842599
20
-4.27962546347294
30
0
41
1
10
46.7513418435963
20
-4.40236358888507
30
0
41
1
10
46.7134730978556
20
-4.46373539536745
30
0
41
1
10
46.6142753518745
20
-4.62448283193899
30
0
41
1
10
46.5529374767429
20
-4.72386244054292
30
0
41
1
10
46.4915882525647
20
-4.82324679073685
30
0
0
SPLINE
5
10C
100
AcDbEntity
8
1
62
256
6
ByLayer
370
18
48
1
60
0
100
AcDbSpline
70
4
71
3
72
32
73
28
40
0
40
0
40
0
40
0
40
0.124999999999891
40
0.124999999999891
40
0.187499999999876
40
0.187499999999876
40
0.24999999999986
40
0.312499999999845
40
0.312499999999845
40
0.37499999999983
40
0.37499999999983
40
0.437499999999814
40
0.437499999999814
40
0.499999999999799
40
0.499999999999799
40
0.624999999999769
40
0.624999999999769
40
0.687499999999807
40
0.687499999999807
40
0.749999999999846
40
0.749999999999846
40
0.812499999999884
40
0.812499999999884
40
0.874999999999923
40
0.937499999999961
40
0.937499999999961
40
1
40
1
40
1
40
1
41
1
10
47.2155660006035
20
-4.1576659591754
30
0
41
1
10
47.2075900232743
20
-4.14481356548632
30
0
41
1
10
47.1980091019201
20
-4.13320091988581
30
0
41
1
10
47.181301361587
20
-4.11758648043579
30
0
41
1
10
47.1752905341137
20
-4.11265687858335
30
0
41
1
10
47.1627631455589
20
-4.1036672487312
30
0
41
1
10
47.1497044964851
20
-4.09550282955496
30
0
41
1
10
47.1356030068869
20
-4.08895819872603
30
0
41
1
10
47.1209628865116
20
-4.08325016694567
30
0
41
1
10
47.1134349504047
20
-4.08084519190271
30
0
41
1
10
47.0982595159983
20
-4.07700223777172
30
0
41
1
10
47.0905694314674
20
-4.07554712196901
30
0
41
1
10
47.074983970201
20
-4.07357214249683
30
0
41
1
10
47.0670333772592
20
-4.07305312713109
30
0
41
1
10
47.0432807321556
20
-4.07297112915023
30
0
41
1
10
47.0277275497359
20
-4.07482770994167
30
0
41
1
10
47.0048191508226
20
-4.08046939253401
30
0
41
1
10
46.9972548312537
20
-4.08284211142993
30
0
41
1
10
46.9827152337083
20
-4.08841941311846
30
0
41
1
10
46.9756811435947
20
-4.09163609349812
30
0
41
1
10
46.9620814363489
20
-4.09892019956263
30
0
41
1
10
46.9554938126301
20
-4.10300335591089
30
0
41
1
10
46.9429032248509
20
-4.11199143221663
30
0
41
1
10
46.9310816477558
20
-4.12166074527184
30
0
41
1
10
46.9207430806231
20
-4.13264387352726
30
0
41
1
10
46.9111574570976
20
-4.1442940787926
30
0
41
1
10
46.9067313980598
20
-4.15047510545185
30
0
41
1
10
46.9027711594159
20
-4.15689578412776
30
0
0
SPLINE
5
10D
100
AcDbEntity
8
1
62
256
6
ByLayer
370
18
48
1
60
0
100
AcDbSpline
70
4
71
3
72
12
73
8
40
0
40
0
40
0
40
0
40
0.238519572777741
40
0.238519572777741
40
0.514453354261127
40
0.514453354261127
40
1
40
1
40
1
40
1
41
1
10
47.6298101800872
20
-4.82582325904568
30
0
41
1
10
47.596889178217
20
-4.77267943477497
30
0
41
1
10
47.5639652992017
20
-4.71953967113555
30
0
41
1
10
47.4929462021786
20
-4.60493480649765
30
0
41
1
10
47.4548499042816
20
-4.54347129808173
30
0
41
1
10
47.3497041049399
20
-4.37387391773237
30
0
41
1
10
47.2826444987801
20
-4.26575544226313
30
0
41
1
10
47.2155660006035
20
-4.1576659591754
30
0
0
SPLINE
5
10E
100
AcDbEntity
8
1
62
256
6
ByLayer
370
18
48
1
60
0
100
AcDbSpline
70
4
71
3
72
8
73
4
40
0
40
0
40
0
40
0
40
1
40
1
40
1
40
1
41
1
10
47.6298101800872
20
-4.82582325904568
30
0
41
1
10
47.666890658244
20
-4.82590699311919
30
0
41
1
10
47.7039711363889
20
-4.82599070755251
30
0
41
1
10
47.741051614522
20
-4.8260744023452
30
0
0
SPLINE
5
10F
100
AcDbEntity
8
1
62
256
6
ByLayer
370
18
48
1
60
0
100
AcDbSpline
70
4
71
3
72
12
73
8
40
0
40
0
40
0
40
0
40
0.276180410822571
40
0.276180410822571
40
0.5523608180493
40
0.5523608180493
40
1
40
1
40
1
40
1
41
1
10
48.1523575918765
20
-4.1594183539622
30
0
41
1
10
48.1145167487446
20
-4.22078191910043
30
0
41
1
10
48.0766680254217
20
-4.28214821608705
30
0
41
1
10
48.0009570422405
20
-4.40488589111561
30
0
41
1
10
47.963094777533
20
-4.46625727149012
30
0
41
1
10
47.8638492307854
20
-4.62710663725466
30
0
41
1
10
47.8024564791661
20
-4.72658833060265
30
0
41
1
10
47.741051614522
20
-4.8260744023452
30
0
0
SPLINE
5
110
100
AcDbEntity
8
1
62
256
6
ByLayer
370
18
48
1
60
0
100
AcDbSpline
70
4
71
3
72
32
73
28
40
0
40
0
40
0
40
0
40
0.125000000000013
40
0.125000000000013
40
0.187499999999981
40
0.187499999999981
40
0.249999999999949
40
0.312499999999917
40
0.312499999999917
40
0.374999999999884
40
0.374999999999884
40
0.437499999999852
40
0.437499999999852
40
0.49999999999982
40
0.49999999999982
40
0.624999999999865
40
0.624999999999865
40
0.687499999999888
40
0.687499999999888
40
0.74999999999991
40
0.74999999999991
40
0.812499999999933
40
0.812499999999933
40
0.874999999999955
40
0.937499999999977
40
0.937499999999977
40
1
40
1
40
1
40
1
41
1
10
48.4651492696259
20
-4.16016394348975
30
0
41
1
10
48.4571722830274
20
-4.14731279982749
30
0
41
1
10
48.4475905443197
20
-4.13570134254994
30
0
41
1
10
48.4308817726803
20
-4.12008866078318
30
0
41
1
10
48.4248706283961
20
-4.11515963926246
30
0
41
1
10
48.4123426366653
20
-4.1061711215028
30
0
41
1
10
48.3992834156335
20
-4.0980078453843
30
0
41
1
10
48.3851815219168
20
-4.09146425304794
30
0
41
1
10
48.370541011457
20
-4.08575731841589
30
0
41
1
10
48.3630128255539
20
-4.08335286729348
30
0
41
1
10
48.3478370292041
20
-4.07951099882567
30
0
41
1
10
48.3401468010914
20
-4.07805643462947
30
0
41
1
10
48.324561126419
20
-4.0760825815334
30
0
41
1
10
48.3166104722184
20
-4.07556414358265
30
0
41
1
10
48.2928576025148
20
-4.07548390112598
30
0
41
1
10
48.2773045027913
20
-4.07734168147604
30
0
41
1
10
48.2543965696984
20
-4.08298516906217
30
0
41
1
10
48.2468324675442
20
-4.08535849049147
30
0
41
1
10
48.232293433539
20
-4.09093694536335
30
0
41
1
10
48.2252596864364
20
-4.09415418204466
30
0
41
1
10
48.2116607811521
20
-4.10143934995904
30
0
41
1
10
48.2050735754655
20
-4.10552304515235
30
0
41
1
10
48.192484134635
20
-4.11451197987671
30
0
41
1
10
48.1806637775358
20
-4.12418205755563
30
0
41
1
10
48.1703265589384
20
-4.13516575876764
30
0
41
1
10
48.1607423433626
20
-4.14681643456262
30
0
41
1
10
48.1563170453931
20
-4.15299761479068
30
0
41
1
10
48.1523575918765
20
-4.1594183539622
30
0
0
SPLINE
5
111
100
AcDbEntity
8
1
62
256
6
ByLayer
370
18
48
1
60
0
100
AcDbSpline
70
4
71
3
72
12
73
8
40
0
40
0
40
0
40
0
40
0.238645152037354
40
0.238645152037354
40
0.514420920372973
40
0.514420920372973
40
1
40
1
40
1
40
1
41
1
10
48.879676398494
20
-4.82863823245651
30
0
41
1
10
48.8467158722914
20
-4.77544099793218
30
0
41
1
10
48.8137524008707
20
-4.72224787241112
30
0
41
1
10
48.7426896431037
20
-4.60759562656074
30
0
41
1
10
48.7045892610505
20
-4.54613810303411
30
0
41
1
10
48.5993890069111
20
-4.37648823410473
30
0
41
1
10
48.5322787972378
20
-4.2683114491503
30
0
41
1
10
48.4651492696259
20
-4.16016394348975
30
0
0
SPLINE
5
112
100
AcDbEntity
8
1
62
256
6
ByLayer
370
18
48
1
60
0
100
AcDbSpline
70
4
71
3
72
8
73
4
40
0
40
0
40
0
40
0
40
1
40
1
40
1
40
1
41
1
10
48.879676398494
20
-4.82863823245651
30
0
41
1
10
48.916754086125
20
-4.82872151886866
30
0
41
1
10
48.9538317737437
20
-4.82880478563868
30
0
41
1
10
48.9909094613502
20
-4.82888803276615
30
0
0
SPLINE
5
113
100
AcDbEntity
8
1
62
256
6
ByLayer
370
18
48
1
60
0
100
AcDbSpline
70
4
71
3
72
12
73
8
40
0
40
0
40
0
40
0
40
0.276294320603448
40
0.276294320603448
40
0.552588637519432
40
0.552588637519432
40
1
40
1
40
1
40
1
41
1
10
49.4019412701446
20
-4.16249274312176
30
0
41
1
10
49.3641114639419
20
-4.22385832728892
30
0
41
1
10
49.3262733208859
20
-4.28522641044844
30
0
41
1
10
49.2505827042567
20
-4.4079672536227
30
0
41
1
10
49.2127302256401
20
-4.46934001598217
30
0
41
1
10
49.1135659311127
20
-4.63010092228205
30
0
41
1
10
49.0522441122906
20
-4.72949247834484
30
0
41
1
10
48.9909094613503
20
-4.82888803276615
30
0
0
SPLINE
5
114
100
AcDbEntity
8
1
62
256
6
ByLayer
370
18
48
1
60
0
100
AcDbSpline
70
4
71
3
72
32
73
28
40
0
40
0
40
0
40
0
40
0.124999999999947
40
0.124999999999947
40
0.18749999999996
40
0.18749999999996
40
0.249999999999972
40
0.312499999999984
40
0.312499999999984
40
0.374999999999997
40
0.374999999999997
40
0.437500000000009
40
0.437500000000009
40
0.500000000000021
40
0.500000000000021
40
0.624999999999937
40
0.624999999999937
40
0.687499999999947
40
0.687499999999947
40
0.749999999999958
40
0.749999999999958
40
0.812499999999968
40
0.812499999999968
40
0.874999999999979
40
0.937499999999989
40
0.937499999999989
40
1
40
1
40
1
40
1
41
1
10
49.7147305773
20
-4.16324690270793
30
0
41
1
10
49.7067535243291
20
-4.15039564214555
30
0
41
1
10
49.6971721922498
20
-4.1387835146368
30
0
41
1
10
49.6804644284334
20
-4.12316924624443
30
0
41
1
10
49.6744536640131
20
-4.11823955504923
30
0
41
1
10
49.661926175515
20
-4.10924936939756
30
0
41
1
10
49.64886747219
20
-4.10108430552165
30
0
41
1
10
49.6347660671671
20
-4.09453877924159
30
0
41
1
10
49.6201260025941
20
-4.08882987830702
30
0
41
1
10
49.6125973975331
20
-4.08642423705774
30
0
41
1
10
49.5974211856681
20
-4.08258035270373
30
0
41
1
10
49.5897307526619
20
-4.08112486400501
30
0
41
1
10
49.5741446711512
20
-4.07914934195549
30
0
41
1
10
49.5661939366358
20
-4.07863014073234
30
0
41
1
10
49.5424390029581
20
-4.07854803346078
30
0
41
1
10
49.5268849127653
20
-4.08040525789906
30
0
41
1
10
49.5039760367443
20
-4.08604871270489
30
0
41
1
10
49.4964113731823
20
-4.08842226532519
30
0
41
1
10
49.4818716170543
20
-4.09400144989525
30
0
41
1
10
49.4748376803343
20
-4.09721917419768
30
0
41
1
10
49.4612387007787
20
-4.10450549649929
30
0
41
1
10
49.4546516396779
20
-4.10858984076168
30
0
41
1
10
49.4420626341475
20
-4.11758028613278
30
0
41
1
10
49.4302429580625
20
-4.12725188664129
30
0
41
1
10
49.4199070415409
20
-4.13823726426196
30
0
41
1
10
49.4103242455037
20
-4.14988951952535
30
0
41
1
10
49.4058998029685
20
-4.1560714128648
30
0
41
1
10
49.4019412701446
20
-4.16249274312176
30
0
0
SPLINE
5
115
100
AcDbEntity
8
1
62
256
6
ByLayer
370
18
48
1
60
0
100
AcDbSpline
70
4
71
3
72
12
73
8
40
0
40
0
40
0
40
0
40
0.0436294137639521
40
0.0436294137639521
40
0.390117203576495
40
0.390117203576495
40
1
40
1
40
1
40
1
41
1
10
50.044675135515
20
-4.69522793852101
30
0
41
1
10
50.0398784791452
20
-4.68748861996986
30
0
41
1
10
50.0350817544864
20
-4.67974940050675
30
0
41
1
10
49.9921906935348
20
-4.61054922337593
30
0
41
1
10
49.9540920596716
20
-4.54909453912296
30
0
41
1
10
49.848919106846
20
-4.37948874570785
30
0
41
1
10
49.7818344702657
20
-4.27135319413989
30
0
41
1
10
49.7147305773001
20
-4.16324690270793
30
0
0
SPLINE
5
116
100
AcDbEntity
8
1
62
256
6
ByLayer
370
18
48
1
60
0
100
AcDbSpline
70
4
71
3
72
8
73
4
40
0
40
0
40
0
40
0
40
1
40
1
40
1
40
1
41
1
10
50.4039599914153
20
-4.56682171879243
30
0
41
1
10
50.2842013617691
20
-4.6096277828089
30
0
41
1
10
50.1644396459836
20
-4.65242971846266
30
0
41
1
10
50.0446751355149
20
-4.69522793852101
30
0
0
SPLINE
5
117
100
AcDbEntity
8
1
62
256
6
ByLayer
370
18
48
1
60
0
100
AcDbSpline
70
4
71
3
72
12
73
8
40
0
40
0
40
0
40
0
40
0.452209014435418
40
0.452209014435418
40
0.904418022918935
40
0.904418022918935
40
1
40
1
40
1
40
1
41
1
10
50.6515183370897
20
-4.16527232003222
30
0
41
1
10
50.6142193577668
20
-4.22579576368318
30
0
41
1
10
50.5769118179966
20
-4.28632140907646
30
0
41
1
10
50.5022819798891
20
-4.40737685412358
30
0
41
1
10
50.4649596766038
20
-4.4679066561045
30
0
41
1
10
50.4197409356519
20
-4.541232703183
30
0
41
1
10
50.4118506023662
20
-4.55402717080423
30
0
41
1
10
50.4039599914154
20
-4.5668217187924
30
0
0
SPLINE
5
118
100
AcDbEntity
8
1
62
256
6
ByLayer
370
18
48
1
60
0
100
AcDbSpline
70
4
71
3
72
32
73
28
40
0
40
0
40
0
40
0
40
0.124999999999881
40
0.124999999999881
40
0.187499999999858
40
0.187499999999858
40
0.249999999999835
40
0.312499999999813
40
0.312499999999813
40
0.37499999999979
40
0.37499999999979
40
0.437499999999767
40
0.437499999999767
40
0.499999999999744
40
0.499999999999744
40
0.624999999999808
40
0.624999999999808
40
0.68749999999984
40
0.68749999999984
40
0.749999999999872
40
0.749999999999872
40
0.812499999999904
40
0.812499999999904
40
0.874999999999936
40
0.937499999999968
40
0.937499999999968
40
1
40
1
40
1
40
1
41
1
10
50.9643143678028
20
-4.16598937561278
30
0
41
1
10
50.9563359979031
20
-4.15313871073855
30
0
41
1
10
50.9467534673789
20
-4.14152715073121
30
0
41
1
10
50.9300438845666
20
-4.12591384189557
30
0
41
1
10
50.9240325038077
20
-4.1209844895464
30
0
41
1
10
50.9115037951796
20
-4.11199504192979
30
0
41
1
10
50.8984438782511
20
-4.10383077513168
30
0
41
1
10
50.8843412357888
20
-4.09728621863474
30
0
41
1
10
50.8696999008143
20
-4.09157840872786
30
0
41
1
10
50.8621706597132
20
-4.08917337534987
30
0
41
1
10
50.8469932541723
20
-4.08533084367713
30
0
41
1
10
50.8393022508724
20
-4.08387609916403
30
0
41
1
10
50.8237150782812
20
-4.08190221853081
30
0
41
1
10
50.8157637901661
20
-4.08138392340879
30
0
41
1
10
50.7920076285394
20
-4.08130474376838
30
0
41
1
10
50.7764529903885
20
-4.08316414766188
30
0
41
1
10
50.7535436967532
20
-4.08881121071107
30
0
41
1
10
50.7459791505196
20
-4.09118597117322
30
0
41
1
10
50.7314397783704
20
-4.09676754098578
30
0
41
1
10
50.7244061028415
20
-4.0999864612794
30
0
41
1
10
50.7108077804399
20
-4.10727517732627
30
0
41
1
10
50.7042209316956
20
-4.11136086044405
30
0
41
1
10
50.6916333623814
20
-4.12035331489986
30
0
41
1
10
50.6798151495775
20
-4.13002683121024
30
0
41
1
10
50.6694807587563
20
-4.14101395389901
30
0
41
1
10
50.6598995231155
20
-4.15266787029918
30
0
41
1
10
50.6554759580079
20
-4.15885045940817
30
0
41
1
10
50.6515183370897
20
-4.16527232003222
30
0
0
SPLINE
5
119
100
AcDbEntity
8
1
62
256
6
ByLayer
370
18
48
1
60
0
100
AcDbSpline
70
4
71
3
72
8
73
4
40
0
40
0
40
0
40
0
40
1
40
1
40
1
40
1
41
1
10
51.0661572162742
20
-4.33007123602033
30
0
41
1
10
51.0322141934454
20
-4.27537032303596
30
0
41
1
10
50.9982667627821
20
-4.22067609170117
30
0
41
1
10
50.9643143678028
20
-4.16598937561278
30
0
0
SPLINE
5
11A
100
AcDbEntity
8
1
62
256
6
ByLayer
370
18
48
1
60
0
100
AcDbSpline
70
4
71
3
72
8
73
4
40
0
40
0
40
0
40
0
40
1
40
1
40
1
40
1
41
1
10
51.9999999999999
20
-3.99596804282544
30
0
41
1
10
51.6887494108707
20
-4.10737955569496
30
0
41
1
10
51.3774657940579
20
-4.21874249658808
30
0
41
1
10
51.0661572162743
20
-4.3300712360203
30
0
0
SPLINE
5
11B
100
AcDbEntity
8
1
62
256
6
ByLayer
370
18
48
1
60
0
100
AcDbSpline
70
4
71
3
72
24
73
20
40
0
40
0
40
0
40
0
40
0.0802485818615271
40
0.0802485818615271
40
0.172223723675375
40
0.172223723675375
40
0.218211294582298
40
0.218211294582298
40
0.264198865489222
40
0.264198865489222
40
0.448149149116917
40
0.448149149116917
40
0.632099432744612
40
0.632099432744612
40
0.678087003651536
40
0.678087003651536
40
0.724074574558459
40
0.816049716372306
40
1
40
1
40
1
40
1
41
1
10
51.9999999999999
20
-2.17992004282479
30
0
41
1
10
51.9999999999999
20
-2.21712520114579
30
0
41
1
10
52
20
-2.25556114949995
30
0
41
1
10
52
20
-2.34070936942606
30
0
41
1
10
52
20
-2.3878089354011
30
0
41
1
10
52
20
-2.46091340047542
30
0
41
1
10
52
20
-2.48569120936767
30
0
41
1
10
52
20
-2.53607489605506
30
0
41
1
10
52
20
-2.56172767600424
30
0
41
1
10
52
20
-2.69126405388144
30
0
41
1
10
52
20
-2.79922795712736
30
0
41
1
10
52
20
-3.02361732595765
30
0
41
1
10
52
20
-3.14003622406668
30
0
41
1
10
52
20
-3.29088168615223
30
0
41
1
10
52
20
-3.32133583969952
30
0
41
1
10
52
20
-3.38263255516
30
0
41
1
10
52
20
-3.47459053329416
30
0
41
1
10
52.0000000000001
20
-3.6892089775761
30
0
41
1
10
52
20
-3.8732469393847
30
0
41
1
10
52
20
-3.99596804282544
30
0
0
SPLINE
5
11C
100
AcDbEntity
8
1
62
256
6
ByLayer
370
18
48
1
60
0
100
AcDbSpline
70
4
71
3
72
8
73
4
40
0
40
0
40
0
40
0
40
1
40
1
40
1
40
1
41
1
10
51.8648987991825
20
-2.15325084894161
30
0
41
1
10
51.9099322807202
20
-2.14217535679441
30
0
41
1
10
51.9549648880247
20
-2.13109920096665
30
0
41
1
10
51.9999999999997
20
-2.12007513853467
30
0
0
SPLINE
5
11D
100
AcDbEntity
8
1
62
256
6
ByLayer
370
18
48
1
60
0
100
AcDbSpline
70
4
71
3
72
28
73
24
40
0
40
0
40
0
40
0
40
0.12499999999991
40
0.12499999999991
40
0.187499999999864
40
0.187499999999864
40
0.249999999999818
40
0.249999999999818
40
0.374999999999723
40
0.374999999999723
40
0.437499999999676
40
0.437499999999676
40
0.49999999999963
40
0.49999999999963
40
0.624999999999685
40
0.624999999999685
40
0.74999999999974
40
0.74999999999974
40
0.874999999999795
40
0.874999999999795
40
0.937499999999898
40
0.937499999999898
40
1
40
1
40
1
40
1
41
1
10
51.6336460867235
20
-2.20055550039129
30
0
41
1
10
51.6391660620725
20
-2.19436729184912
30
0
41
1
10
51.6455005755643
20
-2.18859770856869
30
0
41
1
10
51.65618240648
20
-2.18054915167838
30
0
41
1
10
51.6599409708477
20
-2.17796792184402
30
0
41
1
10
51.6678623455795
20
-2.17301283099093
30
0
41
1
10
51.6720489361282
20
-2.17062751745019
30
0
41
1
10
51.6850173573178
20
-2.16390929425225
30
0
41
1
10
51.6942113252077
20
-2.15999424808521
30
0
41
1
10
51.708809072221
20
-2.15495003327814
30
0
41
1
10
51.7138103035311
20
-2.15340756089978
30
0
41
1
10
51.7240913220059
20
-2.15060843474191
30
0
41
1
10
51.7293611805396
20
-2.14935679611833
30
0
41
1
10
51.7452557651656
20
-2.14610938311026
30
0
41
1
10
51.7560710452451
20
-2.1445863093538
30
0
41
1
10
51.7781372281863
20
-2.14281671630752
30
0
41
1
10
51.7894552347842
20
-2.1425854067067
30
0
41
1
10
51.8116193411019
20
-2.14344025544034
30
0
41
1
10
51.8225731380592
20
-2.14451016850091
30
0
41
1
10
51.8388093285114
20
-2.14708985457952
30
0
41
1
10
51.8442072171164
20
-2.14811883895536
30
0
41
1
10
51.8547246607956
20
-2.15046585056211
30
0
41
1
10
51.8598680485537
20
-2.15178647168497
30
0
41
1
10
51.8648987991825
20
-2.15325084894155
30
0
0
SPLINE
5
11E
100
AcDbEntity
8
1
62
256
6
ByLayer
370
18
48
1
60
0
100
AcDbSpline
70
4
71
3
72
32
73
28
40
0
40
0
40
0
40
0
40
0.125000000000039
40
0.125000000000039
40
0.187500000000059
40
0.187500000000059
40
0.250000000000078
40
0.312500000000098
40
0.312500000000098
40
0.375000000000118
40
0.375000000000118
40
0.437500000000137
40
0.437500000000137
40
0.500000000000157
40
0.500000000000157
40
0.625000000000196
40
0.625000000000196
40
0.687500000000163
40
0.687500000000163
40
0.750000000000131
40
0.750000000000131
40
0.812500000000098
40
0.812500000000098
40
0.875000000000065
40
0.937500000000033
40
0.937500000000033
40
1
40
1
40
1
40
1
41
1
10
50.3836926624656
20
-2.20149824914404
30
0
41
1
10
50.3915327200736
20
-2.1927093030564
30
0
41
1
10
50.4010017544238
20
-2.18475745542469
30
0
41
1
10
50.417602636367
20
-2.1740596071711
30
0
41
1
10
50.4235870065039
20
-2.17068211910356
30
0
41
1
10
50.4360698259346
20
-2.16452995084333
30
0
41
1
10
50.4491033408293
20
-2.15894386651146
30
0
41
1
10
50.4632220791062
20
-2.15447230827695
30
0
41
1
10
50.4779037479006
20
-2.15057837624857
30
0
41
1
10
50.4854334844075
20
-2.14894831390626
30
0
41
1
10
50.5006454217156
20
-2.14634888717544
30
0
41
1
10
50.5083609920589
20
-2.14537055711173
30
0
41
1
10
50.5240124117541
20
-2.14405954867823
30
0
41
1
10
50.5320091847075
20
-2.14372851228202
30
0
41
1
10
50.5557960701812
20
-2.14374948132655
30
0
41
1
10
50.5713927674741
20
-2.14507171114565
30
0
41
1
10
50.5943960833897
20
-2.14901798615821
30
0
41
1
10
50.6019389048498
20
-2.15065948354075
30
0
41
1
10
50.6164722856733
20
-2.15450901425532
30
0
41
1
10
50.6235108346172
20
-2.15672485074384
30
0
41
1
10
50.6371332743205
20
-2.16173707971794
30
0
41
1
10
50.6437602587982
20
-2.16455558099221
30
0
41
1
10
50.6563105849364
20
-2.17068644148716
30
0
41
1
10
50.6681204360603
20
-2.17727939687345
30
0
41
1
10
50.6784949440809
20
-2.18476902576865
30
0
41
1
10
50.6881375433479
20
-2.19271628455161
30
0
41
1
10
50.6925869780841
20
-2.19692019268558
30
0
41
1
10
50.69657895748
20
-2.20128269742591
30
0
0
SPLINE
5
11F
100
AcDbEntity
8
1
62
256
6
ByLayer
370
18
48
1
60
0
100
AcDbSpline
70
4
71
3
72
32
73
28
40
0
40
0
40
0
40
0
40
0.125000000000039
40
0.125000000000039
40
0.187500000000059
40
0.187500000000059
40
0.250000000000079
40
0.312500000000098
40
0.312500000000098
40
0.375000000000118
40
0.375000000000118
40
0.437500000000138
40
0.437500000000138
40
0.500000000000157
40
0.500000000000157
40
0.625000000000197
40
0.625000000000197
40
0.687500000000164
40
0.687500000000164
40
0.750000000000131
40
0.750000000000131
40
0.812500000000098
40
0.812500000000098
40
0.875000000000066
40
0.937500000000033
40
0.937500000000033
40
1
40
1
40
1
40
1
41
1
10
49.133743591286
20
-2.20240106343394
30
0
41
1
10
49.1415841339456
20
-2.19361249877386
30
0
41
1
10
49.1510537451572
20
-2.1856609774641
30
0
41
1
10
49.1676556177841
20
-2.17496364882024
30
0
41
1
10
49.1736403281516
20
-2.17158635258636
30
0
41
1
10
49.1861237213352
20
-2.16543464788254
30
0
41
1
10
49.1991578526606
20
-2.15984911086599
30
0
41
1
10
49.2132770825165
20
-2.15537810017483
30
0
41
1
10
49.2279592861479
20
-2.15148484851028
30
0
41
1
10
49.2354890083892
20
-2.14985522271357
30
0
41
1
10
49.2507010852142
20
-2.147256663658
30
0
41
1
10
49.2584167073658
20
-2.14627879554547
30
0
41
1
10
49.2740681954529
20
-2.14496878214865
30
0
41
1
10
49.2820649758555
20
-2.14463829017748
30
0
41
1
10
49.305851149977
20
-2.14466093446805
30
0
41
1
10
49.3214473670736
20
-2.1459843169217
30
0
41
1
10
49.3444499450668
20
-2.14993237277352
30
0
41
1
10
49.3519921807613
20
-2.15157439432687
30
0
41
1
10
49.3665246887601
20
-2.15542495164192
30
0
41
1
10
49.3735628353568
20
-2.15764127912675
30
0
41
1
10
49.3871845279808
20
-2.16265443712228
30
0
41
1
10
49.3938111937158
20
-2.16547339822881
30
0
41
1
10
49.4063605824737
20
-2.17160489787037
30
0
41
1
10
49.4181696659612
20
-2.17819838101869
30
0
41
1
10
49.4285435429782
20
-2.18568839249539
30
0
41
1
10
49.438185628564
20
-2.19363591032402
30
0
41
1
10
49.4426348031147
20
-2.19783985602106
30
0
41
1
10
49.4466265653006
20
-2.20220233741694
30
0
0
SPLINE
5
120
100
AcDbEntity
8
1
62
256
6
ByLayer
370
18
48
1
60
0
100
AcDbSpline
70
4
71
3
72
32
73
28
40
0
40
0
40
0
40
0
40
0.125000000000016
40
0.125000000000016
40
0.187500000000024
40
0.187500000000024
40
0.250000000000031
40
0.312500000000039
40
0.312500000000039
40
0.375000000000047
40
0.375000000000047
40
0.437500000000054
40
0.437500000000054
40
0.500000000000062
40
0.500000000000062
40
0.624999999999967
40
0.624999999999967
40
0.687499999999972
40
0.687499999999972
40
0.749999999999978
40
0.749999999999978
40
0.812499999999983
40
0.812499999999983
40
0.874999999999989
40
0.937499999999994
40
0.937499999999994
40
1
40
1
40
1
40
1
41
1
10
45.3838839950608
20
-2.20514621197279
30
0
41
1
10
45.3917255335778
20
-2.19635865317014
30
0
41
1
10
45.4011961219419
20
-2.18840770161518
30
0
41
1
10
45.4177991859622
20
-2.17771079829637
30
0
41
1
10
45.4237842503063
20
-2.17433357112071
30
0
41
1
10
45.4362682573457
20
-2.16818188477666
30
0
41
1
10
45.4493028915251
20
-2.16259626198811
30
0
41
1
10
45.4634223746017
20
-2.15812506383671
30
0
41
1
10
45.4781046848164
20
-2.15423161916579
30
0
41
1
10
45.4856344549426
20
-2.15260187919171
30
0
41
1
10
45.5008465102516
20
-2.15000313368961
30
0
41
1
10
45.5085620776413
20
-2.14902518873774
30
0
41
1
10
45.5242133638767
20
-2.14771507692916
30
0
41
1
10
45.5322099877166
20
-2.14738456028587
30
0
41
1
10
45.5559959693522
20
-2.1474072308225
30
0
41
1
10
45.5715919883211
20
-2.14873078878961
30
0
41
1
10
45.5945941769153
20
-2.15267915277028
30
0
41
1
10
45.6021365753664
20
-2.15432134463956
30
0
41
1
10
45.6166692214221
20
-2.15817220397574
30
0
41
1
10
45.6237074310021
20
-2.16038867521502
30
0
41
1
10
45.6373292417852
20
-2.1654020397107
30
0
41
1
10
45.6439559109127
20
-2.16822102897021
30
0
41
1
10
45.6565059140141
20
-2.17435276363068
30
0
41
1
10
45.6683154998326
20
-2.18094638210513
30
0
41
1
10
45.6786898091185
20
-2.18843611555326
30
0
41
1
10
45.6883322154217
20
-2.19638312887193
30
0
41
1
10
45.6927816649259
20
-2.20058683407686
30
0
41
1
10
45.6967736220879
20
-2.20494895436772
30
0
0
SPLINE
5
121
100
AcDbEntity
8
1
62
256
6
ByLayer
370
18
48
1
60
0
100
AcDbSpline
70
4
71
3
72
32
73
28
40
0
40
0
40
0
40
0
40
0.125000000000039
40
0.125000000000039
40
0.187500000000059
40
0.187500000000059
40
0.250000000000078
40
0.312500000000097
40
0.312500000000097
40
0.375000000000117
40
0.375000000000117
40
0.437500000000136
40
0.437500000000136
40
0.500000000000156
40
0.500000000000156
40
0.625000000000195
40
0.625000000000195
40
0.687500000000162
40
0.687500000000162
40
0.75000000000013
40
0.75000000000013
40
0.812500000000097
40
0.812500000000097
40
0.875000000000065
40
0.937500000000032
40
0.937500000000032
40
1
40
1
40
1
40
1
41
1
10
42.8839834628572
20
-2.2069880528027
30
0
41
1
10
42.8918255723642
20
-2.19820165446708
30
0
41
1
10
42.9012966222635
20
-2.19025149888165
30
0
41
1
10
42.9179000630692
20
-2.17955539216467
30
0
41
1
10
42.923885207301
20
-2.17617835829987
30
0
41
1
10
42.9363693334492
20
-2.17002690739233
30
0
41
1
10
42.949403990883
20
-2.16444140421368
30
0
41
1
10
42.9635232908362
20
-2.15997016418305
30
0
41
1
10
42.9782053005978
20
-2.15607662363166
30
0
41
1
10
42.9857350339566
20
-2.15444677099555
30
0
41
1
10
43.0009468338837
20
-2.15184781745538
30
0
41
1
10
43.0086622397609
20
-2.15086976047951
30
0
41
1
10
43.0243131324618
20
-2.14955942189843
30
0
41
1
10
43.0323095219039
20
-2.14922878450602
30
0
41
1
10
43.0560952643986
20
-2.1492511230496
30
0
41
1
10
43.0716910293744
20
-2.15057452660255
30
0
41
1
10
43.0946927078545
20
-2.15452261574114
30
0
41
1
10
43.1022352504645
20
-2.15616477795035
30
0
41
1
10
43.1167679256787
20
-2.16001553174164
30
0
41
1
10
43.1238061226122
20
-2.16223194006372
30
0
41
1
10
43.1374278623904
20
-2.16724510959708
30
0
41
1
10
43.1440544282094
20
-2.17006393614309
30
0
41
1
10
43.1566047135777
20
-2.17619551440654
30
0
41
1
10
43.1684144774088
20
-2.18278888549457
30
0
41
1
10
43.1787887920862
20
-2.19027809386375
30
0
41
1
10
43.1884311254328
20
-2.1982243953108
30
0
41
1
10
43.1928806089448
20
-2.20242774868944
30
0
41
1
10
43.196872541558
20
-2.20678942850989
30
0
0
SPLINE
5
122
100
AcDbEntity
8
1
62
256
6
ByLayer
370
18
48
1
60
0
100
AcDbSpline
70
4
71
3
72
32
73
28
40
0
40
0
40
0
40
0
40
0.124999999999932
40
0.124999999999932
40
0.187499999999937
40
0.187499999999937
40
0.249999999999942
40
0.312499999999947
40
0.312499999999947
40
0.374999999999952
40
0.374999999999952
40
0.437499999999957
40
0.437499999999957
40
0.499999999999962
40
0.499999999999962
40
0.624999999999972
40
0.624999999999972
40
0.687499999999977
40
0.687499999999977
40
0.749999999999981
40
0.749999999999981
40
0.812499999999986
40
0.812499999999986
40
0.874999999999991
40
0.937499999999995
40
0.937499999999995
40
1
40
1
40
1
40
1
41
1
10
41.6340294574573
20
-2.20791787097878
30
0
41
1
10
41.6418720278103
20
-2.19913196264236
30
0
41
1
10
41.6513436428894
20
-2.1911821835412
30
0
41
1
10
41.6679481452563
20
-2.18048661225316
30
0
41
1
10
41.6739336699278
20
-2.17710976393695
30
0
41
1
10
41.6864184978206
20
-2.17095874231754
30
0
41
1
10
41.6994538866425
20
-2.16537368198132
30
0
41
1
10
41.7135739871269
20
-2.16090296338945
30
0
41
1
10
41.7282568406906
20
-2.15701001204067
30
0
41
1
10
41.7357867587578
20
-2.15538054088412
30
0
41
1
10
41.7509991029975
20
-2.15278234825402
30
0
41
1
10
41.758714778128
20
-2.15180469820351
30
0
41
1
10
41.7743662051311
20
-2.15049524150066
30
0
41
1
10
41.7823628560576
20
-2.15016508980793
30
0
41
1
10
41.8061486726527
20
-2.15018893013075
30
0
41
1
10
41.8217444837328
20
-2.15151337242224
30
0
41
1
10
41.8447462188614
20
-2.15546307617538
30
0
41
1
10
41.8522884068877
20
-2.15710570196512
30
0
41
1
10
41.8668206682781
20
-2.16095736437111
30
0
41
1
10
41.8738586845732
20
-2.16317420502699
30
0
41
1
10
41.8874801060188
20
-2.16818818915766
30
0
41
1
10
41.8941065710991
20
-2.17100742559421
30
0
41
1
10
41.906656227173
20
-2.17713949351284
30
0
41
1
10
41.9184655190831
20
-2.18373324472475
30
0
41
1
10
41.9288394742084
20
-2.1912226987815
30
0
41
1
10
41.9384815522151
20
-2.19916912982214
30
0
41
1
10
41.9429308689257
20
-2.20337243391262
30
0
41
1
10
41.9469226736462
20
-2.20773400348008
30
0
0
SPLINE
5
123
100
AcDbEntity
8
1
62
256
6
ByLayer
370
18
48
1
60
0
100
AcDbSpline
70
4
71
3
72
32
73
28
40
0
40
0
40
0
40
0
40
0.125000000000053
40
0.125000000000053
40
0.187500000000081
40
0.187500000000081
40
0.250000000000108
40
0.312500000000136
40
0.312500000000136
40
0.375000000000163
40
0.375000000000163
40
0.43750000000019
40
0.43750000000019
40
0.500000000000218
40
0.500000000000218
40
0.625000000000163
40
0.625000000000163
40
0.687500000000136
40
0.687500000000136
40
0.750000000000109
40
0.750000000000109
40
0.812500000000082
40
0.812500000000082
40
0.875000000000055
40
0.937500000000027
40
0.937500000000027
40
1
40
1
40
1
40
1
41
1
10
40.3840830365432
20
-2.20880644567384
30
0
41
1
10
40.3919258408569
20
-2.20002159695716
30
0
41
1
10
40.4013975192842
20
-2.19207265001361
30
0
41
1
10
40.4180016521623
20
-2.1813779884786
30
0
41
1
10
40.423986987737
20
-2.17800137494382
30
0
41
1
10
40.4364714248994
20
-2.17185062825879
30
0
41
1
10
40.4495063014645
20
-2.16626571172938
30
0
41
1
10
40.4636256198179
20
-2.16179488728449
30
0
41
1
10
40.4783075329767
20
-2.15790170069246
30
0
41
1
10
40.4858372323944
20
-2.15627197523679
30
0
41
1
10
40.50104885325
20
-2.15367324046889
30
0
41
1
10
40.508764133494
20
-2.15269527026518
30
0
41
1
10
40.5244147001738
20
-2.15138507295669
30
0
41
1
10
40.5324108835063
20
-2.15105448750319
30
0
41
1
10
40.5561962308032
20
-2.15107694246765
30
0
41
1
10
40.5717916538957
20
-2.15240039245538
30
0
41
1
10
40.5947927091327
20
-2.15634839326467
30
0
41
1
10
40.6023352517284
20
-2.15799054447288
30
0
41
1
10
40.6168677660565
20
-2.1618411972656
30
0
41
1
10
40.6239058676335
20
-2.16405752409122
30
0
41
1
10
40.6375273908355
20
-2.16907042786176
30
0
41
1
10
40.6441537991067
20
-2.17188904502416
30
0
41
1
10
40.6567041631254
20
-2.17802028614219
30
0
41
1
10
40.668513973601
20
-2.18461317912812
30
0
41
1
10
40.6788881451827
20
-2.19210163448909
30
0
41
1
10
40.6885303140645
20
-2.20004695865097
30
0
41
1
10
40.6929797814761
20
-2.20424980618046
30
0
41
1
10
40.696971650788
20
-2.2086108857275
30
0
0
SPLINE
5
124
100
AcDbEntity
8
1
62
256
6
ByLayer
370
18
48
1
60
0
100
AcDbSpline
70
4
71
3
72
32
73
28
40
0
40
0
40
0
40
0
40
0.124999999999998
40
0.124999999999998
40
0.187499999999998
40
0.187499999999998
40
0.249999999999998
40
0.312499999999998
40
0.312499999999998
40
0.374999999999998
40
0.374999999999998
40
0.437499999999998
40
0.437499999999998
40
0.499999999999998
40
0.499999999999998
40
0.624999999999998
40
0.624999999999998
40
0.687499999999999
40
0.687499999999999
40
0.749999999999999
40
0.749999999999999
40
0.812499999999999
40
0.812499999999999
40
0.874999999999999
40
0.9375
40
0.9375
40
1
40
1
40
1
40
1
41
1
10
39.134128699516
20
-2.20980101010267
30
0
41
1
10
39.1419716788881
20
-2.20101713134804
30
0
41
1
10
39.1514432951871
20
-2.19306887533196
30
0
41
1
10
39.1680466397595
20
-2.18237476881166
30
0
41
1
10
39.1740316203191
20
-2.17899823455045
30
0
41
1
10
39.186515394742
20
-2.17284733788659
30
0
41
1
10
39.1995494446818
20
-2.16726208073865
30
0
41
1
10
39.2136675617669
20
-2.16279052675904
30
0
41
1
10
39.2283480463231
20
-2.15889639377534
30
0
41
1
10
39.2358775501759
20
-2.15726595195233
30
0
41
1
10
39.2510882797847
20
-2.15466575232097
30
0
41
1
10
39.2588030777411
20
-2.15368696994636
30
0
41
1
10
39.2744525978297
20
-2.15237497303445
30
0
41
1
10
39.2824482128191
20
-2.15204337375155
30
0
41
1
10
39.3062336740474
20
-2.15206265142427
30
0
41
1
10
39.3218291041657
20
-2.15338388040235
30
0
41
1
10
39.3448300982665
20
-2.15732819912148
30
0
41
1
10
39.352373711863
20
-2.15896930479883
30
0
41
1
10
39.3669075520454
20
-2.16281779583528
30
0
41
1
10
39.3739462526682
20
-2.16503304357775
30
0
41
1
10
39.3875688705992
20
-2.17004374455007
30
0
41
1
10
39.3941956368051
20
-2.17286113759894
30
0
41
1
10
39.4067482629365
20
-2.17899077794729
30
0
41
1
10
39.4185599856502
20
-2.18558208837749
30
0
41
1
10
39.4289355026687
20
-2.19306888822729
30
0
41
1
10
39.4385787744101
20
-2.20101247195964
30
0
41
1
10
39.4430289856974
20
-2.20521468947578
30
0
41
1
10
39.4470214202545
20
-2.20957514146258
30
0
0
SPLINE
5
125
100
AcDbEntity
8
1
62
256
6
ByLayer
370
18
48
1
60
0
100
AcDbSpline
70
4
71
3
72
32
73
28
40
0
40
0
40
0
40
0
40
0.125000000000105
40
0.125000000000105
40
0.18750000000012
40
0.18750000000012
40
0.250000000000135
40
0.31250000000015
40
0.31250000000015
40
0.375000000000165
40
0.375000000000165
40
0.43750000000018
40
0.43750000000018
40
0.500000000000196
40
0.500000000000196
40
0.625000000000226
40
0.625000000000226
40
0.687500000000188
40
0.687500000000188
40
0.75000000000015
40
0.75000000000015
40
0.812500000000113
40
0.812500000000113
40
0.875000000000075
40
0.937500000000038
40
0.937500000000038
40
1
40
1
40
1
40
1
41
1
10
46.6338387459547
20
-2.20428166709024
30
0
41
1
10
46.6416797400985
20
-2.19549346627554
30
0
41
1
10
46.6511497240967
20
-2.18754194638652
30
0
41
1
10
46.667751915995
20
-2.1768442517309
30
0
41
1
10
46.6737367016702
20
-2.1734667627077
30
0
41
1
10
46.6862202438105
20
-2.1673145557464
30
0
41
1
10
46.6992544594884
20
-2.1617284353446
30
0
41
1
10
46.7133736360132
20
-2.15725676240751
30
0
41
1
10
46.7280557083914
20
-2.15336284486139
30
0
41
1
10
46.7355855165977
20
-2.15173284662285
30
0
41
1
10
46.7507975880534
20
-2.14913363908104
30
0
41
1
10
46.7585131860761
20
-2.14815547421634
30
0
41
1
10
46.774164580603
20
-2.14684493897872
30
0
41
1
10
46.7821612929458
20
-2.14651421541058
30
0
41
1
10
46.8059477588132
20
-2.14653632027216
30
0
41
1
10
46.8215440875347
20
-2.14785957197231
30
0
41
1
10
46.8445467242062
20
-2.15180760892386
30
0
41
1
10
46.8520892777466
20
-2.15344971928471
30
0
41
1
10
46.8666221678701
20
-2.15730046783062
30
0
41
1
10
46.8736604776819
20
-2.15951691065305
30
0
41
1
10
46.8872824514195
20
-2.16453028417848
30
0
41
1
10
46.893909196658
20
-2.1673493201049
30
0
41
1
10
46.9064591688244
20
-2.17348114756379
30
0
41
1
10
46.9182687361013
20
-2.18007490490621
30
0
41
1
10
46.9286429321908
20
-2.1875649804573
30
0
41
1
10
46.9382852618041
20
-2.19551240796363
30
0
41
1
10
46.9427346156803
20
-2.19971631577025
30
0
41
1
10
46.9467264997106
20
-2.20407867891217
30
0
0
SPLINE
5
126
100
AcDbEntity
8
1
62
256
6
ByLayer
370
18
48
1
60
0
100
AcDbSpline
70
4
71
3
72
32
73
28
40
0
40
0
40
0
40
0
40
0.124999999999914
40
0.124999999999914
40
0.187499999999912
40
0.187499999999912
40
0.249999999999909
40
0.312499999999907
40
0.312499999999907
40
0.374999999999904
40
0.374999999999904
40
0.437499999999902
40
0.437499999999902
40
0.499999999999899
40
0.499999999999899
40
0.625000000000003
40
0.625000000000003
40
0.687500000000003
40
0.687500000000003
40
0.750000000000002
40
0.750000000000002
40
0.812500000000002
40
0.812500000000002
40
0.875000000000001
40
0.937500000000001
40
0.937500000000001
40
1
40
1
40
1
40
1
41
1
10
47.8837877887757
20
-2.20334859902533
30
0
41
1
10
47.8916286888373
20
-2.19456004913317
30
0
41
1
10
47.9010987336765
20
-2.18660842260351
30
0
41
1
10
47.9177013721569
20
-2.17591087639647
30
0
41
1
10
47.9236863531024
20
-2.17253350279316
30
0
41
1
10
47.9361702568054
20
-2.16638167708263
30
0
41
1
10
47.9492048604654
20
-2.16079597631151
30
0
41
1
10
47.9633246987071
20
-2.15632497915939
30
0
41
1
10
47.9780074776135
20
-2.15243174979818
30
0
41
1
10
47.9855373676279
20
-2.15080219435163
30
0
41
1
10
48.0007498656033
20
-2.14820381775146
30
0
41
1
10
48.0084656958251
20
-2.14722607499507
30
0
41
1
10
48.0241175953934
20
-2.14591639369886
30
0
41
1
10
48.0321145768079
20
-2.14558611378888
30
0
41
1
10
48.0559010130577
20
-2.14560949253615
30
0
41
1
10
48.071497401975
20
-2.1469334849406
30
0
41
1
10
48.0945002324595
20
-2.15088259594205
30
0
41
1
10
48.102042383336
20
-2.1525249533708
30
0
41
1
10
48.1165748648675
20
-2.15637619487433
30
0
41
1
10
48.123613013403
20
-2.15859286524468
30
0
41
1
10
48.1372347361949
20
-2.16360669456506
30
0
41
1
10
48.1438614442939
20
-2.16642599573672
30
0
41
1
10
48.1564107564739
20
-2.17255803017744
30
0
41
1
10
48.1682197880979
20
-2.17915202152301
30
0
41
1
10
48.1785937720464
20
-2.18664237842538
30
0
41
1
10
48.1882359578158
20
-2.19459019080563
30
0
41
1
10
48.1926851754004
20
-2.19879422760846
30
0
41
1
10
48.1966769895626
20
-2.20315675418172
30
0
0
SPLINE
5
127
100
AcDbEntity
8
1
62
256
6
ByLayer
370
18
48
1
60
0
100
AcDbSpline
70
4
71
3
72
32
73
28
40
0
40
0
40
0
40
0
40
0.125000000000028
40
0.125000000000028
40
0.18750000000008
40
0.18750000000008
40
0.250000000000131
40
0.312500000000183
40
0.312500000000183
40
0.375000000000234
40
0.375000000000234
40
0.437500000000286
40
0.437500000000286
40
0.500000000000337
40
0.500000000000337
40
0.625000000000331
40
0.625000000000331
40
0.687500000000276
40
0.687500000000276
40
0.750000000000221
40
0.750000000000221
40
0.812500000000165
40
0.812500000000165
40
0.87500000000011
40
0.937500000000055
40
0.937500000000055
40
1
40
1
40
1
40
1
41
1
10
44.1339366353517
20
-2.20608269833124
30
0
41
1
10
44.1417786143678
20
-2.19729558284158
30
0
41
1
10
44.1512497287736
20
-2.18934496503348
30
0
41
1
10
44.1678538103816
20
-2.17864856334108
30
0
41
1
10
44.1738392407252
20
-2.17527151755436
30
0
41
1
10
44.1863239061168
20
-2.16912027910502
30
0
41
1
10
44.1993592308648
20
-2.16353513510029
30
0
41
1
10
44.2134794870367
20
-2.15906453899842
30
0
41
1
10
44.2281626258139
20
-2.15517179375613
30
0
41
1
10
44.2356925267171
20
-2.15354251655981
30
0
41
1
10
44.2509050495199
20
-2.15094471382449
30
0
41
1
10
44.2586208461777
20
-2.14996728142756
30
0
41
1
10
44.2742725848566
20
-2.14865829668872
30
0
41
1
10
44.2822694285349
20
-2.14832840825724
30
0
41
1
10
44.3060551774892
20
-2.14835304765956
30
0
41
1
10
44.3216510188076
20
-2.14967800053924
30
0
41
1
10
44.344652897203
20
-2.15362859037305
30
0
41
1
10
44.3521946965767
20
-2.15527143618013
30
0
41
1
10
44.3667265186192
20
-2.15912359657145
30
0
41
1
10
44.3737643442034
20
-2.1613406985974
30
0
41
1
10
44.3873854323786
20
-2.16635527936873
30
0
41
1
10
44.3940118134427
20
-2.16917489335862
30
0
41
1
10
44.4065606305204
20
-2.17530743965278
30
0
41
1
10
44.4183691927659
20
-2.18190177092794
30
0
41
1
10
44.4287427326135
20
-2.18939202128146
30
0
41
1
10
44.4383844712428
20
-2.19733944908015
30
0
41
1
10
44.4428335235987
20
-2.20154320637147
30
0
41
1
10
44.4468251518472
20
-2.20590530684592
30
0
0
SPLINE
5
128
100
AcDbEntity
8
1
62
256
6
ByLayer
370
18
48
1
60
0
100
AcDbSpline
70
4
71
3
72
8
73
4
40
0
40
0
40
0
40
0
40
1
40
1
40
1
40
1
41
1
10
51.6226374980179
20
-2.21289841428191
30
0
41
1
10
51.6263072015483
20
-2.20878339357992
30
0
41
1
10
51.6299767283518
20
-2.20466906130116
30
0
41
1
10
51.6336460867234
20
-2.20055550039129
30
0
0
SPLINE
5
129
100
AcDbEntity
8
1
62
256
6
ByLayer
370
13
48
1
60
0
100
AcDbSpline
70
4
71
3
72
13
73
9
40
0
40
0
40
0
40
0
40
0.0560247882693083
40
0.265720872196724
40
0.475416956124139
40
0.685113040051555
40
0.89480912397897
40
1
40
1
40
1
40
1
41
1
10
51.6336460867234
20
-2.20055550039129
30
0
41
1
10
51.6308622658811
20
-2.14779579899633
30
0
41
1
10
51.6176588215098
20
-1.89449835611299
30
0
41
1
10
51.5940355399495
20
-1.41721576617215
30
0
41
1
10
51.562776476472
20
-0.750603839881705
30
0
41
1
10
51.531517529704
20
-0.0657690140879481
30
0
41
1
10
51.5054513290461
20
0.506928176008671
30
0
41
1
10
51.4898048452797
20
0.844922566650496
30
0
41
1
10
51.4845779960905
20
0.956838371059263
30
0
0
SPLINE
5
12A
100
AcDbEntity
8
1
62
256
6
ByLayer
370
18
48
1
60
0
100
AcDbSpline
70
4
71
3
72
17
73
13
40
0
40
0
40
0
40
0
40
0.250000000000002
40
0.250000000000002
40
0.500000000000004
40
0.500000000000004
40
0.625000000000003
40
0.625000000000003
40
0.750000000000002
40
0.875000000000001
40
0.875000000000001
40
1
40
1
40
1
40
1
41
1
10
32
20
-1.86391294300248
30
0
41
1
10
32.4881106028654
20
-1.87610322116319
30
0
41
1
10
32.9763238310901
20
-1.89398234798048
30
0
41
1
10
33.9528466284283
20
-1.94006979469253
30
0
41
1
10
34.4411574317076
20
-1.96825644383682
30
0
41
1
10
35.1736700395761
20
-2.01746214963697
30
0
41
1
10
35.4178495034281
20
-2.0350792519724
30
0
41
1
10
35.9062227691135
20
-2.07229832977171
30
0
41
1
10
36.3946097133839
20
-2.11139434459818
30
0
41
1
10
36.8830163420359
20
-2.15281454287319
30
0
41
1
10
37.3714294076626
20
-2.1948138423451
30
0
41
1
10
37.6156392022326
20
-2.21611680370347
30
0
41
1
10
37.8598539060523
20
-2.23786171704228
30
0
0
SPLINE
5
12B
100
AcDbEntity
8
1
62
256
6
ByLayer
370
18
48
1
60
0
100
AcDbSpline
70
4
71
3
72
27
73
23
40
0
40
0
40
0
40
0
40
0.125
40
0.125
40
0.25
40
0.25
40
0.375
40
0.375
40
0.4375
40
0.4375
40
0.500000000000001
40
0.500000000000001
40
0.625000000000001
40
0.625000000000001
40
0.750000000000001
40
0.750000000000001
40
0.812500000000001
40
0.843750000000001
40
0.843750000000001
40
0.875
40
0.875
40
1
40
1
40
1
40
1
41
1
10
37.8598539060523
20
-2.23786171704228
30
0
41
1
10
37.8542395361519
20
-2.12180829729684
30
0
41
1
10
37.8486529941349
20
-2.00334180180863
30
0
41
1
10
37.8375068816201
20
-1.76168561906496
30
0
41
1
10
37.8319505423712
20
-1.63849580265818
30
0
41
1
10
37.8208145195199
20
-1.38737686452828
30
0
41
1
10
37.8152286260301
20
-1.259447966256
30
0
41
1
10
37.8067754860884
20
-1.06389828677587
30
0
41
1
10
37.803942974374
20
-0.998002423858338
30
0
41
1
10
37.7983114225348
20
-0.866309152762767
30
0
41
1
10
37.7955058949397
20
-0.800362943879065
30
0
41
1
10
37.7871110150488
20
-0.602230813685225
30
0
41
1
10
37.7815434715474
20
-0.46975198245886
30
0
41
1
10
37.770390931375
20
-0.204026453107645
30
0
41
1
10
37.7648131449005
20
-0.0707795141297538
30
0
41
1
10
37.7564271139787
20
0.129672652241879
30
0
41
1
10
37.7522285747075
20
0.230044375481185
30
0
41
1
10
37.7480120572279
20
0.330637480484995
30
0
41
1
10
37.7451954961098
20
0.397749210276288
30
0
41
1
10
37.7437832335786
20
0.431359053045952
30
0
41
1
10
37.736720345333
20
0.599141642873803
30
0
41
1
10
37.7310713833211
20
0.732322718103092
30
0
41
1
10
37.725417640397
20
0.864461433775773
30
0
0
SPLINE
5
12C
100
AcDbEntity
8
1
62
256
6
ByLayer
370
18
48
1
60
0
100
AcDbSpline
70
4
71
3
72
8
73
4
40
0
40
0
40
0
40
0
40
1
40
1
40
1
40
1
41
1
10
37.8598539060523
20
-2.23786171704231
30
0
41
1
10
37.8679627167908
20
-2.22878215652994
30
0
41
1
10
37.8760704794153
20
-2.21970399501083
30
0
41
1
10
37.8841772106329
20
-2.21062760200735
30
0
0
SPLINE
5
12D
100
AcDbEntity
8
1
62
256
6
ByLayer
370
13
48
1
60
0
100
AcDbSpline
70
4
71
3
72
12
73
8
40
0
40
0
40
0
40
0
40
0.117494970852579
40
0.398006855061525
40
0.678518739270472
40
0.959030623479419
40
1
40
1
40
1
40
1
41
1
10
37.7390564074823
20
0.860805459836598
30
0
41
1
10
37.7447400849124
20
0.738532805571992
30
0
41
1
10
37.7639931424192
20
0.320759253554058
30
0
41
1
10
37.7968152057271
20
-0.403423843739745
30
0
41
1
10
37.837523458749
20
-1.28440899569412
30
0
41
1
10
37.8666441850426
20
-1.87623117448399
30
0
41
1
10
37.8821953772596
20
-2.17312041457271
30
0
41
1
10
37.8841772106329
20
-2.21062760200735
30
0
0
SPLINE
5
12E
100
AcDbEntity
8
1
62
256
6
ByLayer
370
13
48
1
60
0
100
AcDbSpline
70
4
71
3
72
12
73
8
40
0
40
0
40
0
40
0
40
0.113286073156963
40
0.393811059950034
40
0.674336046743106
40
0.954861033536177
40
1
40
1
40
1
40
1
41
1
10
38.0519555184272
20
0.860651642804442
30
0
41
1
10
38.0574353299597
20
0.742756819223018
30
0
41
1
10
38.0764845410164
20
0.329532728869765
30
0
41
1
10
38.1091031489338
20
-0.389887593331537
30
0
41
1
10
38.1498113566648
20
-1.27144408677825
30
0
41
1
10
38.1791335971498
20
-1.86818587200526
30
0
41
1
10
38.1948864384394
20
-2.16917665848223
30
0
41
1
10
38.1970698762372
20
-2.21049675372188
30
0
0
SPLINE
5
12F
100
AcDbEntity
8
1
62
256
6
ByLayer
370
18
48
1
60
0
100
AcDbSpline
70
4
71
3
72
8
73
4
40
0
40
0
40
0
40
0
40
1
40
1
40
1
40
1
41
1
10
38.1970698762372
20
-2.21049675372188
30
0
41
1
10
38.21615803445
20
-2.2313472974067
30
0
41
1
10
38.2352450787894
20
-2.2522094721939
30
0
41
1
10
38.2543313944752
20
-2.27307512539232
30
0
0
SPLINE
5
130
100
AcDbEntity
8
1
62
256
6
ByLayer
370
18
48
1
60
0
100
AcDbSpline
70
4
71
3
72
8
73
4
40
0
40
0
40
0
40
0
40
1
40
1
40
1
40
1
41
1
10
39.016933246084
20
-2.34102085266451
30
0
41
1
10
39.0560257572348
20
-2.29728509772519
30
0
41
1
10
39.0950894624021
20
-2.2535236707418
30
0
41
1
10
39.134128699516
20
-2.20980101010267
30
0
0
SPLINE
5
131
100
AcDbEntity
8
1
62
256
6
ByLayer
370
13
48
1
60
0
100
AcDbSpline
70
4
71
3
72
10
73
6
40
0
40
0
40
0
40
0
40
0.481635269556384
40
0.761649896414923
40
1
40
1
40
1
40
1
41
1
10
38.9887498385509
20
0.867348438854464
30
0
41
1
10
39.0120898228373
20
0.365497931376495
30
0
41
1
10
39.0489993322136
20
-0.456758755606756
30
0
41
1
10
39.097458754436
20
-1.49142475656271
30
0
41
1
10
39.1225783918264
20
-1.99124433386993
30
0
41
1
10
39.134128699516
20
-2.20980101010218
30
0
0
SPLINE
5
132
100
AcDbEntity
8
1
62
256
6
ByLayer
370
18
48
1
60
0
100
AcDbSpline
70
4
71
3
72
28
73
24
40
0
40
0
40
0
40
0
40
0.124999999999999
40
0.124999999999999
40
0.249999999999998
40
0.374999999999998
40
0.374999999999998
40
0.406249999999998
40
0.406249999999998
40
0.437499999999997
40
0.437499999999997
40
0.499999999999998
40
0.499999999999998
40
0.624999999999998
40
0.624999999999998
40
0.749999999999999
40
0.749999999999999
40
0.875
40
0.875
40
0.90625
40
0.90625
40
0.9375
40
1
40
1
40
1
40
1
41
1
10
38.0958133197329
20
0.872569023092666
30
0
41
1
10
38.1024620904891
20
0.738991125175005
30
0
41
1
10
38.1090585808736
20
0.605004395328621
30
0
41
1
10
38.1222478658431
20
0.33623995515643
30
0
41
1
10
38.1354204315849
20
0.0666836629732757
30
0
41
1
10
38.1485997794637
20
-0.204452470490082
30
0
41
1
10
38.1568923552009
20
-0.374415250229191
30
0
41
1
10
38.1585539459168
20
-0.408432974424898
30
0
41
1
10
38.1618842279946
20
-0.476519217364029
30
0
41
1
10
38.1635544905106
20
-0.510622629391406
30
0
41
1
10
38.1685513045651
20
-0.612515226355583
30
0
41
1
10
38.1718699618793
20
-0.680014156838155
30
0
41
1
10
38.1817935342193
20
-0.881246201738293
30
0
41
1
10
38.1883641464009
20
-1.01371719196331
30
0
41
1
10
38.2014900509058
20
-1.27535096563827
30
0
41
1
10
38.2080565517372
20
-1.40451357023181
30
0
41
1
10
38.2212264255099
20
-1.6595069618767
30
0
41
1
10
38.2278231097026
20
-1.785338070177
30
0
41
1
10
38.2361147707747
20
-1.94047666931749
30
0
41
1
10
38.2377747768438
20
-1.97138153869506
30
0
41
1
10
38.2410892648596
20
-2.03275413364278
30
0
41
1
10
38.2460566350816
20
-2.12423721525451
30
0
41
1
10
38.251020854486
20
-2.21399873553537
30
0
41
1
10
38.2543313944696
20
-2.27307512538727
30
0
0
SPLINE
5
133
100
AcDbEntity
8
1
62
256
6
ByLayer
370
18
48
1
60
0
100
AcDbSpline
70
4
71
3
72
8
73
4
40
0
40
0
40
0
40
0
40
1
40
1
40
1
40
1
41
1
10
38.2543313944878
20
-2.27307512538772
30
0
41
1
10
38.5085308609388
20
-2.29572544240597
30
0
41
1
10
38.7627314700385
20
-2.31837545687432
30
0
41
1
10
39.016933246084
20
-2.34102085266451
30
0
0
SPLINE
5
134
100
AcDbEntity
8
1
62
256
6
ByLayer
370
18
48
1
60
0
100
AcDbSpline
70
4
71
3
72
26
73
22
40
0
40
0
40
0
40
0
40
0.125
40
0.25
40
0.25
40
0.375
40
0.375
40
0.4375
40
0.4375
40
0.5
40
0.5
40
0.625
40
0.625
40
0.75
40
0.75
40
0.8125
40
0.84375
40
0.84375
40
0.875
40
0.875
40
1
40
1
40
1
40
1
41
1
10
39.0169332460839
20
-2.34102085266451
30
0
41
1
10
39.0112968443115
20
-2.22018304404244
30
0
41
1
10
39.0000411422371
20
-1.9734139440167
30
0
41
1
10
38.9888372988311
20
-1.71668871015822
30
0
41
1
10
38.9776108163137
20
-1.45497339240623
30
0
41
1
10
38.9719874996502
20
-1.32162103511783
30
0
41
1
10
38.9635008300095
20
-1.1177453375586
30
0
41
1
10
38.9606571150898
20
-1.04900502671887
30
0
41
1
10
38.9549949210917
20
-0.911574947261954
30
0
41
1
10
38.9521708858582
20
-0.842753498693298
30
0
41
1
10
38.943696582276
20
-0.635976055254986
30
0
41
1
10
38.9380322086889
20
-0.497707988811982
30
0
41
1
10
38.9267097993073
20
-0.220350224513567
30
0
41
1
10
38.9210550497975
20
-0.0812604130794625
30
0
41
1
10
38.9125817530668
20
0.127997052153859
30
0
41
1
10
38.9083466261857
20
0.232781692038373
30
0
41
1
10
38.9041071276811
20
0.337803459694442
30
0
41
1
10
38.9012786063075
20
0.407871182225136
30
0
41
1
10
38.8998620297512
20
0.442962397614934
30
0
41
1
10
38.8927870362575
20
0.618138574223849
30
0
41
1
10
38.8871625809304
20
0.757186188632801
30
0
41
1
10
38.8815116315942
20
0.895139877069425
30
0
0
SPLINE
5
135
100
AcDbEntity
8
1
62
256
6
ByLayer
370
13
48
1
60
0
100
AcDbSpline
70
4
71
3
72
10
73
6
40
0
40
0
40
0
40
0
40
0.477828548341483
40
0.757654353379724
40
1
40
1
40
1
40
1
41
1
10
39.3015444785561
20
0.869590388902452
30
0
41
1
10
39.3247154901726
20
0.371352663997612
30
0
41
1
10
39.3614558979256
20
-0.447021834904916
30
0
41
1
10
39.4099482148805
20
-1.48298918081963
30
0
41
1
10
39.4352695178554
20
-1.98721260504786
30
0
41
1
10
39.4470214202545
20
-2.20957514146249
30
0
0
SPLINE
5
136
100
AcDbEntity
8
1
62
256
6
ByLayer
370
18
48
1
60
0
100
AcDbSpline
70
4
71
3
72
10
73
6
40
0
40
0
40
0
40
0
40
0.675185710196481
40
0.675185710196481
40
1
40
1
40
1
40
1
41
1
10
39.4470214202545
20
-2.20957514146261
30
0
41
1
10
39.4850776249568
20
-2.25113931766458
30
0
41
1
10
39.5231296447233
20
-2.29275091099578
30
0
41
1
10
39.5794852288889
20
-2.35436533163195
30
0
41
1
10
39.5977898884567
20
-2.37437812489952
30
0
41
1
10
39.6160941074672
20
-2.39439112421226
30
0
0
SPLINE
5
137
100
AcDbEntity
8
1
62
256
6
ByLayer
370
18
48
1
60
0
100
AcDbSpline
70
4
71
3
72
8
73
4
40
0
40
0
40
0
40
0
40
1
40
1
40
1
40
1
41
1
10
50.8754894522957
20
-2.39717703751845
30
0
41
1
10
51.1245609098783
20
-2.33576541853478
30
0
41
1
10
51.3736073390822
20
-2.27426842555266
30
0
41
1
10
51.6226374980179
20
-2.21289841428239
30
0
0
SPLINE
5
138
100
AcDbEntity
8
1
62
256
6
ByLayer
370
18
48
1
60
0
100
AcDbSpline
70
4
71
3
72
28
73
24
40
0
40
0
40
0
40
0
40
0.125000000000001
40
0.125000000000001
40
0.250000000000001
40
0.250000000000001
40
0.375000000000002
40
0.375000000000002
40
0.437500000000002
40
0.437500000000002
40
0.500000000000002
40
0.500000000000002
40
0.625000000000002
40
0.625000000000002
40
0.750000000000002
40
0.750000000000002
40
0.812500000000002
40
0.812500000000002
40
0.843750000000002
40
0.843750000000002
40
0.875000000000001
40
0.875000000000001
40
1
40
1
40
1
40
1
41
1
10
51.622637498018
20
-2.21289841428191
30
0
41
1
10
51.6145217849011
20
-2.09531484210407
30
0
41
1
10
51.6066807909515
20
-1.97503959044681
30
0
41
1
10
51.5915643659667
20
-1.72920806593001
30
0
41
1
10
51.5842923285847
20
-1.60365134101414
30
0
41
1
10
51.5702247147489
20
-1.34726812136688
30
0
41
1
10
51.5634200113587
20
-1.21644414775943
30
0
41
1
10
51.5535169676278
20
-1.01616833277177
30
0
41
1
10
51.5502587897104
20
-0.948577920503027
30
0
41
1
10
51.5438993817188
20
-0.81344072253404
30
0
41
1
10
51.5407907509513
20
-0.745765836438608
30
0
41
1
10
51.531653920885
20
-0.542429349087655
30
0
41
1
10
51.5258208755399
20
-0.406456231480689
30
0
41
1
10
51.514568730335
20
-0.133697515352367
30
0
41
1
10
51.5091414708386
20
0.003087520937072
30
0
41
1
10
51.5012270177852
20
0.208877394493612
30
0
41
1
10
51.4986280982812
20
0.27757635131303
30
0
41
1
10
51.4947809337718
20
0.380780614761164
30
0
41
1
10
51.4935059013646
20
0.41523949337224
30
0
41
1
10
51.4909796939872
20
0.483977091271385
30
0
41
1
10
51.4897279338867
20
0.518270998768742
30
0
41
1
10
51.4835203888908
20
0.689367449569488
30
0
41
1
10
51.4787095775825
20
0.825054039303751
30
0
41
1
10
51.474054308415
20
0.959541255266373
30
0
0
SPLINE
5
139
100
AcDbEntity
8
1
62
256
6
ByLayer
370
18
48
1
60
0
100
AcDbSpline
70
4
71
3
72
29
73
25
40
0
40
0
40
0
40
0
40
0.124999999999999
40
0.124999999999999
40
0.249999999999998
40
0.249999999999998
40
0.374999999999996
40
0.374999999999996
40
0.406249999999996
40
0.406249999999996
40
0.437499999999996
40
0.437499999999996
40
0.499999999999996
40
0.499999999999996
40
0.624999999999997
40
0.624999999999997
40
0.749999999999999
40
0.749999999999999
40
0.812499999999999
40
0.843749999999999
40
0.843749999999999
40
0.874999999999999
40
0.874999999999999
40
1
40
1
40
1
40
1
41
1
10
50.7257172406248
20
0.998065510775774
30
0
41
1
10
50.7330476639377
20
0.853862392768718
30
0
41
1
10
50.740208297775
20
0.709151267071661
30
0
41
1
10
50.7542640664743
20
0.418748436520303
30
0
41
1
10
50.7611552337926
20
0.273056534386399
30
0
41
1
10
50.774726823241
20
-0.0193038411750592
30
0
41
1
10
50.7814161683324
20
-0.165972109516162
30
0
41
1
10
50.7896667406155
20
-0.349933761394141
30
0
41
1
10
50.7913110557284
20
-0.386757486154693
30
0
41
1
10
50.7945881847331
20
-0.460468433489211
30
0
41
1
10
50.7962229102459
20
-0.497399332050378
30
0
41
1
10
50.8010856158788
20
-0.607725634061637
30
0
41
1
10
50.8042779185257
20
-0.680786116912543
30
0
41
1
10
50.8137196980232
20
-0.898522196813218
30
0
41
1
10
50.819833803419
20
-1.041755597254
30
0
41
1
10
50.8317375114699
20
-1.32443622320571
30
0
41
1
10
50.8375275738827
20
-1.46388227380643
30
0
41
1
10
50.8460087871153
20
-1.67016673697782
30
0
41
1
10
50.8501968551418
20
-1.77258695507308
30
0
41
1
10
50.8543125103756
20
-1.87390641351774
30
0
41
1
10
50.8570416688301
20
-1.94120534475988
30
0
41
1
10
50.8583998727609
20
-1.97475504409033
30
0
41
1
10
50.865134477701
20
-2.14127883518896
30
0
41
1
10
50.8703617145101
20
-2.27097446038201
30
0
41
1
10
50.8754894522957
20
-2.39717703751845
30
0
0
SPLINE
5
13A
100
AcDbEntity
8
1
62
256
6
ByLayer
370
13
48
1
60
0
100
AcDbSpline
70
4
71
3
72
13
73
9
40
0
40
0
40
0
40
0
40
0.0628793400987786
40
0.272968038466532
40
0.483056736834286
40
0.693145435202039
40
0.903234133569793
40
1
40
1
40
1
40
1
41
1
10
50.69657895748
20
-2.20128269742591
30
0
41
1
10
50.6934603649163
20
-2.14219053846844
30
0
41
1
10
50.6799221164938
20
-1.88213161525988
30
0
41
1
10
50.6559641998654
20
-1.3968753504308
30
0
41
1
10
50.6247052140767
20
-0.729656181826158
30
0
41
1
10
50.5934462554419
20
-0.0442711041813482
30
0
41
1
10
50.5678076815411
20
0.518821256516503
30
0
41
1
10
50.5525887747401
20
0.847370901941389
30
0
41
1
10
50.5477895284835
20
0.950145094957037
30
0
0
SPLINE
5
13B
100
AcDbEntity
8
1
62
256
6
ByLayer
370
18
48
1
60
0
100
AcDbSpline
70
4
71
3
72
8
73
4
40
0
40
0
40
0
40
0
40
1
40
1
40
1
40
1
41
1
10
50.69657895748
20
-2.20128269742591
30
0
41
1
10
50.7562258958812
20
-2.26646591249713
30
0
41
1
10
50.8158590403629
20
-2.33184092857391
30
0
41
1
10
50.8754894522957
20
-2.39717703751845
30
0
0
SPLINE
5
13C
100
AcDbEntity
8
1
62
256
6
ByLayer
370
18
48
1
60
0
100
AcDbSpline
70
4
71
3
72
8
73
4
40
0
40
0
40
0
40
0
40
1
40
1
40
1
40
1
41
1
10
40.1738754291778
20
-2.44406764451514
30
0
41
1
10
40.2440282165905
20
-2.36567243447504
30
0
41
1
10
40.3140974931038
20
-2.28719835587285
30
0
41
1
10
40.3840830365432
20
-2.20880644567384
30
0
0
SPLINE
5
13D
100
AcDbEntity
8
1
62
256
6
ByLayer
370
13
48
1
60
0
100
AcDbSpline
70
4
71
3
72
11
73
7
40
0
40
0
40
0
40
0
40
0.286015539726894
40
0.565306428269158
40
0.844597316811421
40
1
40
1
40
1
40
1
41
1
10
40.2383272887217
20
0.876250005575429
30
0
41
1
10
40.2522234412877
20
0.577527876281607
30
0
41
1
10
40.2796890613591
20
-0.0254574549833251
30
0
41
1
10
40.3207239275772
20
-0.925323940277934
30
0
41
1
10
40.355413051681
20
-1.65292288834357
30
0
41
1
10
40.3765327617789
20
-2.06591199412122
30
0
41
1
10
40.3840830365432
20
-2.20880644567381
30
0
0
SPLINE
5
13E
100
AcDbEntity
8
1
62
256
6
ByLayer
370
18
48
1
60
0
100
AcDbSpline
70
4
71
3
72
25
73
21
40
0
40
0
40
0
40
0
40
0.125
40
0.25
40
0.375
40
0.375
40
0.40625
40
0.40625
40
0.4375
40
0.4375
40
0.5
40
0.5
40
0.625
40
0.75
40
0.75
40
0.8125
40
0.8125
40
0.875
40
0.875
40
1
40
1
40
1
40
1
41
1
10
39.456303131277
20
0.911656745348409
30
0
41
1
10
39.4630603484492
20
0.771209131691052
30
0
41
1
10
39.4765094966802
20
0.489413423492835
30
0
41
1
10
39.496407352416
20
0.0640810502170268
30
0
41
1
10
39.5095803849427
20
-0.221228367832111
30
0
41
1
10
39.5178598322084
20
-0.400105012032782
30
0
41
1
10
39.5195182340627
20
-0.435908301680968
30
0
41
1
10
39.5228427363713
20
-0.507571246816951
30
0
41
1
10
39.524508073296
20
-0.543414164085675
30
0
41
1
10
39.5294939192131
20
-0.650467186174978
30
0
41
1
10
39.532814807413
20
-0.721385935223907
30
0
41
1
10
39.5427814594811
20
-0.932816256355665
30
0
41
1
10
39.5560603846315
20
-1.2111932849765
30
0
41
1
10
39.5693062563849
20
-1.48262504215302
30
0
41
1
10
39.5792749950308
20
-1.68357051658344
30
0
41
1
10
39.5826038554655
20
-1.75011361059867
30
0
41
1
10
39.5892775423158
20
-1.8823099010134
30
0
41
1
10
39.5926242072092
20
-1.94799901946126
30
0
41
1
10
39.602690051422
20
-2.14347868236854
30
0
41
1
10
39.6093743034878
20
-2.270549709325
30
0
41
1
10
39.6160941074625
20
-2.39439112420797
30
0
0
SPLINE
5
13F
100
AcDbEntity
8
1
62
256
6
ByLayer
370
18
48
1
60
0
100
AcDbSpline
70
4
71
3
72
8
73
4
40
0
40
0
40
0
40
0
40
1
40
1
40
1
40
1
41
1
10
39.6160941074777
20
-2.39439112420843
30
0
41
1
10
39.8020206611369
20
-2.41095100069654
30
0
41
1
10
39.9879477804249
20
-2.42750967666146
30
0
41
1
10
40.1738754291778
20
-2.44406764451514
30
0
0
SPLINE
5
140
100
AcDbEntity
8
1
62
256
6
ByLayer
370
18
48
1
60
0
100
AcDbSpline
70
4
71
3
72
27
73
23
40
0
40
0
40
0
40
0
40
0.125
40
0.125
40
0.250000000000001
40
0.250000000000001
40
0.375000000000001
40
0.375000000000001
40
0.437500000000001
40
0.437500000000001
40
0.500000000000001
40
0.500000000000001
40
0.625000000000002
40
0.625000000000002
40
0.750000000000002
40
0.750000000000002
40
0.812500000000002
40
0.843750000000002
40
0.843750000000002
40
0.875000000000002
40
0.875000000000002
40
1
40
1
40
1
40
1
41
1
10
40.1738754291778
20
-2.44406764451514
30
0
41
1
10
40.1681835354312
20
-2.31836002181447
30
0
41
1
10
40.1625382141228
20
-2.18996850060162
30
0
41
1
10
40.1512639041805
20
-1.92794443757648
30
0
41
1
10
40.1456240574435
20
-1.79431144662971
30
0
41
1
10
40.1343157084711
20
-1.52179605476996
30
0
41
1
10
40.1286531560521
20
-1.38291408480109
30
0
41
1
10
40.120113435259
20
-1.17054625982087
30
0
41
1
10
40.1172520851308
20
-1.09891388673134
30
0
41
1
10
40.1115555866515
20
-0.955639950746246
30
0
41
1
10
40.108715463007
20
-0.883889643238604
30
0
41
1
10
40.1002145828605
20
-0.66830471921719
30
0
41
1
10
40.094575553397
20
-0.524136734478617
30
0
41
1
10
40.0832832503534
20
-0.234927024678399
30
0
41
1
10
40.0776253171285
20
-0.0898854303276551
30
0
41
1
10
40.0690431586596
20
0.12833641406732
30
0
41
1
10
40.0647334423899
20
0.237612615462979
30
0
41
1
10
40.0604032654877
20
0.347140678881942
30
0
41
1
10
40.0575123364998
20
0.420215964131501
30
0
41
1
10
40.0560635195433
20
0.456814680058244
30
0
41
1
10
40.0488275779426
20
0.639502076361708
30
0
41
1
10
40.0430742055868
20
0.784502516846857
30
0
41
1
10
40.0373452138028
20
0.928356380127667
30
0
0
SPLINE
5
141
100
AcDbEntity
8
1
62
256
6
ByLayer
370
18
48
1
60
0
100
AcDbSpline
70
4
71
3
72
8
73
4
40
0
40
0
40
0
40
0
40
1
40
1
40
1
40
1
41
1
10
38.0334202756424
20
4.43223293931447
30
0
41
1
10
38.2326651832921
20
4.46019400797357
30
0
41
1
10
38.4319107487624
20
4.48814946470443
30
0
41
1
10
38.6311570411584
20
4.51609966256555
30
0
0
SPLINE
5
142
100
AcDbEntity
8
1
62
256
6
ByLayer
370
18
48
1
60
0
100
AcDbSpline
70
4
71
3
72
8
73
4
40
0
40
0
40
0
40
0
40
1
40
1
40
1
40
1
41
1
10
38.0519555184272
20
0.860651642804413
30
0
41
1
10
38.0465588182938
20
0.85918620404513
30
0
41
1
10
38.0403796643494
20
0.857799839901645
30
0
41
1
10
38.0334182421876
20
0.85649241410448
30
0
0
SPLINE
5
143
100
AcDbEntity
8
1
62
256
6
ByLayer
370
18
48
1
60
0
100
AcDbSpline
70
4
71
3
72
8
73
4
40
0
40
0
40
0
40
0
40
1
40
1
40
1
40
1
41
1
10
38.0958133197329
20
0.872569023092694
30
0
41
1
10
38.0811948537985
20
0.868594130854774
30
0
41
1
10
38.0665756010767
20
0.864621630991451
30
0
41
1
10
38.0519555184272
20
0.860651642804442
30
0
0
SPLINE
5
144
100
AcDbEntity
8
1
62
256
6
ByLayer
370
18
48
1
60
0
100
AcDbSpline
70
4
71
3
72
8
73
4
40
0
40
0
40
0
40
0
40
1
40
1
40
1
40
1
41
1
10
38.8815116315942
20
0.895139877069425
30
0
41
1
10
38.6196121918707
20
0.887614921446186
30
0
41
1
10
38.3577127546472
20
0.88009118751782
30
0
41
1
10
38.0958133197329
20
0.872569023092694
30
0
0
SPLINE
5
145
100
AcDbEntity
8
1
62
256
6
ByLayer
370
18
48
1
60
0
100
AcDbSpline
70
4
71
3
72
8
73
4
40
0
40
0
40
0
40
0
40
1
40
1
40
1
40
1
41
1
10
38.9887498385509
20
0.867348438854464
30
0
41
1
10
38.953007793336
20
0.876596666539427
30
0
41
1
10
38.9172615260993
20
0.885861041793504
30
0
41
1
10
38.8815116315943
20
0.895139877069425
30
0
0
SPLINE
5
146
100
AcDbEntity
8
1
62
256
6
ByLayer
370
18
48
1
60
0
100
AcDbSpline
70
4
71
3
72
32
73
28
40
0
40
0
40
0
40
0
40
0.124999999999924
40
0.124999999999924
40
0.187499999999902
40
0.187499999999902
40
0.249999999999881
40
0.31249999999986
40
0.31249999999986
40
0.374999999999839
40
0.374999999999839
40
0.437499999999818
40
0.437499999999818
40
0.499999999999797
40
0.499999999999797
40
0.624999999999809
40
0.624999999999809
40
0.687499999999841
40
0.687499999999841
40
0.749999999999873
40
0.749999999999873
40
0.812499999999905
40
0.812499999999905
40
0.874999999999936
40
0.937499999999968
40
0.937499999999968
40
1
40
1
40
1
40
1
41
1
10
39.3015444785561
20
0.869590388902452
30
0
41
1
10
39.2935713992603
20
0.867428139120818
30
0
41
1
10
39.2839907077396
20
0.865459385914932
30
0
41
1
10
39.2672803584131
20
0.862787261064653
30
0
41
1
10
39.2612682988104
20
0.861938888442296
30
0
41
1
10
39.2487395852268
20
0.860381689050058
30
0
41
1
10
39.2356792173267
20
0.858956381046113
30
0
41
1
10
39.2215754441855
20
0.85778974251852
30
0
41
1
10
39.2069328386078
20
0.856756609448269
30
0
41
1
10
39.1994071596666
20
0.856312457552065
30
0
41
1
10
39.1842335951647
20
0.855581459662915
30
0
41
1
10
39.1765443134288
20
0.855291615732568
30
0
41
1
10
39.1609601978651
20
0.854863615407538
30
0
41
1
10
39.1530094029802
20
0.854725236699892
30
0
41
1
10
39.1292671680893
20
0.854552156982976
30
0
41
1
10
39.1137187057773
20
0.854751188993788
30
0
41
1
10
39.0908142563085
20
0.855520121460216
30
0
41
1
10
39.0832533309999
20
0.855857354508515
30
0
41
1
10
39.0687182017674
20
0.856671958855969
30
0
41
1
10
39.0616853693032
20
0.857150927861454
30
0
41
1
10
39.0480864339581
20
0.858251450553325
30
0
41
1
10
39.0414975377601
20
0.858875519970354
30
0
41
1
10
39.0289065225023
20
0.860262015721275
30
0
41
1
10
39.0170824088718
20
0.86176551820563
30
0
41
1
10
39.0067379863031
20
0.863494975093431
30
0
41
1
10
38.997145168888
20
0.865339299980946
30
0
41
1
10
38.9927148017796
20
0.866322507560341
30
0
41
1
10
38.9887498385509
20
0.867348438854464
30
0
0
SPLINE
5
147
100
AcDbEntity
8
1
62
256
6
ByLayer
370
18
48
1
60
0
100
AcDbSpline
70
4
71
3
72
8
73
4
40
0
40
0
40
0
40
0
40
1
40
1
40
1
40
1
41
1
10
39.456303131277
20
0.911656745348409
30
0
41
1
10
39.4047262208238
20
0.897606798780856
30
0
41
1
10
39.3531405929473
20
0.883582935939188
30
0
41
1
10
39.3015444785561
20
0.869590388902452
30
0
0
SPLINE
5
148
100
AcDbEntity
8
1
62
256
6
ByLayer
370
18
48
1
60
0
100
AcDbSpline
70
4
71
3
72
8
73
4
40
0
40
0
40
0
40
0
40
1
40
1
40
1
40
1
41
1
10
40.0373452138028
20
0.928356380127667
30
0
41
1
10
39.8436645181327
20
0.922789400032769
30
0
41
1
10
39.6499838239819
20
0.917222808208038
30
0
41
1
10
39.456303131277
20
0.911656745348409
30
0
0
SPLINE
5
149
100
AcDbEntity
8
1
62
256
6
ByLayer
370
18
48
1
60
0
100
AcDbSpline
70
4
71
3
72
10
73
6
40
0
40
0
40
0
40
0
40
0.56581926000953
40
0.56581926000953
40
1
40
1
40
1
40
1
41
1
10
40.2383272887217
20
0.876250005575457
30
0
41
1
10
40.2004290887976
20
0.886047619422897
30
0
41
1
10
40.162525748254
20
0.895863382128454
30
0
41
1
10
40.0955295752702
20
0.913239783606031
30
0
41
1
10
40.0664385412991
20
0.920793786039894
30
0
41
1
10
40.0373452138028
20
0.928356380127667
30
0
0
SPLINE
5
14A
100
AcDbEntity
8
1
62
256
6
ByLayer
370
18
48
1
60
0
100
AcDbSpline
70
4
71
3
72
32
73
28
40
0
40
0
40
0
40
0
40
0.124999999999981
40
0.124999999999981
40
0.187499999999973
40
0.187499999999973
40
0.249999999999966
40
0.312499999999959
40
0.312499999999959
40
0.374999999999952
40
0.374999999999952
40
0.437499999999945
40
0.437499999999945
40
0.499999999999937
40
0.499999999999937
40
0.625000000000033
40
0.625000000000033
40
0.687500000000027
40
0.687500000000027
40
0.750000000000022
40
0.750000000000022
40
0.812500000000016
40
0.812500000000016
40
0.875000000000011
40
0.937500000000005
40
0.937500000000005
40
1
40
1
40
1
40
1
41
1
10
40.5511249038775
20
0.878490586533758
30
0
41
1
10
40.5431505666905
20
0.876330618328495
30
0
41
1
10
40.533568871041
20
0.874363936134131
30
0
41
1
10
40.5168574361946
20
0.871694604515909
30
0
41
1
10
40.5108450737348
20
0.870847112794024
30
0
41
1
10
40.4983157575423
20
0.869291504418811
30
0
41
1
10
40.485254875316
20
0.867867648308135
30
0
41
1
10
40.4711508855063
20
0.866702158414796
30
0
41
1
10
40.4565081583737
20
0.865670031368666
30
0
41
1
10
40.4489821964781
20
0.865226284558304
30
0
41
1
10
40.4338083485141
20
0.864495944323039
30
0
41
1
10
40.4261189759045
20
0.864206348813866
30
0
41
1
10
40.4105347818083
20
0.863778683133063
30
0
41
1
10
40.4025840697361
20
0.863640389540194
30
0
41
1
10
40.3788411820841
20
0.863467308641049
30
0
41
1
10
40.3632925545669
20
0.863666029230302
30
0
41
1
10
40.3403882461656
20
0.864434013643233
30
0
41
1
10
40.3328271249101
20
0.86477086089215
30
0
41
1
10
40.3182918289551
20
0.865584562870197
30
0
41
1
10
40.3112590099033
20
0.866063011496834
30
0
41
1
10
40.2976602787843
20
0.867162351385105
30
0
41
1
10
40.2910717325211
20
0.867785737691577
30
0
41
1
10
40.2784808266111
20
0.869170811843446
30
0
41
1
10
40.2666570018939
20
0.870672768667447
30
0
41
1
10
40.2563134058752
20
0.872400468898377
30
0
41
1
10
40.2467215269911
20
0.87424290607558
30
0
41
1
10
40.2422916813316
20
0.875225112889041
30
0
41
1
10
40.2383272887217
20
0.876250005575457
30
0
0
SPLINE
5
14B
100
AcDbEntity
8
1
62
256
6
ByLayer
370
18
48
1
60
0
100
AcDbSpline
70
4
71
3
72
32
73
28
40
0
40
0
40
0
40
0
40
0.124999999999941
40
0.124999999999941
40
0.187499999999914
40
0.187499999999914
40
0.249999999999887
40
0.31249999999986
40
0.31249999999986
40
0.374999999999833
40
0.374999999999833
40
0.437499999999806
40
0.437499999999806
40
0.499999999999779
40
0.499999999999779
40
0.624999999999834
40
0.624999999999834
40
0.687499999999862
40
0.687499999999862
40
0.749999999999889
40
0.749999999999889
40
0.812499999999917
40
0.812499999999917
40
0.874999999999945
40
0.937499999999972
40
0.937499999999972
40
1
40
1
40
1
40
1
41
1
10
41.8007065137432
20
0.887500734967261
30
0
41
1
10
41.792732456366
20
0.885342702801239
30
0
41
1
10
41.7831515988258
20
0.883377641155676
30
0
41
1
10
41.7664418723742
20
0.880710324137482
30
0
41
1
10
41.7604301234598
20
0.879863428272273
30
0
41
1
10
41.7479016673455
20
0.878308799208128
30
0
41
1
10
41.7348416351312
20
0.876885764066543
30
0
41
1
10
41.7207384050349
20
0.875720801637641
30
0
41
1
10
41.7060963574247
20
0.874689058642218
30
0
41
1
10
41.6985698613373
20
0.874245380139797
30
0
41
1
10
41.6833954893835
20
0.873515105223646
30
0
41
1
10
41.6757058416743
20
0.873225485328447
30
0
41
1
10
41.6601210680126
20
0.872797658663075
30
0
41
1
10
41.6521701984377
20
0.872659224670201
30
0
41
1
10
41.6284243867763
20
0.872485563278929
30
0
41
1
10
41.6128742349
20
0.872683744628972
30
0
41
1
10
41.5899682321695
20
0.873450644225073
30
0
41
1
10
41.5824061589193
20
0.873787103538746
30
0
41
1
10
41.5678694754615
20
0.874599963499662
30
0
41
1
10
41.560836172489
20
0.875077953224974
30
0
41
1
10
41.5472368446545
20
0.876176286072166
30
0
41
1
10
41.5406482524371
20
0.876799114624362
30
0
41
1
10
41.5280572790984
20
0.878183012068519
30
0
41
1
10
41.5162337997261
20
0.879683710441839
30
0
41
1
10
41.505891184183
20
0.881409970231829
30
0
41
1
10
41.4963005294519
20
0.883250862682985
30
0
41
1
10
41.4918714742668
20
0.884232231623656
30
0
41
1
10
41.4879079596717
20
0.885256229438795
30
0
0
SPLINE
5
14C
100
AcDbEntity
8
1
62
256
6
ByLayer
370
18
48
1
60
0
100
AcDbSpline
70
4
71
3
72
32
73
28
40
0
40
0
40
0
40
0
40
0.125000000000025
40
0.125000000000025
40
0.187500000000001
40
0.187500000000001
40
0.249999999999977
40
0.312499999999952
40
0.312499999999952
40
0.374999999999928
40
0.374999999999928
40
0.437499999999904
40
0.437499999999904
40
0.49999999999988
40
0.49999999999988
40
0.624999999999832
40
0.624999999999832
40
0.68749999999986
40
0.68749999999986
40
0.749999999999888
40
0.749999999999888
40
0.812499999999916
40
0.812499999999916
40
0.874999999999944
40
0.937499999999972
40
0.937499999999972
40
1
40
1
40
1
40
1
41
1
10
43.0502950700056
20
0.896443185188673
30
0
41
1
10
43.0423190229794
20
0.894287579440373
30
0
41
1
10
43.0327360850639
20
0.892324807943083
30
0
41
1
10
43.0160231650116
20
0.889660719987432
30
0
41
1
10
43.0100103500616
20
0.888814876641248
30
0
41
1
10
42.9974800455363
20
0.887262253803868
30
0
41
1
10
42.9844182809229
20
0.885841101597862
30
0
41
1
10
42.9703134354677
20
0.884677806510609
30
0
41
1
10
42.9556698979705
20
0.883647603789285
30
0
41
1
10
42.9481431628336
20
0.883204654794213
30
0
41
1
10
42.9329681584381
20
0.882475645718529
30
0
41
1
10
42.9252782597111
20
0.882186578158439
30
0
41
1
10
42.9096931134625
20
0.881759695532622
30
0
41
1
10
42.9017420214327
20
0.881621656521133
30
0
41
1
10
42.8779972817251
20
0.881448911041133
30
0
41
1
10
42.8624479642353
20
0.881647317889588
30
0
41
1
10
42.8395434152298
20
0.882414006190373
30
0
41
1
10
42.8319822620922
20
0.882750283606896
30
0
41
1
10
42.8174473045718
20
0.883562592405468
30
0
41
1
10
42.8104148338038
20
0.884040214992382
30
0
41
1
10
42.7968171310538
20
0.885137638271914
30
0
41
1
10
42.7902291634099
20
0.885759941576538
30
0
41
1
10
42.7776402253226
20
0.887142528447612
30
0
41
1
10
42.7658186185838
20
0.888641765546225
30
0
41
1
10
42.7554776527733
20
0.890366287267682
30
0
41
1
10
42.7458885772647
20
0.892205307672526
30
0
41
1
10
42.741460307264
20
0.893185664225399
30
0
41
1
10
42.737497563494
20
0.894208593667742
30
0
0
SPLINE
5
14D
100
AcDbEntity
8
1
62
256
6
ByLayer
370
18
48
1
60
0
100
AcDbSpline
70
4
71
3
72
32
73
28
40
0
40
0
40
0
40
0
40
0.124999999999991
40
0.124999999999991
40
0.187500000000023
40
0.187500000000023
40
0.250000000000055
40
0.312500000000087
40
0.312500000000087
40
0.375000000000119
40
0.375000000000119
40
0.437500000000151
40
0.437500000000151
40
0.500000000000183
40
0.500000000000183
40
0.625000000000137
40
0.625000000000137
40
0.687500000000114
40
0.687500000000114
40
0.750000000000091
40
0.750000000000091
40
0.812500000000069
40
0.812500000000069
40
0.875000000000046
40
0.937500000000023
40
0.937500000000023
40
1
40
1
40
1
40
1
41
1
10
44.2998728167777
20
0.90535889474603
30
0
41
1
10
44.2918964818389
20
0.903205360545201
30
0
41
1
10
44.2823137723919
20
0.901244374291792
30
0
41
1
10
44.2656017951757
20
0.898582565035127
30
0
41
1
10
44.2595893666376
20
0.897737409970972
30
0
41
1
10
44.2470595646074
20
0.896185948543717
30
0
41
1
10
44.2339983704147
20
0.894765795100085
30
0
41
1
10
44.2198941930366
20
0.893603188088775
30
0
41
1
10
44.2052513598284
20
0.892573516370049
30
0
41
1
10
44.1977241967443
20
0.892130703413869
30
0
41
1
10
44.1825488900493
20
0.891401866298821
30
0
41
1
10
44.1748588556694
20
0.891112815578907
30
0
41
1
10
44.1592734690991
20
0.890685827955537
30
0
41
1
10
44.1513224397431
20
0.890547663287265
30
0
41
1
10
44.1275753470136
20
0.890374335104298
30
0
41
1
10
44.1120248606373
20
0.890572143944553
30
0
41
1
10
44.0891191147696
20
0.891337575959938
30
0
41
1
10
44.0815570273134
20
0.891673399494181
30
0
41
1
10
44.0670206805125
20
0.892484719707255
30
0
41
1
10
44.0599877107007
20
0.892961801268569
30
0
41
1
10
44.0463893561987
20
0.89405803680387
30
0
41
1
10
44.0398014578632
20
0.894679665686851
30
0
41
1
10
44.0272119178221
20
0.896060912191359
30
0
41
1
10
44.0153902392377
20
0.897558731865928
30
0
41
1
10
44.0050497991322
20
0.899281624305644
30
0
41
1
10
43.995461608856
20
0.901118915984
30
0
41
1
10
43.991033915177
20
0.902098353217838
30
0
41
1
10
43.9870718372998
20
0.903120321881858
30
0
0
SPLINE
5
14E
100
AcDbEntity
8
1
62
256
6
ByLayer
370
18
48
1
60
0
100
AcDbSpline
70
4
71
3
72
32
73
28
40
0
40
0
40
0
40
0
40
0.124999999999945
40
0.124999999999945
40
0.187499999999918
40
0.187499999999918
40
0.249999999999891
40
0.312499999999863
40
0.312499999999863
40
0.374999999999836
40
0.374999999999836
40
0.437499999999808
40
0.437499999999808
40
0.499999999999781
40
0.499999999999781
40
0.624999999999836
40
0.624999999999836
40
0.687499999999863
40
0.687499999999863
40
0.749999999999891
40
0.749999999999891
40
0.812499999999918
40
0.812499999999918
40
0.874999999999945
40
0.937499999999973
40
0.937499999999973
40
1
40
1
40
1
40
1
41
1
10
45.5494602489848
20
0.914386563374251
30
0
41
1
10
45.5414843744817
20
0.912234962677303
30
0
41
1
10
45.5319027742698
20
0.910275580372883
30
0
41
1
10
45.5151930823966
20
0.907615735621306
30
0
41
1
10
45.5091814847298
20
0.90677115385958
30
0
41
1
10
45.4966529259883
20
0.905220607294609
30
0
41
1
10
45.4835929604103
20
0.903801208684229
30
0
41
1
10
45.4694900383958
20
0.902639029306783
30
0
41
1
10
45.4548483811014
20
0.901609638694083
30
0
41
1
10
45.4473207708591
20
0.901166827248915
30
0
41
1
10
45.4321452163077
20
0.900437925841061
30
0
41
1
10
45.4244550467369
20
0.900148783631465
30
0
41
1
10
45.4088693649357
20
0.899721495586419
30
0
41
1
10
45.4009183777455
20
0.899583117226257
30
0
41
1
10
45.3771682508655
20
0.899408982979537
30
0
41
1
10
45.3616162014335
20
0.899606110851522
30
0
41
1
10
45.3387087461456
20
0.900370248740586
30
0
41
1
10
45.3311455130311
20
0.900705623137327
30
0
41
1
10
45.3166074595487
20
0.901515990704269
30
0
41
1
10
45.3095738756402
20
0.901992562027374
30
0
41
1
10
45.2959747130184
20
0.903087692947224
30
0
41
1
10
45.289386792542
20
0.903708705773425
30
0
41
1
10
45.2767967739322
20
0.905088718749852
30
0
41
1
10
45.2649750652922
20
0.906585220701317
30
0
41
1
10
45.254635517308
20
0.908306640905238
30
0
41
1
10
45.2450484543925
20
0.910142347213906
30
0
41
1
10
45.2406215059475
20
0.911120931717193
30
0
41
1
10
45.236660268437
20
0.912141996746527
30
0
0
SPLINE
5
14F
100
AcDbEntity
8
1
62
256
6
ByLayer
370
18
48
1
60
0
100
AcDbSpline
70
4
71
3
72
32
73
28
40
0
40
0
40
0
40
0
40
0.124999999999946
40
0.124999999999946
40
0.187499999999958
40
0.187499999999958
40
0.24999999999997
40
0.312499999999982
40
0.312499999999982
40
0.374999999999994
40
0.374999999999994
40
0.437500000000006
40
0.437500000000006
40
0.500000000000019
40
0.500000000000019
40
0.624999999999933
40
0.624999999999933
40
0.687499999999944
40
0.687499999999944
40
0.749999999999955
40
0.749999999999955
40
0.812499999999967
40
0.812499999999967
40
0.874999999999978
40
0.937499999999989
40
0.937499999999989
40
1
40
1
40
1
40
1
41
1
10
46.7990426854711
20
0.923275475777075
30
0
41
1
10
46.791064995913
20
0.921126261978287
30
0
41
1
10
46.781481577562
20
0.919169108869141
30
0
41
1
10
46.7647691755249
20
0.916512374916152
30
0
41
1
10
46.7587566820109
20
0.915668799649552
30
0
41
1
10
46.746226539619
20
0.914120151291399
30
0
41
1
10
46.733165104299
20
0.912702521025722
30
0
41
1
10
46.7190608168954
20
0.911541883456636
30
0
41
1
10
46.7044179114856
20
0.910513902355575
30
0
41
1
10
46.6968900045455
20
0.910071742768366
30
0
41
1
10
46.6817138058516
20
0.909343964523941
30
0
41
1
10
46.6740233736021
20
0.909055304732874
30
0
41
1
10
46.658437284714
20
0.908628823372425
30
0
41
1
10
46.650486085607
20
0.908490771556558
30
0
41
1
10
46.6267364947063
20
0.908317355461321
30
0
41
1
10
46.6111849646523
20
0.908514598929742
30
0
41
1
10
46.5882785438756
20
0.909278382384144
30
0
41
1
10
46.580715958899
20
0.909613536906022
30
0
41
1
10
46.5661791716643
20
0.910423290349058
30
0
41
1
10
46.5591462206652
20
0.910899468495984
30
0
41
1
10
46.545548336893
20
0.911993646078656
30
0
41
1
10
46.5389609476173
20
0.912614109715292
30
0
41
1
10
46.5263725663331
20
0.91399280048239
30
0
41
1
10
46.5145524863094
20
0.915487847429716
30
0
41
1
10
46.5042143461731
20
0.917207526847477
30
0
41
1
10
46.4946287429042
20
0.919041371676173
30
0
41
1
10
46.4902025400933
20
0.920018952292565
30
0
41
1
10
46.4862420526767
20
0.921038959913972
30
0
0
SPLINE
5
150
100
AcDbEntity
8
1
62
256
6
ByLayer
370
18
48
1
60
0
100
AcDbSpline
70
4
71
3
72
32
73
28
40
0
40
0
40
0
40
0
40
0.12500000000005
40
0.12500000000005
40
0.187500000000077
40
0.187500000000077
40
0.250000000000105
40
0.312500000000132
40
0.312500000000132
40
0.375000000000159
40
0.375000000000159
40
0.437500000000187
40
0.437500000000187
40
0.500000000000214
40
0.500000000000214
40
0.625000000000159
40
0.625000000000159
40
0.687500000000133
40
0.687500000000133
40
0.750000000000106
40
0.750000000000106
40
0.81250000000008
40
0.81250000000008
40
0.875000000000053
40
0.937500000000027
40
0.937500000000027
40
1
40
1
40
1
40
1
41
1
10
48.0486254405595
20
0.932266021193414
30
0
41
1
10
48.0406486834812
20
0.930118698890794
30
0
41
1
10
48.0310669784046
20
0.928163074802541
30
0
41
1
10
48.0143579128342
20
0.925508150491851
30
0
41
1
10
48.0083466189099
20
0.924665087070679
30
0
41
1
10
47.9958183487907
20
0.923117205996107
30
0
41
1
10
47.9827587684782
20
0.921700172035401
30
0
41
1
10
47.9686563485709
20
0.920539784308886
30
0
41
1
10
47.9540152193661
20
0.919511897591917
30
0
41
1
10
47.9464869201074
20
0.919069628389622
30
0
41
1
10
47.9313107080676
20
0.918341579183675
30
0
41
1
10
47.9236202473157
20
0.918052725926174
30
0
41
1
10
47.9080340555313
20
0.917625742774931
30
0
41
1
10
47.9000830448027
20
0.917487376640281
30
0
41
1
10
47.8763300016014
20
0.917312861576875
30
0
41
1
10
47.8607766777547
20
0.917509259395075
30
0
41
1
10
47.8378682602605
20
0.918271533291886
30
0
41
1
10
47.8303042552324
20
0.91860618011944
30
0
41
1
10
47.8157653090962
20
0.91941488300327
30
0
41
1
10
47.8087315584019
20
0.919890509723274
30
0
41
1
10
47.7951325630256
20
0.92098351196222
30
0
41
1
10
47.7885451040352
20
0.921603321982531
30
0
41
1
10
47.7759558733767
20
0.922980750733814
30
0
41
1
10
47.7641354994158
20
0.924474462128501
30
0
41
1
10
47.7537981468931
20
0.926192665013559
30
0
41
1
10
47.7442136227089
20
0.928024923441171
30
0
41
1
10
47.7397881635532
20
0.929001653695281
30
0
41
1
10
47.7358285281733
20
0.930020761885345
30
0
0
SPLINE
5
151
100
AcDbEntity
8
1
62
256
6
ByLayer
370
18
48
1
60
0
100
AcDbSpline
70
4
71
3
72
32
73
28
40
0
40
0
40
0
40
0
40
0.125000000000123
40
0.125000000000123
40
0.187500000000145
40
0.187500000000145
40
0.250000000000168
40
0.312500000000191
40
0.312500000000191
40
0.375000000000213
40
0.375000000000213
40
0.437500000000236
40
0.437500000000236
40
0.500000000000258
40
0.500000000000258
40
0.625000000000194
40
0.625000000000194
40
0.687500000000161
40
0.687500000000161
40
0.750000000000129
40
0.750000000000129
40
0.812500000000097
40
0.812500000000097
40
0.875000000000065
40
0.937500000000032
40
0.937500000000032
40
1
40
1
40
1
40
1
41
1
10
49.2982077627321
20
0.941207806865236
30
0
41
1
10
49.2902300747619
20
0.939062613288399
30
0
41
1
10
49.2806477760224
20
0.937108875183782
30
0
41
1
10
49.2639381722092
20
0.934456442320624
30
0
41
1
10
49.2579267401854
20
0.933614152747481
30
0
41
1
10
49.2453980663602
20
0.932067642344464
30
0
41
1
10
49.2323381389474
20
0.930651834210522
30
0
41
1
10
49.2182354526129
20
0.929492395255721
30
0
41
1
10
49.2035940842736
20
0.928465317611909
30
0
41
1
10
49.1960652507066
20
0.928023353092044
30
0
41
1
10
49.1808883129508
20
0.927295794245993
30
0
41
1
10
49.1731975171076
20
0.927007117839878
30
0
41
1
10
49.1576107095449
20
0.926580352239654
30
0
41
1
10
49.1496595078146
20
0.926442025332477
30
0
41
1
10
49.1259046383776
20
0.926267417450333
30
0
41
1
10
49.1103504516154
20
0.926463509638438
30
0
41
1
10
49.087441246819
20
0.927224935638606
30
0
41
1
10
49.0798767826634
20
0.927559244788569
30
0
41
1
10
49.0653372424907
20
0.928367164490993
30
0
41
1
10
49.0583033364238
20
0.928842342238113
30
0
41
1
10
49.0447042872115
20
0.929934325180511
30
0
41
1
10
49.0381169957132
20
0.930553555323087
30
0
41
1
10
49.0255280315976
20
0.931929734999244
30
0
41
1
10
49.0137082083802
20
0.933422092719042
30
0
41
1
10
49.0033718666812
20
0.935138727164116
30
0
41
1
10
48.9937885444482
20
0.936969301862177
30
0
41
1
10
48.9893638003185
20
0.937945126258313
30
0
41
1
10
48.9854049473883
20
0.938963278566661
30
0
0
SPLINE
5
152
100
AcDbEntity
8
1
62
256
6
ByLayer
370
18
48
1
60
0
100
AcDbSpline
70
4
71
3
72
32
73
28
40
0
40
0
40
0
40
0
40
0.124999999999918
40
0.124999999999918
40
0.187499999999915
40
0.187499999999915
40
0.249999999999913
40
0.312499999999911
40
0.312499999999911
40
0.374999999999908
40
0.374999999999908
40
0.437499999999906
40
0.437499999999906
40
0.499999999999904
40
0.499999999999904
40
0.625000000000009
40
0.625000000000009
40
0.687500000000007
40
0.687500000000007
40
0.750000000000006
40
0.750000000000006
40
0.812500000000004
40
0.812500000000004
40
0.875000000000003
40
0.937500000000001
40
0.937500000000001
40
1
40
1
40
1
40
1
41
1
10
50.5477895284835
20
0.950145094957037
30
0
41
1
10
50.5398111944273
20
0.948002121590918
30
0
41
1
10
50.5302285092492
20
0.946050371333996
30
0
41
1
10
50.5135185378145
20
0.943400601005322
30
0
41
1
10
50.5075070099375
20
0.942559148025424
30
0
41
1
10
50.4949781031379
20
0.941014152347492
30
0
41
1
10
50.4819179814193
20
0.93959971882984
30
0
41
1
10
50.4678151447903
20
0.938441387083458
30
0
41
1
10
50.4531736326178
20
0.937415282398973
30
0
41
1
10
50.4456445461878
20
0.936973721292219
30
0
41
1
10
50.43046728717
20
0.936246833488525
30
0
41
1
10
50.4227763550421
20
0.935958422338132
30
0
41
1
10
50.4071893217305
20
0.935532047757562
30
0
41
1
10
50.3992380567158
20
0.935393846401979
30
0
41
1
10
50.3754826376293
20
0.935219395722015
30
0
41
1
10
50.3599283405563
20
0.935415316968033
30
0
41
1
10
50.3370193415963
20
0.936176062009793
30
0
41
1
10
50.3294549764343
20
0.936510072694034
30
0
41
1
10
50.3149158132565
20
0.937317265126779
30
0
41
1
10
50.3078821764861
20
0.937792012680404
30
0
41
1
10
50.2942838146099
20
0.938882999507086
30
0
41
1
10
50.2876968842999
20
0.939501668153838
30
0
41
1
10
50.2751090581625
20
0.940876557952862
30
0
41
1
10
50.2632904738292
20
0.942367507215295
30
0
41
1
10
50.2529555349824
20
0.944082500130833
30
0
41
1
10
50.2433736836023
20
0.945911312819703
30
0
41
1
10
50.2389497537228
20
0.946886184349268
30
0
41
1
10
50.2349917438714
20
0.947903327153426
30
0
0
SPLINE
5
153
100
AcDbEntity
8
1
62
256
6
ByLayer
370
18
48
1
60
0
100
AcDbSpline
70
4
71
3
72
8
73
4
40
0
40
0
40
0
40
0
40
1
40
1
40
1
40
1
41
1
10
50.7257172406248
20
0.998065510775774
30
0
41
1
10
50.6664212758586
20
0.982055441758831
30
0
41
1
10
50.6071129748766
20
0.966079319409232
30
0
41
1
10
50.5477895284835
20
0.950145094957037
30
0
0
SPLINE
5
154
100
AcDbEntity
8
1
62
256
6
ByLayer
370
18
48
1
60
0
100
AcDbSpline
70
4
71
3
72
8
73
4
40
0
40
0
40
0
40
0
40
1
40
1
40
1
40
1
41
1
10
51.4740543084149
20
0.95954125526643
30
0
41
1
10
51.2246255755354
20
0.972344500086734
30
0
41
1
10
50.9751786974737
20
0.985187668748466
30
0
41
1
10
50.7257172406248
20
0.998065510775774
30
0
0
SPLINE
5
155
100
AcDbEntity
8
1
62
256
6
ByLayer
370
18
48
1
60
0
100
AcDbSpline
70
4
71
3
72
8
73
4
40
0
40
0
40
0
40
0
40
1
40
1
40
1
40
1
41
1
10
51.4845779960905
20
0.956838371059263
30
0
41
1
10
51.4810701779488
20
0.957739178156828
30
0
41
1
10
51.4775622816921
20
0.958640140081087
30
0
41
1
10
51.4740543084158
20
0.959541255266345
30
0
0
SPLINE
5
156
100
AcDbEntity
8
1
62
256
6
ByLayer
370
18
48
1
60
0
100
AcDbSpline
70
4
71
3
72
28
73
24
40
0
40
0
40
0
40
0
40
0.0624999999999979
40
0.0624999999999979
40
0.124999999999996
40
0.124999999999996
40
0.249999999999994
40
0.249999999999994
40
0.312499999999993
40
0.312499999999993
40
0.374999999999993
40
0.374999999999993
40
0.499999999999991
40
0.499999999999991
40
0.62499999999999
40
0.62499999999999
40
0.687499999999992
40
0.687499999999992
40
0.749999999999993
40
0.749999999999993
40
0.874999999999997
40
0.874999999999997
40
1
40
1
40
1
40
1
41
1
10
51.7146393463504
20
0.947204203292046
30
0
41
1
10
51.7095894851824
20
0.94682569102136
30
0
41
1
10
51.7043834904252
20
0.946478083469685
30
0
41
1
10
51.6938979081236
20
0.945860952976318
30
0
41
1
10
51.6886038755582
20
0.945589947741439
30
0
41
1
10
51.6725713567828
20
0.944887166348337
30
0
41
1
10
51.6616837230986
20
0.944564688266468
30
0
41
1
10
51.6450435526549
20
0.944307163971388
30
0
41
1
10
51.6394631046794
20
0.94425998921065
30
0
41
1
10
51.628426139352
20
0.944243298912426
30
0
41
1
10
51.6229424327865
20
0.944273298603207
30
0
41
1
10
51.606594186924
20
0.944476742206291
30
0
41
1
10
51.5958065322881
20
0.944763690581709
30
0
41
1
10
51.5746205997038
20
0.945648589236811
30
0
41
1
10
51.5645027032919
20
0.946234061824839
30
0
41
1
10
51.5500116954349
20
0.94731891314143
30
0
41
1
10
51.5452964084537
20
0.947715194703221
30
0
41
1
10
51.5361002958933
20
0.948578434595987
30
0
41
1
10
51.5315986375611
20
0.949048058358585
30
0
41
1
10
51.5186906131257
20
0.950539721480851
30
0
41
1
10
51.5108290959378
20
0.951646276615833
30
0
41
1
10
51.4965608301083
20
0.954078927173384
30
0
41
1
10
51.490122520548
20
0.955414538128849
30
0
41
1
10
51.4845779960904
20
0.956838371059263
30
0
0
SPLINE
5
157
100
AcDbEntity
8
1
62
256
6
ByLayer
370
18
48
1
60
0
100
AcDbSpline
70
4
71
3
72
8
73
4
40
0
40
0
40
0
40
0
40
1
40
1
40
1
40
1
41
1
10
51.9999999999999
20
0.932603731657309
30
0
41
1
10
51.9048827998926
20
0.937464337371836
30
0
41
1
10
51.8097624958759
20
0.942331251195156
30
0
41
1
10
51.7146393463504
20
0.947204203292046
30
0
0
SPLINE
5
158
100
AcDbEntity
8
1
62
256
6
ByLayer
370
18
48
1
60
0
100
AcDbSpline
70
4
71
3
72
44
73
40
40
0
40
0
40
0
40
0
40
0.0241902398617123
40
0.0241902398617123
40
0.0483804797234245
40
0.0483804797234245
40
0.0967609594468497
40
0.0967609594468497
40
0.145141439170275
40
0.145141439170275
40
0.193521918893701
40
0.193521918893701
40
0.290282878340552
40
0.290282878340552
40
0.387043837787403
40
0.387043837787403
40
0.411234077649116
40
0.411234077649116
40
0.435424317510828
40
0.483804797234254
40
0.483804797234254
40
0.580565756681107
40
0.580565756681107
40
0.628946236404533
40
0.628946236404533
40
0.653136476266246
40
0.653136476266246
40
0.677326716127959
40
0.677326716127959
40
0.774087675574811
40
0.774087675574811
40
0.870848635021663
40
0.870848635021663
40
0.895038874883376
40
0.895038874883376
40
0.919229114745089
40
0.967609594468514
40
0.967609594468514
40
1
40
1
40
1
40
1
41
1
10
52
20
4.239817190683
30
0
41
1
10
52
20
4.20757337857921
30
0
41
1
10
52
20
4.17529710958681
30
0
41
1
10
52
20
4.11058416031841
30
0
41
1
10
52
20
4.07815492283126
30
0
41
1
10
52
20
3.98067601858779
30
0
41
1
10
52
20
3.91543649615468
30
0
41
1
10
52
20
3.78443099950726
30
0
41
1
10
52
20
3.71866380140045
30
0
41
1
10
52
20
3.58658631426081
30
0
41
1
10
52
20
3.52095233940059
30
0
41
1
10
52
20
3.32549211929995
30
0
41
1
10
52.0000000000001
20
3.19697279948844
30
0
41
1
10
52.0000000000001
20
2.9434980866649
30
0
41
1
10
52
20
2.8185627953867
30
0
41
1
10
52
20
2.66469104763721
30
0
41
1
10
52
20
2.63405777543642
30
0
41
1
10
52
20
2.57347430832118
30
0
41
1
10
52
20
2.48345685408097
30
0
41
1
10
52
20
2.39598183711811
30
0
41
1
10
52
20
2.22441147694928
30
0
41
1
10
52
20
2.11454616759195
30
0
41
1
10
52
20
1.95639759826719
30
0
41
1
10
52
20
1.90479553791337
30
0
41
1
10
52
20
1.82911248420837
30
0
41
1
10
52
20
1.80413900361773
30
0
41
1
10
52
20
1.75512789807047
30
0
41
1
10
52
20
1.73105250214726
30
0
41
1
10
52
20
1.61281944532826
30
0
41
1
10
52
20
1.52507296293334
30
0
41
1
10
52
20
1.36260666670268
30
0
41
1
10
52
20
1.28788122696619
30
0
41
1
10
52
20
1.20307278150523
30
0
41
1
10
52
20
1.18651546391658
30
0
41
1
10
52.0000000000001
20
1.15442814265711
30
0
41
1
10
52
20
1.10787397020044
30
0
41
1
10
52
20
1.06593980982876
30
0
41
1
10
52
20
1.02261200154058
30
0
41
1
10
52
20
1.00612988028507
30
0
41
1
10
52
20
0.990548190715259
30
0
0
SPLINE
5
159
100
AcDbEntity
8
1
62
256
6
ByLayer
370
18
48
1
60
0
100
AcDbSpline
70
4
71
3
72
10
73
6
40
0
40
0
40
0
40
0
40
0.5
40
0.5
40
1
40
1
40
1
40
1
41
1
10
51.5560812109532
20
4.41021353749733
30
0
41
1
10
51.6300697556129
20
4.3818275324945
30
0
41
1
10
51.7040568347626
20
4.35343519430623
30
0
41
1
10
51.8520289158769
20
4.29663691326434
30
0
41
1
10
51.9260120002697
20
4.26823169199744
30
0
41
1
10
51.9999999999997
20
4.23981719068311
30
0
0
SPLINE
5
15A
100
AcDbEntity
8
1
62
256
6
ByLayer
370
18
48
1
60
0
100
AcDbSpline
70
4
71
3
72
8
73
4
40
0
40
0
40
0
40
0
40
1
40
1
40
1
40
1
41
1
10
51.5298815058995
20
4.36544668396942
30
0
41
1
10
51.5386150374095
20
4.38036965910084
30
0
41
1
10
51.5473482558158
20
4.39529188776208
30
0
41
1
10
51.5560812109532
20
4.4102135374973
30
0
0
SPLINE
5
15B
100
AcDbEntity
8
1
62
256
6
ByLayer
370
18
48
1
60
0
100
AcDbSpline
70
4
71
3
72
32
73
28
40
0
40
0
40
0
40
0
40
0.125000000000001
40
0.125000000000001
40
0.187500000000001
40
0.187500000000001
40
0.250000000000001
40
0.312500000000002
40
0.312500000000002
40
0.375000000000002
40
0.375000000000002
40
0.437500000000002
40
0.437500000000002
40
0.500000000000003
40
0.500000000000003
40
0.625000000000003
40
0.625000000000003
40
0.687500000000003
40
0.687500000000003
40
0.750000000000002
40
0.750000000000002
40
0.812500000000002
40
0.812500000000002
40
0.875000000000001
40
0.937500000000001
40
0.937500000000001
40
1
40
1
40
1
40
1
41
1
10
51.2169923217679
20
4.36538906930872
30
0
41
1
10
51.2248326941568
20
4.35166624554873
30
0
41
1
10
51.2343022406251
20
4.33924693328871
30
0
41
1
10
51.2509043138561
20
4.32253685396367
30
0
41
1
10
51.2568891334892
20
4.31726087103709
30
0
41
1
10
51.2693727683626
20
4.30765080083603
30
0
41
1
10
51.2824072251597
20
4.29892522486509
30
0
41
1
10
51.2965269618674
20
4.29194257766574
30
0
41
1
10
51.3112097753341
20
4.28586432324758
30
0
41
1
10
51.3187396684951
20
4.28332137805259
30
0
41
1
10
51.3339522647922
20
4.27926991613253
30
0
41
1
10
51.3416681732373
20
4.27774747696131
30
0
41
1
10
51.3573202892718
20
4.27571419245911
30
0
41
1
10
51.3653174123365
20
4.2752060184111
30
0
41
1
10
51.3891041316728
20
4.27526979556714
30
0
41
1
10
51.4047007847538
20
4.27736145849681
30
0
41
1
10
51.4277041139793
20
4.28357174915843
30
0
41
1
10
51.4352462979066
20
4.28615193848279
30
0
41
1
10
51.4497789454288
20
4.29219781113974
30
0
41
1
10
51.4568171849089
20
4.29567573345221
30
0
41
1
10
51.470439099973
20
4.30353824798081
30
0
41
1
10
51.4770659345564
20
4.30795755429878
30
0
41
1
10
51.4896152197715
20
4.31756520861521
30
0
41
1
10
51.5014242832927
20
4.3278928123743
30
0
41
1
10
51.5117982675284
20
4.33961599510269
30
0
41
1
10
51.521440510806
20
4.35205069309444
30
0
41
1
10
51.525889696552
20
4.35862588398095
30
0
41
1
10
51.5298815058995
20
4.36544668396942
30
0
0
SPLINE
5
15C
100
AcDbEntity
8
1
62
256
6
ByLayer
370
18
48
1
60
0
100
AcDbSpline
70
4
71
3
72
8
73
4
40
0
40
0
40
0
40
0
40
1
40
1
40
1
40
1
41
1
10
51.0888965502011
20
4.58936281479561
30
0
41
1
10
51.1316247803294
20
4.51472931741938
30
0
41
1
10
51.174320291162
20
4.44007694463355
30
0
41
1
10
51.2169923217679
20
4.36538906930872
30
0
0
SPLINE
5
15D
100
AcDbEntity
8
1
62
256
6
ByLayer
370
18
48
1
60
0
100
AcDbSpline
70
4
71
3
72
8
73
4
40
0
40
0
40
0
40
0
40
1
40
1
40
1
40
1
41
1
10
50.5351325236358
20
4.80150605350048
30
0
41
1
10
50.7197324155622
20
4.73082081068742
30
0
41
1
10
50.9043211211044
20
4.66010789265246
30
0
41
1
10
51.0888965502011
20
4.58936281479561
30
0
0
SPLINE
5
15E
100
AcDbEntity
8
1
62
256
6
ByLayer
370
18
48
1
60
0
100
AcDbSpline
70
4
71
3
72
10
73
6
40
0
40
0
40
0
40
0
40
0.94195881832411
40
0.94195881832411
40
1
40
1
40
1
40
1
41
1
10
50.3489150039649
20
4.48330480214187
30
0
41
1
10
50.4073906786465
20
4.58321812540916
30
0
41
1
10
50.4658593587635
20
4.683124350345
30
0
41
1
10
50.5279275484047
20
4.78919330171658
30
0
41
1
10
50.5315300438534
20
4.79534967508641
30
0
41
1
10
50.5351325236358
20
4.8015060535005
30
0
0
SPLINE
5
15F
100
AcDbEntity
8
1
62
256
6
ByLayer
370
18
48
1
60
0
100
AcDbSpline
70
4
71
3
72
8
73
4
40
0
40
0
40
0
40
0
40
1
40
1
40
1
40
1
41
1
10
50.2799299272522
20
4.36543390103267
30
0
41
1
10
50.3029267800543
20
4.40472808454544
30
0
41
1
10
50.3259215438349
20
4.44401747186856
30
0
41
1
10
50.3489150039649
20
4.48330480214187
30
0
0
SPLINE
5
160
100
AcDbEntity
8
1
62
256
6
ByLayer
370
18
48
1
60
0
100
AcDbSpline
70
4
71
3
72
29
73
25
40
0
40
0
40
0
40
0
40
0.125000000000143
40
0.125000000000143
40
0.187500000000178
40
0.187500000000178
40
0.250000000000214
40
0.312500000000249
40
0.312500000000249
40
0.375000000000284
40
0.375000000000284
40
0.43750000000032
40
0.43750000000032
40
0.500000000000355
40
0.500000000000355
40
0.625000000000317
40
0.625000000000317
40
0.687500000000297
40
0.687500000000297
40
0.750000000000277
40
0.750000000000277
40
0.875000000000138
40
0.875000000000138
40
1
40
1
40
1
40
1
41
1
10
49.9670435495651
20
4.3653906330033
30
0
41
1
10
49.9748785413645
20
4.35167732771359
30
0
41
1
10
49.9843403874951
20
4.33926572894595
30
0
41
1
10
50.0009272776198
20
4.3225643631153
30
0
41
1
10
50.006906489023
20
4.3172906554241
30
0
41
1
10
50.0193789650737
20
4.307683236164
30
0
41
1
10
50.0324014509873
20
4.29895902524331
30
0
41
1
10
50.0465076949149
20
4.29197532504304
30
0
41
1
10
50.0611760110872
20
4.28589441270489
30
0
41
1
10
50.0687005926177
20
4.28334857738705
30
0
41
1
10
50.0839006632114
20
4.27929074925851
30
0
41
1
10
50.0916101555814
20
4.27776446007044
30
0
41
1
10
50.1072490787735
20
4.27572189047766
30
0
41
1
10
50.1152242299227
20
4.27520743660099
30
0
41
1
10
50.1390880092621
20
4.27525467545098
30
0
41
1
10
50.1550095052455
20
4.27741670276222
30
0
41
1
10
50.1777727261625
20
4.28357472022651
30
0
41
1
10
50.1852135577902
20
4.28611338119359
30
0
41
1
10
50.1997978857187
20
4.29217423783524
30
0
41
1
10
50.2069663841011
20
4.2957188433077
30
0
41
1
10
50.2274182329813
20
4.30754082289658
30
0
41
1
10
50.2398661437804
20
4.31705159354587
30
0
41
1
10
50.2623445750028
20
4.33939175527843
30
0
41
1
10
50.2719514323884
20
4.35180123381363
30
0
41
1
10
50.2799299272522
20
4.36543390103267
30
0
0
SPLINE
5
161
100
AcDbEntity
8
1
62
256
6
ByLayer
370
18
48
1
60
0
100
AcDbSpline
70
4
71
3
72
8
73
4
40
0
40
0
40
0
40
0
40
1
40
1
40
1
40
1
41
1
10
49.8131432574308
20
4.63442526713428
30
0
41
1
10
49.8644880616952
20
4.5447784727493
30
0
41
1
10
49.9157833937335
20
4.45510944625687
30
0
41
1
10
49.967043549565
20
4.36539063300006
30
0
0
SPLINE
5
162
100
AcDbEntity
8
1
62
256
6
ByLayer
370
18
48
1
60
0
100
AcDbSpline
70
4
71
3
72
10
73
6
40
0
40
0
40
0
40
0
40
0.424925811455536
40
0.424925811455536
40
1
40
1
40
1
40
1
41
1
10
49.5585347566998
20
5.07817585810307
30
0
41
1
10
49.5946413707623
20
5.01534807582252
30
0
41
1
10
49.630731340929
20
4.95251001463782
30
0
41
1
10
49.7156198179904
20
4.80460313670861
30
0
41
1
10
49.7644026485303
20
4.71952518805813
30
0
41
1
10
49.8131432574309
20
4.63442526713428
30
0
0
SPLINE
5
163
100
AcDbEntity
8
1
62
256
6
ByLayer
370
18
48
1
60
0
100
AcDbSpline
70
4
71
3
72
12
73
8
40
0
40
0
40
0
40
0
40
0.273596309677567
40
0.273596309677567
40
0.547192472224976
40
0.547192472224976
40
1
40
1
40
1
40
1
41
1
10
49.0299804783312
20
4.36544910182951
30
0
41
1
10
49.0680268748902
20
4.43045910510793
30
0
41
1
10
49.1060679324057
20
4.49545674453921
30
0
41
1
10
49.182145808985
20
4.62545082427434
30
0
41
1
10
49.2201829304412
20
4.69044876446523
30
0
41
1
10
49.3211682491884
20
4.86302281380341
30
0
41
1
10
49.3841133817256
20
4.97059909214025
30
0
41
1
10
49.4470541975802
20
5.07817349332331
30
0
0
SPLINE
5
164
100
AcDbEntity
8
1
62
256
6
ByLayer
370
18
48
1
60
0
100
AcDbSpline
70
4
71
3
72
32
73
28
40
0
40
0
40
0
40
0
40
0.124999999999996
40
0.124999999999996
40
0.187499999999996
40
0.187499999999996
40
0.249999999999996
40
0.312499999999997
40
0.312499999999997
40
0.374999999999997
40
0.374999999999997
40
0.437499999999997
40
0.437499999999997
40
0.499999999999997
40
0.499999999999997
40
0.624999999999998
40
0.624999999999998
40
0.687499999999998
40
0.687499999999998
40
0.749999999999999
40
0.749999999999999
40
0.812499999999999
40
0.812499999999999
40
0.874999999999999
40
0.9375
40
0.9375
40
1
40
1
40
1
40
1
41
1
10
48.7170890304228
20
4.36539202382903
30
0
41
1
10
48.7249297519652
20
4.35166935393406
30
0
41
1
10
48.7343995781519
20
4.33925028408646
30
0
41
1
10
48.7510019129141
20
4.3225406056124
30
0
41
1
10
48.7569868012894
20
4.31726475439476
30
0
41
1
10
48.7694705751858
20
4.3076549013139
30
0
41
1
10
48.7825051272494
20
4.29892953586898
30
0
41
1
10
48.7966248707033
20
4.29194706289977
30
0
41
1
10
48.8113076431743
20
4.28586895153126
30
0
41
1
10
48.8188376287465
20
4.28332601405268
30
0
41
1
10
48.8340502710648
20
4.27927458719651
30
0
41
1
10
48.8417661843339
20
4.27775215304951
30
0
41
1
10
48.8574182717978
20
4.27571884080947
30
0
41
1
10
48.8654153636579
20
4.27521062816919
30
0
41
1
10
48.8892022803842
20
4.27527424514145
30
0
41
1
10
48.9047989795538
20
4.27736576190449
30
0
41
1
10
48.9278022634438
20
4.28357568413645
30
0
41
1
10
48.9353445915082
20
4.2861557854429
30
0
41
1
10
48.9498773742808
20
4.29220143720073
30
0
41
1
10
48.9569156601647
20
4.29567923736752
30
0
41
1
10
48.9705376333464
20
4.3035414778189
30
0
41
1
10
48.9771644584919
20
4.30796060925167
30
0
41
1
10
48.9897139444474
20
4.31756809952466
30
0
41
1
10
49.0015231543292
20
4.3278955369463
30
0
41
1
10
49.0118971931423
20
4.33961855429942
30
0
41
1
10
49.0215394468481
20
4.35205309357269
30
0
41
1
10
49.0259886674387
20
4.35862828139233
30
0
41
1
10
49.0299804783312
20
4.36544910182948
30
0
0
SPLINE
5
165
100
AcDbEntity
8
1
62
256
6
ByLayer
370
18
48
1
60
0
100
AcDbSpline
70
4
71
3
72
10
73
6
40
0
40
0
40
0
40
0
40
0.5
40
0.5
40
1
40
1
40
1
40
1
41
1
10
48.3085790422935
20
5.07814927823361
30
0
41
1
10
48.3768022776709
20
4.9594397484492
30
0
41
1
10
48.4449674031762
20
4.84069320413238
30
0
41
1
10
48.5811468951182
20
4.60311586742017
30
0
41
1
10
48.6491517114944
20
4.48429452485036
30
0
41
1
10
48.7170890304228
20
4.36539202382903
30
0
0
SPLINE
5
166
100
AcDbEntity
8
1
62
256
6
ByLayer
370
18
48
1
60
0
100
AcDbSpline
70
4
71
3
72
12
73
8
40
0
40
0
40
0
40
0
40
0.273585803607766
40
0.273585803607766
40
0.547171481642259
40
0.547171481642259
40
1
40
1
40
1
40
1
41
1
10
47.7800295032141
20
4.36537619064816
30
0
41
1
10
47.8180763942847
20
4.43038600650812
30
0
41
1
10
47.8561176947197
20
4.4953843795451
30
0
41
1
10
47.9321955403188
20
4.62538147692885
30
0
41
1
10
47.9702323399456
20
4.69038149946707
30
0
41
1
10
48.0712211032979
20
4.86297010056958
30
0
41
1
10
48.1341694206537
20
4.97055918447376
30
0
41
1
10
48.1971126997692
20
5.07814690100705
30
0
0
SPLINE
5
167
100
AcDbEntity
8
1
62
256
6
ByLayer
370
18
48
1
60
0
100
AcDbSpline
70
4
71
3
72
32
73
28
40
0
40
0
40
0
40
0
40
0.125000000000013
40
0.125000000000013
40
0.187499999999981
40
0.187499999999981
40
0.24999999999995
40
0.312499999999918
40
0.312499999999918
40
0.374999999999886
40
0.374999999999886
40
0.437499999999854
40
0.437499999999854
40
0.499999999999822
40
0.499999999999822
40
0.624999999999868
40
0.624999999999868
40
0.68749999999989
40
0.68749999999989
40
0.749999999999912
40
0.749999999999912
40
0.812499999999934
40
0.812499999999934
40
0.874999999999956
40
0.937499999999978
40
0.937499999999978
40
1
40
1
40
1
40
1
41
1
10
47.4671408840527
20
4.36532330571151
30
0
41
1
10
47.4749819314917
20
4.35160119203877
30
0
41
1
10
47.4844520114221
20
4.33918276800387
30
0
41
1
10
47.5010544659009
20
4.32247404279312
30
0
41
1
10
47.5070393550327
20
4.31719850161488
30
0
41
1
10
47.5195230940366
20
4.30758917556525
30
0
41
1
10
47.5325575312299
20
4.29886428543298
30
0
41
1
10
47.5466769823095
20
4.29188214449258
30
0
41
1
10
47.5613593596898
20
4.28580426925203
30
0
41
1
10
47.5688892331253
20
4.28326135218305
30
0
41
1
10
47.5841015147969
20
4.27920990102481
30
0
41
1
10
47.5918172223626
20
4.27768740337245
30
0
41
1
10
47.6074688459486
20
4.27565385182828
30
0
41
1
10
47.6154656773223
20
4.27514545450322
30
0
41
1
10
47.6392522186252
20
4.27520838346683
30
0
41
1
10
47.6548486102513
20
4.27729929480577
30
0
41
1
10
47.677851352455
20
4.28350805420655
30
0
41
1
10
47.6853937825345
20
4.28608782542011
30
0
41
1
10
47.6999265394204
20
4.29213275523156
30
0
41
1
10
47.7069647894184
20
4.29561018045172
30
0
41
1
10
47.720586651731
20
4.30347163408715
30
0
41
1
10
47.7272133642232
20
4.30789031192978
30
0
41
1
10
47.7397630471104
20
4.31749725152068
30
0
41
1
10
47.7515723597045
20
4.32782413903669
30
0
41
1
10
47.7619463523013
20
4.33954658413441
30
0
41
1
10
47.7715884989983
20
4.3519805292444
30
0
41
1
10
47.776037726317
20
4.35855553661486
30
0
41
1
10
47.7800295032141
20
4.36537619064816
30
0
0
SPLINE
5
168
100
AcDbEntity
8
1
62
256
6
ByLayer
370
18
48
1
60
0
100
AcDbSpline
70
4
71
3
72
10
73
6
40
0
40
0
40
0
40
0
40
0.5
40
0.5
40
1
40
1
40
1
40
1
41
1
10
47.058574917562
20
5.07812255483449
30
0
41
1
10
47.1268070400365
20
4.95940550057944
30
0
41
1
10
47.1949812522734
20
4.84065165516867
30
0
41
1
10
47.3311799588745
20
4.6030596594623
30
0
41
1
10
47.3991950796998
20
4.48423089531099
30
0
41
1
10
47.4671408840527
20
4.36532330571151
30
0
0
SPLINE
5
169
100
AcDbEntity
8
1
62
256
6
ByLayer
370
18
48
1
60
0
100
AcDbSpline
70
4
71
3
72
12
73
8
40
0
40
0
40
0
40
0
40
0.273615889439727
40
0.273615889439727
40
0.547231673333537
40
0.547231673333537
40
1
40
1
40
1
40
1
41
1
10
46.5300794181454
20
4.36544347233533
30
0
41
1
10
46.5681296602598
20
4.4304515326557
30
0
41
1
10
46.6061749160849
20
4.49544857843406
30
0
41
1
10
46.6822616790642
20
4.62544371956398
30
0
41
1
10
46.7203033665741
20
4.69044281240929
30
0
41
1
10
46.8212905750522
20
4.8630017905171
30
0
41
1
10
46.8842330260562
20
4.97056182642714
30
0
41
1
10
46.9471712159285
20
5.07812016628952
30
0
0
SPLINE
5
16A
100
AcDbEntity
8
1
62
256
6
ByLayer
370
18
48
1
60
0
100
AcDbSpline
70
4
71
3
72
32
73
28
40
0
40
0
40
0
40
0
40
0.124999999999989
40
0.124999999999989
40
0.187499999999981
40
0.187499999999981
40
0.249999999999973
40
0.312499999999965
40
0.312499999999965
40
0.374999999999957
40
0.374999999999957
40
0.437499999999949
40
0.437499999999949
40
0.499999999999941
40
0.499999999999941
40
0.625000000000035
40
0.625000000000035
40
0.687500000000029
40
0.687500000000029
40
0.750000000000023
40
0.750000000000023
40
0.812500000000017
40
0.812500000000017
40
0.875000000000012
40
0.937500000000006
40
0.937500000000006
40
1
40
1
40
1
40
1
41
1
10
46.2171839808274
20
4.36540762546949
30
0
41
1
10
46.2250253304088
20
4.35168563966849
30
0
41
1
10
46.2344956545924
20
4.3392674073948
30
0
41
1
10
46.2510982248584
20
4.32255890796381
30
0
41
1
10
46.257083119498
20
4.31728341954039
30
0
41
1
10
46.2695668729309
20
4.3076740782426
30
0
41
1
10
46.2826012571278
20
4.29894911416721
30
0
41
1
10
46.2967204990896
20
4.29196673697467
30
0
41
1
10
46.3114025715961
20
4.28588851313145
30
0
41
1
10
46.31893246111
20
4.28334529168677
30
0
41
1
10
46.3341445947021
20
4.27929319215932
30
0
41
1
10
46.3418602099033
20
4.27777031766263
30
0
41
1
10
46.357511607778
20
4.27573588519928
30
0
41
1
10
46.365508302975
20
4.27522696901283
30
0
41
1
10
46.3892950832171
20
4.27528820259857
30
0
41
1
10
46.4048916094818
20
4.27737784362625
30
0
41
1
10
46.427894532061
20
4.28358437528448
30
0
41
1
10
46.4354374439467
20
4.28616349548591
30
0
41
1
10
46.4499708686014
20
4.29220706158472
30
0
41
1
10
46.4570094358291
20
4.2956837964114
30
0
41
1
10
46.4706319078221
20
4.30354383955981
30
0
41
1
10
46.477258857929
20
4.30796173319598
30
0
41
1
10
46.4898096690719
20
4.31756767570454
30
0
41
1
10
46.5016199493762
20
4.32789364017796
30
0
41
1
10
46.5119947708725
20
4.33961514644963
30
0
41
1
10
46.5216376130206
20
4.35204821008867
30
0
41
1
10
46.5260872835348
20
4.35862299201375
30
0
41
1
10
46.5300794181454
20
4.3654434723353
30
0
0
SPLINE
5
16B
100
AcDbEntity
8
1
62
256
6
ByLayer
370
18
48
1
60
0
100
AcDbSpline
70
4
71
3
72
10
73
6
40
0
40
0
40
0
40
0
40
0.5
40
0.5
40
1
40
1
40
1
40
1
41
1
10
45.8086601090064
20
5.07809569179358
30
0
41
1
10
45.8768851995013
20
4.95939690449251
30
0
41
1
10
45.945052357036
20
4.84066144071275
30
0
41
1
10
46.0812375385629
20
4.60310590286781
30
0
41
1
10
46.1492464355875
20
4.48429507226169
30
0
41
1
10
46.2171839808274
20
4.36540762546949
30
0
0
SPLINE
5
16C
100
AcDbEntity
8
1
62
256
6
ByLayer
370
18
48
1
60
0
100
AcDbSpline
70
4
71
3
72
12
73
8
40
0
40
0
40
0
40
0
40
0.273622678480124
40
0.273622678480124
40
0.547245269036507
40
0.547245269036507
40
1
40
1
40
1
40
1
41
1
10
45.2801277875571
20
4.36541122805761
30
0
41
1
10
45.3181776200013
20
4.43041977302491
30
0
41
1
10
45.3562223291947
20
4.49541813017197
30
0
41
1
10
45.4323076714795
20
4.62541733970718
30
0
41
1
10
45.4703483934489
20
4.69041878101297
30
0
41
1
10
45.5713287916734
20
4.86297808925403
30
0
41
1
10
45.6342649277088
20
4.97053630445896
30
0
41
1
10
45.6971961960136
20
5.07809328937995
30
0
0
SPLINE
5
16D
100
AcDbEntity
8
1
62
256
6
ByLayer
370
18
48
1
60
0
100
AcDbSpline
70
4
71
3
72
32
73
28
40
0
40
0
40
0
40
0
40
0.124999999999956
40
0.124999999999956
40
0.187499999999937
40
0.187499999999937
40
0.249999999999917
40
0.312499999999898
40
0.312499999999898
40
0.374999999999878
40
0.374999999999878
40
0.437499999999859
40
0.437499999999859
40
0.49999999999984
40
0.49999999999984
40
0.624999999999801
40
0.624999999999801
40
0.687499999999834
40
0.687499999999834
40
0.749999999999867
40
0.749999999999867
40
0.8124999999999
40
0.8124999999999
40
0.874999999999934
40
0.937499999999967
40
0.937499999999967
40
1
40
1
40
1
40
1
41
1
10
44.9672393437867
20
4.3653770571843
30
0
41
1
10
44.9750809163729
20
4.35165567787078
30
0
41
1
10
44.9845513520822
20
4.33923809886281
30
0
41
1
10
45.001153821737
20
4.32253054215869
30
0
41
1
10
45.0071386425058
20
4.31725535587185
30
0
41
1
10
45.0196222164559
20
4.30764652810615
30
0
41
1
10
45.0326562930085
20
4.29892194447228
30
0
41
1
10
45.0467751688884
20
4.29193998862124
30
0
41
1
10
45.0614567322812
20
4.28586202183493
30
0
41
1
10
45.0689864581073
20
4.28331883972282
30
0
41
1
10
45.0841981258571
20
4.2792667777083
30
0
41
1
10
45.0919134836137
20
4.27774388167302
30
0
41
1
10
45.1075643162501
20
4.27570931802939
30
0
41
1
10
45.115560702217
20
4.27520028461777
30
0
41
1
10
45.1393469157059
20
4.2752610648175
30
0
41
1
10
45.1549429947264
20
4.27735029509839
30
0
41
1
10
45.1779451484234
20
4.28355600841272
30
0
41
1
10
45.1854880341165
20
4.28613490493095
30
0
41
1
10
45.2000212072683
20
4.29217796967936
30
0
41
1
10
45.2070596252791
20
4.29565444120166
30
0
41
1
10
45.2206817587354
20
4.30351392322461
30
0
41
1
10
45.2273084884555
20
4.30793148616095
30
0
41
1
10
45.2398591853073
20
4.31753703697322
30
0
41
1
10
45.2516693108345
20
4.32786256634969
30
0
41
1
10
45.2620437882596
20
4.33958367026344
30
0
41
1
10
45.2716862760354
20
4.35201626822348
30
0
41
1
10
45.2761358127785
20
4.35859089652809
30
0
41
1
10
45.2801277875571
20
4.36541122805738
30
0
0
SPLINE
5
16E
100
AcDbEntity
8
1
62
256
6
ByLayer
370
18
48
1
60
0
100
AcDbSpline
70
4
71
3
72
10
73
6
40
0
40
0
40
0
40
0
40
0.5
40
0.5
40
1
40
1
40
1
40
1
41
1
10
44.558688111755
20
5.07806868690042
30
0
41
1
10
44.6269169791428
20
4.95936864831228
30
0
41
1
10
44.6950882541383
20
4.84063226125932
30
0
41
1
10
44.8312829965365
20
4.60307499832186
30
0
41
1
10
44.8992976308048
20
4.48426316131466
30
0
41
1
10
44.9672393437867
20
4.3653770571843
30
0
0
SPLINE
5
16F
100
AcDbEntity
8
1
62
256
6
ByLayer
370
18
48
1
60
0
100
AcDbSpline
70
4
71
3
72
12
73
8
40
0
40
0
40
0
40
0
40
0.273508480094099
40
0.273508480094099
40
0.547016887629932
40
0.547016887629932
40
1
40
1
40
1
40
1
41
1
10
44.0301754904997
20
4.36513676930062
30
0
41
1
10
44.0682362735469
20
4.43013942857203
30
0
41
1
10
44.1062919440939
20
4.49513261431596
30
0
41
1
10
44.182399084285
20
4.62512277914186
30
0
41
1
10
44.2204505288792
20
4.69011983654983
30
0
41
1
10
44.321516919655
20
4.86276669565649
30
0
41
1
10
44.384527986195
20
4.97041691596567
30
0
41
1
10
44.4475337425781
20
5.07806627869991
30
0
0
SPLINE
5
170
100
AcDbEntity
8
1
62
256
6
ByLayer
370
18
48
1
60
0
100
AcDbSpline
70
4
71
3
72
32
73
28
40
0
40
0
40
0
40
0
40
0.125000000000019
40
0.125000000000019
40
0.187500000000026
40
0.187500000000026
40
0.250000000000033
40
0.31250000000004
40
0.31250000000004
40
0.375000000000047
40
0.375000000000047
40
0.437500000000054
40
0.437500000000054
40
0.500000000000061
40
0.500000000000061
40
0.624999999999965
40
0.624999999999965
40
0.687499999999971
40
0.687499999999971
40
0.749999999999977
40
0.749999999999977
40
0.812499999999982
40
0.812499999999982
40
0.874999999999988
40
0.937499999999994
40
0.937499999999994
40
1
40
1
40
1
40
1
41
1
10
43.7172846126239
20
4.3651692649878
30
0
41
1
10
43.7251267340444
20
4.35144938709948
30
0
41
1
10
43.73459744568
20
4.33903340159878
30
0
41
1
10
43.7511992290971
20
4.32232778893277
30
0
41
1
10
43.7571836639868
20
4.31705313290496
30
0
41
1
10
43.7696664318311
20
4.30744480962233
30
0
41
1
10
43.7826994525503
20
4.29872049491036
30
0
41
1
10
43.7968164633885
20
4.29173782529483
30
0
41
1
10
43.8114957822077
20
4.28565869564855
30
0
41
1
10
43.8190249872885
20
4.28311438596191
30
0
41
1
10
43.8342349451144
20
4.2790597975295
30
0
41
1
10
43.8419493722838
20
4.27753538311546
30
0
41
1
10
43.8575981784064
20
4.2754972064244
30
0
41
1
10
43.8655934482398
20
4.27498601957214
30
0
41
1
10
43.8893788824732
20
4.27503972039443
30
0
41
1
10
43.9049743916572
20
4.27712358808267
30
0
41
1
10
43.9279756500785
20
4.28332002757483
30
0
41
1
10
43.9355199263166
20
4.2858962072136
30
0
41
1
10
43.9500546919946
20
4.29193361819927
30
0
41
1
10
43.9570938324067
20
4.29540723994427
30
0
41
1
10
43.9707172923644
20
4.303260922997
30
0
41
1
10
43.9773443978711
20
4.30767527802945
30
0
41
1
10
43.9898984319585
20
4.31727667706633
30
0
41
1
10
44.0017113381347
20
4.32759822655564
30
0
41
1
10
44.0120878262863
20
4.33931539125422
30
0
41
1
10
44.0217319288107
20
4.35174407819929
30
0
41
1
10
44.0261826290375
20
4.35831750305414
30
0
41
1
10
44.0301754904997
20
4.36513676930059
30
0
0
SPLINE
5
171
100
AcDbEntity
8
1
62
256
6
ByLayer
370
18
48
1
60
0
100
AcDbSpline
70
4
71
3
72
10
73
6
40
0
40
0
40
0
40
0
40
0.5
40
0.5
40
1
40
1
40
1
40
1
41
1
10
43.3085614773716
20
5.07804153894685
30
0
41
1
10
43.3768182203591
20
4.95931078134055
30
0
41
1
10
43.4450176709359
20
4.84054398480436
30
0
41
1
10
43.5812700697185
20
4.6029260204094
30
0
41
1
10
43.6493145428454
20
4.4840836514685
30
0
41
1
10
43.7172846126239
20
4.3651692649878
30
0
0
SPLINE
5
172
100
AcDbEntity
8
1
62
256
6
ByLayer
370
18
48
1
60
0
100
AcDbSpline
70
4
71
3
72
12
73
8
40
0
40
0
40
0
40
0
40
0.273653645334109
40
0.273653645334109
40
0.547307232217056
40
0.547307232217056
40
1
40
1
40
1
40
1
41
1
10
42.7802250908482
20
4.36541738161768
30
0
41
1
10
42.8182763657494
20
4.43042583111367
30
0
41
1
10
42.8563228198911
20
4.49542540478467
30
0
41
1
10
42.9324120832979
20
4.62542923677233
30
0
41
1
10
42.9704547364449
20
4.69043298539975
30
0
41
1
10
43.0714243951953
20
4.86297112188947
30
0
41
1
10
43.1343477930299
20
4.97050561453517
30
0
41
1
10
43.1972663697855
20
5.07803911530212
30
0
0
SPLINE
5
173
100
AcDbEntity
8
1
62
256
6
ByLayer
370
18
48
1
60
0
100
AcDbSpline
70
4
71
3
72
32
73
28
40
0
40
0
40
0
40
0
40
0.125000000000027
40
0.125000000000027
40
0.187500000000002
40
0.187500000000002
40
0.249999999999977
40
0.312499999999952
40
0.312499999999952
40
0.374999999999928
40
0.374999999999928
40
0.437499999999903
40
0.437499999999903
40
0.499999999999878
40
0.499999999999878
40
0.624999999999828
40
0.624999999999828
40
0.687499999999857
40
0.687499999999857
40
0.749999999999885
40
0.749999999999885
40
0.812499999999914
40
0.812499999999914
40
0.874999999999943
40
0.937499999999971
40
0.937499999999971
40
1
40
1
40
1
40
1
41
1
10
42.4673359909254
20
4.36538821557164
30
0
41
1
10
42.4751781091534
20
4.35166731837987
30
0
41
1
10
42.4846490053177
20
4.33925038479109
30
0
41
1
10
42.5012518610087
20
4.32254384797835
30
0
41
1
10
42.5072367654715
20
4.31726900459236
30
0
41
1
10
42.5197204608708
20
4.3076607770661
30
0
41
1
10
42.5327546147039
20
4.29893683941864
30
0
41
1
10
42.5468732513793
20
4.29195523339669
30
0
41
1
10
42.5615545039108
20
4.2858776033537
30
0
41
1
10
42.569084171232
20
4.28333448279807
30
0
41
1
10
42.5842955560648
20
4.27928247394419
30
0
41
1
10
42.5920107393974
20
4.27775954787438
30
0
41
1
10
42.6076611538052
20
4.275724791702
30
0
41
1
10
42.6156572908982
20
4.27521558571687
30
0
41
1
10
42.6394432293192
20
4.27527567155553
30
0
41
1
10
42.6550390563873
20
4.27736424262986
30
0
41
1
10
42.678040741336
20
4.28356859405412
30
0
41
1
10
42.6855838095187
20
4.28614709299328
30
0
41
1
10
42.7001170960883
20
4.29218927342978
30
0
41
1
10
42.7071555512121
20
4.2956652772904
30
0
41
1
10
42.7207777271146
20
4.30352376626024
30
0
41
1
10
42.7274044117016
20
4.3079407481045
30
0
41
1
10
42.739955581115
20
4.31754559680237
30
0
41
1
10
42.7517660762678
20
4.32787042778207
30
0
41
1
10
42.7621407503738
20
4.33959083139379
30
0
41
1
10
42.7717833550459
20
4.35202272792466
30
0
41
1
10
42.7762330368996
20
4.3585971833937
30
0
41
1
10
42.7802250908482
20
4.36541738161768
30
0
0
SPLINE
5
174
100
AcDbEntity
8
1
62
256
6
ByLayer
370
18
48
1
60
0
100
AcDbSpline
70
4
71
3
72
10
73
6
40
0
40
0
40
0
40
0
40
0.5
40
0.5
40
1
40
1
40
1
40
1
41
1
10
42.1021709407667
20
5.00251991973585
30
0
41
1
10
42.1631439082382
20
4.89639780102198
30
0
41
1
10
42.2240692509093
20
4.79024539081621
30
0
41
1
10
42.3457990098244
20
4.57787296959489
30
0
41
1
10
42.4065972951367
20
4.47165917148692
30
0
41
1
10
42.4673359909254
20
4.36538821557164
30
0
0
SPLINE
5
175
100
AcDbEntity
8
1
62
256
6
ByLayer
370
18
48
1
60
0
100
AcDbSpline
70
4
71
3
72
8
73
4
40
0
40
0
40
0
40
0
40
1
40
1
40
1
40
1
41
1
10
41.8857211009062
20
4.97221350569961
30
0
41
1
10
41.9578709810464
20
4.98231617120652
30
0
41
1
10
42.0300209280212
20
4.99241830626724
30
0
41
1
10
42.1021709407666
20
5.00251991973585
30
0
0
SPLINE
5
176
100
AcDbEntity
8
1
62
256
6
ByLayer
370
18
48
1
60
0
100
AcDbSpline
70
4
71
3
72
12
73
8
40
0
40
0
40
0
40
0
40
0.321126926674041
40
0.321126926674041
40
0.642253797790627
40
0.642253797790627
40
1
40
1
40
1
40
1
41
1
10
41.5302677056637
20
4.36495916492683
30
0
41
1
10
41.5683255027811
20
4.42996442486654
30
0
41
1
10
41.6063783365306
20
4.49496165163015
30
0
41
1
10
41.6824799576833
20
4.62496188680856
30
0
41
1
10
41.7205284944679
20
4.68996394821363
30
0
41
1
10
41.8009596555377
20
4.8273819919209
30
0
41
1
10
41.8433417034454
20
4.89979795713791
30
0
41
1
10
41.8857211009013
20
4.97221350570237
30
0
0
SPLINE
5
177
100
AcDbEntity
8
1
62
256
6
ByLayer
370
18
48
1
60
0
100
AcDbSpline
70
4
71
3
72
32
73
28
40
0
40
0
40
0
40
0
40
0.124999999999961
40
0.124999999999961
40
0.187499999999941
40
0.187499999999941
40
0.249999999999921
40
0.312499999999901
40
0.312499999999901
40
0.374999999999882
40
0.374999999999882
40
0.437499999999862
40
0.437499999999862
40
0.499999999999842
40
0.499999999999842
40
0.624999999999803
40
0.624999999999803
40
0.687499999999836
40
0.687499999999836
40
0.749999999999868
40
0.749999999999868
40
0.812499999999901
40
0.812499999999901
40
0.874999999999934
40
0.937499999999967
40
0.937499999999967
40
1
40
1
40
1
40
1
41
1
10
41.2173741545512
20
4.36496788169526
30
0
41
1
10
41.2252167170219
20
4.35124772769024
30
0
41
1
10
41.2346879283089
20
4.33883164904577
30
0
41
1
10
41.2512906384451
20
4.32212619488482
30
0
41
1
10
41.2572754060593
20
4.3168516556218
30
0
41
1
10
41.2697588005012
20
4.30724373370947
30
0
41
1
10
41.2827924777471
20
4.29851993114218
30
0
41
1
10
41.2969102239578
20
4.29153800709264
30
0
41
1
10
41.31159033155
20
4.28545975623379
30
0
41
1
10
41.3191197554565
20
4.28291601679911
30
0
41
1
10
41.3343302774368
20
4.27886260368291
30
0
41
1
10
41.3420449841353
20
4.27733882637813
30
0
41
1
10
41.3576943466182
20
4.27530203025941
30
0
41
1
10
41.3656898959879
20
4.27479160201423
30
0
41
1
10
41.3894755349554
20
4.27484765214959
30
0
41
1
10
41.4050711353615
20
4.27693314617707
30
0
41
1
10
41.4280724587978
20
4.28313216079761
30
0
41
1
10
41.4356163879284
20
4.28570909708071
30
0
41
1
10
41.4501507068091
20
4.29174802531841
30
0
41
1
10
41.4571896354509
20
4.2952223902154
30
0
41
1
10
41.4708126893702
20
4.30307754735787
30
0
41
1
10
41.4774396443529
20
4.30749268436
30
0
41
1
10
41.4899928737403
20
4.31709518181873
30
0
41
1
10
41.5018051210262
20
4.32741774803856
30
0
41
1
10
41.5121810447786
20
4.33913597068221
30
0
41
1
10
41.5218246833057
20
4.35156569342885
30
0
41
1
10
41.5262750918713
20
4.35813951384162
30
0
41
1
10
41.5302677056637
20
4.36495916492683
30
0
0
SPLINE
5
178
100
AcDbEntity
8
1
62
256
6
ByLayer
370
18
48
1
60
0
100
AcDbSpline
70
4
71
3
72
10
73
6
40
0
40
0
40
0
40
0
40
0.5
40
0.5
40
1
40
1
40
1
40
1
41
1
10
40.9450004027946
20
4.84045932186976
30
0
41
1
10
40.9904627550503
20
4.7612492700159
30
0
41
1
10
41.0358955665206
20
4.68202136149136
30
0
41
1
10
41.1266893603937
20
4.52352748261612
30
0
41
1
10
41.1720478178478
20
4.44426394371217
30
0
41
1
10
41.2173741545512
20
4.36496788169526
30
0
0
SPLINE
5
179
100
AcDbEntity
8
1
62
256
6
ByLayer
370
18
48
1
60
0
100
AcDbSpline
70
4
71
3
72
8
73
4
40
0
40
0
40
0
40
0
40
1
40
1
40
1
40
1
41
1
10
40.5238236143715
20
4.78144967520555
30
0
41
1
10
40.664215592205
20
4.80112176135992
30
0
41
1
10
40.8046078597081
20
4.82079162041467
30
0
41
1
10
40.9450004027946
20
4.84045932186976
30
0
0
SPLINE
5
17A
100
AcDbEntity
8
1
62
256
6
ByLayer
370
18
48
1
60
0
100
AcDbSpline
70
4
71
3
72
12
73
8
40
0
40
0
40
0
40
0
40
0.468751591529792
40
0.468751591529792
40
0.937503119694069
40
0.937503119694069
40
1
40
1
40
1
40
1
41
1
10
40.2803212644936
20
4.36542042466024
30
0
41
1
10
40.3183751272992
20
4.43042842942879
30
0
41
1
10
40.356424357048
20
4.49542908727545
30
0
41
1
10
40.4325191077072
20
4.62543668786321
30
0
41
1
10
40.4705643004127
20
4.69044231663983
30
0
41
1
10
40.5136794619225
20
4.76411557559075
30
0
41
1
10
40.5187515573741
20
4.77278262164364
30
0
41
1
10
40.5238236143617
20
4.78144967521112
30
0
0
SPLINE
5
17B
100
AcDbEntity
8
1
62
256
6
ByLayer
370
18
48
1
60
0
100
AcDbSpline
70
4
71
3
72
32
73
28
40
0
40
0
40
0
40
0
40
0.124999999999902
40
0.124999999999902
40
0.187499999999855
40
0.187499999999855
40
0.249999999999808
40
0.312499999999761
40
0.312499999999761
40
0.374999999999714
40
0.374999999999714
40
0.437499999999667
40
0.437499999999667
40
0.499999999999621
40
0.499999999999621
40
0.624999999999637
40
0.624999999999637
40
0.687499999999697
40
0.687499999999697
40
0.749999999999758
40
0.749999999999758
40
0.812499999999818
40
0.812499999999818
40
0.874999999999879
40
0.937499999999939
40
0.937499999999939
40
1
40
1
40
1
40
1
41
1
10
39.9674338329488
20
4.36539960175557
30
0
41
1
10
39.9752765750074
20
4.351679501002
30
0
41
1
10
39.9847479997905
20
4.33926357444241
30
0
41
1
10
40.0013512380365
20
4.32255859762654
30
0
41
1
10
40.0073362068863
20
4.31728427757042
30
0
41
1
10
40.0198199543242
20
4.3076769763266
30
0
41
1
10
40.032853974364
20
4.29895381790908
30
0
41
1
10
40.0469722776933
20
4.29197295259124
30
0
41
1
10
40.061652966382
20
4.28589583126765
30
0
41
1
10
40.0691824480182
20
4.2833528208989
30
0
41
1
10
40.0843932659083
20
4.27930089785127
30
0
41
1
10
40.0921081215778
20
4.2777779243045
30
0
41
1
10
40.1077577875252
20
4.27574286759608
30
0
41
1
10
40.115753493741
20
4.27523339519834
30
0
41
1
10
40.139538752468
20
4.27529240222941
30
0
41
1
10
40.1551340665393
20
4.27737993535817
30
0
41
1
10
40.1781349039458
20
4.28358217470472
30
0
41
1
10
40.1856781588387
20
4.28616003863584
30
0
41
1
10
40.2002114957806
20
4.29220082125002
30
0
41
1
10
40.2072499576713
20
4.29567608736986
30
0
41
1
10
40.2208721180047
20
4.3035330155729
30
0
41
1
10
40.2274987079828
20
4.3079490945552
30
0
41
1
10
40.2400505000986
20
4.31755278739735
30
0
41
1
10
40.2518614474129
20
4.32787649974216
30
0
41
1
10
40.2622364226778
20
4.33959569815369
30
0
41
1
10
40.2718791915276
20
4.3520264115883
30
0
41
1
10
40.2763290847208
20
4.35860052195991
30
0
41
1
10
40.2803212644936
20
4.36542042466024
30
0
0
SPLINE
5
17C
100
AcDbEntity
8
1
62
256
6
ByLayer
370
18
48
1
60
0
100
AcDbSpline
70
4
71
3
72
8
73
4
40
0
40
0
40
0
40
0
40
1
40
1
40
1
40
1
41
1
10
39.7882791685096
20
4.6783621301206
30
0
41
1
10
39.8480594535644
20
4.57407670359655
30
0
41
1
10
39.9077765332951
20
4.46976414107317
30
0
41
1
10
39.9674338329488
20
4.36539960175557
30
0
0
SPLINE
5
17D
100
AcDbEntity
8
1
62
256
6
ByLayer
370
18
48
1
60
0
100
AcDbSpline
70
4
71
3
72
8
73
4
40
0
40
0
40
0
40
0
40
1
40
1
40
1
40
1
41
1
10
39.1622746894137
20
4.59059216793909
30
0
41
1
10
39.3709421153062
20
4.61985422409578
30
0
41
1
10
39.5796102929082
20
4.64911078423876
30
0
41
1
10
39.7882791685096
20
4.6783621301206
30
0
0
SPLINE
5
17E
100
AcDbEntity
8
1
62
256
6
ByLayer
370
18
48
1
60
0
100
AcDbSpline
70
4
71
3
72
10
73
6
40
0
40
0
40
0
40
0
40
0.865314674907034
40
0.865314674907034
40
1
40
1
40
1
40
1
41
1
10
39.0303650698078
20
4.36521772564913
30
0
41
1
10
39.0684169424676
20
4.43022751194167
30
0
41
1
10
39.1064642387129
20
4.49523077000424
30
0
41
1
10
39.1504313923319
20
4.5703556130712
30
0
41
1
10
39.1563530680879
20
4.58047387091301
30
0
41
1
10
39.1622746894068
20
4.59059216794299
30
0
0
SPLINE
5
17F
100
AcDbEntity
8
1
62
256
6
ByLayer
370
18
48
1
60
0
100
AcDbSpline
70
4
71
3
72
32
73
28
40
0
40
0
40
0
40
0
40
0.124999999999996
40
0.124999999999996
40
0.187499999999996
40
0.187499999999996
40
0.249999999999996
40
0.312499999999997
40
0.312499999999997
40
0.374999999999997
40
0.374999999999997
40
0.437499999999997
40
0.437499999999997
40
0.499999999999998
40
0.499999999999998
40
0.624999999999998
40
0.624999999999998
40
0.687499999999998
40
0.687499999999998
40
0.749999999999999
40
0.749999999999999
40
0.812499999999999
40
0.812499999999999
40
0.874999999999999
40
0.9375
40
0.9375
40
1
40
1
40
1
40
1
41
1
10
38.7174760877275
20
4.365195010771
30
0
41
1
10
38.7253188603369
20
4.35147444822061
30
0
41
1
10
38.7347902699322
20
4.33905803757168
30
0
41
1
10
38.751393483282
20
4.32235233284359
30
0
41
1
10
38.7573784484621
20
4.31707776229243
30
0
41
1
10
38.769862229139
20
4.30746996143387
30
0
41
1
10
38.7828962968447
20
4.29874632369183
30
0
41
1
10
38.7970146922342
20
4.29176503677152
30
0
41
1
10
38.8116955046082
20
4.28568753390638
30
0
41
1
10
38.819225134318
20
4.28314433214763
30
0
41
1
10
38.8344361916991
20
4.27909213038535
30
0
41
1
10
38.8421511712266
20
4.27756905437579
30
0
41
1
10
38.8578010945434
20
4.27553387135112
30
0
41
1
10
38.8657969418835
20
4.27502437377686
30
0
41
1
10
38.8895827059716
20
4.27508344717674
30
0
41
1
10
38.9051782945949
20
4.2771712097865
30
0
41
1
10
38.9281794549794
20
4.2833740415048
30
0
41
1
10
38.9357227910096
20
4.28595214121915
30
0
41
1
10
38.9502562409132
20
4.29199345069833
30
0
41
1
10
38.9572947359514
20
4.295469009436
30
0
41
1
10
38.970916921358
20
4.30332657393302
30
0
41
1
10
38.9775435133296
20
4.30774300982054
30
0
41
1
10
38.9900951529181
20
4.31734734781082
30
0
41
1
10
39.00190596551
20
4.32767169272446
30
0
41
1
10
39.0122807087578
20
4.33939163543317
30
0
41
1
10
39.021923274396
20
4.35182307749557
30
0
41
1
10
39.0263730235391
20
4.35839750744029
30
0
41
1
10
39.0303650698078
20
4.36521772564913
30
0
0
SPLINE
5
180
100
AcDbEntity
8
1
62
256
6
ByLayer
370
18
48
1
60
0
100
AcDbSpline
70
4
71
3
72
8
73
4
40
0
40
0
40
0
40
0
40
1
40
1
40
1
40
1
41
1
10
38.6311570411585
20
4.51609966256555
30
0
41
1
10
38.6599446955667
20
4.4658077659266
30
0
41
1
10
38.6887169165634
20
4.41550783080396
30
0
41
1
10
38.7174760877275
20
4.365195010771
30
0
0
SPLINE
5
181
100
AcDbEntity
8
1
62
256
6
ByLayer
370
18
48
1
60
0
100
AcDbSpline
70
4
71
3
72
10
73
6
40
0
40
0
40
0
40
0
40
0.244134645135829
40
0.244134645135829
40
1
40
1
40
1
40
1
41
1
10
40.8169445298951
20
0.95076622393762
30
0
41
1
10
40.7953189044545
20
0.944866276326195
30
0
41
1
10
40.7736918932714
20
0.93897026772575
30
0
41
1
10
40.6850993808798
20
0.91483733411448
30
0
41
1
10
40.6181211546223
20
0.896637520641036
30
0
41
1
10
40.5511249038775
20
0.878490586533758
30
0
0
SPLINE
5
182
100
AcDbEntity
8
1
62
256
6
ByLayer
370
13
48
1
60
0
100
AcDbSpline
70
4
71
3
72
11
73
7
40
0
40
0
40
0
40
0
40
0.282342710564968
40
0.561458996403968
40
0.840575282242967
40
1
40
1
40
1
40
1
41
1
10
40.5511249038775
20
0.878490586533758
30
0
41
1
10
40.5648511602932
20
0.583428162269485
30
0
41
1
10
40.5921468169813
20
-0.0156909559675285
30
0
41
1
10
40.6330118657993
20
-0.912043366517992
30
0
41
1
10
40.6679011969892
20
-1.64461304730236
30
0
41
1
10
40.6892211245634
20
-2.06191613206835
30
0
41
1
10
40.696971650788
20
-2.2086108857275
30
0
0
SPLINE
5
183
100
AcDbEntity
8
1
62
256
6
ByLayer
370
18
48
1
60
0
100
AcDbSpline
70
4
71
3
72
12
73
8
40
0
40
0
40
0
40
0
40
0.406543201943653
40
0.406543201943653
40
0.813086344195843
40
0.813086344195843
40
1
40
1
40
1
40
1
41
1
10
40.696971650788
20
-2.2086108857275
30
0
41
1
10
40.7350217166897
20
-2.2501802235987
30
0
41
1
10
40.7730670136939
20
-2.29180138955604
30
0
41
1
10
40.8491537929252
20
-2.37502559928708
30
0
41
1
10
40.8871949692286
20
-2.41663554897866
30
0
41
1
10
40.9427229184974
20
-2.47738176752475
30
0
41
1
10
40.9602114023999
20
-2.49651504940837
30
0
41
1
10
40.9776994307282
20
-2.51564972684358
30
0
0
SPLINE
5
184
100
AcDbEntity
8
1
62
256
6
ByLayer
370
18
48
1
60
0
100
AcDbSpline
70
4
71
3
72
10
73
6
40
0
40
0
40
0
40
0
40
0.5
40
0.5
40
1
40
1
40
1
40
1
41
1
10
43.7253678657026
20
-2.66310755372516
30
0
41
1
10
43.7935992581118
20
-2.58696062789448
30
0
41
1
10
43.8617732018459
20
-2.5108123220958
30
0
41
1
10
43.9979740361405
20
-2.3584741674421
30
0
41
1
10
44.065992321482
20
-2.28221584426458
30
0
41
1
10
44.1339366353517
20
-2.20608269833124
30
0
0
SPLINE
5
185
100
AcDbEntity
8
1
62
256
6
ByLayer
370
13
48
1
60
0
100
AcDbSpline
70
4
71
3
72
10
73
6
40
0
40
0
40
0
40
0
40
0.259412312264658
40
0.813776697289366
40
1
40
1
40
1
40
1
41
1
10
43.9870718372998
20
0.903120321881886
30
0
41
1
10
43.9997713340734
20
0.630509140937647
30
0
41
1
10
44.0396097493407
20
-0.241772379546376
30
0
41
1
10
44.0885649088439
20
-1.31928213544248
30
0
41
1
10
44.1248201429955
20
-2.03344218110303
30
0
41
1
10
44.1339366353517
20
-2.20608269833122
30
0
0
SPLINE
5
186
100
AcDbEntity
8
1
62
256
6
ByLayer
370
18
48
1
60
0
100
AcDbSpline
70
4
71
3
72
12
73
8
40
0
40
0
40
0
40
0
40
0.276212305223259
40
0.276212305223259
40
0.552424607116218
40
0.552424607116218
40
1
40
1
40
1
40
1
41
1
10
43.9870718372998
20
0.903120321881858
30
0
41
1
10
43.9492004948083
20
0.912888763212919
30
0
41
1
10
43.9113227906959
20
0.922675307127179
30
0
41
1
10
43.8355564895366
20
0.942280606564964
30
0
41
1
10
43.7976678882525
20
0.952099362441004
30
0
41
1
10
43.6983721938079
20
0.977865404895766
30
0
41
1
10
43.6369575137814
20
0.993835613125043
30
0
41
1
10
43.5755331917932
20
1.00983424049261
30
0
0
SPLINE
5
187
100
AcDbEntity
8
1
62
256
6
ByLayer
370
13
48
1
60
0
100
AcDbSpline
70
4
71
3
72
11
73
7
40
0
40
0
40
0
40
0
40
0.062753580345206
40
0.615428502333891
40
0.891765963328233
40
1
40
1
40
1
40
1
41
1
10
45.5494602489848
20
0.914386563374251
30
0
41
1
10
45.5525417298963
20
0.848271270648468
30
0
41
1
10
45.5827620164513
20
0.19664549012947
30
0
41
1
10
45.626551706775
20
-0.783633633339093
30
0
41
1
10
45.6725746739833
20
-1.73831389782043
30
0
41
1
10
45.6914588483858
20
-2.10430281996167
30
0
41
1
10
45.6967736220879
20
-2.20494895436772
30
0
0
SPLINE
5
188
100
AcDbEntity
8
1
62
256
6
ByLayer
370
18
48
1
60
0
100
AcDbSpline
70
4
71
3
72
12
73
8
40
0
40
0
40
0
40
0
40
0.273614170875407
40
0.273614170875407
40
0.547228248087312
40
0.547228248087312
40
1
40
1
40
1
40
1
41
1
10
45.6967736220879
20
-2.20494895436775
30
0
41
1
10
45.734823124622
20
-2.24652668186488
30
0
41
1
10
45.7728673406136
20
-2.28817135518966
30
0
41
1
10
45.8489514195663
20
-2.37146298939169
30
0
41
1
10
45.8869914055608
20
-2.41310619492754
30
0
41
1
10
45.9879739713796
20
-2.52366546588709
30
0
41
1
10
46.0509128648973
20
-2.59259082473039
30
0
41
1
10
46.1138466803318
20
-2.66153753983406
30
0
0
SPLINE
5
189
100
AcDbEntity
8
1
62
256
6
ByLayer
370
18
48
1
60
0
100
AcDbSpline
70
4
71
3
72
12
73
8
40
0
40
0
40
0
40
0
40
0.2382823222787
40
0.2382823222787
40
0.514291194274781
40
0.514291194274781
40
1
40
1
40
1
40
1
41
1
10
45.9636115639291
20
1.02674109231572
30
0
41
1
10
45.9307302898816
20
1.0177791549585
30
0
41
1
10
45.8978462265633
20
1.00882436191617
30
0
41
1
10
45.8268649695454
20
0.989515317772685
30
0
41
1
10
45.7887667180156
20
0.97916396813855
30
0
41
1
10
45.6836117462924
20
0.950633986796106
30
0
41
1
10
45.6165451946022
20
0.932483640464596
30
0
41
1
10
45.5494602489848
20
0.914386563374251
30
0
0
SPLINE
5
18A
100
AcDbEntity
8
1
62
256
6
ByLayer
370
18
48
1
60
0
100
AcDbSpline
70
4
71
3
72
8
73
4
40
0
40
0
40
0
40
0
40
1
40
1
40
1
40
1
41
1
10
47.4752864630012
20
-2.66064032810928
30
0
41
1
10
47.438109676794
20
-2.66066485101246
30
0
41
1
10
47.4009328905853
20
-2.66068937205043
30
0
41
1
10
47.3637561043749
20
-2.66071389122305
30
0
0
SPLINE
5
18B
100
AcDbEntity
8
1
62
256
6
ByLayer
370
18
48
1
60
0
100
AcDbSpline
70
4
71
3
72
10
73
6
40
0
40
0
40
0
40
0
40
0.5
40
0.5
40
1
40
1
40
1
40
1
41
1
10
44.9753129228263
20
-2.66228657120186
30
0
41
1
10
45.0435453245313
20
-2.58611963537135
30
0
41
1
10
45.1117200428821
20
-2.50995192318877
30
0
41
1
10
45.2479212614925
20
-2.35757162693923
30
0
41
1
10
45.3159388246801
20
-2.28128843569434
30
0
41
1
10
45.3838839950608
20
-2.20514621197279
30
0
0
SPLINE
5
18C
100
AcDbEntity
8
1
62
256
6
ByLayer
370
13
48
1
60
0
100
AcDbSpline
70
4
71
3
72
11
73
7
40
0
40
0
40
0
40
0
40
0.06626929250954
40
0.619281231432046
40
0.895787200893299
40
1
40
1
40
1
40
1
41
1
10
45.236660268437
20
0.912141996746527
30
0
41
1
10
45.2399123863056
20
0.84235284953084
30
0
41
1
10
45.2703031856529
20
0.186771557107193
30
0
41
1
10
45.3142638265967
20
-0.797003008466817
30
0
41
1
10
45.360086176672
20
-1.7465353343153
30
0
41
1
10
45.3787697935991
20
-2.10830537658063
30
0
41
1
10
45.3838839950608
20
-2.20514621197279
30
0
0
SPLINE
5
18D
100
AcDbEntity
8
1
62
256
6
ByLayer
370
18
48
1
60
0
100
AcDbSpline
70
4
71
3
72
12
73
8
40
0
40
0
40
0
40
0
40
0.276388234771328
40
0.276388234771328
40
0.552776466139548
40
0.552776466139548
40
1
40
1
40
1
40
1
41
1
10
45.236660268437
20
0.912141996746527
30
0
41
1
10
45.1988000853414
20
0.921900994751837
30
0
41
1
10
45.1609331059905
20
0.931678073803937
30
0
41
1
10
45.0851874988895
20
0.951264408985111
30
0
41
1
10
45.0473088667273
20
0.9610736654665
30
0
41
1
10
44.9481257328113
20
0.986792141898121
30
0
41
1
10
44.8868131463539
20
1.0027241562648
30
0
41
1
10
44.8254902412635
20
1.01868449751055
30
0
0
SPLINE
5
18E
100
AcDbEntity
8
1
62
256
6
ByLayer
370
18
48
1
60
0
100
AcDbSpline
70
4
71
3
72
8
73
4
40
0
40
0
40
0
40
0
40
1
40
1
40
1
40
1
41
1
10
48.7252233540825
20
-2.65981513031642
30
0
41
1
10
48.6880520706456
20
-2.65983969137258
30
0
41
1
10
48.6508807872071
20
-2.65986425056573
30
0
41
1
10
48.6137095037671
20
-2.6598888078957
30
0
0
SPLINE
5
18F
100
AcDbEntity
8
1
62
256
6
ByLayer
370
18
48
1
60
0
100
AcDbSpline
70
4
71
3
72
8
73
4
40
0
40
0
40
0
40
0
40
1
40
1
40
1
40
1
41
1
10
46.2253446538633
20
-2.66146412352416
30
0
41
1
10
46.1881786626877
20
-2.66148859749325
30
0
41
1
10
46.1510126715106
20
-2.66151306959659
30
0
41
1
10
46.1138466803318
20
-2.66153753983406
30
0
0
SPLINE
5
190
100
AcDbEntity
8
1
62
256
6
ByLayer
370
18
48
1
60
0
100
AcDbSpline
70
4
71
3
72
29
73
25
40
0
40
0
40
0
40
0
40
0.124999999999999
40
0.124999999999999
40
0.187499999999999
40
0.218749999999998
40
0.218749999999998
40
0.249999999999998
40
0.249999999999998
40
0.374999999999998
40
0.374999999999998
40
0.499999999999998
40
0.499999999999998
40
0.624999999999998
40
0.624999999999998
40
0.656249999999998
40
0.656249999999998
40
0.687499999999998
40
0.687499999999998
40
0.749999999999998
40
0.749999999999998
40
0.874999999999999
40
0.874999999999999
40
1
40
1
40
1
40
1
41
1
10
45.9636115639291
20
1.02674109231577
30
0
41
1
10
45.9698673515381
20
0.870912965562724
30
0
41
1
10
45.9761693203511
20
0.713619219778707
30
0
41
1
10
45.9856823583783
20
0.475453955466975
30
0
41
1
10
45.9904499351036
20
0.355814092783135
30
0
41
1
10
45.9952273320458
20
0.235324606120059
30
0
41
1
10
45.9984142849281
20
0.154807327723205
30
0
41
1
10
46.000009365959
20
0.114437308338239
30
0
41
1
10
46.0079471377674
20
-0.0868114067731653
30
0
41
1
10
46.0142076490666
20
-0.24673845432406
30
0
41
1
10
46.026608059333
20
-0.56451070672253
30
0
41
1
10
46.0327480045449
20
-0.722355744126077
30
0
41
1
10
46.0450408620326
20
-1.0359658282089
30
0
41
1
10
46.0512016599975
20
-1.19173065953385
30
0
41
1
10
46.059017831837
20
-1.38510241503383
30
0
41
1
10
46.060585717659
20
-1.42370995224309
30
0
41
1
10
46.0637303512898
20
-1.50079007073626
30
0
41
1
10
46.0653092224514
20
-1.53931410431994
30
0
41
1
10
46.0700406941007
20
-1.65423923669678
30
0
41
1
10
46.0731866860949
20
-1.72996413388006
30
0
41
1
10
46.0826028184393
20
-1.95451536494059
30
0
41
1
10
46.0888496799381
20
-2.10072405041282
30
0
41
1
10
46.1013485909248
20
-2.38628580104898
30
0
41
1
10
46.1075943463832
20
-2.52563892967527
30
0
41
1
10
46.1138466803318
20
-2.66153753983409
30
0
0
SPLINE
5
191
100
AcDbEntity
8
1
62
256
6
ByLayer
370
13
48
1
60
0
100
AcDbSpline
70
4
71
3
72
10
73
6
40
0
40
0
40
0
40
0
40
0.422013518934269
40
0.973302159912047
40
1
40
1
40
1
40
1
41
1
10
46.7990426854711
20
0.923275475777075
30
0
41
1
10
46.8198175440733
20
0.477650356591994
30
0
41
1
10
46.8677312095114
20
-0.584911960051784
30
0
41
1
10
46.9169591395191
20
-1.63705043602999
30
0
41
1
10
46.945412220181
20
-2.17918233549349
30
0
41
1
10
46.9467264997106
20
-2.2040786789122
30
0
0
SPLINE
5
192
100
AcDbEntity
8
1
62
256
6
ByLayer
370
18
48
1
60
0
100
AcDbSpline
70
4
71
3
72
12
73
8
40
0
40
0
40
0
40
0
40
0.273634270272182
40
0.273634270272182
40
0.547268428636496
40
0.547268428636496
40
1
40
1
40
1
40
1
41
1
10
46.9467264997106
20
-2.20407867891217
30
0
41
1
10
46.984774684132
20
-2.24565804246024
30
0
41
1
10
47.0228175475661
20
-2.28730800709508
30
0
41
1
10
47.0988989079755
20
-2.37061618384001
30
0
41
1
10
47.1369376133775
20
-2.4122686332519
30
0
41
1
10
47.2379069110766
20
-2.5228387667303
30
0
41
1
10
47.3008339799944
20
-2.59176540672331
30
0
41
1
10
47.3637561043749
20
-2.66071389122305
30
0
0
SPLINE
5
193
100
AcDbEntity
8
1
62
256
6
ByLayer
370
18
48
1
60
0
100
AcDbSpline
70
4
71
3
72
26
73
22
40
0
40
0
40
0
40
0
40
0.125000000000001
40
0.125000000000001
40
0.250000000000001
40
0.250000000000001
40
0.375000000000002
40
0.375000000000002
40
0.437500000000002
40
0.437500000000002
40
0.500000000000002
40
0.500000000000002
40
0.625000000000002
40
0.750000000000001
40
0.750000000000001
40
0.812500000000001
40
0.843750000000001
40
0.843750000000001
40
0.875000000000001
40
0.875000000000001
40
1
40
1
40
1
40
1
41
1
10
47.2135753241607
20
1.03558741658662
30
0
41
1
10
47.2199346738992
20
0.878046142340878
30
0
41
1
10
47.2262240882479
20
0.719992095071319
30
0
41
1
10
47.2386951336708
20
0.402885911238201
30
0
41
1
10
47.2448767806205
20
0.243833715705733
30
0
41
1
10
47.2572415022998
20
-0.0752653764090496
30
0
41
1
10
47.2634243552445
20
-0.235312221690009
30
0
41
1
10
47.2728414024503
20
-0.476143685022521
30
0
41
1
10
47.2760151148522
20
-0.5567195087512
30
0
41
1
10
47.2823560546506
20
-0.71652533068297
30
0
41
1
10
47.2855269298657
20
-0.795909669343246
30
0
41
1
10
47.2950242482938
20
-1.03253451003084
30
0
41
1
10
47.3076415868497
20
-1.34396610029791
30
0
41
1
10
47.32011363276
20
-1.64737998127544
30
0
41
1
10
47.3294538270749
20
-1.87189518452385
30
0
41
1
10
47.334121417212
20
-1.98339019785533
30
0
41
1
10
47.3388019019567
20
-2.09372191444382
30
0
41
1
10
47.34192760667
20
-2.16701482304313
30
0
41
1
10
47.3434928437845
20
-2.20352325236721
30
0
41
1
10
47.3512968537644
20
-2.38442943024356
30
0
41
1
10
47.3575164701385
20
-2.52472276858885
30
0
41
1
10
47.3637561043749
20
-2.66071389122305
30
0
0
SPLINE
5
194
100
AcDbEntity
8
1
62
256
6
ByLayer
370
18
48
1
60
0
100
AcDbSpline
70
4
71
3
72
12
73
8
40
0
40
0
40
0
40
0
40
0.238883525422075
40
0.238883525422075
40
0.51469880813822
40
0.51469880813822
40
1
40
1
40
1
40
1
41
1
10
47.2135753241607
20
1.03558741658662
30
0
41
1
10
47.1805812228359
20
1.02660610666453
30
0
41
1
10
47.1475842139187
20
1.01763200885199
30
0
41
1
10
47.0764818465736
20
0.998314875956595
30
0
41
1
10
47.0383754135662
20
0.98797469624617
30
0
41
1
10
46.933206661672
20
0.959478146944804
30
0
41
1
10
46.8661341739292
20
0.94135012655471
30
0
41
1
10
46.7990426854711
20
0.923275475777075
30
0
0
SPLINE
5
195
100
AcDbEntity
8
1
62
256
6
ByLayer
370
18
48
1
60
0
100
AcDbSpline
70
4
71
3
72
27
73
23
40
0
40
0
40
0
40
0
40
0.125000000000002
40
0.125000000000002
40
0.156250000000002
40
0.156250000000002
40
0.187500000000002
40
0.187500000000002
40
0.250000000000002
40
0.250000000000002
40
0.375000000000002
40
0.500000000000001
40
0.500000000000001
40
0.625000000000001
40
0.625000000000001
40
0.656250000000001
40
0.656250000000001
40
0.687500000000001
40
0.750000000000001
40
0.750000000000001
40
0.875
40
1
40
1
40
1
40
1
41
1
10
46.2253446538632
20
-2.66146412352413
30
0
41
1
10
46.2191029488085
20
-2.52587426606462
30
0
41
1
10
46.2128095007761
20
-2.38617735371417
30
0
41
1
10
46.2048793754644
20
-2.20630747458003
30
0
41
1
10
46.2032907619231
20
-2.17007047961411
30
0
41
1
10
46.2001090243787
20
-2.09706523896372
30
0
41
1
10
46.1985142542695
20
-2.06025871286016
30
0
41
1
10
46.1937353034643
20
-1.94930238432619
30
0
41
1
10
46.1905670201683
20
-1.87485916677048
30
0
41
1
10
46.1811132580483
20
-1.65014083352045
30
0
41
1
10
46.168649016231
20
-1.34681928500203
30
0
41
1
10
46.1563325654428
20
-1.03625273209934
30
0
41
1
10
46.1439488418777
20
-0.722044448959451
30
0
41
1
10
46.1377128886558
20
-0.56312017947792
30
0
41
1
10
46.1297710476825
20
-0.362115323657861
30
0
41
1
10
46.1281800984929
20
-0.321881010977734
30
0
41
1
10
46.1250034712062
20
-0.241571465137127
30
0
41
1
10
46.1202422225423
20
-0.121241144143056
30
0
41
1
10
46.1154977312463
20
-0.0013084189785957
30
0
41
1
10
46.1060390501127
20
0.238034792742525
30
0
41
1
10
46.0935130570825
20
0.555768880183138
30
0
41
1
10
46.0811238485897
20
0.870744907674862
30
0
41
1
10
46.0749146938189
20
1.02752889827661
30
0
0
SPLINE
5
196
100
AcDbEntity
8
1
62
256
6
ByLayer
370
18
48
1
60
0
100
AcDbSpline
70
4
71
3
72
10
73
6
40
0
40
0
40
0
40
0
40
0.5
40
0.5
40
1
40
1
40
1
40
1
41
1
10
46.2253446538633
20
-2.66146412352413
30
0
41
1
10
46.293565186874
20
-2.58528941693461
30
0
41
1
10
46.3617276650589
20
-2.50911442897703
30
0
41
1
10
46.4979028404258
20
-2.35671606886118
30
0
41
1
10
46.5659063163681
20
-2.28042046047332
30
0
41
1
10
46.6338387459547
20
-2.20428166709024
30
0
0
SPLINE
5
197
100
AcDbEntity
8
1
62
256
6
ByLayer
370
13
48
1
60
0
100
AcDbSpline
70
4
71
3
72
10
73
6
40
0
40
0
40
0
40
0
40
0.425735312668063
40
0.977350257662167
40
1
40
1
40
1
40
1
41
1
10
46.4862420526767
20
0.921038959913972
30
0
41
1
10
46.507187667116
20
0.471705245548605
30
0
41
1
10
46.5552720890473
20
-0.594951608338988
30
0
41
1
10
46.6044712203613
20
-1.64532337346245
30
0
41
1
10
46.6327244040353
20
-2.18317261858798
30
0
41
1
10
46.6338387459547
20
-2.2042816670903
30
0
0
SPLINE
5
198
100
AcDbEntity
8
1
62
256
6
ByLayer
370
18
48
1
60
0
100
AcDbSpline
70
4
71
3
72
12
73
8
40
0
40
0
40
0
40
0
40
0.27624253711352
40
0.27624253711352
40
0.552485070752253
40
0.552485070752253
40
1
40
1
40
1
40
1
41
1
10
46.4862420526767
20
0.921038959913972
30
0
41
1
10
46.4483886657923
20
0.930787947615926
30
0
41
1
10
46.4105280609512
20
0.940555003446292
30
0
41
1
10
46.3347944689522
20
0.960121274961352
30
0
41
1
10
46.2969214772091
20
0.969920490999272
30
0
41
1
10
46.19767998687
20
0.995631394036252
30
0
41
1
10
46.1363028527028
20
1.01156595457743
30
0
41
1
10
46.0749146938197
20
1.02752889827656
30
0
0
SPLINE
5
199
100
AcDbEntity
8
1
62
256
6
ByLayer
370
18
48
1
60
0
100
AcDbSpline
70
4
71
3
72
10
73
6
40
0
40
0
40
0
40
0
40
0.5
40
0.5
40
1
40
1
40
1
40
1
41
1
10
50.0211517198921
20
-2.60765027490487
30
0
41
1
10
50.0816884033686
20
-2.53997417610074
30
0
41
1
10
50.1421766375655
20
-2.47229807514523
30
0
41
1
10
50.2630282301069
20
-2.33688635180968
30
0
41
1
10
50.3233853857145
20
-2.26910456411792
30
0
41
1
10
50.3836926624656
20
-2.20149824914404
30
0
0
SPLINE
5
19A
100
AcDbEntity
8
1
62
256
6
ByLayer
370
13
48
1
60
0
100
AcDbSpline
70
4
71
3
72
13
73
9
40
0
40
0
40
0
40
0
40
0.0588913133599092
40
0.269105313093775
40
0.479319312827642
40
0.689533312561508
40
0.899747312295374
40
1
40
1
40
1
40
1
41
1
10
50.3836926624656
20
-2.20149824914404
30
0
41
1
10
50.3807736074049
20
-2.14618782136301
30
0
41
1
10
50.3674349106812
20
-1.89018659467189
30
0
41
1
10
50.3436765506746
20
-1.4095727292603
30
0
41
1
10
50.3124176679176
20
-0.742784103340739
30
0
41
1
10
50.2811585181177
20
-0.0577575879370897
30
0
41
1
10
50.2553498884945
20
0.509142411842561
30
0
41
1
10
50.2399609714388
20
0.841478654598916
30
0
41
1
10
50.2349917438714
20
0.947903327153426
30
0
0
SPLINE
5
19B
100
AcDbEntity
8
1
62
256
6
ByLayer
370
18
48
1
60
0
100
AcDbSpline
70
4
71
3
72
12
73
8
40
0
40
0
40
0
40
0
40
0.30586966193588
40
0.30586966193588
40
0.611739319886078
40
0.611739319886078
40
1
40
1
40
1
40
1
41
1
10
50.2349917438714
20
0.947903327153426
30
0
41
1
10
50.1976883223028
20
0.957489687027191
30
0
41
1
10
50.1603765262746
20
0.967093564297898
30
0
41
1
10
50.0857385084554
20
0.986332565966478
30
0
41
1
10
50.0484122817538
20
0.995967690716668
30
0
41
1
10
49.9636912326619
20
1.01786444361201
30
0
41
1
10
49.9162925992112
20
1.03013445698215
30
0
41
1
10
49.8688855686177
20
1.04242263879678
30
0
0
SPLINE
5
19C
100
AcDbEntity
8
1
62
256
6
ByLayer
370
13
48
1
60
0
100
AcDbSpline
70
4
71
3
72
10
73
6
40
0
40
0
40
0
40
0
40
0.449709718321366
40
0.727434543545804
40
1
40
1
40
1
40
1
41
1
10
43.0502950700056
20
0.896443185188673
30
0
41
1
10
43.0722675107722
20
0.424506978901348
30
0
41
1
10
43.1078093529907
20
-0.365444765139472
30
0
41
1
10
43.1566685003576
20
-1.41562485629521
30
0
41
1
10
43.1835552222383
20
-1.95467796646648
30
0
41
1
10
43.196872541558
20
-2.20678942850989
30
0
0
SPLINE
5
19D
100
AcDbEntity
8
1
62
256
6
ByLayer
370
18
48
1
60
0
100
AcDbSpline
70
4
71
3
72
12
73
8
40
0
40
0
40
0
40
0
40
0.27363848107041
40
0.27363848107041
40
0.547276899295963
40
0.547276899295963
40
1
40
1
40
1
40
1
41
1
10
43.196872541558
20
-2.20678942850989
30
0
41
1
10
43.2349224551526
20
-2.24836366244082
30
0
41
1
10
43.2729673966218
20
-2.2899975639765
30
0
41
1
10
43.3490533727922
20
-2.37325557414479
30
0
41
1
10
43.3870942873094
20
-2.41488178290578
30
0
41
1
10
43.4880667656423
20
-2.52538510789182
30
0
41
1
10
43.5509945449763
20
-2.59427281956113
30
0
41
1
10
43.6139171985823
20
-2.66318068776869
30
0
0
SPLINE
5
19E
100
AcDbEntity
8
1
62
256
6
ByLayer
370
18
48
1
60
0
100
AcDbSpline
70
4
71
3
72
12
73
8
40
0
40
0
40
0
40
0
40
0.238971617723381
40
0.238971617723381
40
0.514908389868963
40
0.514908389868963
40
1
40
1
40
1
40
1
41
1
10
43.4646198450022
20
1.00904882317945
30
0
41
1
10
43.4316295923362
20
1.00004106486
30
0
41
1
10
43.3986365453301
20
0.991040465560474
30
0
41
1
10
43.3275402465358
20
0.971665371992401
30
0
41
1
10
43.2894359601856
20
0.961293716749736
30
0
41
1
10
43.1843320899737
20
0.932726004887456
30
0
41
1
10
43.1173227332747
20
0.914558075404926
30
0
41
1
10
43.0502950700056
20
0.896443185188673
30
0
0
SPLINE
5
19F
100
AcDbEntity
8
1
62
256
6
ByLayer
370
18
48
1
60
0
100
AcDbSpline
70
4
71
3
72
29
73
25
40
0
40
0
40
0
40
0
40
0.125
40
0.125
40
0.249999999999999
40
0.249999999999999
40
0.281249999999999
40
0.281249999999999
40
0.312499999999999
40
0.374999999999999
40
0.374999999999999
40
0.499999999999999
40
0.499999999999999
40
0.625
40
0.625
40
0.6875
40
0.6875
40
0.71875
40
0.71875
40
0.75
40
0.75
40
0.875
40
0.875
40
1
40
1
40
1
40
1
41
1
10
48.7252233540825
20
-2.65981513031642
30
0
41
1
10
48.718964575911
20
-2.52352703662635
30
0
41
1
10
48.7127297282653
20
-2.38356470540512
30
0
41
1
10
48.7002319952007
20
-2.09628453558489
30
0
41
1
10
48.6939603629213
20
-1.94896750765727
30
0
41
1
10
48.6860624094234
20
-1.76009408785444
30
0
41
1
10
48.6844790375181
20
-1.72206199619501
30
0
41
1
10
48.6813087580114
20
-1.64560590898117
30
0
41
1
10
48.6765619057946
20
-1.53067072848069
30
0
41
1
10
48.6718340175325
20
-1.41499153313939
30
0
41
1
10
48.6623792723157
20
-1.18265889703466
30
0
41
1
10
48.6560594824164
20
-1.02647432084314
30
0
41
1
10
48.6433826999322
20
-0.71154846331234
30
0
41
1
10
48.6370402148074
20
-0.552806615747755
30
0
41
1
10
48.6275408799016
20
-0.312749336122721
30
0
41
1
10
48.6243762375985
20
-0.232405644558213
30
0
41
1
10
48.6196289207132
20
-0.111395090251392
30
0
41
1
10
48.6180463823504
20
-0.0709757009862813
30
0
41
1
10
48.6148800937451
20
0.0100299442306948
30
0
41
1
10
48.6132990255338
20
0.0505476818822785
30
0
41
1
10
48.6054273749161
20
0.252526056615977
30
0
41
1
10
48.5992145578248
20
0.412820323848791
30
0
41
1
10
48.5868228016654
20
0.730900372436821
30
0
41
1
10
48.5806360961221
20
0.888685674365746
30
0
41
1
10
48.5743847552909
20
1.04521586834099
30
0
0
SPLINE
5
1A0
100
AcDbEntity
8
1
62
256
6
ByLayer
370
18
48
1
60
0
100
AcDbSpline
70
4
71
3
72
10
73
6
40
0
40
0
40
0
40
0
40
0.5
40
0.5
40
1
40
1
40
1
40
1
41
1
10
48.7252233540825
20
-2.65981513031642
30
0
41
1
10
48.793448639428
20
-2.58359928473615
30
0
41
1
10
48.8616156628119
20
-2.50738417261127
30
0
41
1
10
48.997798392026
20
-2.35489897332147
30
0
41
1
10
49.0658045121347
20
-2.27855484716855
30
0
41
1
10
49.133743591286
20
-2.20240106343394
30
0
0
SPLINE
5
1A1
100
AcDbEntity
8
1
62
256
6
ByLayer
370
13
48
1
60
0
100
AcDbSpline
70
4
71
3
72
11
73
7
40
0
40
0
40
0
40
0
40
0.041570249262866
40
0.590427099309564
40
0.864855524332914
40
1
40
1
40
1
40
1
41
1
10
48.9854049473883
20
0.938963278566689
30
0
41
1
10
48.9874604241393
20
0.894917383135066
30
0
41
1
10
49.016654616285
20
0.267200596218373
30
0
41
1
10
49.0594186143816
20
-0.690412175242585
30
0
41
1
10
49.106809362047
20
-1.68089163740777
30
0
41
1
10
49.1270612124284
20
-2.07581156630613
30
0
41
1
10
49.133743591286
20
-2.20240106343391
30
0
0
SPLINE
5
1A2
100
AcDbEntity
8
1
62
256
6
ByLayer
370
18
48
1
60
0
100
AcDbSpline
70
4
71
3
72
12
73
8
40
0
40
0
40
0
40
0
40
0.27631534512759
40
0.27631534512759
40
0.552630686606226
40
0.552630686606226
40
1
40
1
40
1
40
1
41
1
10
48.9854049473882
20
0.938963278566661
30
0
41
1
10
48.9475727224208
20
0.948693108863779
30
0
41
1
10
48.9097323562866
20
0.958440967755934
30
0
41
1
10
48.8340376345163
20
0.977968784373559
30
0
41
1
10
48.7961832739187
20
0.987748742456773
30
0
41
1
10
48.6970248677479
20
1.01339978734004
30
0
41
1
10
48.635711066274
20
1.02929366737811
30
0
41
1
10
48.5743847552909
20
1.04521586834096
30
0
0
SPLINE
5
1A3
100
AcDbEntity
8
1
62
256
6
ByLayer
370
18
48
1
60
0
100
AcDbSpline
70
4
71
3
72
31
73
27
40
0
40
0
40
0
40
0
40
0.0312499999999998
40
0.0312499999999998
40
0.0624999999999995
40
0.125
40
0.125
40
0.25
40
0.25
40
0.375
40
0.375
40
0.4375
40
0.4375
40
0.46875
40
0.46875
40
0.5
40
0.5
40
0.625
40
0.75
40
0.75
40
0.875
40
0.875
40
0.90625
40
0.90625
40
0.9375
40
1
40
1
40
1
40
1
41
1
10
47.4752864630012
20
-2.66064032810928
30
0
41
1
10
47.4737085478502
20
-2.62625162566567
30
0
41
1
10
47.4721287687331
20
-2.59157227318701
30
0
41
1
10
47.4689789030359
20
-2.52194257652042
30
0
41
1
10
47.4642626464573
20
-2.41696269785194
30
0
41
1
10
47.4595681731701
20
-2.31039389740963
30
0
41
1
10
47.450191200469
20
-2.09516933140082
30
0
41
1
10
47.4439569085877
20
-1.94890816260204
30
0
41
1
10
47.4313821933048
20
-1.65088576857571
30
0
41
1
10
47.4250531383934
20
-1.49912426991941
30
0
41
1
10
47.4155424319858
20
-1.26728223949735
30
0
41
1
10
47.412368780159
20
-1.18930045908937
30
0
41
1
10
47.4076034985292
20
-1.07125596635959
30
0
41
1
10
47.4060124700518
20
-1.03168481689264
30
0
41
1
10
47.4028440412555
20
-0.952574816987493
30
0
41
1
10
47.4012651997162
20
-0.913000627234226
30
0
41
1
10
47.3933957847139
20
-0.715034794868274
30
0
41
1
10
47.3809688078844
20
-0.397683320091147
30
0
41
1
10
47.3686761182873
20
-0.0791560133000075
30
0
41
1
10
47.3562849483753
20
0.239954028469327
30
0
41
1
10
47.3500203905623
20
0.399799597438687
30
0
41
1
10
47.3421140070499
20
0.599980957129986
30
0
41
1
10
47.3405273726486
20
0.640080002860969
30
0
41
1
10
47.3373552724178
20
0.720105241066619
30
0
41
1
10
47.3326055906974
20
0.839712775411897
30
0
41
1
10
47.3278805537823
20
0.958044252212943
30
0
41
1
10
47.3247383623601
20
1.03637404634071
30
0
0
SPLINE
5
1A4
100
AcDbEntity
8
1
62
256
6
ByLayer
370
18
48
1
60
0
100
AcDbSpline
70
4
71
3
72
10
73
6
40
0
40
0
40
0
40
0
40
0.5
40
0.5
40
1
40
1
40
1
40
1
41
1
10
47.4752864630012
20
-2.66064032810928
30
0
41
1
10
47.5435083335239
20
-2.58444619727402
30
0
41
1
10
47.6116720607022
20
-2.50825232971829
30
0
41
1
10
47.7478490676344
20
-2.35581296598045
30
0
41
1
10
47.8158529187971
20
-2.27949406568536
30
0
41
1
10
47.8837877887757
20
-2.20334859902533
30
0
0
SPLINE
5
1A5
100
AcDbEntity
8
1
62
256
6
ByLayer
370
13
48
1
60
0
100
AcDbSpline
70
4
71
3
72
10
73
6
40
0
40
0
40
0
40
0
40
0.233152006219553
40
0.783414266586955
40
1
40
1
40
1
40
1
41
1
10
47.7358285281733
20
0.930020761885345
30
0
41
1
10
47.7473274936385
20
0.68348254999853
30
0
41
1
10
47.7859650831207
20
-0.160629897442618
30
0
41
1
10
47.8352851075961
20
-1.25070984184776
30
0
41
1
10
47.8731058330504
20
-2.00098949365355
30
0
41
1
10
47.8837877887757
20
-2.20334859902536
30
0
0
SPLINE
5
1A6
100
AcDbEntity
8
1
62
256
6
ByLayer
370
18
48
1
60
0
100
AcDbSpline
70
4
71
3
72
12
73
8
40
0
40
0
40
0
40
0
40
0.276328404687184
40
0.276328404687184
40
0.55265680581316
40
0.55265680581316
40
1
40
1
40
1
40
1
41
1
10
47.7358285281733
20
0.930020761885345
30
0
41
1
10
47.6979866582208
20
0.939760284820096
30
0
41
1
10
47.6601371022629
20
0.949517854365439
30
0
41
1
10
47.5844247934761
20
0.969065119380559
30
0
41
1
10
47.546562035873
20
0.978854815205437
30
0
41
1
10
47.4473890235839
20
1.00452971255305
30
0
41
1
10
47.38606957701
20
1.02043771520192
30
0
41
1
10
47.3247383623601
20
1.03637404634071
30
0
0
SPLINE
5
1A7
100
AcDbEntity
8
1
62
256
6
ByLayer
370
13
48
1
60
0
100
AcDbSpline
70
4
71
3
72
10
73
6
40
0
40
0
40
0
40
0
40
0.255768111129188
40
0.809800859353638
40
1
40
1
40
1
40
1
41
1
10
44.2998728167777
20
0.905358894746058
30
0
41
1
10
44.3124013925516
20
0.636417332095164
30
0
41
1
10
44.3520687732141
20
-0.231955258113345
30
0
41
1
10
44.4010528779511
20
-1.31086896566302
30
0
41
1
10
44.4375084158492
20
-2.02949541359052
30
0
41
1
10
44.4468251518472
20
-2.20590530684592
30
0
0
SPLINE
5
1A8
100
AcDbEntity
8
1
62
256
6
ByLayer
370
18
48
1
60
0
100
AcDbSpline
70
4
71
3
72
12
73
8
40
0
40
0
40
0
40
0
40
0.273655741923421
40
0.273655741923421
40
0.547311406662597
40
0.547311406662597
40
1
40
1
40
1
40
1
41
1
10
44.4468251518472
20
-2.20590530684592
30
0
41
1
10
44.484871442935
20
-2.24748276197786
30
0
41
1
10
44.5229126151098
20
-2.28912348841089
30
0
41
1
10
44.598990887442
20
-2.37240106208509
30
0
41
1
10
44.6370279999337
20
-2.41403683317125
30
0
41
1
10
44.7379818288712
20
-2.52455493700566
30
0
41
1
10
44.8008949011752
20
-2.59344705632273
30
0
41
1
10
44.8638030611259
20
-2.66235986976261
30
0
0
SPLINE
5
1A9
100
AcDbEntity
8
1
62
256
6
ByLayer
370
18
48
1
60
0
100
AcDbSpline
70
4
71
3
72
12
73
8
40
0
40
0
40
0
40
0
40
0.239077824009428
40
0.239077824009428
40
0.51490194161669
40
0.51490194161669
40
1
40
1
40
1
40
1
41
1
10
44.7143540711568
20
1.01789768815456
30
0
41
1
10
44.6813369350285
20
1.00889113941912
30
0
41
1
10
44.6483169520698
20
0.999891780277153
30
0
41
1
10
44.5771949878987
20
0.980528281603995
30
0
41
1
10
44.5390919597775
20
0.970166973170194
30
0
41
1
10
44.4339630814476
20
0.941620201664051
30
0
41
1
10
44.3669272771298
20
0.923462958177879
30
0
41
1
10
44.2998728167777
20
0.90535889474603
30
0
0
SPLINE
5
1AA
100
AcDbEntity
8
1
62
256
6
ByLayer
370
13
48
1
60
0
100
AcDbSpline
70
4
71
3
72
10
73
6
40
0
40
0
40
0
40
0
40
0.229568445258534
40
0.779487784897722
40
1
40
1
40
1
40
1
41
1
10
48.0486254405595
20
0.932266021193414
30
0
41
1
10
48.0599547630692
20
0.689403170262949
30
0
41
1
10
48.0984228904984
20
-0.150657282909663
30
0
41
1
10
48.1477734130343
20
-1.2421359865578
30
0
41
1
10
48.1857945996256
20
-1.99700137334133
30
0
41
1
10
48.1966769895626
20
-2.20315675418172
30
0
0
SPLINE
5
1AB
100
AcDbEntity
8
1
62
256
6
ByLayer
370
18
48
1
60
0
100
AcDbSpline
70
4
71
3
72
12
73
8
40
0
40
0
40
0
40
0
40
0.27362370967994
40
0.27362370967994
40
0.547247287014395
40
0.547247287014395
40
1
40
1
40
1
40
1
41
1
10
48.1966769895626
20
-2.20315675418175
30
0
41
1
10
48.23472409085
20
-2.2447372195185
30
0
41
1
10
48.2727657133297
20
-2.28639209609958
30
0
41
1
10
48.3488444155839
20
-2.3697161508799
30
0
41
1
10
48.3868817665552
20
-2.41137812087968
30
0
41
1
10
48.4878531163557
20
-2.52197634579611
30
0
41
1
10
48.5507836928681
20
-2.59092143691726
30
0
41
1
10
48.6137095037671
20
-2.6598888078957
30
0
0
SPLINE
5
1AC
100
AcDbEntity
8
1
62
256
6
ByLayer
370
18
48
1
60
0
100
AcDbSpline
70
4
71
3
72
27
73
23
40
0
40
0
40
0
40
0
40
0.125
40
0.125
40
0.15625
40
0.15625
40
0.1875
40
0.25
40
0.25
40
0.375
40
0.500000000000001
40
0.500000000000001
40
0.562500000000001
40
0.562500000000001
40
0.59375
40
0.59375
40
0.625
40
0.625
40
0.75
40
0.875
40
0.875
40
1
40
1
40
1
40
1
41
1
10
48.4629192319911
20
1.04442728254006
30
0
41
1
10
48.4691886280087
20
0.887815566564115
30
0
41
1
10
48.4754786703487
20
0.729172733260214
30
0
41
1
10
48.4834174753524
20
0.528249275510461
30
0
41
1
10
48.4850097072813
20
0.487922053791436
30
0
41
1
10
48.4881871109804
20
0.407439166327464
30
0
41
1
10
48.4929478046051
20
0.286810389183586
30
0
41
1
10
48.4977112318623
20
0.166465920785384
30
0
41
1
10
48.507238181347
20
-0.073849803160698
30
0
41
1
10
48.5199244196133
20
-0.393277823334017
30
0
41
1
10
48.5324823663561
20
-0.71074352253882
30
0
41
1
10
48.5418772413585
20
-0.948093440669027
30
0
41
1
10
48.545005569268
20
-1.02708495503688
30
0
41
1
10
48.5497022035094
20
-1.14538064030472
30
0
41
1
10
48.5512705663408
20
-1.18483282419544
30
0
41
1
10
48.5543970142855
20
-1.26332625382898
30
0
41
1
10
48.5559556416972
20
-1.30238131244437
30
0
41
1
10
48.563731820038
20
-1.49670823437376
30
0
41
1
10
48.5760609229895
20
-1.80157525424164
30
0
41
1
10
48.5885470275405
20
-2.0946167272007
30
0
41
1
10
48.6010807458781
20
-2.38173672555189
30
0
41
1
10
48.6073712054679
20
-2.52233638176293
30
0
41
1
10
48.6137095037672
20
-2.65988880789573
30
0
0
SPLINE
5
1AD
100
AcDbEntity
8
1
62
256
6
ByLayer
370
18
48
1
60
0
100
AcDbSpline
70
4
71
3
72
12
73
8
40
0
40
0
40
0
40
0
40
0.238250135145454
40
0.238250135145454
40
0.51417239055821
40
0.51417239055821
40
1
40
1
40
1
40
1
41
1
10
48.4629192319911
20
1.04442728254008
30
0
41
1
10
48.4300312932545
20
1.03548174123384
30
0
41
1
10
48.3971405223015
20
1.02654337905247
30
0
41
1
10
48.3261514987188
20
1.00727172433534
30
0
41
1
10
48.2880521739004
20
0.996941341393125
30
0
41
1
10
48.182856597661
20
0.968459204062356
30
0
41
1
10
48.115750357916
20
0.950335874729745
30
0
41
1
10
48.0486254405595
20
0.932266021193414
30
0
0
SPLINE
5
1AE
100
AcDbEntity
8
1
62
256
6
ByLayer
370
18
48
1
60
0
100
AcDbSpline
70
4
71
3
72
10
73
6
40
0
40
0
40
0
40
0
40
0.499999999999999
40
0.499999999999999
40
1
40
1
40
1
40
1
41
1
10
41.3308580936657
20
-2.54709845205787
30
0
41
1
10
41.3814675468729
20
-2.49058743360322
30
0
41
1
10
41.4320418403438
20
-2.43407471964971
30
0
41
1
10
41.5331030582107
20
-2.32100896862096
30
0
41
1
10
41.5835864361317
20
-2.26442839515954
30
0
41
1
10
41.6340294574573
20
-2.20791787097878
30
0
0
SPLINE
5
1AF
100
AcDbEntity
8
1
62
256
6
ByLayer
370
13
48
1
60
0
100
AcDbSpline
70
4
71
3
72
11
73
7
40
0
40
0
40
0
40
0
40
0.0913874969183459
40
0.648571082478069
40
0.927162875257931
40
1
40
1
40
1
40
1
41
1
10
41.4879079596717
20
0.885256229438767
30
0
41
1
10
41.4923591832751
20
0.78964166851776
30
0
41
1
10
41.5239492428322
20
0.106371518896822
30
0
41
1
10
41.5691089117668
20
-0.903118827228184
30
0
41
1
10
41.6133647901754
20
-1.81161135193929
30
0
41
1
10
41.6304817911909
20
-2.14075268618896
30
0
41
1
10
41.6340294574573
20
-2.20791787097878
30
0
0
SPLINE
5
1B0
100
AcDbEntity
8
1
62
256
6
ByLayer
370
18
48
1
60
0
100
AcDbSpline
70
4
71
3
72
12
73
8
40
0
40
0
40
0
40
0
40
0.386332946291543
40
0.386332946291543
40
0.772665888096254
40
0.772665888096254
40
1
40
1
40
1
40
1
41
1
10
41.4879079596717
20
0.885256229438795
30
0
41
1
10
41.4500214360789
20
0.895044440494843
30
0
41
1
10
41.4121293667754
20
0.904850782457288
30
0
41
1
10
41.3363357552157
20
0.924495718062445
30
0
41
1
10
41.2984342090421
20
0.934334312058837
30
0
41
1
10
41.2382233907894
20
0.949984750571758
30
0
41
1
10
41.2159167711646
20
0.955787370631214
30
0
41
1
10
41.1936088633357
20
0.961594464248179
30
0
0
SPLINE
5
1B1
100
AcDbEntity
8
1
62
256
6
ByLayer
370
18
48
1
60
0
100
AcDbSpline
70
4
71
3
72
27
73
23
40
0
40
0
40
0
40
0
40
0.125
40
0.25
40
0.25
40
0.375
40
0.375
40
0.4375
40
0.4375
40
0.5
40
0.5
40
0.625
40
0.625
40
0.75
40
0.75
40
0.8125
40
0.8125
40
0.84375
40
0.84375
40
0.875
40
0.875
40
1
40
1
40
1
40
1
41
1
10
40.816944529895
20
0.95076622393762
30
0
41
1
10
40.8236934314052
20
0.803440492480945
30
0
41
1
10
40.8370075188721
20
0.507793128010178
30
0
41
1
10
40.8501661631848
20
0.210213493774234
30
0
41
1
10
40.8634220522553
20
-0.0883240676706123
30
0
41
1
10
40.8701143517995
20
-0.23807085677214
30
0
41
1
10
40.8802386801864
20
-0.463428514186631
30
0
41
1
10
40.88363506019
20
-0.538835598299414
30
0
41
1
10
40.890393420383
20
-0.688445759766495
30
0
41
1
10
40.89376131674
20
-0.762781193385536
30
0
41
1
10
40.9038426918343
20
-0.984402575300123
30
0
41
1
10
40.9105408887817
20
-1.1303064905448
30
0
41
1
10
40.9239169714211
20
-1.41848105595093
30
0
41
1
10
40.9305895927325
20
-1.56075169745671
30
0
41
1
10
40.9406242113586
20
-1.77140250518966
30
0
41
1
10
40.9439739689711
20
-1.84115951811444
30
0
41
1
10
40.9490176995392
20
-1.94509453292062
30
0
41
1
10
40.95070236473
20
-1.97962273732696
30
0
41
1
10
40.954078670688
20
-2.04844317305631
30
0
41
1
10
40.9557716342577
20
-2.08276325212978
30
0
41
1
10
40.9642252667107
20
-2.25319942211698
30
0
41
1
10
40.9709637508282
20
-2.38612844320883
30
0
41
1
10
40.9776994307256
20
-2.51564972684122
30
0
0
SPLINE
5
1B2
100
AcDbEntity
8
1
62
256
6
ByLayer
370
18
48
1
60
0
100
AcDbSpline
70
4
71
3
72
8
73
4
40
0
40
0
40
0
40
0
40
1
40
1
40
1
40
1
41
1
10
40.9776994307339
20
-2.51564972684147
30
0
41
1
10
41.0954187946473
20
-2.52613260100762
30
0
41
1
10
41.2131383515444
20
-2.53661547163551
30
0
41
1
10
41.3308580936648
20
-2.54709845205818
30
0
0
SPLINE
5
1B3
100
AcDbEntity
8
1
62
256
6
ByLayer
370
18
48
1
60
0
100
AcDbSpline
70
4
71
3
72
27
73
23
40
0
40
0
40
0
40
0
40
0.125000000000001
40
0.125000000000001
40
0.250000000000001
40
0.375000000000002
40
0.375000000000002
40
0.406250000000002
40
0.406250000000002
40
0.437500000000002
40
0.437500000000002
40
0.500000000000002
40
0.500000000000002
40
0.625000000000001
40
0.750000000000001
40
0.750000000000001
40
0.812500000000001
40
0.843750000000001
40
0.843750000000001
40
0.875000000000001
40
0.875000000000001
40
1
40
1
40
1
40
1
41
1
10
41.3308580936648
20
-2.54709845205815
30
0
41
1
10
41.3251252810124
20
-2.4165269062047
30
0
41
1
10
41.3194347007472
20
-2.28313282231534
30
0
41
1
10
41.3080786587698
20
-2.01083970570531
30
0
41
1
10
41.2967588628638
20
-1.73304097044112
30
0
41
1
10
41.2853781017572
20
-1.44422384163761
30
0
41
1
10
41.278163304898
20
-1.26017587199297
30
0
41
1
10
41.2767155368112
20
-1.22318904772351
30
0
41
1
10
41.2738114767579
20
-1.14885710160516
30
0
41
1
10
41.2723574406349
20
-1.11156950095605
30
0
41
1
10
41.2680058840471
20
-0.999732227190009
30
0
41
1
10
41.2651130062712
20
-0.925053603790985
30
0
41
1
10
41.2564648461366
20
-0.700662600996566
30
0
41
1
10
41.2450191989756
20
-0.400528986542696
30
0
41
1
10
41.2337094304488
20
-0.0985345368677599
30
0
41
1
10
41.2252157170493
20
0.128664416379593
30
0
41
1
10
41.2209652374418
20
0.242439929567354
30
0
41
1
10
41.2166902682421
20
0.356482921741673
30
0
41
1
10
41.2138321869433
20
0.43257158267474
30
0
41
1
10
41.2123977981942
20
0.470680842406608
30
0
41
1
10
41.2052171037353
20
0.660888472170569
30
0
41
1
10
41.1994292792551
20
0.811844273565782
30
0
41
1
10
41.1936088633357
20
0.961594464248179
30
0
0
SPLINE
5
1B4
100
AcDbEntity
8
1
62
256
6
ByLayer
370
18
48
1
60
0
100
AcDbSpline
70
4
71
3
72
8
73
4
40
0
40
0
40
0
40
0
40
1
40
1
40
1
40
1
41
1
10
41.1936088633357
20
0.961594464248179
30
0
41
1
10
41.0680540848319
20
0.957984992533682
30
0
41
1
10
40.9424993070244
20
0.954375566319925
30
0
41
1
10
40.816944529895
20
0.95076622393762
30
0
0
SPLINE
5
1B5
100
AcDbEntity
8
1
62
256
6
ByLayer
370
18
48
1
60
0
100
AcDbSpline
70
4
71
3
72
12
73
8
40
0
40
0
40
0
40
0
40
0.162109275288662
40
0.162109275288662
40
0.465863330028723
40
0.465863330028723
40
1
40
1
40
1
40
1
41
1
10
42.1770016543313
20
0.989865467790395
30
0
41
1
10
42.1566758223813
20
0.984312044755825
30
0
41
1
10
42.1363488956487
20
0.978761531944315
30
0
41
1
10
42.0779308010201
20
0.962819962859527
30
0
41
1
10
42.0398366990836
20
0.95243701336878
30
0
41
1
10
41.93474310981
20
0.923833216338977
30
0
41
1
10
41.8677339222232
20
0.905640471949795
30
0
41
1
10
41.8007065137432
20
0.887500734967261
30
0
0
SPLINE
5
1B6
100
AcDbEntity
8
1
62
256
6
ByLayer
370
13
48
1
60
0
100
AcDbSpline
70
4
71
3
72
11
73
7
40
0
40
0
40
0
40
0
40
0.0878378360794632
40
0.644660039062036
40
0.923071140553322
40
1
40
1
40
1
40
1
41
1
10
41.8007065137432
20
0.887500734967261
30
0
41
1
10
41.8049876178843
20
0.79554804481316
30
0
41
1
10
41.8364075255086
20
0.116174457429395
30
0
41
1
10
41.8813968252519
20
-0.889813747479934
30
0
41
1
10
41.9258544438163
20
-1.8034751477544
30
0
41
1
10
41.9431732593426
20
-2.13675632509856
30
0
41
1
10
41.9469226736462
20
-2.20773400348008
30
0
0
SPLINE
5
1B7
100
AcDbEntity
8
1
62
256
6
ByLayer
370
18
48
1
60
0
100
AcDbSpline
70
4
71
3
72
12
73
8
40
0
40
0
40
0
40
0
40
0.290950495687137
40
0.290950495687137
40
0.581900937688796
40
0.581900937688796
40
1
40
1
40
1
40
1
41
1
10
41.9469226736462
20
-2.20773400348008
30
0
41
1
10
41.9849708797685
20
-2.24930665283125
30
0
41
1
10
42.0230143045296
20
-2.29093510540486
30
0
41
1
10
42.0990975051599
20
-2.37417734506954
30
0
41
1
10
42.1371370560715
20
-2.4157959556164
30
0
41
1
10
42.2298349328358
20
-2.51722934066626
30
0
41
1
10
42.2844909903369
20
-2.57705094437526
30
0
41
1
10
42.3391432366575
20
-2.63688830488511
30
0
0
SPLINE
5
1B8
100
AcDbEntity
8
1
62
256
6
ByLayer
370
18
48
1
60
0
100
AcDbSpline
70
4
71
3
72
28
73
24
40
0
40
0
40
0
40
0
40
0.125
40
0.125
40
0.25
40
0.25
40
0.375000000000001
40
0.375000000000001
40
0.406250000000001
40
0.406250000000001
40
0.437500000000001
40
0.437500000000001
40
0.500000000000001
40
0.500000000000001
40
0.625000000000001
40
0.625000000000001
40
0.750000000000001
40
0.750000000000001
40
0.812500000000001
40
0.812500000000001
40
0.875
40
0.875
40
1
40
1
40
1
40
1
41
1
10
50.0211517198921
20
-2.60765027490487
30
0
41
1
10
50.0129319317639
20
-2.47325811273208
30
0
41
1
10
50.0049406935554
20
-2.33569308177789
30
0
41
1
10
49.9894489679989
20
-2.05432836656578
30
0
41
1
10
49.9819608201614
20
-1.91052661187683
30
0
41
1
10
49.9674846106627
20
-1.6166743926527
30
0
41
1
10
49.9604840686519
20
-1.46662721825274
30
0
41
1
10
49.9520083095334
20
-1.27507103634034
30
0
41
1
10
49.9503268286942
20
-1.23655956083417
30
0
41
1
10
49.9469897216261
20
-1.15913218862389
30
0
41
1
10
49.9453346479276
20
-1.12022592658701
30
0
41
1
10
49.9404342906141
20
-1.00356713547268
30
0
41
1
10
49.9372444623513
20
-0.925653800619415
30
0
41
1
10
49.9278722308827
20
-0.691501256975187
30
0
41
1
10
49.9218916150645
20
-0.534850165576813
30
0
41
1
10
49.9103593664404
20
-0.220473898264686
30
0
41
1
10
49.9047993828867
20
-0.0627492884555068
30
0
41
1
10
49.8966815672584
20
0.17464640701786
30
0
41
1
10
49.8940154389404
20
0.253913520553937
30
0
41
1
10
49.8887574048898
20
0.412722560584768
30
0
41
1
10
49.886162968096
20
0.492347568684295
30
0
41
1
10
49.8785351460221
20
0.729799896257646
30
0
41
1
10
49.8736325635921
20
0.886776510243948
30
0
41
1
10
49.8688855686177
20
1.04242263879678
30
0
0
SPLINE
5
1B9
100
AcDbEntity
8
1
62
256
6
ByLayer
370
18
48
1
60
0
100
AcDbSpline
70
4
71
3
72
8
73
4
40
0
40
0
40
0
40
0
40
1
40
1
40
1
40
1
41
1
10
49.8688855686177
20
1.04242263879678
30
0
41
1
10
49.8139734391384
20
1.04527288100513
30
0
41
1
10
49.7590607484576
20
1.04812449469003
30
0
41
1
10
49.7041475205586
20
1.05097741933199
30
0
0
SPLINE
5
1BA
100
AcDbEntity
8
1
62
256
6
ByLayer
370
18
48
1
60
0
100
AcDbSpline
70
4
71
3
72
8
73
4
40
0
40
0
40
0
40
0
40
1
40
1
40
1
40
1
41
1
10
49.8542766512818
20
-2.64873183531972
30
0
41
1
10
49.9099025082157
20
-2.63503909328497
30
0
41
1
10
49.9655275411449
20
-2.62134522781312
30
0
41
1
10
50.0211517198921
20
-2.60765027490487
30
0
0
SPLINE
5
1BB
100
AcDbEntity
8
1
62
256
6
ByLayer
370
18
48
1
60
0
100
AcDbSpline
70
4
71
3
72
27
73
23
40
0
40
0
40
0
40
0
40
0.125
40
0.125
40
0.25
40
0.25
40
0.375000000000001
40
0.375000000000001
40
0.406250000000001
40
0.406250000000001
40
0.437500000000001
40
0.500000000000001
40
0.500000000000001
40
0.625
40
0.625
40
0.75
40
0.75
40
0.8125
40
0.8125
40
0.875
40
0.875
40
1
40
1
40
1
40
1
41
1
10
49.7041475205586
20
1.05097741933196
30
0
41
1
10
49.7115070373249
20
0.89394455948846
30
0
41
1
10
49.7187538443435
20
0.736186761498033
30
0
41
1
10
49.7329921502405
20
0.419257085549447
30
0
41
1
10
49.7399801064933
20
0.260085059040563
30
0
41
1
10
49.7536814729893
20
-0.0596818091711384
30
0
41
1
10
49.7603943565787
20
-0.220276571981913
30
0
41
1
10
49.7686372729728
20
-0.421941603592387
30
0
41
1
10
49.7702770879727
20
-0.462284553593804
30
0
41
1
10
49.7735256651485
20
-0.542620498814927
30
0
41
1
10
49.7783584298894
20
-0.662756205589147
30
0
41
1
10
49.783079195174
20
-0.781797711477054
30
0
41
1
10
49.7923983162374
20
-1.01843900566414
30
0
41
1
10
49.79846091158
20
-1.17427919970794
30
0
41
1
10
49.8103551211704
20
-1.48213995098737
30
0
41
1
10
49.8161689291043
20
-1.63416147407145
30
0
41
1
10
49.8246908555861
20
-1.85926784235974
30
0
41
1
10
49.8274990744476
20
-1.9338148135673
30
0
41
1
10
49.8330607287153
20
-2.08191103661596
30
0
41
1
10
49.8358015468045
20
-2.15509697917247
30
0
41
1
10
49.8438991313072
20
-2.37159639752346
30
0
41
1
10
49.8491328698215
20
-2.51207571757647
30
0
41
1
10
49.8542766512818
20
-2.64873183531972
30
0
0
SPLINE
5
1BC
100
AcDbEntity
8
1
62
256
6
ByLayer
370
18
48
1
60
0
100
AcDbSpline
70
4
71
3
72
12
73
8
40
0
40
0
40
0
40
0
40
0.222386360029261
40
0.222386360029261
40
0.504005019069751
40
0.504005019069751
40
1
40
1
40
1
40
1
41
1
10
49.7041475205586
20
1.05097741933199
30
0
41
1
10
49.6740684197676
20
1.04280586697357
30
0
41
1
10
49.6439868910179
20
1.03464043044158
30
0
41
1
10
49.5758056043153
20
1.01615090346053
30
0
41
1
10
49.5377042359299
20
1.00583112707108
30
0
41
1
10
49.4324842302096
20
0.977373307900223
30
0
41
1
10
49.365355455311
20
0.959263764851755
30
0
41
1
10
49.2982077627321
20
0.941207806865236
30
0
0
SPLINE
5
1BD
100
AcDbEntity
8
1
62
256
6
ByLayer
370
13
48
1
60
0
100
AcDbSpline
70
4
71
3
72
11
73
7
40
0
40
0
40
0
40
0
40
0.0380800270265606
40
0.586638643657278
40
0.860917951972637
40
1
40
1
40
1
40
1
41
1
10
49.2982077627321
20
0.941207806865208
30
0
41
1
10
49.3000916935493
20
0.900843464013093
30
0
41
1
10
49.3291144309336
20
0.277062599118324
30
0
41
1
10
49.3717065724871
20
-0.676944257001395
30
0
41
1
10
49.4192955749648
20
-1.67263483082485
30
0
41
1
10
49.439745769769
20
-2.07183389844815
30
0
41
1
10
49.4466265653006
20
-2.20220233741691
30
0
0
SPLINE
5
1BE
100
AcDbEntity
8
1
62
256
6
ByLayer
370
18
48
1
60
0
100
AcDbSpline
70
4
71
3
72
12
73
8
40
0
40
0
40
0
40
0
40
0.279918289184696
40
0.279918289184696
40
0.55983641983673
40
0.55983641983673
40
1
40
1
40
1
40
1
41
1
10
49.4466265653006
20
-2.20220233741694
30
0
41
1
10
49.4846737706063
20
-2.24378302724335
30
0
41
1
10
49.5227151974285
20
-2.28544209515854
30
0
41
1
10
49.5987930226598
20
-2.36878072390874
30
0
41
1
10
49.6368297370028
20
-2.41045214909781
30
0
41
1
10
49.7346734404731
20
-2.51764754644833
30
0
41
1
10
49.7944773577128
20
-2.58317923416539
30
0
41
1
10
49.8542766512818
20
-2.64873183531972
30
0
0
SPLINE
5
1BF
100
AcDbEntity
8
1
62
256
6
ByLayer
370
18
48
1
60
0
100
AcDbSpline
70
4
71
3
72
28
73
24
40
0
40
0
40
0
40
0
40
0.124999999999999
40
0.124999999999999
40
0.249999999999998
40
0.249999999999998
40
0.374999999999996
40
0.374999999999996
40
0.406249999999996
40
0.406249999999996
40
0.437499999999996
40
0.499999999999997
40
0.499999999999997
40
0.624999999999998
40
0.624999999999998
40
0.749999999999999
40
0.749999999999999
40
0.812499999999999
40
0.84375
40
0.84375
40
0.875
40
0.875
40
1
40
1
40
1
40
1
41
1
10
42.1770016543313
20
0.989865467790366
30
0
41
1
10
42.1837375370078
20
0.835661081062426
30
0
41
1
10
42.1904725798432
20
0.680919015263981
30
0
41
1
10
42.2040433270042
20
0.37039069765504
30
0
41
1
10
42.2108513684997
20
0.214602927136298
30
0
41
1
10
42.224450304578
20
-0.0980254396067437
30
0
41
1
10
42.2312410006465
20
-0.254865978971082
30
0
41
1
10
42.2397321038817
20
-0.451592963386105
30
0
41
1
10
42.241432078649
20
-0.491004729716821
30
0
41
1
10
42.2448277071717
20
-0.56975152448311
30
0
41
1
10
42.2499036567652
20
-0.687499294974174
30
0
41
1
10
42.2549342042157
20
-0.804142656944549
30
0
41
1
10
42.2649599157764
20
-1.03598118898677
30
0
41
1
10
42.2715945813667
20
-1.1886123859023
30
0
41
1
10
42.2849509794122
20
-1.49007011471974
30
0
41
1
10
42.2916676711727
20
-1.63889669020577
30
0
41
1
10
42.3017839776313
20
-1.85924730611646
30
0
41
1
10
42.3068533895523
20
-1.9686991334909
30
0
41
1
10
42.3119454982609
20
-2.07704796138384
30
0
41
1
10
42.315346579888
20
-2.14903260945764
30
0
41
1
10
42.3170497300214
20
-2.18488925390065
30
0
41
1
10
42.3255530014951
20
-2.36288071547901
30
0
41
1
10
42.3323432651765
20
-2.50167872626679
30
0
41
1
10
42.3391432366538
20
-2.63688830488164
30
0
0
SPLINE
5
1C0
100
AcDbEntity
8
1
62
256
6
ByLayer
370
18
48
1
60
0
100
AcDbSpline
70
4
71
3
72
8
73
4
40
0
40
0
40
0
40
0
40
1
40
1
40
1
40
1
41
1
10
42.339143236666
20
-2.63688830488204
30
0
41
1
10
42.388683468042
20
-2.64130003751609
30
0
41
1
10
42.4382237298918
20
-2.64571178190997
30
0
41
1
10
42.4877640218871
20
-2.65012353717054
30
0
0
SPLINE
5
1C1
100
AcDbEntity
8
1
62
256
6
ByLayer
370
18
48
1
60
0
100
AcDbSpline
70
4
71
3
72
8
73
4
40
0
40
0
40
0
40
0
40
1
40
1
40
1
40
1
41
1
10
42.3496677819631
20
0.994829234354569
30
0
41
1
10
42.2921124059292
20
0.993174659428604
30
0
41
1
10
42.2345570300525
20
0.991520069343181
30
0
41
1
10
42.1770016543313
20
0.989865467790395
30
0
0
SPLINE
5
1C2
100
AcDbEntity
8
1
62
256
6
ByLayer
370
18
48
1
60
0
100
AcDbSpline
70
4
71
3
72
29
73
25
40
0
40
0
40
0
40
0
40
0.125
40
0.125
40
0.25
40
0.25
40
0.375000000000001
40
0.375000000000001
40
0.406250000000001
40
0.406250000000001
40
0.437500000000001
40
0.437500000000001
40
0.500000000000001
40
0.500000000000001
40
0.625000000000001
40
0.625000000000001
40
0.750000000000001
40
0.750000000000001
40
0.812500000000001
40
0.843750000000001
40
0.843750000000001
40
0.875000000000001
40
0.875000000000001
40
1
40
1
40
1
40
1
41
1
10
42.4877640218871
20
-2.65012353717057
30
0
41
1
10
42.4820038855448
20
-2.51468932456149
30
0
41
1
10
42.476264334004
20
-2.37629254757417
30
0
41
1
10
42.4648262278748
20
-2.09372876213942
30
0
41
1
10
42.4591286679204
20
-1.94956142532882
30
0
41
1
10
42.4477157227958
20
-1.65545571933225
30
0
41
1
10
42.4419923756107
20
-1.50551752235418
30
0
41
1
10
42.4347891773503
20
-1.31439225835356
30
0
41
1
10
42.4333461285838
20
-1.27598168603896
30
0
41
1
10
42.4304541260029
20
-1.19878546657336
30
0
41
1
10
42.4290062675006
20
-1.16002878342181
30
0
41
1
10
42.4246746964498
20
-1.04380866185738
30
0
41
1
10
42.4217958265456
20
-0.966200923780974
30
0
41
1
10
42.4131644406696
20
-0.733002179699184
30
0
41
1
10
42.4074029181167
20
-0.577036839763991
30
0
41
1
10
42.3958353018777
20
-0.264124041072449
30
0
41
1
10
42.390044801354
20
-0.10717614618315
30
0
41
1
10
42.3813696400573
20
0.12899094440931
30
0
41
1
10
42.3770339353262
20
0.247261081753635
30
0
41
1
10
42.3726976103414
20
0.365815246787747
30
0
41
1
10
42.3698056704293
20
0.444915128317234
30
0
41
1
10
42.3683578461677
20
0.484533884267421
30
0
41
1
10
42.3611329119273
20
0.682255304422341
30
0
41
1
10
42.3554035660643
20
0.839172034721997
30
0
41
1
10
42.3496677819631
20
0.994829234354569
30
0
0
SPLINE
5
1C3
100
AcDbEntity
8
1
62
256
6
ByLayer
370
18
48
1
60
0
100
AcDbSpline
70
4
71
3
72
10
73
6
40
0
40
0
40
0
40
0
40
0.5
40
0.5
40
1
40
1
40
1
40
1
41
1
10
42.4877640218871
20
-2.65012353717057
30
0
41
1
10
42.5539300576992
20
-2.57629128307016
30
0
41
1
10
42.620041497506
20
-2.50245797145666
30
0
41
1
10
42.7521251889515
20
-2.35475092681119
30
0
41
1
10
42.8180897717075
20
-2.28081617490727
30
0
41
1
10
42.8839834628572
20
-2.2069880528027
30
0
0
SPLINE
5
1C4
100
AcDbEntity
8
1
62
256
6
ByLayer
370
13
48
1
60
0
100
AcDbSpline
70
4
71
3
72
10
73
6
40
0
40
0
40
0
40
0
40
0.453469454364509
40
0.731368142138707
40
1
40
1
40
1
40
1
41
1
10
42.737497563494
20
0.894208593667742
30
0
41
1
10
42.7596398379849
20
0.41859844192669
30
0
41
1
10
42.795351675038
20
-0.375267093243451
30
0
41
1
10
42.8441801652284
20
-1.42415618129192
30
0
41
1
10
42.8708665283145
20
-1.95869127558623
30
0
41
1
10
42.8839834628572
20
-2.20698805280267
30
0
0
SPLINE
5
1C5
100
AcDbEntity
8
1
62
256
6
ByLayer
370
18
48
1
60
0
100
AcDbSpline
70
4
71
3
72
12
73
8
40
0
40
0
40
0
40
0
40
0.293148482586046
40
0.293148482586046
40
0.586296961707666
40
0.586296961707666
40
1
40
1
40
1
40
1
41
1
10
42.7374975634939
20
0.894208593667742
30
0
41
1
10
42.699617466425
20
0.903986835415992
30
0
41
1
10
42.6617314344029
20
0.913783193854073
30
0
41
1
10
42.5859492203603
20
0.933408142017328
30
0
41
1
10
42.5480530342671
20
0.943236732094903
30
0
41
1
10
42.4566657051234
20
0.966969833905068
30
0
41
1
10
42.4031702498943
20
0.980888332478884
30
0
41
1
10
42.3496677819631
20
0.994829234354569
30
0
0
SPLINE
5
1C6
100
AcDbEntity
8
1
62
256
6
ByLayer
370
18
48
1
60
0
100
AcDbSpline
70
4
71
3
72
15
73
11
40
0
40
0
40
0
40
0
40
0.500000000000002
40
0.500000000000002
40
0.750000000000001
40
0.750000000000001
40
0.875
40
0.9375
40
0.9375
40
1
40
1
40
1
40
1
41
1
10
37.725417640397
20
0.864461433775745
30
0
41
1
10
36.7706618466895
20
0.84588758043509
30
0
41
1
10
35.8160049519283
20
0.836650969691476
30
0
41
1
10
34.3844995774991
20
0.836662649383072
30
0
41
1
10
33.9074315595131
20
0.838976530454914
30
0
41
1
10
33.1920037375107
20
0.845881984939695
30
0
41
1
10
32.834333539392
20
0.850193282558195
30
0
41
1
10
32.4767349524
20
0.855784813251972
30
0
41
1
10
32.2383526311652
20
0.859796498397401
30
0
41
1
10
32.1191663794705
20
0.861865787821699
30
0
41
1
10
32
20
0.864329356156986
30
0
0
SPLINE
5
1C7
100
AcDbEntity
8
1
62
256
6
ByLayer
370
18
48
1
60
0
100
AcDbSpline
70
4
71
3
72
8
73
4
40
0
40
0
40
0
40
0
40
1
40
1
40
1
40
1
41
1
10
37.7390564074823
20
0.860805459836598
30
0
41
1
10
37.7345102135076
20
0.862023658661457
30
0
41
1
10
37.7299639574052
20
0.863242317765923
30
0
41
1
10
37.725417640397
20
0.864461433775716
30
0
0
SPLINE
5
1C8
100
AcDbEntity
8
1
62
256
6
ByLayer
370
18
48
1
60
0
100
AcDbSpline
70
4
71
3
72
28
73
24
40
0
40
0
40
0
40
0
40
0.125000000000046
40
0.125000000000046
40
0.187500000000042
40
0.187500000000042
40
0.250000000000039
40
0.312500000000035
40
0.312500000000035
40
0.375000000000031
40
0.375000000000031
40
0.500000000000025
40
0.500000000000025
40
0.562500000000022
40
0.562500000000022
40
0.625000000000019
40
0.687500000000016
40
0.687500000000016
40
0.750000000000013
40
0.750000000000013
40
0.875000000000006
40
0.875000000000006
40
1
40
1
40
1
40
1
41
1
10
38.0334201368673
20
0.856492773426936
30
0
41
1
10
38.0240141041671
20
0.854794229175752
30
0
41
1
10
38.0134798523893
20
0.8533022909848
30
0
41
1
10
37.9960453443972
20
0.851364123251784
30
0
41
1
10
37.9899250523817
20
0.850765777795942
30
0
41
1
10
37.9772660509257
20
0.849688138147087
30
0
41
1
10
37.9642964896968
20
0.848736942975563
30
0
41
1
10
37.950724846015
20
0.848031056823714
30
0
41
1
10
37.9368486343533
20
0.847449329685134
30
0
41
1
10
37.9297085149762
20
0.847219731124568
30
0
41
1
10
37.9082642693068
20
0.846736093564687
30
0
41
1
10
37.8939265941536
20
0.84667917297773
30
0
41
1
10
37.8723580761388
20
0.84699041347983
30
0
41
1
10
37.8651251328357
20
0.84716281339729
30
0
41
1
10
37.8510092014756
20
0.847634352250452
30
0
41
1
10
37.8371609815197
20
0.848232595328199
30
0
41
1
10
37.8238396578636
20
0.84908009902648
30
0
41
1
10
37.8107889420842
20
0.850055541205535
30
0
41
1
10
37.8044119065709
20
0.850607535260906
30
0
41
1
10
37.7862024281187
20
0.852411430976701
30
0
41
1
10
37.7750985868102
20
0.853821585218753
30
0
41
1
10
37.7550168969544
20
0.857066996734943
30
0
41
1
10
37.7463150812386
20
0.858860424519293
30
0
41
1
10
37.7390564074823
20
0.860805459836598
30
0
0
SPLINE
5
1C9
100
AcDbEntity
8
1
62
256
6
ByLayer
370
18
48
1
60
0
100
AcDbSpline
70
4
71
3
72
23
73
19
40
0
40
0
40
0
40
0
40
0.102450009080424
40
0.128439255511542
40
0.128439255511542
40
0.180417748373775
40
0.232396241236009
40
0.336353226960478
40
0.440310212684946
40
0.544267198409414
40
0.648224184133882
40
0.75218116985835
40
0.856138155582818
40
0.908116648445052
40
0.934105894876169
40
0.947100518091728
40
0.960095141307286
40
1
40
1
40
1
40
1
41
1
10
38.0334182404227
20
0.854412191417794
30
0
41
1
10
38.0334182104381
20
0.819072774119519
30
0
41
1
10
38.0334181730155
20
0.775046189177118
30
0
41
1
10
38.0334181358826
20
0.731500583813016
30
0
41
1
10
38.033418115494
20
0.707607872593485
30
0
41
1
10
38.0334180951861
20
0.686747873096266
30
0
41
1
10
38.0334180807673
20
0.689152563004455
30
0
41
1
10
38.0334181199802
20
0.787538810901765
30
0
41
1
10
38.0334182770091
20
1.08492602611889
30
0
41
1
10
38.0334185448503
20
1.55880470263284
30
0
41
1
10
38.0334189022191
20
2.17054921914425
30
0
41
1
10
38.0334193104708
20
2.854806348632
30
0
41
1
10
38.033419658162
20
3.42832814225136
30
0
41
1
10
38.0334198886837
20
3.80483829272023
30
0
41
1
10
38.0334200020388
20
3.9891093666387
30
0
41
1
10
38.0334200619247
20
4.08622095837953
30
0
41
1
10
38.0334201469808
20
4.22395055407972
30
0
41
1
10
38.0334202201419
20
4.34238840964287
30
0
41
1
10
38.0334202756416
20
4.43223153843817
30
0
0
SPLINE
5
1CA
100
AcDbEntity
8
1
62
256
6
ByLayer
370
18
48
1
60
0
100
AcDbSpline
70
4
71
3
72
8
73
4
40
0
40
0
40
0
40
0
40
1
40
1
40
1
40
1
41
1
10
37.8003730149336
20
4.39952614132449
30
0
41
1
10
37.8780549229204
20
4.41042966420838
30
0
41
1
10
37.9557372912043
20
4.42133199786571
30
0
41
1
10
38.0334201368673
20
4.43223301033333
30
0
0
SPLINE
5
1CB
100
AcDbEntity
8
1
62
256
6
ByLayer
370
18
48
1
60
0
100
AcDbSpline
70
4
71
3
72
8
73
4
40
0
40
0
40
0
40
0
40
1
40
1
40
1
40
1
41
1
10
37.7804138103292
20
4.365427498266
30
0
41
1
10
37.7870670157877
20
4.37679390516237
30
0
41
1
10
37.7937200804791
20
4.3881601089108
30
0
41
1
10
37.8003730149313
20
4.39952614134054
30
0
0
SPLINE
5
1CC
100
AcDbEntity
8
1
62
256
6
ByLayer
370
18
48
1
60
0
100
AcDbSpline
70
4
71
3
72
29
73
25
40
0
40
0
40
0
40
0
40
0.125000000000015
40
0.125000000000015
40
0.250000000000029
40
0.250000000000029
40
0.312500000000038
40
0.312500000000038
40
0.375000000000047
40
0.437500000000056
40
0.437500000000056
40
0.500000000000065
40
0.500000000000065
40
0.625000000000026
40
0.625000000000026
40
0.749999999999987
40
0.749999999999987
40
0.812499999999991
40
0.812499999999991
40
0.874999999999994
40
0.874999999999994
40
0.937499999999997
40
0.937499999999997
40
1
40
1
40
1
40
1
41
1
10
37.4747650607098
20
4.35381644174888
30
0
41
1
10
37.4832335905944
20
4.34132327492785
30
0
41
1
10
37.4931766679472
20
4.33001069370039
30
0
41
1
10
37.5161143686112
20
4.30983409840994
30
0
41
1
10
37.5286761734787
20
4.30136303677889
30
0
41
1
10
37.548984757101
20
4.29111494436918
30
0
41
1
10
37.5560615902441
20
4.28809036526596
30
0
41
1
10
37.5704633823313
20
4.28300098862192
30
0
41
1
10
37.5850730011055
20
4.27886725271554
30
0
41
1
10
37.6000875384202
20
4.27659521288504
30
0
41
1
10
37.6153089941329
20
4.27527448199439
30
0
41
1
10
37.6230313837384
20
4.27509876156626
30
0
41
1
10
37.6458473968174
20
4.27602137072361
30
0
41
1
10
37.6608265614453
20
4.27852013357736
30
0
41
1
10
37.6902517800012
20
4.28736039881375
30
0
41
1
10
37.704091852359
20
4.29351705263929
30
0
41
1
10
37.7235942293655
20
4.30525657799708
30
0
41
1
10
37.7299232957122
20
4.30962752909412
30
0
41
1
10
37.741866436879
20
4.31903451051349
30
0
41
1
10
37.7474959292754
20
4.32407083875549
30
0
41
1
10
37.7580878379056
20
4.33479206868955
30
0
41
1
10
37.7630501486173
20
4.3404767701322
30
0
41
1
10
37.7722930784889
20
4.35250833054789
30
0
41
1
10
37.7765659194769
20
4.35885372064962
30
0
41
1
10
37.7804138103293
20
4.365427498266
30
0
0
SPLINE
5
1CD
100
AcDbEntity
8
1
62
256
6
ByLayer
370
18
48
1
60
0
100
AcDbSpline
70
4
71
3
72
17
73
13
40
0
40
0
40
0
40
0
40
0.25
40
0.25
40
0.5
40
0.5
40
0.625
40
0.625
40
0.75
40
0.875
40
0.875
40
1
40
1
40
1
40
1
41
1
10
32
20
3.58353177557635
30
0
41
1
10
32.4560404936099
20
3.64820369353052
30
0
41
1
10
32.9121709610961
20
3.712496407705
30
0
41
1
10
33.8245207678301
20
3.84091381201352
30
0
41
1
10
34.2807409174405
20
3.90503152605592
30
0
41
1
10
34.9651132626219
20
4.00121872606962
30
0
41
1
10
35.1932447462163
20
4.03328052239277
30
0
41
1
10
35.6495217254786
20
4.09740464447651
30
0
41
1
10
36.1058119775009
20
4.16152880890064
30
0
41
1
10
36.562121903509
20
4.22563966744764
30
0
41
1
10
37.0184387914071
20
4.28973805758096
30
0
41
1
10
37.2466002560871
20
4.32178141682323
30
0
41
1
10
37.4747650607097
20
4.35381644174885
30
0
0
SPLINE
5
1CE
100
AcDbEntity
8
1
62
256
6
ByLayer
370
18
48
1
60
0
100
AcDbSpline
70
4
71
3
72
8
73
4
40
0
40
0
40
0
40
0
40
1
40
1
40
1
40
1
41
1
10
49.5585347566975
20
5.0781758581071
30
0
41
1
10
49.5578120259707
20
5.078679814336
30
0
41
1
10
49.5570884570798
20
5.07908379883546
30
0
41
1
10
49.556363931928
20
5.079387209533
30
0
0
SPLINE
5
1CF
100
AcDbEntity
8
1
62
256
6
ByLayer
370
18
48
1
60
0
100
AcDbSpline
70
4
71
3
72
12
73
8
40
0
40
0
40
0
40
0
40
0.443476985606247
40
0.443476985606247
40
0.947135670579066
40
0.947135670579066
40
1
40
1
40
1
40
1
41
1
10
46.9199321317254
20
5.05001121808394
30
0
41
1
10
46.9226860813121
20
5.05764396100594
30
0
41
1
10
46.9254446675244
20
5.06383773157157
30
0
41
1
10
46.9313511688891
20
5.07396608734629
30
0
41
1
10
46.934501728781
20
5.07747693052281
30
0
41
1
10
46.9380017926509
20
5.07924238839502
30
0
41
1
10
46.93833437238
20
5.07938890557912
30
0
41
1
10
46.9386670106794
20
5.0795142555715
30
0
0
SPLINE
5
1D0
100
AcDbEntity
8
1
62
256
6
ByLayer
370
18
48
1
60
0
100
AcDbSpline
70
4
71
3
72
16
73
12
40
0
40
0
40
0
40
0
40
0.250000000000005
40
0.250000000000005
40
0.500000000000011
40
0.500000000000011
40
0.625000000000014
40
0.625000000000014
40
0.750000000000017
40
0.750000000000017
40
1
40
1
40
1
40
1
41
1
10
31.2243649376156
20
-1.80243791151912
30
0
41
1
10
31.2935981904798
20
-1.79933535972478
30
0
41
1
10
31.361880383798
20
-1.79813481563139
30
0
41
1
10
31.4966586193753
20
-1.79957277326352
30
0
41
1
10
31.5631544745308
20
-1.80221120070149
30
0
41
1
10
31.6615686944652
20
-1.80943725258848
30
0
41
1
10
31.6942622914604
20
-1.8124087238123
30
0
41
1
10
31.7584301683936
20
-1.81947133690966
30
0
41
1
10
31.7899459881523
20
-1.8235601782446
30
0
41
1
10
31.8828254695693
20
-1.83761413162563
30
0
41
1
10
31.9425306082996
20
-1.84934940194208
30
0
41
1
10
32.0000000000001
20
-1.8639129430025
30
0
0
SPLINE
5
1D1
100
AcDbEntity
8
1
62
256
6
ByLayer
370
18
48
1
60
0
100
AcDbSpline
70
4
71
3
72
114
73
110
40
0
40
0
40
0
40
0
40
0.062500000000009
40
0.062500000000009
40
0.125000000000018
40
0.125000000000018
40
0.187500000000027
40
0.187500000000027
40
0.250000000000036
40
0.250000000000036
40
0.28125000000004
40
0.28125000000004
40
0.312500000000044
40
0.312500000000044
40
0.343750000000048
40
0.343750000000048
40
0.375000000000052
40
0.375000000000052
40
0.390625000000054
40
0.390625000000054
40
0.406250000000056
40
0.406250000000056
40
0.421875000000058
40
0.421875000000058
40
0.43750000000006
40
0.43750000000006
40
0.453125000000062
40
0.453125000000062
40
0.460937500000063
40
0.460937500000063
40
0.468750000000064
40
0.468750000000064
40
0.476562500000064
40
0.476562500000064
40
0.480468750000064
40
0.480468750000064
40
0.484375000000065
40
0.484375000000065
40
0.486328125000065
40
0.486328125000065
40
0.488281250000064
40
0.488281250000064
40
0.492187500000064
40
0.492187500000064
40
0.494140625000064
40
0.494140625000064
40
0.496093750000063
40
0.496093750000063
40
0.498046875000063
40
0.498046875000063
40
0.499023437500063
40
0.499023437500063
40
0.500000000000063
40
0.501953125000062
40
0.501953125000062
40
0.502929687500062
40
0.502929687500062
40
0.503906250000062
40
0.505859375000061
40
0.505859375000061
40
0.507812500000061
40
0.507812500000061
40
0.51171875000006
40
0.51171875000006
40
0.513671875000059
40
0.513671875000059
40
0.515625000000058
40
0.515625000000058
40
0.519531250000057
40
0.519531250000057
40
0.523437500000056
40
0.523437500000056
40
0.527343750000055
40
0.527343750000055
40
0.531250000000054
40
0.531250000000054
40
0.539062500000052
40
0.539062500000052
40
0.546875000000051
40
0.546875000000051
40
0.562500000000047
40
0.562500000000047
40
0.570312500000045
40
0.570312500000045
40
0.578125000000044
40
0.578125000000044
40
0.593750000000042
40
0.593750000000042
40
0.60937500000004
40
0.60937500000004
40
0.625000000000038
40
0.625000000000038
40
0.656250000000035
40
0.656250000000035
40
0.687500000000032
40
0.687500000000032
40
0.718750000000028
40
0.718750000000028
40
0.750000000000025
40
0.750000000000025
40
0.781250000000022
40
0.781250000000022
40
0.812500000000019
40
0.812500000000019
40
0.875000000000013
40
0.875000000000013
40
0.937500000000006
40
0.937500000000006
40
1
40
1
40
1
40
1
41
1
10
31.2243649376157
20
-3.23838890535737
30
0
41
1
10
30.7463524122565
20
-3.24485502693355
30
0
41
1
10
30.2686062406829
20
-3.25184150812808
30
0
41
1
10
29.3137144951338
20
-3.26655402635328
30
0
41
1
10
28.8365684581336
20
-3.27428256253864
30
0
41
1
10
27.8829753300707
20
-3.29002912780109
30
0
41
1
10
27.4065273147895
20
-3.29805222042722
30
0
41
1
10
26.4544791119629
20
-3.31367978836312
30
0
41
1
10
25.978877636468
20
-3.321297371985
30
0
41
1
10
25.2662926042775
20
-3.33151230046087
30
0
41
1
10
25.0289071858947
20
-3.33471022844867
30
0
41
1
10
24.5548874656578
20
-3.34044701604864
30
0
41
1
10
24.3182045089805
20
-3.34298829963237
30
0
41
1
10
23.8456329495003
20
-3.34707549750456
30
0
41
1
10
23.6097427247383
20
-3.34862502494812
30
0
41
1
10
23.1389710290525
20
-3.35021662950547
30
0
41
1
10
22.9040854861509
20
-3.35026765816383
30
0
41
1
10
22.5527888111621
20
-3.34857107971132
30
0
41
1
10
22.4358383965286
20
-3.34770630714559
30
0
41
1
10
22.2024693942968
20
-3.34520442836347
30
0
41
1
10
22.086149919498
20
-3.34357054887772
30
0
41
1
10
21.8544206676289
20
-3.33929491528994
30
0
41
1
10
21.7390089447842
20
-3.33665578799884
30
0
41
1
10
21.509367431904
20
-3.33000283252778
30
0
41
1
10
21.3951329931117
20
-3.32599528346492
30
0
41
1
10
21.1683028053407
20
-3.31598968433571
30
0
41
1
10
21.0556932389568
20
-3.31001030717545
30
0
41
1
10
20.8886696531759
20
-3.29865552300546
30
0
41
1
10
20.8334505448192
20
-3.294474729217
30
0
41
1
10
20.7246221669494
20
-3.28510126938747
30
0
41
1
10
20.6709525835861
20
-3.27990838901604
30
0
41
1
10
20.5656550674081
20
-3.26811282721826
30
0
41
1
10
20.5140139884599
20
-3.26151960144
30
0
41
1
10
20.4388261612691
20
-3.25003819822211
30
0
41
1
10
20.4141465943841
20
-3.24594281557344
30
0
41
1
10
20.3657767364995
20
-3.23705498079451
30
0
41
1
10
20.3420836663827
20
-3.23226463550591
30
0
41
1
10
20.3075573074714
20
-3.22436263900971
30
0
41
1
10
20.2962187056324
20
-3.22160829156428
30
0
41
1
10
20.273952218336
20
-3.21580864476067
30
0
41
1
10
20.2630184372481
20
-3.2127598401803
30
0
41
1
10
20.2314198556549
20
-3.20321821565511
30
0
41
1
10
20.2117884334351
20
-3.19630476850989
30
0
41
1
10
20.1854540601198
20
-3.18473182647222
30
0
41
1
10
20.1772198152646
20
-3.18067394713799
30
0
41
1
10
20.1623189545465
20
-3.17223155227794
30
0
41
1
10
20.1556128618023
20
-3.16783102883929
30
0
41
1
10
20.1439369411606
20
-3.15861107347703
30
0
41
1
10
20.1389660730102
20
-3.15379189266423
30
0
41
1
10
20.1330558944538
20
-3.14618966143939
30
0
41
1
10
20.131341545535
20
-3.14358382788481
30
0
41
1
10
20.1285230402011
20
-3.13833037258371
30
0
41
1
10
20.1251842026209
20
-3.13036135115692
30
0
41
1
10
20.12454372252
20
-3.12212242152896
30
0
41
1
10
20.1257485321177
20
-3.11369871671738
30
0
41
1
10
20.1264620593293
20
-3.11084890580281
30
0
41
1
10
20.1284914927482
20
-3.10514207618587
30
0
41
1
10
20.1324205393844
20
-3.0966017237088
30
0
41
1
10
20.1388351940532
20
-3.08811721458943
30
0
41
1
10
20.1493495521573
20
-3.07684868276041
30
0
41
1
10
20.1556307994967
20
-3.07120874171645
30
0
41
1
10
20.1765868189512
20
-3.0547275029752
30
0
41
1
10
20.1934033177844
20
-3.044207655771
30
0
41
1
10
20.2215631456311
20
-3.02891165526569
30
0
41
1
10
20.2314686358819
20
-3.02388528578362
30
0
41
1
10
20.2520416098617
20
-3.01401709866775
30
0
41
1
10
20.262656720906
20
-3.00920658724769
30
0
41
1
10
20.2953168067755
20
-2.99508294764729
30
0
41
1
10
20.3181632802641
20
-2.98607206987768
30
0
41
1
10
20.365392101013
20
-2.96863129029703
30
0
41
1
10
20.3897802840152
20
-2.96020359815793
30
0
41
1
10
20.4397385165523
20
-2.94379712796348
30
0
41
1
10
20.4653748720349
20
-2.93580064810789
30
0
41
1
10
20.5172297458371
20
-2.92027703447567
30
0
41
1
10
20.5434428630823
20
-2.91274975345277
30
0
41
1
10
20.6227631954134
20
-2.89072971135659
30
0
41
1
10
20.6765424241811
20
-2.87679150849434
30
0
41
1
10
20.7853402246518
20
-2.84995046631127
30
0
41
1
10
20.8403652236941
20
-2.83705283596541
30
0
41
1
10
21.00684404985
20
-2.79954977092919
30
0
41
1
10
21.1196786030046
20
-2.77611567203815
30
0
41
1
10
21.2907083833594
20
-2.74252753248888
30
0
41
1
10
21.3480229476335
20
-2.73159866055622
30
0
41
1
10
21.4631641807911
20
-2.71019880510059
30
0
41
1
10
21.5209994499705
20
-2.69972704777334
30
0
41
1
10
21.6946652328881
20
-2.66900026457435
30
0
41
1
10
21.8108348762577
20
-2.6493958329954
30
0
41
1
10
22.0437632686803
20
-2.61154807495896
30
0
41
1
10
22.1605239579929
20
-2.59330916437912
30
0
41
1
10
22.3945165344476
20
-2.55795574959723
30
0
41
1
10
22.5117491022208
20
-2.54084259879411
30
0
41
1
10
22.8640304680144
20
-2.49094048687903
30
0
41
1
10
23.0996566026612
20
-2.45957606969381
30
0
41
1
10
23.5720339529066
20
-2.39980328490469
30
0
41
1
10
23.8087886701934
20
-2.3714008701707
30
0
41
1
10
24.2831808784833
20
-2.31705380969004
30
0
41
1
10
24.5208203256052
20
-2.29111343940184
30
0
41
1
10
24.996826757508
20
-2.24137954589119
30
0
41
1
10
25.2351948510588
20
-2.21758883028676
30
0
41
1
10
25.7125495467028
20
-2.1719364463886
30
0
41
1
10
25.9515357424245
20
-2.15007514834383
30
0
41
1
10
26.4296284218199
20
-2.10815337873802
30
0
41
1
10
26.6687924158639
20
-2.08808772563896
30
0
41
1
10
27.3865979250269
20
-2.03037396369314
30
0
41
1
10
27.8655511106188
20
-1.99519978543466
30
0
41
1
10
28.8241419357768
20
-1.93068199797185
30
0
41
1
10
29.3037804923348
20
-1.90134278530738
30
0
41
1
10
30.2636467441172
20
-1.84798573855659
30
0
41
1
10
30.7438748972887
20
-1.82397012581069
30
0
41
1
10
31.2243649376157
20
-1.80243791151912
30
0
0
SPLINE
5
1D2
100
AcDbEntity
8
1
62
256
6
ByLayer
370
18
48
1
60
0
100
AcDbSpline
70
4
71
3
72
8
73
4
40
0
40
0
40
0
40
0
40
1
40
1
40
1
40
1
41
1
10
49.5585347566998
20
5.07817585810713
30
0
41
1
10
49.5213745703282
20
5.07817507003594
30
0
41
1
10
49.484214383955
20
5.07817428177464
30
0
41
1
10
49.4470541975802
20
5.07817349332331
30
0
0
SPLINE
5
1D3
100
AcDbEntity
8
1
62
256
6
ByLayer
370
18
48
1
60
0
100
AcDbSpline
70
4
71
3
72
8
73
4
40
0
40
0
40
0
40
0
40
1
40
1
40
1
40
1
41
1
10
48.3085790422935
20
5.07814927823364
30
0
41
1
10
48.2714235947869
20
5.07814848601359
30
0
41
1
10
48.2342681472788
20
5.07814769360468
30
0
41
1
10
48.1971126997692
20
5.07814690100705
30
0
0
SPLINE
5
1D4
100
AcDbEntity
8
1
62
256
6
ByLayer
370
18
48
1
60
0
100
AcDbSpline
70
4
71
3
72
8
73
4
40
0
40
0
40
0
40
0
40
1
40
1
40
1
40
1
41
1
10
47.058574917562
20
5.07812255483447
30
0
41
1
10
47.0214403503524
20
5.07812175884018
30
0
41
1
10
46.9843057831413
20
5.07812096265849
30
0
41
1
10
46.9471712159285
20
5.07812016628952
30
0
0
SPLINE
5
1D5
100
AcDbEntity
8
1
62
256
6
ByLayer
370
18
48
1
60
0
100
AcDbSpline
70
4
71
3
72
8
73
4
40
0
40
0
40
0
40
0
40
1
40
1
40
1
40
1
41
1
10
45.8086601090064
20
5.07809569179358
30
0
41
1
10
45.7715054713437
20
5.07809489117537
30
0
41
1
10
45.7343508336795
20
5.0780940903708
30
0
41
1
10
45.6971961960137
20
5.07809328937998
30
0
0
SPLINE
5
1D6
100
AcDbEntity
8
1
62
256
6
ByLayer
370
18
48
1
60
0
100
AcDbSpline
70
4
71
3
72
8
73
4
40
0
40
0
40
0
40
0
40
1
40
1
40
1
40
1
41
1
10
44.558688111755
20
5.07806868690042
30
0
41
1
10
44.5216366553643
20
5.07806788435099
30
0
41
1
10
44.484585198972
20
5.07806708161746
30
0
41
1
10
44.4475337425781
20
5.07806627869991
30
0
0
SPLINE
5
1D7
100
AcDbEntity
8
1
62
256
6
ByLayer
370
18
48
1
60
0
100
AcDbSpline
70
4
71
3
72
8
73
4
40
0
40
0
40
0
40
0
40
1
40
1
40
1
40
1
41
1
10
43.3085614773716
20
5.07804153894685
30
0
41
1
10
43.2714631081778
20
5.07804073124859
30
0
41
1
10
43.2343647389824
20
5.07803992336696
30
0
41
1
10
43.1972663697856
20
5.07803911530212
30
0
0
SPLINE
5
1D8
100
AcDbEntity
8
1
62
256
6
ByLayer
370
18
48
1
60
0
100
AcDbSpline
70
4
71
3
72
8
73
4
40
0
40
0
40
0
40
0
40
1
40
1
40
1
40
1
41
1
10
47.2135753241608
20
1.03558741658662
30
0
41
1
10
47.250629670238
20
1.03584962923702
30
0
41
1
10
47.2876840163045
20
1.03611183915479
30
0
41
1
10
47.3247383623601
20
1.03637404634071
30
0
0
SPLINE
5
1D9
100
AcDbEntity
8
1
62
256
6
ByLayer
370
18
48
1
60
0
100
AcDbSpline
70
4
71
3
72
8
73
4
40
0
40
0
40
0
40
0
40
1
40
1
40
1
40
1
41
1
10
48.462919231991
20
1.04442728254008
30
0
41
1
10
48.5000744064369
20
1.04469014721164
30
0
41
1
10
48.5372295808701
20
1.04495300914499
30
0
41
1
10
48.574384755291
20
1.04521586834096
30
0
0
SPLINE
5
1DA
100
AcDbEntity
8
1
62
256
6
ByLayer
370
18
48
1
60
0
100
AcDbSpline
70
4
71
3
72
8
73
4
40
0
40
0
40
0
40
0
40
1
40
1
40
1
40
1
41
1
10
45.9636115639291
20
1.02674109231572
30
0
41
1
10
46.0007126072364
20
1.02700369705133
30
0
41
1
10
46.0378136505329
20
1.02726629903802
30
0
41
1
10
46.0749146938188
20
1.02752889827661
30
0
0
SPLINE
5
1DB
100
AcDbEntity
8
1
62
256
6
ByLayer
370
18
48
1
60
0
100
AcDbSpline
70
4
71
3
72
8
73
4
40
0
40
0
40
0
40
0
40
1
40
1
40
1
40
1
41
1
10
43.7253678657027
20
-2.66310755372516
30
0
41
1
10
43.6882176433307
20
-2.6631319336071
30
0
41
1
10
43.6510674209573
20
-2.66315631162166
30
0
41
1
10
43.6139171985823
20
-2.66318068776869
30
0
0
SPLINE
5
1DC
100
AcDbEntity
8
1
62
256
6
ByLayer
370
18
48
1
60
0
100
AcDbSpline
70
4
71
3
72
32
73
28
40
0
40
0
40
0
40
0
40
0.0625000000000001
40
0.0625000000000001
40
0.0937499999999999
40
0.0937499999999999
40
0.125
40
0.125
40
0.25
40
0.25
40
0.375000000000001
40
0.500000000000001
40
0.500000000000001
40
0.531250000000001
40
0.531250000000001
40
0.562500000000001
40
0.562500000000001
40
0.625000000000001
40
0.625000000000001
40
0.75
40
0.75
40
0.875
40
0.875
40
0.9375
40
0.96875
40
0.96875
40
1
40
1
40
1
40
1
41
1
10
43.7253678657026
20
-2.66310755372513
30
0
41
1
10
43.7222531721899
20
-2.59532552767007
30
0
41
1
10
43.7191329714318
20
-2.52639611351972
30
0
41
1
10
43.7144371938942
20
-2.42124947595065
30
0
41
1
10
43.7128672391092
20
-2.385861236675
30
0
41
1
10
43.7097317829322
20
-2.31475366209546
30
0
41
1
10
43.7081668887354
20
-2.27904888640671
30
0
41
1
10
43.7003515044058
20
-2.09977828903524
30
0
41
1
10
43.6941197667683
20
-1.95397770964357
30
0
41
1
10
43.6816042158821
20
-1.65773335094471
30
0
41
1
10
43.6690785368553
20
-1.35684350231603
30
0
41
1
10
43.6566078333504
20
-1.04665504792527
30
0
41
1
10
43.6488055254841
20
-0.849802425750795
30
0
41
1
10
43.6472444579651
20
-0.810282346004982
30
0
41
1
10
43.6441196519403
20
-0.730939801367384
30
0
41
1
10
43.6425601397159
20
-0.691224572372477
30
0
41
1
10
43.6378966267146
20
-0.57217863744512
30
0
41
1
10
43.6348039083518
20
-0.492849619001731
30
0
41
1
10
43.6255479242624
20
-0.254966575824909
30
0
41
1
10
43.6194087095943
20
-0.0965162634846592
30
0
41
1
10
43.6070048512138
20
0.220104339255869
30
0
41
1
10
43.600738848788
20
0.37827457703932
30
0
41
1
10
43.5913072505781
20
0.615319996367987
30
0
41
1
10
43.5865824667077
20
0.733790103855085
30
0
41
1
10
43.5818481567213
20
0.852180221821754
30
0
41
1
10
43.5786896867243
20
0.931088988709064
30
0
41
1
10
43.5771080057888
20
0.970567704881404
30
0
41
1
10
43.5755331917926
20
1.00983424049261
30
0
0
SPLINE
5
1DD
100
AcDbEntity
8
1
62
256
6
ByLayer
370
18
48
1
60
0
100
AcDbSpline
70
4
71
3
72
8
73
4
40
0
40
0
40
0
40
0
40
1
40
1
40
1
40
1
41
1
10
43.4646198450022
20
1.00904882317948
30
0
41
1
10
43.5015909606094
20
1.0093106316987
30
0
41
1
10
43.5385620762062
20
1.00957243746947
30
0
41
1
10
43.5755331917925
20
1.00983424049267
30
0
0
SPLINE
5
1DE
100
AcDbEntity
8
1
62
256
6
ByLayer
370
18
48
1
60
0
100
AcDbSpline
70
4
71
3
72
28
73
24
40
0
40
0
40
0
40
0
40
0.125000000000001
40
0.250000000000002
40
0.250000000000002
40
0.312500000000002
40
0.312500000000002
40
0.343750000000002
40
0.343750000000002
40
0.375000000000002
40
0.375000000000002
40
0.500000000000001
40
0.500000000000001
40
0.625000000000001
40
0.625000000000001
40
0.75
40
0.75
40
0.78125
40
0.78125
40
0.8125
40
0.875
40
0.875
40
1
40
1
40
1
40
1
41
1
10
43.4646198450022
20
1.00904882317945
30
0
41
1
10
43.4709188945957
20
0.85332281156343
30
0
41
1
10
43.4834337872742
20
0.540023345404904
30
0
41
1
10
43.4957834718114
20
0.223059162559167
30
0
41
1
10
43.5050433426621
20
-0.0160611057582116
30
0
41
1
10
43.5081301897548
20
-0.0960010729893384
30
0
41
1
10
43.5127741724599
20
-0.216267100946055
30
0
41
1
10
43.5143255346525
20
-0.256441952266812
30
0
41
1
10
43.5174193313636
20
-0.336489098366513
30
0
41
1
10
43.5189636779417
20
-0.376410906532698
30
0
41
1
10
43.526680094884
20
-0.575516014689896
30
0
41
1
10
43.5328540341981
20
-0.73319024413351
30
0
41
1
10
43.5452527216021
20
-1.04539331627697
30
0
41
1
10
43.5514625267254
20
-1.19992259225515
30
0
41
1
10
43.5639156395977
20
-1.50582819362938
30
0
41
1
10
43.5701646356325
20
-1.65720452139573
30
0
41
1
10
43.5780333434938
20
-1.84439503167039
30
0
41
1
10
43.5796113992091
20
-1.88177389115637
30
0
41
1
10
43.5827640200908
20
-1.95611853108792
30
0
41
1
10
43.5874818882821
20
-2.06687776173493
30
0
41
1
10
43.5921689035954
20
-2.17538981062344
30
0
41
1
10
43.6015147013186
20
-2.38946653335302
30
0
41
1
10
43.6077087476757
20
-2.52826083415249
30
0
41
1
10
43.6139171985823
20
-2.66318068776869
30
0
0
SPLINE
5
1DF
100
AcDbEntity
8
1
62
256
6
ByLayer
370
18
48
1
60
0
100
AcDbSpline
70
4
71
3
72
8
73
4
40
0
40
0
40
0
40
0
40
1
40
1
40
1
40
1
41
1
10
44.9753129228263
20
-2.66228657120186
30
0
41
1
10
44.9381429689278
20
-2.66231100592324
30
0
41
1
10
44.9009730150276
20
-2.66233543877689
30
0
41
1
10
44.8638030611259
20
-2.66235986976264
30
0
0
SPLINE
5
1E0
100
AcDbEntity
8
1
62
256
6
ByLayer
370
18
48
1
60
0
100
AcDbSpline
70
4
71
3
72
27
73
23
40
0
40
0
40
0
40
0
40
0.125
40
0.249999999999999
40
0.249999999999999
40
0.312499999999999
40
0.343749999999999
40
0.343749999999999
40
0.374999999999999
40
0.374999999999999
40
0.499999999999999
40
0.499999999999999
40
0.624999999999999
40
0.749999999999999
40
0.749999999999999
40
0.781249999999999
40
0.781249999999999
40
0.812499999999999
40
0.812499999999999
40
0.874999999999999
40
0.874999999999999
40
1
40
1
40
1
40
1
41
1
10
44.9753129228263
20
-2.66228657120183
30
0
41
1
10
44.969067756625
20
-2.52636512167336
30
0
41
1
10
44.956664274427
20
-2.24794783203828
30
0
41
1
10
44.9442539504349
20
-1.95658574731056
30
0
41
1
10
44.9349097878778
20
-1.73315607574929
30
0
41
1
10
44.9302276298446
20
-1.62021224722741
30
0
41
1
10
44.9255148007246
20
-1.50539626888013
30
0
41
1
10
44.922363689732
20
-1.42843169477342
30
0
41
1
10
44.9207822152515
20
-1.38970623200515
30
0
41
1
10
44.9128864590626
20
-1.19602658601994
30
0
41
1
10
44.9065630958969
20
-1.04021337506453
30
0
41
1
10
44.8939590938897
20
-0.726898800822283
30
0
41
1
10
44.8814057906372
20
-0.411895428115372
30
0
41
1
10
44.8689713310567
20
-0.0935279561707318
30
0
41
1
10
44.8611947172933
20
0.106525124433688
30
0
41
1
10
44.8596389469562
20
0.146589517584488
30
0
41
1
10
44.8565246584089
20
0.226826850327029
30
0
41
1
10
44.8549643562185
20
0.26704577342295
30
0
41
1
10
44.8502890976347
20
0.387530613305557
30
0
41
1
10
44.8471877010114
20
0.467423298135799
30
0
41
1
10
44.8378986254203
20
0.705834153331381
30
0
41
1
10
44.831711120338
20
0.863087315903755
30
0
41
1
10
44.8254902412627
20
1.01868449751058
30
0
0
SPLINE
5
1E1
100
AcDbEntity
8
1
62
256
6
ByLayer
370
18
48
1
60
0
100
AcDbSpline
70
4
71
3
72
8
73
4
40
0
40
0
40
0
40
0
40
1
40
1
40
1
40
1
41
1
10
44.7143540711568
20
1.01789768815456
30
0
41
1
10
44.7513994612027
20
1.0181599606897
30
0
41
1
10
44.7884448512379
20
1.01842223047478
30
0
41
1
10
44.8254902412626
20
1.01868449751061
30
0
0
SPLINE
5
1E2
100
AcDbEntity
8
1
62
256
6
ByLayer
370
18
48
1
60
0
100
AcDbSpline
70
4
71
3
72
32
73
28
40
0
40
0
40
0
40
0
40
0.0312499999999997
40
0.0312499999999997
40
0.0624999999999994
40
0.0624999999999994
40
0.124999999999999
40
0.124999999999999
40
0.25
40
0.25
40
0.375
40
0.375
40
0.5
40
0.5
40
0.5625
40
0.5625
40
0.625000000000001
40
0.625000000000001
40
0.750000000000001
40
0.750000000000001
40
0.875000000000001
40
0.875000000000001
40
0.9375
40
0.9375
40
0.96875
40
0.96875
40
1
40
1
40
1
40
1
41
1
10
44.7143540711568
20
1.01789768815453
30
0
41
1
10
44.7159129225153
20
0.978730462801508
30
0
41
1
10
44.7174719199063
20
0.939409176799614
30
0
41
1
10
44.7205918272836
20
0.86045545471211
30
0
41
1
10
44.722154782946
20
0.820770856706076
30
0
41
1
10
44.7268328044208
20
0.701670237543254
30
0
41
1
10
44.7299339526789
20
0.622284260952995
30
0
41
1
10
44.7392142650809
20
0.384169912975068
30
0
41
1
10
44.7453701095249
20
0.225485019354011
30
0
41
1
10
44.7578122674755
20
-0.0917634324129608
30
0
41
1
10
44.7640834039022
20
-0.25032758608333
30
0
41
1
10
44.7766465692666
20
-0.567338021811082
30
0
41
1
10
44.7829383438426
20
-0.725784324398262
30
0
41
1
10
44.792391025493
20
-0.963362368735432
30
0
41
1
10
44.7955231946711
20
-1.04198925528991
30
0
41
1
10
44.8017480405805
20
-1.19787119550435
30
0
41
1
10
44.8048424613735
20
-1.27516991306547
30
0
41
1
10
44.8140913837262
20
-1.50516552037001
30
0
41
1
10
44.8202093598751
20
-1.65596603809047
30
0
41
1
10
44.8325070626519
20
-1.95254288426807
30
0
41
1
10
44.8387056445795
20
-2.09831866584608
30
0
41
1
10
44.8480790373221
20
-2.31314434964526
30
0
41
1
10
44.8512150744829
20
-2.38411223258188
30
0
41
1
10
44.8559379736752
20
-2.48958432090626
30
0
41
1
10
44.8575164413742
20
-2.52459945422157
30
0
41
1
10
44.8606637596672
20
-2.59393363148749
30
0
41
1
10
44.8622345823681
20
-2.6282970493412
30
0
41
1
10
44.8638030611259
20
-2.66235986976267
30
0
0
SPLINE
5
1E3
100
AcDbEntity
8
1
62
256
6
ByLayer
370
18
48
1
60
0
100
AcDbSpline
70
4
71
3
72
15
73
11
40
0
40
0
40
0
40
0
40
0.249999999999994
40
0.499999999999989
40
0.499999999999989
40
0.624999999999986
40
0.624999999999986
40
0.749999999999983
40
0.749999999999983
40
1
40
1
40
1
40
1
41
1
10
31.2243649376156
20
3.34668173023383
30
0
41
1
10
31.2935981904798
20
3.34684551529614
30
0
41
1
10
31.4301627642199
20
3.35745040523878
30
0
41
1
10
31.5631544745307
20
3.38757699234122
30
0
41
1
10
31.6615686944651
20
3.41760302693186
30
0
41
1
10
31.6942622914603
20
3.428902886798
30
0
41
1
10
31.7584301683935
20
3.45376029465862
30
0
41
1
10
31.7899459881523
20
3.4673200509923
30
0
41
1
10
31.8828254695692
20
3.51135039509657
30
0
41
1
10
31.9425306082996
20
3.54515162333644
30
0
41
1
10
32
20
3.58353177557635
30
0
0
SPLINE
5
1E4
100
AcDbEntity
8
1
62
256
6
ByLayer
370
18
48
1
60
0
100
AcDbSpline
70
4
71
3
72
114
73
110
40
0
40
0
40
0
40
0
40
0.0625000000000168
40
0.0625000000000168
40
0.125000000000034
40
0.125000000000034
40
0.18750000000005
40
0.18750000000005
40
0.250000000000067
40
0.250000000000067
40
0.281250000000076
40
0.281250000000076
40
0.312500000000084
40
0.312500000000084
40
0.343750000000092
40
0.343750000000092
40
0.375000000000101
40
0.375000000000101
40
0.390625000000105
40
0.390625000000105
40
0.40625000000011
40
0.40625000000011
40
0.421875000000115
40
0.421875000000115
40
0.437500000000119
40
0.437500000000119
40
0.453125000000124
40
0.453125000000124
40
0.460937500000126
40
0.460937500000126
40
0.468750000000129
40
0.468750000000129
40
0.476562500000131
40
0.476562500000131
40
0.480468750000132
40
0.480468750000132
40
0.484375000000134
40
0.484375000000134
40
0.486328125000134
40
0.486328125000134
40
0.488281250000135
40
0.488281250000135
40
0.492187500000135
40
0.492187500000135
40
0.494140625000136
40
0.494140625000136
40
0.496093750000136
40
0.496093750000136
40
0.498046875000136
40
0.498046875000136
40
0.499023437500136
40
0.499023437500136
40
0.500000000000137
40
0.501953125000137
40
0.501953125000137
40
0.502929687500137
40
0.502929687500137
40
0.503906250000137
40
0.505859375000137
40
0.505859375000137
40
0.507812500000137
40
0.507812500000137
40
0.511718750000137
40
0.511718750000137
40
0.513671875000137
40
0.513671875000137
40
0.515625000000137
40
0.515625000000137
40
0.519531250000137
40
0.519531250000137
40
0.523437500000136
40
0.523437500000136
40
0.527343750000136
40
0.527343750000136
40
0.531250000000136
40
0.531250000000136
40
0.539062500000134
40
0.539062500000134
40
0.546875000000132
40
0.546875000000132
40
0.562500000000129
40
0.562500000000129
40
0.570312500000128
40
0.570312500000128
40
0.578125000000126
40
0.578125000000126
40
0.593750000000121
40
0.593750000000121
40
0.609375000000116
40
0.609375000000116
40
0.625000000000111
40
0.625000000000111
40
0.656250000000102
40
0.656250000000102
40
0.687500000000092
40
0.687500000000092
40
0.718750000000083
40
0.718750000000083
40
0.750000000000073
40
0.750000000000073
40
0.781250000000064
40
0.781250000000064
40
0.812500000000054
40
0.812500000000054
40
0.875000000000036
40
0.875000000000036
40
0.937500000000018
40
0.937500000000018
40
1
40
1
40
1
40
1
41
1
10
31.2243649376156
20
0.876561990929446
30
0
41
1
10
30.7463524122564
20
0.900942608670277
30
0
41
1
10
30.2686062406828
20
0.928225214574326
30
0
41
1
10
29.3137144951336
20
0.989186525745936
30
0
41
1
10
28.8365684581333
20
1.02286134402488
30
0
41
1
10
27.8829753300703
20
1.09746016525617
30
0
41
1
10
27.406527314789
20
1.13837643515197
30
0
41
1
10
26.4544791119623
20
1.22874046380991
30
0
41
1
10
25.9788776364673
20
1.27817950470146
30
0
41
1
10
25.2662926042768
20
1.36028633783656
30
0
41
1
10
25.0289071858939
20
1.38898587969325
30
0
41
1
10
24.554887465657
20
1.44938655175937
30
0
41
1
10
24.3182045089797
20
1.48109000928722
30
0
41
1
10
23.8456329494994
20
1.54805457919053
30
0
41
1
10
23.6097427247374
20
1.58330917494271
30
0
41
1
10
23.1389710290516
20
1.65822112249927
30
0
41
1
10
22.9040854861499
20
1.69786205765504
30
0
41
1
10
22.5527888111611
20
1.7617166280973
30
0
41
1
10
22.4358383965276
20
1.78374742673881
30
0
41
1
10
22.2024693942957
20
1.82955886359341
30
0
41
1
10
22.086149919497
20
1.85330111576977
30
0
41
1
10
21.8544206676279
20
1.90283861031807
30
0
41
1
10
21.7390089447832
20
1.92862974105955
30
0
41
1
10
21.5093674319029
20
1.98284066618476
30
0
41
1
10
21.3951329931106
20
2.01125063917885
30
0
41
1
10
21.1683028053396
20
2.07166491540028
30
0
41
1
10
21.0556932389557
20
2.1036400324181
30
0
41
1
10
20.8886696531748
20
2.15569710579263
30
0
41
1
10
20.8334505448181
20
2.17370163866272
30
0
41
1
10
20.7246221669482
20
2.21125062180835
30
0
41
1
10
20.670952583585
20
2.23080727235669
30
0
41
1
10
20.565655067407
20
2.27204979232496
30
0
41
1
10
20.5140139884587
20
2.29372221663857
30
0
41
1
10
20.438826161268
20
2.32858712676494
30
0
41
1
10
20.414146594383
20
2.34060560687823
30
0
41
1
10
20.3657767364985
20
2.36566449501592
30
0
41
1
10
20.3420836663816
20
2.3787021363332
30
0
41
1
10
20.3075573074704
20
2.39930352255647
30
0
41
1
10
20.2962187056314
20
2.40634614997885
30
0
41
1
10
20.273952218335
20
2.42085459076097
30
0
41
1
10
20.2630184372472
20
2.42832766417396
30
0
41
1
10
20.231419855654
20
2.45119109045913
30
0
41
1
10
20.2117884334343
20
2.46710381718617
30
0
41
1
10
20.1854540601191
20
2.49242484228768
30
0
41
1
10
20.1772198152637
20
2.50110167615523
30
0
41
1
10
20.1623189545456
20
2.51870231154896
30
0
41
1
10
20.1556128618016
20
2.52766175463236
30
0
41
1
10
20.14393694116
20
2.54595133601282
30
0
41
1
10
20.1389660730097
20
2.55528125231749
30
0
41
1
10
20.1330558944535
20
2.56960588514957
30
0
41
1
10
20.1313415455346
20
2.57445254302454
30
0
41
1
10
20.1285230402008
20
2.58409358460599
30
0
41
1
10
20.1251842026211
20
2.59852725605668
30
0
41
1
10
20.1245437225198
20
2.61287606775349
30
0
41
1
10
20.1257485321177
20
2.62716668387313
30
0
41
1
10
20.1264620593292
20
2.63193881087881
30
0
41
1
10
20.1284914927482
20
2.6413723808582
30
0
41
1
10
20.1324205393846
20
2.65530754532634
30
0
41
1
10
20.1388351940536
20
2.6686382285491
30
0
41
1
10
20.1493495521578
20
2.68593552231485
30
0
41
1
10
20.155630799497
20
2.6943847334376
30
0
41
1
10
20.1765868189516
20
2.71854469169176
30
0
41
1
10
20.1934033177851
20
2.73326388314311
30
0
41
1
10
20.2215631456318
20
2.75391300940981
30
0
41
1
10
20.2314686358827
20
2.76056609304018
30
0
41
1
10
20.2520416098624
20
2.77340022774473
30
0
41
1
10
20.2626567209068
20
2.77954123620566
30
0
41
1
10
20.2953168067763
20
2.7972812502687
30
0
41
1
10
20.3181632802649
20
2.80820775468791
30
0
41
1
10
20.3653921010139
20
2.82877377168401
30
0
41
1
10
20.3897802840161
20
2.83840839623957
30
0
41
1
10
20.4397385165532
20
2.85668904302389
30
0
41
1
10
20.4653748720359
20
2.86535241007775
30
0
41
1
10
20.517229745838
20
2.88177593523187
30
0
41
1
10
20.5434428630832
20
2.88953736171877
30
0
41
1
10
20.6227631954144
20
2.91175106475026
30
0
41
1
10
20.6765424241821
20
2.92514702444282
30
0
41
1
10
20.7853402246527
20
2.95000412849376
30
0
41
1
10
20.8403652236951
20
2.96145507017394
30
0
41
1
10
21.0068440498509
20
2.99363419395252
30
0
41
1
10
21.1196786030056
20
3.01222559327673
30
0
41
1
10
21.2907083833604
20
3.0374186039426
30
0
41
1
10
21.3480229476346
20
3.04535399770688
30
0
41
1
10
21.4631641807921
20
3.06045688421497
30
0
41
1
10
21.5209994499715
20
3.06762420006061
30
0
41
1
10
21.6946652328891
20
3.08809317249083
30
0
41
1
10
21.8108348762586
20
3.10039545764215
30
0
41
1
10
22.0437632686813
20
3.12303515154099
30
0
41
1
10
22.1605239579938
20
3.13336600156015
30
0
41
1
10
22.3945165344484
20
3.15250261226879
30
0
41
1
10
22.5117491022216
20
3.16130581737804
30
0
41
1
10
22.8640304680152
20
3.18588437321188
30
0
41
1
10
23.099656602662
20
3.19985213238624
30
0
41
1
10
23.5720339529074
20
3.22449951010208
30
0
41
1
10
23.8087886701941
20
3.23516466536458
30
0
41
1
10
24.2831808784841
20
3.25409518784835
30
0
41
1
10
24.5208203256059
20
3.26235371285415
30
0
41
1
10
24.9968267575086
20
3.27705092146033
30
0
41
1
10
25.2351948510595
20
3.28348622709589
30
0
41
1
10
25.7125495467034
20
3.2949450670678
30
0
41
1
10
25.951535742425
20
3.29996689071172
30
0
41
1
10
26.4296284218204
20
3.30889260647382
30
0
41
1
10
26.6687924158643
20
3.31279703175656
30
0
41
1
10
27.3865979250273
20
3.32318524696879
30
0
41
1
10
27.8655511106191
20
3.32836090979768
30
0
41
1
10
28.824141935777
20
3.33650396757767
30
0
41
1
10
29.303780492335
20
3.33946269705629
30
0
41
1
10
30.2636467441173
20
3.3439853731899
30
0
41
1
10
30.7438748972887
20
3.3455450352505
30
0
41
1
10
31.2243649376157
20
3.34668173023377
30
0
0
SPLINE
5
1E5
100
AcDbEntity
8
1
62
256
6
ByLayer
370
18
48
1
60
0
100
AcDbSpline
70
4
71
3
72
18
73
14
40
0
40
0
40
0
40
0
40
0.250000000000018
40
0.250000000000018
40
0.500000000000036
40
0.500000000000036
40
0.562500000000028
40
0.562500000000028
40
0.625000000000021
40
0.625000000000021
40
0.750000000000006
40
0.750000000000006
40
1
40
1
40
1
40
1
41
1
10
32
20
0.864329356156986
30
0
41
1
10
31.9425347755745
20
0.861182531889483
30
0
41
1
10
31.8830208029816
20
0.85961962962088
30
0
41
1
10
31.7600091196194
20
0.858710852029219
30
0
41
1
10
31.6965111091141
20
0.859367878271343
30
0
41
1
10
31.6145463872131
20
0.861164299437945
30
0
41
1
10
31.5980231464126
20
0.861572949315075
30
0
41
1
10
31.5647106614173
20
0.862481026550569
30
0
41
1
10
31.5479390681788
20
0.862980120259238
30
0
41
1
10
31.4975806186728
20
0.864590005565759
30
0
41
1
10
31.4638378933981
20
0.865815692165143
30
0
41
1
10
31.3620967244999
20
0.86985852905525
30
0
41
1
10
31.2935875586374
20
0.873031350679241
30
0
41
1
10
31.2243649376157
20
0.876561990929474
30
0
0
SPLINE
5
1E6
100
AcDbEntity
8
SK1
62
256
6
ByLayer
370
18
48
1
60
0
100
AcDbSpline
70
4
71
3
72
22
73
18
40
0
40
0
40
0
40
0
40
0.124983809925685
40
0.124983809925685
40
0.249967619851369
40
0.249967619851369
40
0.499935239702739
40
0.499935239702739
40
0.749902859554108
40
0.749902859554108
40
0.78114881203553
40
0.78114881203553
40
0.812394764516951
40
0.874886669479793
40
0.874886669479793
40
0.999870479405479
40
1
40
1
40
1
40
1
41
1
10
-21.6
20
2.74999999999997
30
0
41
1
10
-21.6425101242836
20
2.74999999999997
30
0
41
1
10
-21.6838915937518
20
2.74999999999997
30
0
41
1
10
-21.7638322771203
20
2.74999999999997
30
0
41
1
10
-21.8021926489972
20
2.74999999999997
30
0
41
1
10
-21.9116128118806
20
2.74999999999997
30
0
41
1
10
-21.9770645254946
20
2.74999999999997
30
0
41
1
10
-22.0873601599756
20
2.74999999999997
30
0
41
1
10
-22.1321961551575
20
2.74999999999997
30
0
41
1
10
-22.1669769105785
20
2.74999999999997
30
0
41
1
10
-22.1706219029563
20
2.74999999999997
30
0
41
1
10
-22.1774281181226
20
2.74999999999997
30
0
41
1
10
-22.1869271078174
20
2.74999999999997
30
0
41
1
10
-22.1942720192454
20
2.74999999999997
30
0
41
1
10
-22.2060439582791
20
2.74999999999997
30
0
41
1
10
-22.2099985884102
20
2.74999999999994
30
0
41
1
10
-22.2100009994298
20
2.74999999999994
30
0
41
1
10
-22.2099994100494
20
2.74999999999994
30
0
0
SPLINE
5
1E7
100
AcDbEntity
8
SK1
62
256
6
ByLayer
370
18
48
1
60
0
100
AcDbSpline
70
4
71
3
72
22
73
18
40
0
40
0
40
0
40
0
40
0.0001293325239024
40
0.125113165958414
40
0.125113165958414
40
0.18760508267567
40
0.218851041034298
40
0.218851041034298
40
0.250096999392927
40
0.250096999392927
40
0.500064666261951
40
0.500064666261951
40
0.750032333130976
40
0.750032333130976
40
0.875016166565488
40
0.875016166565488
40
1
40
1
40
1
40
1
41
1
10
-22.2099994130275
20
-2.75000000000003
30
0
41
1
10
-22.2100009994274
20
-2.75000000000003
30
0
41
1
10
-22.2099985854272
20
-2.75000000000003
30
0
41
1
10
-22.2060439582791
20
-2.75000000000003
30
0
41
1
10
-22.1942720192453
20
-2.75000000000003
30
0
41
1
10
-22.1869271078174
20
-2.75000000000003
30
0
41
1
10
-22.1774281181226
20
-2.75000000000003
30
0
41
1
10
-22.1706219029563
20
-2.75000000000003
30
0
41
1
10
-22.1669769105785
20
-2.75000000000003
30
0
41
1
10
-22.1321961551575
20
-2.75000000000003
30
0
41
1
10
-22.0873601599755
20
-2.75000000000003
30
0
41
1
10
-21.9770645254945
20
-2.75000000000003
30
0
41
1
10
-21.9116128118806
20
-2.75000000000003
30
0
41
1
10
-21.8021926489971
20
-2.75000000000003
30
0
41
1
10
-21.7638322771202
20
-2.75000000000003
30
0
41
1
10
-21.6838915937517
20
-2.75000000000003
30
0
41
1
10
-21.6425101242835
20
-2.75000000000003
30
0
41
1
10
-21.6
20
-2.75000000000003
30
0
0
SPLINE
5
1E8
100
AcDbEntity
8
SK1
62
256
6
ByLayer
370
18
48
1
60
0
100
AcDbSpline
70
4
71
3
72
34
73
30
40
0
40
0
40
0
40
0
40
0.0625000000000001
40
0.0625000000000001
40
0.125
40
0.125
40
0.25
40
0.25
40
0.375
40
0.375
40
0.40625
40
0.40625
40
0.4375
40
0.4375
40
0.5
40
0.5625
40
0.5625
40
0.593750000000001
40
0.609375000000001
40
0.609375000000001
40
0.625000000000001
40
0.625000000000001
40
0.75
40
0.75
40
0.875
40
0.875
40
0.9375
40
0.9375
40
1
40
1
40
1
40
1
41
1
10
-21.6
20
-1.93056986405574
30
0
41
1
10
-21.6424853000041
20
-1.85662765110013
30
0
41
1
10
-21.6838381892748
20
-1.7818222426024
30
0
41
1
10
-21.7638065531685
20
-1.63012479391835
30
0
41
1
10
-21.8021885370536
20
-1.55367034926087
30
0
41
1
10
-21.911653350069
20
-1.32226720929202
30
0
41
1
10
-21.9771267451505
20
-1.16526228136479
30
0
41
1
10
-22.0874442974362
20
-0.84372957409758
30
0
41
1
10
-22.1322804090831
20
-0.679198860789256
30
0
41
1
10
-22.1709099891249
20
-0.467184547840503
30
0
41
1
10
-22.177724945591
20
-0.424646536716551
30
0
41
1
10
-22.1894189595335
20
-0.339690306825901
30
0
41
1
10
-22.1943092422736
20
-0.29721130241677
30
0
41
1
10
-22.2060636127594
20
-0.169771577748264
30
0
41
1
10
-22.2139462093349
20
0.0001552973887158
30
0
41
1
10
-22.2060439582791
20
0.170096847653895
30
0
41
1
10
-22.1942720192453
20
0.297558444665896
30
0
41
1
10
-22.1869271078174
20
0.361290599546067
30
0
41
1
10
-22.1774281181226
20
0.425024757066723
30
0
41
1
10
-22.1706219029563
20
0.467514635676906
30
0
41
1
10
-22.1669769105785
20
0.488786496404913
30
0
41
1
10
-22.1321961551575
20
0.679534613236967
30
0
41
1
10
-22.0873601599755
20
0.844004884015021
30
0
41
1
10
-21.9770645254945
20
1.16541350550278
30
0
41
1
10
-21.9116128118806
20
1.32235475073611
30
0
41
1
10
-21.8021926489971
20
1.5536607337431
30
0
41
1
10
-21.7638322771202
20
1.63007358631245
30
0
41
1
10
-21.6838915937517
20
1.78172334370566
30
0
41
1
10
-21.6425101242835
20
1.85658444645856
30
0
41
1
10
-21.5999999999999
20
1.9305698640558
30
0
0
SPLINE
5
1E9
100
AcDbEntity
8
1
62
256
6
ByLayer
370
18
48
1
60
0
100
AcDbSpline
70
4
71
3
72
8
73
4
40
0
40
0
40
0
40
0
40
1
40
1
40
1
40
1
41
1
10
45.2632966811638
20
4.35198144004971
30
0
41
1
10
45.2574968312564
20
4.32743406924251
30
0
41
1
10
45.2358285576726
20
4.3111185741227
30
0
41
1
10
45.1999739505499
20
4.29373292146505
30
0
0
SPLINE
5
1EA
100
AcDbEntity
8
1
62
256
6
ByLayer
370
18
48
1
60
0
100
AcDbSpline
70
4
71
3
72
8
73
4
40
0
40
0
40
0
40
0
40
1
40
1
40
1
40
1
41
1
10
42.7632767623565
20
4.35196390922107
30
0
41
1
10
42.7575308538893
20
4.32720137295772
30
0
41
1
10
42.7356762973126
20
4.31085276541032
30
0
41
1
10
42.6993401527643
20
4.2934208858259
30
0
0
SPLINE
5
1EB
100
AcDbEntity
8
1
62
256
6
ByLayer
370
18
48
1
60
0
100
AcDbSpline
70
4
71
1
72
4
73
2
40
0
40
0
40
1
40
1
41
1
10
52
20
4.23981778581057
30
0
41
1
10
51.5554508625087
20
4.41055775098101
30
0
0
SPLINE
5
1EC
100
AcDbEntity
8
1
62
256
6
ByLayer
370
18
48
1
60
0
100
AcDbSpline
70
4
71
2
72
6
73
3
40
0
40
0
40
0
40
1
40
1
40
1
41
1
10
51.5467344846125
20
4.40973924005829
30
0
41
1
10
51.5300072828413
20
4.38086782315844
30
0
41
1
10
51.5132785280282
20
4.35199736386173
30
0
0
SPLINE
5
1ED
100
AcDbEntity
8
1
62
256
6
ByLayer
370
18
48
1
60
0
100
AcDbSpline
70
4
71
3
72
8
73
4
40
0
40
0
40
0
40
0
40
1
40
1
40
1
40
1
41
1
10
51.5132785266788
20
4.35199736153297
30
0
41
1
10
51.507586727322
20
4.32818471293155
30
0
41
1
10
51.486425222324
20
4.31208278859131
30
0
41
1
10
51.4518718097535
20
4.29473920249927
30
0
0
SPLINE
5
1EE
100
AcDbEntity
8
1
62
256
6
ByLayer
370
18
48
1
60
0
100
AcDbSpline
70
4
71
3
72
9
73
5
40
0
40
0
40
0
40
0
40
0.715091870246516
40
1
40
1
40
1
40
1
41
1
10
50.2632777982146
20
4.35195002444215
30
0
41
1
10
50.2573468903347
20
4.32688614420908
30
0
41
1
10
50.2249098163438
20
4.30379091181061
30
0
41
1
10
50.1635654250024
20
4.27687238959155
30
0
41
1
10
50.1419985251618
20
4.27626672982763
30
0
0
SPLINE
5
1EF
100
AcDbEntity
8
1
62
256
6
ByLayer
370
18
48
1
60
0
100
AcDbSpline
70
4
71
3
72
8
73
4
40
0
40
0
40
0
40
0
40
1
40
1
40
1
40
1
41
1
10
49.0132661788946
20
4.35197663964962
30
0
41
1
10
49.0075830096991
20
4.32804091848848
30
0
41
1
10
48.9863211241412
20
4.31190603341702
30
0
41
1
10
48.9515045079528
20
4.29453995602464
30
0
0
SPLINE
5
1F0
100
AcDbEntity
8
1
62
256
6
ByLayer
370
18
48
1
60
0
100
AcDbSpline
70
4
71
3
72
8
73
4
40
0
40
0
40
0
40
0
40
1
40
1
40
1
40
1
41
1
10
47.763257036964
20
4.35190424138511
30
0
41
1
10
47.7576378570768
20
4.32779415154121
30
0
41
1
10
47.7362157144067
20
4.31164308251476
30
0
41
1
10
47.7010017307277
20
4.29421822159159
30
0
0
SPLINE
5
1F1
100
AcDbEntity
8
1
62
256
6
ByLayer
370
18
48
1
60
0
100
AcDbSpline
70
4
71
3
72
8
73
4
40
0
40
0
40
0
40
0
40
1
40
1
40
1
40
1
41
1
10
46.5132869523385
20
4.35201166100117
30
0
41
1
10
46.5074622866778
20
4.32753155179518
30
0
41
1
10
46.4858408877218
20
4.31126388668287
30
0
41
1
10
46.4501768703023
20
4.29387317404425
30
0
0
SPLINE
5
1F2
100
AcDbEntity
8
1
62
256
6
ByLayer
370
18
48
1
60
0
100
AcDbSpline
70
4
71
3
72
8
73
4
40
0
40
0
40
0
40
0
40
1
40
1
40
1
40
1
41
1
10
44.0131863831896
20
4.35178900369053
30
0
41
1
10
44.0073984935988
20
4.3265726607298
30
0
41
1
10
43.9851979277241
20
4.31013883856954
30
0
41
1
10
43.9480688014626
20
4.29263225773991
30
0
0
SPLINE
5
1F3
100
AcDbEntity
8
1
62
256
6
ByLayer
370
18
48
1
60
0
100
AcDbSpline
70
4
71
2
72
6
73
3
40
0
40
0
40
0
40
1
40
1
40
1
41
1
10
37.7832460796604
20
4.38646643455542
30
0
41
1
10
37.773264735753
20
4.36924124825239
30
0
41
1
10
37.7632828278187
20
4.35201639927683
30
0
0
SPLINE
5
1F4
100
AcDbEntity
8
1
62
256
6
ByLayer
370
18
48
1
60
0
100
AcDbSpline
70
4
71
3
72
8
73
4
40
0
40
0
40
0
40
0
40
1
40
1
40
1
40
1
41
1
10
41.5131803426045
20
4.35144129314423
30
0
41
1
10
41.5074422827906
20
4.32657425198579
30
0
41
1
10
41.485496011027
20
4.31020619174316
30
0
41
1
10
41.4489037585182
20
4.29277901792037
30
0
0
SPLINE
5
1F5
100
AcDbEntity
8
1
62
256
6
ByLayer
370
18
48
1
60
0
100
AcDbSpline
70
4
71
3
72
8
73
4
40
0
40
0
40
0
40
0
40
1
40
1
40
1
40
1
41
1
10
40.2632960563271
20
4.35203720749325
30
0
41
1
10
40.2573749572655
20
4.32675453997672
30
0
41
1
10
40.2351805332091
20
4.31025297747385
30
0
41
1
10
40.1980478747373
20
4.2928145509745
30
0
0
SPLINE
5
1F6
100
AcDbEntity
8
1
62
256
6
ByLayer
370
18
48
1
60
0
100
AcDbSpline
70
4
71
2
72
6
73
3
40
0
40
0
40
0
40
1
40
1
40
1
41
1
10
50.5270382502484
20
4.80732924211654
30
0
41
1
10
50.3952020678819
20
4.57961519663937
30
0
41
1
10
50.2632777984655
20
4.35195002487507
30
0
0
SPLINE
5
1F7
100
AcDbEntity
8
1
62
256
6
ByLayer
370
18
48
1
60
0
100
AcDbSpline
70
4
71
3
72
8
73
4
40
0
40
0
40
0
40
0
40
1
40
1
40
1
40
1
41
1
10
39.0133608278119
20
4.35173328298796
30
0
41
1
10
39.0074130057432
20
4.32678436742182
30
0
41
1
10
38.9854957467987
20
4.31033580159314
30
0
41
1
10
38.9489959357695
20
4.2929954543946
30
0
0
SPLINE
5
1F8
100
AcDbEntity
8
1
62
256
6
ByLayer
370
18
48
1
60
0
100
AcDbSpline
70
4
71
3
72
8
73
4
40
0
40
0
40
0
40
0
40
1
40
1
40
1
40
1
41
1
10
37.7632828278093
20
4.35201639926069
30
0
41
1
10
37.7579084132598
20
4.32651945340581
30
0
41
1
10
37.7355221364679
20
4.31007727824101
30
0
41
1
10
37.697230555637
20
4.29241687214505
30
0
0
SPLINE
5
1F9
100
AcDbEntity
8
1
62
256
6
ByLayer
370
18
48
1
60
0
100
AcDbSpline
70
4
71
2
72
6
73
3
40
0
40
0
40
0
40
1
40
1
40
1
41
1
10
39.1453280005879
20
4.57948840371282
30
0
41
1
10
39.0793565489171
20
4.46560443212357
30
0
41
1
10
39.0133608277687
20
4.35173328291339
30
0
0
SPLINE
5
1FA
100
AcDbEntity
8
1
62
256
6
ByLayer
370
18
48
1
60
0
100
AcDbSpline
70
4
71
1
72
4
73
2
40
0
40
0
40
1
40
1
41
1
10
51.0931185171344
20
4.58812784989107
30
0
41
1
10
50.5327049312995
20
4.80336859683291
30
0
0
SPLINE
5
1FB
100
AcDbEntity
8
1
62
256
6
ByLayer
370
18
48
1
60
0
100
AcDbSpline
70
4
71
2
72
6
73
3
40
0
40
0
40
0
40
1
40
1
40
1
41
1
10
40.4989020816335
20
4.75489401082328
30
0
41
1
10
40.3775299093973
20
4.54580190323935
30
0
41
1
10
40.2561401233564
20
4.33687301023789
30
0
0
SPLINE
5
1FC
100
AcDbEntity
8
1
62
256
6
ByLayer
370
18
48
1
60
0
100
AcDbSpline
70
4
71
2
72
6
73
3
40
0
40
0
40
0
40
1
40
1
40
1
41
1
10
41.8610052344993
20
4.94799004560608
30
0
41
1
10
41.6837743123706
20
4.64257824160936
30
0
41
1
10
41.5065081623249
20
4.3374979771398
30
0
0
SPLINE
5
1FD
100
AcDbEntity
8
1
62
256
6
ByLayer
370
18
48
1
60
0
100
AcDbSpline
70
4
71
2
72
6
73
3
40
0
40
0
40
0
40
1
40
1
40
1
41
1
10
49.4227514863729
20
5.05483508441105
30
0
41
1
10
49.2146015052404
20
4.6959686730188
30
0
41
1
10
49.0064037011497
20
4.33754879694896
30
0
0
SPLINE
5
1FE
100
AcDbEntity
8
1
62
256
6
ByLayer
370
18
48
1
60
0
100
AcDbSpline
70
4
71
2
72
6
73
3
40
0
40
0
40
0
40
1
40
1
40
1
41
1
10
48.1725010332547
20
5.05433919536958
30
0
41
1
10
47.9645160077006
20
4.69578953516697
30
0
41
1
10
47.7564820125076
20
4.33768738038262
30
0
0
SPLINE
5
1FF
100
AcDbEntity
8
1
62
256
6
ByLayer
370
18
48
1
60
0
100
AcDbSpline
70
4
71
2
72
6
73
3
40
0
40
0
40
0
40
1
40
1
40
1
41
1
10
46.9228738125108
20
5.05510821075464
30
0
41
1
10
46.7147228013633
20
4.69624659563309
30
0
41
1
10
46.506524151155
20
4.33783025556923
30
0
0
SPLINE
5
200
100
AcDbEntity
8
1
62
256
6
ByLayer
370
18
48
1
60
0
100
AcDbSpline
70
4
71
2
72
6
73
3
40
0
40
0
40
0
40
1
40
1
40
1
41
1
10
45.6726052287437
20
5.0546124580591
30
0
41
1
10
45.464625267564
20
4.69606272429522
30
0
41
1
10
45.2565964827626
20
4.33795607212534
30
0
0
SPLINE
5
201
100
AcDbEntity
8
1
62
256
6
ByLayer
370
18
48
1
60
0
100
AcDbSpline
70
4
71
2
72
6
73
3
40
0
40
0
40
0
40
1
40
1
40
1
41
1
10
44.4229251400533
20
5.05515080865965
30
0
41
1
10
44.2148086666399
20
4.69642305946209
30
0
41
1
10
44.0066469698366
20
4.33813478722209
30
0
0
SPLINE
5
202
100
AcDbEntity
8
1
62
256
6
ByLayer
370
18
48
1
60
0
100
AcDbSpline
70
4
71
2
72
6
73
3
40
0
40
0
40
0
40
1
40
1
40
1
41
1
10
43.1727272240877
20
5.05499136340262
30
0
41
1
10
42.9647538844327
20
4.69643552624646
30
0
41
1
10
42.7567317863598
20
4.33831840175188
30
0
0
LINE
5
7F
100
AcDbEntity
8
80
62
256
6
ByLayer
370
18
48
1
60
0
100
AcDbLine
10
0
20
0
30
0
11
-5
21
0
31
0
39
0
210
0
220
0
230
1
0
LINE
5
80
100
AcDbEntity
8
4
62
256
6
ByLayer
370
18
48
0.05
60
0
100
AcDbLine
10
0
20
0
30
0
11
52
21
0
31
0
39
0
210
0
220
0
230
1
0
LINE
5
82
100
AcDbEntity
8
81
62
256
6
ByLayer
370
18
48
1
60
0
100
AcDbLine
10
52
20
0
30
0
11
57
21
0
31
0
39
0
210
0
220
0
230
1
0
LINE
5
83
100
AcDbEntity
8
SK4
62
256
6
ByLayer
370
18
48
0.05
60
0
100
AcDbLine
10
-23
20
0
30
0
11
52
21
0
31
0
39
0
210
0
220
0
230
1
0
LINE
5
85
100
AcDbEntity
8
1
62
256
6
ByLayer
370
18
48
1
60
0
100
AcDbLine
10
0
20
3.5
30
0
11
0
21
-3.5
31
0
39
0
210
0
220
0
230
1
0
LINE
5
86
100
AcDbEntity
8
1
62
256
6
ByLayer
370
18
48
1
60
0
100
AcDbLine
10
38.631157
20
4.5161
30
0
11
38.62886
21
4.516126
31
0
39
0
210
0
220
0
230
1
0
LINE
5
87
100
AcDbEntity
8
1
62
256
6
ByLayer
370
18
48
1
60
0
100
AcDbLine
10
37.79851
20
4.399428
30
0
11
37.800373
21
4.399526
31
0
39
0
210
0
220
0
230
1
0
LINE
5
88
100
AcDbEntity
8
1
62
256
6
ByLayer
370
18
48
1
60
0
100
AcDbLine
10
39.159111
20
4.590648
30
0
11
39.162275
21
4.590592
31
0
39
0
210
0
220
0
230
1
0
LINE
5
89
100
AcDbEntity
8
1
62
256
6
ByLayer
370
18
48
1
60
0
100
AcDbLine
10
39.788279
20
4.678362
30
0
11
39.785086
21
4.678623
31
0
39
0
210
0
220
0
230
1
0
LINE
5
8A
100
AcDbEntity
8
1
62
256
6
ByLayer
370
18
48
1
60
0
100
AcDbLine
10
51.088897
20
4.589363
30
0
11
51.085642
21
4.591
31
0
39
0
210
0
220
0
230
1
0
LINE
5
8B
100
AcDbEntity
8
1
62
256
6
ByLayer
370
18
48
1
60
0
100
AcDbLine
10
40.519406
20
4.781826
30
0
11
40.523824
21
4.78145
31
0
39
0
210
0
220
0
230
1
0
LINE
5
8C
100
AcDbEntity
8
1
62
256
6
ByLayer
370
18
48
1
60
0
100
AcDbLine
10
40.945
20
4.840459
30
0
11
40.940943
21
4.841069
31
0
39
0
210
0
220
0
230
1
0
LINE
5
8D
100
AcDbEntity
8
1
62
256
6
ByLayer
370
18
48
1
60
0
100
AcDbLine
10
42.102171
20
5.00252
30
0
11
42.097312
21
5.003587
31
0
39
0
210
0
220
0
230
1
0
LINE
5
8E
100
AcDbEntity
8
1
62
256
6
ByLayer
370
18
48
1
60
0
100
AcDbLine
10
41.880192
20
4.973072
30
0
11
41.885721
21
4.972214
31
0
39
0
210
0
220
0
230
1
0
LINE
5
8F
100
AcDbEntity
8
1
62
256
6
ByLayer
370
18
48
1
60
0
100
AcDbLine
10
37.474765
20
4.353816
30
0
11
37.473464
21
4.353745
31
0
39
0
210
0
220
0
230
1
0
LINE
5
90
100
AcDbEntity
8
1
62
256
6
ByLayer
370
18
48
1
60
0
100
AcDbLine
10
32
20
3.583532
30
0
11
32
21
3.5845
31
0
39
0
210
0
220
0
230
1
0
LINE
5
91
100
AcDbEntity
8
1
62
256
6
ByLayer
370
18
48
1
60
0
100
AcDbLine
10
32
20
0.864329
30
0
11
32
21
-1.863913
31
0
39
0
210
0
220
0
230
1
0
LINE
5
92
100
AcDbEntity
8
1
62
256
6
ByLayer
370
18
48
1
60
0
100
AcDbLine
10
49.441607
20
5.080074
30
0
11
49.447054
21
5.078173
31
0
39
0
210
0
220
0
230
1
0
LINE
5
93
100
AcDbEntity
8
1
62
256
6
ByLayer
370
18
48
1
60
0
100
AcDbLine
10
49.556364
20
5.079387
30
0
11
49.553111
21
5.080073
31
0
39
0
210
0
220
0
230
1
0
LINE
5
94
100
AcDbEntity
8
1
62
256
6
ByLayer
370
18
48
1
60
0
100
AcDbLine
10
48.308579
20
5.078149
30
0
11
48.303109
21
5.080074
31
0
39
0
210
0
220
0
230
1
0
LINE
5
95
100
AcDbEntity
8
1
62
256
6
ByLayer
370
18
48
1
60
0
100
AcDbLine
10
48.191654
20
5.080074
30
0
11
48.197113
21
5.078147
31
0
39
0
210
0
220
0
230
1
0
LINE
5
96
100
AcDbEntity
8
1
62
256
6
ByLayer
370
18
48
1
60
0
100
AcDbLine
10
46.941622
20
5.080071
30
0
11
46.947171
21
5.07812
31
0
39
0
210
0
220
0
230
1
0
LINE
5
97
100
AcDbEntity
8
1
62
256
6
ByLayer
370
18
48
1
60
0
100
AcDbLine
10
47.058575
20
5.078123
30
0
11
47.053074
21
5.080074
31
0
39
0
210
0
220
0
230
1
0
LINE
5
98
100
AcDbEntity
8
1
62
256
6
ByLayer
370
18
48
1
60
0
100
AcDbLine
10
45.80866
20
5.078096
30
0
11
45.803119
21
5.080072
31
0
39
0
210
0
220
0
230
1
0
LINE
5
99
100
AcDbEntity
8
1
62
256
6
ByLayer
370
18
48
1
60
0
100
AcDbLine
10
45.691664
20
5.080074
30
0
11
45.697196
21
5.078093
31
0
39
0
210
0
220
0
230
1
0
LINE
5
9A
100
AcDbEntity
8
1
62
256
6
ByLayer
370
18
48
1
60
0
100
AcDbLine
10
44.441909
20
5.080074
30
0
11
44.447534
21
5.078066
31
0
39
0
210
0
220
0
230
1
0
LINE
5
9B
100
AcDbEntity
8
1
62
256
6
ByLayer
370
18
48
1
60
0
100
AcDbLine
10
44.558688
20
5.078069
30
0
11
44.553137
21
5.080074
31
0
39
0
210
0
220
0
230
1
0
LINE
5
9C
100
AcDbEntity
8
1
62
256
6
ByLayer
370
18
48
1
60
0
100
AcDbLine
10
43.191646
20
5.080074
30
0
11
43.197266
21
5.078039
31
0
39
0
210
0
220
0
230
1
0
LINE
5
9D
100
AcDbEntity
8
1
62
256
6
ByLayer
370
18
48
1
60
0
100
AcDbLine
10
43.308561
20
5.078042
30
0
11
43.303011
21
5.080074
31
0
39
0
210
0
220
0
230
1
0
LINE
5
9E
100
AcDbEntity
8
1
62
256
6
ByLayer
370
13
48
1
60
0
100
AcDbLine
10
31.224365
20
3.35
30
0
11
31.224365
21
3.346682
31
0
39
0
210
0
220
0
230
1
0
LINE
5
9F
100
AcDbEntity
8
1
62
256
6
ByLayer
370
13
48
1
60
0
100
AcDbLine
10
15.153835
20
-3.35
30
0
11
15.153835
21
3.35
31
0
39
0
210
0
220
0
230
1
0
LINE
5
A0
100
AcDbEntity
8
1
62
256
6
ByLayer
370
18
48
1
60
0
100
AcDbLine
10
14.5
20
3.5
30
0
11
14.5
21
-3.5
31
0
39
0
210
0
220
0
230
1
0
LINE
5
A1
100
AcDbEntity
8
1
62
256
6
ByLayer
370
13
48
1
60
0
100
AcDbLine
10
31.224365
20
-1.802438
30
0
11
31.224365
21
0.876562
31
0
39
0
210
0
220
0
230
1
0
LINE
5
A2
100
AcDbEntity
8
SK1
62
256
6
ByLayer
370
18
48
1
60
0
100
AcDbLine
10
-23
20
1.96
30
0
11
-23
21
-1.96
31
0
39
0
210
0
220
0
230
1
0
LINE
5
A4
100
AcDbEntity
8
SK1
62
256
6
ByLayer
370
18
48
1
60
0
100
AcDbLine
10
-15
20
2.75
30
0
11
-14.39
21
3.36
31
0
39
0
210
0
220
0
230
1
0
LINE
5
A5
100
AcDbEntity
8
SK1
62
256
6
ByLayer
370
18
48
1
60
0
100
AcDbLine
10
-21.6
20
2.75
30
0
11
-15
21
2.75
31
0
39
0
210
0
220
0
230
1
0
LINE
5
A6
100
AcDbEntity
8
SK1
62
256
6
ByLayer
370
18
48
1
60
0
100
AcDbLine
10
-21.6
20
1.93057
30
0
11
-21.6
21
2.75
31
0
39
0
210
0
220
0
230
1
0
LINE
5
A7
100
AcDbEntity
8
SK1
62
256
6
ByLayer
370
18
48
1
60
0
100
AcDbLine
10
-15
20
1.93057
30
0
11
-21.6
21
1.93057
31
0
39
0
210
0
220
0
230
1
0
LINE
5
A8
100
AcDbEntity
8
SK1
62
256
6
ByLayer
370
18
48
1
60
0
100
AcDbLine
10
-21.6
20
-1.93057
30
0
11
-15
21
-1.93057
31
0
39
0
210
0
220
0
230
1
0
LINE
5
A9
100
AcDbEntity
8
SK1
62
256
6
ByLayer
370
18
48
1
60
0
100
AcDbLine
10
-21.6
20
-2.75
30
0
11
-21.6
21
-1.93057
31
0
39
0
210
0
220
0
230
1
0
LINE
5
AA
100
AcDbEntity
8
SK1
62
256
6
ByLayer
370
18
48
1
60
0
100
AcDbLine
10
-15
20
-2.75
30
0
11
-21.6
21
-2.75
31
0
39
0
210
0
220
0
230
1
0
LINE
5
AB
100
AcDbEntity
8
SK1
62
256
6
ByLayer
370
18
48
1
60
0
100
AcDbLine
10
-15
20
-2.75
30
0
11
-14.39
21
-3.36
31
0
39
0
210
0
220
0
230
1
0
LINE
5
AC
100
AcDbEntity
8
SK1
62
256
6
ByLayer
370
18
48
1
60
0
100
AcDbLine
10
-15
20
1.93057
30
0
11
-15
21
-1.93057
31
0
39
0
210
0
220
0
230
1
0
LINE
5
AD
100
AcDbEntity
8
SK1
62
256
6
ByLayer
370
18
48
1
60
0
100
AcDbLine
10
0
20
3.5
30
0
11
0
21
-3.5
31
0
39
0
210
0
220
0
230
1
0
LINE
5
AE
100
AcDbEntity
8
SK1
62
256
6
ByLayer
370
18
48
1
60
0
100
AcDbLine
10
-14.2
20
3.36
30
0
11
-14.2
21
-3.36
31
0
39
0
210
0
220
0
230
1
0
LINE
5
AF
100
AcDbEntity
8
SK1
62
256
6
ByLayer
370
18
48
1
60
0
100
AcDbLine
10
-14.06
20
-3.5
30
0
11
-14.06
21
3.5
31
0
39
0
210
0
220
0
230
1
0
LINE
5
B0
100
AcDbEntity
8
1
62
256
6
ByLayer
370
18
48
1
60
0
100
AcDbLine
10
38.628342
20
4.516053
30
0
11
37.798314
21
4.3994
31
0
39
0
210
0
220
0
230
1
0
LINE
5
B1
100
AcDbEntity
8
1
62
256
6
ByLayer
370
18
48
1
60
0
100
AcDbLine
10
39.78434
20
4.678518
30
0
11
39.158746
21
4.590596
31
0
39
0
210
0
220
0
230
1
0
LINE
5
B2
100
AcDbEntity
8
1
62
256
6
ByLayer
370
18
48
1
60
0
100
AcDbLine
10
40.940015
20
4.840937
30
0
11
40.518864
21
4.781748
31
0
39
0
210
0
220
0
230
1
0
LINE
5
B3
100
AcDbEntity
8
1
62
256
6
ByLayer
370
18
48
1
60
0
100
AcDbLine
10
42.096161
20
5.003423
30
0
11
41.87943
21
4.972963
31
0
39
0
210
0
220
0
230
1
0
LINE
5
B4
100
AcDbEntity
8
1
62
256
6
ByLayer
370
18
48
1
60
0
100
AcDbLine
10
37.473367
20
4.353732
30
0
11
37.400974
21
4.343557
31
0
39
0
210
0
220
0
230
1
0
LINE
5
B5
100
AcDbEntity
8
1
62
256
6
ByLayer
370
18
48
1
60
0
100
AcDbLine
10
33.831125
20
3.841848
30
0
11
32
21
3.5845
31
0
39
0
210
0
220
0
230
1
0
LINE
5
B6
100
AcDbEntity
8
1
62
256
6
ByLayer
370
18
48
1
60
0
100
AcDbLine
10
14.5
20
3.5
30
0
11
0
21
3.5
31
0
39
0
210
0
220
0
230
1
0
LINE
5
B7
100
AcDbEntity
8
1
62
256
6
ByLayer
370
18
48
1
60
0
100
AcDbLine
10
0
20
-3.5
30
0
11
14.5
21
-3.5
31
0
39
0
210
0
220
0
230
1
0
LINE
5
B8
100
AcDbEntity
8
1
62
256
6
ByLayer
370
18
48
1
60
0
100
AcDbLine
10
49.553103
20
5.080072
30
0
11
49.441605
21
5.080072
31
0
39
0
210
0
220
0
230
1
0
LINE
5
B9
100
AcDbEntity
8
1
62
256
6
ByLayer
370
18
48
1
60
0
100
AcDbLine
10
48.303108
20
5.080072
30
0
11
48.191641
21
5.080072
31
0
39
0
210
0
220
0
230
1
0
LINE
5
BA
100
AcDbEntity
8
1
62
256
6
ByLayer
370
18
48
1
60
0
100
AcDbLine
10
47.053072
20
5.080072
30
0
11
46.941629
21
5.080072
31
0
39
0
210
0
220
0
230
1
0
LINE
5
BB
100
AcDbEntity
8
1
62
256
6
ByLayer
370
18
48
1
60
0
100
AcDbLine
10
45.803112
20
5.080072
30
0
11
45.691655
21
5.080072
31
0
39
0
210
0
220
0
230
1
0
LINE
5
BC
100
AcDbEntity
8
1
62
256
6
ByLayer
370
18
48
1
60
0
100
AcDbLine
10
44.55311
20
5.080072
30
0
11
44.4419
21
5.080072
31
0
39
0
210
0
220
0
230
1
0
LINE
5
BD
100
AcDbEntity
8
1
62
256
6
ByLayer
370
18
48
1
60
0
100
AcDbLine
10
43.30298
20
5.080072
30
0
11
43.191642
21
5.080072
31
0
39
0
210
0
220
0
230
1
0
LINE
5
BE
100
AcDbEntity
8
1
62
256
6
ByLayer
370
18
48
1
60
0
100
AcDbLine
10
15.153835
20
-3.35
30
0
11
23.102759
21
-3.35
31
0
39
0
210
0
220
0
230
1
0
LINE
5
BF
100
AcDbEntity
8
1
62
256
6
ByLayer
370
18
48
1
60
0
100
AcDbLine
10
31.224365
20
3.35
30
0
11
15.153835
21
3.35
31
0
39
0
210
0
220
0
230
1
0
LINE
5
C0
100
AcDbEntity
8
SK1
62
256
6
ByLayer
370
18
48
1
60
0
100
AcDbLine
10
-23
20
-1.96
30
0
11
-22.21
21
-2.75
31
0
39
0
210
0
220
0
230
1
0
LINE
5
C1
100
AcDbEntity
8
SK1
62
256
6
ByLayer
370
18
48
1
60
0
100
AcDbLine
10
-22.21
20
2.75
30
0
11
-23
21
1.96
31
0
39
0
210
0
220
0
230
1
0
LINE
5
C2
100
AcDbEntity
8
SK1
62
256
6
ByLayer
370
18
48
1
60
0
100
AcDbLine
10
-14.2
20
3.36
30
0
11
-14.39
21
3.36
31
0
39
0
210
0
220
0
230
1
0
LINE
5
C3
100
AcDbEntity
8
SK1
62
256
6
ByLayer
370
18
48
1
60
0
100
AcDbLine
10
-14.39
20
-3.36
30
0
11
-14.2
21
-3.36
31
0
39
0
210
0
220
0
230
1
0
LINE
5
C4
100
AcDbEntity
8
SK1
62
256
6
ByLayer
370
18
48
1
60
0
100
AcDbLine
10
0
20
3.5
30
0
11
-14.06
21
3.5
31
0
39
0
210
0
220
0
230
1
0
LINE
5
C5
100
AcDbEntity
8
SK1
62
256
6
ByLayer
370
18
48
1
60
0
100
AcDbLine
10
-14.06
20
-3.5
30
0
11
0
21
-3.5
31
0
39
0
210
0
220
0
230
1
0
LINE
5
C6
100
AcDbEntity
8
SK1
62
256
6
ByLayer
370
18
48
1
60
0
100
AcDbLine
10
-14.2
20
-3.36
30
0
11
-14.06
21
-3.5
31
0
39
0
210
0
220
0
230
1
0
LINE
5
C7
100
AcDbEntity
8
SK1
62
256
6
ByLayer
370
18
48
1
60
0
100
AcDbLine
10
-14.06
20
3.5
30
0
11
-14.2
21
3.36
31
0
39
0
210
0
220
0
230
1
0
LINE
5
C8
100
AcDbEntity
8
SK2
62
256
6
ByLayer
370
18
48
1
60
0
100
AcDbLine
10
8.22
20
16.341828
30
0
11
8.22
21
-11
31
0
39
0
210
0
220
0
230
1
0
LINE
5
CA
100
AcDbEntity
8
1
62
256
6
ByLayer
370
18
48
1
60
1
100
AcDbLine
10
8.22
20
3.5
30
0
11
7.759216
21
6.999998
31
0
39
0
210
0
220
0
230
1
0
LINE
5
CB
100
AcDbEntity
8
1
62
256
6
ByLayer
370
18
48
1
60
1
100
AcDbLine
10
7.759216
20
6.999998
30
0
11
8.680784
21
7.000002
31
0
39
0
210
0
220
0
230
1
0
LINE
5
CC
100
AcDbEntity
8
1
62
256
6
ByLayer
370
18
48
1
60
1
100
AcDbLine
10
8.680784
20
7.000002
30
0
11
8.22
21
3.5
31
0
39
0
210
0
220
0
230
1
0
LINE
5
CD
100
AcDbEntity
8
1
62
256
6
ByLayer
370
18
48
1
60
1
100
AcDbLine
10
8.22
20
-3.5
30
0
11
8.680784
21
-6.999998
31
0
39
0
210
0
220
0
230
1
0
LINE
5
CE
100
AcDbEntity
8
1
62
256
6
ByLayer
370
18
48
1
60
1
100
AcDbLine
10
8.680784
20
-6.999998
30
0
11
7.759216
21
-7.000002
31
0
39
0
210
0
220
0
230
1
0
LINE
5
CF
100
AcDbEntity
8
1
62
256
6
ByLayer
370
18
48
1
60
1
100
AcDbLine
10
7.759216
20
-7.000002
30
0
11
8.22
21
-3.5
31
0
39
0
210
0
220
0
230
1
0
LINE
5
D0
100
AcDbEntity
8
2
62
256
6
ByLayer
370
18
48
1
60
0
100
AcDbLine
10
52
20
-42.580072
30
0
11
-23
21
-42.580072
31
0
39
0
210
0
220
0
230
1
0
LINE
5
D2
100
AcDbEntity
8
2
62
256
6
ByLayer
370
18
48
1
60
0
100
AcDbLine
10
-23
20
-3.5475
30
0
11
-23
21
-44.580072
31
0
39
0
210
0
220
0
230
1
0
LINE
5
D3
100
AcDbEntity
8
2
62
256
6
ByLayer
370
18
48
1
60
0
100
AcDbLine
10
52
20
-6.667572
30
0
11
52
21
-44.580072
31
0
39
0
210
0
220
0
230
1
0
LINE
5
D4
100
AcDbEntity
8
1
62
256
6
ByLayer
370
18
48
1
60
1
100
AcDbLine
10
-23
20
-42.580072
30
0
11
-19.500002
21
-42.119288
31
0
39
0
210
0
220
0
230
1
0
LINE
5
D5
100
AcDbEntity
8
1
62
256
6
ByLayer
370
18
48
1
60
1
100
AcDbLine
10
-19.500002
20
-42.119288
30
0
11
-19.499998
21
-43.040855
31
0
39
0
210
0
220
0
230
1
0
LINE
5
D6
100
AcDbEntity
8
1
62
256
6
ByLayer
370
18
48
1
60
1
100
AcDbLine
10
-19.499998
20
-43.040855
30
0
11
-23
21
-42.580072
31
0
39
0
210
0
220
0
230
1
0
LINE
5
D7
100
AcDbEntity
8
1
62
256
6
ByLayer
370
18
48
1
60
1
100
AcDbLine
10
52
20
-42.580072
30
0
11
48.500002
21
-43.040855
31
0
39
0
210
0
220
0
230
1
0
LINE
5
D8
100
AcDbEntity
8
1
62
256
6
ByLayer
370
18
48
1
60
1
100
AcDbLine
10
48.500002
20
-43.040855
30
0
11
48.499998
21
-42.119288
31
0
39
0
210
0
220
0
230
1
0
LINE
5
D9
100
AcDbEntity
8
1
62
256
6
ByLayer
370
18
48
1
60
1
100
AcDbLine
10
48.499998
20
-42.119288
30
0
11
52
21
-42.580072
31
0
39
0
210
0
220
0
230
1
0
LINE
5
207
100
AcDbEntity
8
1
62
256
6
ByLayer
370
18
48
1
60
1
100
AcDbLine
10
8.22
20
3.5
30
0
11
7.759216
21
6.999998
31
0
39
0
210
0
220
0
230
1
0
LINE
5
208
100
AcDbEntity
8
1
62
256
6
ByLayer
370
18
48
1
60
1
100
AcDbLine
10
7.759216
20
6.999998
30
0
11
8.680784
21
7.000002
31
0
39
0
210
0
220
0
230
1
0
LINE
5
209
100
AcDbEntity
8
1
62
256
6
ByLayer
370
18
48
1
60
1
100
AcDbLine
10
8.680784
20
7.000002
30
0
11
8.22
21
3.5
31
0
39
0
210
0
220
0
230
1
0
LINE
5
20B
100
AcDbEntity
8
1
62
256
6
ByLayer
370
18
48
1
60
1
100
AcDbLine
10
8.22
20
-3.5
30
0
11
8.680784
21
-6.999998
31
0
39
0
210
0
220
0
230
1
0
LINE
5
20C
100
AcDbEntity
8
1
62
256
6
ByLayer
370
18
48
1
60
1
100
AcDbLine
10
8.680784
20
-6.999998
30
0
11
7.759216
21
-7.000002
31
0
39
0
210
0
220
0
230
1
0
LINE
5
20D
100
AcDbEntity
8
1
62
256
6
ByLayer
370
18
48
1
60
1
100
AcDbLine
10
7.759216
20
-7.000002
30
0
11
8.22
21
-3.5
31
0
39
0
210
0
220
0
230
1
0
LINE
5
210
100
AcDbEntity
8
1
62
256
6
ByLayer
370
18
48
1
60
1
100
AcDbLine
10
-23
20
-42.580072
30
0
11
-19.500002
21
-42.119288
31
0
39
0
210
0
220
0
230
1
0
LINE
5
211
100
AcDbEntity
8
1
62
256
6
ByLayer
370
18
48
1
60
1
100
AcDbLine
10
-19.500002
20
-42.119288
30
0
11
-19.499998
21
-43.040855
31
0
39
0
210
0
220
0
230
1
0
LINE
5
212
100
AcDbEntity
8
1
62
256
6
ByLayer
370
18
48
1
60
1
100
AcDbLine
10
-19.499998
20
-43.040855
30
0
11
-23
21
-42.580072
31
0
39
0
210
0
220
0
230
1
0
LINE
5
214
100
AcDbEntity
8
1
62
256
6
ByLayer
370
18
48
1
60
1
100
AcDbLine
10
52
20
-42.580072
30
0
11
48.500002
21
-43.040855
31
0
39
0
210
0
220
0
230
1
0
LINE
5
215
100
AcDbEntity
8
1
62
256
6
ByLayer
370
18
48
1
60
1
100
AcDbLine
10
48.500002
20
-43.040855
30
0
11
48.499998
21
-42.119288
31
0
39
0
210
0
220
0
230
1
0
LINE
5
216
100
AcDbEntity
8
1
62
256
6
ByLayer
370
18
48
1
60
1
100
AcDbLine
10
48.499998
20
-42.119288
30
0
11
52
21
-42.580072
31
0
39
0
210
0
220
0
230
1
0
MTEXT
5
203
100
AcDbEntity
8
SK2
62
256
6
ByLayer
370
18
48
1
60
0
100
AcDbMText
10
6.878886
20
9.158437
30
0
210
0
220
0
230
1
1
%%c
40
3
41
0
44
1.084337
50
90
71
7
72
5
7
iso_b_vert
0
MTEXT
5
206
100
AcDbEntity
8
SK2
62
256
6
ByLayer
370
18
48
1
60
0
100
AcDbMText
10
6.878886
20
15.135
30
0
210
0
220
0
230
1
1
\W0.5404;7
40
3
41
0
44
1.084337
50
90
71
7
72
5
7
iso_b_vert
0
MTEXT
5
20F
100
AcDbEntity
8
2
62
256
6
ByLayer
370
18
48
1
60
0
100
AcDbMText
10
12.867172
20
-41.694957
30
0
210
0
220
0
230
1
1
\W0.6740;75
40
3
41
0
44
1.084337
50
0
71
7
72
5
7
iso_b_vert
0
MTEXT
5
218
100
AcDbEntity
8
SK6
62
256
6
ByLayer
370
18
48
1
60
0
100
AcDbMText
10
2.783553
20
-82.114886
30
0
210
0
220
0
230
1
1
\W0.7436;T100-NM107JB-M10X125N1PR
40
3
41
0
44
1.084337
50
0
71
7
72
5
7
iso_b_vert
0
HATCH
5
20A
100
AcDbEntity
8
SK2
62
256
6
ByLayer
370
13
48
1
60
0
100
AcDbHatch
10
0
20
0
30
0
210
0
220
0
230
1
2
ANSI31
70
0
71
0
91
1
92
5
93
3
72
1
10
8.22
20
3.50000000000003
11
7.75921625844722
21
6.99999830744684
72
1
10
7.75921625844722
20
6.99999830744684
11
8.68078374155277
21
7.00000169255321
72
1
10
8.68078374155277
20
7.00000169255321
11
8.22
21
3.50000000000003
97
0
75
0
76
1
52
0
41
0.0062
77
0
78
1
53
45
43
0
44
0
45
-0.0139193969876572
46
0.0139193969876572
79
0
47
0
98
1
10
0
20
0
0
HATCH
5
20E
100
AcDbEntity
8
SK2
62
256
6
ByLayer
370
13
48
1
60
0
100
AcDbHatch
10
0
20
0
30
0
210
0
220
0
230
1
2
ANSI31
70
0
71
0
91
1
92
5
93
3
72
1
10
8.22
20
-3.49999999999997
11
8.68078374155277
21
-6.99999830744679
72
1
10
8.68078374155277
20
-6.99999830744679
11
7.75921625844722
21
-7.00000169255316
72
1
10
7.75921625844722
20
-7.00000169255316
11
8.22
21
-3.49999999999997
97
0
75
0
76
1
52
0
41
0.0062
77
0
78
1
53
45
43
0
44
0
45
-0.0139193969876572
46
0.0139193969876572
79
0
47
0
98
1
10
0
20
0
0
HATCH
5
213
100
AcDbEntity
8
2
62
256
6
ByLayer
370
13
48
1
60
0
100
AcDbHatch
10
0
20
0
30
0
210
0
220
0
230
1
2
ANSI31
70
0
71
0
91
1
92
5
93
3
72
1
10
-23
20
-42.5800715049635
11
-19.5000016925532
21
-42.1192877634107
72
1
10
-19.5000016925532
20
-42.1192877634107
11
-19.4999983074468
21
-43.0408552465163
72
1
10
-19.4999983074468
20
-43.0408552465163
11
-23
21
-42.5800715049635
97
0
75
0
76
1
52
0
41
0.0062
77
0
78
1
53
45
43
0
44
0
45
-0.0139193969876572
46
0.0139193969876572
79
0
47
0
98
1
10
0
20
0
0
HATCH
5
217
100
AcDbEntity
8
2
62
256
6
ByLayer
370
13
48
1
60
0
100
AcDbHatch
10
0
20
0
30
0
210
0
220
0
230
1
2
ANSI31
70
0
71
0
91
1
92
5
93
3
72
1
10
52
20
-42.5800715049635
11
48.5000016925532
21
-43.0408552465163
72
1
10
48.5000016925532
20
-43.0408552465163
11
48.4999983074468
21
-42.1192877634107
72
1
10
48.4999983074468
20
-42.1192877634107
11
52
21
-42.5800715049635
97
0
75
0
76
1
52
0
41
0.0062
77
0
78
1
53
45
43
0
44
0
45
-0.0139193969876572
46
0.0139193969876572
79
0
47
0
98
1
10
0
20
0
0
DIMENSION
5
21B
100
AcDbEntity
8
2
62
256
6
ByLayer
370
18
48
1
60
0
100
AcDbDimension
2
_U0
10
71.5
20
-5.080072
30
0
11
71.5
21
22.66987
31
0
70
32
71
1
72
1
41
1
210
0
220
0
230
1
3
Standard
100
AcDbAlignedDimension
13
52
23
5.080072
33
0
14
52
24
-5.080072
34
0
50
90
100
AcDbRotatedDimension
1001
ACAD
1000
DSTYLE
1002
{
1070
   371
1070
    13
1070
   372
1070
    13
1070
     3
1000

1070
   170
1070
     0
1070
   144
1040
1.0
1070
   277
1070
     2
1070
   284
1070
     8
1070
   278
1070
    46
1070
   146
1040
1.166667
1070
   345
1005
16
1070
   347
1005
16
1070
   346
1005
16
1070
   344
1005
0
1070
   343
1005
0
1070
   172
1070
     1
1070
    76
1070
     0
1070
    75
1070
     0
1070
   282
1070
     0
1070
   281
1070
     0
1070
    71
1070
     0
1070
    74
1070
     0
1070
   279
1070
     0
1070
   173
1070
     1
1070
   340
1005
204
1070
   271
1070
     3
1070
   272
1070
     3
1070
    77
1070
     1
1070
    73
1070
     0
1070
   171
1070
     3
1070
   274
1070
     4
1070
   177
1070
     2
1070
   176
1070
     2
1070
   178
1070
     2
1070
    78
1070
     8
1070
    48
1040
-0.1
1070
    41
1040
3.5
1070
   147
1040
1.5
1070
    42
1040
1.5875
1070
    44
1040
2.0
1070
   140
1040
3.0
1002
}
1001
ACAD_DSTYLE_DIM_LINETYPE
1070
   380
1005
16
1001
ACAD_DSTYLE_DIM_EXT1_LINETYPE
1070
   381
1005
16
1001
ACAD_DSTYLE_DIM_EXT2_LINETYPE
1070
   382
1005
16
0
DIMENSION
5
236
100
AcDbEntity
8
SK2
62
256
6
ByLayer
370
18
48
1
60
0
100
AcDbDimension
2
_U1
10
49.8125
20
14.585798
30
0
11
50.90625
21
14.585798
31
0
70
32
71
1
72
1
41
1
210
0
220
0
230
1
3
Standard
100
AcDbAlignedDimension
13
52
23
5.080072
33
0
14
49.8125
24
0
34
0
50
0
100
AcDbRotatedDimension
1001
ACAD
1000
DSTYLE
1002
{
1070
   371
1070
    13
1070
   372
1070
    13
1070
   170
1070
     0
1070
   144
1040
1.0
1070
   277
1070
     2
1070
   284
1070
     8
1070
   278
1070
    46
1070
   146
1040
1.166667
1070
   345
1005
16
1070
   347
1005
16
1070
   346
1005
16
1070
   344
1005
0
1070
   343
1005
0
1070
   172
1070
     1
1070
    76
1070
     0
1070
    75
1070
     0
1070
   282
1070
     0
1070
   281
1070
     0
1070
    71
1070
     0
1070
    74
1070
     0
1070
   279
1070
     0
1070
   173
1070
     1
1070
   340
1005
204
1070
   271
1070
     3
1070
   272
1070
     3
1070
    77
1070
     1
1070
    73
1070
     1
1070
   171
1070
     3
1070
   274
1070
     4
1070
   177
1070
     2
1070
   176
1070
     2
1070
   178
1070
     2
1070
    78
1070
     8
1070
    48
1040
-0.1
1070
    41
1040
3.5
1070
   147
1040
1.5
1070
    42
1040
1.5875
1070
    44
1040
2.0
1070
   140
1040
3.0
1002
}
1001
ACAD_DSTYLE_DIM_LINETYPE
1070
   380
1005
16
1001
ACAD_DSTYLE_DIM_EXT1_LINETYPE
1070
   381
1005
16
1001
ACAD_DSTYLE_DIM_EXT2_LINETYPE
1070
   382
1005
16
0
DIMENSION
5
250
100
AcDbEntity
8
SK2
62
256
6
ByLayer
370
18
48
1
60
0
100
AcDbDimension
2
_U2
10
32
20
-12.080072
30
0
11
38.813187
21
-12.080072
31
0
70
32
71
1
72
1
41
1
210
0
220
0
230
1
3
Standard
100
AcDbAlignedDimension
13
52
23
-5.080072
33
0
14
32
24
-5.080072
34
0
50
0
100
AcDbRotatedDimension
1001
ACAD
1000
DSTYLE
1002
{
1070
   371
1070
    13
1070
   372
1070
    13
1070
   170
1070
     0
1070
   144
1040
1.0
1070
   277
1070
     2
1070
   284
1070
     8
1070
   278
1070
    46
1070
   146
1040
0.833333
1070
   345
1005
16
1070
   347
1005
16
1070
   346
1005
16
1070
   344
1005
0
1070
   343
1005
0
1070
   172
1070
     1
1070
    76
1070
     0
1070
    75
1070
     0
1070
   282
1070
     0
1070
   281
1070
     0
1070
    47
1040
0.5
1070
    72
1070
     0
1070
    71
1070
     1
1070
    74
1070
     0
1070
   279
1070
     0
1070
   173
1070
     1
1070
   340
1005
204
1070
   271
1070
     1
1070
   272
1070
     3
1070
    77
1070
     1
1070
    73
1070
     1
1070
   171
1070
     3
1070
   274
1070
     4
1070
   177
1070
     2
1070
   176
1070
     2
1070
   178
1070
     2
1070
    78
1070
     8
1070
    48
1040
0.5
1070
    41
1040
3.5
1070
   147
1040
1.5
1070
    42
1040
1.5875
1070
    44
1040
2.0
1070
   140
1040
3.0
1002
}
1001
ACAD_DSTYLE_DIM_LINETYPE
1070
   380
1005
16
1001
ACAD_DSTYLE_DIM_EXT1_LINETYPE
1070
   381
1005
16
1001
ACAD_DSTYLE_DIM_EXT2_LINETYPE
1070
   382
1005
16
0
DIMENSION
5
269
100
AcDbEntity
8
SK2
62
256
6
ByLayer
370
18
48
1
60
0
100
AcDbDimension
2
_U3
10
14.5
20
-34.580072
30
0
11
33.25
21
-34.580072
31
0
70
32
71
1
72
1
41
1
210
0
220
0
230
1
3
Standard
100
AcDbAlignedDimension
13
52
23
-5.080072
33
0
14
14.5
24
-3.35
34
0
50
0
100
AcDbRotatedDimension
1001
ACAD
1000
DSTYLE
1002
{
1070
   371
1070
    13
1070
   372
1070
    13
1070
   170
1070
     0
1070
   144
1040
1.0
1070
   277
1070
     2
1070
   284
1070
     8
1070
   278
1070
    46
1070
   146
1040
1.166667
1070
   345
1005
16
1070
   347
1005
16
1070
   346
1005
16
1070
   344
1005
0
1070
   343
1005
0
1070
   172
1070
     1
1070
    76
1070
     0
1070
    75
1070
     0
1070
   282
1070
     0
1070
   281
1070
     0
1070
    71
1070
     0
1070
    74
1070
     0
1070
   279
1070
     0
1070
   173
1070
     1
1070
   340
1005
204
1070
   271
1070
     1
1070
   272
1070
     3
1070
    77
1070
     1
1070
    73
1070
     1
1070
   171
1070
     3
1070
   274
1070
     4
1070
   177
1070
     2
1070
   176
1070
     2
1070
   178
1070
     2
1070
    78
1070
     8
1070
    48
1040
-0.1
1070
    41
1040
3.5
1070
   147
1040
1.5
1070
    42
1040
1.5875
1070
    44
1040
2.0
1070
   140
1040
3.0
1002
}
1001
ACAD_DSTYLE_DIM_LINETYPE
1070
   380
1005
16
1001
ACAD_DSTYLE_DIM_EXT1_LINETYPE
1070
   381
1005
16
1001
ACAD_DSTYLE_DIM_EXT2_LINETYPE
1070
   382
1005
16
0
DIMENSION
5
281
100
AcDbEntity
8
2
62
256
6
ByLayer
370
18
48
1
60
0
100
AcDbDimension
2
_U4
10
20.125
20
-23.580072
30
0
11
36.0625
21
-23.580072
31
0
70
32
71
1
72
1
41
1
210
0
220
0
230
1
3
Standard
100
AcDbAlignedDimension
13
52
23
-5.080072
33
0
14
20.125
24
0
34
0
50
0
100
AcDbRotatedDimension
1001
ACAD
1000
DSTYLE
1002
{
1070
   371
1070
    13
1070
   372
1070
    13
1070
   170
1070
     0
1070
   144
1040
1.0
1070
   277
1070
     2
1070
   284
1070
     8
1070
   278
1070
    46
1070
   146
1040
1.166667
1070
   345
1005
16
1070
   347
1005
16
1070
   346
1005
16
1070
   344
1005
0
1070
   343
1005
0
1070
   172
1070
     1
1070
    76
1070
     0
1070
    75
1070
     0
1070
   282
1070
     0
1070
   281
1070
     0
1070
    71
1070
     0
1070
    74
1070
     0
1070
   279
1070
     0
1070
   173
1070
     1
1070
   340
1005
204
1070
   271
1070
     1
1070
   272
1070
     3
1070
    77
1070
     1
1070
    73
1070
     1
1070
   171
1070
     3
1070
   274
1070
     4
1070
   177
1070
     2
1070
   176
1070
     2
1070
   178
1070
     2
1070
    78
1070
     8
1070
    48
1040
-0.1
1070
    41
1040
3.5
1070
   147
1040
1.5
1070
    42
1040
1.5875
1070
    44
1040
2.0
1070
   140
1040
3.0
1002
}
1001
ACAD_DSTYLE_DIM_LINETYPE
1070
   380
1005
16
1001
ACAD_DSTYLE_DIM_EXT1_LINETYPE
1070
   381
1005
16
1001
ACAD_DSTYLE_DIM_EXT2_LINETYPE
1070
   382
1005
16
0
ENDSEC
0
SECTION
2
OBJECTS
0
DICTIONARY
5
309
330
0
100
AcDbDictionary
280
0
281
1
3
ACAD_GROUP
350
30a
3
ACAD_MLINESTYLE
350
30b
0
DICTIONARY
5
30a
330
0
100
AcDbDictionary
280
0
281
1
0
DICTIONARY
5
30b
330
0
100
AcDbDictionary
280
0
281
1
3
Standard
350
18
0
MLINESTYLE
5
18
330
30b
100
AcDbMlineStyle
2
Standard
70
0
3

62
256
51
90
52
90
71
2
49
-0.5
62
256
6
ByLayer
49
0.5
62
256
6
ByLayer
0
RASTERVARIABLES
5
2f7
330

100
AcDbRasterVariables
90
0
70
1
71
1
72
1
0
ENDSEC
0
EOF
