0
SECTION
2
HEADER
9
$ACADVER
1
AC1015
9
$DWGCODEPAGE
3
ANSI_1252
9
$HANDSEED
5
30c
9
$ANGBASE
50
0
9
$ANGDIR
70
0
9
$ATTMODE
70
1
9
$AUNITS
70
0
9
$AUPREC
70
0
9
$CECOLOR
62
256
9
$CELTSCALE
40
1
9
$CELTYPE
6
ByLayer
9
$CELWEIGHT
370
18
9
$CLAYER
8
0
9
$CMLJUST
70
0
9
$CMLSCALE
40
1
9
$CMLSTYLE
2
Standard
9
$DIMSTYLE
2
Standard
9
$TEXTSIZE
40
0.2
9
$TEXTSTYLE
7
Standard
9
$LUNITS
70
2
9
$LUPREC
70
4
9
$EXTNAMES
290
1
9
$INSUNITS
70
4
9
$LTSCALE
40
1
9
$LWDISPLAY
290
1
9
$PDMODE
70
0
9
$PDSIZE
40
0
9
$PLINEGEN
70
0
0
ENDSEC
0
SECTION
2
CLASSES
0
CLASS
1
RASTERVARIABLES
2
AcDbRasterVariables
3
ISM
90
0
280
0
281
0
0
ENDSEC
0
SECTION
2
TABLES
0
TABLE
2
VPORT
5
302
100
AcDbSymbolTable
0
VPORT
5
1
100
AcDbSymbolTableRecord
100
AcDbViewportTableRecord
2
*Active
70
0
10
0
20
0
11
1
21
1
12
-1
22
1
13
0
23
0
14
0.5
24
0.5
15
10
25
10
16
0
26
0
36
1
17
0
27
0
37
0
0
ENDTAB
0
TABLE
2
LTYPE
5
303
100
AcDbSymbolTable
0
LTYPE
5
14
100
AcDbSymbolTableRecord
100
AcDbLinetypeTableRecord
70
0
2
ByBlock
3

72
65
73
0
40
0
0
LTYPE
5
15
100
AcDbSymbolTableRecord
100
AcDbLinetypeTableRecord
70
0
2
ByLayer
3

72
65
73
0
40
0
0
LTYPE
5
16
100
AcDbSymbolTableRecord
100
AcDbLinetypeTableRecord
70
0
2
Continuous
3
Solid line
72
65
73
0
40
0
0
LTYPE
5
6E
100
AcDbSymbolTableRecord
100
AcDbLinetypeTableRecord
70
0
2
CENTER
3
____ _ ____ _ ____ _ ____
72
65
73
4
40
47.5
49
22
74
0
49
-8.5
74
0
49
8.5
74
0
49
-8.5
74
0
0
LTYPE
5
6F
100
AcDbSymbolTableRecord
100
AcDbLinetypeTableRecord
70
0
2
DASHED
3
__ __ __ __ __ __ __ __ __
72
65
73
2
40
25.72
49
12.86
74
0
49
-12.86
74
0
0
ENDTAB
0
TABLE
2
LAYER
5
304
100
AcDbSymbolTable
0
LAYER
5
10
100
AcDbSymbolTableRecord
100
AcDbLayerTableRecord
2
0
70
0
62
7
6
Continuous
290
1
370
-3
390
0
0
LAYER
5
71
100
AcDbSymbolTableRecord
100
AcDbLayerTableRecord
2
80
70
0
62
-6
6
Continuous
290
1
370
-3
390
0
0
LAYER
5
73
100
AcDbSymbolTableRecord
100
AcDbLayerTableRecord
2
81
70
0
62
-3
6
Continuous
290
1
370
-3
390
0
0
LAYER
5
75
100
AcDbSymbolTableRecord
100
AcDbLayerTableRecord
2
1
70
0
62
4
6
Continuous
290
1
370
-3
390
0
0
LAYER
5
82
100
AcDbSymbolTableRecord
100
AcDbLayerTableRecord
2
4
70
0
62
-2
6
CENTER
290
1
370
-3
390
0
0
LAYER
5
CA
100
AcDbSymbolTableRecord
100
AcDbLayerTableRecord
2
2
70
0
62
7
6
Continuous
290
1
370
-3
390
0
0
LAYER
5
22C
100
AcDbSymbolTableRecord
100
AcDbLayerTableRecord
2
Defpoints
70
0
62
7
6
Continuous
290
0
370
-3
390
0
0
LAYER
5
2ee
100
AcDbSymbolTableRecord
100
AcDbLayerTableRecord
2
SK4
70
0
62
2
6
CENTER
290
1
370
-3
390
0
0
LAYER
5
2ef
100
AcDbSymbolTableRecord
100
AcDbLayerTableRecord
2
SK1
70
0
62
4
6
Continuous
290
1
370
-3
390
0
0
LAYER
5
2f0
100
AcDbSymbolTableRecord
100
AcDbLayerTableRecord
2
SK2
70
0
62
7
6
Continuous
290
1
370
-3
390
0
0
LAYER
5
2f1
100
AcDbSymbolTableRecord
100
AcDbLayerTableRecord
2
SK6
70
0
62
5
6
Continuous
290
1
370
-3
390
0
0
ENDTAB
0
TABLE
2
STYLE
5
305
100
AcDbSymbolTable
0
STYLE
5
11
100
AcDbSymbolTableRecord
100
AcDbTextStyleTableRecord
2
Standard
3
txt
70
0
71
0
40
0
41
1
42
0
50
0
0
STYLE
5
212
100
AcDbSymbolTableRecord
100
AcDbTextStyleTableRecord
2
iso_b_vert
3
simplex.shx
70
0
71
0
40
0
41
1
42
0
50
0
0
STYLE
5
213
100
AcDbSymbolTableRecord
100
AcDbTextStyleTableRecord
2
DWGDirectTextStyle
3
simplex
70
0
71
0
40
0
41
1
42
0
50
0
0
ENDTAB
0
TABLE
2
DIMSTYLE
5
306
100
AcDbSymbolTable
100
AcDbDimStyleTable
0
DIMSTYLE
105
27
100
AcDbSymbolTableRecord
100
AcDbDimStyleTableRecord
2
Standard
70
0
3
<>
41
0.18
42
0.0625
44
0.18
140
0.18
147
0.09
73
0
74
0
77
1
271
2
275
0
278
52
280
0
340
11
0
ENDTAB
0
TABLE
2
VIEW
5
307
100
AcDbSymbolTable
0
ENDTAB
0
TABLE
2
UCS
5
308
100
AcDbSymbolTable
0
ENDTAB
0
TABLE
2
APPID
5
309
100
AcDbSymbolTable
0
APPID
5
12
100
AcDbSymbolTableRecord
100
AcDbRegAppTableRecord
2
ACAD
70
0
0
APPID
5
228
100
AcDbSymbolTableRecord
100
AcDbRegAppTableRecord
2
ACAD_DSTYLE_DIMBREAK
70
0
0
APPID
5
2AD
100
AcDbSymbolTableRecord
100
AcDbRegAppTableRecord
2
ACAD_DSTYLE_DIM_LINETYPE
70
0
0
APPID
5
2AE
100
AcDbSymbolTableRecord
100
AcDbRegAppTableRecord
2
ACAD_DSTYLE_DIM_EXT1_LINETYPE
70
0
0
APPID
5
2AF
100
AcDbSymbolTableRecord
100
AcDbRegAppTableRecord
2
ACAD_DSTYLE_DIM_EXT2_LINETYPE
70
0
0
APPID
5
2EA
100
AcDbSymbolTableRecord
100
AcDbRegAppTableRecord
2
ACAD_MLEADERVER
70
0
0
ENDTAB
0
TABLE
2
BLOCK_RECORD
5
30a
100
AcDbSymbolTable
0
BLOCK_RECORD
5
1F
100
AcDbSymbolTableRecord
100
AcDbBlockTableRecord
2
*Model_Space
340
0
70
0
0
BLOCK_RECORD
5
1B
100
AcDbSymbolTableRecord
100
AcDbBlockTableRecord
2
*Paper_Space
340
0
70
0
0
BLOCK_RECORD
5
23
100
AcDbSymbolTableRecord
100
AcDbBlockTableRecord
2
*Paper_Space0
340
0
70
0
0
BLOCK_RECORD
5
22D
100
AcDbSymbolTableRecord
100
AcDbBlockTableRecord
2
*D1
340
0
70
0
0
BLOCK_RECORD
5
23B
100
AcDbSymbolTableRecord
100
AcDbBlockTableRecord
2
_U0
340
0
70
0
0
BLOCK_RECORD
5
247
100
AcDbSymbolTableRecord
100
AcDbBlockTableRecord
2
*D3
340
0
70
0
0
BLOCK_RECORD
5
254
100
AcDbSymbolTableRecord
100
AcDbBlockTableRecord
2
_U1
340
0
70
0
0
BLOCK_RECORD
5
261
100
AcDbSymbolTableRecord
100
AcDbBlockTableRecord
2
*D5
340
0
70
0
0
BLOCK_RECORD
5
26D
100
AcDbSymbolTableRecord
100
AcDbBlockTableRecord
2
_U2
340
0
70
0
0
BLOCK_RECORD
5
27A
100
AcDbSymbolTableRecord
100
AcDbBlockTableRecord
2
*D7
340
0
70
0
0
BLOCK_RECORD
5
286
100
AcDbSymbolTableRecord
100
AcDbBlockTableRecord
2
_U3
340
0
70
0
0
ENDTAB
0
ENDSEC
0
SECTION
2
BLOCKS
0
BLOCK
5
20
100
AcDbEntity
8
0
100
AcDbBlockBegin
2
*Model_Space
70
0
10
0
20
0
30
0
3
*Model_Space
0
ENDBLK
5
21
100
AcDbEntity
8
0
100
AcDbBlockEnd
0
BLOCK
5
1C
100
AcDbEntity
8
0
100
AcDbBlockBegin
2
*Paper_Space
70
0
10
0
20
0
30
0
3
*Paper_Space
0
ENDBLK
5
1D
100
AcDbEntity
8
0
100
AcDbBlockEnd
0
BLOCK
5
24
100
AcDbEntity
8
0
100
AcDbBlockBegin
2
*Paper_Space0
70
0
10
0
20
0
30
0
3
*Paper_Space0
0
ENDBLK
5
25
100
AcDbEntity
8
0
100
AcDbBlockEnd
0
BLOCK
5
22E
100
AcDbEntity
8
0
100
AcDbBlockBegin
2
*D1
70
1
10
0
20
0
30
0
3
*D1
0
LINE
5
230
100
AcDbEntity
8
0
62
256
6
ByLayer
370
-2
48
1
60
0
100
AcDbLine
10
78.5875
20
5.080072
30
0
11
98.5
21
5.080072
31
0
39
0
210
0
220
0
230
1
0
LINE
5
231
100
AcDbEntity
8
0
62
256
6
ByLayer
370
-2
48
1
60
0
100
AcDbLine
10
78.5875
20
-5.080072
30
0
11
98.5
21
-5.080072
31
0
39
0
210
0
220
0
230
1
0
LINE
5
232
100
AcDbEntity
8
0
62
256
6
ByLayer
370
-2
48
1
60
0
100
AcDbLine
10
96.5
20
5.080072
30
0
11
96.5
21
32.955584
31
0
39
0
210
0
220
0
230
1
0
LINE
5
233
100
AcDbEntity
8
0
62
256
6
ByLayer
370
-2
48
1
60
0
100
AcDbLine
10
96.5
20
8.580072
30
0
11
96.5
21
12.080072
31
0
39
0
210
0
220
0
230
1
0
LINE
5
234
100
AcDbEntity
8
0
62
256
6
ByLayer
370
-2
48
1
60
0
100
AcDbLine
10
96.5
20
-8.580072
30
0
11
96.5
21
-12.080072
31
0
39
0
210
0
220
0
230
1
0
SOLID
5
235
100
AcDbEntity
8
0
62
256
6
ByLayer
370
-1
48
1
60
0
100
AcDbTrace
10
95.916667
20
8.580072
30
0
11
97.083333
21
8.580072
31
0
12
96.5
22
5.080072
32
0
13
96.5
23
5.080072
33
0
39
0
210
0
220
0
230
1
0
SOLID
5
236
100
AcDbEntity
8
0
62
256
6
ByLayer
370
-1
48
1
60
0
100
AcDbTrace
10
97.083333
20
-8.580072
30
0
11
95.916667
21
-8.580072
31
0
12
96.5
22
-5.080072
32
0
13
96.5
23
-5.080072
33
0
39
0
210
0
220
0
230
1
0
MTEXT
5
237
100
AcDbEntity
8
0
62
256
6
ByLayer
370
18
48
1
60
0
100
AcDbMText
10
90.5
20
22.66987
30
0
210
0
220
0
230
1
1
\A1;10.16
40
3
41
0
44
1
50
90
71
5
72
5
7
iso_b_vert
0
POINT
5
238
100
AcDbEntity
8
Defpoints
62
0
6
ByLayer
370
-1
48
1
60
0
100
AcDbPoint
10
77
20
5.080072
30
0
39
0
210
0
220
0
230
1
50
360
0
POINT
5
239
100
AcDbEntity
8
Defpoints
62
0
6
ByLayer
370
-1
48
1
60
0
100
AcDbPoint
10
77
20
-5.080072
30
0
39
0
210
0
220
0
230
1
50
360
0
POINT
5
23A
100
AcDbEntity
8
Defpoints
62
0
6
ByLayer
370
-1
48
1
60
0
100
AcDbPoint
10
96.5
20
-5.080072
30
0
39
0
210
0
220
0
230
1
50
360
0
ENDBLK
5
22F
100
AcDbEntity
8
0
100
AcDbBlockEnd
0
BLOCK
5
242
100
AcDbEntity
8
0
100
AcDbBlockBegin
2
_U0
70
0
10
0
20
0
30
0
3
_U0
0
MTEXT
5
23C
100
AcDbEntity
8
2
62
256
6
ByLayer
370
18
48
1
60
0
100
AcDbMText
10
95.908886
20
15.215072
30
0
210
0
220
0
230
1
1
\W0.7161;M10x1.25
40
3
41
0
44
1.084337
50
90
71
7
72
5
7
iso_b_vert
0
LINE
5
23D
100
AcDbEntity
8
2
62
256
6
ByLayer
370
13
48
1
60
0
100
AcDbLine
10
78.5875
20
5.080072
30
0
11
98.5
21
5.080072
31
0
39
0
210
0
220
0
230
1
0
LINE
5
23E
100
AcDbEntity
8
2
62
256
6
ByLayer
370
13
48
1
60
0
100
AcDbLine
10
78.5875
20
-5.080072
30
0
11
98.5
21
-5.080072
31
0
39
0
210
0
220
0
230
1
0
LINE
5
23F
100
AcDbEntity
8
2
62
256
6
ByLayer
370
13
48
1
60
0
100
AcDbLine
10
96.5
20
-5.080072
30
0
11
96.5
21
30.259669
31
0
39
0
210
0
220
0
230
1
0
SOLID
5
240
100
AcDbEntity
8
2
62
256
6
ByLayer
370
18
48
1
60
0
100
AcDbTrace
10
96.5
20
5.080072
30
0
11
96.960784
21
1.580073
31
0
12
96.039216
22
1.58007
32
0
13
96.039216
23
1.58007
33
0
39
0
210
0
220
0
230
1
0
SOLID
5
241
100
AcDbEntity
8
2
62
256
6
ByLayer
370
18
48
1
60
0
100
AcDbTrace
10
96.5
20
-5.080072
30
0
11
96.039216
21
-1.580073
31
0
12
96.960784
22
-1.58007
32
0
13
96.960784
23
-1.58007
33
0
39
0
210
0
220
0
230
1
0
ENDBLK
5
243
100
AcDbEntity
8
0
100
AcDbBlockEnd
0
BLOCK
5
248
100
AcDbEntity
8
0
100
AcDbBlockBegin
2
*D3
70
1
10
0
20
0
30
0
3
*D3
0
LINE
5
24A
100
AcDbEntity
8
0
62
256
6
ByLayer
370
-2
48
1
60
0
100
AcDbLine
10
77
20
6.667572
30
0
11
77
21
16.113266
31
0
39
0
210
0
220
0
230
1
0
LINE
5
24B
100
AcDbEntity
8
0
62
256
6
ByLayer
370
-2
48
1
60
0
100
AcDbLine
10
74.8125
20
1.5875
30
0
11
74.8125
21
16.113266
31
0
39
0
210
0
220
0
230
1
0
LINE
5
24C
100
AcDbEntity
8
0
62
256
6
ByLayer
370
-2
48
1
60
0
100
AcDbLine
10
80.5
20
14.113266
30
0
11
84
21
14.113266
31
0
39
0
210
0
220
0
230
1
0
LINE
5
24D
100
AcDbEntity
8
0
62
256
6
ByLayer
370
-2
48
1
60
0
100
AcDbLine
10
71.3125
20
14.113266
30
0
11
67.8125
21
14.113266
31
0
39
0
210
0
220
0
230
1
0
SOLID
5
24E
100
AcDbEntity
8
0
62
256
6
ByLayer
370
-1
48
1
60
0
100
AcDbTrace
10
80.5
20
14.696599
30
0
11
80.5
21
13.529932
31
0
12
77
22
14.113266
32
0
13
77
23
14.113266
33
0
39
0
210
0
220
0
230
1
0
SOLID
5
24F
100
AcDbEntity
8
0
62
256
6
ByLayer
370
-1
48
1
60
0
100
AcDbTrace
10
71.3125
20
13.529932
30
0
11
71.3125
21
14.696599
31
0
12
74.8125
22
14.113266
32
0
13
74.8125
23
14.113266
33
0
39
0
210
0
220
0
230
1
0
MTEXT
5
250
100
AcDbEntity
8
0
62
256
6
ByLayer
370
18
48
1
60
0
100
AcDbMText
10
75.90625
20
20.113266
30
0
210
0
220
0
230
1
1
\A1;2.188
40
3
41
0
44
1
50
0
71
5
72
5
7
iso_b_vert
0
POINT
5
251
100
AcDbEntity
8
Defpoints
62
0
6
ByLayer
370
-1
48
1
60
0
100
AcDbPoint
10
77
20
5.080072
30
0
39
0
210
0
220
0
230
1
50
360
0
POINT
5
252
100
AcDbEntity
8
Defpoints
62
0
6
ByLayer
370
-1
48
1
60
0
100
AcDbPoint
10
74.8125
20
0
30
0
39
0
210
0
220
0
230
1
50
360
0
POINT
5
253
100
AcDbEntity
8
Defpoints
62
0
6
ByLayer
370
-1
48
1
60
0
100
AcDbPoint
10
74.8125
20
14.113266
30
0
39
0
210
0
220
0
230
1
50
360
0
ENDBLK
5
249
100
AcDbEntity
8
0
100
AcDbBlockEnd
0
BLOCK
5
25C
100
AcDbEntity
8
0
100
AcDbBlockBegin
2
_U1
70
0
10
0
20
0
30
0
3
_U1
0
MTEXT
5
255
100
AcDbEntity
8
SK2
62
256
6
ByLayer
370
18
48
1
60
0
100
AcDbMText
10
71.825322
20
14.895899
30
0
210
0
220
0
230
1
1
\W0.6844;'E'
40
3.5
41
0
44
1.084337
50
0
71
7
72
5
7
iso_b_vert
0
MTEXT
5
256
100
AcDbEntity
8
SK2
62
256
6
ByLayer
370
18
48
1
60
0
100
AcDbMText
10
71.798822
20
21.99838
30
0
210
0
220
0
230
1
1
\W0.6864;2.188
40
3
41
0
44
1.084337
50
0
71
7
72
5
7
iso_b_vert
0
LINE
5
257
100
AcDbEntity
8
SK2
62
256
6
ByLayer
370
13
48
1
60
0
100
AcDbLine
10
77
20
6.667572
30
0
11
77
21
16.113266
31
0
39
0
210
0
220
0
230
1
0
LINE
5
258
100
AcDbEntity
8
SK2
62
256
6
ByLayer
370
13
48
1
60
0
100
AcDbLine
10
74.8125
20
1.5875
30
0
11
74.8125
21
16.113266
31
0
39
0
210
0
220
0
230
1
0
LINE
5
259
100
AcDbEntity
8
SK2
62
256
6
ByLayer
370
13
48
1
60
0
100
AcDbLine
10
84.5
20
14.113266
30
0
11
67.3125
21
14.113266
31
0
39
0
210
0
220
0
230
1
0
SOLID
5
25A
100
AcDbEntity
8
SK2
62
256
6
ByLayer
370
18
48
1
60
0
100
AcDbTrace
10
77
20
14.113266
30
0
11
80.499998
21
14.574049
31
0
12
80.500002
22
13.652482
32
0
13
80.500002
23
13.652482
33
0
39
0
210
0
220
0
230
1
0
SOLID
5
25B
100
AcDbEntity
8
SK2
62
256
6
ByLayer
370
18
48
1
60
0
100
AcDbTrace
10
74.8125
20
14.113266
30
0
11
71.312502
21
13.652482
31
0
12
71.312498
22
14.574049
32
0
13
71.312498
23
14.574049
33
0
39
0
210
0
220
0
230
1
0
ENDBLK
5
25D
100
AcDbEntity
8
0
100
AcDbBlockEnd
0
BLOCK
5
262
100
AcDbEntity
8
0
100
AcDbBlockBegin
2
*D5
70
1
10
0
20
0
30
0
3
*D5
0
LINE
5
264
100
AcDbEntity
8
0
62
256
6
ByLayer
370
-2
48
1
60
0
100
AcDbLine
10
77
20
-6.667572
30
0
11
77
21
-14.080072
31
0
39
0
210
0
220
0
230
1
0
LINE
5
265
100
AcDbEntity
8
0
62
256
6
ByLayer
370
-2
48
1
60
0
100
AcDbLine
10
57
20
-6.667572
30
0
11
57
21
-14.080072
31
0
39
0
210
0
220
0
230
1
0
LINE
5
266
100
AcDbEntity
8
0
62
256
6
ByLayer
370
-2
48
1
60
0
100
AcDbLine
10
73.5
20
-12.080072
30
0
11
60.5
21
-12.080072
31
0
39
0
210
0
220
0
230
1
0
SOLID
5
267
100
AcDbEntity
8
0
62
256
6
ByLayer
370
-1
48
1
60
0
100
AcDbTrace
10
73.5
20
-12.663405
30
0
11
73.5
21
-11.496738
31
0
12
77
22
-12.080072
32
0
13
77
23
-12.080072
33
0
39
0
210
0
220
0
230
1
0
SOLID
5
268
100
AcDbEntity
8
0
62
256
6
ByLayer
370
-1
48
1
60
0
100
AcDbTrace
10
60.5
20
-11.496738
30
0
11
60.5
21
-12.663405
31
0
12
57
22
-12.080072
32
0
13
57
23
-12.080072
33
0
39
0
210
0
220
0
230
1
0
MTEXT
5
269
100
AcDbEntity
8
0
62
256
6
ByLayer
370
18
48
1
60
0
100
AcDbMText
10
66.655172
20
-6.080072
30
0
210
0
220
0
230
1
1
\A1;20
40
3
41
0
44
1
50
0
71
5
72
5
7
iso_b_vert
0
POINT
5
26A
100
AcDbEntity
8
Defpoints
62
0
6
ByLayer
370
-1
48
1
60
0
100
AcDbPoint
10
77
20
-5.080072
30
0
39
0
210
0
220
0
230
1
50
360
0
POINT
5
26B
100
AcDbEntity
8
Defpoints
62
0
6
ByLayer
370
-1
48
1
60
0
100
AcDbPoint
10
57
20
-5.080072
30
0
39
0
210
0
220
0
230
1
50
360
0
POINT
5
26C
100
AcDbEntity
8
Defpoints
62
0
6
ByLayer
370
-1
48
1
60
0
100
AcDbPoint
10
57
20
-12.080072
30
0
39
0
210
0
220
0
230
1
50
360
0
ENDBLK
5
263
100
AcDbEntity
8
0
100
AcDbBlockEnd
0
BLOCK
5
275
100
AcDbEntity
8
0
100
AcDbBlockBegin
2
_U2
70
0
10
0
20
0
30
0
3
_U2
0
MTEXT
5
26E
100
AcDbEntity
8
SK2
62
256
6
ByLayer
370
18
48
1
60
0
100
AcDbMText
10
60.147726
20
-11.194957
30
0
210
0
220
0
230
1
1
\W0.6740;20
40
3
41
0
44
1.084337
50
0
71
7
72
5
7
iso_b_vert
0
MTEXT
5
26F
100
AcDbEntity
8
SK2
62
256
6
ByLayer
370
18
48
1
60
0
100
AcDbMText
10
66.204882
20
-10.842476
30
0
210
0
220
0
230
1
1
\W0.8315;\W0.4158;%%p\W0.8315;0.5
40
2.5
41
0
44
1.084337
50
0
71
7
72
5
7
iso_b_vert
0
LINE
5
270
100
AcDbEntity
8
SK2
62
256
6
ByLayer
370
13
48
1
60
0
100
AcDbLine
10
77
20
-6.667572
30
0
11
77
21
-14.080072
31
0
39
0
210
0
220
0
230
1
0
LINE
5
271
100
AcDbEntity
8
SK2
62
256
6
ByLayer
370
13
48
1
60
0
100
AcDbLine
10
57
20
-6.667572
30
0
11
57
21
-14.080072
31
0
39
0
210
0
220
0
230
1
0
LINE
5
272
100
AcDbEntity
8
SK2
62
256
6
ByLayer
370
13
48
1
60
0
100
AcDbLine
10
77
20
-12.080072
30
0
11
57
21
-12.080072
31
0
39
0
210
0
220
0
230
1
0
SOLID
5
273
100
AcDbEntity
8
SK2
62
256
6
ByLayer
370
18
48
1
60
0
100
AcDbTrace
10
77
20
-12.080072
30
0
11
73.500002
21
-12.540855
31
0
12
73.499998
22
-11.619288
32
0
13
73.499998
23
-11.619288
33
0
39
0
210
0
220
0
230
1
0
SOLID
5
274
100
AcDbEntity
8
SK2
62
256
6
ByLayer
370
18
48
1
60
0
100
AcDbTrace
10
57
20
-12.080072
30
0
11
60.499998
21
-11.619288
31
0
12
60.500002
22
-12.540855
32
0
13
60.500002
23
-12.540855
33
0
39
0
210
0
220
0
230
1
0
ENDBLK
5
276
100
AcDbEntity
8
0
100
AcDbBlockEnd
0
BLOCK
5
27B
100
AcDbEntity
8
0
100
AcDbBlockBegin
2
*D7
70
1
10
0
20
0
30
0
3
*D7
0
LINE
5
27D
100
AcDbEntity
8
0
62
256
6
ByLayer
370
-2
48
1
60
0
100
AcDbLine
10
77
20
-6.667572
30
0
11
77
21
-25.580072
31
0
39
0
210
0
220
0
230
1
0
LINE
5
27E
100
AcDbEntity
8
0
62
256
6
ByLayer
370
-2
48
1
60
0
100
AcDbLine
10
34.5
20
-1.5875
30
0
11
34.5
21
-25.580072
31
0
39
0
210
0
220
0
230
1
0
LINE
5
27F
100
AcDbEntity
8
0
62
256
6
ByLayer
370
-2
48
1
60
0
100
AcDbLine
10
73.5
20
-23.580072
30
0
11
38
21
-23.580072
31
0
39
0
210
0
220
0
230
1
0
SOLID
5
280
100
AcDbEntity
8
0
62
256
6
ByLayer
370
-1
48
1
60
0
100
AcDbTrace
10
73.5
20
-24.163405
30
0
11
73.5
21
-22.996738
31
0
12
77
22
-23.580072
32
0
13
77
23
-23.580072
33
0
39
0
210
0
220
0
230
1
0
SOLID
5
281
100
AcDbEntity
8
0
62
256
6
ByLayer
370
-1
48
1
60
0
100
AcDbTrace
10
38
20
-22.996738
30
0
11
38
21
-24.163405
31
0
12
34.5
22
-23.580072
32
0
13
34.5
23
-23.580072
33
0
39
0
210
0
220
0
230
1
0
MTEXT
5
282
100
AcDbEntity
8
0
62
256
6
ByLayer
370
18
48
1
60
0
100
AcDbMText
10
55.75
20
-17.580072
30
0
210
0
220
0
230
1
1
\A1;42.5
40
3
41
0
44
1
50
0
71
5
72
5
7
iso_b_vert
0
POINT
5
283
100
AcDbEntity
8
Defpoints
62
0
6
ByLayer
370
-1
48
1
60
0
100
AcDbPoint
10
77
20
-5.080072
30
0
39
0
210
0
220
0
230
1
50
360
0
POINT
5
284
100
AcDbEntity
8
Defpoints
62
0
6
ByLayer
370
-1
48
1
60
0
100
AcDbPoint
10
34.5
20
0
30
0
39
0
210
0
220
0
230
1
50
360
0
POINT
5
285
100
AcDbEntity
8
Defpoints
62
0
6
ByLayer
370
-1
48
1
60
0
100
AcDbPoint
10
34.5
20
-23.580072
30
0
39
0
210
0
220
0
230
1
50
360
0
ENDBLK
5
27C
100
AcDbEntity
8
0
100
AcDbBlockEnd
0
BLOCK
5
28D
100
AcDbEntity
8
0
100
AcDbBlockBegin
2
_U3
70
0
10
0
20
0
30
0
3
_U3
0
MTEXT
5
287
100
AcDbEntity
8
2
62
256
6
ByLayer
370
18
48
1
60
0
100
AcDbMText
10
52.230601
20
-22.694957
30
0
210
0
220
0
230
1
1
\W0.7640;42.5
40
3
41
0
44
1.084337
50
0
71
7
72
5
7
iso_b_vert
0
LINE
5
288
100
AcDbEntity
8
2
62
256
6
ByLayer
370
13
48
1
60
0
100
AcDbLine
10
77
20
-6.667572
30
0
11
77
21
-25.580072
31
0
39
0
210
0
220
0
230
1
0
LINE
5
289
100
AcDbEntity
8
2
62
256
6
ByLayer
370
13
48
1
60
0
100
AcDbLine
10
34.5
20
-1.5875
30
0
11
34.5
21
-25.580072
31
0
39
0
210
0
220
0
230
1
0
LINE
5
28A
100
AcDbEntity
8
2
62
256
6
ByLayer
370
13
48
1
60
0
100
AcDbLine
10
77
20
-23.580072
30
0
11
34.5
21
-23.580072
31
0
39
0
210
0
220
0
230
1
0
SOLID
5
28B
100
AcDbEntity
8
2
62
256
6
ByLayer
370
18
48
1
60
0
100
AcDbTrace
10
77
20
-23.580072
30
0
11
73.500002
21
-24.040855
31
0
12
73.499998
22
-23.119288
32
0
13
73.499998
23
-23.119288
33
0
39
0
210
0
220
0
230
1
0
SOLID
5
28C
100
AcDbEntity
8
2
62
256
6
ByLayer
370
18
48
1
60
0
100
AcDbTrace
10
34.5
20
-23.580072
30
0
11
37.999998
21
-23.119288
31
0
12
38.000002
22
-24.040855
32
0
13
38.000002
23
-24.040855
33
0
39
0
210
0
220
0
230
1
0
ENDBLK
5
28E
100
AcDbEntity
8
0
100
AcDbBlockEnd
0
ENDSEC
0
SECTION
2
ENTITIES
0
ARC
5
D3
100
AcDbEntity
8
SK1
62
256
6
ByLayer
370
18
48
1
60
0
100
AcDbCircle
39
0
10
-17.75
20
0
30
0
40
3.35999999999995
210
0
220
0
230
1
100
AcDbArc
50
324.93017
51
35.06983
0
POINT
5
70
100
AcDbEntity
8
80
62
256
6
ByLayer
370
18
48
1
60
0
100
AcDbPoint
10
0
20
0
30
0
39
0
210
0
220
0
230
1
50
360
0
POINT
5
72
100
AcDbEntity
8
81
62
256
6
ByLayer
370
18
48
1
60
0
100
AcDbPoint
10
77
20
0
30
0
39
0
210
0
220
0
230
1
50
360
0
POINT
5
74
100
AcDbEntity
8
1
62
256
6
ByLayer
370
18
48
1
60
1
100
AcDbPoint
10
77
20
5.080072
30
0
39
0
210
0
220
0
230
1
50
360
0
POINT
5
76
100
AcDbEntity
8
1
62
256
6
ByLayer
370
18
48
1
60
1
100
AcDbPoint
10
77
20
-5.080072
30
0
39
0
210
0
220
0
230
1
50
360
0
POINT
5
77
100
AcDbEntity
8
1
62
256
6
ByLayer
370
18
48
1
60
1
100
AcDbPoint
10
77
20
5.080072
30
0
39
0
210
0
220
0
230
1
50
360
0
POINT
5
78
100
AcDbEntity
8
1
62
256
6
ByLayer
370
18
48
1
60
1
100
AcDbPoint
10
74.8125
20
0
30
0
39
0
210
0
220
0
230
1
50
360
0
POINT
5
79
100
AcDbEntity
8
1
62
256
6
ByLayer
370
18
48
1
60
1
100
AcDbPoint
10
77
20
-5.080072
30
0
39
0
210
0
220
0
230
1
50
360
0
POINT
5
7A
100
AcDbEntity
8
1
62
256
6
ByLayer
370
18
48
1
60
1
100
AcDbPoint
10
57
20
-5.080072
30
0
39
0
210
0
220
0
230
1
50
360
0
POINT
5
7B
100
AcDbEntity
8
1
62
256
6
ByLayer
370
18
48
1
60
1
100
AcDbPoint
10
77
20
-5.080072
30
0
39
0
210
0
220
0
230
1
50
360
0
POINT
5
7C
100
AcDbEntity
8
1
62
256
6
ByLayer
370
18
48
1
60
1
100
AcDbPoint
10
34.5
20
0
30
0
39
0
210
0
220
0
230
1
50
360
0
SPLINE
5
D4
100
AcDbEntity
8
1
62
256
6
ByLayer
370
18
48
1
60
0
100
AcDbSpline
70
4
71
3
72
8
73
4
40
0
40
0
40
0
40
0
40
1
40
1
40
1
40
1
41
1
10
76.5421328596493
20
4.40180502774032
30
0
41
1
10
76.5468971464047
20
4.41003635804688
30
0
41
1
10
76.5515276416884
20
4.41282625136751
30
0
41
1
10
76.5560826464377
20
4.41021202481289
30
0
0
SPLINE
5
D5
100
AcDbEntity
8
1
62
256
6
ByLayer
370
18
48
1
60
0
100
AcDbSpline
70
4
71
3
72
8
73
4
40
0
40
0
40
0
40
0
40
1
40
1
40
1
40
1
41
1
10
75.5201410851478
20
4.79542521545506
30
0
41
1
10
75.5246147397334
20
4.80316681553336
30
0
41
1
10
75.5289749254425
20
4.80568498580655
30
0
41
1
10
75.5332732800942
20
4.80299602472232
30
0
0
SPLINE
5
D6
100
AcDbEntity
8
1
62
256
6
ByLayer
370
18
48
1
60
0
100
AcDbSpline
70
4
71
3
72
8
73
4
40
0
40
0
40
0
40
0
40
1
40
1
40
1
40
1
41
1
10
75.5332732800942
20
4.80299602472235
30
0
41
1
10
75.5338933638946
20
4.80260811551744
30
0
41
1
10
75.5345118692538
20
4.80211185204661
30
0
41
1
10
75.5351289069979
20
4.80150743468727
30
0
0
SPLINE
5
D7
100
AcDbEntity
8
1
62
256
6
ByLayer
370
18
48
1
60
0
100
AcDbSpline
70
4
71
2
72
6
73
3
40
0
40
0
40
0
40
1
40
1
40
1
41
1
10
75.3487889420123
20
4.48308528827781
30
0
41
1
10
75.4410311110533
20
4.64304065650006
30
0
41
1
10
75.5332732800942
20
4.80299602472235
30
0
0
SPLINE
5
D8
100
AcDbEntity
8
1
62
256
6
ByLayer
370
18
48
1
60
0
100
AcDbSpline
70
4
71
3
72
8
73
4
40
0
40
0
40
0
40
0
40
1
40
1
40
1
40
1
41
1
10
64.230893479624
20
4.72342631969556
30
0
41
1
10
64.23353467226
20
4.73029688340878
30
0
41
1
10
64.2361770352844
20
4.73612385796272
30
0
41
1
10
64.2388209051924
20
4.74088572329265
30
0
0
SPLINE
5
D9
100
AcDbEntity
8
1
62
256
6
ByLayer
370
13
48
1
60
0
100
AcDbSpline
70
4
71
3
72
9
73
5
40
0
40
0
40
0
40
0
40
0.314036281131795
40
1
40
1
40
1
40
1
41
1
10
74.0138283232328
20
4.35293689003035
30
0
41
1
10
74.0155195884563
20
4.35575062483258
30
0
41
1
10
74.0209051611586
20
4.36320922048648
30
0
41
1
10
74.0262907338326
20
4.36587473806227
30
0
41
1
10
74.0299850413058
20
4.3654480655417
30
0
0
SPLINE
5
DA
100
AcDbEntity
8
1
62
256
6
ByLayer
370
18
48
1
60
0
100
AcDbSpline
70
4
71
3
72
8
73
4
40
0
40
0
40
0
40
0
40
1
40
1
40
1
40
1
41
1
10
70.2566417533354
20
4.33807822401616
30
0
41
1
10
70.2589954724604
20
4.34385631237149
30
0
41
1
10
70.261349191604
20
4.34872525351727
30
0
41
1
10
70.2637029107772
20
4.35268085014664
30
0
0
SPLINE
5
DB
100
AcDbEntity
8
1
62
256
6
ByLayer
370
13
48
1
60
0
100
AcDbSpline
70
4
71
3
72
9
73
5
40
0
40
0
40
0
40
0
40
0.611243182683854
40
1
40
1
40
1
40
1
41
1
10
70.26370291078
20
4.35268085015133
30
0
41
1
10
70.2670510242383
20
4.35830759885545
30
0
41
1
10
70.2725285716583
20
4.36448950476949
30
0
41
1
10
70.2780061193249
20
4.36569257978232
30
0
41
1
10
70.2801355533496
20
4.36540961761804
30
0
0
SPLINE
5
DC
100
AcDbEntity
8
1
62
256
6
ByLayer
370
18
48
1
60
0
100
AcDbSpline
70
4
71
3
72
9
73
5
40
0
40
0
40
0
40
0
40
0.361206928761179
40
1
40
1
40
1
40
1
41
1
10
76.9999999999999
20
-2.1201985313644
30
0
41
1
10
76.9999999999998
20
-1.77299220291491
30
0
41
1
10
77.0000000000001
20
-0.762517676540568
30
0
41
1
10
77.0000000000001
20
0.292539151623714
30
0
41
1
10
77.0000000000001
20
0.922955921122707
30
0
0
SPLINE
5
DD
100
AcDbEntity
8
1
62
256
6
ByLayer
370
18
48
1
60
0
100
AcDbSpline
70
4
71
3
72
29
73
25
40
0
40
0
40
0
40
0
40
0.0624999999999993
40
0.0937499999999995
40
0.0937499999999995
40
0.125
40
0.125
40
0.250000000000001
40
0.250000000000001
40
0.375000000000002
40
0.375000000000002
40
0.500000000000004
40
0.500000000000004
40
0.531250000000004
40
0.531250000000004
40
0.562500000000004
40
0.562500000000004
40
0.625000000000003
40
0.625000000000003
40
0.750000000000002
40
0.750000000000002
40
0.875000000000001
40
0.875000000000001
40
1
40
1
40
1
40
1
41
1
10
76.7152911972368
20
0.937527184656091
30
0
41
1
10
76.7197163456042
20
0.871985628922715
30
0
41
1
10
76.7262099804218
20
0.773204449820668
30
0
41
1
10
76.7325260892226
20
0.673721658065375
30
0
41
1
10
76.7367016061107
20
0.60724351650677
30
0
41
1
10
76.7387719272738
20
0.573927258307691
30
0
41
1
10
76.749004070873
20
0.407520721549957
30
0
41
1
10
76.7568324104351
20
0.274501664913828
30
0
41
1
10
76.7718607647741
20
0.0086738901624983
30
0
41
1
10
76.7790726370939
20
-0.124134071406218
30
0
41
1
10
76.7929431821244
20
-0.389535006824048
30
0
41
1
10
76.7995903547162
20
-0.522128690161622
30
0
41
1
10
76.8075493588907
20
-0.687732349187939
30
0
41
1
10
76.8091238753707
20
-0.72084612829687
30
0
41
1
10
76.8122388093911
20
-0.78705957307497
30
0
41
1
10
76.8137808132287
20
-0.820198054185056
30
0
41
1
10
76.8183303778605
20
-0.919080551207884
30
0
41
1
10
76.8212672411
20
-0.984415093002838
30
0
41
1
10
76.8297976800528
20
-1.17869250343031
30
0
41
1
10
76.8351100059793
20
-1.30591284829779
30
0
41
1
10
76.8450078908013
20
-1.55582831332811
30
0
41
1
10
76.8495800983775
20
-1.67852522542907
30
0
41
1
10
76.8578704652377
20
-1.91938698799166
30
0
41
1
10
76.8615924066448
20
-2.03755100835212
30
0
41
1
10
76.8649002639812
20
-2.15338702176564
30
0
0
SPLINE
5
DE
100
AcDbEntity
8
1
62
256
6
ByLayer
370
18
48
1
60
0
100
AcDbSpline
70
4
71
3
72
8
73
4
40
0
40
0
40
0
40
0
40
1
40
1
40
1
40
1
41
1
10
66.4981954644472
20
-4.80059541272368
30
0
41
1
10
66.4543060420779
20
-4.79473229579253
30
0
41
1
10
66.4104166199688
20
-4.78886917331624
30
0
41
1
10
66.3665271981201
20
-4.78300604581435
30
0
0
SPLINE
5
DF
100
AcDbEntity
8
1
62
256
6
ByLayer
370
18
48
1
60
0
100
AcDbSpline
70
4
71
3
72
12
73
8
40
0
40
0
40
0
40
0
40
0.279613803217053
40
0.279613803217053
40
0.559227603240582
40
0.559227603240582
40
1
40
1
40
1
40
1
41
1
10
66.9049440642592
20
-4.1420937167328
30
0
41
1
10
66.8670486758078
20
-4.20345610124332
30
0
41
1
10
66.8291481286005
20
-4.26482259794949
30
0
41
1
10
66.7533382362915
20
-4.3875630684845
30
0
41
1
10
66.7154288874131
20
-4.44893704464255
30
0
41
1
10
66.6177510050335
20
-4.60706710225458
30
0
41
1
10
66.5579768977031
20
-4.70382811189299
30
0
41
1
10
66.4981954644472
20
-4.80059541272368
30
0
0
SPLINE
5
E0
100
AcDbEntity
8
1
62
256
6
ByLayer
370
18
48
1
60
0
100
AcDbSpline
70
4
71
3
72
32
73
28
40
0
40
0
40
0
40
0
40
0.124999999999877
40
0.124999999999877
40
0.187499999999855
40
0.187499999999855
40
0.249999999999832
40
0.31249999999981
40
0.31249999999981
40
0.374999999999787
40
0.374999999999787
40
0.437499999999765
40
0.437499999999765
40
0.499999999999742
40
0.499999999999742
40
0.624999999999807
40
0.624999999999807
40
0.687499999999839
40
0.687499999999839
40
0.749999999999871
40
0.749999999999871
40
0.812499999999903
40
0.812499999999903
40
0.874999999999936
40
0.937499999999968
40
0.937499999999968
40
1
40
1
40
1
40
1
41
1
10
67.217741398809
20
-4.14286456301585
30
0
41
1
10
67.2097682392526
20
-4.13000824125371
30
0
41
1
10
67.2001880613694
20
-4.11839361247553
30
0
41
1
10
67.1834791949228
20
-4.1027784299547
30
0
41
1
10
67.1774677157691
20
-4.09784911697343
30
0
41
1
10
67.1649398353151
20
-4.08886158127169
30
0
41
1
10
67.1518803462113
20
-4.08069992671969
30
0
41
1
10
67.137777625574
20
-4.07415892339438
30
0
41
1
10
67.1231360856834
20
-4.06845494400844
30
0
41
1
10
67.1156100043969
20
-4.06605302132073
30
0
41
1
10
67.1004362838655
20
-4.06221507396432
30
0
41
1
10
67.0927469363114
20
-4.06076231323868
30
0
41
1
10
67.0771627137748
20
-4.05879172231323
30
0
41
1
10
67.069212077922
20
-4.05827481964977
30
0
41
1
10
67.0454672309513
20
-4.05819812754609
30
0
41
1
10
67.0299174572437
20
-4.06005631212051
30
0
41
1
10
67.0070116353069
20
-4.06569846066873
30
0
41
1
10
66.999449572961
20
-4.06807044709538
30
0
41
1
10
66.9849127249784
20
-4.07364549439063
30
0
41
1
10
66.9778792558539
20
-4.07686071263984
30
0
41
1
10
66.9642794395191
20
-4.08414149622249
30
0
41
1
10
66.9576905875217
20
-4.08822314693666
30
0
41
1
10
66.9450986417144
20
-4.09720635792885
30
0
41
1
10
66.933274079552
20
-4.10687067508619
30
0
41
1
10
66.9229301954166
20
-4.1178492696331
30
0
41
1
10
66.9133381915324
20
-4.12949528273768
30
0
41
1
10
66.9089083764043
20
-4.13567447533922
30
0
41
1
10
66.9049440642592
20
-4.1420937167328
30
0
0
SPLINE
5
E1
100
AcDbEntity
8
1
62
256
6
ByLayer
370
18
48
1
60
0
100
AcDbSpline
70
4
71
3
72
12
73
8
40
0
40
0
40
0
40
0
40
0.238768858322242
40
0.238768858322242
40
0.514861601985002
40
0.514861601985002
40
1
40
1
40
1
40
1
41
1
10
67.6316924435033
20
-4.81096041160006
30
0
41
1
10
67.5987594720056
20
-4.75776658689273
30
0
41
1
10
67.5658238108312
20
-4.70457668960384
30
0
41
1
10
67.4947975862514
20
-4.58989222023769
30
0
41
1
10
67.4567060141489
20
-4.52839918759028
30
0
41
1
10
67.3516689915609
20
-4.35887296734938
30
0
41
1
10
67.2847140873242
20
-4.25085467995075
30
0
41
1
10
67.217741398809
20
-4.14286456301585
30
0
0
SPLINE
5
E2
100
AcDbEntity
8
1
62
256
6
ByLayer
370
18
48
1
60
0
100
AcDbSpline
70
4
71
3
72
8
73
4
40
0
40
0
40
0
40
0
40
1
40
1
40
1
40
1
41
1
10
67.6316924435033
20
-4.81096041160004
30
0
41
1
10
67.6688153539407
20
-4.81104813327519
30
0
41
1
10
67.7059382643677
20
-4.81113583454507
30
0
41
1
10
67.7430611747841
20
-4.8112235154093
30
0
0
SPLINE
5
E3
100
AcDbEntity
8
1
62
256
6
ByLayer
370
18
48
1
60
0
100
AcDbSpline
70
4
71
3
72
12
73
8
40
0
40
0
40
0
40
0
40
0.276360381178485
40
0.276360381178485
40
0.552720759143807
40
0.552720759143807
40
1
40
1
40
1
40
1
41
1
10
68.1545222230996
20
-4.14496854347757
30
0
41
1
10
68.1166352697861
20
-4.20633155460203
30
0
41
1
10
68.0787427417861
20
-4.26769846628275
30
0
41
1
10
68.0029481638354
20
-4.39043939959066
30
0
41
1
10
67.9650461099495
20
-4.45181342353629
30
0
41
1
10
67.8657902694463
20
-4.61252731304882
30
0
41
1
10
67.8044298943112
20
-4.71187229574122
30
0
41
1
10
67.7430611747847
20
-4.81122351540913
30
0
0
SPLINE
5
E4
100
AcDbEntity
8
1
62
256
6
ByLayer
370
18
48
1
60
0
100
AcDbSpline
70
4
71
3
72
32
73
28
40
0
40
0
40
0
40
0
40
0.124999999999981
40
0.124999999999981
40
0.187499999999974
40
0.187499999999974
40
0.249999999999967
40
0.312499999999959
40
0.312499999999959
40
0.374999999999952
40
0.374999999999952
40
0.437499999999945
40
0.437499999999945
40
0.499999999999938
40
0.499999999999938
40
0.625000000000033
40
0.625000000000033
40
0.687500000000028
40
0.687500000000028
40
0.750000000000022
40
0.750000000000022
40
0.812500000000017
40
0.812500000000017
40
0.875000000000011
40
0.937500000000006
40
0.937500000000006
40
1
40
1
40
1
40
1
41
1
10
68.4673164883003
20
-4.14575826506911
30
0
41
1
10
68.459343187268
20
-4.13290221876898
30
0
41
1
10
68.4497633728917
20
-4.12128734231092
30
0
41
1
10
68.43305562647
20
-4.1056711503779
30
0
41
1
10
68.4270445922989
20
-4.10074134771028
30
0
41
1
10
68.4145173673753
20
-4.09175242482763
30
0
41
1
10
68.4014586325797
20
-4.08358916342968
30
0
41
1
10
68.3873567028932
20
-4.07704636597435
30
0
41
1
10
68.3727160204284
20
-4.07134042196182
30
0
41
1
10
68.3651896735078
20
-4.06893723393688
30
0
41
1
10
68.3500159202725
20
-4.06509703922791
30
0
41
1
10
68.3423265725978
20
-4.06364318725744
30
0
41
1
10
68.3267423820618
20
-4.06167048025094
30
0
41
1
10
68.3187919272929
20
-4.06115252745124
30
0
41
1
10
68.2950453846668
20
-4.06107295127004
30
0
41
1
10
68.2794948468589
20
-4.06292972999626
30
0
41
1
10
68.2565883891234
20
-4.06857028807468
30
0
41
1
10
68.2490256605651
20
-4.07094199656891
30
0
41
1
10
68.2344878988661
20
-4.07651674495176
30
0
41
1
10
68.2274541458229
20
-4.07973192103333
30
0
41
1
10
68.213854067267
20
-4.08701276412123
30
0
41
1
10
68.2072654187183
20
-4.09109438393796
30
0
41
1
10
68.1946732960857
20
-4.10007824958922
30
0
41
1
10
68.1828490174039
20
-4.10974336689435
30
0
41
1
10
68.1725058981418
20
-4.12072268194632
30
0
41
1
10
68.1629149691054
20
-4.13236943311753
30
0
41
1
10
68.1584858090703
20
-4.13854898347768
30
0
41
1
10
68.1545222230996
20
-4.14496854347757
30
0
0
SPLINE
5
E5
100
AcDbEntity
8
1
62
256
6
ByLayer
370
18
48
1
60
0
100
AcDbSpline
70
4
71
3
72
12
73
8
40
0
40
0
40
0
40
0
40
0.238498729644287
40
0.238498729644287
40
0.514555664991557
40
0.514555664991557
40
1
40
1
40
1
40
1
41
1
10
68.8813103232825
20
-4.81390555908297
30
0
41
1
10
68.8484114731368
20
-4.76076765202774
30
0
41
1
10
68.8155098840284
20
-4.70763369997232
30
0
41
1
10
68.7445188609199
20
-4.5930083226813
30
0
41
1
10
68.7064283921362
20
-4.53151845878566
30
0
41
1
10
68.6013432668772
20
-4.36191897739079
30
0
41
1
10
68.5343389520174
20
-4.25382440896729
30
0
41
1
10
68.4673164883003
20
-4.14575826506911
30
0
0
SPLINE
5
E6
100
AcDbEntity
8
1
62
256
6
ByLayer
370
18
48
1
60
0
100
AcDbSpline
70
4
71
3
72
8
73
4
40
0
40
0
40
0
40
0
40
1
40
1
40
1
40
1
41
1
10
68.8813103232825
20
-4.813905559083
30
0
41
1
10
68.9184465757431
20
-4.81399285416293
30
0
41
1
10
68.9555828281927
20
-4.81408012881914
30
0
41
1
10
68.9927190806316
20
-4.81416738305134
30
0
0
SPLINE
5
E7
100
AcDbEntity
8
1
62
256
6
ByLayer
370
18
48
1
60
0
100
AcDbSpline
70
4
71
3
72
12
73
8
40
0
40
0
40
0
40
0
40
0.276362744222725
40
0.276362744222725
40
0.552725485169594
40
0.552725485169594
40
1
40
1
40
1
40
1
41
1
10
69.4040937827673
20
-4.14791555693157
30
0
41
1
10
69.3662157928622
20
-4.20927948055433
30
0
41
1
10
69.3283317974783
20
-4.27064708508263
30
0
41
1
10
69.2525535348218
20
-4.39338902282006
30
0
41
1
10
69.2146592634479
20
-4.45476335834019
30
0
41
1
10
69.1154241142094
20
-4.61547572929982
30
0
41
1
10
69.0540761184781
20
-4.71481861344057
30
0
41
1
10
68.9927190806322
20
-4.81416738305114
30
0
0
SPLINE
5
E8
100
AcDbEntity
8
1
62
256
6
ByLayer
370
18
48
1
60
0
100
AcDbSpline
70
4
71
3
72
32
73
28
40
0
40
0
40
0
40
0
40
0.125000000000012
40
0.125000000000012
40
0.18749999999998
40
0.18749999999998
40
0.249999999999947
40
0.312499999999915
40
0.312499999999915
40
0.374999999999882
40
0.374999999999882
40
0.43749999999985
40
0.43749999999985
40
0.499999999999817
40
0.499999999999817
40
0.624999999999862
40
0.624999999999862
40
0.687499999999885
40
0.687499999999885
40
0.749999999999908
40
0.749999999999908
40
0.812499999999931
40
0.812499999999931
40
0.874999999999954
40
0.937499999999977
40
0.937499999999977
40
1
40
1
40
1
40
1
41
1
10
69.7168913293951
20
-4.14869108582479
30
0
41
1
10
69.7089169267646
20
-4.13583582213178
30
0
41
1
10
69.6993362890146
20
-4.12422156952383
30
0
41
1
10
69.6826276178784
20
-4.10860615506442
30
0
41
1
10
69.6766163141119
20
-4.10367656891847
30
0
41
1
10
69.6640884982656
20
-4.09468793201057
30
0
41
1
10
69.6510292426626
20
-4.08652490913613
30
0
41
1
10
69.636926908105
20
-4.07998229064739
30
0
41
1
10
69.6222858705385
20
-4.07427651049682
30
0
41
1
10
69.6147590814468
20
-4.07187330195038
30
0
41
1
10
69.5995847162857
20
-4.06803320131633
30
0
41
1
10
69.5918950990886
20
-4.06657942093915
30
0
41
1
10
69.5763104415371
20
-4.06460691111704
30
0
41
1
10
69.5683598456878
20
-4.06408907775909
30
0
41
1
10
69.5446121079787
20
-4.06400998694764
30
0
41
1
10
69.5290610873126
20
-4.06586731123909
30
0
41
1
10
69.5061543592627
20
-4.07150891580258
30
0
41
1
10
69.498591429376
20
-4.07388106977862
30
0
41
1
10
69.484053519717
20
-4.07945677311227
30
0
41
1
10
69.4770198048776
20
-4.08267245569712
30
0
41
1
10
69.4634200088913
20
-4.08995433889953
30
0
41
1
10
69.4568316454724
20
-4.09403646532442
30
0
41
1
10
69.4442400987406
20
-4.10302147294721
30
0
41
1
10
69.4324165436692
20
-4.1126876451124
30
0
41
1
10
69.4220746350137
20
-4.12366802594602
30
0
41
1
10
69.4124850004429
20
-4.13531570372882
30
0
41
1
10
69.4080565781855
20
-4.14149566305696
30
0
41
1
10
69.4040937827673
20
-4.14791555693154
30
0
0
SPLINE
5
E9
100
AcDbEntity
8
1
62
256
6
ByLayer
370
18
48
1
60
0
100
AcDbSpline
70
4
71
3
72
12
73
8
40
0
40
0
40
0
40
0
40
0.238808629453387
40
0.238808629453387
40
0.514841144690349
40
0.514841144690349
40
1
40
1
40
1
40
1
41
1
10
70.1309609547016
20
-4.81683536609447
30
0
41
1
10
70.0980135685663
20
-4.76362849170755
30
0
41
1
10
70.0650633834214
20
-4.71042561761419
30
0
41
1
10
69.9940202422758
20
-4.59573699707812
30
0
41
1
10
69.9559262409484
20
-4.53425281173412
30
0
41
1
10
69.850864620508
20
-4.36472315966506
30
0
41
1
10
69.783887186244
20
-4.25669283166644
30
0
41
1
10
69.7168913293951
20
-4.14869108582479
30
0
0
SPLINE
5
EA
100
AcDbEntity
8
1
62
256
6
ByLayer
370
18
48
1
60
0
100
AcDbSpline
70
4
71
3
72
8
73
4
40
0
40
0
40
0
40
0
40
1
40
1
40
1
40
1
41
1
10
70.1309609547016
20
-4.81683536609447
30
0
41
1
10
70.1680948916319
20
-4.81692219753859
30
0
41
1
10
70.205228828551
20
-4.81700900855756
30
0
41
1
10
70.2423627654588
20
-4.81709579915096
30
0
0
SPLINE
5
EB
100
AcDbEntity
8
1
62
256
6
ByLayer
370
18
48
1
60
0
100
AcDbSpline
70
4
71
3
72
12
73
8
40
0
40
0
40
0
40
0
40
0.276350610412104
40
0.276350610412104
40
0.552701217479881
40
0.552701217479881
40
1
40
1
40
1
40
1
41
1
10
70.6536723240609
20
-4.15081202551269
30
0
41
1
10
70.6158033611309
20
-4.21217688817273
30
0
41
1
10
70.5779279523493
20
-4.2735452073521
30
0
41
1
10
70.502166097029
20
-4.39628818528902
30
0
41
1
10
70.4642796462135
20
-4.45766284635278
30
0
41
1
10
70.3650580776027
20
-4.61838537719299
30
0
41
1
10
70.3037152990068
20
-4.71773782379387
30
0
41
1
10
70.2423627654596
20
-4.81709579915076
30
0
0
SPLINE
5
EC
100
AcDbEntity
8
1
62
256
6
ByLayer
370
18
48
1
60
0
100
AcDbSpline
70
4
71
3
72
32
73
28
40
0
40
0
40
0
40
0
40
0.124999999999999
40
0.124999999999999
40
0.187499999999999
40
0.187499999999999
40
0.249999999999999
40
0.312499999999998
40
0.312499999999998
40
0.374999999999998
40
0.374999999999998
40
0.437499999999998
40
0.437499999999998
40
0.499999999999997
40
0.499999999999997
40
0.624999999999997
40
0.624999999999997
40
0.687499999999997
40
0.687499999999997
40
0.749999999999998
40
0.749999999999998
40
0.812499999999998
40
0.812499999999998
40
0.874999999999999
40
0.937499999999999
40
0.937499999999999
40
1
40
1
40
1
40
1
41
1
10
70.9664655900762
20
-4.15158625727224
30
0
41
1
10
70.9584907778269
20
-4.13873156572447
30
0
41
1
10
70.9489101102311
20
-4.12711752411749
30
0
41
1
10
70.9322017716117
20
-4.11150203577273
30
0
41
1
10
70.9261906252824
20
-4.10657233155075
30
0
41
1
10
70.9136629871483
20
-4.09758321282345
30
0
41
1
10
70.9006039590848
20
-4.08941960946214
30
0
41
1
10
70.8865019135411
20
-4.08287627314746
30
0
41
1
10
70.8718611800014
20
-4.07716973018859
30
0
41
1
10
70.8643341138284
20
-4.07476598064417
30
0
41
1
10
70.8491595295731
20
-4.07092500983245
30
0
41
1
10
70.8414698228864
20
-4.06947083269733
30
0
41
1
10
70.8258850250544
20
-4.0674976131499
30
0
41
1
10
70.8179344624713
20
-4.06697945444918
30
0
41
1
10
70.7941855813348
20
-4.06689960742995
30
0
41
1
10
70.7786341166267
20
-4.06875680498069
30
0
41
1
10
70.7557271747616
20
-4.07439862388401
30
0
41
1
10
70.7481639880868
20
-4.07677099905047
30
0
41
1
10
70.7336258632563
20
-4.08234728261738
30
0
41
1
10
70.7265921688592
20
-4.0855633169694
30
0
41
1
10
70.7129926434882
20
-4.09284598127743
30
0
41
1
10
70.7064045745765
20
-4.09692850728541
30
0
41
1
10
70.693813622847
20
-4.10591449561747
30
0
41
1
10
70.6819909695584
20
-4.11558171793425
30
0
41
1
10
70.6716502040267
20
-4.12656297262379
30
0
41
1
10
70.66206192915
20
-4.13821151799331
30
0
41
1
10
70.6576342887716
20
-4.14439184915909
30
0
41
1
10
70.6536723240608
20
-4.15081202551269
30
0
0
SPLINE
5
ED
100
AcDbEntity
8
1
62
256
6
ByLayer
370
18
48
1
60
0
100
AcDbSpline
70
4
71
3
72
12
73
8
40
0
40
0
40
0
40
0
40
0.238352846117846
40
0.238352846117846
40
0.51435875749596
40
0.51435875749596
40
1
40
1
40
1
40
1
41
1
10
71.3805828128511
20
-4.81974968528846
30
0
41
1
10
71.3476947303875
20
-4.76664269981845
30
0
41
1
10
71.3148038156185
20
-4.7135397296648
30
0
41
1
10
71.2438193460119
20
-4.59895508196624
30
0
41
1
10
71.2057247190268
20
-4.53747499258617
30
0
41
1
10
71.1005881487134
20
-4.36783890169707
30
0
41
1
10
71.0335362206965
20
-4.25969817785287
30
0
41
1
10
70.9664655900762
20
-4.15158625727224
30
0
0
SPLINE
5
EE
100
AcDbEntity
8
1
62
256
6
ByLayer
370
18
48
1
60
0
100
AcDbSpline
70
4
71
3
72
8
73
4
40
0
40
0
40
0
40
0
40
1
40
1
40
1
40
1
41
1
10
71.3805828128511
20
-4.81974968528849
30
0
41
1
10
71.4177174714919
20
-4.81983606013597
30
0
41
1
10
71.454852130121
20
-4.81992241455322
30
0
41
1
10
71.4919867887385
20
-4.82000874853983
30
0
0
SPLINE
5
EF
100
AcDbEntity
8
1
62
256
6
ByLayer
370
18
48
1
60
0
100
AcDbSpline
70
4
71
3
72
12
73
8
40
0
40
0
40
0
40
0
40
0.276327324529713
40
0.276327324529713
40
0.55265464564238
40
0.55265464564238
40
1
40
1
40
1
40
1
41
1
10
71.9032469669501
20
-4.15366574315883
30
0
41
1
10
71.8653871177272
20
-4.21503158440333
30
0
41
1
10
71.8275203801375
20
-4.27640065702585
30
0
41
1
10
71.7517750959574
20
-4.39914475055247
30
0
41
1
10
71.7138965449184
20
-4.46051977376615
30
0
41
1
10
71.6146832256772
20
-4.62126152186838
30
0
41
1
10
71.5533402461417
20
-4.72063255069995
30
0
41
1
10
71.4919867887394
20
-4.82000874853958
30
0
0
SPLINE
5
F0
100
AcDbEntity
8
1
62
256
6
ByLayer
370
18
48
1
60
0
100
AcDbSpline
70
4
71
3
72
32
73
28
40
0
40
0
40
0
40
0
40
0.124999999999999
40
0.124999999999999
40
0.187499999999999
40
0.187499999999999
40
0.249999999999999
40
0.312499999999999
40
0.312499999999999
40
0.374999999999998
40
0.374999999999998
40
0.437499999999998
40
0.437499999999998
40
0.499999999999998
40
0.499999999999998
40
0.624999999999997
40
0.624999999999997
40
0.687499999999998
40
0.687499999999998
40
0.749999999999998
40
0.749999999999998
40
0.812499999999999
40
0.812499999999999
40
0.874999999999999
40
0.9375
40
0.9375
40
1
40
1
40
1
40
1
41
1
10
72.2160400169712
20
-4.15445378416174
30
0
41
1
10
72.208064846019
20
-4.14159932937653
30
0
41
1
10
72.1984842979053
20
-4.12998504946674
30
0
41
1
10
72.181776678416
20
-4.11436863248952
30
0
41
1
10
72.1757658386709
20
-4.109438479803
30
0
41
1
10
72.1632385928351
20
-4.10044808787285
30
0
41
1
10
72.1501799932614
20
-4.09228310833956
30
0
41
1
10
72.13607853464
20
-4.08573805816718
30
0
41
1
10
72.1214383913965
20
-4.08002974860599
30
0
41
1
10
72.1139109653103
20
-4.07762485525143
30
0
41
1
10
72.0987361379385
20
-4.07378188001891
30
0
41
1
10
72.0910463291216
20
-4.07232673966601
30
0
41
1
10
72.0754613652794
20
-4.07035167508673
30
0
41
1
10
72.0675108851596
20
-4.06983261163253
30
0
41
1
10
72.0437601311717
20
-4.06975032769157
30
0
41
1
10
72.0282077999073
20
-4.07160642399865
30
0
41
1
10
72.0053000940061
20
-4.07724713404949
30
0
41
1
10
71.9977362429591
20
-4.07961938395803
30
0
41
1
10
71.9831972012269
20
-4.08519566812583
30
0
41
1
10
71.9761632232022
20
-4.08841180837533
30
0
41
1
10
71.9625634410729
20
-4.09569482718456
30
0
41
1
10
71.9559755613241
20
-4.09977748413451
30
0
41
1
10
71.9433845055118
20
-4.1087643789605
30
0
41
1
10
71.9315621362974
20
-4.11843258600516
30
0
41
1
10
71.9212222616819
20
-4.12941485075726
30
0
41
1
10
71.9116351202708
20
-4.14106436097862
30
0
41
1
10
71.9072081693678
20
-4.14724515449578
30
0
41
1
10
71.9032469669501
20
-4.15366574315883
30
0
0
SPLINE
5
F1
100
AcDbEntity
8
1
62
256
6
ByLayer
370
18
48
1
60
0
100
AcDbSpline
70
4
71
3
72
12
73
8
40
0
40
0
40
0
40
0
40
0.23856282380836
40
0.23856282380836
40
0.514538704131538
40
0.514538704131538
40
1
40
1
40
1
40
1
41
1
10
72.6302026416968
20
-4.82264857636798
30
0
41
1
10
72.5972819880866
20
-4.76949227493571
30
0
41
1
10
72.5643584926721
20
-4.71634000511611
30
0
41
1
10
72.493341399307
20
-4.60170986812534
30
0
41
1
10
72.4552467343863
20
-4.54023358278215
30
0
41
1
10
72.3501276010923
20
-4.37063632950873
30
0
41
1
10
72.2830931510929
20
-4.26253064996573
30
0
41
1
10
72.2160400169712
20
-4.15445378416174
30
0
0
SPLINE
5
F2
100
AcDbEntity
8
1
62
256
6
ByLayer
370
18
48
1
60
0
100
AcDbSpline
70
4
71
3
72
8
73
4
40
0
40
0
40
0
40
0
40
1
40
1
40
1
40
1
41
1
10
72.6302026416968
20
-4.82264857636798
30
0
41
1
10
72.66728385789
20
-4.8227343691857
30
0
41
1
10
72.7043650740711
20
-4.82282014162737
30
0
41
1
10
72.7414462902403
20
-4.82290589369259
30
0
0
SPLINE
5
F3
100
AcDbEntity
8
1
62
256
6
ByLayer
370
18
48
1
60
0
100
AcDbSpline
70
4
71
3
72
12
73
8
40
0
40
0
40
0
40
0
40
0.276201258219832
40
0.276201258219832
40
0.552402512944199
40
0.552402512944199
40
1
40
1
40
1
40
1
41
1
10
73.1528259548342
20
-4.15626432432322
30
0
41
1
10
73.1149738063904
20
-4.21763036172521
30
0
41
1
10
73.0771143141936
20
-4.27899939937848
30
0
41
1
10
73.0013827272404
20
-4.40174302153204
30
0
41
1
10
72.9635106278549
20
-4.46311760835076
30
0
41
1
10
72.8642507295251
20
-4.62395913580502
30
0
41
1
10
72.8028541288194
20
-4.72343011114697
30
0
41
1
10
72.7414462902412
20
-4.82290589369234
30
0
0
SPLINE
5
F4
100
AcDbEntity
8
1
62
256
6
ByLayer
370
18
48
1
60
0
100
AcDbSpline
70
4
71
3
72
32
73
28
40
0
40
0
40
0
40
0
40
0.124999999999897
40
0.124999999999897
40
0.187499999999882
40
0.187499999999882
40
0.249999999999867
40
0.312499999999852
40
0.312499999999852
40
0.374999999999837
40
0.374999999999837
40
0.437499999999822
40
0.437499999999822
40
0.499999999999807
40
0.499999999999807
40
0.624999999999777
40
0.624999999999777
40
0.687499999999814
40
0.687499999999814
40
0.749999999999852
40
0.749999999999852
40
0.812499999999889
40
0.812499999999889
40
0.874999999999926
40
0.937499999999963
40
0.937499999999963
40
1
40
1
40
1
40
1
41
1
10
73.4656157132699
20
-4.1570283259141
30
0
41
1
10
73.4576395158465
20
-4.1441751495644
30
0
41
1
10
73.4480581406464
20
-4.13256208614652
30
0
41
1
10
73.4313494936438
20
-4.1169474629433
30
0
41
1
10
73.4253383411609
20
-4.11201790109527
30
0
41
1
10
73.4128105006114
20
-4.10302863434305
30
0
41
1
10
73.3997513737569
20
-4.09486475842792
30
0
41
1
10
73.385649504071
20
-4.08832079450707
30
0
41
1
10
73.3710090013831
20
-4.0826135752452
30
0
41
1
10
73.3634813324358
20
-4.08020919544114
30
0
41
1
10
73.3483061663169
20
-4.07636728260331
30
0
41
1
10
73.3406162269799
20
-4.07491267948097
30
0
41
1
10
73.3250310789311
20
-4.07293870638554
30
0
41
1
10
73.317080557405
20
-4.072420199281
30
0
41
1
10
73.2933295914655
20
-4.07233960014389
30
0
41
1
10
73.2777773551437
20
-4.07419684328414
30
0
41
1
10
73.2548701386335
20
-4.07983926729483
30
0
41
1
10
73.2473064965084
20
-4.08221209235586
30
0
41
1
10
73.2327680060213
20
-4.08778947695544
30
0
41
1
10
73.2257343669435
20
-4.09100614718457
30
0
41
1
10
73.2121353822792
20
-4.09829017435695
30
0
41
1
10
73.2055479316223
20
-4.10237333442507
30
0
41
1
10
73.1929579937259
20
-4.11136105477499
30
0
41
1
10
73.1811368246508
20
-4.12102999489116
30
0
41
1
10
73.1707982934259
20
-4.13201280096291
30
0
41
1
10
73.1612125609914
20
-4.14366274887055
30
0
41
1
10
73.1567863711488
20
-4.14984368333765
30
0
41
1
10
73.1528259548342
20
-4.15626432432322
30
0
0
SPLINE
5
F5
100
AcDbEntity
8
1
62
256
6
ByLayer
370
18
48
1
60
0
100
AcDbSpline
70
4
71
3
72
12
73
8
40
0
40
0
40
0
40
0
40
0.238679225536355
40
0.238679225536355
40
0.514499931143321
40
0.514499931143321
40
1
40
1
40
1
40
1
41
1
10
73.8800581722626
20
-4.82553258304824
30
0
41
1
10
73.8470995183922
20
-4.77232550484379
30
0
41
1
10
73.8141379529093
20
-4.71912250732498
30
0
41
1
10
73.743078612058
20
-4.60444767693372
30
0
41
1
10
73.7049797527384
20
-4.54297743105454
30
0
41
1
10
73.5998056887181
20
-4.37332755876227
30
0
41
1
10
73.5327202626468
20
-4.26516338842842
30
0
41
1
10
73.4656157132699
20
-4.1570283259141
30
0
0
SPLINE
5
F6
100
AcDbEntity
8
1
62
256
6
ByLayer
370
18
48
1
60
0
100
AcDbSpline
70
4
71
3
72
8
73
4
40
0
40
0
40
0
40
0
40
1
40
1
40
1
40
1
41
1
10
73.8800581722625
20
-4.82553258304824
30
0
41
1
10
73.9171367496717
20
-4.82561791187831
30
0
41
1
10
73.9542153270685
20
-4.82570322033038
30
0
41
1
10
73.991293904453
20
-4.82578850840403
30
0
0
SPLINE
5
F7
100
AcDbEntity
8
1
62
256
6
ByLayer
370
18
48
1
60
0
100
AcDbSpline
70
4
71
3
72
12
73
8
40
0
40
0
40
0
40
0
40
0.276313541015556
40
0.276313541015556
40
0.552627078450002
40
0.552627078450002
40
1
40
1
40
1
40
1
41
1
10
74.4024019979829
20
-4.15940378439058
30
0
41
1
10
74.3645608647308
20
-4.22077183552091
30
0
41
1
10
74.3267119328021
20
-4.28214265475214
30
0
41
1
10
74.2510006753067
20
-4.40488943709136
30
0
41
1
10
74.213138344921
20
-4.4662654025247
30
0
41
1
10
74.1139588532711
20
-4.62701977945372
30
0
41
1
10
74.0526323568392
20
-4.72640193001561
30
0
41
1
10
73.991293904453
20
-4.825788508404
30
0
0
SPLINE
5
F8
100
AcDbEntity
8
1
62
256
6
ByLayer
370
18
48
1
60
0
100
AcDbSpline
70
4
71
3
72
32
73
28
40
0
40
0
40
0
40
0
40
0.125000000000036
40
0.125000000000036
40
0.187500000000056
40
0.187500000000056
40
0.250000000000076
40
0.312500000000096
40
0.312500000000096
40
0.375000000000117
40
0.375000000000117
40
0.437500000000137
40
0.437500000000137
40
0.500000000000157
40
0.500000000000157
40
0.625000000000197
40
0.625000000000197
40
0.687500000000164
40
0.687500000000164
40
0.750000000000131
40
0.750000000000131
40
0.812500000000099
40
0.812500000000099
40
0.875000000000066
40
0.937500000000033
40
0.937500000000033
40
1
40
1
40
1
40
1
41
1
10
74.7151894676241
20
-4.16017595291393
30
0
41
1
10
74.7072131608239
20
-4.14732270030208
30
0
41
1
10
74.6976321498026
20
-4.13570901712291
30
0
41
1
10
74.6809244560885
20
-4.12009289091631
30
0
41
1
10
74.6749136666487
20
-4.11516268880848
30
0
41
1
10
74.6623863016467
20
-4.10617181365436
30
0
41
1
10
74.6493276693383
20
-4.0980062092998
30
0
41
1
10
74.6352262755588
20
-4.09146036811168
30
0
41
1
10
74.6205862121419
20
-4.08575123660285
30
0
41
1
10
74.6130581244784
20
-4.08334569233543
30
0
41
1
10
74.5978825480112
20
-4.07950180878362
30
0
41
1
10
74.5901924082349
20
-4.07804630087139
30
0
41
1
10
74.574606866126
20
-4.07607069194015
30
0
41
1
10
74.5666562712152
20
-4.07555143491967
30
0
41
1
10
74.5429032689601
20
-4.07546900024778
30
0
41
1
10
74.527350061812
20
-4.07732569237956
30
0
41
1
10
74.5044419339221
20
-4.08296807057158
30
0
41
1
10
74.4968777345748
20
-4.08534112089001
30
0
41
1
10
74.4823385316569
20
-4.09091921882157
30
0
41
1
10
74.4753047077512
20
-4.09413636620852
30
0
41
1
10
74.4617056585384
20
-4.10142152271061
30
0
41
1
10
74.4551183640398
20
-4.10550531230999
30
0
41
1
10
74.4425288533344
20
-4.11449452368157
30
0
41
1
10
74.4307084295043
20
-4.12416502617654
30
0
41
1
10
74.4203711329457
20
-4.1351494225614
30
0
41
1
10
74.4107868249573
20
-4.14680092301174
30
0
41
1
10
74.4063614917304
20
-4.15298255981656
30
0
41
1
10
74.4024019979829
20
-4.15940378439058
30
0
0
SPLINE
5
F9
100
AcDbEntity
8
1
62
256
6
ByLayer
370
18
48
1
60
0
100
AcDbSpline
70
4
71
3
72
12
73
8
40
0
40
0
40
0
40
0
40
0.0438672685739738
40
0.0438672685739738
40
0.390342443451884
40
0.390342443451884
40
1
40
1
40
1
40
1
41
1
10
75.0451339090249
20
-4.69228626262336
30
0
41
1
10
75.0403110895332
20
-4.68450287486502
30
0
41
1
10
75.0354882016223
20
-4.67671958671508
30
0
41
1
10
74.992572264082
20
-4.60746275624467
30
0
41
1
10
74.9544749556649
20
-4.54599545167417
30
0
41
1
10
74.8493281022127
20
-4.37639073638002
30
0
41
1
10
74.78226833525
20
-4.26826878987512
30
0
41
1
10
74.7151894676241
20
-4.16017595291393
30
0
0
SPLINE
5
FA
100
AcDbEntity
8
1
62
256
6
ByLayer
370
18
48
1
60
0
100
AcDbSpline
70
4
71
3
72
8
73
4
40
0
40
0
40
0
40
0
40
1
40
1
40
1
40
1
41
1
10
75.4042600789609
20
-4.56396243646259
30
0
41
1
10
75.2845542259427
20
-4.6067407612538
30
0
41
1
10
75.1648454090687
20
-4.6495152411301
30
0
41
1
10
75.0451339090248
20
-4.69228626262338
30
0
0
SPLINE
5
FB
100
AcDbEntity
8
1
62
256
6
ByLayer
370
18
48
1
60
0
100
AcDbSpline
70
4
71
3
72
12
73
8
40
0
40
0
40
0
40
0
40
0.452052542151278
40
0.452052542151278
40
0.904105078529043
40
0.904105078529043
40
1
40
1
40
1
40
1
41
1
10
75.6519715572013
20
-4.16225450132362
30
0
41
1
10
75.6146613682858
20
-4.22278036410657
30
0
41
1
10
75.5773431423867
20
-4.2833086901301
30
0
41
1
10
75.5026928456531
20
-4.40436995153021
30
0
41
1
10
75.465360770083
20
-4.46490288920629
30
0
41
1
10
75.4201020970162
20
-4.53827931141194
30
0
41
1
10
75.4121812190183
20
-4.55112082910691
30
0
41
1
10
75.4042600789609
20
-4.56396243646259
30
0
0
SPLINE
5
FC
100
AcDbEntity
8
1
62
256
6
ByLayer
370
18
48
1
60
0
100
AcDbSpline
70
4
71
3
72
32
73
28
40
0
40
0
40
0
40
0
40
0.12499999999997
40
0.12499999999997
40
0.187499999999995
40
0.187499999999995
40
0.250000000000019
40
0.312500000000044
40
0.312500000000044
40
0.375000000000068
40
0.375000000000068
40
0.437500000000092
40
0.437500000000092
40
0.500000000000117
40
0.500000000000117
40
0.625000000000166
40
0.625000000000166
40
0.687500000000138
40
0.687500000000138
40
0.75000000000011
40
0.75000000000011
40
0.812500000000083
40
0.812500000000083
40
0.875000000000055
40
0.937500000000028
40
0.937500000000028
40
1
40
1
40
1
40
1
41
1
10
75.9647656889778
20
-4.16298930743633
30
0
41
1
10
75.9567880285891
20
-4.15013669562745
30
0
41
1
10
75.9472057841735
20
-4.13852363376884
30
0
41
1
10
75.9304962305598
20
-4.12290855355025
30
0
41
1
10
75.9244848131318
20
-4.11797872037064
30
0
41
1
10
75.911956209784
20
-4.10898864210031
30
0
41
1
10
75.8988963506563
20
-4.10082389266026
30
0
41
1
10
75.8847937176249
20
-4.0942790746368
30
0
41
1
10
75.8701523887544
20
-4.08857108388506
30
0
41
1
10
75.862623670616
20
-4.08616617002448
30
0
41
1
10
75.8474469146368
20
-4.08232367723036
30
0
41
1
10
75.8397562136066
20
-4.08086892935572
30
0
41
1
10
75.8241696025623
20
-4.0788949865107
30
0
41
1
10
75.8162184687625
20
-4.07837664437571
30
0
41
1
10
75.7924642734755
20
-4.07829715137382
30
0
41
1
10
75.7769105433368
20
-4.08015601768651
30
0
41
1
10
75.7540020378693
20
-4.08580197458133
30
0
41
1
10
75.7464379620274
20
-4.08817622127941
30
0
41
1
10
75.73189915431
20
-4.09375667829926
30
0
41
1
10
75.724865597401
20
-4.09697500636321
30
0
41
1
10
75.7112672174241
20
-4.10426252166815
30
0
41
1
10
75.7046801496077
20
-4.10834762448948
30
0
41
1
10
75.6920920665711
20
-4.11733881730103
30
0
41
1
10
75.6802730329263
20
-4.12701114551837
30
0
41
1
10
75.6699373332036
20
-4.13799731411905
30
0
41
1
10
75.6603545915988
20
-4.14965043998791
30
0
41
1
10
75.6559301371595
20
-4.15583275771067
30
0
41
1
10
75.6519715572013
20
-4.16225450132362
30
0
0
SPLINE
5
FD
100
AcDbEntity
8
1
62
256
6
ByLayer
370
18
48
1
60
0
100
AcDbSpline
70
4
71
3
72
8
73
4
40
0
40
0
40
0
40
0
40
1
40
1
40
1
40
1
41
1
10
76.0666593559648
20
-4.32719231291247
30
0
41
1
10
76.0326993704642
20
-4.27245103950895
30
0
41
1
10
75.9987350001595
20
-4.21771642651086
30
0
41
1
10
75.9647656889779
20
-4.16298930743633
30
0
0
SPLINE
5
FE
100
AcDbEntity
8
1
62
256
6
ByLayer
370
18
48
1
60
0
100
AcDbSpline
70
4
71
3
72
8
73
4
40
0
40
0
40
0
40
0
40
1
40
1
40
1
40
1
41
1
10
77
20
-3.99335680778543
30
0
41
1
10
76.6889155867274
20
-4.10467631150274
30
0
41
1
10
76.3777994562996
20
-4.21595027017477
30
0
41
1
10
76.0666593559648
20
-4.3271923129125
30
0
0
SPLINE
5
FF
100
AcDbEntity
8
1
62
256
6
ByLayer
370
18
48
1
60
0
100
AcDbSpline
70
4
71
3
72
27
73
23
40
0
40
0
40
0
40
0
40
0.0790197624384724
40
0.0790197624384724
40
0.125068774316549
40
0.125068774316549
40
0.171117786194626
40
0.263215809950778
40
0.263215809950778
40
0.447411857463083
40
0.447411857463083
40
0.539509881219236
40
0.539509881219236
40
0.585558893097312
40
0.585558893097312
40
0.631607904975388
40
0.631607904975388
40
0.677656916853465
40
0.677656916853465
40
0.723705928731541
40
0.815803952487694
40
1
40
1
40
1
40
1
41
1
10
77
20
-2.17354380775498
30
0
41
1
10
77
20
-2.21038896173198
30
0
41
1
10
77
20
-2.24856439647741
30
0
41
1
10
77
20
-2.31114818416268
30
0
41
1
10
77.0000000000001
20
-2.33456807765685
30
0
41
1
10
77.0000000000001
20
-2.3820185960482
30
0
41
1
10
77
20
-2.45417290098814
30
0
41
1
10
77
20
-2.52920845399677
30
0
41
1
10
77
20
-2.68305555000822
30
0
41
1
10
77
20
-2.79064603551336
30
0
41
1
10
76.9999999999999
20
-2.95973438775212
30
0
41
1
10
77
20
-3.01737782448316
30
0
41
1
10
76.9999999999999
20
-3.10580994099246
30
0
41
1
10
77
20
-3.13560560503964
30
0
41
1
10
77
20
-3.19553112864651
30
0
41
1
10
77.0000000000001
20
-3.225701079077
30
0
41
1
10
77
20
-3.28643833289243
30
0
41
1
10
77
20
-3.31702742992979
30
0
41
1
10
77
20
-3.37848048251752
30
0
41
1
10
77
20
-3.47066874363981
30
0
41
1
10
77
20
-3.68582513600549
30
0
41
1
10
77
20
-3.87032622573116
30
0
41
1
10
77
20
-3.99335680778543
30
0
0
SPLINE
5
100
100
AcDbEntity
8
1
62
256
6
ByLayer
370
18
48
1
60
0
100
AcDbSpline
70
4
71
3
72
8
73
4
40
0
40
0
40
0
40
0
40
1
40
1
40
1
40
1
41
1
10
76.8649002639813
20
-2.15338702176601
30
0
41
1
10
76.9099336245145
20
-2.14231304099349
30
0
41
1
10
76.9549661642003
20
-2.1312391422625
30
0
41
1
10
76.9999999999996
20
-2.12019853136437
30
0
0
SPLINE
5
101
100
AcDbEntity
8
1
62
256
6
ByLayer
370
18
48
1
60
0
100
AcDbSpline
70
4
71
3
72
28
73
24
40
0
40
0
40
0
40
0
40
0.125000000000093
40
0.125000000000093
40
0.187500000000087
40
0.187500000000087
40
0.250000000000082
40
0.250000000000082
40
0.375000000000194
40
0.375000000000194
40
0.437500000000249
40
0.437500000000249
40
0.500000000000305
40
0.500000000000305
40
0.625000000000266
40
0.625000000000266
40
0.750000000000227
40
0.750000000000227
40
0.875000000000189
40
0.875000000000189
40
0.937500000000094
40
0.937500000000094
40
1
40
1
40
1
40
1
41
1
10
76.6336484073901
20
-2.20068353339525
30
0
41
1
10
76.6391685684187
20
-2.19449712176487
30
0
41
1
10
76.6455032447777
20
-2.18872910856803
30
0
41
1
10
76.656185256001
20
-2.18068260884982
30
0
41
1
10
76.6599438698785
20
-2.17810201490994
30
0
41
1
10
76.6678653174823
20
-2.17314810128895
30
0
41
1
10
76.6720519312206
20
-2.17076333112379
30
0
41
1
10
76.6850204176249
20
-2.16404655812329
30
0
41
1
10
76.6942143822224
20
-2.16013226879298
30
0
41
1
10
76.7088120455975
20
-2.15508893147157
30
0
41
1
10
76.7138132358533
20
-2.1535467082908
30
0
41
1
10
76.7240941432641
20
-2.15074799921098
30
0
41
1
10
76.7293639656218
20
-2.14949651907671
30
0
41
1
10
76.7452584070103
20
-2.14624946598408
30
0
41
1
10
76.7560735585243
20
-2.14472647949586
30
0
41
1
10
76.7781394148597
20
-2.14295678917614
30
0
41
1
10
76.7894572948198
20
-2.14272528303656
30
0
41
1
10
76.811621190623
20
-2.14357951431293
30
0
41
1
10
76.8225748636271
20
-2.14464899662698
30
0
41
1
10
76.8388108423734
20
-2.14722781828456
30
0
41
1
10
76.8442087000822
20
-2.14825648318308
30
0
41
1
10
76.854726140863
20
-2.15060280929467
30
0
41
1
10
76.859869522749
20
-2.15192305568081
30
0
41
1
10
76.8649002639812
20
-2.15338702176598
30
0
0
SPLINE
5
102
100
AcDbEntity
8
1
62
256
6
ByLayer
370
18
48
1
60
0
100
AcDbSpline
70
4
71
3
72
32
73
28
40
0
40
0
40
0
40
0
40
0.124999999999987
40
0.124999999999987
40
0.18750000000002
40
0.18750000000002
40
0.250000000000052
40
0.312500000000084
40
0.312500000000084
40
0.375000000000117
40
0.375000000000117
40
0.437500000000149
40
0.437500000000149
40
0.500000000000181
40
0.500000000000181
40
0.625000000000136
40
0.625000000000136
40
0.687500000000114
40
0.687500000000114
40
0.750000000000091
40
0.750000000000091
40
0.812500000000068
40
0.812500000000068
40
0.875000000000045
40
0.937500000000023
40
0.937500000000023
40
1
40
1
40
1
40
1
41
1
10
75.3836960612791
20
-2.20164668926122
30
0
41
1
10
75.3915364057986
20
-2.19286037428304
30
0
41
1
10
75.4010056845332
20
-2.1849107014265
30
0
41
1
10
75.4176067816035
20
-2.17421554011798
30
0
41
1
10
75.4235912007534
20
-2.17083885275056
30
0
41
1
10
75.4360740911453
20
-2.16468805306627
30
0
41
1
10
75.4491076807605
20
-2.15910318046534
30
0
41
1
10
75.4632262839812
20
-2.15463236162952
30
0
41
1
10
75.4779078099848
20
-2.15073905421167
30
0
41
1
10
75.4854375135275
20
-2.14910920021328
30
0
41
1
10
75.5006493074019
20
-2.14651004478338
30
0
41
1
10
75.5083647887965
20
-2.14553177290384
30
0
41
1
10
75.524015994605
20
-2.14422073551037
30
0
41
1
10
75.5320126403874
20
-2.14388960820932
30
0
41
1
10
75.5557993421183
20
-2.14391009942153
30
0
41
1
10
75.5713958771137
20
-2.14523176042067
30
0
41
1
10
75.5943988966593
20
-2.14917671649565
30
0
41
1
10
75.6019417651476
20
-2.15081772878375
30
0
41
1
10
75.6164751316246
20
-2.15466613792972
30
0
41
1
10
75.6235136650943
20
-2.15688134135044
30
0
41
1
10
75.6371360611458
20
-2.16189212911726
30
0
41
1
10
75.6437629952102
20
-2.1647098012281
30
0
41
1
10
75.6563134716315
20
-2.17083896214555
30
0
41
1
10
75.6681234698107
20
-2.1774300363279
30
0
41
1
10
75.6784979874034
20
-2.1849174553455
30
0
41
1
10
75.6881406009679
20
-2.19286226595037
30
0
41
1
10
75.6925900854562
20
-2.19706489299756
30
0
41
1
10
75.6965820864099
20
-2.20142602820971
30
0
0
SPLINE
5
103
100
AcDbEntity
8
1
62
256
6
ByLayer
370
18
48
1
60
0
100
AcDbSpline
70
4
71
3
72
32
73
28
40
0
40
0
40
0
40
0
40
0.125000000000093
40
0.125000000000093
40
0.18750000000014
40
0.18750000000014
40
0.250000000000187
40
0.312500000000235
40
0.312500000000235
40
0.375000000000282
40
0.375000000000282
40
0.437500000000329
40
0.437500000000329
40
0.500000000000377
40
0.500000000000377
40
0.625000000000362
40
0.625000000000362
40
0.687500000000302
40
0.687500000000302
40
0.750000000000241
40
0.750000000000241
40
0.812500000000181
40
0.812500000000181
40
0.875000000000121
40
0.93750000000006
40
0.93750000000006
40
1
40
1
40
1
40
1
41
1
10
74.1337480659425
20
-2.20256985645489
30
0
41
1
10
74.14158890867
20
-2.19378401292389
30
0
41
1
10
74.1510587769459
20
-2.18583475340995
30
0
41
1
10
74.1676608792941
20
-2.17514023544811
30
0
41
1
10
74.1736456427794
20
-2.17176378025019
30
0
41
1
10
74.18612911321
20
-2.1656135193949
30
0
41
1
10
74.1991632713338
20
-2.16002921131593
30
0
41
1
10
74.2132824182042
20
-2.15555905212454
30
0
41
1
10
74.2279644760276
20
-2.15166647725456
30
0
41
1
10
74.2354941629014
20
-2.15003708196892
30
0
41
1
10
74.2507060901427
20
-2.14743882961543
30
0
41
1
10
74.258421619547
20
-2.14646103305236
30
0
41
1
10
74.2740728846276
20
-2.14515100822032
30
0
41
1
10
74.2820695324524
20
-2.14482042942251
30
0
41
1
10
74.3058555101485
20
-2.14484259353043
30
0
41
1
10
74.32145155631
20
-2.14616538685854
30
0
41
1
10
74.3444538246123
20
-2.15011206677536
30
0
41
1
10
74.3519961084044
20
-2.1517535810674
30
0
41
1
10
74.3665286004564
20
-2.15560296552624
30
0
41
1
10
74.3735667307023
20
-2.1578186309718
30
0
41
1
10
74.3871883777092
20
-2.16283028369992
30
0
41
1
10
74.3938149912678
20
-2.16564837978322
30
0
41
1
10
74.4063645369351
20
-2.17177810942903
30
0
41
1
10
74.4181737363112
20
-2.1783696587365
30
0
41
1
10
74.4285476602029
20
-2.18585735771023
30
0
41
1
10
74.4381897599429
20
-2.19380234283472
30
0
41
1
10
74.4426389859902
20
-2.19800496580927
30
0
41
1
10
74.4466307701341
20
-2.20236603532473
30
0
0
SPLINE
5
104
100
AcDbEntity
8
1
62
256
6
ByLayer
370
18
48
1
60
0
100
AcDbSpline
70
4
71
3
72
32
73
28
40
0
40
0
40
0
40
0
40
0.124999999999945
40
0.124999999999945
40
0.187499999999918
40
0.187499999999918
40
0.249999999999891
40
0.312499999999863
40
0.312499999999863
40
0.374999999999836
40
0.374999999999836
40
0.437499999999809
40
0.437499999999809
40
0.499999999999782
40
0.499999999999782
40
0.624999999999836
40
0.624999999999836
40
0.687499999999864
40
0.687499999999864
40
0.749999999999891
40
0.749999999999891
40
0.812499999999918
40
0.812499999999918
40
0.874999999999945
40
0.937499999999973
40
0.937499999999973
40
1
40
1
40
1
40
1
41
1
10
72.883793333634
20
-2.20353765509785
30
0
41
1
10
72.8916345470284
20
-2.19475191777457
30
0
41
1
10
72.9011048617164
20
-2.18680264118052
30
0
41
1
10
72.9177077445725
20
-2.17610803068803
30
0
41
1
10
72.923692782745
20
-2.17273153882499
30
0
41
1
10
72.9361767700067
20
-2.16658123281712
30
0
41
1
10
72.9492114048911
20
-2.16099683180596
30
0
41
1
10
72.9633311597656
20
-2.1565267453424
30
0
41
1
10
72.9780137896984
20
-2.15263424512509
30
0
41
1
10
72.9855436419367
20
-2.15100494237538
30
0
41
1
10
73.000755984111
20
-2.14840690786798
30
0
41
1
10
73.0084717177394
20
-2.14742924999336
30
0
41
1
10
73.024123385055
20
-2.14611957468233
30
0
41
1
10
73.032120228325
20
-2.1457892119511
30
0
41
1
10
73.0559064555648
20
-2.14581210788955
30
0
41
1
10
73.0715026649299
20
-2.14713549066181
30
0
41
1
10
73.0945051723742
20
-2.15108316832851
30
0
41
1
10
73.1020473725116
20
-2.15272499618325
30
0
41
1
10
73.1165798367282
20
-2.15657501324893
30
0
41
1
10
73.1236179681323
20
-2.15879099244196
30
0
41
1
10
73.1372396435006
20
-2.16380325202871
30
0
41
1
10
73.1438662976016
20
-2.16662165201905
30
0
41
1
10
73.156415773699
20
-2.1727518455744
30
0
41
1
10
73.1682249262084
20
-2.17934382842421
30
0
41
1
10
73.1785989586325
20
-2.18683179086159
30
0
41
1
10
73.1882411585192
20
-2.19477698506327
30
0
41
1
10
73.1926904294052
20
-2.19897965697746
30
0
41
1
10
73.1966822659784
20
-2.2033407287403
30
0
0
SPLINE
5
105
100
AcDbEntity
8
1
62
256
6
ByLayer
370
18
48
1
60
0
100
AcDbSpline
70
4
71
3
72
32
73
28
40
0
40
0
40
0
40
0
40
0.125000000000041
40
0.125000000000041
40
0.187500000000061
40
0.187500000000061
40
0.250000000000081
40
0.312500000000101
40
0.312500000000101
40
0.375000000000121
40
0.375000000000121
40
0.437500000000141
40
0.437500000000141
40
0.500000000000161
40
0.500000000000161
40
0.6250000000002
40
0.6250000000002
40
0.687500000000167
40
0.687500000000167
40
0.750000000000134
40
0.750000000000134
40
0.8125000000001
40
0.8125000000001
40
0.875000000000067
40
0.937500000000033
40
0.937500000000033
40
1
40
1
40
1
40
1
41
1
10
71.6338453593225
20
-2.20449094636518
30
0
41
1
10
71.6416866805943
20
-2.19570565028951
30
0
41
1
10
71.6511569477764
20
-2.18775656908801
30
0
41
1
10
71.6677593993895
20
-2.17706193595993
30
0
41
1
10
71.6737442465857
20
-2.17368536963917
30
0
41
1
10
71.686227878915
20
-2.1675347587113
30
0
41
1
10
71.6992620782474
20
-2.16194995614018
30
0
41
1
10
71.7133812233812
20
-2.157479306662
30
0
41
1
10
71.7280631436513
20
-2.1535861710187
30
0
41
1
10
71.7355929114976
20
-2.15195644791297
30
0
41
1
10
71.7508048207648
20
-2.14935761829202
30
0
41
1
10
71.7585203182362
20
-2.14837955186519
30
0
41
1
10
71.7741714709878
20
-2.14706904051741
30
0
41
1
10
71.7821680391681
20
-2.14673823840621
30
0
41
1
10
71.8059542829205
20
-2.14675985860117
30
0
41
1
10
71.8215504230919
20
-2.14808248073103
30
0
41
1
10
71.8445527227643
20
-2.1520290278369
30
0
41
1
10
71.8520953261855
20
-2.15367058646507
30
0
41
1
10
71.8666281974644
20
-2.15752005949153
30
0
41
1
10
71.8736664892919
20
-2.15973578223623
30
0
41
1
10
71.8872884136775
20
-2.16474752198013
30
0
41
1
10
71.8939151024828
20
-2.16756562050622
30
0
41
1
10
71.9064652458857
20
-2.17369553646935
30
0
41
1
10
71.9182749394192
20
-2.18028721068956
30
0
41
1
10
71.9286491857975
20
-2.18777480997883
30
0
41
1
10
71.9382915297688
20
-2.1957195337057
30
0
41
1
10
71.9427409387682
20
-2.19992203416368
30
0
41
1
10
71.9467328458529
20
-2.20428289939858
30
0
0
SPLINE
5
106
100
AcDbEntity
8
1
62
256
6
ByLayer
370
18
48
1
60
0
100
AcDbSpline
70
4
71
3
72
32
73
28
40
0
40
0
40
0
40
0
40
0.124999999999892
40
0.124999999999892
40
0.187499999999878
40
0.187499999999878
40
0.249999999999863
40
0.312499999999849
40
0.312499999999849
40
0.374999999999834
40
0.374999999999834
40
0.437499999999819
40
0.437499999999819
40
0.499999999999805
40
0.499999999999805
40
0.624999999999775
40
0.624999999999775
40
0.687499999999813
40
0.687499999999813
40
0.74999999999985
40
0.74999999999985
40
0.812499999999888
40
0.812499999999888
40
0.874999999999925
40
0.937499999999963
40
0.937499999999963
40
1
40
1
40
1
40
1
41
1
10
70.3838916738283
20
-2.20537560213259
30
0
41
1
10
70.391733552097
20
-2.19659103842918
30
0
41
1
10
70.4012044356483
20
-2.18864261190339
30
0
41
1
10
70.4178077730161
20
-2.17794889187638
30
0
41
1
10
70.423792902688
20
-2.17457262690374
30
0
41
1
10
70.4362770057969
20
-2.16842260999837
30
0
41
1
10
70.4493116797548
20
-2.16283842645356
30
0
41
1
10
70.4634310790254
20
-2.15836825559339
30
0
41
1
10
70.4781132341456
20
-2.15447564308337
30
0
41
1
10
70.48564296183
20
-2.1528461994738
30
0
41
1
10
70.5008548493105
20
-2.15024786579986
30
0
41
1
10
70.5085703126322
20
-2.14927003206182
30
0
41
1
10
70.5242213485928
20
-2.1479599608785
30
0
41
1
10
70.5322178231219
20
-2.14762936957229
30
0
41
1
10
70.5560035713689
20
-2.1476515531443
30
0
41
1
10
70.5715993939293
20
-2.14897446217364
30
0
41
1
10
70.5946012331554
20
-2.15292128177086
30
0
41
1
10
70.60214368257
20
-2.15456290063747
30
0
41
1
10
70.6166763085508
20
-2.15841243523269
30
0
41
1
10
70.6237144993955
20
-2.16062815854249
30
0
41
1
10
70.6373362590122
20
-2.16563982749281
30
0
41
1
10
70.64396286968
20
-2.16845784456578
30
0
41
1
10
70.6565130503519
20
-2.17458759932501
30
0
41
1
10
70.6683228025182
20
-2.18117904073995
30
0
41
1
10
70.6786971274352
20
-2.18866623990934
30
0
41
1
10
70.6883395475749
20
-2.19661046603576
30
0
41
1
10
70.6927890534796
20
-2.20081272235237
30
0
41
1
10
70.6967810338217
20
-2.20517330239349
30
0
0
SPLINE
5
107
100
AcDbEntity
8
1
62
256
6
ByLayer
370
18
48
1
60
0
100
AcDbSpline
70
4
71
3
72
32
73
28
40
0
40
0
40
0
40
0
40
0.125000000000068
40
0.125000000000068
40
0.187500000000063
40
0.187500000000063
40
0.250000000000058
40
0.312500000000053
40
0.312500000000053
40
0.375000000000048
40
0.375000000000048
40
0.437500000000043
40
0.437500000000043
40
0.500000000000038
40
0.500000000000038
40
0.625000000000029
40
0.625000000000029
40
0.687500000000024
40
0.687500000000024
40
0.750000000000019
40
0.750000000000019
40
0.812500000000014
40
0.812500000000014
40
0.87500000000001
40
0.937500000000005
40
0.937500000000005
40
1
40
1
40
1
40
1
41
1
10
69.1339453721965
20
-2.20633212457344
30
0
41
1
10
69.1417877042401
20
-2.19754809717006
30
0
41
1
10
69.1512591265658
20
-2.18960009317323
30
0
41
1
10
69.1678634960622
20
-2.17890699985665
30
0
41
1
10
69.1738489958128
20
-2.17553095682854
30
0
41
1
10
69.1863337635488
20
-2.1693814631567
30
0
41
1
10
69.1993691323968
20
-2.16379782846326
30
0
41
1
10
69.2134893044761
20
-2.15932831799006
30
0
41
1
10
69.2281722850479
20
-2.15543645638005
30
0
41
1
10
69.2357021412682
20
-2.15380749727885
30
0
41
1
10
69.2509144902101
20
-2.15121014104517
30
0
41
1
10
69.2586301790475
20
-2.15023283290719
30
0
41
1
10
69.2742816583962
20
-2.14892390583299
30
0
41
1
10
69.2822783474317
20
-2.14859394664509
30
0
41
1
10
69.3060638507642
20
-2.14861809653957
30
0
41
1
10
69.3216594872097
20
-2.14994238048592
30
0
41
1
10
69.3446610030147
20
-2.15389136962059
30
0
41
1
10
69.3522028547081
20
-2.15553362059734
30
0
41
1
10
69.3667346552186
20
-2.15938440549491
30
0
41
1
10
69.3737724612405
20
-2.16160073085808
30
0
41
1
10
69.3873934963538
20
-2.16661355230141
30
0
41
1
10
69.3940198174403
20
-2.1694321583748
30
0
41
1
10
69.4065688187664
20
-2.17556265417767
30
0
41
1
10
69.418377551885
20
-2.18215473382426
30
0
41
1
10
69.4287511090776
20
-2.18964236736627
30
0
41
1
10
69.438392861444
20
-2.19758692157228
30
0
41
1
10
69.4428419720992
20
-2.20178918729337
30
0
41
1
10
69.4468336239537
20
-2.20614970374149
30
0
0
SPLINE
5
108
100
AcDbEntity
8
1
62
256
6
ByLayer
370
18
48
1
60
0
100
AcDbSpline
70
4
71
3
72
32
73
28
40
0
40
0
40
0
40
0
40
0.125000000000016
40
0.125000000000016
40
0.187499999999983
40
0.187499999999983
40
0.249999999999951
40
0.312499999999919
40
0.312499999999919
40
0.374999999999886
40
0.374999999999886
40
0.437499999999854
40
0.437499999999854
40
0.499999999999821
40
0.499999999999821
40
0.624999999999866
40
0.624999999999866
40
0.687499999999888
40
0.687499999999888
40
0.749999999999911
40
0.749999999999911
40
0.812499999999933
40
0.812499999999933
40
0.874999999999955
40
0.937499999999978
40
0.937499999999978
40
1
40
1
40
1
40
1
41
1
10
67.8839932593177
20
-2.20725745660798
30
0
41
1
10
67.8918357353984
20
-2.19847423986545
30
0
41
1
10
67.9013071061646
20
-2.19052678719825
30
0
41
1
10
67.9179108495788
20
-2.17983411426283
30
0
41
1
10
67.9238960673038
20
-2.17645812381829
30
0
41
1
10
67.93638030213
20
-2.17030849319721
30
0
41
1
10
67.9494149561514
20
-2.16472451654803
30
0
41
1
10
67.9635342235334
20
-2.160254473615
30
0
41
1
10
67.9782160719054
20
-2.15636186836201
30
0
41
1
10
67.9857457581487
20
-2.15473235572591
30
0
41
1
10
68.0009573780705
20
-2.15213388367664
30
0
41
1
10
68.0086726723064
20
-2.1511559641956
30
0
41
1
10
68.0243232964629
20
-2.1498457008085
30
0
41
1
10
68.0323195252987
20
-2.14951499688763
30
0
41
1
10
68.0561050098494
20
-2.14953684433499
30
0
41
1
10
68.0717005613571
20
-2.15085955980922
30
0
41
1
10
68.0947018637328
20
-2.15480599359736
30
0
41
1
10
68.1022444590984
20
-2.15644753942834
30
0
41
1
10
68.1167771114142
20
-2.16029686808204
30
0
41
1
10
68.123815287972
20
-2.16251247159829
30
0
41
1
10
68.1374369727691
20
-2.16752381924678
30
0
41
1
10
68.1440634757214
20
-2.17034160222454
30
0
41
1
10
68.1566139524585
20
-2.17647106050688
30
0
41
1
10
68.1684238926288
20
-2.18306210609555
30
0
41
1
10
68.1787982258456
20
-2.19054861648547
30
0
41
1
10
68.1884405728705
20
-2.19849195883774
30
0
41
1
10
68.1928901160724
20
-2.20269377774966
30
0
41
1
10
68.1968820727272
20
-2.20705382997326
30
0
0
SPLINE
5
109
100
AcDbEntity
8
1
62
256
6
ByLayer
370
18
48
1
60
0
100
AcDbSpline
70
4
71
3
72
32
73
28
40
0
40
0
40
0
40
0
40
0.124999999999906
40
0.124999999999906
40
0.187499999999859
40
0.187499999999859
40
0.249999999999812
40
0.312499999999765
40
0.312499999999765
40
0.374999999999718
40
0.374999999999718
40
0.437499999999671
40
0.437499999999671
40
0.499999999999624
40
0.499999999999624
40
0.62499999999964
40
0.62499999999964
40
0.6874999999997
40
0.6874999999997
40
0.74999999999976
40
0.74999999999976
40
0.81249999999982
40
0.81249999999982
40
0.87499999999988
40
0.93749999999994
40
0.93749999999994
40
1
40
1
40
1
40
1
41
1
10
66.6340403034854
20
-2.20820715957274
30
0
41
1
10
66.6418832536792
20
-2.19942452735126
30
0
41
1
10
66.6513552022514
20
-2.19147754082167
30
0
41
1
10
66.6679600214402
20
-2.18078552899706
30
0
41
1
10
66.673945623555
20
-2.17740976472885
30
0
41
1
10
66.6864305661969
20
-2.17126063865456
30
0
41
1
10
66.6994659556583
20
-2.1656771745653
30
0
41
1
10
66.7135860230806
20
-2.16120771100935
30
0
41
1
10
66.7282687118876
20
-2.15731574589526
30
0
41
1
10
66.7357985806561
20
-2.15568663614144
30
0
41
1
10
66.751010738833
20
-2.15308895910539
30
0
41
1
10
66.7587262985546
20
-2.15211145933162
30
0
41
1
10
66.7743774479231
20
-2.15080209441643
30
0
41
1
10
66.7823739328657
20
-2.15047187991544
30
0
41
1
10
66.8061594796851
20
-2.15049522620905
30
0
41
1
10
66.8217550690097
20
-2.15181896042657
30
0
41
1
10
66.8447564149571
20
-2.15576695270741
30
0
41
1
10
66.852298657236
20
-2.15740894039479
30
0
41
1
10
66.866830894525
20
-2.16125912714423
30
0
41
1
10
66.8738688897116
20
-2.16347513438018
30
0
41
1
10
66.8874902544169
20
-2.16848723301405
30
0
41
1
10
66.8941166550143
20
-2.17130539014241
30
0
41
1
10
66.9066665093532
20
-2.17743526748816
30
0
41
1
10
66.9184759467522
20
-2.18402664019246
30
0
41
1
10
66.9288499577312
20
-2.19151329150802
30
0
41
1
10
66.9384920493526
20
-2.1994566762649
30
0
41
1
10
66.9429414276136
20
-2.20365840262193
30
0
41
1
10
66.9469332568126
20
-2.20801830014562
30
0
0
SPLINE
5
10A
100
AcDbEntity
8
1
62
256
6
ByLayer
370
18
48
1
60
0
100
AcDbSpline
70
4
71
3
72
32
73
28
40
0
40
0
40
0
40
0
40
0.125000000000054
40
0.125000000000054
40
0.187500000000081
40
0.187500000000081
40
0.250000000000109
40
0.312500000000136
40
0.312500000000136
40
0.375000000000163
40
0.375000000000163
40
0.43750000000019
40
0.43750000000019
40
0.500000000000217
40
0.500000000000217
40
0.625000000000162
40
0.625000000000162
40
0.687500000000135
40
0.687500000000135
40
0.750000000000108
40
0.750000000000108
40
0.812500000000081
40
0.812500000000081
40
0.875000000000054
40
0.937500000000027
40
0.937500000000027
40
1
40
1
40
1
40
1
41
1
10
65.3840949335998
20
-2.20911554157976
30
0
41
1
10
65.391938131112
20
-2.20033406364465
30
0
41
1
10
65.4014101557616
20
-2.19238799886691
30
0
41
1
10
65.4180146200267
20
-2.18169702232981
30
0
41
1
10
65.4240000371154
20
-2.17832153344011
30
0
41
1
10
65.436484595377
20
-2.17217275757451
30
0
41
1
10
65.4495195289112
20
-2.16658956022454
30
0
41
1
10
65.4636387622409
20
-2.16211999581475
30
0
41
1
10
65.4783205078488
20
-2.15822784676234
30
0
41
1
10
65.4858501557709
20
-2.15659850446505
30
0
41
1
10
65.5010615848748
20
-2.15400032012772
30
0
41
1
10
65.5087767461361
20
-2.15302251342456
30
0
41
1
10
65.5244270265019
20
-2.15171242557227
30
0
41
1
10
65.5324230382743
20
-2.15138178169218
30
0
41
1
10
65.5562081040051
20
-2.15140374177727
30
0
41
1
10
65.5718032970527
20
-2.15272646535075
30
0
41
1
10
65.5948039499882
20
-2.15667270151181
30
0
41
1
10
65.6023465471925
20
-2.1583141935819
30
0
41
1
10
65.616879035819
20
-2.16216332202453
30
0
41
1
10
65.623917115363
20
-2.16437878774994
30
0
41
1
10
65.6375385796954
20
-2.16938974430934
30
0
41
1
10
65.6441649207064
20
-2.17220724699436
30
0
41
1
10
65.6567154893718
20
-2.17833622842238
30
0
41
1
10
65.6685254498227
20
-2.18492666950672
30
0
41
1
10
65.6788996784223
20
-2.19241224045999
30
0
41
1
10
65.6885418605432
20
-2.20035443236549
30
0
41
1
10
65.692991390712
20
-2.20455565886488
30
0
41
1
10
65.6969832847506
20
-2.20891502218828
30
0
0
SPLINE
5
10B
100
AcDbEntity
8
1
62
256
6
ByLayer
370
18
48
1
60
0
100
AcDbSpline
70
4
71
3
72
32
73
28
40
0
40
0
40
0
40
0
40
0.125000000000107
40
0.125000000000107
40
0.187500000000122
40
0.187500000000122
40
0.250000000000137
40
0.312500000000151
40
0.312500000000151
40
0.375000000000166
40
0.375000000000166
40
0.437500000000181
40
0.437500000000181
40
0.500000000000196
40
0.500000000000196
40
0.625000000000226
40
0.625000000000226
40
0.687500000000189
40
0.687500000000189
40
0.750000000000151
40
0.750000000000151
40
0.812500000000113
40
0.812500000000113
40
0.875000000000076
40
0.937500000000038
40
0.937500000000038
40
1
40
1
40
1
40
1
41
1
10
64.1341416384477
20
-2.2101297669582
30
0
41
1
10
64.1419850246686
20
-2.20134935690035
30
0
41
1
10
64.1514570001026
20
-2.19340407550831
30
0
41
1
10
64.16806069033
20
-2.18271378317161
30
0
41
1
10
64.1740457562818
20
-2.17933841526198
30
0
41
1
10
64.1865296577872
20
-2.17318956651826
30
0
41
1
10
64.1995637686017
20
-2.16760609993335
30
0
41
1
10
64.2136817997015
20
-2.16313586497228
30
0
41
1
10
64.2283621127832
20
-2.15924282141035
30
0
41
1
10
64.2358915626413
20
-2.1576127845467
30
0
41
1
10
64.2511020939818
20
-2.15501316997737
30
0
41
1
10
64.2588167689327
20
-2.15403456406031
30
0
41
1
10
64.2744659930553
20
-2.15272269341492
30
0
41
1
10
64.2824614301454
20
-2.15239103948465
30
0
41
1
10
64.3062465979135
20
-2.15240981915207
30
0
41
1
10
64.3218417896025
20
-2.15373030140268
30
0
41
1
10
64.3448423681076
20
-2.15767279866768
30
0
41
1
10
64.3523860371619
20
-2.15931322289416
30
0
41
1
10
64.3669198512219
20
-2.16316013839091
30
0
41
1
10
64.3739585294057
20
-2.16537449605286
30
0
41
1
10
64.3875810872485
20
-2.17038318536817
30
0
41
1
10
64.3942077830277
20
-2.17319942697188
30
0
41
1
10
64.406760622319
20
-2.17932673604614
30
0
41
1
10
64.4185725012051
20
-2.18591551864748
30
0
41
1
10
64.4289480774405
20
-2.19339934964796
30
0
41
1
10
64.4385913628033
20
-2.20133971219528
30
0
41
1
10
64.4430416383007
20
-2.20554026372599
30
0
41
1
10
64.4470340982002
20
-2.20989895385139
30
0
0
SPLINE
5
10C
100
AcDbEntity
8
1
62
256
6
ByLayer
370
18
48
1
60
0
100
AcDbSpline
70
4
71
3
72
32
73
28
40
0
40
0
40
0
40
0
40
0.124999999999962
40
0.124999999999962
40
0.187499999999942
40
0.187499999999942
40
0.249999999999922
40
0.312499999999903
40
0.312499999999903
40
0.374999999999883
40
0.374999999999883
40
0.437499999999863
40
0.437499999999863
40
0.499999999999843
40
0.499999999999843
40
0.624999999999804
40
0.624999999999804
40
0.687499999999836
40
0.687499999999836
40
0.749999999999869
40
0.749999999999869
40
0.812499999999902
40
0.812499999999902
40
0.874999999999935
40
0.937499999999967
40
0.937499999999967
40
1
40
1
40
1
40
1
41
1
10
62.884194454195
20
-2.2110378527899
30
0
41
1
10
62.8920383026634
20
-2.20225828753738
30
0
41
1
10
62.9015109072336
20
-2.19431374288982
30
0
41
1
10
62.9181160188282
20
-2.18362461917252
30
0
41
1
10
62.9241016180424
20
-2.18024967639741
30
0
41
1
10
62.9365864856592
20
-2.17410183065599
30
0
41
1
10
62.9496216501902
20
-2.16851942305974
30
0
41
1
10
62.9637409465274
20
-2.16405043521379
30
0
41
1
10
62.9784226600643
20
-2.16015878030467
30
0
41
1
10
62.9859523232491
20
-2.1585296225056
30
0
41
1
10
63.0011636706454
20
-2.15593175305168
30
0
41
1
10
63.0088787593864
20
-2.15495407087613
30
0
41
1
10
63.0245288289539
20
-2.15364417817546
30
0
41
1
10
63.0325246984166
20
-2.15331360244286
30
0
41
1
10
63.0563095509229
20
-2.15333569213971
30
0
41
1
10
63.0719045202553
20
-2.15465842388053
30
0
41
1
10
63.0949047243855
20
-2.15860443902804
30
0
41
1
10
63.1024473514913
20
-2.16024585764998
30
0
41
1
10
63.1169797543766
20
-2.1640947381982
30
0
41
1
10
63.1240177756437
20
-2.16631003659532
30
0
41
1
10
63.1376390971083
20
-2.17132053224589
30
0
41
1
10
63.1442653217789
20
-2.17413771839807
30
0
41
1
10
63.1568159919247
20
-2.18026609777223
30
0
41
1
10
63.1686259939106
20
-2.18685579849753
30
0
41
1
10
63.1790001579919
20
-2.19434027800929
30
0
41
1
10
63.1886422225298
20
-2.20228116141789
30
0
41
1
10
63.1930917483216
20
-2.20648169667851
30
0
41
1
10
63.1970835940369
20
-2.21084026874931
30
0
0
SPLINE
5
10D
100
AcDbEntity
8
1
62
256
6
ByLayer
370
18
48
1
60
0
100
AcDbSpline
70
4
71
3
72
32
73
28
40
0
40
0
40
0
40
0
40
0.125000000000039
40
0.125000000000039
40
0.187500000000059
40
0.187500000000059
40
0.250000000000079
40
0.312500000000098
40
0.312500000000098
40
0.375000000000118
40
0.375000000000118
40
0.437500000000138
40
0.437500000000138
40
0.500000000000158
40
0.500000000000158
40
0.625000000000197
40
0.625000000000197
40
0.687500000000165
40
0.687500000000165
40
0.750000000000132
40
0.750000000000132
40
0.812500000000099
40
0.812500000000099
40
0.875000000000066
40
0.937500000000033
40
0.937500000000033
40
1
40
1
40
1
40
1
41
1
10
61.6342369973837
20
-2.21182314067272
30
0
41
1
10
61.6420815906237
20
-2.20304555338694
30
0
41
1
10
61.6515547422465
20
-2.19510285253273
30
0
41
1
10
61.6681596377207
20
-2.18441601701861
30
0
41
1
10
61.6741450135485
20
-2.1810417360775
30
0
41
1
10
61.6866293604577
20
-2.17489481142886
30
0
41
1
10
61.6996636495753
20
-2.16931300623418
30
0
41
1
10
61.7137814533014
20
-2.16484411350695
30
0
41
1
10
61.7284611792283
20
-2.1609521284729
30
0
41
1
10
61.735990339383
20
-2.1593224594792
30
0
41
1
10
61.7512000880171
20
-2.15672332631124
30
0
41
1
10
61.7589142979714
20
-2.15574482802367
30
0
41
1
10
61.774562436258
20
-2.15443289995366
30
0
41
1
10
61.7825572268636
20
-2.15410107022049
30
0
41
1
10
61.8063412106189
20
-2.15411892709633
30
0
41
1
10
61.8219355901509
20
-2.15543832896114
30
0
41
1
10
61.8449349243741
20
-2.1593783990877
30
0
41
1
10
61.8524788976804
20
-2.16101803100813
30
0
41
1
10
61.8670128959623
20
-2.16486313988756
30
0
41
1
10
61.8740516613062
20
-2.16707650487777
30
0
41
1
10
61.8876743874943
20
-2.17208299277865
30
0
41
1
10
61.8943010379932
20
-2.17489793434933
30
0
41
1
10
61.9068551977697
20
-2.18102319327474
30
0
41
1
10
61.9186681991358
20
-2.18760977983345
30
0
41
1
10
61.9290445581805
20
-2.19509103027571
30
0
41
1
10
61.9386884684515
20
-2.20302857034321
30
0
41
1
10
61.9431392938627
20
-2.2072278725999
30
0
41
1
10
61.947132158152
20
-2.21158525125813
30
0
0
SPLINE
5
10E
100
AcDbEntity
8
1
62
256
6
ByLayer
370
18
48
1
60
0
100
AcDbSpline
70
4
71
3
72
18
73
14
40
0
40
0
40
0
40
0
40
0.0113671604613637
40
0.0113671604613637
40
0.081275924038914
40
0.151184687616464
40
0.291002214771565
40
0.430819741926665
40
0.570637269081766
40
0.710454796236866
40
0.850272323391967
40
0.990089850547067
40
1
40
1
40
1
40
1
41
1
10
53.5704337623047
20
-3.3023638379417
30
0
41
1
10
53.5704337592272
20
-3.28535765841917
30
0
41
1
10
53.5704337562177
20
-3.26871838599371
30
0
41
1
10
53.5704337354134
20
-3.15363223602029
30
0
41
1
10
53.5704337087047
20
-2.96465438348585
30
0
41
1
10
53.5704336898998
20
-2.58979306251305
30
0
41
1
10
53.5704337420062
20
-2.14229865705869
30
0
41
1
10
53.5704339497796
20
-1.70089174748512
30
0
41
1
10
53.5704343038676
20
-1.41451954874171
30
0
41
1
10
53.570434776123
20
-1.3194695133202
30
0
41
1
10
53.5704353154849
20
-1.41485097866314
30
0
41
1
10
53.5704356959199
20
-1.5890552096312
30
0
41
1
10
53.5704358852107
20
-1.69857664247178
30
0
41
1
10
53.5704358977088
20
-1.7059102113823
30
0
0
SPLINE
5
10F
100
AcDbEntity
8
1
62
256
6
ByLayer
370
18
48
1
60
0
100
AcDbSpline
70
4
71
3
72
8
73
4
40
0
40
0
40
0
40
0
40
1
40
1
40
1
40
1
41
1
10
56.5359814996787
20
-3.3097210099761
30
0
41
1
10
55.5474655968748
20
-3.30729081168377
30
0
41
1
10
54.5589496837601
20
-3.30483841685617
30
0
41
1
10
53.5704337623047
20
-3.30236383794107
30
0
0
SPLINE
5
110
100
AcDbEntity
8
1
62
256
6
ByLayer
370
18
48
1
60
0
100
AcDbSpline
70
4
71
3
72
12
73
8
40
0
40
0
40
0
40
0
40
0.499999999999998
40
0.499999999999998
40
0.749999999999999
40
0.749999999999999
40
1
40
1
40
1
40
1
41
1
10
56.6359814996787
20
-3.33495341501862
30
0
41
1
10
56.6207585323521
20
-3.32672003739796
30
0
41
1
10
56.6047317427609
20
-3.32050484179899
30
0
41
1
10
56.5795212014281
20
-3.31412025531179
30
0
41
1
10
56.5708715956691
20
-3.31248507124417
30
0
41
1
10
56.5535067641266
20
-3.31030206492963
30
0
41
1
10
56.5447710637777
20
-3.30974261852552
30
0
41
1
10
56.5359814996787
20
-3.3097210099873
30
0
0
SPLINE
5
111
100
AcDbEntity
8
1
62
256
6
ByLayer
370
18
48
1
60
0
100
AcDbSpline
70
4
71
3
72
8
73
4
40
0
40
0
40
0
40
0
40
1
40
1
40
1
40
1
41
1
10
57
20
-3.53185471315777
30
0
41
1
10
56.8786596523702
20
-3.46621356742398
30
0
41
1
10
56.7573200904959
20
-3.40057967675355
30
0
41
1
10
56.6359814996786
20
-3.33495341501865
30
0
0
SPLINE
5
112
100
AcDbEntity
8
1
62
256
6
ByLayer
370
18
48
1
60
0
100
AcDbSpline
70
4
71
3
72
8
73
4
40
0
40
0
40
0
40
0
40
1
40
1
40
1
40
1
41
1
10
61.8738691503292
20
-4.18284100061919
30
0
41
1
10
60.2492457391768
20
-3.96581940041114
30
0
41
1
10
58.6246226814318
20
-3.74881521310334
30
0
41
1
10
57
20
-3.53185471315763
30
0
0
SPLINE
5
113
100
AcDbEntity
8
1
62
256
6
ByLayer
370
18
48
1
60
0
100
AcDbSpline
70
4
71
3
72
8
73
4
40
0
40
0
40
0
40
0
40
1
40
1
40
1
40
1
41
1
10
61.9066367421024
20
-4.12983435607481
30
0
41
1
10
61.8957145012229
20
-4.14750283231717
30
0
41
1
10
61.8847919659719
20
-4.16517171753492
30
0
41
1
10
61.8738691503293
20
-4.18284100061919
30
0
0
SPLINE
5
114
100
AcDbEntity
8
1
62
256
6
ByLayer
370
18
48
1
60
0
100
AcDbSpline
70
4
71
3
72
32
73
28
40
0
40
0
40
0
40
0
40
0.125000000000055
40
0.125000000000055
40
0.187500000000082
40
0.187500000000082
40
0.25000000000011
40
0.312500000000137
40
0.312500000000137
40
0.375000000000164
40
0.375000000000164
40
0.437500000000192
40
0.437500000000192
40
0.500000000000219
40
0.500000000000219
40
0.625000000000164
40
0.625000000000164
40
0.687500000000137
40
0.687500000000137
40
0.750000000000109
40
0.750000000000109
40
0.812500000000082
40
0.812500000000082
40
0.875000000000055
40
0.937500000000027
40
0.937500000000027
40
1
40
1
40
1
40
1
41
1
10
62.2194353819942
20
-4.13059138881343
30
0
41
1
10
62.2114644331539
20
-4.11773317045549
30
0
41
1
10
62.2018848767265
20
-4.1061180857933
30
0
41
1
10
62.1851751781764
20
-4.09050389330824
30
0
41
1
10
62.1791632059046
20
-4.08557532252405
30
0
41
1
10
62.1666349466434
20
-4.07659040526022
30
0
41
1
10
62.1535748201534
20
-4.06843182082272
30
0
41
1
10
62.139471075094
20
-4.06189458732828
30
0
41
1
10
62.1248283652375
20
-4.05619465491202
30
0
41
1
10
62.1173036891245
20
-4.05379554286532
30
0
41
1
10
62.1021311986475
20
-4.0499623307623
30
0
41
1
10
62.0944423707526
20
-4.04851181184131
30
0
41
1
10
62.078858999906
20
-4.04654543584255
30
0
41
1
10
62.0709083014195
20
-4.04603057224429
30
0
41
1
10
62.0471693588619
20
-4.04595913712814
30
0
41
1
10
62.0316221622447
20
-4.04781925457041
30
0
41
1
10
62.0087182785456
20
-4.05346266939438
30
0
41
1
10
62.0011580184577
20
-4.0558343473605
30
0
41
1
10
61.9866233738126
20
-4.06140810085606
30
0
41
1
10
61.9795904270367
20
-4.06462237808745
30
0
41
1
10
61.9659906161066
20
-4.07190089977107
30
0
41
1
10
61.9594008204177
20
-4.07598153500834
30
0
41
1
10
61.946808050888
20
-4.08496104919965
30
0
41
1
10
61.9349814369903
20
-4.09462152889085
30
0
41
1
10
61.9246335525876
20
-4.10559638816915
30
0
41
1
10
61.9150367616463
20
-4.11723889778864
30
0
41
1
10
61.9106041239997
20
-4.12341647959965
30
0
41
1
10
61.9066367421024
20
-4.12983435607481
30
0
0
SPLINE
5
115
100
AcDbEntity
8
1
62
256
6
ByLayer
370
18
48
1
60
0
100
AcDbSpline
70
4
71
3
72
8
73
4
40
0
40
0
40
0
40
0
40
1
40
1
40
1
40
1
41
1
10
62.2859379461544
20
-4.23788662385229
30
0
41
1
10
62.2637721855302
20
-4.2021186705534
30
0
41
1
10
62.2416047125098
20
-4.16635351680199
30
0
41
1
10
62.2194353819942
20
-4.13059138881343
30
0
0
SPLINE
5
116
100
AcDbEntity
8
1
62
256
6
ByLayer
370
18
48
1
60
0
100
AcDbSpline
70
4
71
3
72
8
73
4
40
0
40
0
40
0
40
0
40
1
40
1
40
1
40
1
41
1
10
63.0301546887696
20
-4.33730333642768
30
0
41
1
10
62.782082432877
20
-4.3041641409466
30
0
41
1
10
62.5340101853358
20
-4.27102520549286
30
0
41
1
10
62.2859379461544
20
-4.23788662385229
30
0
0
SPLINE
5
117
100
AcDbEntity
8
1
62
256
6
ByLayer
370
18
48
1
60
0
100
AcDbSpline
70
4
71
3
72
10
73
6
40
0
40
0
40
0
40
0
40
0.902502573421549
40
0.902502573421549
40
1
40
1
40
1
40
1
41
1
10
63.1562189303194
20
-4.13331809928792
30
0
41
1
10
63.1182986056842
20
-4.1946787695581
30
0
41
1
10
63.0803743507312
20
-4.25604417826878
30
0
41
1
10
63.0383494454279
20
-4.32404364158083
30
0
41
1
10
63.0342520862461
20
-4.33067346433899
30
0
41
1
10
63.0301546887698
20
-4.33730333642754
30
0
0
SPLINE
5
118
100
AcDbEntity
8
1
62
256
6
ByLayer
370
18
48
1
60
0
100
AcDbSpline
70
4
71
3
72
32
73
28
40
0
40
0
40
0
40
0
40
0.124999999999961
40
0.124999999999961
40
0.187499999999941
40
0.187499999999941
40
0.249999999999921
40
0.312499999999901
40
0.312499999999901
40
0.374999999999881
40
0.374999999999881
40
0.437499999999861
40
0.437499999999861
40
0.499999999999841
40
0.499999999999841
40
0.624999999999802
40
0.624999999999802
40
0.687499999999835
40
0.687499999999835
40
0.749999999999868
40
0.749999999999868
40
0.812499999999901
40
0.812499999999901
40
0.874999999999934
40
0.937499999999967
40
0.937499999999967
40
1
40
1
40
1
40
1
41
1
10
63.469015779539
20
-4.13405435451909
30
0
41
1
10
63.4610440921547
20
-4.12119673923891
30
0
41
1
10
63.4514640469818
20
-4.10958204780087
30
0
41
1
10
63.4347537731268
20
-4.09396829846759
30
0
41
1
10
63.4287416243378
20
-4.08903983749696
30
0
41
1
10
63.4162129511402
20
-4.08005505620182
30
0
41
1
10
63.4031524316312
20
-4.07189658982034
30
0
41
1
10
63.3890482954075
20
-4.06535950003484
30
0
41
1
10
63.3744051744491
20
-4.05965975700022
30
0
41
1
10
63.3668800900198
20
-4.05726070079064
30
0
41
1
10
63.3517069778808
20
-4.0534277799556
30
0
41
1
10
63.344017859509
20
-4.05197746388771
30
0
41
1
10
63.3284339451693
20
-4.05001162358144
30
0
41
1
10
63.3204830088466
20
-4.0494970921105
30
0
41
1
10
63.2967430479206
20
-4.049426885912
30
0
41
1
10
63.2811954606506
20
-4.05128814025889
30
0
41
1
10
63.2582914130045
20
-4.05693367353081
30
0
41
1
10
63.2507311708996
20
-4.05930613082839
30
0
41
1
10
63.2361967789921
20
-4.06488149650912
30
0
41
1
10
63.2291640549626
20
-4.06809661416034
30
0
41
1
10
63.2155648681282
20
-4.07537686119872
30
0
41
1
10
63.2089753763084
20
-4.07945845828701
30
0
41
1
10
63.1963838575441
20
-4.08843955406974
30
0
41
1
10
63.1845586074363
20
-4.09810156911772
30
0
41
1
10
63.1742122683255
20
-4.10907784205727
30
0
41
1
10
63.1646170947992
20
-4.12072168573988
30
0
41
1
10
63.1601853676322
20
-4.12689981952812
30
0
41
1
10
63.1562189303194
20
-4.13331809928792
30
0
0
SPLINE
5
119
100
AcDbEntity
8
1
62
256
6
ByLayer
370
18
48
1
60
0
100
AcDbSpline
70
4
71
3
72
8
73
4
40
0
40
0
40
0
40
0
40
1
40
1
40
1
40
1
41
1
10
63.6459596111451
20
-4.41956726542693
30
0
41
1
10
63.5869896148849
20
-4.32437771561658
30
0
41
1
10
63.5280091594816
20
-4.22920537422343
30
0
41
1
10
63.469015779539
20
-4.13405435451909
30
0
0
SPLINE
5
11A
100
AcDbEntity
8
1
62
256
6
ByLayer
370
18
48
1
60
0
100
AcDbSpline
70
4
71
3
72
8
73
4
40
0
40
0
40
0
40
0
40
1
40
1
40
1
40
1
41
1
10
64.1859093303166
20
-4.49169850008718
30
0
41
1
10
64.0059260862018
20
-4.46765468306856
30
0
41
1
10
63.825942846477
20
-4.44361092623899
30
0
41
1
10
63.6459596111451
20
-4.41956726542693
30
0
0
SPLINE
5
11B
100
AcDbEntity
8
1
62
256
6
ByLayer
370
18
48
1
60
0
100
AcDbSpline
70
4
71
3
72
10
73
6
40
0
40
0
40
0
40
0
40
0.517398851442437
40
0.517398851442437
40
1
40
1
40
1
40
1
41
1
10
64.4057918911079
20
-4.13587262742629
30
0
41
1
10
64.3678771280012
20
-4.19723236326087
30
0
41
1
10
64.3299580395433
20
-4.25859663744964
30
0
41
1
10
64.2566630131593
20
-4.3772060674595
30
0
41
1
10
64.2212875489526
20
-4.434450690771
30
0
41
1
10
64.1859093303166
20
-4.49169850008718
30
0
0
SPLINE
5
11C
100
AcDbEntity
8
1
62
256
6
ByLayer
370
18
48
1
60
0
100
AcDbSpline
70
4
71
3
72
32
73
28
40
0
40
0
40
0
40
0
40
0.124999999999902
40
0.124999999999902
40
0.187499999999856
40
0.187499999999856
40
0.249999999999809
40
0.312499999999762
40
0.312499999999762
40
0.374999999999716
40
0.374999999999716
40
0.437499999999669
40
0.437499999999669
40
0.499999999999622
40
0.499999999999622
40
0.624999999999638
40
0.624999999999638
40
0.687499999999699
40
0.687499999999699
40
0.749999999999759
40
0.749999999999759
40
0.812499999999819
40
0.812499999999819
40
0.874999999999879
40
0.93749999999994
40
0.93749999999994
40
1
40
1
40
1
40
1
41
1
10
64.7185920676104
20
-4.13662337899964
30
0
41
1
10
64.7106194316725
20
-4.12376673672642
30
0
41
1
10
64.7010388583466
20
-4.11215275467643
30
0
41
1
10
64.6843284699624
20
-4.09653963453133
30
0
41
1
10
64.6783163748556
20
-4.09161127594774
30
0
41
1
10
64.6657876973476
20
-4.08262632310991
30
0
41
1
10
64.6527273192085
20
-4.07446751623562
30
0
41
1
10
64.6386236136974
20
-4.06792974891695
30
0
41
1
10
64.6239810785405
20
-4.06222914544475
30
0
41
1
10
64.6164557387827
20
-4.05982936618037
30
0
41
1
10
64.6012826069399
20
-4.05599510402863
30
0
41
1
10
64.5935935269272
20
-4.05454408021927
30
0
41
1
10
64.5780097887446
20
-4.05257673750188
30
0
41
1
10
64.57005913681
20
-4.05206138703338
30
0
41
1
10
64.5463179247683
20
-4.05198871438637
30
0
41
1
10
64.5307698395628
20
-4.05384847822612
30
0
41
1
10
64.5078655156536
20
-4.0594917867665
30
0
41
1
10
64.5003046091211
20
-4.06186369876809
30
0
41
1
10
64.4857692697865
20
-4.06743812650444
30
0
41
1
10
64.4787362245866
20
-4.07065282567703
30
0
41
1
10
64.465136667376
20
-4.07793227905716
30
0
41
1
10
64.4585474503708
20
-4.08201326085165
30
0
41
1
10
64.4459551810961
20
-4.09099426434696
30
0
41
1
10
64.4341296134639
20
-4.10065623824588
30
0
41
1
10
64.4237836566812
20
-4.11163244825221
30
0
41
1
10
64.4141891586099
20
-4.1232761626375
30
0
41
1
10
64.4097578414584
20
-4.12945429203648
30
0
41
1
10
64.4057918911078
20
-4.13587262742629
30
0
0
SPLINE
5
11D
100
AcDbEntity
8
1
62
256
6
ByLayer
370
18
48
1
60
0
100
AcDbSpline
70
4
71
3
72
10
73
6
40
0
40
0
40
0
40
0
40
0.302997220386999
40
0.302997220386999
40
1
40
1
40
1
40
1
41
1
10
65.0065733738197
20
-4.60133063775646
30
0
41
1
10
64.9774962272119
20
-4.55438182098965
30
0
41
1
10
64.9484167299387
20
-4.50743667060655
30
0
41
1
10
64.8524353461718
20
-4.35251439933668
30
0
41
1
10
64.7855223872097
20
-4.24455495683927
30
0
41
1
10
64.7185920676104
20
-4.13662337899964
30
0
0
SPLINE
5
11E
100
AcDbEntity
8
1
62
256
6
ByLayer
370
18
48
1
60
0
100
AcDbSpline
70
4
71
3
72
8
73
4
40
0
40
0
40
0
40
0
40
1
40
1
40
1
40
1
41
1
10
65.3421498228775
20
-4.64616020689149
30
0
41
1
10
65.2302910048313
20
-4.63121702070089
30
0
41
1
10
65.1184321884786
20
-4.61627382812202
30
0
41
1
10
65.0065733738197
20
-4.60133063775649
30
0
0
SPLINE
5
11F
100
AcDbEntity
8
1
62
256
6
ByLayer
370
18
48
1
60
0
100
AcDbSpline
70
4
71
3
72
12
73
8
40
0
40
0
40
0
40
0
40
0.363149987931054
40
0.363149987931054
40
0.726299971784385
40
0.726299971784385
40
1
40
1
40
1
40
1
41
1
10
65.6553698459049
20
-4.13915851679732
30
0
41
1
10
65.6174659133239
20
-4.20052020781242
30
0
41
1
10
65.5795572420725
20
-4.261886225311
30
0
41
1
10
65.5037318329185
20
-4.38462610923375
30
0
41
1
10
65.4658150913959
20
-4.44599997800182
30
0
41
1
10
65.3993150981401
20
-4.55363638009544
30
0
41
1
10
65.3707333315984
20
-4.59989741524313
30
0
41
1
10
65.3421498228775
20
-4.64616020689149
30
0
0
SPLINE
5
120
100
AcDbEntity
8
1
62
256
6
ByLayer
370
18
48
1
60
0
100
AcDbSpline
70
4
71
3
72
32
73
28
40
0
40
0
40
0
40
0
40
0.125000000000053
40
0.125000000000053
40
0.187500000000041
40
0.187500000000041
40
0.250000000000028
40
0.312500000000016
40
0.312500000000016
40
0.375000000000003
40
0.375000000000003
40
0.437499999999991
40
0.437499999999991
40
0.499999999999979
40
0.499999999999979
40
0.625000000000063
40
0.625000000000063
40
0.687500000000053
40
0.687500000000053
40
0.750000000000042
40
0.750000000000042
40
0.812500000000032
40
0.812500000000032
40
0.875000000000021
40
0.937500000000011
40
0.937500000000011
40
1
40
1
40
1
40
1
41
1
10
65.9681665346749
20
-4.13995176399169
30
0
41
1
10
65.9601945428348
20
-4.12709437132122
30
0
41
1
10
65.9506153129959
20
-4.11547874746924
30
0
41
1
10
65.9339076287269
20
-4.09986212137679
30
0
41
1
10
65.9278965123343
20
-4.09493234196452
30
0
41
1
10
65.915369350921
20
-4.08594395138698
30
0
41
1
10
65.902310511136
20
-4.07778146455257
30
0
41
1
10
65.888208320355
20
-4.0712396464138
30
0
41
1
10
65.8735672575289
20
-4.0655348474416
30
0
41
1
10
65.8660415418897
20
-4.06313256630654
30
0
41
1
10
65.8508683596636
20
-4.05929382825553
30
0
41
1
10
65.8431792414073
20
-4.05784065718018
30
0
41
1
10
65.8275953987556
20
-4.05586920996709
30
0
41
1
10
65.8196448886463
20
-4.05535186173745
30
0
41
1
10
65.7959007163693
20
-4.05527377114095
30
0
41
1
10
65.7803511191598
20
-4.05713092320167
30
0
41
1
10
65.7574451615909
20
-4.06277142933686
30
0
41
1
10
65.7498830574871
20
-4.06514282981149
30
0
41
1
10
65.735345941388
20
-4.07071671320762
30
0
41
1
10
65.7283122542091
20
-4.07393135078053
30
0
41
1
10
65.7147118444503
20
-4.08121099311512
30
0
41
1
10
65.7081226238283
20
-4.08529207497236
30
0
41
1
10
65.6955297527192
20
-4.09427422427117
30
0
41
1
10
65.6837041290507
20
-4.10393754908341
30
0
41
1
10
65.6733589517728
20
-4.11491531264764
30
0
41
1
10
65.6637655525014
20
-4.12656059030488
30
0
41
1
10
65.6593349667176
20
-4.13273948580027
30
0
41
1
10
65.6553698459049
20
-4.13915851679732
30
0
0
SPLINE
5
121
100
AcDbEntity
8
1
62
256
6
ByLayer
370
18
48
1
60
0
100
AcDbSpline
70
4
71
3
72
12
73
8
40
0
40
0
40
0
40
0
40
0.20890833036572
40
0.20890833036572
40
0.495777200632152
40
0.495777200632152
40
1
40
1
40
1
40
1
41
1
10
66.3665271981202
20
-4.78300604581435
30
0
41
1
10
66.3387975361776
20
-4.73820967529036
30
0
41
1
10
66.3110659740937
20
-4.69341613509195
30
0
41
1
10
66.2452490263821
20
-4.58712060748661
30
0
41
1
10
66.2071617994156
20
-4.52562146525989
30
0
41
1
10
66.102117220341
20
-4.35604628702157
30
0
41
1
10
66.0351505981906
20
-4.24798504156593
30
0
41
1
10
65.9681665346749
20
-4.13995176399169
30
0
0
SPLINE
5
122
100
AcDbEntity
8
1
62
256
6
ByLayer
370
18
48
1
60
0
100
AcDbSpline
70
4
71
3
72
17
73
13
40
0
40
0
40
0
40
0
40
0.249999999999993
40
0.249999999999993
40
0.374999999999994
40
0.374999999999994
40
0.499999999999996
40
0.499999999999996
40
0.624999999999997
40
0.624999999999997
40
0.749999999999998
40
1
40
1
40
1
40
1
41
1
10
57
20
-1.83150142367694
30
0
41
1
10
57.3852267267978
20
-1.86064414158244
30
0
41
1
10
57.7704382580156
20
-1.89092735094889
30
0
41
1
10
58.34823504489
20
-1.93807208815426
30
0
41
1
10
58.5408316650913
20
-1.95407753328027
30
0
41
1
10
58.9260085294496
20
-1.98674222599914
30
0
41
1
10
59.1185889236166
20
-2.00342193126454
30
0
41
1
10
59.5037402573789
20
-2.03723117788891
30
0
41
1
10
59.6963122627415
20
-2.05431746735746
30
0
41
1
10
60.0814582218719
20
-2.08847481973399
30
0
41
1
10
60.6591780951628
20
-2.13976777590148
30
0
41
1
10
61.2369019941173
20
-2.1911730611846
30
0
41
1
10
61.6220537034094
20
-2.22545541472525
30
0
0
SPLINE
5
123
100
AcDbEntity
8
1
62
256
6
ByLayer
370
18
48
1
60
0
100
AcDbSpline
70
4
71
3
72
22
73
18
40
0
40
0
40
0
40
0
40
0.125
40
0.250000000000001
40
0.375000000000001
40
0.375000000000001
40
0.437500000000001
40
0.437500000000001
40
0.500000000000002
40
0.500000000000002
40
0.625000000000001
40
0.625000000000001
40
0.750000000000001
40
0.750000000000001
40
0.875
40
0.875
40
1
40
1
40
1
40
1
41
1
10
61.6220537034094
20
-2.22545541472525
30
0
41
1
10
61.6165386606776
20
-2.1108193669607
30
0
41
1
10
61.6055889551392
20
-1.87681936407276
30
0
41
1
10
61.5890139503249
20
-1.51193015936951
30
0
41
1
10
61.5779062303235
20
-1.25938597362952
30
0
41
1
10
61.5695279939891
20
-1.06639856849395
30
0
41
1
10
61.5667211561498
20
-1.00134682601134
30
0
41
1
10
61.5611379890762
20
-0.87130379803861
30
0
41
1
10
61.5583565377935
20
-0.806184725521319
30
0
41
1
10
61.5500336755754
20
-0.610540002390337
30
0
41
1
10
61.5445152777218
20
-0.479727372143799
30
0
41
1
10
61.5334542913822
20
-0.217350688915474
30
0
41
1
10
61.5278999129475
20
-0.0857870238347118
30
0
41
1
10
61.5167013130554
20
0.178096652994924
30
0
41
1
10
61.5110683902191
20
0.310470392289005
30
0
41
1
10
61.4997653915691
20
0.575785530482449
30
0
41
1
10
61.494150399701
20
0.707436756035207
30
0
41
1
10
61.4885524454633
20
0.838083804112927
30
0
0
SPLINE
5
124
100
AcDbEntity
8
1
62
256
6
ByLayer
370
18
48
1
60
0
100
AcDbSpline
70
4
71
3
72
8
73
4
40
0
40
0
40
0
40
0
40
1
40
1
40
1
40
1
41
1
10
61.6220537034094
20
-2.22545541472525
30
0
41
1
10
61.6261150774926
20
-2.22091105840278
30
0
41
1
10
61.6301761731472
20
-2.21636693766749
30
0
41
1
10
61.6342369973838
20
-2.21182314067272
30
0
0
SPLINE
5
125
100
AcDbEntity
8
1
62
256
6
ByLayer
370
13
48
1
60
0
100
AcDbSpline
70
4
71
3
72
11
73
7
40
0
40
0
40
0
40
0
40
0.310448278757531
40
0.592913690847828
40
0.875379102938124
40
1
40
1
40
1
40
1
41
1
10
61.4901197120001
20
0.837676872979216
30
0
41
1
10
61.5050334307234
20
0.516483456678174
30
0
41
1
10
61.5335165982954
20
-0.1103977717448
30
0
41
1
10
61.5755690842007
20
-1.02968616941357
30
0
41
1
10
61.6086943034905
20
-1.71902001870586
30
0
41
1
10
61.6282503254938
20
-2.09861464551662
30
0
41
1
10
61.6342369973838
20
-2.21182314067272
30
0
0
SPLINE
5
126
100
AcDbEntity
8
1
62
256
6
ByLayer
370
18
48
1
60
0
100
AcDbSpline
70
4
71
3
72
8
73
4
40
0
40
0
40
0
40
0
40
1
40
1
40
1
40
1
41
1
10
76.6226402361045
20
-2.2130218100728
30
0
41
1
10
76.6263098061738
20
-2.20890838478042
30
0
41
1
10
76.6299791939703
20
-2.20479559905022
30
0
41
1
10
76.6336484073901
20
-2.20068353339528
30
0
0
SPLINE
5
127
100
AcDbEntity
8
1
62
256
6
ByLayer
370
13
48
1
60
0
100
AcDbSpline
70
4
71
3
72
13
73
9
40
0
40
0
40
0
40
0
40
0.0562084593233817
40
0.266533564412144
40
0.476858669500906
40
0.687183774589668
40
0.89750887967843
40
1
40
1
40
1
40
1
41
1
10
76.6336484073901
20
-2.20068353339525
30
0
41
1
10
76.6308638129941
20
-2.14791021701529
30
0
41
1
10
76.6176595950735
20
-1.89460186212185
30
0
41
1
10
76.5940355399495
20
-1.41730824165251
30
0
41
1
10
76.562776476472
20
-0.750700118137701
30
0
41
1
10
76.5315175297041
20
-0.0658667260622963
30
0
41
1
10
76.5056007090448
20
0.503549261487933
30
0
41
1
10
76.4901036043134
20
0.838372723266218
30
0
41
1
10
76.4850261344536
20
0.94714552855902
30
0
0
SPLINE
5
128
100
AcDbEntity
8
1
62
256
6
ByLayer
370
13
48
1
60
0
100
AcDbSpline
70
4
71
3
72
11
73
7
40
0
40
0
40
0
40
0
40
0.306725163128489
40
0.58899186733663
40
0.871258571544772
40
1
40
1
40
1
40
1
41
1
10
61.8029132213424
20
0.839966525456191
30
0
41
1
10
61.8176584118976
20
0.522421750077797
30
0
41
1
10
61.845973001737
20
-0.100588700821874
30
0
41
1
10
61.8878569983443
20
-1.01648866700575
30
0
41
1
10
61.9211847853434
20
-1.71068216003573
30
0
41
1
10
61.9409431732386
20
-2.09454395855494
30
0
41
1
10
61.947132158152
20
-2.21158525125813
30
0
0
SPLINE
5
129
100
AcDbEntity
8
1
62
256
6
ByLayer
370
18
48
1
60
0
100
AcDbSpline
70
4
71
3
72
8
73
4
40
0
40
0
40
0
40
0
40
1
40
1
40
1
40
1
41
1
10
61.947132158152
20
-2.21158525125813
30
0
41
1
10
61.961364793823
20
-2.22711720487052
30
0
41
1
10
61.9755968407731
20
-2.24265451800923
30
0
41
1
10
61.9898284529118
20
-2.25819384949079
30
0
0
SPLINE
5
12A
100
AcDbEntity
8
1
62
256
6
ByLayer
370
18
48
1
60
0
100
AcDbSpline
70
4
71
3
72
8
73
4
40
0
40
0
40
0
40
0
40
1
40
1
40
1
40
1
41
1
10
62.779244140782
20
-2.32846368675899
30
0
41
1
10
62.8142497155458
20
-2.28932717706283
30
0
41
1
10
62.8492322546138
20
-2.25017080058115
30
0
41
1
10
62.884194454195
20
-2.2110378527899
30
0
0
SPLINE
5
12B
100
AcDbEntity
8
1
62
256
6
ByLayer
370
13
48
1
60
0
100
AcDbSpline
70
4
71
3
72
12
73
8
40
0
40
0
40
0
40
0
40
0.113553680697077
40
0.395280405927143
40
0.677007131157208
40
0.958733856387274
40
1
40
1
40
1
40
1
41
1
10
62.7396994326981
20
0.846872129353955
30
0
41
1
10
62.7451687674228
20
0.729133928639186
30
0
41
1
10
62.7642074811599
20
0.315932680107835
30
0
41
1
10
62.7968152057271
20
-0.403521432213012
30
0
41
1
10
62.8375234587491
20
-1.28450272159697
30
0
41
1
10
62.8666499329347
20
-1.87643615300107
30
0
41
1
10
62.8822068729742
20
-2.17342428609459
30
0
41
1
10
62.884194454195
20
-2.2110378527899
30
0
0
SPLINE
5
12C
100
AcDbEntity
8
1
62
256
6
ByLayer
370
18
48
1
60
0
100
AcDbSpline
70
4
71
3
72
27
73
23
40
0
40
0
40
0
40
0
40
0.125
40
0.25
40
0.25
40
0.374999999999999
40
0.374999999999999
40
0.406249999999999
40
0.406249999999999
40
0.437499999999999
40
0.437499999999999
40
0.499999999999999
40
0.499999999999999
40
0.624999999999999
40
0.624999999999999
40
0.749999999999999
40
0.874999999999999
40
0.874999999999999
40
0.906249999999999
40
0.906249999999999
40
0.937499999999999
40
1
40
1
40
1
40
1
41
1
10
61.8324786015372
20
0.848032464842078
30
0
41
1
10
61.8391003058991
20
0.715992382927851
30
0
41
1
10
61.8521871519268
20
0.451168907370771
30
0
41
1
10
61.8651029985708
20
0.18490461745057
30
0
41
1
10
61.8780639195043
20
-0.0820718466467554
30
0
41
1
10
61.8845832452994
20
-0.215915171704438
30
0
41
1
10
61.8928130945942
20
-0.383671930633824
30
0
41
1
10
61.8944624380704
20
-0.417245996152189
30
0
41
1
10
61.8977677624176
20
-0.484440013704471
30
0
41
1
10
61.8994258553407
20
-0.518102743616055
30
0
41
1
10
61.9043894014282
20
-0.618736507365696
30
0
41
1
10
61.9076861145648
20
-0.685396785879647
30
0
41
1
10
61.917545625477
20
-0.88411486061139
30
0
41
1
10
61.9240783691092
20
-1.01491245974688
30
0
41
1
10
61.9371255307133
20
-1.27320710511316
30
0
41
1
10
61.9501434493563
20
-1.52820110666124
30
0
41
1
10
61.9632400829074
20
-1.77655394133933
30
0
41
1
10
61.9715330968916
20
-1.92963433748756
30
0
41
1
10
61.973197810521
20
-1.96015965992697
30
0
41
1
10
61.9765250909812
20
-2.02078510774433
30
0
41
1
10
61.981516645897
20
-2.11115597291939
30
0
41
1
10
61.986505630019
20
-2.19983061846594
30
0
41
1
10
61.9898284529066
20
-2.25819384948616
30
0
0
SPLINE
5
12D
100
AcDbEntity
8
1
62
256
6
ByLayer
370
18
48
1
60
0
100
AcDbSpline
70
4
71
3
72
8
73
4
40
0
40
0
40
0
40
0
40
1
40
1
40
1
40
1
41
1
10
61.9898284529232
20
-2.25819384948662
30
0
41
1
10
62.2529657758221
20
-2.28161895590176
30
0
41
1
10
62.5161043319373
20
-2.3050438020675
30
0
41
1
10
62.779244140782
20
-2.32846368675899
30
0
0
SPLINE
5
12E
100
AcDbEntity
8
1
62
256
6
ByLayer
370
18
48
1
60
0
100
AcDbSpline
70
4
71
3
72
26
73
22
40
0
40
0
40
0
40
0
40
0.125
40
0.125
40
0.25
40
0.25
40
0.374999999999999
40
0.374999999999999
40
0.437499999999999
40
0.437499999999999
40
0.499999999999999
40
0.499999999999999
40
0.625
40
0.625
40
0.75
40
0.75
40
0.8125
40
0.8125
40
0.875
40
0.875
40
1
40
1
40
1
40
1
41
1
10
62.779244140782
20
-2.32846368675899
30
0
41
1
10
62.7736245350262
20
-2.20894320265577
30
0
41
1
10
62.7680342722032
20
-2.08692195534144
30
0
41
1
10
62.756881313471
20
-1.83799025205062
30
0
41
1
10
62.751322583514
20
-1.71107965610972
30
0
41
1
10
62.7401857597453
20
-1.45235804334823
30
0
41
1
10
62.7346021762359
20
-1.32054723918424
30
0
41
1
10
62.7261518700501
20
-1.11905455113964
30
0
41
1
10
62.7233182920282
20
-1.05110579842753
30
0
41
1
10
62.7176812539842
20
-0.915213285468866
30
0
41
1
10
62.7148732339701
20
-0.847162660501454
30
0
41
1
10
62.7064720177829
20
-0.642703287929351
30
0
41
1
10
62.7009023586577
20
-0.505987647792324
30
0
41
1
10
62.6897469352387
20
-0.231752613049139
30
0
41
1
10
62.6841674533563
20
-0.0942330135177087
30
0
41
1
10
62.6757812012962
20
0.112654733039875
30
0
41
1
10
62.6729824732026
20
0.181718847117054
30
0
41
1
10
62.6673700798781
20
0.320052765339767
30
0
41
1
10
62.6645550436032
20
0.389356464919388
30
0
41
1
10
62.6560773081597
20
0.59737041188626
30
0
41
1
10
62.6504266819987
20
0.734983320551891
30
0
41
1
10
62.644771345483
20
0.871536544886311
30
0
0
SPLINE
5
12F
100
AcDbEntity
8
1
62
256
6
ByLayer
370
13
48
1
60
0
100
AcDbSpline
70
4
71
3
72
12
73
8
40
0
40
0
40
0
40
0
40
0.110029189330877
40
0.391554526304582
40
0.673079863278286
40
0.95460520025199
40
1
40
1
40
1
40
1
41
1
10
63.0524848742303
20
0.849164387924276
30
0
41
1
10
63.0577882338171
20
0.735004907148209
30
0
41
1
10
63.0766609929298
20
0.325543587106495
30
0
41
1
10
63.1091031489339
20
-0.389985210607165
30
0
41
1
10
63.1498113566648
20
-1.27153790147025
30
0
41
1
10
63.179138169749
20
-1.86836718494507
30
0
41
1
10
63.1948955836392
20
-2.16943585694295
30
0
41
1
10
63.1970835940369
20
-2.21084026874931
30
0
0
SPLINE
5
130
100
AcDbEntity
8
1
62
256
6
ByLayer
370
18
48
1
60
0
100
AcDbSpline
70
4
71
3
72
10
73
6
40
0
40
0
40
0
40
0
40
0.739938753422502
40
0.739938753422502
40
1
40
1
40
1
40
1
41
1
10
63.1970835940369
20
-2.21084026874931
30
0
41
1
10
63.235134473957
20
-2.2523868400136
30
0
41
1
10
63.2731812881744
20
-2.2939704776017
30
0
41
1
10
63.3245977530084
20
-2.35015395941616
30
0
41
1
10
63.3379689106782
20
-2.36476496646466
30
0
41
1
10
63.3513397980113
20
-2.37937609063334
30
0
0
SPLINE
5
131
100
AcDbEntity
8
1
62
256
6
ByLayer
370
13
48
1
60
0
100
AcDbSpline
70
4
71
3
72
13
73
9
40
0
40
0
40
0
40
0
40
0.063091512783087
40
0.273818634649251
40
0.484545756515415
40
0.69527287838158
40
0.906000000247744
40
1
40
1
40
1
40
1
41
1
10
75.6965820864099
20
-2.20142602820971
30
0
41
1
10
75.6934624508697
20
-2.14231542062552
30
0
41
1
10
75.679923159471
20
-1.88224075919928
30
0
41
1
10
75.6559641998654
20
-1.39696797955887
30
0
41
1
10
75.6247052140767
20
-0.729752541203709
30
0
41
1
10
75.5934462554419
20
-0.0443688249325191
30
0
41
1
10
75.5679589831445
20
0.515401401690127
30
0
41
1
10
75.5528913778666
20
0.840742137451656
30
0
41
1
10
75.5482434331484
20
0.940327370146804
30
0
0
SPLINE
5
132
100
AcDbEntity
8
1
62
256
6
ByLayer
370
18
48
1
60
0
100
AcDbSpline
70
4
71
3
72
8
73
4
40
0
40
0
40
0
40
0
40
1
40
1
40
1
40
1
41
1
10
75.6965820864099
20
-2.20142602820971
30
0
41
1
10
75.7562269966983
20
-2.26658621266353
30
0
41
1
10
75.8158586809532
20
-2.33192399025614
30
0
41
1
10
75.8754875807445
20
-2.39722116519508
30
0
0
SPLINE
5
133
100
AcDbEntity
8
1
62
256
6
ByLayer
370
18
48
1
60
0
100
AcDbSpline
70
4
71
3
72
29
73
25
40
0
40
0
40
0
40
0
40
0.125000000000001
40
0.125000000000001
40
0.250000000000002
40
0.250000000000002
40
0.375000000000002
40
0.375000000000002
40
0.406250000000002
40
0.406250000000002
40
0.437500000000002
40
0.437500000000002
40
0.500000000000002
40
0.500000000000002
40
0.625000000000001
40
0.625000000000001
40
0.750000000000001
40
0.750000000000001
40
0.812500000000001
40
0.84375
40
0.84375
40
0.875
40
0.875
40
1
40
1
40
1
40
1
41
1
10
75.7262040224236
20
0.988412712529879
30
0
41
1
10
75.7335092656533
20
0.844533466471376
30
0
41
1
10
75.7406456514182
20
0.700166216743554
30
0
41
1
10
75.7546537118807
20
0.41048977750873
30
0
41
1
10
75.7615214154238
20
0.265180391872576
30
0
41
1
10
75.7750470991945
20
-0.0263762585885274
30
0
41
1
10
75.7817139952776
20
-0.172623312681537
30
0
41
1
10
75.789935792164
20
-0.356033434236053
30
0
41
1
10
75.7915743395536
20
-0.392745598558747
30
0
41
1
10
75.7948399204191
20
-0.466230880540763
30
0
41
1
10
75.7964690586121
20
-0.503052019408415
30
0
41
1
10
75.801316394088
20
-0.613076923080627
30
0
41
1
10
75.8044985841736
20
-0.685934681370696
30
0
41
1
10
75.8139105135141
20
-0.903057498170114
30
0
41
1
10
75.8200050345516
20
-1.0458753305486
30
0
41
1
10
75.8318704232787
20
-1.32771296247103
30
0
41
1
10
75.8376417641983
20
-1.46673151280842
30
0
41
1
10
75.8460952544905
20
-1.67236725869071
30
0
41
1
10
75.8502695512294
20
-1.77446125724035
30
0
41
1
10
75.8543716026898
20
-1.8754520353998
30
0
41
1
10
75.8570917236809
20
-1.94253134188838
30
0
41
1
10
75.8584456593497
20
-1.97597675275318
30
0
41
1
10
75.8651612623554
20
-2.14203453466325
30
0
41
1
10
75.8703740462303
20
-2.27136838193346
30
0
41
1
10
75.8754875807445
20
-2.39722116519508
30
0
0
SPLINE
5
134
100
AcDbEntity
8
1
62
256
6
ByLayer
370
18
48
1
60
0
100
AcDbSpline
70
4
71
3
72
8
73
4
40
0
40
0
40
0
40
0
40
1
40
1
40
1
40
1
41
1
10
75.8754875807445
20
-2.39722116519508
30
0
41
1
10
76.1245608023029
20
-2.33584148360825
30
0
41
1
10
76.3736090332879
20
-2.274375063669
30
0
41
1
10
76.6226402361045
20
-2.21302181007303
30
0
0
SPLINE
5
135
100
AcDbEntity
8
1
62
256
6
ByLayer
370
18
48
1
60
0
100
AcDbSpline
70
4
71
3
72
28
73
24
40
0
40
0
40
0
40
0
40
0.125
40
0.125
40
0.250000000000001
40
0.250000000000001
40
0.375000000000001
40
0.375000000000001
40
0.437500000000001
40
0.437500000000001
40
0.500000000000001
40
0.500000000000001
40
0.625000000000001
40
0.625000000000001
40
0.750000000000001
40
0.750000000000001
40
0.812500000000001
40
0.812500000000001
40
0.843750000000001
40
0.843750000000001
40
0.875000000000001
40
0.875000000000001
40
1
40
1
40
1
40
1
41
1
10
76.6226402361046
20
-2.2130218100728
30
0
41
1
10
76.6145483644518
20
-2.09578818296219
30
0
41
1
10
76.606729567862
20
-1.97587875243778
30
0
41
1
10
76.5916542061723
20
-1.73080989809756
30
0
41
1
10
76.5844010267508
20
-1.60565001962223
30
0
41
1
10
76.5703692295817
20
-1.35009184629933
30
0
41
1
10
76.563581279165
20
-1.21969609913299
30
0
41
1
10
76.5537020649555
20
-1.02008776798601
30
0
41
1
10
76.5504511667734
20
-0.952715832196446
30
0
41
1
10
76.5441044727064
20
-0.817987774076471
30
0
41
1
10
76.5410020259579
20
-0.750518026560542
30
0
41
1
10
76.5318829255452
20
-0.54779868258592
30
0
41
1
10
76.5260605908632
20
-0.412239289998922
30
0
41
1
10
76.5148293849364
20
-0.140312708308045
30
0
41
1
10
76.5094126683385
20
-0.0039460589068483
30
0
41
1
10
76.5015131734647
20
0.201212321536758
30
0
41
1
10
76.498919152331
20
0.269700129605241
30
0
41
1
10
76.4950793854656
20
0.372586632915016
30
0
41
1
10
76.4938067544734
20
0.406941288657777
30
0
41
1
10
76.4912843101376
20
0.475500378817486
30
0
41
1
10
76.4900344299766
20
0.509705951156093
30
0
41
1
10
76.4838363671014
20
0.680365324588649
30
0
41
1
10
76.4790327259025
20
0.815716928196593
30
0
41
1
10
76.4743830832746
20
0.949884449054821
30
0
0
SPLINE
5
136
100
AcDbEntity
8
1
62
256
6
ByLayer
370
18
48
1
60
0
100
AcDbSpline
70
4
71
3
72
8
73
4
40
0
40
0
40
0
40
0
40
1
40
1
40
1
40
1
41
1
10
63.9362679435442
20
-2.43142226680774
30
0
41
1
10
64.0023004565741
20
-2.35768336251107
30
0
41
1
10
64.068259493377
20
-2.28388263758302
30
0
41
1
10
64.1341416384477
20
-2.21012976695823
30
0
0
SPLINE
5
137
100
AcDbEntity
8
1
62
256
6
ByLayer
370
13
48
1
60
0
100
AcDbSpline
70
4
71
3
72
10
73
6
40
0
40
0
40
0
40
0
40
0.479717717999358
40
0.760719936684811
40
1
40
1
40
1
40
1
41
1
10
63.9892737192166
20
0.855985629444575
30
0
41
1
10
64.0124390770908
20
0.357620491714385
30
0
41
1
10
64.0491739574738
20
-0.460585279412697
30
0
41
1
10
64.0974630674135
20
-1.49160892815598
30
0
41
1
10
64.1225870177751
20
-1.99150275910108
30
0
41
1
10
64.1341416384476
20
-2.21012976695775
30
0
0
SPLINE
5
138
100
AcDbEntity
8
1
62
256
6
ByLayer
370
18
48
1
60
0
100
AcDbSpline
70
4
71
3
72
27
73
23
40
0
40
0
40
0
40
0
40
0.125
40
0.125
40
0.25
40
0.375
40
0.375
40
0.40625
40
0.40625
40
0.4375
40
0.4375
40
0.500000000000001
40
0.500000000000001
40
0.625
40
0.625
40
0.75
40
0.75
40
0.875
40
0.875
40
0.9375
40
0.9375
40
1
40
1
40
1
40
1
41
1
10
63.1925010638113
20
0.887390091925568
30
0
41
1
10
63.1991586419072
20
0.74846284977653
30
0
41
1
10
63.2057653263258
20
0.60912563337385
30
0
41
1
10
63.2189787582124
20
0.32965746143239
30
0
41
1
10
63.2321750419769
20
0.0493944723414188
30
0
41
1
10
63.245384149802
20
-0.232454890309839
30
0
41
1
10
63.253699634636
20
-0.409115861039396
30
0
41
1
10
63.255366057308
20
-0.444473343825848
30
0
41
1
10
63.2587057905309
20
-0.515239399741262
30
0
41
1
10
63.2603798589235
20
-0.550665321292115
30
0
41
1
10
63.2653862811142
20
-0.656471814643055
30
0
41
1
10
63.2687110929911
20
-0.726558982531401
30
0
41
1
10
63.2786527219945
20
-0.935493392292926
30
0
41
1
10
63.2852347023093
20
-1.07301629549968
30
0
41
1
10
63.2983869996999
20
-1.34458852040848
30
0
41
1
10
63.3049690396688
20
-1.47863769206251
30
0
41
1
10
63.3181658158703
20
-1.74323504678085
30
0
41
1
10
63.3247751895378
20
-1.8737835545096
30
0
41
1
10
63.3347478484851
20
-2.0668924301425
30
0
41
1
10
63.3380683863716
20
-2.1305359895309
30
0
41
1
10
63.3447038463879
20
-2.25615318927848
30
0
41
1
10
63.3480210681928
20
-2.3181637004266
30
0
41
1
10
63.3513397980074
20
-2.37937609062982
30
0
0
SPLINE
5
139
100
AcDbEntity
8
1
62
256
6
ByLayer
370
18
48
1
60
0
100
AcDbSpline
70
4
71
3
72
8
73
4
40
0
40
0
40
0
40
0
40
1
40
1
40
1
40
1
41
1
10
63.3513397980199
20
-2.37937609063016
30
0
41
1
10
63.5463152345516
20
-2.39672596044809
30
0
41
1
10
63.7412912968944
20
-2.41407449668864
30
0
41
1
10
63.936267943544
20
-2.43142226680888
30
0
0
SPLINE
5
13A
100
AcDbEntity
8
1
62
256
6
ByLayer
370
18
48
1
60
0
100
AcDbSpline
70
4
71
3
72
26
73
22
40
0
40
0
40
0
40
0
40
0.125
40
0.250000000000001
40
0.375000000000001
40
0.375000000000001
40
0.406250000000001
40
0.406250000000001
40
0.437500000000001
40
0.437500000000001
40
0.5
40
0.5
40
0.625
40
0.625
40
0.75
40
0.75
40
0.8125
40
0.8125
40
0.875
40
0.875
40
1
40
1
40
1
40
1
41
1
10
63.9362679435432
20
-2.43142226680843
30
0
41
1
10
63.9306261653213
20
-2.30702490989452
30
0
41
1
10
63.9193568536846
20
-2.05295149793349
30
0
41
1
10
63.9025341260107
20
-1.65638185844068
30
0
41
1
10
63.8912796138998
20
-1.38168158356754
30
0
41
1
10
63.8842047205619
20
-1.20668161272206
30
0
41
1
10
63.882787533291
20
-1.17151565957448
30
0
41
1
10
63.8799473365433
20
-1.10084822904477
30
0
41
1
10
63.8785267933945
20
-1.06540798278735
30
0
41
1
10
63.874274873163
20
-0.959105069880962
30
0
41
1
10
63.8714478605716
20
-0.888124910436801
30
0
41
1
10
63.862966134651
20
-0.674856308163896
30
0
41
1
10
63.8572971902719
20
-0.532240833218026
30
0
41
1
10
63.845962545342
20
-0.246149890835824
30
0
41
1
10
63.8403014213273
20
-0.102674271881085
30
0
41
1
10
63.8318206979065
20
0.113190517499078
30
0
41
1
10
63.8289951475144
20
0.185254162128359
30
0
41
1
10
63.8233411444482
20
0.329601834488699
30
0
41
1
10
63.8205108560622
20
0.401933017621985
30
0
41
1
10
63.8120125547587
20
0.618964907055016
30
0
41
1
10
63.8063845591685
20
0.76253863186929
30
0
41
1
10
63.8007317775138
20
0.904998254704481
30
0
0
SPLINE
5
13B
100
AcDbEntity
8
1
62
256
6
ByLayer
370
18
48
1
60
0
100
AcDbSpline
70
4
71
3
72
32
73
28
40
0
40
0
40
0
40
0
40
0.124999999999943
40
0.124999999999943
40
0.187499999999955
40
0.187499999999955
40
0.249999999999968
40
0.312499999999981
40
0.312499999999981
40
0.374999999999993
40
0.374999999999993
40
0.437500000000006
40
0.437500000000006
40
0.500000000000019
40
0.500000000000019
40
0.624999999999935
40
0.624999999999935
40
0.687499999999946
40
0.687499999999946
40
0.749999999999956
40
0.749999999999956
40
0.812499999999967
40
0.812499999999967
40
0.874999999999978
40
0.937499999999989
40
0.937499999999989
40
1
40
1
40
1
40
1
41
1
10
66.8012133388356
20
0.876516575143825
30
0
41
1
10
66.7932402545312
20
0.874351687313492
30
0
41
1
10
66.7836599304635
20
0.87238016451937
30
0
41
1
10
66.766950518306
20
0.86970371232627
30
0
41
1
10
66.7609388145854
20
0.868853851730535
30
0
41
1
10
66.7484105931316
20
0.867293661768969
30
0
41
1
10
66.7353507132166
20
0.865865379639985
30
0
41
1
10
66.7212475078391
20
0.864695778140174
30
0
41
1
10
66.7066054347454
20
0.863659706327979
30
0
41
1
10
66.6990794387908
20
0.863214072649185
30
0
41
1
10
66.6839056317416
20
0.862480258116364
30
0
41
1
10
66.6762162307206
20
0.86218905557044
30
0
41
1
10
66.6606318799173
20
0.861758438129897
30
0
41
1
10
66.6526810817578
20
0.861618790972443
30
0
41
1
10
66.6289370378219
20
0.861442131440214
30
0
41
1
10
66.6133876486086
20
0.861639127443368
30
0
41
1
10
66.5904821961085
20
0.862405496379665
30
0
41
1
10
66.5829205807177
20
0.862741977540935
30
0
41
1
10
66.5683844197831
20
0.863555297311137
30
0
41
1
10
66.5613512115028
20
0.864033724594947
30
0
41
1
10
66.547751771858
20
0.865133354388661
30
0
41
1
10
66.5411628724283
20
0.865757057485411
30
0
41
1
10
66.5285714796557
20
0.867143083051161
30
0
41
1
10
66.5167473053657
20
0.868646316800408
30
0
41
1
10
66.5064033151953
20
0.870375875777427
30
0
41
1
10
66.496811125923
20
0.87222048284832
30
0
41
1
10
66.4923811759734
20
0.873203922520958
30
0
41
1
10
66.4884166923892
20
0.874230171213725
30
0
0
SPLINE
5
13C
100
AcDbEntity
8
1
62
256
6
ByLayer
370
18
48
1
60
0
100
AcDbSpline
70
4
71
3
72
32
73
28
40
0
40
0
40
0
40
0
40
0.124999999999983
40
0.124999999999983
40
0.187500000000016
40
0.187500000000016
40
0.250000000000049
40
0.312500000000082
40
0.312500000000082
40
0.375000000000115
40
0.375000000000115
40
0.437500000000148
40
0.437500000000148
40
0.500000000000181
40
0.500000000000181
40
0.625000000000137
40
0.625000000000137
40
0.687500000000114
40
0.687500000000114
40
0.750000000000091
40
0.750000000000091
40
0.812500000000069
40
0.812500000000069
40
0.875000000000046
40
0.937500000000023
40
0.937500000000023
40
1
40
1
40
1
40
1
41
1
10
68.0507942396463
20
0.885623636899993
30
0
41
1
10
68.0428191275502
20
0.883461183073479
30
0
41
1
10
68.0332366852542
20
0.881491959645842
30
0
41
1
10
68.0165240300912
20
0.878818751876707
30
0
41
1
10
68.0105112454301
20
0.877969949297068
30
0
41
1
10
67.9979811509082
20
0.87641177677807
30
0
41
1
10
67.9849194872701
20
0.874985396271768
30
0
41
1
10
67.9708146858513
20
0.873817465879171
30
0
41
1
10
67.9561711169445
20
0.872782945240715
30
0
41
1
10
67.9486448854493
20
0.872338046611759
30
0
41
1
10
67.9334704520022
20
0.871605507756925
30
0
41
1
10
67.9257808047579
20
0.871314862059478
30
0
41
1
10
67.9101960946294
20
0.87088519678764
30
0
41
1
10
67.9022450845966
20
0.870745948270297
30
0
41
1
10
67.8785021431896
20
0.870570213874402
30
0
41
1
10
67.8629536101948
20
0.870767439144316
30
0
41
1
10
67.8400496464473
20
0.871533599059177
30
0
41
1
10
67.8324889607794
20
0.871869898588756
30
0
41
1
10
67.8179545414301
20
0.872682666953125
30
0
41
1
10
67.8109221729526
20
0.873160726517426
30
0
41
1
10
67.7973243733564
20
0.874259444747764
30
0
41
1
10
67.7907361111667
20
0.874882620599124
30
0
41
1
10
67.7781467545994
20
0.876267333467808
30
0
41
1
10
67.7663244553774
20
0.877769103218697
30
0
41
1
10
67.755982122109
20
0.879496920613576
30
0
41
1
10
67.7463915210024
20
0.881339651621914
30
0
41
1
10
67.7419623594545
20
0.882322077124087
30
0
41
1
10
67.7379986502154
20
0.883347256025388
30
0
0
SPLINE
5
13D
100
AcDbEntity
8
1
62
256
6
ByLayer
370
18
48
1
60
0
100
AcDbSpline
70
4
71
3
72
32
73
28
40
0
40
0
40
0
40
0
40
0.124999999999896
40
0.124999999999896
40
0.187499999999881
40
0.187499999999881
40
0.249999999999866
40
0.31249999999985
40
0.31249999999985
40
0.374999999999835
40
0.374999999999835
40
0.43749999999982
40
0.43749999999982
40
0.499999999999804
40
0.499999999999804
40
0.624999999999774
40
0.624999999999774
40
0.687499999999811
40
0.687499999999811
40
0.749999999999849
40
0.749999999999849
40
0.812499999999887
40
0.812499999999887
40
0.874999999999925
40
0.937499999999962
40
0.937499999999962
40
1
40
1
40
1
40
1
41
1
10
69.3003644195643
20
0.894708056535251
30
0
41
1
10
69.2923889865259
20
0.89254767994484
30
0
41
1
10
69.2828067426938
20
0.890580248367854
30
0
41
1
10
69.2660949989804
20
0.887909329496864
30
0
41
1
10
69.2600825921859
20
0.887061218585018
30
0
41
1
10
69.2475529875494
20
0.885504213610943
30
0
41
1
10
69.2344919173227
20
0.884078830297142
30
0
41
1
10
69.2203877572312
20
0.88291160013938
30
0
41
1
10
69.2057449031705
20
0.881877614577661
30
0
41
1
10
69.198218247619
20
0.881432853124835
30
0
41
1
10
69.1830435275191
20
0.880700488023052
30
0
41
1
10
69.1753537542319
20
0.880409859597847
30
0
41
1
10
69.159768826717
20
0.879980089166082
30
0
41
1
10
69.1518178915591
20
0.879840714339764
30
0
41
1
10
69.1280726250848
20
0.879664393505038
30
0
41
1
10
69.1125229436017
20
0.879861016679428
30
0
41
1
10
69.0896178162793
20
0.880625911595587
30
0
41
1
10
69.0820561950089
20
0.880961754453381
30
0
41
1
10
69.0675203893189
20
0.881773528409354
30
0
41
1
10
69.0604875238726
20
0.882251043891927
30
0
41
1
10
69.0468890778707
20
0.883348567914823
30
0
41
1
10
69.040300896886
20
0.883971064886254
30
0
41
1
10
69.0277109208355
20
0.885354433170363
30
0
41
1
10
69.0158884060309
20
0.886854761826612
30
0
41
1
10
69.0055467277626
20
0.888580965143149
30
0
41
1
10
68.9959570138049
20
0.890421962895346
30
0
41
1
10
68.991528428304
20
0.891403467366473
30
0
41
1
10
68.987565385229
20
0.892427684480026
30
0
0
SPLINE
5
13E
100
AcDbEntity
8
1
62
256
6
ByLayer
370
18
48
1
60
0
100
AcDbSpline
70
4
71
3
72
32
73
28
40
0
40
0
40
0
40
0
40
0.124999999999982
40
0.124999999999982
40
0.187499999999975
40
0.187499999999975
40
0.249999999999968
40
0.312499999999961
40
0.312499999999961
40
0.374999999999954
40
0.374999999999954
40
0.437499999999947
40
0.437499999999947
40
0.49999999999994
40
0.49999999999994
40
0.625000000000036
40
0.625000000000036
40
0.68750000000003
40
0.68750000000003
40
0.750000000000024
40
0.750000000000024
40
0.812500000000018
40
0.812500000000018
40
0.875000000000012
40
0.937500000000006
40
0.937500000000006
40
1
40
1
40
1
40
1
41
1
10
70.5499443289487
20
0.90390238162388
30
0
41
1
10
70.5419692961393
20
0.901743948067633
30
0
41
1
10
70.5323880969179
20
0.89977813259523
30
0
41
1
10
70.5156785464421
20
0.897109199026374
30
0
41
1
10
70.509666940596
20
0.896261668873052
30
0
41
1
10
70.4971385305294
20
0.894705594422987
30
0
41
1
10
70.4840786764171
20
0.893280974376353
30
0
41
1
10
70.4699757092004
20
0.892114195189492
30
0
41
1
10
70.4553340070438
20
0.891080506354058
30
0
41
1
10
70.4478069058188
20
0.890635754323853
30
0
41
1
10
70.4326319413617
20
0.889903339294136
30
0
41
1
10
70.424942037049
20
0.889612625977776
30
0
41
1
10
70.4093568276136
20
0.889182567056565
30
0
41
1
10
70.4014059387586
20
0.889042983890022
30
0
41
1
10
70.3776576953628
20
0.888865870549893
30
0
41
1
10
70.3621064874744
20
0.889061818178874
30
0
41
1
10
70.3391997043232
20
0.889825422361952
30
0
41
1
10
70.3316369540514
20
0.890160816455989
30
0
41
1
10
70.3170994739276
20
0.89097163706279
30
0
41
1
10
70.3100660085174
20
0.891448641309296
30
0
41
1
10
70.2964667795404
20
0.89254505761582
30
0
41
1
10
70.2898785919469
20
0.893166935861387
30
0
41
1
10
70.2772881434475
20
0.894549067062059
30
0
41
1
10
70.2654657370292
20
0.896048093563223
30
0
41
1
10
70.2551248226106
20
0.897772799714943
30
0
41
1
10
70.2455362421743
20
0.899612206481692
30
0
41
1
10
70.2411084024318
20
0.900592855778967
30
0
41
1
10
70.2371462002197
20
0.901616167362562
30
0
0
SPLINE
5
13F
100
AcDbEntity
8
1
62
256
6
ByLayer
370
18
48
1
60
0
100
AcDbSpline
70
4
71
3
72
32
73
28
40
0
40
0
40
0
40
0
40
0.125000000000068
40
0.125000000000068
40
0.187500000000062
40
0.187500000000062
40
0.250000000000057
40
0.312500000000052
40
0.312500000000052
40
0.375000000000047
40
0.375000000000047
40
0.437500000000042
40
0.437500000000042
40
0.500000000000036
40
0.500000000000036
40
0.625000000000026
40
0.625000000000026
40
0.687500000000022
40
0.687500000000022
40
0.750000000000017
40
0.750000000000017
40
0.812500000000013
40
0.812500000000013
40
0.875000000000009
40
0.937500000000004
40
0.937500000000004
40
1
40
1
40
1
40
1
41
1
10
71.7995191716966
20
0.912956945735914
30
0
41
1
10
71.7915423103946
20
0.910800902348313
30
0
41
1
10
71.7819592880784
20
0.908837318998394
30
0
41
1
10
71.7652470381186
20
0.906171499440717
30
0
41
1
10
71.7592345427789
20
0.905324976559882
30
0
41
1
10
71.7467045600117
20
0.903770800408523
30
0
41
1
10
71.7336431894003
20
0.902347963062965
30
0
41
1
10
71.7195389433983
20
0.901182708814019
30
0
41
1
10
71.7048960230542
20
0.900150426640693
30
0
41
1
10
71.6973686290945
20
0.899706323807749
30
0
41
1
10
71.6821930377689
20
0.898975026587578
30
0
41
1
10
71.6745028806135
20
0.898684792704273
30
0
41
1
10
71.6589172862945
20
0.898255533786028
30
0
41
1
10
71.650966203223
20
0.898116273404497
30
0
41
1
10
71.6272184899335
20
0.897939865879806
30
0
41
1
10
71.6116678024984
20
0.898135920766578
30
0
41
1
10
71.5887620622264
20
0.898899157046344
30
0
41
1
10
71.5811999462758
20
0.899234327346477
30
0
41
1
10
71.5666637099221
20
0.900044526655023
30
0
41
1
10
71.5596308689629
20
0.900521134287487
30
0
41
1
10
71.5460329067552
20
0.901616590471917
30
0
41
1
10
71.5394452579603
20
0.902237914908909
30
0
41
1
10
71.5268564133444
20
0.903618720544131
30
0
41
1
10
71.5150355450941
20
0.905116279093363
30
0
41
1
10
71.5046960993591
20
0.906839251585183
30
0
41
1
10
71.4951089788687
20
0.908676793913031
30
0
41
1
10
71.4906818851064
20
0.909656438388851
30
0
41
1
10
71.4867204346752
20
0.910678692238946
30
0
0
SPLINE
5
140
100
AcDbEntity
8
1
62
256
6
ByLayer
370
18
48
1
60
0
100
AcDbSpline
70
4
71
3
72
32
73
28
40
0
40
0
40
0
40
0
40
0.12499999999991
40
0.12499999999991
40
0.187499999999862
40
0.187499999999862
40
0.249999999999815
40
0.312499999999767
40
0.312499999999767
40
0.37499999999972
40
0.37499999999972
40
0.437499999999672
40
0.437499999999672
40
0.499999999999624
40
0.499999999999624
40
0.624999999999639
40
0.624999999999639
40
0.687499999999699
40
0.687499999999699
40
0.749999999999759
40
0.749999999999759
40
0.812499999999819
40
0.812499999999819
40
0.87499999999988
40
0.93749999999994
40
0.93749999999994
40
1
40
1
40
1
40
1
41
1
10
73.0490943907683
20
0.922115581361339
30
0
41
1
10
73.041118409427
20
0.91996143777007
30
0
41
1
10
73.0315370450426
20
0.917999393856803
30
0
41
1
10
73.0148280548378
20
0.915335401511356
30
0
41
1
10
73.0088167343557
20
0.914489396693654
30
0
41
1
10
72.9962885842972
20
0.912936000704036
30
0
41
1
10
72.9832290651396
20
0.911513765187237
30
0
41
1
10
72.96912663251
20
0.910348780986027
30
0
41
1
10
72.9544854722983
20
0.909316605619608
30
0
41
1
10
72.9469576880403
20
0.908872399219916
30
0
41
1
10
72.9317820903782
20
0.908140842069571
30
0
41
1
10
72.9240919104301
20
0.907850419712872
30
0
41
1
10
72.908506229173
20
0.907420667861203
30
0
41
1
10
72.9005553393469
20
0.907281097018227
30
0
41
1
10
72.8768042272652
20
0.907103599904957
30
0
41
1
10
72.8612517806753
20
0.907298812430383
30
0
41
1
10
72.8383440948615
20
0.908060540148682
30
0
41
1
10
72.83078057265
20
0.908395202563753
30
0
41
1
10
72.8162422060624
20
0.909204349785654
30
0
41
1
10
72.8092085782075
20
0.909680404733905
30
0
41
1
10
72.7956095276302
20
0.9107746821972
30
0
41
1
10
72.7890218243759
20
0.911395350288188
30
0
41
1
10
72.7764321350624
20
0.912774890641344
30
0
41
1
10
72.7646109778802
20
0.914271109978813
30
0
41
1
10
72.754272325009
20
0.915992601445339
30
0
41
1
10
72.7446862906803
20
0.917828552552891
30
0
41
1
10
72.7402599418496
20
0.918807344628931
30
0
41
1
10
72.7362993447146
20
0.919828697531443
30
0
0
SPLINE
5
141
100
AcDbEntity
8
1
62
256
6
ByLayer
370
18
48
1
60
0
100
AcDbSpline
70
4
71
3
72
32
73
28
40
0
40
0
40
0
40
0
40
0.124999999999995
40
0.124999999999995
40
0.187499999999995
40
0.187499999999995
40
0.249999999999995
40
0.312499999999995
40
0.312499999999995
40
0.374999999999995
40
0.374999999999995
40
0.437499999999995
40
0.437499999999995
40
0.499999999999995
40
0.499999999999995
40
0.624999999999995
40
0.624999999999995
40
0.687499999999996
40
0.687499999999996
40
0.749999999999996
40
0.749999999999996
40
0.812499999999997
40
0.812499999999997
40
0.874999999999998
40
0.937499999999999
40
0.937499999999999
40
1
40
1
40
1
40
1
41
1
10
74.2986692108811
20
0.93122339745176
30
0
41
1
10
74.2906922602342
20
0.929071389440622
30
0
41
1
10
74.281110264661
20
0.927111239726031
30
0
41
1
10
74.264400689407
20
0.924449752204936
30
0
41
1
10
74.2583892167268
20
0.923604525894376
30
0
41
1
10
74.2458606405199
20
0.922052509809134
30
0
41
1
10
74.232800756333
20
0.920631509267082
30
0
41
1
10
74.2186980496605
20
0.919467482487931
30
0
41
1
10
74.2040566488213
20
0.918436124405559
30
0
41
1
10
74.1965283333786
20
0.91799222643229
30
0
41
1
10
74.1813520197841
20
0.917261166283311
30
0
41
1
10
74.1736615114621
20
0.916970923662916
30
0
41
1
10
74.1580752316449
20
0.916541394172185
30
0
41
1
10
74.1501241604774
20
0.916401864473784
30
0
41
1
10
74.1263712556939
20
0.916224278497253
30
0
41
1
10
74.1108179695709
20
0.916419185924809
30
0
41
1
10
74.0879095332888
20
0.917180063482277
30
0
41
1
10
74.0803455580172
20
0.917514387215476
30
0
41
1
10
74.0658066103954
20
0.918322748638445
30
0
41
1
10
74.0587728335033
20
0.918798352977745
30
0
41
1
10
74.0451737416619
20
0.919891607251145
30
0
41
1
10
74.0385862185801
20
0.920511692449452
30
0
41
1
10
74.0259967903611
20
0.92188998068346
30
0
41
1
10
74.0141761813624
20
0.923384843044772
30
0
41
1
10
74.003838542318
20
0.925104762201357
30
0
41
1
10
73.994253715828
20
0.926939025395399
30
0
41
1
10
73.9898280835685
20
0.927916909901001
30
0
41
1
10
73.985868270846
20
0.92893730571285
30
0
0
SPLINE
5
142
100
AcDbEntity
8
1
62
256
6
ByLayer
370
18
48
1
60
0
100
AcDbSpline
70
4
71
3
72
32
73
28
40
0
40
0
40
0
40
0
40
0.125000000000107
40
0.125000000000107
40
0.187500000000122
40
0.187500000000122
40
0.250000000000137
40
0.312500000000151
40
0.312500000000151
40
0.375000000000166
40
0.375000000000166
40
0.437500000000181
40
0.437500000000181
40
0.500000000000195
40
0.500000000000195
40
0.625000000000225
40
0.625000000000225
40
0.687500000000187
40
0.687500000000187
40
0.75000000000015
40
0.75000000000015
40
0.812500000000112
40
0.812500000000112
40
0.875000000000075
40
0.937500000000038
40
0.937500000000038
40
1
40
1
40
1
40
1
41
1
10
75.5482434331484
20
0.940327370146804
30
0
41
1
10
75.5402658239179
20
0.938177585081718
30
0
41
1
10
75.5306834378729
20
0.936219425421655
30
0
41
1
10
75.5139735075544
20
0.933560602289703
30
0
41
1
10
75.5079619458688
20
0.932716212800131
30
0
41
1
10
75.4954331487434
20
0.931165710280595
30
0
41
1
10
75.4823730867417
20
0.92974608248818
30
0
41
1
10
75.4682702559324
20
0.928583159454234
30
0
41
1
10
75.4536287430237
20
0.927552769906413
30
0
41
1
10
75.4461001782451
20
0.927109271672293
30
0
41
1
10
75.4309235619589
20
0.926378875402008
30
0
41
1
10
75.4232329278434
20
0.926088894138957
30
0
41
1
10
75.4076464458167
20
0.925659747138099
30
0
41
1
10
75.3996953284902
20
0.925520338274282
30
0
41
1
10
75.3759418685895
20
0.925342894264674
30
0
41
1
10
75.3603884731289
20
0.925537620633321
30
0
41
1
10
75.3374802503823
20
0.926297801266571
30
0
41
1
10
75.3299163582038
20
0.926631821889771
30
0
41
1
10
75.3153777623955
20
0.927439447534283
30
0
41
1
10
75.3083442449746
20
0.927914617643893
30
0
41
1
10
75.2947458256373
20
0.929006867933396
30
0
41
1
10
75.2881586707391
20
0.929626386435672
30
0
41
1
10
75.275570341916
20
0.931003380844231
30
0
41
1
10
75.2637509440811
20
0.932496831295225
30
0
41
1
10
75.25341469754
20
0.934215105848125
30
0
41
1
10
75.243831338734
20
0.936047603885982
30
0
41
1
10
75.2394065191684
20
0.937024534586669
30
0
41
1
10
75.2354475494308
20
0.938043920618725
30
0
0
SPLINE
5
143
100
AcDbEntity
8
1
62
256
6
ByLayer
370
18
48
1
60
0
100
AcDbSpline
70
4
71
3
72
8
73
4
40
0
40
0
40
0
40
0
40
1
40
1
40
1
40
1
41
1
10
75.7262040224236
20
0.988412712529879
30
0
41
1
10
75.6668970153814
20
0.972347725559985
30
0
41
1
10
75.6075777538222
20
0.95631662616907
30
0
41
1
10
75.5482434331484
20
0.940327370146804
30
0
0
SPLINE
5
144
100
AcDbEntity
8
1
62
256
6
ByLayer
370
18
48
1
60
0
100
AcDbSpline
70
4
71
3
72
8
73
4
40
0
40
0
40
0
40
0
40
1
40
1
40
1
40
1
41
1
10
76.4743830832746
20
0.949884449054878
30
0
41
1
10
76.2250063567402
20
0.962688884840588
30
0
41
1
10
75.9756121933658
20
0.975533401825828
30
0
41
1
10
75.7262040224236
20
0.988412712529879
30
0
0
SPLINE
5
145
100
AcDbEntity
8
1
62
256
6
ByLayer
370
18
48
1
60
0
100
AcDbSpline
70
4
71
3
72
8
73
4
40
0
40
0
40
0
40
0
40
1
40
1
40
1
40
1
41
1
10
76.4850261344536
20
0.94714552855902
30
0
41
1
10
76.4814785254665
20
0.948058344184545
30
0
41
1
10
76.4779308413839
20
0.948971318224011
30
0
41
1
10
76.4743830832754
20
0.949884449054792
30
0
0
SPLINE
5
146
100
AcDbEntity
8
1
62
256
6
ByLayer
370
18
48
1
60
0
100
AcDbSpline
70
4
71
3
72
28
73
24
40
0
40
0
40
0
40
0
40
0.0625000000001258
40
0.0625000000001258
40
0.125000000000252
40
0.125000000000252
40
0.25000000000035
40
0.25000000000035
40
0.312500000000322
40
0.312500000000322
40
0.375000000000293
40
0.375000000000293
40
0.500000000000234
40
0.500000000000234
40
0.625000000000176
40
0.625000000000176
40
0.687500000000147
40
0.687500000000147
40
0.750000000000117
40
0.750000000000117
40
0.875000000000059
40
0.875000000000059
40
1
40
1
40
1
40
1
41
1
10
76.7152911972367
20
0.937527184656062
30
0
41
1
10
76.7102406226476
20
0.937145935364299
30
0
41
1
10
76.7050331334482
20
0.936795645423985
30
0
41
1
10
76.6945417910804
20
0.936173358020199
30
0
41
1
10
76.6892447585881
20
0.935899946624659
30
0
41
1
10
76.6732029389817
20
0.935190415024863
30
0
41
1
10
76.6623087063181
20
0.934864056892735
30
0
41
1
10
76.6456581894473
20
0.934601548424638
30
0
41
1
10
76.6400724328347
20
0.934552841985152
30
0
41
1
10
76.6290256988639
20
0.934533473114783
30
0
41
1
10
76.6235371260802
20
0.934562306435538
30
0
41
1
10
76.6071743133845
20
0.934762738323741
30
0
41
1
10
76.5963785938287
20
0.93504825215814
30
0
41
1
10
76.5751696890109
20
0.935931841490969
30
0
41
1
10
76.5650408950715
20
0.936517350585746
30
0
41
1
10
76.5505342260278
20
0.93760320470534
30
0
41
1
10
76.5458138351257
20
0.937999980037318
30
0
41
1
10
76.5366077382307
20
0.938864528340588
30
0
41
1
10
76.5321010394443
20
0.939334983991131
30
0
41
1
10
76.5191776538303
20
0.940829707926412
30
0
41
1
10
76.5113069475433
20
0.941938890474944
30
0
41
1
10
76.4970222874389
20
0.944377932788882
30
0
41
1
10
76.4905766797859
20
0.945717348472698
30
0
41
1
10
76.4850261344536
20
0.94714552855902
30
0
0
SPLINE
5
147
100
AcDbEntity
8
1
62
256
6
ByLayer
370
18
48
1
60
0
100
AcDbSpline
70
4
71
3
72
8
73
4
40
0
40
0
40
0
40
0
40
1
40
1
40
1
40
1
41
1
10
77
20
0.922955921122707
30
0
41
1
10
76.9050999537688
20
0.927806789788491
30
0
41
1
10
76.8101969372295
20
0.932663967943995
30
0
41
1
10
76.7152911972368
20
0.937527184656062
30
0
0
SPLINE
5
148
100
AcDbEntity
8
1
62
256
6
ByLayer
370
18
48
1
60
0
100
AcDbSpline
70
4
71
3
72
45
73
41
40
0
40
0
40
0
40
0
40
0.0241219639042935
40
0.0241219639042935
40
0.048243927808587
40
0.048243927808587
40
0.0964878556171741
40
0.0964878556171741
40
0.120609819521468
40
0.120609819521468
40
0.144731783425761
40
0.144731783425761
40
0.192975711234348
40
0.192975711234348
40
0.289463566851521
40
0.289463566851521
40
0.337707494660108
40
0.337707494660108
40
0.361829458564402
40
0.361829458564402
40
0.385951422468695
40
0.385951422468695
40
0.482439278085869
40
0.482439278085869
40
0.578927133703042
40
0.578927133703042
40
0.627171061511628
40
0.627171061511628
40
0.675414989320215
40
0.771902844937388
40
0.771902844937388
40
0.820146772745975
40
0.820146772745975
40
0.844268736650268
40
0.844268736650268
40
0.868390700554562
40
0.868390700554562
40
0.964878556171735
40
0.964878556171735
40
1
40
1
40
1
40
1
41
1
10
77
20
4.23981711098602
30
0
41
1
10
77
20
4.20736256092584
30
0
41
1
10
77
20
4.17488248996202
30
0
41
1
10
76.9999999999999
20
4.10974313762219
30
0
41
1
10
76.9999999999999
20
4.07708982816297
30
0
41
1
10
76.9999999999999
20
3.97890829734067
30
0
41
1
10
77
20
3.91316370752656
30
0
41
1
10
77.0000000000001
20
3.81409672803849
30
0
41
1
10
77
20
3.78094506487548
30
0
41
1
10
77.0000000000001
20
3.71485650380248
30
0
41
1
10
77
20
3.68190212514543
30
0
41
1
10
77
20
3.58330394031401
30
0
41
1
10
77
20
3.51792410076325
30
0
41
1
10
77
20
3.32280731493606
30
0
41
1
10
77
20
3.19408554816542
30
0
41
1
10
77
20
3.00306703332055
30
0
41
1
10
77.0000000000001
20
2.93974166637395
30
0
41
1
10
77
20
2.84528789461368
30
0
41
1
10
77
20
2.81384518709419
30
0
41
1
10
77
20
2.75136068428554
30
0
41
1
10
77
20
2.72038452069549
30
0
41
1
10
77
20
2.56681036470818
30
0
41
1
10
77.0000000000001
20
2.44810204113497
30
0
41
1
10
77.0000000000001
20
2.21890263237071
30
0
41
1
10
77
20
2.10844673411802
30
0
41
1
10
77.0000000000001
20
1.94898486184599
30
0
41
1
10
77
20
1.89672873739116
30
0
41
1
10
77.0000000000001
20
1.79577247266573
30
0
41
1
10
77
20
1.64922300148024
30
0
41
1
10
77
20
1.51727789514274
30
0
41
1
10
77
20
1.39478268808901
30
0
41
1
10
77
20
1.35553517115252
30
0
41
1
10
77
20
1.29909659211219
30
0
41
1
10
77
20
1.28068985764312
30
0
41
1
10
76.9999999999999
20
1.24470683907447
30
0
41
1
10
77
20
1.22715217106599
30
0
41
1
10
77.0000000000001
20
1.14213199119894
30
0
41
1
10
77
20
1.08234197886719
30
0
41
1
10
77
20
1.01142331618399
30
0
41
1
10
77
20
0.993531131633688
30
0
41
1
10
77
20
0.976689110970028
30
0
0
SPLINE
5
149
100
AcDbEntity
8
1
62
256
6
ByLayer
370
18
48
1
60
0
100
AcDbSpline
70
4
71
3
72
8
73
4
40
0
40
0
40
0
40
0
40
1
40
1
40
1
40
1
41
1
10
76.5560826464377
20
4.4102120248136
30
0
41
1
10
76.7040598521128
20
4.35344016513005
30
0
41
1
10
76.8520280434311
20
4.2966442146955
30
0
41
1
10
76.9999999999996
20
4.23981711098614
30
0
0
SPLINE
5
14A
100
AcDbEntity
8
1
62
256
6
ByLayer
370
18
48
1
60
0
100
AcDbSpline
70
4
71
3
72
8
73
4
40
0
40
0
40
0
40
0
40
1
40
1
40
1
40
1
41
1
10
76.5298839160256
20
4.36544595826672
30
0
41
1
10
76.5386171122796
20
4.38036862252088
30
0
41
1
10
76.5473500063542
20
4.39529059048186
30
0
41
1
10
76.5560826464377
20
4.41021202481289
30
0
0
SPLINE
5
14B
100
AcDbEntity
8
1
62
256
6
ByLayer
370
18
48
1
60
0
100
AcDbSpline
70
4
71
3
72
32
73
28
40
0
40
0
40
0
40
0
40
0.12499999999994
40
0.12499999999994
40
0.187499999999913
40
0.187499999999913
40
0.249999999999886
40
0.312499999999858
40
0.312499999999858
40
0.374999999999831
40
0.374999999999831
40
0.437499999999804
40
0.437499999999804
40
0.499999999999776
40
0.499999999999776
40
0.624999999999831
40
0.624999999999831
40
0.687499999999859
40
0.687499999999859
40
0.749999999999887
40
0.749999999999887
40
0.812499999999916
40
0.812499999999916
40
0.874999999999944
40
0.937499999999972
40
0.937499999999972
40
1
40
1
40
1
40
1
41
1
10
76.2169950023153
20
4.36538830823577
30
0
41
1
10
76.2248356527296
20
4.35166534469184
30
0
41
1
10
76.2343054349685
20
4.3392460345608
30
0
41
1
10
76.2509077132837
20
4.32253606823872
30
0
41
1
10
76.2568925791039
20
4.3172601386965
30
0
41
1
10
76.2693762805418
20
4.30765017104343
30
0
41
1
10
76.2824107043556
20
4.29892462851942
30
0
41
1
10
76.296530410535
20
4.29194218587722
30
0
41
1
10
76.3112130830249
20
4.28586403927343
30
0
41
1
10
76.3187429449345
20
4.28332111695062
30
0
41
1
10
76.3339554018209
20
4.27926969906451
30
0
41
1
10
76.3416712238174
20
4.27774727157998
30
0
41
1
10
76.3573231319938
20
4.27571398062071
30
0
41
1
10
76.3653201318529
20
4.2752057846325
30
0
41
1
10
76.38910667595
20
4.27526945668311
30
0
41
1
10
76.4047031725257
20
4.27736101217337
30
0
41
1
10
76.4277062143139
20
4.2835710436473
30
0
41
1
10
76.4352484451314
20
4.28615118038732
30
0
41
1
10
76.4497810793329
20
4.2921969240594
30
0
41
1
10
76.4568193039048
20
4.29567477889307
30
0
41
1
10
76.4704411765928
20
4.30353715023278
30
0
41
1
10
76.4770679625399
20
4.30795635851553
30
0
41
1
10
76.4896173934031
20
4.31756402620979
30
0
41
1
10
76.5014265291634
20
4.3278916936776
30
0
41
1
10
76.5118005933878
20
4.33961490266267
30
0
41
1
10
76.521442850948
20
4.35204968129483
30
0
41
1
10
76.5258920854383
20
4.35862500224087
30
0
41
1
10
76.5298839160256
20
4.36544595826672
30
0
0
SPLINE
5
14C
100
AcDbEntity
8
1
62
256
6
ByLayer
370
18
48
1
60
0
100
AcDbSpline
70
4
71
3
72
8
73
4
40
0
40
0
40
0
40
0
40
1
40
1
40
1
40
1
41
1
10
76.0888955325751
20
4.58936210445214
30
0
41
1
10
76.1316255374808
20
4.51472777796397
30
0
41
1
10
76.1743223846755
20
4.44007532337562
30
0
41
1
10
76.2169950023153
20
4.36538830823577
30
0
0
SPLINE
5
14D
100
AcDbEntity
8
1
62
256
6
ByLayer
370
18
48
1
60
0
100
AcDbSpline
70
4
71
3
72
8
73
4
40
0
40
0
40
0
40
0
40
1
40
1
40
1
40
1
41
1
10
75.5351289069979
20
4.8015074346873
30
0
41
1
10
75.7197295720637
20
4.73082135453012
30
0
41
1
10
75.9043192062139
20
4.66010768564064
30
0
41
1
10
76.0888955325751
20
4.58936210445214
30
0
0
SPLINE
5
14E
100
AcDbEntity
8
1
62
256
6
ByLayer
370
18
48
1
60
0
100
AcDbSpline
70
4
71
3
72
10
73
6
40
0
40
0
40
0
40
0
40
0.941654758763178
40
0.941654758763178
40
1
40
1
40
1
40
1
41
1
10
75.3487889420123
20
4.48308528827781
30
0
41
1
10
75.4072840430673
20
4.58303460474539
30
0
41
1
10
75.4657724903653
20
4.68297878364888
30
0
41
1
10
75.5278814333301
20
4.78912156603914
30
0
41
1
10
75.5315051783184
20
4.79531449802593
30
0
41
1
10
75.5351289069979
20
4.8015074346873
30
0
0
SPLINE
5
14F
100
AcDbEntity
8
1
62
256
6
ByLayer
370
18
48
1
60
0
100
AcDbSpline
70
4
71
3
72
8
73
4
40
0
40
0
40
0
40
0
40
1
40
1
40
1
40
1
41
1
10
75.2799334151201
20
4.36543303351411
30
0
41
1
10
75.3028870156199
20
4.40465400945166
30
0
41
1
10
75.325838603731
20
4.44387053847811
30
0
41
1
10
75.3487889420123
20
4.48308528827781
30
0
0
SPLINE
5
150
100
AcDbEntity
8
1
62
256
6
ByLayer
370
18
48
1
60
0
100
AcDbSpline
70
4
71
3
72
29
73
25
40
0
40
0
40
0
40
0
40
0.124999999999976
40
0.124999999999976
40
0.187499999999964
40
0.187499999999964
40
0.249999999999952
40
0.31249999999994
40
0.31249999999994
40
0.374999999999928
40
0.374999999999928
40
0.437499999999917
40
0.437499999999917
40
0.499999999999905
40
0.499999999999905
40
0.624999999999881
40
0.624999999999881
40
0.687499999999868
40
0.687499999999868
40
0.749999999999855
40
0.749999999999855
40
0.874999999999928
40
0.874999999999928
40
1
40
1
40
1
40
1
41
1
10
74.9670473073902
20
4.36538972625095
30
0
41
1
10
74.9748825870636
20
4.35167628884474
30
0
41
1
10
74.9843446770834
20
4.33926470308566
30
0
41
1
10
75.0009317781963
20
4.32256346849474
30
0
41
1
10
75.0069110366029
20
4.31728982067816
30
0
41
1
10
75.0193835791168
20
4.30768251591726
30
0
41
1
10
75.0324061333969
20
4.29895851687533
30
0
41
1
10
75.0465122351907
20
4.29197486389421
30
0
41
1
10
75.0611803992632
20
4.28589406720906
30
0
41
1
10
75.0687049433584
20
4.28334825732185
30
0
41
1
10
75.0839048610473
20
4.27929047559542
30
0
41
1
10
75.0916142594232
20
4.27776419796859
30
0
41
1
10
75.1072529579741
20
4.27572161865686
30
0
41
1
10
75.1152279754022
20
4.27520714058906
30
0
41
1
10
75.1390914957614
20
4.27525425630637
30
0
41
1
10
75.1550128635458
20
4.27741614745364
30
0
41
1
10
75.1777759262043
20
4.28357392823125
30
0
41
1
10
75.1852166975076
20
4.28611250055587
30
0
41
1
10
75.1998008923207
20
4.29217315508546
30
0
41
1
10
75.2069694015237
20
4.29571768372347
30
0
41
1
10
75.2274213569656
20
4.30753951316834
30
0
41
1
10
75.2398692905779
20
4.31705019165727
30
0
41
1
10
75.2623477020016
20
4.33939018793652
30
0
41
1
10
75.2719548804694
20
4.35180005617113
30
0
41
1
10
75.2799334151201
20
4.36543303351411
30
0
0
SPLINE
5
151
100
AcDbEntity
8
1
62
256
6
ByLayer
370
18
48
1
60
0
100
AcDbSpline
70
4
71
3
72
8
73
4
40
0
40
0
40
0
40
0
40
1
40
1
40
1
40
1
41
1
10
74.8130613380393
20
4.6345657487073
30
0
41
1
10
74.8644352692228
20
4.54487093986353
30
0
41
1
10
74.9157595161503
20
4.45515447545827
30
0
41
1
10
74.9670473073901
20
4.36538972624831
30
0
0
SPLINE
5
152
100
AcDbEntity
8
1
62
256
6
ByLayer
370
18
48
1
60
0
100
AcDbSpline
70
4
71
3
72
10
73
6
40
0
40
0
40
0
40
0
40
0.425077367007085
40
0.425077367007085
40
1
40
1
40
1
40
1
41
1
10
74.5585264378876
20
5.07817856416716
30
0
41
1
10
74.5946352279996
20
5.01534779668555
30
0
41
1
10
74.6307274196442
20
4.95250683839879
30
0
41
1
10
74.7155911594908
20
4.80464588562089
30
0
41
1
10
74.7643471881015
20
4.71961677958043
30
0
41
1
10
74.8130613380393
20
4.6345657487073
30
0
0
SPLINE
5
153
100
AcDbEntity
8
1
62
256
6
ByLayer
370
18
48
1
60
0
100
AcDbSpline
70
4
71
3
72
12
73
8
40
0
40
0
40
0
40
0
40
0.273610784457741
40
0.273610784457741
40
0.547221448369936
40
0.547221448369936
40
1
40
1
40
1
40
1
41
1
10
74.0299850413058
20
4.3654480655417
30
0
41
1
10
74.0680320802351
20
4.43046033929903
30
0
41
1
10
74.1060739600342
20
4.49546113264367
30
0
41
1
10
74.1821537133752
20
4.62546294715796
30
0
41
1
10
74.2201918249683
20
4.69046520318039
30
0
41
1
10
74.3211721434448
20
4.8630374542401
30
0
41
1
10
74.3841112269177
20
4.97060765759787
30
0
41
1
10
74.4470459391595
20
5.07817614729217
30
0
0
SPLINE
5
154
100
AcDbEntity
8
1
62
256
6
ByLayer
370
18
48
1
60
0
100
AcDbSpline
70
4
71
3
72
32
73
28
40
0
40
0
40
0
40
0
40
0.124999999999882
40
0.124999999999882
40
0.187499999999859
40
0.187499999999859
40
0.249999999999837
40
0.312499999999814
40
0.312499999999814
40
0.374999999999791
40
0.374999999999791
40
0.437499999999768
40
0.437499999999768
40
0.499999999999745
40
0.499999999999745
40
0.624999999999809
40
0.624999999999809
40
0.687499999999841
40
0.687499999999841
40
0.749999999999873
40
0.749999999999873
40
0.812499999999905
40
0.812499999999905
40
0.874999999999936
40
0.937499999999968
40
0.937499999999968
40
1
40
1
40
1
40
1
41
1
10
73.7170938622065
20
4.36539095388048
30
0
41
1
10
73.7249348884365
20
4.35166814726639
30
0
41
1
10
73.7344049761178
20
4.33924909157275
30
0
41
1
10
73.7510075454891
20
4.3225395514016
30
0
41
1
10
73.7569924883165
20
4.31726376337105
30
0
41
1
10
73.7694763414746
20
4.30765403268268
30
0
41
1
10
73.7825109216238
20
4.29892880519137
30
0
41
1
10
73.7966305816586
20
4.29194647186355
30
0
41
1
10
73.8113132068324
20
4.2858684856684
30
0
41
1
10
73.8188431561388
20
4.28332557823668
30
0
41
1
10
73.8340556464645
20
4.27927420576856
30
0
41
1
10
73.8417714655174
20
4.27775178660767
30
0
41
1
10
73.8574233264786
20
4.27571847019769
30
0
41
1
10
73.8654202836914
20
4.27521023442
30
0
41
1
10
73.8892069996567
20
4.27527373605133
30
0
41
1
10
73.9048035248934
20
4.27736513082704
30
0
41
1
10
73.9278064944151
20
4.28357476138535
30
0
41
1
10
73.9353488712992
20
4.2861548011447
30
0
41
1
10
73.949881637951
20
4.29220030393796
30
0
41
1
10
73.9569199073427
20
4.29567802618126
30
0
41
1
10
73.9705418345065
20
4.3035401016852
30
0
41
1
10
73.9771686069996
20
4.30795912168878
30
0
41
1
10
73.9897182527706
20
4.3175666174505
30
0
41
1
10
74.0015275450509
20
4.3278941115515
30
0
41
1
10
74.0119016671789
20
4.33961714873985
30
0
41
1
10
74.0215439352481
20
4.35205176218119
30
0
41
1
10
74.0259932081684
20
4.35862708404025
30
0
41
1
10
74.0299850413058
20
4.3654480655417
30
0
0
SPLINE
5
155
100
AcDbEntity
8
1
62
256
6
ByLayer
370
18
48
1
60
0
100
AcDbSpline
70
4
71
3
72
10
73
6
40
0
40
0
40
0
40
0
40
0.5
40
0.5
40
1
40
1
40
1
40
1
41
1
10
73.3085715762276
20
5.07815139665155
30
0
41
1
10
73.3767963969975
20
4.95944072759875
30
0
41
1
10
73.4449633136582
20
4.8406933056138
30
0
41
1
10
73.5811475876759
20
4.6031140915583
30
0
41
1
10
73.6491556194366
20
4.48429163599619
30
0
41
1
10
73.7170938622065
20
4.36539095388048
30
0
0
SPLINE
5
156
100
AcDbEntity
8
1
62
256
6
ByLayer
370
18
48
1
60
0
100
AcDbSpline
70
4
71
3
72
12
73
8
40
0
40
0
40
0
40
0
40
0.273600479135836
40
0.273600479135836
40
0.547200857111457
40
0.547200857111457
40
1
40
1
40
1
40
1
41
1
10
72.7800351385277
20
4.3653749802327
30
0
41
1
10
72.8180826959576
20
4.43038712912519
30
0
41
1
10
72.8561248400233
20
4.49538871161579
30
0
41
1
10
72.9322046070371
20
4.62539367138535
30
0
41
1
10
72.9702423926876
20
4.69039795498483
30
0
41
1
10
73.0712260702703
20
4.86298454131236
30
0
41
1
10
73.1341682501169
20
4.97056734973836
30
0
41
1
10
73.1971053414759
20
5.07814896664453
30
0
0
SPLINE
5
157
100
AcDbEntity
8
1
62
256
6
ByLayer
370
18
48
1
60
0
100
AcDbSpline
70
4
71
3
72
32
73
28
40
0
40
0
40
0
40
0
40
0.124999999999933
40
0.124999999999933
40
0.187499999999938
40
0.187499999999938
40
0.249999999999942
40
0.312499999999947
40
0.312499999999947
40
0.374999999999952
40
0.374999999999952
40
0.437499999999957
40
0.437499999999957
40
0.499999999999962
40
0.499999999999962
40
0.624999999999971
40
0.624999999999971
40
0.687499999999976
40
0.687499999999976
40
0.749999999999981
40
0.749999999999981
40
0.812499999999986
40
0.812499999999986
40
0.87499999999999
40
0.937499999999995
40
0.937499999999995
40
1
40
1
40
1
40
1
41
1
10
72.4671467878833
20
4.36532204605456
30
0
41
1
10
72.474988153106
20
4.35159979670604
30
0
41
1
10
72.4844585071583
20
4.33918139231412
30
0
41
1
10
72.5010612109332
20
4.3224728173887
30
0
41
1
10
72.5070461586677
20
4.317197344102
30
0
41
1
10
72.5195299833748
20
4.30758815010822
30
0
41
1
10
72.5325644010782
20
4.29886332411374
30
0
41
1
10
72.5466838210027
20
4.29188141635177
30
0
41
1
10
72.5613660484844
20
4.28580367520851
30
0
41
1
10
72.5688958833457
20
4.28326079202873
30
0
41
1
10
72.5841080072661
20
4.27920940107254
30
0
41
1
10
72.5918236170196
20
4.27768692045856
30
0
41
1
10
72.6074750054034
20
4.27565336686809
30
0
41
1
10
72.6154716966891
20
4.27514494640189
30
0
41
1
10
72.6392580249099
20
4.27520775685596
30
0
41
1
10
72.6548542341525
20
4.27729854043685
30
0
41
1
10
72.6778566488768
20
4.28350699446111
30
0
41
1
10
72.6853991282595
20
4.28608670032443
30
0
41
1
10
72.6999318672864
20
4.29213147268649
30
0
41
1
10
72.7069700998466
20
4.29560881551089
30
0
41
1
10
72.7205919140422
20
4.30347009482844
30
0
41
1
10
72.7272185715889
20
4.30788865521802
30
0
41
1
10
72.7397684205927
20
4.31749559737437
30
0
41
1
10
72.751577819921
20
4.32782253913985
30
0
41
1
10
72.7619518971978
20
4.33954500173789
30
0
41
1
10
72.7715940579874
20
4.35197901878539
30
0
41
1
10
72.7760433390731
20
4.35855416233991
30
0
41
1
10
72.7800351385276
20
4.3653749802327
30
0
0
SPLINE
5
158
100
AcDbEntity
8
1
62
256
6
ByLayer
370
18
48
1
60
0
100
AcDbSpline
70
4
71
3
72
10
73
6
40
0
40
0
40
0
40
0
40
0.5
40
0.5
40
1
40
1
40
1
40
1
41
1
10
72.0585683221617
20
5.07812407783106
30
0
41
1
10
72.1268020346788
20
4.95940597079752
30
0
41
1
10
72.1949780354676
20
4.84065134814031
30
0
41
1
10
72.331181523396
20
4.60305767863011
30
0
41
1
10
72.3991999421961
20
4.48422781469139
30
0
41
1
10
72.4671467878833
20
4.36532204605456
30
0
0
SPLINE
5
159
100
AcDbEntity
8
1
62
256
6
ByLayer
370
18
48
1
60
0
100
AcDbSpline
70
4
71
3
72
12
73
8
40
0
40
0
40
0
40
0
40
0.273630770970653
40
0.273630770970653
40
0.547261458522574
40
0.547261458522574
40
1
40
1
40
1
40
1
41
1
10
71.5300861200894
20
4.3654420427219
30
0
41
1
10
71.5681370550549
20
4.4304524989445
30
0
41
1
10
71.6061831758465
20
4.495452811945
30
0
41
1
10
71.6822718974189
20
4.62545595312895
30
0
41
1
10
71.7203145563589
20
4.69045924136611
30
0
41
1
10
71.8212965659981
20
4.86301599883876
30
0
41
1
10
71.8842327668561
20
4.97056957021869
30
0
41
1
10
71.9471646542401
20
5.07812163584464
30
0
0
SPLINE
5
15A
100
AcDbEntity
8
1
62
256
6
ByLayer
370
18
48
1
60
0
100
AcDbSpline
70
4
71
3
72
32
73
28
40
0
40
0
40
0
40
0
40
0.12500000000006
40
0.12500000000006
40
0.187500000000087
40
0.187500000000087
40
0.250000000000114
40
0.312500000000142
40
0.312500000000142
40
0.375000000000169
40
0.375000000000169
40
0.437500000000197
40
0.437500000000197
40
0.500000000000224
40
0.500000000000224
40
0.625000000000169
40
0.625000000000169
40
0.687500000000141
40
0.687500000000141
40
0.750000000000113
40
0.750000000000113
40
0.812500000000085
40
0.812500000000085
40
0.875000000000057
40
0.937500000000028
40
0.937500000000028
40
1
40
1
40
1
40
1
41
1
10
71.2171909495257
20
4.36540616003953
30
0
41
1
10
71.2250326302292
20
4.35168403964451
30
0
41
1
10
71.2345032413291
20
4.33926583265196
30
0
41
1
10
71.2511060753782
20
4.32255749558593
30
0
41
1
10
71.2570910326372
20
4.31728207975186
30
0
41
1
10
71.2695748779483
20
4.30767287993422
30
0
41
1
10
71.2826092989669
20
4.29894807351087
30
0
41
1
10
71.2967284570686
20
4.29196585467585
30
0
41
1
10
71.311410376204
20
4.28588777296753
30
0
41
1
10
71.3189402246539
20
4.28334458858618
30
0
41
1
10
71.334152194119
20
4.2792925536443
30
0
41
1
10
71.341867707575
20
4.27776969742737
30
0
41
1
10
71.3575188608139
20
4.27573526321058
30
0
41
1
10
71.3655154100289
20
4.27522632283498
30
0
41
1
10
71.38930196482
20
4.27528743141357
30
0
41
1
10
71.404898300182
20
4.27737693653734
30
0
41
1
10
71.4279008820184
20
4.28358314529208
30
0
41
1
10
71.435443844288
20
4.28616219523408
30
0
41
1
10
71.4499772501603
20
4.29220559324753
30
0
41
1
10
71.4570157993544
20
4.29568224016495
30
0
41
1
10
71.4706382217274
20
4.30354209759176
30
0
41
1
10
71.4772651145813
20
4.30795986653931
30
0
41
1
10
71.4898160995291
20
4.31756580752716
30
0
41
1
10
71.5016265437307
20
4.32789175276986
30
0
41
1
10
71.5120013801193
20
4.33961334333333
30
0
41
1
10
71.5216442364801
20
4.35204647582609
30
0
41
1
10
71.5260939624176
20
4.35862139582329
30
0
41
1
10
71.5300861200894
20
4.3654420427219
30
0
0
SPLINE
5
15B
100
AcDbEntity
8
1
62
256
6
ByLayer
370
18
48
1
60
0
100
AcDbSpline
70
4
71
3
72
10
73
6
40
0
40
0
40
0
40
0
40
0.5
40
0.5
40
1
40
1
40
1
40
1
41
1
10
70.8086543989448
20
5.07809661169901
30
0
41
1
10
70.876881077236
20
4.95939685399162
30
0
41
1
10
70.9450500166205
20
4.84066070938431
30
0
41
1
10
71.0812399717761
20
4.60310369815221
30
0
41
1
10
71.1492522420956
20
4.48429178648672
30
0
41
1
10
71.2171909495257
20
4.36540616003953
30
0
0
SPLINE
5
15C
100
AcDbEntity
8
1
62
256
6
ByLayer
370
18
48
1
60
0
100
AcDbSpline
70
4
71
3
72
12
73
8
40
0
40
0
40
0
40
0
40
0.273637756968657
40
0.273637756968657
40
0.547275445874707
40
0.547275445874707
40
1
40
1
40
1
40
1
41
1
10
70.2801355533496
20
4.36540961761818
30
0
41
1
10
70.3181861028593
20
4.43042062216631
30
0
41
1
10
70.3562316991794
20
4.49542230483431
30
0
41
1
10
70.4323190471454
20
4.62542964899805
30
0
41
1
10
70.4703607314496
20
4.69043520192025
30
0
41
1
10
70.571335850919
20
4.86299207431725
30
0
41
1
10
70.6342656540177
20
4.97054363012296
30
0
41
1
10
70.6971905416725
20
5.07809415512966
30
0
0
SPLINE
5
15D
100
AcDbEntity
8
1
62
256
6
ByLayer
370
18
48
1
60
0
100
AcDbSpline
70
4
71
3
72
32
73
28
40
0
40
0
40
0
40
0
40
0.124999999999929
40
0.124999999999929
40
0.187499999999935
40
0.187499999999935
40
0.24999999999994
40
0.312499999999945
40
0.312499999999945
40
0.374999999999951
40
0.374999999999951
40
0.437499999999956
40
0.437499999999956
40
0.499999999999962
40
0.499999999999962
40
0.624999999999973
40
0.624999999999973
40
0.687499999999977
40
0.687499999999977
40
0.749999999999982
40
0.749999999999982
40
0.812499999999986
40
0.812499999999986
40
0.874999999999991
40
0.937499999999995
40
0.937499999999995
40
1
40
1
40
1
40
1
41
1
10
69.9672473754362
20
4.36537539557963
30
0
41
1
10
69.9750892923827
20
4.35165388248913
30
0
41
1
10
69.9845600277403
20
4.33923633412209
30
0
41
1
10
70.001162775913
20
4.32252895162873
30
0
41
1
10
70.0071476634541
20
4.3172538425944
30
0
41
1
10
70.0196313357364
20
4.30764516587445
30
0
41
1
10
70.0326655056572
20
4.29892083343483
30
0
41
1
10
70.0467842457605
20
4.29193896195653
30
0
41
1
10
70.0614656531181
20
4.2858611461555
30
0
41
1
10
70.0689953356186
20
4.2833180048857
30
0
41
1
10
70.0842068334946
20
4.27926601319174
30
0
41
1
10
70.0919220859086
20
4.277743137458
30
0
41
1
10
70.1075726651919
20
4.27570857413664
30
0
41
1
10
70.1155688997238
20
4.27519951651135
30
0
41
1
10
70.1393548755758
20
4.27526016850533
30
0
41
1
10
70.1549507552661
20
4.27734925714137
30
0
41
1
10
70.1779525550586
20
4.28355463387811
30
0
41
1
10
70.1854954916731
20
4.28613345637106
30
0
41
1
10
70.2000286443285
20
4.29217634460599
30
0
41
1
10
70.2070670433612
20
4.29565272377405
30
0
41
1
10
70.2206891250871
20
4.3035120107505
30
0
41
1
10
70.2273157952581
20
4.30792944299688
30
0
41
1
10
70.2398666722441
20
4.31753498944485
30
0
41
1
10
70.2516769303166
20
4.32786053212524
30
0
41
1
10
70.2620514597533
20
4.33958168322619
30
0
41
1
10
70.2716939615104
20
4.35201434794203
30
0
41
1
10
70.276143555164
20
4.35858911658624
30
0
41
1
10
70.2801355533496
20
4.36540961761804
30
0
0
SPLINE
5
15E
100
AcDbEntity
8
1
62
256
6
ByLayer
370
18
48
1
60
0
100
AcDbSpline
70
4
71
3
72
10
73
6
40
0
40
0
40
0
40
0
40
0.5
40
0.5
40
1
40
1
40
1
40
1
41
1
10
69.5586832479801
20
5.07806899601283
30
0
41
1
10
69.6269137150974
20
4.95936807451932
30
0
41
1
10
69.695086776853
20
4.84063110531673
30
0
41
1
10
69.8312863003857
20
4.6030725731973
30
0
41
1
10
69.8993043805096
20
4.48425968122683
30
0
41
1
10
69.9672473754362
20
4.36537539557963
30
0
0
SPLINE
5
15F
100
AcDbEntity
8
1
62
256
6
ByLayer
370
18
48
1
60
0
100
AcDbSpline
70
4
71
3
72
12
73
8
40
0
40
0
40
0
40
0
40
0.273523711989553
40
0.273523711989553
40
0.547047368907527
40
0.547047368907527
40
1
40
1
40
1
40
1
41
1
10
69.0301843186348
20
4.36513482101989
30
0
41
1
10
69.0682458365653
20
4.43014000482421
30
0
41
1
10
69.1063024155564
20
4.4951366133335
30
0
41
1
10
69.1824115704339
20
4.62513498314897
30
0
41
1
10
69.220463963331
20
4.69013610118012
30
0
41
1
10
69.3215249795099
20
4.86278035895299
30
0
41
1
10
69.384529625006
20
4.97042377061766
30
0
41
1
10
69.4475289153078
20
5.07806653312622
30
0
0
SPLINE
5
160
100
AcDbEntity
8
1
62
256
6
ByLayer
370
18
48
1
60
0
100
AcDbSpline
70
4
71
3
72
32
73
28
40
0
40
0
40
0
40
0
40
0.124999999999973
40
0.124999999999973
40
0.187499999999998
40
0.187499999999998
40
0.250000000000023
40
0.312500000000048
40
0.312500000000048
40
0.375000000000072
40
0.375000000000072
40
0.437500000000097
40
0.437500000000097
40
0.500000000000122
40
0.500000000000122
40
0.625000000000172
40
0.625000000000172
40
0.687500000000143
40
0.687500000000143
40
0.750000000000115
40
0.750000000000115
40
0.812500000000086
40
0.812500000000086
40
0.875000000000057
40
0.937500000000029
40
0.937500000000029
40
1
40
1
40
1
40
1
41
1
10
68.7172937051884
20
4.36516725664512
30
0
41
1
10
68.7251361832207
20
4.35144724433266
30
0
41
1
10
68.7346072061536
20
4.3390312929827
30
0
41
1
10
68.7512092815333
20
4.3223258633175
30
0
41
1
10
68.7571937869584
20
4.31705128814158
30
0
41
1
10
68.7696766590916
20
4.30744312329503
30
0
41
1
10
68.7827097254199
20
4.29871898396277
30
0
41
1
10
68.7968266526661
20
4.29173648994279
30
0
41
1
10
68.8115058131757
20
4.28565751827395
30
0
41
1
10
68.8190349729332
20
4.28311325237834
30
0
41
1
10
68.8342447559547
20
4.27905873856835
30
0
41
1
10
68.8419590746608
20
4.27753434589241
30
0
41
1
10
68.8576076198149
20
4.27549617072629
30
0
41
1
10
68.8656027328959
20
4.27498495937368
30
0
41
1
10
68.8893879192199
20
4.2750385283131
30
0
41
1
10
68.9049832218731
20
4.27712224893907
30
0
41
1
10
68.927984114992
20
4.28331833970242
30
0
41
1
10
68.9355284419046
20
4.28589444165976
30
0
41
1
10
68.9500631861258
20
4.29193166898793
30
0
41
1
10
68.9571023069216
20
4.29540519470027
30
0
41
1
10
68.9707257135195
20
4.30325867515498
30
0
41
1
10
68.9773527557667
20
4.30767289342904
30
0
41
1
10
68.9899069763501
20
4.31727428695709
30
0
41
1
10
69.0017200194092
20
4.32759584915019
30
0
41
1
10
69.0120965605481
20
4.3393130609451
30
0
41
1
10
69.0217406764147
20
4.3517418146742
30
0
41
1
10
69.026191433822
20
4.35831538172067
30
0
41
1
10
69.0301843186348
20
4.36513482101986
30
0
0
SPLINE
5
161
100
AcDbEntity
8
1
62
256
6
ByLayer
370
18
48
1
60
0
100
AcDbSpline
70
4
71
3
72
10
73
6
40
0
40
0
40
0
40
0
40
0.5
40
0.5
40
1
40
1
40
1
40
1
41
1
10
68.3085575075362
20
5.07804122955633
30
0
41
1
10
68.3768158538584
20
4.95930965028427
30
0
41
1
10
68.4450170897733
20
4.84054234366795
30
0
41
1
10
68.5812742619946
20
4.60292326336446
30
0
41
1
10
68.6493222372828
20
4.48407984686401
30
0
41
1
10
68.7172937051884
20
4.36516725664512
30
0
0
SPLINE
5
162
100
AcDbEntity
8
1
62
256
6
ByLayer
370
18
48
1
60
0
100
AcDbSpline
70
4
71
3
72
12
73
8
40
0
40
0
40
0
40
0
40
0.273669117110694
40
0.273669117110694
40
0.547338190723219
40
0.547338190723219
40
1
40
1
40
1
40
1
41
1
10
67.7802349720016
20
4.36541536541029
30
0
41
1
10
67.818287014965
20
4.43042640263002
30
0
41
1
10
67.8563344257457
20
4.4954295318625
30
0
41
1
10
67.9324257310786
20
4.62544153447422
30
0
41
1
10
67.9704693443833
20
4.69044932294423
30
0
41
1
10
68.0714335453602
20
4.86298460416569
30
0
41
1
10
68.1343504275263
20
4.97051206457994
30
0
41
1
10
68.1972624424589
20
5.07803875047847
30
0
0
SPLINE
5
163
100
AcDbEntity
8
1
62
256
6
ByLayer
370
18
48
1
60
0
100
AcDbSpline
70
4
71
3
72
32
73
28
40
0
40
0
40
0
40
0
40
0.124999999999945
40
0.124999999999945
40
0.187499999999917
40
0.187499999999917
40
0.249999999999889
40
0.312499999999862
40
0.312499999999862
40
0.374999999999834
40
0.374999999999834
40
0.437499999999806
40
0.437499999999806
40
0.499999999999778
40
0.499999999999778
40
0.624999999999832
40
0.624999999999832
40
0.68749999999986
40
0.68749999999986
40
0.749999999999888
40
0.749999999999888
40
0.812499999999916
40
0.812499999999916
40
0.874999999999944
40
0.937499999999972
40
0.937499999999972
40
1
40
1
40
1
40
1
41
1
10
67.4673461360034
20
4.36538614667188
30
0
41
1
10
67.4751886253625
20
4.35166511730196
30
0
41
1
10
67.4846598467641
20
4.33924822518716
30
0
41
1
10
67.5012630100362
20
4.32254188632001
30
0
41
1
10
67.5072479893656
20
4.31726712947261
30
0
41
1
10
67.5197317955912
20
4.30765907179173
30
0
41
1
10
67.5327659993461
20
4.29893532116492
30
0
41
1
10
67.5468845515073
20
4.29195390158571
30
0
41
1
10
67.5615656416052
20
4.28587643924649
30
0
41
1
10
67.569095260964
20
4.28333336632221
30
0
41
1
10
67.5843064637529
20
4.27928143773039
30
0
41
1
10
67.5920215341745
20
4.2777585351603
30
0
41
1
10
67.6076716769728
20
4.27572378158297
30
0
41
1
10
67.6156676513417
20
4.2752145502686
30
0
41
1
10
67.6394533277764
20
4.2752744981949
30
0
41
1
10
67.6550489385556
20
4.27736291384585
30
0
41
1
10
67.6780502429679
20
4.28356689760068
30
0
41
1
10
67.6855933639146
20
4.28614531399413
30
0
41
1
10
67.7001266272837
20
4.29218729898921
30
0
41
1
10
67.7071650618364
20
4.29566320059479
30
0
41
1
10
67.7207871822696
20
4.30352147386807
30
0
41
1
10
67.7274138028416
20
4.30793831195004
30
0
41
1
10
67.7399651662922
20
4.31754314942759
30
0
41
1
10
67.7517758039602
20
4.32786798773662
30
0
41
1
10
67.7621505331596
20
4.33958843340221
30
0
41
1
10
67.7717931517138
20
4.35202039163229
30
0
41
1
10
67.7762428937548
20
4.35859499185682
30
0
41
1
10
67.7802349720016
20
4.36541536541029
30
0
0
SPLINE
5
164
100
AcDbEntity
8
1
62
256
6
ByLayer
370
18
48
1
60
0
100
AcDbSpline
70
4
71
3
72
10
73
6
40
0
40
0
40
0
40
0
40
0.5
40
0.5
40
1
40
1
40
1
40
1
41
1
10
67.058781251317
20
5.07801332453227
30
0
41
1
10
67.1270108215154
20
4.95932259748568
30
0
41
1
10
67.1951832904164
20
4.84059632374561
30
0
41
1
10
67.3313836177669
20
4.60305912844154
30
0
41
1
10
67.3994039508262
20
4.48425614771264
30
0
41
1
10
67.4673461360034
20
4.36538614667188
30
0
0
SPLINE
5
165
100
AcDbEntity
8
1
62
256
6
ByLayer
370
18
48
1
60
0
100
AcDbSpline
70
4
71
3
72
12
73
8
40
0
40
0
40
0
40
0
40
0.273496439317673
40
0.273496439317673
40
0.546992844163206
40
0.546992844163206
40
1
40
1
40
1
40
1
41
1
10
66.5302786447863
20
4.36495693293216
30
0
41
1
10
66.5683372317509
20
4.4299648428198
30
0
41
1
10
66.6063910551287
20
4.49496574410608
30
0
41
1
10
66.6824947250636
20
4.62497412297182
30
0
41
1
10
66.7205442260949
20
4.68998020912287
30
0
41
1
10
66.8216111231205
20
4.86266118028823
30
0
41
1
10
66.8846243322515
20
4.9703361652935
30
0
41
1
10
66.9476321031958
20
5.07801083574046
30
0
0
SPLINE
5
166
100
AcDbEntity
8
1
62
256
6
ByLayer
370
18
48
1
60
0
100
AcDbSpline
70
4
71
3
72
32
73
28
40
0
40
0
40
0
40
0
40
0.124999999999996
40
0.124999999999996
40
0.187499999999997
40
0.187499999999997
40
0.249999999999998
40
0.312499999999998
40
0.312499999999998
40
0.374999999999999
40
0.374999999999999
40
0.4375
40
0.4375
40
0.5
40
0.5
40
0.625000000000001
40
0.625000000000001
40
0.687500000000001
40
0.687500000000001
40
0.750000000000001
40
0.750000000000001
40
0.812500000000001
40
0.812500000000001
40
0.875
40
0.9375
40
0.9375
40
1
40
1
40
1
40
1
41
1
10
66.2173853573054
20
4.36496558608414
30
0
41
1
10
66.2252283037458
20
4.35124530030237
30
0
41
1
10
66.2346998524673
20
4.33882926792481
30
0
41
1
10
66.2513028840917
20
4.32212402249542
30
0
41
1
10
66.2572877304472
20
4.31684957403658
30
0
41
1
10
66.2697712417836
20
4.30724183062802
30
0
41
1
10
66.2828049217809
20
4.29851814144476
30
0
41
1
10
66.2969226348132
20
4.29153649516994
30
0
41
1
10
66.3116025773057
20
4.28545841997678
30
0
41
1
10
66.319131951183
20
4.28291473148875
30
0
41
1
10
66.3343422857547
20
4.27886140362443
30
0
41
1
10
66.342056876163
20
4.27733765153846
30
0
41
1
10
66.357705958817
20
4.27530085963861
30
0
41
1
10
66.3657013400424
20
4.27479040589887
30
0
41
1
10
66.389486706007
20
4.27484631467169
30
0
41
1
10
66.4050820823301
20
4.27693164773569
30
0
41
1
10
66.4280830128251
20
4.28313028171141
30
0
41
1
10
66.4356269948316
20
4.28570713169606
30
0
41
1
10
66.4501612891576
20
4.29174585661278
30
0
41
1
10
66.45720019641
20
4.29522011512182
30
0
41
1
10
66.4708231929183
20
4.30307504791756
30
0
41
1
10
66.4774500806812
20
4.30749003487105
30
0
41
1
10
66.4900035104558
20
4.31709251879121
30
0
41
1
10
66.5018159047218
20
4.32741509043316
30
0
41
1
10
66.5121918847482
20
4.33913335361262
30
0
41
1
10
66.5218355368251
20
4.35156313657902
30
0
41
1
10
66.5262860064619
20
4.35813710347674
30
0
41
1
10
66.5302786447863
20
4.36495693293216
30
0
0
SPLINE
5
167
100
AcDbEntity
8
1
62
256
6
ByLayer
370
18
48
1
60
0
100
AcDbSpline
70
4
71
3
72
10
73
6
40
0
40
0
40
0
40
0
40
0.5
40
0.5
40
1
40
1
40
1
40
1
41
1
10
65.8642601357885
20
4.98106027326267
30
0
41
1
10
65.9232188908125
20
4.87843955040441
30
0
41
1
10
65.9821330856425
20
4.77579054156462
30
0
41
1
10
66.0998493300028
20
4.57042938750593
30
0
41
1
10
66.1586463051851
20
4.46772245019872
30
0
41
1
10
66.2173853573054
20
4.36496558608414
30
0
0
SPLINE
5
168
100
AcDbEntity
8
1
62
256
6
ByLayer
370
18
48
1
60
0
100
AcDbSpline
70
4
71
3
72
8
73
4
40
0
40
0
40
0
40
0
40
1
40
1
40
1
40
1
41
1
10
65.6206743587704
20
4.9469518708276
30
0
41
1
10
65.70186953361
20
4.95832200652228
30
0
41
1
10
65.7830647931243
20
4.96969146977503
30
0
41
1
10
65.8642601357885
20
4.98106027326267
30
0
0
SPLINE
5
169
100
AcDbEntity
8
1
62
256
6
ByLayer
370
18
48
1
60
0
100
AcDbSpline
70
4
71
3
72
12
73
8
40
0
40
0
40
0
40
0
40
0.335366879486279
40
0.335366879486279
40
0.670733726834015
40
0.670733726834015
40
1
40
1
40
1
40
1
41
1
10
65.2803332441717
20
4.36541790086926
30
0
41
1
10
65.3183879219257
20
4.43042862638299
30
0
41
1
10
65.3564381733497
20
4.49543308079998
30
0
41
1
10
65.4325349728869
20
4.62544880111943
30
0
41
1
10
65.4705811289837
20
4.69045844185237
30
0
41
1
10
65.5459769562855
20
4.81929621992779
30
0
41
1
10
65.5833266791068
20
4.88312419179579
30
0
41
1
10
65.6206743587647
20
4.94695187083082
30
0
0
SPLINE
5
16A
100
AcDbEntity
8
1
62
256
6
ByLayer
370
18
48
1
60
0
100
AcDbSpline
70
4
71
3
72
32
73
28
40
0
40
0
40
0
40
0
40
0.125000000000027
40
0.125000000000027
40
0.187500000000079
40
0.187500000000079
40
0.250000000000131
40
0.312500000000183
40
0.312500000000183
40
0.375000000000235
40
0.375000000000235
40
0.437500000000286
40
0.437500000000286
40
0.500000000000338
40
0.500000000000338
40
0.625000000000333
40
0.625000000000333
40
0.687500000000277
40
0.687500000000277
40
0.750000000000222
40
0.750000000000222
40
0.812500000000166
40
0.812500000000166
40
0.875000000000111
40
0.937500000000056
40
0.937500000000056
40
1
40
1
40
1
40
1
41
1
10
64.9674460761152
20
4.36539701441333
30
0
41
1
10
64.9752892158944
20
4.35167678189094
30
0
41
1
10
64.9847609912142
20
4.33926090647836
30
0
41
1
10
65.0013645657568
20
4.3225561497253
30
0
41
1
10
65.0073496174721
20
4.31728192496544
30
0
41
1
10
65.0198334881311
20
4.30767481138994
30
0
41
1
10
65.0328676182289
20
4.29895194154346
30
0
41
1
10
65.0469857848271
20
4.29197119747718
30
0
41
1
10
65.0616663049453
20
4.28589426006232
30
0
41
1
10
65.0691957342204
20
4.28335130391966
30
0
41
1
10
65.0844063583417
20
4.2792994709161
30
0
41
1
10
65.0921210937726
20
4.27777652408631
30
0
41
1
10
65.1077704703765
20
4.27574147248723
30
0
41
1
10
65.1157660028342
20
4.27523197387396
30
0
41
1
10
65.1395509759774
20
4.27529083425992
30
0
41
1
10
65.1551460571937
20
4.27737819920901
30
0
41
1
10
65.1781464878695
20
4.28358004182607
30
0
41
1
10
65.1856897971244
20
4.28615781531457
30
0
41
1
10
65.2002231080431
20
4.29219838501086
30
0
41
1
10
65.2072615476853
20
4.29567353974468
30
0
41
1
10
65.2208836486004
20
4.30353023323252
30
0
41
1
10
65.2275101697675
20
4.30794615612243
30
0
41
1
10
65.2400621691574
20
4.31754983233137
30
0
41
1
10
65.2518733045492
20
4.32787351224047
30
0
41
1
10
65.2622483012324
20
4.33959278446031
30
0
41
1
10
65.2718910833562
20
4.35202355623886
30
0
41
1
10
65.2763410395249
20
4.35859781630126
30
0
41
1
10
65.2803332441717
20
4.36541790086926
30
0
0
SPLINE
5
16B
100
AcDbEntity
8
1
62
256
6
ByLayer
370
18
48
1
60
0
100
AcDbSpline
70
4
71
3
72
10
73
6
40
0
40
0
40
0
40
0
40
0.5
40
0.5
40
1
40
1
40
1
40
1
41
1
10
64.707582668494
20
4.81905787205113
30
0
41
1
10
64.7509543201916
20
4.74348269532007
30
0
41
1
10
64.7942988879075
20
4.66789114157226
30
0
41
1
10
64.880922725033
20
4.51667320228185
30
0
41
1
10
64.9241998079183
20
4.44104896912748
30
0
41
1
10
64.9674460761152
20
4.36539701441333
30
0
0
SPLINE
5
16C
100
AcDbEntity
8
1
62
256
6
ByLayer
370
18
48
1
60
0
100
AcDbSpline
70
4
71
3
72
8
73
4
40
0
40
0
40
0
40
0
40
1
40
1
40
1
40
1
41
1
10
64.2592154395122
20
4.75623402389985
30
0
41
1
10
64.4086708585322
20
4.77717780617877
30
0
41
1
10
64.558126607954
20
4.79811906083742
30
0
41
1
10
64.707582668494
20
4.81905787205113
30
0
0
SPLINE
5
16D
100
AcDbEntity
8
1
62
256
6
ByLayer
370
18
48
1
60
0
100
AcDbSpline
70
4
71
3
72
12
73
8
40
0
40
0
40
0
40
0
40
0.49878212704086
40
0.49878212704086
40
0.997564217798619
40
0.997564217798619
40
1
40
1
40
1
40
1
41
1
10
64.0303781000388
20
4.36521514648715
30
0
41
1
10
64.0684308179328
20
4.43022771533538
30
0
41
1
10
64.1064791738314
20
4.4952348670158
30
0
41
1
10
64.1825720891819
20
4.62525620160031
30
0
41
1
10
64.220616228587
20
4.69026863117071
30
0
41
1
10
64.2588438876732
20
4.75559904783958
30
0
41
1
10
64.2590296636196
20
4.75591653586389
30
0
41
1
10
64.2592154395122
20
4.75623402389985
30
0
0
SPLINE
5
16E
100
AcDbEntity
8
1
62
256
6
ByLayer
370
18
48
1
60
0
100
AcDbSpline
70
4
71
3
72
32
73
28
40
0
40
0
40
0
40
0
40
0.12499999999994
40
0.12499999999994
40
0.187499999999913
40
0.187499999999913
40
0.249999999999886
40
0.312499999999858
40
0.312499999999858
40
0.374999999999831
40
0.374999999999831
40
0.437499999999804
40
0.437499999999804
40
0.499999999999776
40
0.499999999999776
40
0.624999999999831
40
0.624999999999831
40
0.687499999999859
40
0.687499999999859
40
0.749999999999887
40
0.749999999999887
40
0.812499999999916
40
0.812499999999916
40
0.874999999999944
40
0.937499999999972
40
0.937499999999972
40
1
40
1
40
1
40
1
41
1
10
63.7174893790941
20
4.36519235787324
30
0
41
1
10
63.7253325637224
20
4.35147166538721
30
0
41
1
10
63.7348043375837
20
4.33905531276005
30
0
41
1
10
63.751407902887
20
4.32234984245423
30
0
41
1
10
63.7573929553059
20
4.31707537273843
30
0
41
1
10
63.7698768659643
20
4.30746777075424
30
0
41
1
10
63.7829109968722
20
4.29874435027489
30
0
41
1
10
63.7970293068312
20
4.29176327844627
30
0
41
1
10
63.8117099474359
20
4.2856859695579
30
0
41
1
10
63.8192395223541
20
4.28314282624447
30
0
41
1
10
63.8344503796101
20
4.27909072097688
30
0
41
1
10
63.8421652349305
20
4.27756767395326
30
0
41
1
10
63.8578148593044
20
4.2755324983458
30
0
41
1
10
63.8658105269674
20
4.27502297449993
30
0
41
1
10
63.8895959923871
20
4.27508189757378
30
0
41
1
10
63.9051913389962
20
4.27716948546788
30
0
41
1
10
63.928192078235
20
4.28337190460266
30
0
41
1
10
63.935735469419
20
4.28594990946317
30
0
41
1
10
63.9502688914627
20
4.29199099592819
30
0
41
1
10
63.9573073632509
20
4.29546643789595
30
0
41
1
10
63.9709294870436
20
4.30332375625448
30
0
41
1
10
63.9775560080803
20
4.30774002899111
30
0
41
1
10
63.990107861996
20
4.31734434565178
30
0
41
1
10
64.0019187953558
20
4.32766872436258
30
0
41
1
10
64.0122936344755
20
4.33938866617302
30
0
41
1
10
64.0219362137926
20
4.3518201624963
30
0
41
1
10
64.0263860280954
20
4.35839474399214
30
0
41
1
10
64.0303781000388
20
4.36521514648715
30
0
0
SPLINE
5
16F
100
AcDbEntity
8
1
62
256
6
ByLayer
370
18
48
1
60
0
100
AcDbSpline
70
4
71
3
72
8
73
4
40
0
40
0
40
0
40
0
40
1
40
1
40
1
40
1
41
1
10
63.5505145799011
20
4.65690129072271
30
0
41
1
10
63.6062271445728
20
4.55969542420519
30
0
41
1
10
63.6618851663056
20
4.46246512917114
30
0
41
1
10
63.7174893790941
20
4.36519235787324
30
0
0
SPLINE
5
170
100
AcDbEntity
8
1
62
256
6
ByLayer
370
18
48
1
60
0
100
AcDbSpline
70
4
71
3
72
8
73
4
40
0
40
0
40
0
40
0
40
1
40
1
40
1
40
1
41
1
10
62.8974359861891
20
4.56532853031757
30
0
41
1
10
63.1151280482386
20
4.59585867215469
30
0
41
1
10
63.3328209330568
20
4.62638281812775
30
0
41
1
10
63.5505145799011
20
4.65690129072271
30
0
0
SPLINE
5
171
100
AcDbEntity
8
1
62
256
6
ByLayer
370
18
48
1
60
0
100
AcDbSpline
70
4
71
3
72
10
73
6
40
0
40
0
40
0
40
0
40
0.975621990273863
40
0.975621990273863
40
1
40
1
40
1
40
1
41
1
10
62.7804302715496
20
4.36542408315518
30
0
41
1
10
62.8184848325276
20
4.43043636231207
30
0
41
1
10
62.8565352720564
20
4.49544402301959
30
0
41
1
10
62.8955345413845
20
4.5620796397308
30
0
41
1
10
62.8964852645054
20
4.56370408450684
30
0
41
1
10
62.8974359861788
20
4.56532853032343
30
0
0
SPLINE
5
172
100
AcDbEntity
8
1
62
256
6
ByLayer
370
18
48
1
60
0
100
AcDbSpline
70
4
71
3
72
32
73
28
40
0
40
0
40
0
40
0
40
0.125000000000071
40
0.125000000000071
40
0.187500000000065
40
0.187500000000065
40
0.25000000000006
40
0.312500000000055
40
0.312500000000055
40
0.375000000000049
40
0.375000000000049
40
0.437500000000044
40
0.437500000000044
40
0.500000000000038
40
0.500000000000038
40
0.625000000000027
40
0.625000000000027
40
0.687500000000023
40
0.687500000000023
40
0.750000000000018
40
0.750000000000018
40
0.812500000000014
40
0.812500000000014
40
0.875000000000009
40
0.937500000000005
40
0.937500000000005
40
1
40
1
40
1
40
1
41
1
10
62.4675465954609
20
4.36539160921345
30
0
41
1
10
62.4753903471292
20
4.35167189602879
30
0
41
1
10
62.4848627067344
20
4.33925678289992
30
0
41
1
10
62.5014669983742
20
4.32255338864312
30
0
41
1
10
62.5074522597571
20
4.31727966371986
30
0
41
1
10
62.519936456437
20
4.30767358613352
30
0
41
1
10
62.532970838868
20
4.29895177842369
30
0
41
1
10
62.5470890982675
20
4.29197210907125
30
0
41
1
10
62.5617696212251
20
4.28589623387728
30
0
41
1
10
62.5692989609146
20
4.28335381026827
30
0
41
1
10
62.5845093868102
20
4.27930295284531
30
0
41
1
10
62.5922239908996
20
4.27778046161745
30
0
41
1
10
62.6078730388129
20
4.27574624700216
30
0
41
1
10
62.6158683663302
20
4.27523713262025
30
0
41
1
10
62.6396526369762
20
4.27529698632816
30
0
41
1
10
62.6552471977332
20
4.27738480947159
30
0
41
1
10
62.6782467718984
20
4.28358702867561
30
0
41
1
10
62.6857898332414
20
4.28616488864196
30
0
41
1
10
62.7003226404277
20
4.29220553979747
30
0
41
1
10
62.7073608322158
20
4.29568069209159
30
0
41
1
10
62.7209824448161
20
4.30353730271617
30
0
41
1
10
62.7276087070454
20
4.3079531274098
30
0
41
1
10
62.7401603851031
20
4.31755669385481
30
0
41
1
10
62.7519712039305
20
4.32788022009936
30
0
41
1
10
62.7623458850473
20
4.33959927711282
30
0
41
1
10
62.7719883452451
20
4.35202981657542
30
0
41
1
10
62.7764381922824
20
4.35860402886814
30
0
41
1
10
62.7804302715496
20
4.36542408315518
30
0
0
SPLINE
5
173
100
AcDbEntity
8
1
62
256
6
ByLayer
370
18
48
1
60
0
100
AcDbSpline
70
4
71
3
72
8
73
4
40
0
40
0
40
0
40
0
40
1
40
1
40
1
40
1
41
1
10
62.3935988494696
20
4.49465699836574
30
0
41
1
10
62.4182590251702
20
4.45157544327157
30
0
41
1
10
62.4429077921394
20
4.40848799077699
30
0
41
1
10
62.4675465954609
20
4.36539160921345
30
0
0
SPLINE
5
174
100
AcDbEntity
8
1
62
256
6
ByLayer
370
18
48
1
60
0
100
AcDbSpline
70
4
71
3
72
8
73
4
40
0
40
0
40
0
40
0
40
1
40
1
40
1
40
1
41
1
10
61.5357449384931
20
4.37427544128067
30
0
41
1
10
61.8216948630956
20
4.41441414349939
30
0
41
1
10
62.1076461020701
20
4.45454098916861
30
0
41
1
10
62.3935988494696
20
4.49465699836574
30
0
0
SPLINE
5
175
100
AcDbEntity
8
1
62
256
6
ByLayer
370
18
48
1
60
0
100
AcDbSpline
70
4
71
3
72
8
73
4
40
0
40
0
40
0
40
0
40
1
40
1
40
1
40
1
41
1
10
61.5304820657123
20
4.36528605864956
30
0
41
1
10
61.5322363653824
20
4.36828252960359
30
0
41
1
10
61.533990656209
20
4.37127899011267
30
0
41
1
10
61.5357449384927
20
4.37427544128127
30
0
0
SPLINE
5
176
100
AcDbEntity
8
1
62
256
6
ByLayer
370
18
48
1
60
0
100
AcDbSpline
70
4
71
3
72
29
73
25
40
0
40
0
40
0
40
0
40
0.124999999999951
40
0.124999999999951
40
0.187499999999925
40
0.187499999999925
40
0.249999999999898
40
0.249999999999898
40
0.374999999999845
40
0.374999999999845
40
0.437499999999818
40
0.437499999999818
40
0.499999999999791
40
0.562499999999764
40
0.562499999999764
40
0.624999999999737
40
0.624999999999737
40
0.749999999999796
40
0.749999999999796
40
0.812499999999827
40
0.812499999999827
40
0.874999999999858
40
0.874999999999858
40
1
40
1
40
1
40
1
41
1
10
61.24127012314
20
4.33293581442499
30
0
41
1
10
61.2507382721826
20
4.32265597047996
30
0
41
1
10
61.2616057310141
20
4.31334155305626
30
0
41
1
10
61.2790591164497
20
4.30164470758334
30
0
41
1
10
61.2850934364839
20
4.29809382106828
30
0
41
1
10
61.2975981761531
20
4.29169311164208
30
0
41
1
10
61.3041047853719
20
4.28883031126324
30
0
41
1
10
61.324053589231
20
4.28143768620035
30
0
41
1
10
61.3377083666943
20
4.27814425565154
30
0
41
1
10
61.3587125607826
20
4.2756046181496
30
0
41
1
10
61.3658503967413
20
4.27516392657284
30
0
41
1
10
61.3800206213732
20
4.27512698689992
30
0
41
1
10
61.3940848519207
20
4.27591952968169
30
0
41
1
10
61.4079428113299
20
4.27832628526895
30
0
41
1
10
61.4216962170475
20
4.28155122714253
30
0
41
1
10
61.4285540291046
20
4.28358900916572
30
0
41
1
10
61.4484676154984
20
4.29079453496527
30
0
41
1
10
61.4610118604339
20
4.29705583881844
30
0
41
1
10
61.4787347544851
20
4.30862654461197
30
0
41
1
10
61.484460422254
20
4.31286046286144
30
0
41
1
10
61.4952491755217
20
4.32184661563014
30
0
41
1
10
61.5003522918958
20
4.32662266274863
30
0
41
1
10
61.5148015716712
20
4.34178635191364
30
0
41
1
10
61.5233504182976
20
4.35310468810215
30
0
41
1
10
61.5304820657123
20
4.36528605864956
30
0
0
SPLINE
5
177
100
AcDbEntity
8
1
62
256
6
ByLayer
370
18
48
1
60
0
100
AcDbSpline
70
4
71
3
72
14
73
10
40
0
40
0
40
0
40
0
40
0.499999999999991
40
0.499999999999991
40
0.624999999999993
40
0.624999999999993
40
0.749999999999995
40
0.749999999999995
40
1
40
1
40
1
40
1
41
1
10
57
20
3.73671873531603
30
0
41
1
10
57.7069770342939
20
3.83613397976987
30
0
41
1
10
58.4139198880174
20
3.93558863320004
30
0
41
1
10
59.2974838292383
20
4.05983352029511
30
0
41
1
10
59.4741914720338
20
4.08467812472077
30
0
41
1
10
59.8276058724756
20
4.13435665267718
30
0
41
1
10
60.004312916168
20
4.15919076361777
30
0
41
1
10
60.5344354881981
20
4.23367810163339
30
0
41
1
10
60.8878518515746
20
4.28331626480889
30
0
41
1
10
61.2412701231401
20
4.33293581442695
30
0
0
SPLINE
5
178
100
AcDbEntity
8
1
62
256
6
ByLayer
370
18
48
1
60
0
100
AcDbSpline
70
4
71
3
72
8
73
4
40
0
40
0
40
0
40
0
40
1
40
1
40
1
40
1
41
1
10
56.6359814996787
20
3.52651405092001
30
0
41
1
10
56.7573436624548
20
3.5965655966973
30
0
41
1
10
56.8786818225994
20
3.66663607774424
30
0
41
1
10
57
20
3.73671873531603
30
0
0
SPLINE
5
179
100
AcDbEntity
8
1
62
256
6
ByLayer
370
18
48
1
60
0
100
AcDbSpline
70
4
71
3
72
12
73
8
40
0
40
0
40
0
40
0
40
0.500000000000002
40
0.500000000000002
40
0.750000000000001
40
0.750000000000001
40
1
40
1
40
1
40
1
41
1
10
56.5359814996787
20
3.49972666936151
30
0
41
1
10
56.5535609229244
20
3.49972680175841
30
0
41
1
10
56.5707522233565
20
3.50200434551093
30
0
41
1
10
56.595974347868
20
3.50873557246538
30
0
41
1
10
56.6043299987621
20
3.51156049204087
30
0
41
1
10
56.6205158465315
20
3.51825321305884
30
0
41
1
10
56.6283695619105
20
3.52212035856095
30
0
41
1
10
56.6359814996794
20
3.52651405091834
30
0
0
SPLINE
5
17A
100
AcDbEntity
8
1
62
256
6
ByLayer
370
18
48
1
60
0
100
AcDbSpline
70
4
71
3
72
10
73
6
40
0
40
0
40
0
40
0
40
0.496659612825051
40
0.496659612825051
40
1
40
1
40
1
40
1
41
1
10
53.5704359055161
20
3.49970508285838
30
0
41
1
10
54.0613914896438
20
3.49970852523589
30
0
41
1
10
54.5523470697122
20
3.49971203648661
30
0
41
1
10
55.5408622680037
20
3.49971923404041
30
0
41
1
10
56.0384218862295
20
3.49972292206346
30
0
41
1
10
56.5359814996787
20
3.49972666936173
30
0
0
SPLINE
5
17B
100
AcDbEntity
8
1
62
256
6
ByLayer
370
18
48
1
60
0
100
AcDbSpline
70
4
71
3
72
16
73
12
40
0
40
0
40
0
40
0
40
0.057524196270258
40
0.129079502782105
40
0.272190115805798
40
0.415300728829491
40
0.558411341853184
40
0.701521954876878
40
0.844632567900571
40
0.987743180924264
40
1
40
1
40
1
40
1
41
1
10
53.5704337433033
20
0.630112828378373
30
0
41
1
10
53.5704337303425
20
0.618906502642147
30
0
41
1
10
53.5704337077829
20
0.60174168107298
30
0
41
1
10
53.5704336898998
20
0.603363533640447
30
0
41
1
10
53.5704337420062
20
0.700826390988453
30
0
41
1
10
53.5704339497796
20
0.997116786026567
30
0
41
1
10
53.5704343038676
20
1.4700230557813
30
0
41
1
10
53.570434776123
20
2.08102290943307
30
0
41
1
10
53.5704353154849
20
2.76482213650755
30
0
41
1
10
53.5704356986327
20
3.24316947796953
30
0
41
1
10
53.5704358904296
20
3.48100735933474
30
0
41
1
10
53.5704359055161
20
3.49970508315806
30
0
0
SPLINE
5
17C
100
AcDbEntity
8
1
62
256
6
ByLayer
370
18
48
1
60
0
100
AcDbSpline
70
4
71
3
72
8
73
4
40
0
40
0
40
0
40
0
40
1
40
1
40
1
40
1
41
1
10
61.4885524454633
20
0.838083804112898
30
0
41
1
10
59.9923679904358
20
0.794808390899163
30
0
41
1
10
58.4961838352496
20
0.751591004447931
30
0
41
1
10
56.9999999999999
20
0.708496317673792
30
0
0
SPLINE
5
17D
100
AcDbEntity
8
1
62
256
6
ByLayer
370
18
48
1
60
0
100
AcDbSpline
70
4
71
3
72
8
73
4
40
0
40
0
40
0
40
0
40
1
40
1
40
1
40
1
41
1
10
61.4901197120001
20
0.837676872979216
30
0
41
1
10
61.4895972904801
20
0.837812513238987
30
0
41
1
10
61.4890748683006
20
0.837948156951995
30
0
41
1
10
61.4885524454633
20
0.838083804112898
30
0
0
SPLINE
5
17E
100
AcDbEntity
8
1
62
256
6
ByLayer
370
18
48
1
60
0
100
AcDbSpline
70
4
71
3
72
32
73
28
40
0
40
0
40
0
40
0
40
0.124999999999986
40
0.124999999999986
40
0.187499999999978
40
0.187499999999978
40
0.249999999999971
40
0.312499999999964
40
0.312499999999964
40
0.374999999999957
40
0.374999999999957
40
0.43749999999995
40
0.43749999999995
40
0.499999999999942
40
0.499999999999942
40
0.625000000000038
40
0.625000000000038
40
0.687500000000031
40
0.687500000000031
40
0.750000000000025
40
0.750000000000025
40
0.812500000000019
40
0.812500000000019
40
0.875000000000013
40
0.937500000000006
40
0.937500000000006
40
1
40
1
40
1
40
1
41
1
10
61.8029132213424
20
0.839966525456191
30
0
41
1
10
61.7949428338026
20
0.837793056711121
30
0
41
1
10
61.7853638980849
20
0.83581393354666
30
0
41
1
10
61.7686552771926
20
0.833127436151585
30
0
41
1
10
61.7626436864522
20
0.832274453663075
30
0
41
1
10
61.7501161421629
20
0.830708717661764
30
0
41
1
10
61.737056747147
20
0.829275469706005
30
0
41
1
10
61.7229537752113
20
0.828102010516091
30
0
41
1
10
61.7083118660493
20
0.827062638734532
30
0
41
1
10
61.700787448508
20
0.826615744472747
30
0
41
1
10
61.6856155485665
20
0.825879894312521
30
0
41
1
10
61.677927009101
20
0.825587949056541
30
0
41
1
10
61.6623442028524
20
0.825156393707061
30
0
41
1
10
61.6543938227978
20
0.825016557047491
30
0
41
1
10
61.6306551906811
20
0.824840173284827
30
0
41
1
10
61.6151081603114
20
0.82503835044696
30
0
41
1
10
61.5922044577648
20
0.825808071296649
30
0
41
1
10
61.5846440456361
20
0.826145901466276
30
0
41
1
10
61.5701091261361
20
0.826962367408555
30
0
41
1
10
61.5630760473472
20
0.827442603338113
30
0
41
1
10
61.5494759762125
20
0.828546344780051
30
0
41
1
10
61.5428861705468
20
0.829172376032346
30
0
41
1
10
61.53029281086
20
0.830563483061354
30
0
41
1
10
61.5184656741385
20
0.832072215485312
30
0
41
1
10
61.5081173611205
20
0.833808161951737
30
0
41
1
10
61.4985201731195
20
0.835659610308653
30
0
41
1
10
61.4940873168085
20
0.836646733664111
30
0
41
1
10
61.4901197120001
20
0.837676872979216
30
0
0
SPLINE
5
17F
100
AcDbEntity
8
1
62
256
6
ByLayer
370
18
48
1
60
0
100
AcDbSpline
70
4
71
3
72
8
73
4
40
0
40
0
40
0
40
0
40
1
40
1
40
1
40
1
41
1
10
61.8324786015372
20
0.848032464842078
30
0
41
1
10
61.8226238278421
20
0.845342705432046
30
0
41
1
10
61.8127687054144
20
0.842654046795815
30
0
41
1
10
61.8029132213424
20
0.839966525456191
30
0
0
SPLINE
5
180
100
AcDbEntity
8
1
62
256
6
ByLayer
370
18
48
1
60
0
100
AcDbSpline
70
4
71
3
72
8
73
4
40
0
40
0
40
0
40
0
40
1
40
1
40
1
40
1
41
1
10
62.6447713454831
20
0.871536544886311
30
0
41
1
10
62.3740070875431
20
0.863700369913914
30
0
41
1
10
62.1032428395572
20
0.855865548630419
30
0
41
1
10
61.8324786015371
20
0.848032464842049
30
0
0
SPLINE
5
181
100
AcDbEntity
8
1
62
256
6
ByLayer
370
18
48
1
60
0
100
AcDbSpline
70
4
71
3
72
8
73
4
40
0
40
0
40
0
40
0
40
1
40
1
40
1
40
1
41
1
10
62.7396994326981
20
0.846872129353955
30
0
41
1
10
62.7080593092017
20
0.855081331934088
30
0
41
1
10
62.676416497543
20
0.863303195039975
30
0
41
1
10
62.6447713454831
20
0.871536544886311
30
0
0
SPLINE
5
182
100
AcDbEntity
8
1
62
256
6
ByLayer
370
18
48
1
60
0
100
AcDbSpline
70
4
71
3
72
32
73
28
40
0
40
0
40
0
40
0
40
0.125000000000004
40
0.125000000000004
40
0.187500000000004
40
0.187500000000004
40
0.250000000000004
40
0.312500000000003
40
0.312500000000003
40
0.375000000000003
40
0.375000000000003
40
0.437500000000003
40
0.437500000000003
40
0.500000000000003
40
0.500000000000003
40
0.625000000000002
40
0.625000000000002
40
0.687500000000002
40
0.687500000000002
40
0.750000000000001
40
0.750000000000001
40
0.812500000000001
40
0.812500000000001
40
0.875000000000001
40
0.9375
40
0.9375
40
1
40
1
40
1
40
1
41
1
10
63.0524848742303
20
0.849164387924276
30
0
41
1
10
63.0445147528495
20
0.846992977107021
30
0
41
1
10
63.0349366011771
20
0.845015613988664
30
0
41
1
10
63.01822962189
20
0.842331357585408
30
0
41
1
10
63.0122186311983
20
0.841479051351655
30
0
41
1
10
62.9996920195014
20
0.839914464340779
30
0
41
1
10
62.9866335782808
20
0.838482207592364
30
0
41
1
10
62.972531545723
20
0.837309443748239
30
0
41
1
10
62.9578905420594
20
0.83627062098958
30
0
41
1
10
62.9503658786133
20
0.835823884050228
30
0
41
1
10
62.9351939533215
20
0.835088255766266
30
0
41
1
10
62.9275054007078
20
0.834796358055883
30
0
41
1
10
62.9119225649172
20
0.83436477230245
30
0
41
1
10
62.9039722846935
20
0.834224854581123
30
0
41
1
10
62.8802319897964
20
0.834048043303881
30
0
41
1
10
62.8646842102033
20
0.834245740478906
30
0
41
1
10
62.8417798859385
20
0.835014410046995
30
0
41
1
10
62.8342189458547
20
0.835351850470602
30
0
41
1
10
62.8196833864851
20
0.836167451422028
30
0
41
1
10
62.8126501555515
20
0.836647207897272
30
0
41
1
10
62.7990500765607
20
0.837749885735832
30
0
41
1
10
62.7924604780712
20
0.838375323535189
30
0
41
1
10
62.7798675061943
20
0.839765167155122
30
0
41
1
10
62.7680411452238
20
0.841272553308954
30
0
41
1
10
62.7576939706099
20
0.843006935680961
30
0
41
1
10
62.7480981721466
20
0.84485671915013
30
0
41
1
10
62.7436661464462
20
0.845842943840836
30
0
41
1
10
62.7396994326981
20
0.846872129353955
30
0
0
SPLINE
5
183
100
AcDbEntity
8
1
62
256
6
ByLayer
370
18
48
1
60
0
100
AcDbSpline
70
4
71
3
72
8
73
4
40
0
40
0
40
0
40
0
40
1
40
1
40
1
40
1
41
1
10
63.1925010638113
20
0.887390091925568
30
0
41
1
10
63.1458363744703
20
0.874625224751099
30
0
41
1
10
63.0991647380467
20
0.861882031282107
30
0
41
1
10
63.0524848742303
20
0.849164387924276
30
0
0
SPLINE
5
184
100
AcDbEntity
8
1
62
256
6
ByLayer
370
18
48
1
60
0
100
AcDbSpline
70
4
71
3
72
8
73
4
40
0
40
0
40
0
40
0
40
1
40
1
40
1
40
1
41
1
10
63.8007317775138
20
0.904998254704452
30
0
41
1
10
63.5979882007052
20
0.899128360712041
30
0
41
1
10
63.3952446294697
20
0.893258919393901
30
0
41
1
10
63.1925010638113
20
0.887390091925568
30
0
0
SPLINE
5
185
100
AcDbEntity
8
1
62
256
6
ByLayer
370
18
48
1
60
0
100
AcDbSpline
70
4
71
3
72
10
73
6
40
0
40
0
40
0
40
0
40
0.603392913210133
40
0.603392913210133
40
1
40
1
40
1
40
1
41
1
10
63.9892737192166
20
0.855985629444547
30
0
41
1
10
63.9513585156685
20
0.86581530925173
30
0
41
1
10
63.9134390901753
20
0.875663166448476
30
0
41
1
10
63.8505894791016
20
0.89201075055098
30
0
41
1
10
63.8256613260447
20
0.898501299601833
30
0
41
1
10
63.8007317775138
20
0.904998254704481
30
0
0
SPLINE
5
186
100
AcDbEntity
8
1
62
256
6
ByLayer
370
18
48
1
60
0
100
AcDbSpline
70
4
71
3
72
32
73
28
40
0
40
0
40
0
40
0
40
0.125
40
0.125
40
0.1875
40
0.1875
40
0.25
40
0.3125
40
0.3125
40
0.375
40
0.375
40
0.4375
40
0.4375
40
0.5
40
0.5
40
0.625
40
0.625
40
0.6875
40
0.6875
40
0.75
40
0.75
40
0.8125
40
0.8125
40
0.875
40
0.9375
40
0.9375
40
1
40
1
40
1
40
1
41
1
10
64.3020663887683
20
0.858269514389065
30
0
41
1
10
64.2940943634487
20
0.856100395540579
30
0
41
1
10
64.2845142824611
20
0.85412516506122
30
0
41
1
10
64.2678043365577
20
0.851443879289121
30
0
41
1
10
64.2617923478444
20
0.850592533121784
30
0
41
1
10
64.2492639093867
20
0.849029756066926
30
0
41
1
10
64.2362037232877
20
0.847599184807194
30
0
41
1
10
64.2220999797403
20
0.846427892697932
30
0
41
1
10
64.2074573386576
20
0.845390417686872
30
0
41
1
10
64.1999321526301
20
0.844944305488838
30
0
41
1
10
64.1847591262871
20
0.84420975937843
30
0
41
1
10
64.1770700738125
20
0.843918329550377
30
0
41
1
10
64.1614863378213
20
0.843487534290375
30
0
41
1
10
64.153535589336
20
0.843347941581044
30
0
41
1
10
64.1297950609496
20
0.843171865346079
30
0
41
1
10
64.1142473173361
20
0.843369717359508
30
0
41
1
10
64.0913433472144
20
0.844138133714836
30
0
41
1
10
64.0837828788204
20
0.844475393569468
30
0
41
1
10
64.069248263169
20
0.845290468521426
30
0
41
1
10
64.0622155202028
20
0.845769881003179
30
0
41
1
10
64.048616461055
20
0.846871713555089
30
0
41
1
10
64.0420272326193
20
0.847496666692848
30
0
41
1
10
64.0294358349638
20
0.848885299556002
30
0
41
1
10
64.0176109219744
20
0.850391327106962
30
0
41
1
10
64.007265263158
20
0.852124112472268
30
0
41
1
10
63.9976709098431
20
0.853972162376181
30
0
41
1
10
63.9932396503063
20
0.854957444729706
30
0
41
1
10
63.9892737192166
20
0.855985629444575
30
0
0
SPLINE
5
187
100
AcDbEntity
8
1
62
256
6
ByLayer
370
18
48
1
60
0
100
AcDbSpline
70
4
71
3
72
32
73
28
40
0
40
0
40
0
40
0
40
0.125000000000035
40
0.125000000000035
40
0.187500000000055
40
0.187500000000055
40
0.250000000000075
40
0.312500000000094
40
0.312500000000094
40
0.375000000000114
40
0.375000000000114
40
0.437500000000134
40
0.437500000000134
40
0.500000000000154
40
0.500000000000154
40
0.625000000000194
40
0.625000000000194
40
0.687500000000161
40
0.687500000000161
40
0.750000000000129
40
0.750000000000129
40
0.812500000000097
40
0.812500000000097
40
0.875000000000065
40
0.937500000000032
40
0.937500000000032
40
1
40
1
40
1
40
1
41
1
10
65.5516391529127
20
0.867337915779274
30
0
41
1
10
65.5436658350035
20
0.86517108410743
30
0
41
1
10
65.5340847189387
20
0.863197931236897
30
0
41
1
10
65.5173736555813
20
0.860519448963515
30
0
41
1
10
65.511361355574
20
0.859668987147131
30
0
41
1
10
65.4988323010499
20
0.85810780732939
30
0
41
1
10
65.4857715923901
20
0.856678693860374
30
0
41
1
10
65.471667635229
20
0.855508555330033
30
0
41
1
10
65.4570248825347
20
0.854472090569828
30
0
41
1
10
65.4494994161901
20
0.854026384726041
30
0
41
1
10
65.4343261187513
20
0.853292498208646
30
0
41
1
10
65.4266369834158
20
0.853001317313328
30
0
41
1
10
65.4110531887308
20
0.852570856695138
30
0
41
1
10
65.4031025359545
20
0.852431348542297
30
0
41
1
10
65.3793613725676
20
0.852255267671694
30
0
41
1
10
65.3638134785076
20
0.852452804392954
30
0
41
1
10
65.340909675817
20
0.853220264255185
30
0
41
1
10
65.3333490073915
20
0.853557135627597
30
0
41
1
10
65.318814221786
20
0.854371302668085
30
0
41
1
10
65.3117814917389
20
0.854850191848612
30
0
41
1
10
65.2981826379184
20
0.855950835377286
30
0
41
1
10
65.2915937702282
20
0.856575100994235
30
0
41
1
10
65.2790024602734
20
0.857962308391819
30
0
41
1
10
65.2671778864437
20
0.859466796133376
30
0
41
1
10
65.2568329855649
20
0.861197811125209
30
0
41
1
10
65.2472395724817
20
0.8630439690385
30
0
41
1
10
65.2428088343145
20
0.864028249056446
30
0
41
1
10
65.2388434745724
20
0.865055394326305
30
0
0
SPLINE
5
188
100
AcDbEntity
8
1
62
256
6
ByLayer
370
18
48
1
60
0
100
AcDbSpline
70
4
71
3
72
10
73
6
40
0
40
0
40
0
40
0
40
0.199602755042316
40
0.199602755042316
40
1
40
1
40
1
40
1
41
1
10
64.552956292686
20
0.926778660226802
30
0
41
1
10
64.536267953034
20
0.922207021573882
30
0
41
1
10
64.5195788127086
20
0.917637769191685
30
0
41
1
10
64.4359627943124
20
0.894758879839713
30
0
41
1
10
64.369023207424
20
0.876487883192368
30
0
41
1
10
64.3020663887683
20
0.858269514389065
30
0
0
SPLINE
5
189
100
AcDbEntity
8
1
62
256
6
ByLayer
370
13
48
1
60
0
100
AcDbSpline
70
4
71
3
72
10
73
6
40
0
40
0
40
0
40
0
40
0.475906847969922
40
0.756715605226379
40
1
40
1
40
1
40
1
41
1
10
64.3020663887683
20
0.858269514389065
30
0
41
1
10
64.3250634302725
20
0.363505594753207
30
0
41
1
10
64.36162986801
20
-0.450836530236956
30
0
41
1
10
64.4099524408623
20
-1.48317162666933
30
0
41
1
10
64.4352779698186
20
-1.98746775223759
30
0
41
1
10
64.4470340982002
20
-2.20989895385131
30
0
0
SPLINE
5
18A
100
AcDbEntity
8
1
62
256
6
ByLayer
370
18
48
1
60
0
100
AcDbSpline
70
4
71
3
72
12
73
8
40
0
40
0
40
0
40
0
40
0.429166863999811
40
0.429166863999811
40
0.858333693890377
40
0.858333693890377
40
1
40
1
40
1
40
1
41
1
10
64.4470340982002
20
-2.20989895385139
30
0
41
1
10
64.4850911367583
20
-2.2514469824707
30
0
41
1
10
64.5231441991724
20
-2.2930364901826
30
0
41
1
10
64.5992472164763
20
-2.37619296355714
30
0
41
1
10
64.637296761314
20
-2.4177696601709
30
0
41
1
10
64.6879037018021
20
-2.47307658792846
30
0
41
1
10
64.7004628468785
20
-2.48680285184244
30
0
41
1
10
64.7130217779439
20
-2.50052982160921
30
0
0
SPLINE
5
18B
100
AcDbEntity
8
1
62
256
6
ByLayer
370
13
48
1
60
0
100
AcDbSpline
70
4
71
3
72
11
73
7
40
0
40
0
40
0
40
0
40
0.0846588868047536
40
0.6433773198794
40
0.922736536416723
40
1
40
1
40
1
40
1
41
1
10
66.8012133388356
20
0.876516575143796
30
0
41
1
10
66.8053255012711
20
0.78814578441802
30
0
41
1
10
66.8365764671658
20
0.112298463984132
30
0
41
1
10
66.8813968252519
20
-0.889910654368947
30
0
41
1
10
66.9258579715386
20
-1.80363661170981
30
0
41
1
10
66.943180314787
20
-2.1369769836854
30
0
41
1
10
66.9469332568126
20
-2.2080183001456
30
0
0
SPLINE
5
18C
100
AcDbEntity
8
1
62
256
6
ByLayer
370
18
48
1
60
0
100
AcDbSpline
70
4
71
3
72
12
73
8
40
0
40
0
40
0
40
0
40
0.273685495592163
40
0.273685495592163
40
0.54737095414323
40
0.54737095414323
40
1
40
1
40
1
40
1
41
1
10
66.9469332568127
20
-2.20801830014562
30
0
41
1
10
66.9849822461839
20
-2.24957561291259
30
0
41
1
10
67.0230266498535
20
-2.29118330526248
30
0
41
1
10
67.0991118931883
20
-2.37437954039206
30
0
41
1
10
67.1371524045156
20
-2.41597556434311
30
0
41
1
10
67.2380999117722
20
-2.52637456691619
30
0
41
1
10
67.3010031110644
20
-2.59518982778303
30
0
41
1
10
67.363901395178
20
-2.66402360829804
30
0
0
SPLINE
5
18D
100
AcDbEntity
8
1
62
256
6
ByLayer
370
18
48
1
60
0
100
AcDbSpline
70
4
71
3
72
12
73
8
40
0
40
0
40
0
40
0
40
0.23865775332466
40
0.23865775332466
40
0.514714165437453
40
0.514714165437453
40
1
40
1
40
1
40
1
41
1
10
67.2152199754744
20
0.989555923195496
30
0
41
1
10
67.1822979619342
20
0.980525694755187
30
0
41
1
10
67.1493732500722
20
0.97150256080289
30
0
41
1
10
67.078357902246
20
0.952060549417723
30
0
41
1
10
67.0402662516836
20
0.941644526568069
30
0
41
1
10
66.9351998069378
20
0.912954901781092
30
0
41
1
10
66.8682155099019
20
0.894709306990961
30
0
41
1
10
66.8012133388356
20
0.876516575143825
30
0
0
SPLINE
5
18E
100
AcDbEntity
8
1
62
256
6
ByLayer
370
18
48
1
60
0
100
AcDbSpline
70
4
71
3
72
10
73
6
40
0
40
0
40
0
40
0
40
0.5
40
0.5
40
1
40
1
40
1
40
1
41
1
10
69.9753077736191
20
-2.66227095758555
30
0
41
1
10
70.0435417737489
20
-2.58614587106868
30
0
41
1
10
70.1117182789404
20
-2.51001919724621
30
0
41
1
10
70.2479242779149
20
-2.35772516201851
30
0
41
1
10
70.3159452630188
20
-2.2814899657736
30
0
41
1
10
70.3838916738283
20
-2.20537560213259
30
0
0
SPLINE
5
18F
100
AcDbEntity
8
1
62
256
6
ByLayer
370
13
48
1
60
0
100
AcDbSpline
70
4
71
3
72
11
73
7
40
0
40
0
40
0
40
0
40
0.063173857927182
40
0.617988109615464
40
0.895395235459604
40
1
40
1
40
1
40
1
41
1
10
70.2371462002197
20
0.901616167362562
30
0
41
1
10
70.2402363410225
20
0.835268360765042
30
0
41
1
10
70.2704651648555
20
0.183048447611384
30
0
41
1
10
70.3142638265967
20
-0.797100316176227
30
0
41
1
10
70.360088736255
20
-1.74667794293359
30
0
41
1
10
70.3787749127762
20
-2.1084897523437
30
0
41
1
10
70.3838916738283
20
-2.20537560213256
30
0
0
SPLINE
5
190
100
AcDbEntity
8
1
62
256
6
ByLayer
370
18
48
1
60
0
100
AcDbSpline
70
4
71
3
72
12
73
8
40
0
40
0
40
0
40
0
40
0.27640516744756
40
0.27640516744756
40
0.552810331579302
40
0.552810331579302
40
1
40
1
40
1
40
1
41
1
10
70.2371462002197
20
0.901616167362562
30
0
41
1
10
70.199274764816
20
0.911397161986429
30
0
41
1
10
70.161397068137
20
0.921196254778948
30
0
41
1
10
70.0856309576558
20
0.940826641421637
30
0
41
1
10
70.0477425396537
20
0.950657935623553
30
0
41
1
10
69.9485432514203
20
0.976431946885043
30
0
41
1
10
69.8872249571519
20
0.99239746045896
30
0
41
1
10
69.8258972126858
20
1.00839129944333
30
0
0
SPLINE
5
191
100
AcDbEntity
8
1
62
256
6
ByLayer
370
18
48
1
60
0
100
AcDbSpline
70
4
71
3
72
10
73
6
40
0
40
0
40
0
40
0
40
0.5
40
0.5
40
1
40
1
40
1
40
1
41
1
10
75.0211422555089
20
-2.60758970256413
30
0
41
1
10
75.0816807614701
20
-2.53994999365162
30
0
41
1
10
75.1421710833856
20
-2.47231067756783
30
0
41
1
10
75.263027783189
20
-2.33697548911584
30
0
41
1
10
75.3233877783756
20
-2.26923141950724
30
0
41
1
10
75.3836960612791
20
-2.20164668926122
30
0
0
SPLINE
5
192
100
AcDbEntity
8
1
62
256
6
ByLayer
370
13
48
1
60
0
100
AcDbSpline
70
4
71
3
72
13
73
9
40
0
40
0
40
0
40
0
40
0.0590939570243814
40
0.269949461512962
40
0.480804966001542
40
0.691660470490123
40
0.902515974978703
40
1
40
1
40
1
40
1
41
1
10
75.3836960612791
20
-2.20164668926122
30
0
41
1
10
75.380775873281
20
-2.1463160689236
30
0
41
1
10
75.3674360436203
20
-1.89029744110178
30
0
41
1
10
75.3436765506746
20
-1.40966526200057
30
0
41
1
10
75.3124176679176
20
-0.742880411428104
30
0
41
1
10
75.2811585181176
20
-0.0578553036377798
30
0
41
1
10
75.255501823894
20
0.505708180132558
30
0
41
1
10
75.2402648419419
20
0.834820213319489
30
0
41
1
10
75.2354475494308
20
0.938043920618725
30
0
0
SPLINE
5
193
100
AcDbEntity
8
1
62
256
6
ByLayer
370
18
48
1
60
0
100
AcDbSpline
70
4
71
3
72
12
73
8
40
0
40
0
40
0
40
0
40
0.305809135583469
40
0.305809135583469
40
0.61161826729981
40
0.61161826729981
40
1
40
1
40
1
40
1
41
1
10
75.2354475494308
20
0.938043920618725
30
0
41
1
10
75.1981329271107
20
0.947651977084178
30
0
41
1
10
75.1608104563271
20
0.957277567664846
30
0
41
1
10
75.0861520060545
20
0.976560019672121
30
0
41
1
10
75.0488160218709
20
0.986216881446893
30
0
41
1
10
74.9640495786236
20
1.00816923885765
30
0
41
1
10
74.9166155443324
20
1.02047314696171
30
0
41
1
10
74.8691736567607
20
1.03279524551647
30
0
0
SPLINE
5
194
100
AcDbEntity
8
1
62
256
6
ByLayer
370
18
48
1
60
0
100
AcDbSpline
70
4
71
3
72
8
73
4
40
0
40
0
40
0
40
0
40
1
40
1
40
1
40
1
41
1
10
71.2253386320376
20
-2.66142977668267
30
0
41
1
10
71.1881726676717
20
-2.66145480805366
30
0
41
1
10
71.1510067033042
20
-2.661479837521
30
0
41
1
10
71.113840738935
20
-2.66150486508454
30
0
0
SPLINE
5
195
100
AcDbEntity
8
1
62
256
6
ByLayer
370
18
48
1
60
0
100
AcDbSpline
70
4
71
3
72
10
73
6
40
0
40
0
40
0
40
0
40
0.5
40
0.5
40
1
40
1
40
1
40
1
41
1
10
72.475279599344
20
-2.66058722077349
30
0
41
1
10
72.5435030530147
20
-2.58443479772953
30
0
41
1
10
72.6116685646966
20
-2.50828199375377
30
0
41
1
10
72.7478503440204
20
-2.35592896112445
30
0
41
1
10
72.8158574622338
20
-2.27965683346088
30
0
41
1
10
72.883793333634
20
-2.20353765509785
30
0
0
SPLINE
5
196
100
AcDbEntity
8
1
62
256
6
ByLayer
370
13
48
1
60
0
100
AcDbSpline
70
4
71
3
72
10
73
6
40
0
40
0
40
0
40
0
40
0.23069537323354
40
0.782693448243403
40
1
40
1
40
1
40
1
41
1
10
72.7362993447146
20
0.919828697531415
30
0
41
1
10
72.7476413705803
20
0.67652883473869
30
0
41
1
10
72.7861220232994
20
-0.164197322457568
30
0
41
1
10
72.8352869558922
20
-1.25084540283291
30
0
41
1
10
72.8731095296196
20
-2.00114947910794
30
0
41
1
10
72.883793333634
20
-2.20353765509782
30
0
0
SPLINE
5
197
100
AcDbEntity
8
1
62
256
6
ByLayer
370
18
48
1
60
0
100
AcDbSpline
70
4
71
3
72
12
73
8
40
0
40
0
40
0
40
0
40
0.276347834358652
40
0.276347834358652
40
0.552695665254366
40
0.552695665254366
40
1
40
1
40
1
40
1
41
1
10
72.7362993447146
20
0.919828697531443
30
0
41
1
10
72.6984461669822
20
0.929590218743556
30
0
41
1
10
72.6605858404621
20
0.939369803626533
30
0
41
1
10
72.5848529257617
20
0.958961123277561
30
0
41
1
10
72.5469803330265
20
0.96877285839841
30
0
41
1
10
72.4477922733585
20
0.994502994174525
30
0
41
1
10
72.3864682801263
20
1.0104441966345
30
0
41
1
10
72.3251333926494
20
1.02641372536709
30
0
0
SPLINE
5
198
100
AcDbEntity
8
1
62
256
6
ByLayer
370
18
48
1
60
0
100
AcDbSpline
70
4
71
3
72
27
73
23
40
0
40
0
40
0
40
0
40
0.124999999999999
40
0.124999999999999
40
0.156249999999999
40
0.156249999999999
40
0.187499999999999
40
0.187499999999999
40
0.249999999999999
40
0.249999999999999
40
0.375
40
0.5
40
0.5
40
0.625
40
0.625
40
0.65625
40
0.65625
40
0.6875
40
0.75
40
0.75
40
0.875
40
1
40
1
40
1
40
1
41
1
10
71.2253386320376
20
-2.66142977668267
30
0
41
1
10
71.2191137681133
20
-2.52620545966678
30
0
41
1
10
71.2128374618303
20
-2.38689604808076
30
0
41
1
10
71.2049290087303
20
-2.2075390727793
30
0
41
1
10
71.2033447396491
20
-2.17140609117081
30
0
41
1
10
71.2001717089559
20
-2.09861179481436
30
0
41
1
10
71.1985814045993
20
-2.06191461517065
30
0
41
1
10
71.1938149750031
20
-1.95126968511764
30
0
41
1
10
71.1906549384593
20
-1.87703648923696
30
0
41
1
10
71.1812256938198
20
-1.65295535132171
30
0
41
1
10
71.1687935015172
20
-1.35050235295077
30
0
41
1
10
71.1565098360343
20
-1.04084229098768
30
0
41
1
10
71.1441610894635
20
-0.727560467202863
30
0
41
1
10
71.1379445203601
20
-0.569109370458506
30
0
41
1
10
71.1300272663102
20
-0.368709892753884
30
0
41
1
10
71.128440169967
20
-0.328570638294906
30
0
41
1
10
71.1252718540585
20
-0.248468286909514
30
0
41
1
10
71.1205229440802
20
-0.128448085783077
30
0
41
1
10
71.1157904423333
20
-0.0088234567157599
30
0
41
1
10
71.1063554395953
20
0.229906316816312
30
0
41
1
10
71.0938601690955
20
0.546829808525075
30
0
41
1
10
71.0815029360595
20
0.861011052692106
30
0
41
1
10
71.075311290575
20
1.01740212948678
30
0
0
SPLINE
5
199
100
AcDbEntity
8
1
62
256
6
ByLayer
370
18
48
1
60
0
100
AcDbSpline
70
4
71
3
72
10
73
6
40
0
40
0
40
0
40
0
40
0.5
40
0.5
40
1
40
1
40
1
40
1
41
1
10
71.2253386320376
20
-2.66142977668267
30
0
41
1
10
71.2935607552868
20
-2.58529684969528
30
0
41
1
10
71.3617250190512
20
-2.50916291065988
30
0
41
1
10
71.4979049755339
20
-2.35685085324403
30
0
41
1
10
71.5659118044331
20
-2.28060265923861
30
0
41
1
10
71.6338453593226
20
-2.20449094636518
30
0
0
SPLINE
5
19A
100
AcDbEntity
8
1
62
256
6
ByLayer
370
13
48
1
60
0
100
AcDbSpline
70
4
71
3
72
10
73
6
40
0
40
0
40
0
40
0
40
0.423848924864936
40
0.977232678285138
40
1
40
1
40
1
40
1
41
1
10
71.4867204346752
20
0.910678692238946
30
0
41
1
10
71.5075065889894
20
0.464533752179847
30
0
41
1
10
71.5554315511816
20
-0.598454612150505
30
0
41
1
10
71.6044734248287
20
-1.64546159213558
30
0
41
1
10
71.632728812948
20
-2.183340828403
30
0
41
1
10
71.6338453593226
20
-2.20449094636521
30
0
0
SPLINE
5
19B
100
AcDbEntity
8
1
62
256
6
ByLayer
370
18
48
1
60
0
100
AcDbSpline
70
4
71
3
72
12
73
8
40
0
40
0
40
0
40
0
40
0.276257590885224
40
0.276257590885224
40
0.552515178388018
40
0.552515178388018
40
1
40
1
40
1
40
1
41
1
10
71.4867204346752
20
0.910678692238946
30
0
41
1
10
71.4488557945588
20
0.920449677592671
30
0
41
1
10
71.4109844717154
20
0.930238748188088
30
0
41
1
10
71.3352303753721
20
0.949849073254768
30
0
41
1
10
71.2973475975023
20
0.959670328077976
30
0
41
1
10
71.1980890095363
20
0.985437052984707
30
0
41
1
10
71.1367052271509
20
1.00140539993069
30
0
41
1
10
71.0753112905757
20
1.01740212948673
30
0
0
SPLINE
5
19C
100
AcDbEntity
8
1
62
256
6
ByLayer
370
18
48
1
60
0
100
AcDbSpline
70
4
71
3
72
10
73
6
40
0
40
0
40
0
40
0
40
0.5
40
0.5
40
1
40
1
40
1
40
1
41
1
10
68.7253635759255
20
-2.6631106433739
30
0
41
1
10
68.793596573795
20
-2.58700563374003
30
0
41
1
10
68.8617723064139
20
-2.51089836072623
30
0
41
1
10
68.9979779233637
20
-2.35864641478838
30
0
41
1
10
69.0659996972628
20
-2.28243661329438
30
0
41
1
10
69.1339453721965
20
-2.20633212457344
30
0
0
SPLINE
5
19D
100
AcDbEntity
8
1
62
256
6
ByLayer
370
13
48
1
60
0
100
AcDbSpline
70
4
71
3
72
10
73
6
40
0
40
0
40
0
40
0
40
0.25689979382021
40
0.813100237871589
40
1
40
1
40
1
40
1
41
1
10
68.987565385229
20
0.892427684480026
30
0
41
1
10
69.000100366685
20
0.623208221331907
30
0
41
1
10
69.039774266276
20
-0.245492122389351
30
0
41
1
10
69.0885678211571
20
-1.31944038467876
30
0
41
1
10
69.1248259675652
20
-2.03364314632816
30
0
41
1
10
69.1339453721965
20
-2.20633212457344
30
0
0
SPLINE
5
19E
100
AcDbEntity
8
1
62
256
6
ByLayer
370
18
48
1
60
0
100
AcDbSpline
70
4
71
3
72
12
73
8
40
0
40
0
40
0
40
0
40
0.276229142295384
40
0.276229142295384
40
0.552458281343318
40
0.552458281343318
40
1
40
1
40
1
40
1
41
1
10
68.9875653852291
20
0.892427684478832
30
0
41
1
10
68.9496828543126
20
0.902218124737942
30
0
41
1
10
68.9117944933892
20
0.912026684508902
30
0
41
1
10
68.8360078040503
20
0.931676039249794
30
0
41
1
10
68.7981094716047
20
0.941516834573832
30
0
41
1
10
68.6987977031687
20
0.967338474139552
30
0
41
1
10
68.6373773396214
20
0.983342241894917
30
0
41
1
10
68.5759481991469
20
0.999374426835487
30
0
0
SPLINE
5
19F
100
AcDbEntity
8
1
62
256
6
ByLayer
370
18
48
1
60
0
100
AcDbSpline
70
4
71
3
72
10
73
6
40
0
40
0
40
0
40
0
40
0.5
40
0.5
40
1
40
1
40
1
40
1
41
1
10
73.7252156213206
20
-2.6597432340576
30
0
41
1
10
73.7934424869861
20
-2.58356903031174
30
0
41
1
10
73.8616112989599
20
-2.50739500891635
30
0
41
1
10
73.9977988024192
20
-2.35499617603
30
0
41
1
10
74.0658081044056
20
-2.27869813657898
30
0
41
1
10
74.1337480659425
20
-2.20256985645489
30
0
0
SPLINE
5
1A0
100
AcDbEntity
8
1
62
256
6
ByLayer
370
13
48
1
60
0
100
AcDbSpline
70
4
71
3
72
11
73
7
40
0
40
0
40
0
40
0
40
0.0385661054633911
40
0.589125988177478
40
0.864405929534522
40
1
40
1
40
1
40
1
41
1
10
73.985868270846
20
0.92893730571285
30
0
41
1
10
73.9877693066103
20
0.888179950231262
30
0
41
1
10
74.0168090591371
20
0.263644051281716
30
0
41
1
10
74.0594186143815
20
-0.690509886013729
30
0
41
1
10
74.1068108536009
20
-1.68101305712537
30
0
41
1
10
74.1270641955376
20
-2.07595541465091
30
0
41
1
10
74.1337480659425
20
-2.20256985645486
30
0
0
SPLINE
5
1A1
100
AcDbEntity
8
1
62
256
6
ByLayer
370
18
48
1
60
0
100
AcDbSpline
70
4
71
3
72
12
73
8
40
0
40
0
40
0
40
0
40
0.276334341852091
40
0.276334341852091
40
0.552668680159151
40
0.552668680159151
40
1
40
1
40
1
40
1
41
1
10
73.985868270846
20
0.92893730571285
30
0
41
1
10
73.9480247071928
20
0.938689134034973
30
0
41
1
10
73.910173540782
20
0.94845900803756
30
0
41
1
10
73.8344581558742
20
0.968030878949037
30
0
41
1
10
73.7965939326385
20
0.977832876212489
30
0
41
1
10
73.6974201922729
20
1.00353922110071
30
0
41
1
10
73.6361015869037
20
1.01946636303887
30
0
41
1
10
73.5747713485319
20
1.03542182414222
30
0
0
SPLINE
5
1A2
100
AcDbEntity
8
1
62
256
6
ByLayer
370
18
48
1
60
0
100
AcDbSpline
70
4
71
3
72
8
73
4
40
0
40
0
40
0
40
0
40
1
40
1
40
1
40
1
41
1
10
73.7252156213207
20
-2.6597432340576
30
0
41
1
10
73.6880443549077
20
-2.659768354298
30
0
41
1
10
73.6508730884932
20
-2.65979347263763
30
0
41
1
10
73.613701822077
20
-2.65981858907634
30
0
0
SPLINE
5
1A3
100
AcDbEntity
8
1
62
256
6
ByLayer
370
18
48
1
60
0
100
AcDbSpline
70
4
71
3
72
28
73
24
40
0
40
0
40
0
40
0
40
0.125000000000001
40
0.125000000000001
40
0.250000000000002
40
0.250000000000002
40
0.312500000000002
40
0.312500000000002
40
0.375000000000003
40
0.375000000000003
40
0.500000000000003
40
0.500000000000003
40
0.625000000000003
40
0.625000000000003
40
0.687500000000003
40
0.687500000000003
40
0.718750000000003
40
0.718750000000003
40
0.750000000000003
40
0.750000000000003
40
0.875000000000001
40
0.875000000000001
40
1
40
1
40
1
40
1
41
1
10
73.7252156213206
20
-2.6597432340576
30
0
41
1
10
73.7189733121626
20
-2.52381222564256
30
0
41
1
10
73.7127547837403
20
-2.38422610062375
30
0
41
1
10
73.700290053129
20
-2.09773681358135
30
0
41
1
10
73.6940351410244
20
-1.95083445223969
30
0
41
1
10
73.6845831916603
20
-1.72483897758542
30
0
41
1
10
73.6814153831432
20
-1.64842358899156
30
0
41
1
10
73.6751108514808
20
-1.49526704618438
30
0
41
1
10
73.6719670695763
20
-1.41835972315553
30
0
41
1
10
73.6625371567154
20
-1.18666828195541
30
0
41
1
10
73.6562347712867
20
-1.03091749986208
30
0
41
1
10
73.6435916119052
20
-0.716872339024292
30
0
41
1
10
73.6372656093146
20
-0.558577381181493
30
0
41
1
10
73.6277910013408
20
-0.319201018881301
30
0
41
1
10
73.6246346085032
20
-0.239086069092934
30
0
41
1
10
73.6198998047688
20
-0.118421434464267
30
0
41
1
10
73.6183214611098
20
-0.0781178200251986
30
0
41
1
10
73.6151636369366
20
0.0026553078905067
30
0
41
1
10
73.6135857516158
20
0.0430841606394381
30
0
41
1
10
73.6057316462682
20
0.24458116887169
30
0
41
1
10
73.5995331853256
20
0.40449644789274
30
0
41
1
10
73.5871729273503
20
0.721831418558395
30
0
41
1
10
73.5810043462801
20
0.879250665029019
30
0
41
1
10
73.5747713485319
20
1.03542182414222
30
0
0
SPLINE
5
1A4
100
AcDbEntity
8
1
62
256
6
ByLayer
370
18
48
1
60
0
100
AcDbSpline
70
4
71
3
72
8
73
4
40
0
40
0
40
0
40
0
40
1
40
1
40
1
40
1
41
1
10
72.475279599344
20
-2.66058722077349
30
0
41
1
10
72.4381028388768
20
-2.66061230209058
30
0
41
1
10
72.4009260784078
20
-2.66063738150464
30
0
41
1
10
72.3637493179372
20
-2.66066245901547
30
0
0
SPLINE
5
1A5
100
AcDbEntity
8
1
62
256
6
ByLayer
370
18
48
1
60
0
100
AcDbSpline
70
4
71
3
72
31
73
27
40
0
40
0
40
0
40
0
40
0.0312500000000002
40
0.0312500000000002
40
0.0625000000000004
40
0.125
40
0.125
40
0.25
40
0.25
40
0.374999999999999
40
0.374999999999999
40
0.437499999999999
40
0.437499999999999
40
0.468749999999999
40
0.468749999999999
40
0.499999999999999
40
0.499999999999999
40
0.624999999999999
40
0.75
40
0.75
40
0.875
40
0.875
40
0.90625
40
0.90625
40
0.9375
40
1
40
1
40
1
40
1
41
1
10
72.475279599344
20
-2.66058722077349
30
0
41
1
10
72.4737058786942
20
-2.62628968213568
30
0
41
1
10
72.4721303167822
20
-2.59170331810634
30
0
41
1
10
72.4689888290082
20
-2.52226089277187
30
0
41
1
10
72.4642850955206
20
-2.41756473304019
30
0
41
1
10
72.4596030467603
20
-2.3112879569843
30
0
41
1
10
72.4502509510177
20
-2.09665831045319
30
0
41
1
10
72.4440333768553
20
-1.95080819829059
30
0
41
1
10
72.4314930509996
20
-1.65363690604852
30
0
41
1
10
72.4251811562885
20
-1.50231546666481
30
0
41
1
10
72.4156961199544
20
-1.27115657428692
30
0
41
1
10
72.4125310193544
20
-1.19340636052073
30
0
41
1
10
72.4077786157999
20
-1.07571528463299
30
0
41
1
10
72.406191722295
20
-1.03625884875427
30
0
41
1
10
72.4030309100414
20
-0.957362912597119
30
0
41
1
10
72.4014558611853
20
-0.917895837280923
30
0
41
1
10
72.3936053760405
20
-0.720465987901207
30
0
41
1
10
72.3812084201162
20
-0.403974706528032
30
0
41
1
10
72.3689483463895
20
-0.0863128736326928
30
0
41
1
10
72.3565933889726
20
0.231928914744486
30
0
41
1
10
72.3503483576791
20
0.391338954310015
30
0
41
1
10
72.342465687406
20
0.590973794664649
30
0
41
1
10
72.3408843451598
20
0.630949866469365
30
0
41
1
10
72.3377198376894
20
0.710805536482212
30
0
41
1
10
72.3329815129571
20
0.830160653186795
30
0
41
1
10
72.3282678572435
20
0.948245588355491
30
0
41
1
10
72.3251333926494
20
1.02641372536712
30
0
0
SPLINE
5
1A6
100
AcDbEntity
8
1
62
256
6
ByLayer
370
13
48
1
60
0
100
AcDbSpline
70
4
71
3
72
11
73
7
40
0
40
0
40
0
40
0
40
0.0596605712091038
40
0.614129612345689
40
0.891364132913982
40
1
40
1
40
1
40
1
41
1
10
70.5499443289487
20
0.903902381623908
30
0
41
1
10
70.5528644498719
20
0.841216391850509
30
0
41
1
10
70.5829233764425
20
0.192935038120225
30
0
41
1
10
70.626551706775
20
-0.783730995355199
30
0
41
1
10
70.6725771445606
20
-1.73845480267306
30
0
41
1
10
70.6914637895414
20
-2.10448389000155
30
0
41
1
10
70.6967810338217
20
-2.20517330239346
30
0
0
SPLINE
5
1A7
100
AcDbEntity
8
1
62
256
6
ByLayer
370
18
48
1
60
0
100
AcDbSpline
70
4
71
3
72
12
73
8
40
0
40
0
40
0
40
0
40
0.273629179732477
40
0.273629179732477
40
0.547258286428806
40
0.547258286428806
40
1
40
1
40
1
40
1
41
1
10
70.6967810338217
20
-2.20517330239349
30
0
41
1
10
70.7348312438362
20
-2.24673688040013
30
0
41
1
10
70.7728763384019
20
-2.28836275819063
30
0
41
1
10
70.8489624066852
20
-2.37160901920089
30
0
41
1
10
70.8870033587986
20
-2.41322916428265
30
0
41
1
10
70.9879806772691
20
-2.52372094037045
30
0
41
1
10
71.0509132709088
20
-2.5926025952854
30
0
41
1
10
71.1138407389351
20
-2.66150486508454
30
0
0
SPLINE
5
1A8
100
AcDbEntity
8
1
62
256
6
ByLayer
370
18
48
1
60
0
100
AcDbSpline
70
4
71
3
72
29
73
25
40
0
40
0
40
0
40
0
40
0.125000000000001
40
0.125000000000001
40
0.187500000000002
40
0.218750000000002
40
0.218750000000002
40
0.250000000000002
40
0.250000000000002
40
0.375000000000001
40
0.375000000000001
40
0.500000000000001
40
0.500000000000001
40
0.625000000000001
40
0.625000000000001
40
0.656250000000001
40
0.656250000000001
40
0.687500000000001
40
0.687500000000001
40
0.750000000000001
40
0.750000000000001
40
0.875000000000001
40
0.875000000000001
40
1
40
1
40
1
40
1
41
1
10
70.9640142051678
20
1.01659953832893
30
0
41
1
10
70.9702542276368
20
0.861131852725663
30
0
41
1
10
70.9765418677318
20
0.704206768375087
30
0
41
1
10
70.9860307003681
20
0.466605666159467
30
0
41
1
10
70.9907858804444
20
0.347250700938389
30
0
41
1
10
70.9955506945468
20
0.227050241938343
30
0
41
1
10
70.9987292409069
20
0.146726560917955
30
0
41
1
10
71.0003193094747
20
0.106474045133893
30
0
41
1
10
71.0082320314677
20
-0.094184228693706
30
0
41
1
10
71.0144731774527
20
-0.253645306867043
30
0
41
1
10
71.0268368316031
20
-0.570496976972748
30
0
41
1
10
71.0329593822996
20
-0.727887407267872
30
0
41
1
10
71.045219213201
20
-1.04059894254823
30
0
41
1
10
71.051364714865
20
-1.19591982097157
30
0
41
1
10
71.0591610764154
20
-1.38874328424765
30
0
41
1
10
71.0607249658002
20
-1.42724149679628
30
0
41
1
10
71.0638615504059
20
-1.50410363637482
30
0
41
1
10
71.0654363691609
20
-1.54251898433378
30
0
41
1
10
71.0701546504897
20
-1.65709592584807
30
0
41
1
10
71.0732918937371
20
-1.73259376807479
30
0
41
1
10
71.0826819696439
20
-1.95647840015565
30
0
41
1
10
71.0889117645988
20
-2.10226204213384
30
0
41
1
10
71.1013766619665
20
-2.38701066849842
30
0
41
1
10
71.1076054246752
20
-2.525975722059
30
0
41
1
10
71.113840738935
20
-2.66150486508454
30
0
0
SPLINE
5
1A9
100
AcDbEntity
8
1
62
256
6
ByLayer
370
18
48
1
60
0
100
AcDbSpline
70
4
71
3
72
12
73
8
40
0
40
0
40
0
40
0
40
0.238326035868249
40
0.238326035868249
40
0.514375652079401
40
0.514375652079401
40
1
40
1
40
1
40
1
41
1
10
70.9640142051678
20
1.0165995383289
30
0
41
1
10
70.9311331833972
20
1.00760884703388
30
0
41
1
10
70.8982494113671
20
0.998625277853193
30
0
41
1
10
70.8272702374489
20
0.979254449702069
30
0
41
1
10
70.7891737921996
20
0.968870083762994
30
0
41
1
10
70.6840455257708
20
0.940254766101589
30
0
41
1
10
70.6170040087325
20
0.922052007659801
30
0
41
1
10
70.5499443289487
20
0.90390238162388
30
0
0
SPLINE
5
1AA
100
AcDbEntity
8
1
62
256
6
ByLayer
370
13
48
1
60
0
100
AcDbSpline
70
4
71
3
72
10
73
6
40
0
40
0
40
0
40
0
40
0.447800083422389
40
0.726455750987166
40
1
40
1
40
1
40
1
41
1
10
68.0507942396463
20
0.885623636900021
30
0
41
1
10
68.0726002905208
20
0.417013749032947
30
0
41
1
10
68.1079757428151
20
-0.36911931698873
30
0
41
1
10
68.1566716774132
20
-1.41578591339328
30
0
41
1
10
68.1835615763514
20
-1.95489262253597
30
0
41
1
10
68.1968820727272
20
-2.20705382997323
30
0
0
SPLINE
5
1AB
100
AcDbEntity
8
1
62
256
6
ByLayer
370
18
48
1
60
0
100
AcDbSpline
70
4
71
3
72
12
73
8
40
0
40
0
40
0
40
0
40
0.273653882253698
40
0.273653882253698
40
0.547307717420499
40
0.547307717420499
40
1
40
1
40
1
40
1
41
1
10
68.1968820727272
20
-2.20705382997326
30
0
41
1
10
68.234932744709
20
-2.24861312816464
30
0
41
1
10
68.2729786286679
20
-2.29022701925308
30
0
41
1
10
68.3490666407869
20
-2.37343896611679
30
0
41
1
10
68.3871085126211
20
-2.41504255207892
30
0
41
1
10
68.4880755615849
20
-2.5254783932759
30
0
41
1
10
68.5509968561686
20
-2.59432226198121
30
0
41
1
10
68.61391297953
20
-2.66318544369321
30
0
0
SPLINE
5
1AC
100
AcDbEntity
8
1
62
256
6
ByLayer
370
18
48
1
60
0
100
AcDbSpline
70
4
71
3
72
12
73
8
40
0
40
0
40
0
40
0
40
0.239019795478803
40
0.239019795478803
40
0.514992799195452
40
0.514992799195452
40
1
40
1
40
1
40
1
41
1
10
68.4650389333161
20
0.998574244631897
30
0
41
1
10
68.4320481697186
20
0.989537298721586
30
0
41
1
10
68.3990546625014
20
0.980507488848872
30
0
41
1
10
68.3279601668795
20
0.961070138289955
30
0
41
1
10
68.2898581625394
20
0.950665427369842
30
0
41
1
10
68.1847812545336
20
0.922012034724418
30
0
41
1
10
68.1177967514406
20
0.903791386301947
30
0
41
1
10
68.0507942396463
20
0.885623636900021
30
0
0
SPLINE
5
1AD
100
AcDbEntity
8
1
62
256
6
ByLayer
370
18
48
1
60
0
100
AcDbSpline
70
4
71
3
72
10
73
6
40
0
40
0
40
0
40
0
40
0.5
40
0.5
40
1
40
1
40
1
40
1
41
1
10
67.4753895208665
20
-2.66394891112435
30
0
41
1
10
67.5436260201191
20
-2.58785906897444
30
0
41
1
10
67.6118052761353
20
-2.5117661781328
30
0
41
1
10
67.7480185268222
20
-2.35954598838453
30
0
41
1
10
67.8160448319472
20
-2.28335660676888
30
0
41
1
10
67.8839932593177
20
-2.20725745660798
30
0
0
SPLINE
5
1AE
100
AcDbEntity
8
1
62
256
6
ByLayer
370
13
48
1
60
0
100
AcDbSpline
70
4
71
3
72
10
73
6
40
0
40
0
40
0
40
0
40
0.451563207127457
40
0.730397059818591
40
1
40
1
40
1
40
1
41
1
10
67.7379986502154
20
0.883347256025417
30
0
41
1
10
67.7599738972907
20
0.411075497373304
30
0
41
1
10
67.7955187035949
20
-0.378953204143528
30
0
41
1
10
67.8441834307037
20
-1.42431901971437
30
0
41
1
10
67.8708730592898
20
-1.9589093015868
30
0
41
1
10
67.8839932593177
20
-2.20725745660798
30
0
0
SPLINE
5
1AF
100
AcDbEntity
8
1
62
256
6
ByLayer
370
18
48
1
60
0
100
AcDbSpline
70
4
71
3
72
12
73
8
40
0
40
0
40
0
40
0
40
0.276337261633254
40
0.276337261633254
40
0.552674520077169
40
0.552674520077169
40
1
40
1
40
1
40
1
41
1
10
67.7379986502154
20
0.883347256025388
30
0
41
1
10
67.7001074105481
20
0.893147495424444
30
0
41
1
10
67.6622107663682
20
0.902965868593782
30
0
41
1
10
67.5864082512845
20
0.922634870058715
30
0
41
1
10
67.5485023765125
20
0.932485498707848
30
0
41
1
10
67.4492253915323
20
0.958318947294629
30
0
41
1
10
67.3878478966888
20
0.974324636122589
30
0
41
1
10
67.326462326317
20
0.990358703963238
30
0
0
SPLINE
5
1B0
100
AcDbEntity
8
1
62
256
6
ByLayer
370
13
48
1
60
0
100
AcDbSpline
70
4
71
3
72
10
73
6
40
0
40
0
40
0
40
0
40
0.227112245530611
40
0.778759255263838
40
1
40
1
40
1
40
1
41
1
10
73.0490943907683
20
0.922115581361339
30
0
41
1
10
73.0602673965312
20
0.682479474299925
30
0
41
1
10
73.0985792072379
20
-0.154213219425458
30
0
41
1
10
73.1477751718401
20
-1.24226966512302
30
0
41
1
10
73.185798117236
20
-1.99715791830431
30
0
41
1
10
73.1966822659784
20
-2.2033407287403
30
0
0
SPLINE
5
1B1
100
AcDbEntity
8
1
62
256
6
ByLayer
370
18
48
1
60
0
100
AcDbSpline
70
4
71
3
72
12
73
8
40
0
40
0
40
0
40
0
40
0.273638319711741
40
0.273638319711741
40
0.547276532201869
40
0.547276532201869
40
1
40
1
40
1
40
1
41
1
10
73.1966822659784
20
-2.2033407287403
30
0
41
1
10
73.234730025144
20
-2.24490781323738
30
0
41
1
10
73.272772483017
20
-2.28654459210162
30
0
41
1
10
73.3488530882385
20
-2.3698249232319
30
0
41
1
10
73.3868914244409
20
-2.41146314848859
30
0
41
1
10
73.4878577109498
20
-2.52199389708582
30
0
41
1
10
73.5507821754389
20
-2.59089540758597
30
0
41
1
10
73.6137018220771
20
-2.65981858907634
30
0
0
SPLINE
5
1B2
100
AcDbEntity
8
1
62
256
6
ByLayer
370
18
48
1
60
0
100
AcDbSpline
70
4
71
3
72
28
73
24
40
0
40
0
40
0
40
0
40
0.125000000000001
40
0.125000000000001
40
0.156250000000001
40
0.156250000000001
40
0.187500000000001
40
0.250000000000001
40
0.250000000000001
40
0.375000000000002
40
0.500000000000002
40
0.500000000000002
40
0.562500000000002
40
0.562500000000002
40
0.593750000000002
40
0.593750000000002
40
0.625000000000001
40
0.625000000000001
40
0.750000000000001
40
0.750000000000001
40
0.875
40
0.875
40
1
40
1
40
1
40
1
41
1
10
73.4633073835803
20
1.03461841662019
30
0
41
1
10
73.4695612968954
20
0.878334041689442
30
0
41
1
10
73.4758361590045
20
0.720028601563172
30
0
41
1
10
73.4837570148323
20
0.519538713286636
30
0
41
1
10
73.4853447872922
20
0.479322089554188
30
0
41
1
10
73.4885134608881
20
0.399059532024069
30
0
41
1
10
73.4932613140605
20
0.278760716324427
30
0
41
1
10
73.4980126295472
20
0.158744667765688
30
0
41
1
10
73.5075142814109
20
-0.080916224688707
30
0
41
1
10
73.5201655883238
20
-0.399476406361231
30
0
41
1
10
73.5326891528672
20
-0.716083804084917
30
0
41
1
10
73.5420589544349
20
-0.952793417316286
30
0
41
1
10
73.5451790373282
20
-1.03157206909549
30
0
41
1
10
73.5498634809649
20
-1.14954931927204
30
0
41
1
10
73.5514277191929
20
-1.18889321406908
30
0
41
1
10
73.5545453511189
20
-1.26715486884478
30
0
41
1
10
73.5560996318364
20
-1.30609510660759
30
0
41
1
10
73.5638543548879
20
-1.49985312325688
30
0
41
1
10
73.5700024246841
20
-1.65184794942021
30
0
41
1
10
73.582378448533
20
-1.94995615619808
30
0
41
1
10
73.5886052392792
20
-2.09606932653355
30
0
41
1
10
73.6011062343118
20
-2.38240472242415
30
0
41
1
10
73.6073802346249
20
-2.52262733879226
30
0
41
1
10
73.613701822077
20
-2.65981858907634
30
0
0
SPLINE
5
1B3
100
AcDbEntity
8
1
62
256
6
ByLayer
370
18
48
1
60
0
100
AcDbSpline
70
4
71
3
72
12
73
8
40
0
40
0
40
0
40
0
40
0.238292409361805
40
0.238292409361805
40
0.514257509484258
40
0.514257509484258
40
1
40
1
40
1
40
1
41
1
10
73.4633073835803
20
1.03461841662019
30
0
41
1
10
73.4304198801197
20
1.02564426253591
30
0
41
1
10
73.3975295754728
20
1.01667726604836
30
0
41
1
10
73.3265424730229
20
0.997343998195333
30
0
41
1
10
73.2884446144075
20
0.986980628532791
30
0
41
1
10
73.183275385226
20
0.958413362526045
30
0
41
1
10
73.1161941352639
20
0.940237800859734
30
0
41
1
10
73.0490943907683
20
0.922115581361339
30
0
0
SPLINE
5
1B4
100
AcDbEntity
8
1
62
256
6
ByLayer
370
13
48
1
60
0
100
AcDbSpline
70
4
71
3
72
10
73
6
40
0
40
0
40
0
40
0
40
0.420124559137996
40
0.973173789598067
40
1
40
1
40
1
40
1
41
1
10
71.7995191716966
20
0.912956945735914
30
0
41
1
10
71.8201352015538
20
0.470508949870066
30
0
41
1
10
71.8678900382025
20
-0.588405173106167
30
0
41
1
10
71.9169612548998
20
-1.63718688467981
30
0
41
1
10
71.9454164509426
20
-2.17934727802066
30
0
41
1
10
71.946732845853
20
-2.20428289939861
30
0
0
SPLINE
5
1B5
100
AcDbEntity
8
1
62
256
6
ByLayer
370
18
48
1
60
0
100
AcDbSpline
70
4
71
3
72
12
73
8
40
0
40
0
40
0
40
0
40
0.273649092495172
40
0.273649092495172
40
0.547298095966131
40
0.547298095966131
40
1
40
1
40
1
40
1
41
1
10
71.9467328458529
20
-2.20428289939858
30
0
41
1
10
71.9847817168896
20
-2.24584849584463
30
0
41
1
10
72.0228254414935
20
-2.28748001441841
30
0
41
1
10
72.0989087565478
20
-2.37074364828197
30
0
41
1
10
72.1369484430169
20
-2.41237265515278
30
0
41
1
10
72.2379125888329
20
-2.52287529693393
30
0
41
1
10
72.3008334505876
20
-2.59175829498366
30
0
41
1
10
72.3637493179372
20
-2.6606624590155
30
0
0
SPLINE
5
1B6
100
AcDbEntity
8
1
62
256
6
ByLayer
370
18
48
1
60
0
100
AcDbSpline
70
4
71
3
72
26
73
22
40
0
40
0
40
0
40
0
40
0.125000000000001
40
0.125000000000001
40
0.250000000000001
40
0.250000000000001
40
0.375000000000002
40
0.375000000000002
40
0.437500000000002
40
0.437500000000002
40
0.500000000000002
40
0.500000000000002
40
0.625000000000002
40
0.750000000000003
40
0.750000000000003
40
0.812500000000003
40
0.843750000000003
40
0.843750000000003
40
0.875000000000002
40
0.875000000000002
40
1
40
1
40
1
40
1
41
1
10
72.2139733898231
20
1.02561231609982
30
0
41
1
10
72.2203130847981
20
0.868467057183096
30
0
41
1
10
72.226583168629
20
0.710812321383514
30
0
41
1
10
72.2390174575699
20
0.394510639323983
30
0
41
1
10
72.2451816739751
20
0.235863636928116
30
0
41
1
10
72.2575138607295
20
-0.0824196029574296
30
0
41
1
10
72.2636816085945
20
-0.242055788103301
30
0
41
1
10
72.2730775045064
20
-0.482267295661416
30
0
41
1
10
72.2762438003946
20
-0.562619209294695
30
0
41
1
10
72.2825679616058
20
-0.721952515956076
30
0
41
1
10
72.2857302900941
20
-0.801103557790157
30
0
41
1
10
72.2952017976589
20
-1.03703692419407
30
0
41
1
10
72.3077843209708
20
-1.34756891220408
30
0
41
1
10
72.3202225981971
20
-1.6501250092432
30
0
41
1
10
72.3295379198537
20
-1.87401234091777
30
0
41
1
10
72.3341931774492
20
-1.98519729814493
30
0
41
1
10
72.3388614061973
20
-2.09522485902608
30
0
41
1
10
72.3419789418139
20
-2.16831632621313
30
0
41
1
10
72.3435399464488
20
-2.20472122395927
30
0
41
1
10
72.351323033318
20
-2.38511991932234
30
0
41
1
10
72.3575262475449
20
-2.52503100144173
30
0
41
1
10
72.3637493179372
20
-2.66066245901544
30
0
0
SPLINE
5
1B7
100
AcDbEntity
8
1
62
256
6
ByLayer
370
18
48
1
60
0
100
AcDbSpline
70
4
71
3
72
12
73
8
40
0
40
0
40
0
40
0
40
0.238930928589826
40
0.238930928589826
40
0.514785382135168
40
0.514785382135168
40
1
40
1
40
1
40
1
41
1
10
72.2139733898231
20
1.02561231609982
30
0
41
1
10
72.1809788113437
20
1.01660197979226
30
0
41
1
10
72.147981362527
20
1.00759883383108
30
0
41
1
10
72.0768802815402
20
0.988219652656937
30
0
41
1
10
72.0387755883926
20
0.977846464283033
30
0
41
1
10
71.9336332764437
20
0.9492645821
30
0
41
1
10
71.8665856171369
20
0.931084146491315
30
0
41
1
10
71.7995191716966
20
0.912956945735885
30
0
0
SPLINE
5
1B8
100
AcDbEntity
8
1
62
256
6
ByLayer
370
13
48
1
60
0
100
AcDbSpline
70
4
71
3
72
10
73
6
40
0
40
0
40
0
40
0
40
0.253255410205165
40
0.809115642746132
40
1
40
1
40
1
40
1
41
1
10
69.3003644195644
20
0.894708056535251
30
0
41
1
10
69.3127291277297
20
0.629146187277627
30
0
41
1
10
69.3522326407596
20
-0.235663274168701
30
0
41
1
10
69.4010557019861
20
-1.31102538719099
30
0
41
1
10
69.4375140639202
20
-2.02969303626327
30
0
41
1
10
69.4468336239537
20
-2.20614970374146
30
0
0
SPLINE
5
1B9
100
AcDbEntity
8
1
62
256
6
ByLayer
370
18
48
1
60
0
100
AcDbSpline
70
4
71
3
72
12
73
8
40
0
40
0
40
0
40
0
40
0.273670950095622
40
0.273670950095622
40
0.547341841259736
40
0.547341841259736
40
1
40
1
40
1
40
1
41
1
10
69.4468336239537
20
-2.20614970374149
30
0
41
1
10
69.4848806475995
20
-2.24771261515261
30
0
41
1
10
69.5229227244962
20
-2.28933407620505
30
0
41
1
10
69.599003020967
20
-2.37256562334241
30
0
41
1
10
69.6370410891826
20
-2.41417869079484
30
0
41
1
10
69.7379895788519
20
-2.52462931204676
30
0
41
1
10
69.8008962580271
20
-2.59347766980514
30
0
41
1
10
69.8637979776668
20
-2.66234592587162
30
0
0
SPLINE
5
1BA
100
AcDbEntity
8
1
62
256
6
ByLayer
370
18
48
1
60
0
100
AcDbSpline
70
4
71
3
72
12
73
8
40
0
40
0
40
0
40
0
40
0.239114268014371
40
0.239114268014371
40
0.514979838332113
40
0.514979838332113
40
1
40
1
40
1
40
1
41
1
10
69.7147597770539
20
1.00758966567489
30
0
41
1
10
69.6817442280947
20
0.998554533414023
30
0
41
1
10
69.6487258801241
20
0.989526567123448
30
0
41
1
10
69.5776076294119
20
0.970101428059991
30
0
41
1
10
69.5395066967193
20
0.959707078418376
30
0
41
1
10
69.4344046340534
20
0.931074740664144
30
0
41
1
10
69.3673937136295
20
0.912864878499931
30
0
41
1
10
69.3003644195643
20
0.894708056535251
30
0
0
SPLINE
5
1BB
100
AcDbEntity
8
1
62
256
6
ByLayer
370
18
48
1
60
0
100
AcDbSpline
70
4
71
3
72
10
73
6
40
0
40
0
40
0
40
0
40
0.5
40
0.5
40
1
40
1
40
1
40
1
41
1
10
65.0931643771603
20
-2.53435021196429
30
0
41
1
10
65.1417273934889
20
-2.48016336621285
30
0
41
1
10
65.1902579206463
20
-2.42597501264265
30
0
41
1
10
65.287238900589
20
-2.31756267139846
30
0
41
1
10
65.3356863725372
20
-2.26331521080641
30
0
41
1
10
65.3840949335998
20
-2.20911554157976
30
0
0
SPLINE
5
1BC
100
AcDbEntity
8
1
62
256
6
ByLayer
370
13
48
1
60
0
100
AcDbSpline
70
4
71
3
72
11
73
7
40
0
40
0
40
0
40
0
40
0.283454801374927
40
0.563715340020898
40
0.843975878666869
40
1
40
1
40
1
40
1
41
1
10
65.2388434745724
20
0.865055394326276
30
0
41
1
10
65.2525675656058
20
0.56987622214308
30
0
41
1
10
65.2798611226652
20
-0.0293286566235906
30
0
41
1
10
65.3207239275773
20
-0.925419746555406
30
0
41
1
10
65.3554170173695
20
-1.65309659947539
30
0
41
1
10
65.3765406931589
20
-2.06615289785754
30
0
41
1
10
65.3840949335998
20
-2.20911554157976
30
0
0
SPLINE
5
1BD
100
AcDbEntity
8
1
62
256
6
ByLayer
370
18
48
1
60
0
100
AcDbSpline
70
4
71
3
72
12
73
8
40
0
40
0
40
0
40
0
40
0.402965107046124
40
0.402965107046124
40
0.80593020958912
40
0.80593020958912
40
1
40
1
40
1
40
1
41
1
10
65.2388434745724
20
0.865055394326305
30
0
41
1
10
65.2009342266327
20
0.874875008999055
30
0
41
1
10
65.1630203635563
20
0.884712789332724
30
0
41
1
10
65.087184783629
20
0.904420652987199
30
0
41
1
10
65.0492630632106
20
0.91429073666589
30
0
41
1
10
64.993073104927
20
0.928935229120782
30
0
41
1
10
64.9748074408254
20
0.933698786537008
30
0
41
1
10
64.9565410540232
20
0.938465394154917
30
0
0
SPLINE
5
1BE
100
AcDbEntity
8
1
62
256
6
ByLayer
370
18
48
1
60
0
100
AcDbSpline
70
4
71
3
72
26
73
22
40
0
40
0
40
0
40
0
40
0.125000000000001
40
0.250000000000001
40
0.375000000000002
40
0.375000000000002
40
0.406250000000003
40
0.406250000000003
40
0.437500000000003
40
0.437500000000003
40
0.500000000000003
40
0.500000000000003
40
0.625000000000003
40
0.750000000000002
40
0.750000000000002
40
0.812500000000002
40
0.843750000000002
40
0.843750000000002
40
0.875000000000001
40
0.875000000000001
40
1
40
1
40
1
40
1
41
1
10
64.5529562926859
20
0.926778660226802
30
0
41
1
10
64.5597251897712
20
0.780973635888444
30
0
41
1
10
64.5731934359436
20
0.488460343809919
30
0
41
1
10
64.5931083390267
20
0.0470425234305196
30
0
41
1
10
64.6062917404289
20
-0.248997187488357
30
0
41
1
10
64.6145819802136
20
-0.434582693157751
30
0
41
1
10
64.6162427596745
20
-0.471727875973642
30
0
41
1
10
64.619572603812
20
-0.546074858997542
30
0
41
1
10
64.6212392819776
20
-0.583223100350722
30
0
41
1
10
64.6262312995947
20
-0.694196259373513
30
0
41
1
10
64.6295580450896
20
-0.767707338618976
30
0
41
1
10
64.6395405679173
20
-0.986852159398666
30
0
41
1
10
64.6528395973323
20
-1.27534881771271
30
0
41
1
10
64.6661116274486
20
-1.55656798895697
30
0
41
1
10
64.6761049355601
20
-1.76472655514195
30
0
41
1
10
64.6811109718377
20
-1.86811581222969
30
0
41
1
10
64.6861357801263
20
-1.97045490183129
30
0
41
1
10
64.6894909457316
20
-2.03844516250115
30
0
41
1
10
64.6911725399276
20
-2.07235026909089
30
0
41
1
10
64.69957941907
20
-2.24092856280956
30
0
41
1
10
64.7062805715904
20
-2.37241117591867
30
0
41
1
10
64.7130217779402
20
-2.5005298216058
30
0
0
SPLINE
5
1BF
100
AcDbEntity
8
1
62
256
6
ByLayer
370
18
48
1
60
0
100
AcDbSpline
70
4
71
3
72
8
73
4
40
0
40
0
40
0
40
0
40
1
40
1
40
1
40
1
41
1
10
64.7130217779522
20
-2.50052982160617
30
0
41
1
10
64.8397357570267
20
-2.5118032479813
30
0
41
1
10
64.9664499599777
20
-2.52307666537507
30
0
41
1
10
65.0931643771603
20
-2.53435021196429
30
0
0
SPLINE
5
1C0
100
AcDbEntity
8
1
62
256
6
ByLayer
370
18
48
1
60
0
100
AcDbSpline
70
4
71
3
72
28
73
24
40
0
40
0
40
0
40
0
40
0.125
40
0.125
40
0.249999999999999
40
0.249999999999999
40
0.374999999999999
40
0.374999999999999
40
0.406249999999999
40
0.406249999999999
40
0.437499999999999
40
0.437499999999999
40
0.499999999999999
40
0.499999999999999
40
0.625
40
0.625
40
0.75
40
0.75
40
0.8125
40
0.8125
40
0.875
40
0.875
40
1
40
1
40
1
40
1
41
1
10
65.0931643771603
20
-2.53435021196429
30
0
41
1
10
65.0874649000741
20
-2.40507910386566
30
0
41
1
10
65.0818133808679
20
-2.27303124841728
30
0
41
1
10
65.0705305475122
20
-2.00351863287997
30
0
41
1
10
65.0648881385333
20
-1.86605337240414
30
0
41
1
10
65.0535733216898
20
-1.58570221564762
30
0
41
1
10
65.047907983299
20
-1.44281676975825
30
0
41
1
10
65.0407901436494
20
-1.26073256200857
30
0
41
1
10
65.0393646030744
20
-1.22414148519257
30
0
41
1
10
65.0365082431451
20
-1.15060709895295
30
0
41
1
10
65.0350786451243
20
-1.11369498286157
30
0
41
1
10
65.0308018404003
20
-1.00300440738985
30
0
41
1
10
65.0279589853509
20
-0.929092214272458
30
0
41
1
10
65.0194501571759
20
-0.707006665613989
30
0
41
1
10
65.0138066466084
20
-0.558484996455377
30
0
41
1
10
65.0025086344258
20
-0.26052935416854
30
0
41
1
10
64.9968504927169
20
-0.111095472436745
30
0
41
1
10
64.9882663057664
20
0.113743410286531
30
0
41
1
10
64.9853920057351
20
0.188804656181645
30
0
41
1
10
64.9796248790062
20
0.339160595135695
30
0
41
1
10
64.9767299441019
20
0.414510368668204
30
0
41
1
10
64.9680360926178
20
0.64056593482664
30
0
41
1
10
64.962275638583
20
0.79009911534709
30
0
41
1
10
64.9565410540232
20
0.938465394154917
30
0
0
SPLINE
5
1C1
100
AcDbEntity
8
1
62
256
6
ByLayer
370
18
48
1
60
0
100
AcDbSpline
70
4
71
3
72
8
73
4
40
0
40
0
40
0
40
0
40
1
40
1
40
1
40
1
41
1
10
64.9565410540233
20
0.938465394154917
30
0
41
1
10
64.8220127977934
20
0.934569736039947
30
0
41
1
10
64.6874845440138
20
0.930674142366286
30
0
41
1
10
64.5529562926858
20
0.926778660226773
30
0
0
SPLINE
5
1C2
100
AcDbEntity
8
1
62
256
6
ByLayer
370
18
48
1
60
0
100
AcDbSpline
70
4
71
3
72
12
73
8
40
0
40
0
40
0
40
0
40
0.12923977707473
40
0.12923977707473
40
0.445085574419678
40
0.445085574419678
40
1
40
1
40
1
40
1
41
1
10
65.9135503907496
20
0.966178849287815
30
0
41
1
10
65.8979649207232
20
0.961904411592315
30
0
41
1
10
65.8823788178218
20
0.957631719819688
30
0
41
1
10
65.8286999403415
20
0.942923612559042
30
0
41
1
10
65.790603857226
20
0.932497591719368
30
0
41
1
10
65.6855637017274
20
0.903790827545265
30
0
41
1
10
65.6186102508862
20
0.885538004856443
30
0
41
1
10
65.5516391529127
20
0.867337915779274
30
0
0
SPLINE
5
1C3
100
AcDbEntity
8
1
62
256
6
ByLayer
370
13
48
1
60
0
100
AcDbSpline
70
4
71
3
72
11
73
7
40
0
40
0
40
0
40
0
40
0.279780933230222
40
0.559862432036955
40
0.839943930843689
40
1
40
1
40
1
40
1
41
1
10
65.5516391529127
20
0.867337915779302
30
0
41
1
10
65.5651939929632
20
0.57580657061493
30
0
41
1
10
65.5923182332788
20
-0.0195488868887992
30
0
41
1
10
65.6330118657993
20
-0.912139237556261
30
0
41
1
10
65.6679050749768
20
-1.644785088671
30
0
41
1
10
65.6892288805382
20
-2.06215380431294
30
0
41
1
10
65.6969832847506
20
-2.20891502218828
30
0
0
SPLINE
5
1C4
100
AcDbEntity
8
1
62
256
6
ByLayer
370
18
48
1
60
0
100
AcDbSpline
70
4
71
3
72
12
73
8
40
0
40
0
40
0
40
0
40
0.302300144503556
40
0.302300144503556
40
0.604600257239166
40
0.604600257239166
40
1
40
1
40
1
40
1
41
1
10
65.6969832847506
20
-2.20891502218831
30
0
41
1
10
65.7350341569232
20
-2.25046862430446
30
0
41
1
10
65.773080465135
20
-2.29206834337401
30
0
41
1
10
65.849169292567
20
-2.37524661040871
30
0
41
1
10
65.8872114322821
20
-2.4168340109641
30
0
41
1
10
65.9750064517029
20
-2.51282628433293
30
0
41
1
10
66.0247576623176
20
-2.56723673581379
30
0
41
1
10
66.0745054428145
20
-2.62165994369099
30
0
0
SPLINE
5
1C5
100
AcDbEntity
8
1
62
256
6
ByLayer
370
18
48
1
60
0
100
AcDbSpline
70
4
71
3
72
26
73
22
40
0
40
0
40
0
40
0
40
0.125
40
0.25
40
0.25
40
0.374999999999999
40
0.374999999999999
40
0.437499999999999
40
0.437499999999999
40
0.499999999999999
40
0.499999999999999
40
0.625
40
0.625
40
0.75
40
0.75
40
0.8125
40
0.84375
40
0.84375
40
0.875
40
0.875
40
1
40
1
40
1
40
1
41
1
10
65.9135503907496
20
0.966178849287815
30
0
41
1
10
65.9203024008304
20
0.813486160512383
30
0
41
1
10
65.9336189546565
20
0.507102377020914
30
0
41
1
10
65.9467846718472
20
0.198780725551586
30
0
41
1
10
65.960059003353
20
-0.110501823217277
30
0
41
1
10
65.9667633594834
20
-0.265622795223464
30
0
41
1
10
65.9769043903564
20
-0.499045023065236
30
0
41
1
10
65.9803054488343
20
-0.577122805202976
30
0
41
1
10
65.98707131015
20
-0.731969135426311
30
0
41
1
10
65.9904432037428
20
-0.808901475645172
30
0
41
1
10
66.000538003892
20
-1.03825077554785
30
0
41
1
10
66.0072473273598
20
-1.18922305277852
30
0
41
1
10
66.0206426871401
20
-1.48736761319506
30
0
41
1
10
66.0273243372491
20
-1.63453988062585
30
0
41
1
10
66.0373745505092
20
-1.85241496068409
30
0
41
1
10
66.0424075446617
20
-1.96063052147633
30
0
41
1
10
66.0474711283314
20
-2.06774603496834
30
0
41
1
10
66.050853700454
20
-2.13890923281733
30
0
41
1
10
66.0525492415911
20
-2.1743857161583
30
0
41
1
10
66.0610132210836
20
-2.35050926956299
30
0
41
1
10
66.0677594397538
20
-2.48785613323355
30
0
41
1
10
66.0745054428112
20
-2.62165994368783
30
0
0
SPLINE
5
1C6
100
AcDbEntity
8
1
62
256
6
ByLayer
370
18
48
1
60
0
100
AcDbSpline
70
4
71
3
72
8
73
4
40
0
40
0
40
0
40
0
40
1
40
1
40
1
40
1
41
1
10
66.0745054428222
20
-2.6216599436882
30
0
41
1
10
66.1330394433496
20
-2.62686778762628
30
0
41
1
10
66.1915734864251
20
-2.6320756480954
30
0
41
1
10
66.2501075715043
20
-2.63728352364669
30
0
0
SPLINE
5
1C7
100
AcDbEntity
8
1
62
256
6
ByLayer
370
18
48
1
60
0
100
AcDbSpline
70
4
71
3
72
8
73
4
40
0
40
0
40
0
40
0
40
1
40
1
40
1
40
1
41
1
10
66.1127967150105
20
0.971948627558618
30
0
41
1
10
66.0463812729937
20
0.970025383424087
30
0
41
1
10
65.9799658315734
20
0.968102122111645
30
0
41
1
10
65.9135503907496
20
0.966178849287815
30
0
0
SPLINE
5
1C8
100
AcDbEntity
8
1
62
256
6
ByLayer
370
18
48
1
60
0
100
AcDbSpline
70
4
71
3
72
27
73
23
40
0
40
0
40
0
40
0
40
0.125
40
0.125
40
0.249999999999999
40
0.374999999999999
40
0.374999999999999
40
0.406249999999999
40
0.406249999999999
40
0.437499999999999
40
0.437499999999999
40
0.5
40
0.5
40
0.624999999999999
40
0.749999999999999
40
0.749999999999999
40
0.812499999999999
40
0.843749999999999
40
0.843749999999999
40
0.874999999999999
40
0.874999999999999
40
1
40
1
40
1
40
1
41
1
10
66.2501075715043
20
-2.63728352364669
30
0
41
1
10
66.2443682888829
20
-2.50314414846116
30
0
41
1
10
66.2386725464068
20
-2.36608889437247
30
0
41
1
10
66.2273076514534
20
-2.08629672767611
30
0
41
1
10
66.2159801269673
20
-1.80082218619657
30
0
41
1
10
66.2046003433908
20
-1.50398563744957
30
0
41
1
10
66.1973875295587
20
-1.31481837934408
30
0
41
1
10
66.1959400218155
20
-1.27680232560337
30
0
41
1
10
66.1930362913311
20
-1.20040114718006
30
0
41
1
10
66.1915803291981
20
-1.16202258040136
30
0
41
1
10
66.1872241054427
20
-1.04694505885536
30
0
41
1
10
66.1843279098422
20
-0.970101122729091
30
0
41
1
10
66.1756699904345
20
-0.739199168508804
30
0
41
1
10
66.1642119712725
20
-0.430344323397918
30
0
41
1
10
66.1528967506346
20
-0.119551442568564
30
0
41
1
10
66.144402325617
20
0.114275060319528
30
0
41
1
10
66.140152314559
20
0.231371541840673
30
0
41
1
10
66.135879020256
20
0.348746358185252
30
0
41
1
10
66.1330223081898
20
0.427058662478629
30
0
41
1
10
66.1315890405242
20
0.466273595180439
30
0
41
1
10
66.1244078644583
20
0.662182683356491
30
0
41
1
10
66.1186204163632
20
0.817678742303741
30
0
41
1
10
66.1127967150105
20
0.971948627558618
30
0
0
SPLINE
5
1C9
100
AcDbEntity
8
1
62
256
6
ByLayer
370
18
48
1
60
0
100
AcDbSpline
70
4
71
3
72
10
73
6
40
0
40
0
40
0
40
0
40
0.5
40
0.5
40
1
40
1
40
1
40
1
41
1
10
66.2501075715043
20
-2.63728352364669
30
0
41
1
10
66.3142176605631
20
-2.56579438545336
30
0
41
1
10
66.3782763753847
20
-2.49430381284151
30
0
41
1
10
66.5062640945569
20
-2.3512875759836
30
0
41
1
10
66.5701867980903
20
-2.27971110133978
30
0
41
1
10
66.6340403034854
20
-2.20820715957274
30
0
0
SPLINE
5
1CA
100
AcDbEntity
8
1
62
256
6
ByLayer
370
13
48
1
60
0
100
AcDbSpline
70
4
71
3
72
11
73
7
40
0
40
0
40
0
40
0
40
0.0882064719469242
40
0.64729506723717
40
0.926839364882293
40
1
40
1
40
1
40
1
41
1
10
66.4884166923892
20
0.874230171213725
30
0
41
1
10
66.4926983386002
20
0.782209556482371
30
0
41
1
10
66.524118821216
20
0.10248243007041
30
0
41
1
10
66.5691089117668
20
-0.903215672879668
30
0
41
1
10
66.6133684055372
20
-1.81177444361387
30
0
41
1
10
66.63048902188
20
-2.14097655481194
30
0
41
1
10
66.6340403034854
20
-2.20820715957274
30
0
0
SPLINE
5
1CB
100
AcDbEntity
8
1
62
256
6
ByLayer
370
18
48
1
60
0
100
AcDbSpline
70
4
71
3
72
12
73
8
40
0
40
0
40
0
40
0
40
0.302793039199929
40
0.302793039199929
40
0.605586074961735
40
0.605586074961735
40
1
40
1
40
1
40
1
41
1
10
66.4884166923892
20
0.874230171213696
30
0
41
1
10
66.4505190388619
20
0.884040381437927
30
0
41
1
10
66.4126163687459
20
0.893868739476176
30
0
41
1
10
66.3368024766419
20
0.913557730700688
30
0
41
1
10
66.2988912509368
20
0.92341836424248
30
0
41
1
10
66.2115889763658
20
0.94615582620159
30
0
41
1
10
66.1621953816075
20
0.95904249196343
30
0
41
1
10
66.1127967150105
20
0.971948627558618
30
0
0
SPLINE
5
1CC
100
AcDbEntity
8
1
62
256
6
ByLayer
370
18
48
1
60
0
100
AcDbSpline
70
4
71
3
72
28
73
24
40
0
40
0
40
0
40
0
40
0.125000000000001
40
0.125000000000001
40
0.250000000000002
40
0.250000000000002
40
0.375000000000003
40
0.375000000000003
40
0.406250000000004
40
0.406250000000004
40
0.437500000000004
40
0.437500000000004
40
0.500000000000003
40
0.500000000000003
40
0.625000000000002
40
0.625000000000002
40
0.750000000000001
40
0.750000000000001
40
0.812500000000001
40
0.812500000000001
40
0.875000000000001
40
0.875000000000001
40
1
40
1
40
1
40
1
41
1
10
75.021142255509
20
-2.60758970256413
30
0
41
1
10
75.0129439280929
20
-2.47354623768402
30
0
41
1
10
75.0049729956676
20
-2.33634662244171
30
0
41
1
10
74.9895191788965
20
-2.05574553808233
30
0
41
1
10
74.9820485505323
20
-1.91234200957078
30
0
41
1
10
74.9676051952939
20
-1.61931960809144
30
0
41
1
10
74.9606200423883
20
-1.46970399942504
30
0
41
1
10
74.9521622565032
20
-1.27870956360522
30
0
41
1
10
74.9504843227077
20
-1.24031155127628
30
0
41
1
10
74.9471542198407
20
-1.16311340447211
30
0
41
1
10
74.9455020702265
20
-1.12431060118456
30
0
41
1
10
74.940610341773
20
-1.0079629687493
30
0
41
1
10
74.9374260595423
20
-0.930257806164974
30
0
41
1
10
74.9280701024163
20
-0.696731957562207
30
0
41
1
10
74.9220992920523
20
-0.540501592286176
30
0
41
1
10
74.9105862277094
20
-0.22697274138423
30
0
41
1
10
74.9050360994499
20
-0.0696747892116321
30
0
41
1
10
74.8969321256096
20
0.167075989997414
30
0
41
1
10
74.8942704573029
20
0.246127306961881
30
0
41
1
10
74.8890212067671
20
0.404503003705798
30
0
41
1
10
74.8864304230406
20
0.483930673713274
30
0
41
1
10
74.8788120586732
20
0.72084369557129
30
0
41
1
10
74.8739153975278
20
0.877476581516788
30
0
41
1
10
74.8691736567607
20
1.03279524551647
30
0
0
SPLINE
5
1CD
100
AcDbEntity
8
1
62
256
6
ByLayer
370
18
48
1
60
0
100
AcDbSpline
70
4
71
3
72
8
73
4
40
0
40
0
40
0
40
0
40
1
40
1
40
1
40
1
41
1
10
74.8691736567607
20
1.03279524551647
30
0
41
1
10
74.8143146767865
20
1.03564373274617
30
0
41
1
10
74.7594551586024
20
1.03849359361414
30
0
41
1
10
74.7045951252218
20
1.04134476749906
30
0
0
SPLINE
5
1CE
100
AcDbEntity
8
1
62
256
6
ByLayer
370
18
48
1
60
0
100
AcDbSpline
70
4
71
3
72
8
73
4
40
0
40
0
40
0
40
0
40
1
40
1
40
1
40
1
41
1
10
74.8542699306277
20
-2.64865037432457
30
0
41
1
10
74.9098948692504
20
-2.6349646040523
30
0
41
1
10
74.9655189875513
20
-2.62127770134768
30
0
41
1
10
75.0211422555089
20
-2.60758970256413
30
0
0
SPLINE
5
1CF
100
AcDbEntity
8
1
62
256
6
ByLayer
370
18
48
1
60
0
100
AcDbSpline
70
4
71
3
72
28
73
24
40
0
40
0
40
0
40
0
40
0.125000000000002
40
0.125000000000002
40
0.250000000000003
40
0.250000000000003
40
0.375000000000005
40
0.375000000000005
40
0.406250000000005
40
0.406250000000005
40
0.437500000000005
40
0.500000000000005
40
0.500000000000005
40
0.625000000000004
40
0.625000000000004
40
0.750000000000003
40
0.750000000000003
40
0.812500000000002
40
0.812500000000002
40
0.843750000000002
40
0.843750000000002
40
0.875000000000002
40
1
40
1
40
1
40
1
41
1
10
74.7045951252218
20
1.04134476749906
30
0
41
1
10
74.7119328460291
20
0.884638015127706
30
0
41
1
10
74.7191582411143
20
0.727229491458161
30
0
41
1
10
74.7333515062108
20
0.411043559213738
30
0
41
1
10
74.7403164680082
20
0.252266007529414
30
0
41
1
10
74.7539718835691
20
-0.0666661236336665
30
0
41
1
10
74.7606618170654
20
-0.226820630282617
30
0
41
1
10
74.7688764545074
20
-0.427905275914242
30
0
41
1
10
74.7705115054473
20
-0.468152065439824
30
0
41
1
10
74.7737503840686
20
-0.548287723869265
30
0
41
1
10
74.7785687530584
20
-0.6681209820741
30
0
41
1
10
74.7832755921584
20
-0.786854127519149
30
0
41
1
10
74.792567467986
20
-1.02287119055572
30
0
41
1
10
74.7986129086753
20
-1.17828520201775
30
0
41
1
10
74.8104717590651
20
-1.4852757743694
30
0
41
1
10
74.816267717451
20
-1.63685323171128
30
0
41
1
10
74.824763163118
20
-1.86128160144844
30
0
41
1
10
74.8275625975398
20
-1.9356005923274
30
0
41
1
10
74.8317207158184
20
-2.0463280483678
30
0
41
1
10
74.8330988019121
20
-2.08307875197187
30
0
41
1
10
74.8358317912566
20
-2.15602715631601
30
0
41
1
10
74.8426134729095
20
-2.3371862559728
30
0
41
1
10
74.8491391690678
20
-2.51233958712964
30
0
41
1
10
74.8542699306277
20
-2.64865037432457
30
0
0
SPLINE
5
1D0
100
AcDbEntity
8
1
62
256
6
ByLayer
370
18
48
1
60
0
100
AcDbSpline
70
4
71
3
72
12
73
8
40
0
40
0
40
0
40
0
40
0.222553562287948
40
0.222553562287948
40
0.504172043485037
40
0.504172043485037
40
1
40
1
40
1
40
1
41
1
10
74.7045951252218
20
1.04134476749906
30
0
41
1
10
74.6744943319693
20
1.03314106055234
30
0
41
1
10
74.6443911288405
20
1.02494346007666
30
0
41
1
10
74.5761894288249
20
1.00638882109089
30
0
41
1
10
74.5380893390158
20
0.996036075112499
30
0
41
1
10
74.4328955257789
20
0.967493260035837
30
0
41
1
10
74.3657917543779
20
0.949331601667325
30
0
41
1
10
74.2986692108811
20
0.93122339745176
30
0
0
SPLINE
5
1D1
100
AcDbEntity
8
1
62
256
6
ByLayer
370
13
48
1
60
0
100
AcDbSpline
70
4
71
3
72
11
73
7
40
0
40
0
40
0
40
0
40
0.0350790024439024
40
0.585332821137149
40
0.860459730483772
40
1
40
1
40
1
40
1
41
1
10
74.2986692108811
20
0.93122339745176
30
0
41
1
10
74.3003993256498
20
0.894135576958263
30
0
41
1
10
74.3292682469871
20
0.273519234643032
30
0
41
1
10
74.3717065724871
20
-0.677042015528485
30
0
41
1
10
74.4192969765762
20
-1.67275448675355
30
0
41
1
10
74.4397485729913
20
-2.07197434814592
30
0
41
1
10
74.4466307701341
20
-2.20236603532473
30
0
0
SPLINE
5
1D2
100
AcDbEntity
8
1
62
256
6
ByLayer
370
18
48
1
60
0
100
AcDbSpline
70
4
71
3
72
12
73
8
40
0
40
0
40
0
40
0
40
0.279931995321534
40
0.279931995321534
40
0.559863860046351
40
0.559863860046351
40
1
40
1
40
1
40
1
41
1
10
74.446630770134
20
-2.20236603532473
30
0
41
1
10
74.4846786074044
20
-2.24393372968737
30
0
41
1
10
74.5227208478225
20
-2.28557504185167
30
0
41
1
10
74.5988005349342
20
-2.36887074378251
30
0
41
1
10
74.6368382417286
20
-2.41051819588222
30
0
41
1
10
74.7346775753547
20
-2.5176486971809
30
0
41
1
10
74.7944760902426
20
-2.58313928486291
30
0
41
1
10
74.8542699306277
20
-2.64865037432457
30
0
0
SPLINE
5
1D3
100
AcDbEntity
8
1
62
256
6
ByLayer
370
18
48
1
60
0
100
AcDbSpline
70
4
71
3
72
8
73
4
40
0
40
0
40
0
40
0
40
1
40
1
40
1
40
1
41
1
10
74.5585264378853
20
5.07817856417117
30
0
41
1
10
74.5578064736683
20
5.07868023220152
30
0
41
1
10
74.55708567727
20
5.07908269237677
30
0
41
1
10
74.556363931928
20
5.07938534945177
30
0
0
SPLINE
5
1D4
100
AcDbEntity
8
1
62
256
6
ByLayer
370
18
48
1
60
0
100
AcDbSpline
70
4
71
3
72
12
73
8
40
0
40
0
40
0
40
0
40
0.444288560731472
40
0.444288560731472
40
0.947870050474299
40
0.947870050474299
40
1
40
1
40
1
40
1
41
1
10
71.919981528299
20
5.05016020878571
30
0
41
1
10
71.9227336172663
20
5.05776893467879
30
0
41
1
10
71.9254903506483
20
5.06394060394794
30
0
41
1
10
71.9313867136381
20
5.0740151529331
30
0
41
1
10
71.934528950257
20
5.07750226199468
30
0
41
1
10
71.9380151809139
20
5.07925037816199
30
0
41
1
10
71.9383423172849
20
5.07939386724973
30
0
41
1
10
71.9386695092419
20
5.07951687572137
30
0
0
SPLINE
5
1D5
100
AcDbEntity
8
1
62
256
6
ByLayer
370
18
48
1
60
0
100
AcDbSpline
70
4
71
3
72
10
73
6
40
0
40
0
40
0
40
0
40
0.521769821318217
40
0.521769821318217
40
1
40
1
40
1
40
1
41
1
10
68.170283262024
20
5.05083296144988
30
0
41
1
10
68.1714882010738
20
5.05412734596396
30
0
41
1
10
68.1726947012207
20
5.05714823020679
30
0
41
1
10
68.175010045362
20
5.0624094283273
30
0
41
1
10
68.1761196957537
20
5.06469548144489
30
0
41
1
10
68.1772290553278
20
5.06674530043978
30
0
0
SPLINE
5
1D6
100
AcDbEntity
8
1
62
256
6
ByLayer
370
18
48
1
60
0
100
AcDbSpline
70
4
71
3
72
125
73
121
40
0
40
0
40
0
40
0
40
0.0624999999999822
40
0.0624999999999822
40
0.124999999999964
40
0.124999999999964
40
0.187499999999946
40
0.187499999999946
40
0.249999999999929
40
0.249999999999929
40
0.281249999999919
40
0.281249999999919
40
0.31249999999991
40
0.31249999999991
40
0.3437499999999
40
0.3437499999999
40
0.374999999999891
40
0.374999999999891
40
0.390624999999886
40
0.390624999999886
40
0.406249999999881
40
0.406249999999881
40
0.421874999999876
40
0.421874999999876
40
0.429687499999873
40
0.429687499999873
40
0.437499999999871
40
0.437499999999871
40
0.445312499999868
40
0.445312499999868
40
0.453124999999866
40
0.453124999999866
40
0.460937499999864
40
0.460937499999864
40
0.464843749999863
40
0.464843749999863
40
0.468749999999862
40
0.468749999999862
40
0.47656249999986
40
0.47656249999986
40
0.480468749999858
40
0.480468749999858
40
0.484374999999857
40
0.484374999999857
40
0.486328124999857
40
0.486328124999857
40
0.488281249999856
40
0.488281249999856
40
0.490234374999856
40
0.490234374999856
40
0.491210937499856
40
0.491210937499856
40
0.492187499999856
40
0.492187499999856
40
0.494140624999856
40
0.494140624999856
40
0.495117187499856
40
0.495117187499856
40
0.496093749999856
40
0.497070312499856
40
0.497070312499856
40
0.498046874999856
40
0.498046874999856
40
0.499999999999857
40
0.499999999999857
40
0.501953124999857
40
0.501953124999857
40
0.502929687499857
40
0.502929687499857
40
0.503906249999857
40
0.503906249999857
40
0.505859374999858
40
0.505859374999858
40
0.507812499999858
40
0.507812499999858
40
0.509765624999859
40
0.509765624999859
40
0.511718749999859
40
0.511718749999859
40
0.515624999999861
40
0.515624999999861
40
0.519531249999862
40
0.519531249999862
40
0.523437499999863
40
0.523437499999863
40
0.527343749999865
40
0.527343749999865
40
0.531249999999866
40
0.531249999999866
40
0.539062499999868
40
0.539062499999868
40
0.54687499999987
40
0.54687499999987
40
0.562499999999874
40
0.562499999999874
40
0.578124999999879
40
0.578124999999879
40
0.593749999999883
40
0.593749999999883
40
0.609374999999887
40
0.609374999999887
40
0.624999999999892
40
0.624999999999892
40
0.6562499999999
40
0.6562499999999
40
0.687499999999909
40
0.687499999999909
40
0.718749999999917
40
0.718749999999917
40
0.749999999999926
40
0.749999999999926
40
0.812499999999944
40
0.812499999999944
40
0.874999999999962
40
0.874999999999962
40
0.906249999999972
40
0.906249999999972
40
0.937499999999981
40
0.937499999999981
40
1
40
1
40
1
40
1
41
1
10
53.5704363989317
20
-3.3023638443531
30
0
41
1
10
52.7530558224756
20
-3.30236384435318
30
0
41
1
10
51.9357052971013
20
-3.30466374385278
30
0
41
1
10
50.3011822215029
20
-3.31363474995303
30
0
41
1
10
49.4842154836037
20
-3.32026135288095
30
0
41
1
10
47.851043048858
20
-3.33752877110416
30
0
41
1
10
47.0348199241154
20
-3.34817396565398
30
0
41
1
10
45.4032082482679
20
-3.37272803201688
30
0
41
1
10
44.5878179869295
20
-3.38665347161148
30
0
41
1
10
43.3655025485311
20
-3.40890867367756
30
0
41
1
10
42.9580994249783
20
-3.41655008340143
30
0
41
1
10
42.1441337171343
20
-3.43195288916598
30
0
41
1
10
41.7375843883651
20
-3.43971643094585
30
0
41
1
10
40.9255220093804
20
-3.45490139835914
30
0
41
1
10
40.520006766915
20
-3.46232743447897
30
0
41
1
10
39.7102669152285
20
-3.47612252403755
30
0
41
1
10
39.3060377458886
20
-3.48250205132908
30
0
41
1
10
38.7009616279307
20
-3.49036822285547
30
0
41
1
10
38.4994823708955
20
-3.49270190407648
30
0
41
1
10
38.0970312383926
20
-3.49654916589563
30
0
41
1
10
37.8960586255708
20
-3.49806474538696
30
0
41
1
10
37.4947402915588
20
-3.49992614654047
30
0
41
1
10
37.2943929138671
20
-3.50027640491828
30
0
41
1
10
36.9944852751438
20
-3.49951417777163
30
0
41
1
10
36.8945758651137
20
-3.49904318863185
30
0
41
1
10
36.6953020921438
20
-3.49756679901338
30
0
41
1
10
36.5959257853862
20
-3.49656159303177
30
0
41
1
10
36.397778155801
20
-3.49388493529449
30
0
41
1
10
36.2990069739728
20
-3.49221436983109
30
0
41
1
10
36.1022074720155
20
-3.48802195455053
30
0
41
1
10
36.0041779214094
20
-3.48550177996719
30
0
41
1
10
35.8090633306548
20
-3.47933623889975
30
0
41
1
10
35.7119755801555
20
-3.4756945641366
30
0
41
1
10
35.5672935313756
20
-3.46906032273844
30
0
41
1
10
35.5192255870095
20
-3.46665206605888
30
0
41
1
10
35.4234704369002
20
-3.4613576436227
30
0
41
1
10
35.375860413369
20
-3.45847574073397
30
0
41
1
10
35.2342462032115
20
-3.44898243764752
30
0
41
1
10
35.1413193480049
20
-3.44155613955473
30
0
41
1
10
35.0055132916952
20
-3.42768672981481
30
0
41
1
10
34.9608499664729
20
-3.42260223470154
30
0
41
1
10
34.8731790060648
20
-3.41115599087107
30
0
41
1
10
34.8301614758554
20
-3.40480222658266
30
0
41
1
10
34.7674684572172
20
-3.39384184091608
30
0
41
1
10
34.7469388948482
20
-3.38995536523186
30
0
41
1
10
34.7071002839557
20
-3.38166318536719
30
0
41
1
10
34.6877489002337
20
-3.37725130473888
30
0
41
1
10
34.6504884008127
20
-3.36775039471829
30
0
41
1
10
34.6325757898151
20
-3.36266302196503
30
0
41
1
10
34.6071406711489
20
-3.3543569392555
30
0
41
1
10
34.5988921179175
20
-3.35146968809059
30
0
41
1
10
34.5831289858513
20
-3.34549489969189
30
0
41
1
10
34.575594084669
20
-3.34240141762416
30
0
41
1
10
34.554172862546
20
-3.33275831735781
30
0
41
1
10
34.5414519471296
20
-3.32585161570242
30
0
41
1
10
34.5255339008726
20
-3.3145201288209
30
0
41
1
10
34.5208017674878
20
-3.31060404185899
30
0
41
1
10
34.5127166286301
20
-3.30256694155492
30
0
41
1
10
34.5059708800874
20
-3.29429749797924
30
0
41
1
10
34.5021357547062
20
-3.28552262153934
30
0
41
1
10
34.4998914526773
20
-3.27647128223489
30
0
41
1
10
34.4995883764526
20
-3.27187988669041
30
0
41
1
10
34.5010707515991
20
-3.25803453671818
30
0
41
1
10
34.5052317540849
20
-3.24865751517927
30
0
41
1
10
34.5194429613151
20
-3.22963081940412
30
0
41
1
10
34.5291942420898
20
-3.22034844527212
30
0
41
1
10
34.5468144824851
20
-3.20669635833158
30
0
41
1
10
34.5531921849236
20
-3.20219075307381
30
0
41
1
10
34.5668412460277
20
-3.19325957989935
30
0
41
1
10
34.5741383395372
20
-3.18882059393195
30
0
41
1
10
34.5969216774424
20
-3.17578034789486
30
0
41
1
10
34.613368796868
20
-3.16741703111808
30
0
41
1
10
34.6481324805437
20
-3.15118645867361
30
0
41
1
10
34.666447670234
20
-3.14331787724501
30
0
41
1
10
34.704518812575
20
-3.12796241710743
30
0
41
1
10
34.7243389387874
20
-3.1204545161801
30
0
41
1
10
34.7648291647299
20
-3.10585923638428
30
0
41
1
10
34.7854568879742
20
-3.09878449336603
30
0
41
1
10
34.8482451708665
20
-3.07808935273024
30
0
41
1
10
34.8912984792532
20
-3.06499090973642
30
0
41
1
10
34.9790340289435
20
-3.03975523016314
30
0
41
1
10
35.023725334548
20
-3.02762324177809
30
0
41
1
10
35.114329981906
20
-3.00408876190795
30
0
41
1
10
35.1602468087227
20
-2.99268828387051
30
0
41
1
10
35.253043501197
20
-2.97047011393588
30
0
41
1
10
35.2999249571318
20
-2.95965333880272
30
0
41
1
10
35.3944745127245
20
-2.93850319389895
30
0
41
1
10
35.4419473266878
20
-2.92821385614937
30
0
41
1
10
35.5848242271767
20
-2.89806377452018
30
0
41
1
10
35.6806957556705
20
-2.87891037117154
30
0
41
1
10
35.8733335050684
20
-2.84200991355729
30
0
41
1
10
35.970103408876
20
-2.82426845434605
30
0
41
1
10
36.2614456841758
20
-2.77270860777665
30
0
41
1
10
36.4570379015773
20
-2.74053933365013
30
0
41
1
10
36.8500308528214
20
-2.67929899303908
30
0
41
1
10
37.0474442077978
20
-2.65024556114682
30
0
41
1
10
37.4436156821383
20
-2.5945706679629
30
0
41
1
10
37.6423775948388
20
-2.56795367258201
30
0
41
1
10
38.0409562187845
20
-2.51672952160257
30
0
41
1
10
38.2408115112632
20
-2.49212154311707
30
0
41
1
10
38.6412363755955
20
-2.44466859845659
30
0
41
1
10
38.8415745118855
20
-2.42185283791591
30
0
41
1
10
39.4429077972391
20
-2.35581594503964
30
0
41
1
10
39.8442184306085
20
-2.31498445801515
30
0
41
1
10
40.6474841467228
20
-2.23859982611935
30
0
41
1
10
41.0494409158165
20
-2.20305537154746
30
0
41
1
10
41.853878573828
20
-2.13655385005154
30
0
41
1
10
42.2563602108023
20
-2.10560067748691
30
0
41
1
10
43.061766065784
20
-2.04780097784638
30
0
41
1
10
43.4646906611085
20
-2.02095643368537
30
0
41
1
10
44.674041469422
20
-1.94605793768679
30
0
41
1
10
45.4810393402043
20
-1.90360413321085
30
0
41
1
10
47.0962719197925
20
-1.83187251981047
30
0
41
1
10
47.9045086150168
20
-1.80260254563436
30
0
41
1
10
49.1176681216594
20
-1.76777042060539
30
0
41
1
10
49.5221894735858
20
-1.75767647746778
30
0
41
1
10
50.3314886709179
20
-1.74043335356109
30
0
41
1
10
50.736299463852
20
-1.73328380331773
30
0
41
1
10
51.9508532528237
20
-1.71616382113518
30
0
41
1
10
52.7606156882072
20
-1.71050909064255
30
0
41
1
10
53.5704363989317
20
-1.71050909064252
30
0
0
SPLINE
5
1D7
100
AcDbEntity
8
1
62
256
6
ByLayer
370
18
48
1
60
0
100
AcDbSpline
70
4
71
3
72
8
73
4
40
0
40
0
40
0
40
0
40
1
40
1
40
1
40
1
41
1
10
56.6359814996787
20
-1.72471110093534
30
0
41
1
10
56.757343662455
20
-1.75819216890792
30
0
41
1
10
56.8786818225992
20
-1.79379637799502
30
0
41
1
10
57
20
-1.83150142367694
30
0
0
SPLINE
5
1D8
100
AcDbEntity
8
1
62
256
6
ByLayer
370
18
48
1
60
0
100
AcDbSpline
70
4
71
3
72
12
73
8
40
0
40
0
40
0
40
0
40
0.499999999999808
40
0.499999999999808
40
0.749999999999904
40
0.749999999999904
40
1
40
1
40
1
40
1
41
1
10
56.5359814996787
20
-1.7119828671664
30
0
41
1
10
56.5535609229243
20
-1.71199210734557
30
0
41
1
10
56.5707522233563
20
-1.7130681717733
30
0
41
1
10
56.5959743478678
20
-1.71625384042267
30
0
41
1
10
56.6043299987617
20
-1.71759165261909
30
0
41
1
10
56.6205158465311
20
-1.72077047441687
30
0
41
1
10
56.6283695619102
20
-1.72261113995876
30
0
41
1
10
56.635981499679
20
-1.72471110093511
30
0
0
SPLINE
5
1D9
100
AcDbEntity
8
1
62
256
6
ByLayer
370
18
48
1
60
0
100
AcDbSpline
70
4
71
3
72
10
73
6
40
0
40
0
40
0
40
0
40
0.496659612824967
40
0.496659612824967
40
1
40
1
40
1
40
1
41
1
10
53.5704359055161
20
-1.71050473638485
30
0
41
1
10
54.0613914896437
20
-1.71073608866828
30
0
41
1
10
54.5523470697121
20
-1.71097407858357
30
0
41
1
10
55.5408622680035
20
-1.71146661320853
30
0
41
1
10
56.0384218862293
20
-1.71172133754243
30
0
41
1
10
56.5359814996787
20
-1.71198286716702
30
0
0
SPLINE
5
1DA
100
AcDbEntity
8
1
62
256
6
ByLayer
370
18
48
1
60
0
100
AcDbSpline
70
4
71
3
72
125
73
121
40
0
40
0
40
0
40
0
40
0.0624999999999977
40
0.0624999999999977
40
0.124999999999995
40
0.124999999999995
40
0.187499999999993
40
0.187499999999993
40
0.249999999999991
40
0.249999999999991
40
0.28124999999999
40
0.28124999999999
40
0.31249999999999
40
0.31249999999999
40
0.343749999999989
40
0.343749999999989
40
0.374999999999988
40
0.374999999999988
40
0.390624999999988
40
0.390624999999988
40
0.406249999999988
40
0.406249999999988
40
0.421874999999988
40
0.421874999999988
40
0.429687499999989
40
0.429687499999989
40
0.437499999999989
40
0.437499999999989
40
0.445312499999989
40
0.445312499999989
40
0.453124999999989
40
0.453124999999989
40
0.460937499999989
40
0.460937499999989
40
0.464843749999989
40
0.464843749999989
40
0.468749999999989
40
0.468749999999989
40
0.476562499999989
40
0.476562499999989
40
0.480468749999989
40
0.480468749999989
40
0.484374999999989
40
0.484374999999989
40
0.486328124999989
40
0.486328124999989
40
0.488281249999989
40
0.488281249999989
40
0.490234374999989
40
0.490234374999989
40
0.491210937499989
40
0.491210937499989
40
0.492187499999989
40
0.492187499999989
40
0.494140624999989
40
0.494140624999989
40
0.495117187499989
40
0.495117187499989
40
0.496093749999989
40
0.497070312499989
40
0.497070312499989
40
0.498046874999989
40
0.498046874999989
40
0.499999999999989
40
0.499999999999989
40
0.501953124999989
40
0.501953124999989
40
0.502929687499989
40
0.502929687499989
40
0.503906249999989
40
0.503906249999989
40
0.505859374999989
40
0.505859374999989
40
0.507812499999989
40
0.507812499999989
40
0.509765624999989
40
0.509765624999989
40
0.511718749999989
40
0.511718749999989
40
0.515624999999989
40
0.515624999999989
40
0.519531249999989
40
0.519531249999989
40
0.52343749999999
40
0.52343749999999
40
0.52734374999999
40
0.52734374999999
40
0.53124999999999
40
0.53124999999999
40
0.53906249999999
40
0.53906249999999
40
0.54687499999999
40
0.54687499999999
40
0.56249999999999
40
0.56249999999999
40
0.57812499999999
40
0.57812499999999
40
0.59374999999999
40
0.59374999999999
40
0.60937499999999
40
0.60937499999999
40
0.62499999999999
40
0.62499999999999
40
0.656249999999991
40
0.656249999999991
40
0.687499999999992
40
0.687499999999992
40
0.718749999999992
40
0.718749999999992
40
0.749999999999993
40
0.749999999999993
40
0.812499999999995
40
0.812499999999995
40
0.874999999999996
40
0.874999999999996
40
0.906249999999997
40
0.906249999999997
40
0.937499999999999
40
0.937499999999999
40
1
40
1
40
1
40
1
41
1
10
53.5704363989317
20
0.647043097296489
30
0
41
1
10
52.7530558225458
20
0.647043097296745
30
0
41
1
10
51.9357052972418
20
0.653812769096987
30
0
41
1
10
50.3011822217838
20
0.680850776366043
30
0
41
1
10
49.4842154839548
20
0.700972440524168
30
0
41
1
10
47.8510430493491
20
0.755658484433241
30
0
41
1
10
47.0348199246764
20
0.790206461235215
30
0
41
1
10
45.4032082489685
20
0.875515280904864
30
0
41
1
10
44.5878179876999
20
0.926248848746781
30
0
41
1
10
43.3655025494059
20
1.01688620361961
30
0
41
1
10
42.9580994258879
20
1.04954286175044
30
0
41
1
10
42.1441337181129
20
1.12031423820116
30
0
41
1
10
41.7375843893785
20
1.15842258642655
30
0
41
1
10
40.925522010463
20
1.24094370512196
30
0
41
1
10
40.5200067680323
20
1.28534475219448
30
0
41
1
10
39.7102669164151
20
1.38173676713237
30
0
41
1
10
39.30603774711
20
1.43370371586101
30
0
41
1
10
38.7009616292041
20
1.51883274862126
30
0
41
1
10
38.4994823721862
20
1.5484130410986
30
0
41
1
10
38.0970312397178
20
1.61038945873392
30
0
41
1
10
37.8960586269133
20
1.64278182684078
30
0
41
1
10
37.4947402929357
20
1.71098067689565
30
0
41
1
10
37.2943929152611
20
1.74677869607279
30
0
41
1
10
36.994485276563
20
1.80375715372034
30
0
41
1
10
36.8945758665402
20
1.82330935737977
30
0
41
1
10
36.6953020935778
20
1.86363950824366
30
0
41
1
10
36.5959257868242
20
1.88442502657873
30
0
41
1
10
36.3977781572474
20
1.92740998809509
30
0
41
1
10
36.2990069754237
20
1.94961035764612
30
0
41
1
10
36.1022074734755
20
1.99572823600059
30
0
41
1
10
36.0041779228742
20
2.01964305247671
30
0
41
1
10
35.8090633321293
20
2.06963139879917
30
0
41
1
10
35.711975581635
20
2.0956989992826
30
0
41
1
10
35.5672935328623
20
2.13694748499137
30
0
41
1
10
35.5192255884986
20
2.15105732770655
30
0
41
1
10
35.4234704383938
20
2.18013326003492
30
0
41
1
10
35.3758604148452
20
2.1950759875769
30
0
41
1
10
35.2342462046634
20
2.24128330792095
30
0
41
1
10
35.1413193494441
20
2.2738986671292
30
0
41
1
10
35.0055132931191
20
2.32714690639136
30
0
41
1
10
34.9608499678921
20
2.34562663920468
30
0
41
1
10
34.8731790074745
20
2.38457321982452
30
0
41
1
10
34.8301614772605
20
2.40502842750615
30
0
41
1
10
34.7674684586111
20
2.43790109349283
30
0
41
1
10
34.7469388961908
20
2.44920100702862
30
0
41
1
10
34.7071002852269
20
2.47247501027522
30
0
41
1
10
34.6877489014694
20
2.48446912572669
30
0
41
1
10
34.6504884019755
20
2.50936267434605
30
0
41
1
10
34.6325757909405
20
2.52225992499592
30
0
41
1
10
34.6071406722136
20
2.54250443631705
30
0
41
1
10
34.5988921189552
20
2.54941511368875
30
0
41
1
10
34.5831289868273
20
2.56343646585953
30
0
41
1
10
34.575594085613
20
2.5705620829383
30
0
41
1
10
34.5541728633898
20
2.59233095983916
30
0
41
1
10
34.5414519479007
20
2.60736028223209
30
0
41
1
10
34.5255339015136
20
2.63095048548522
30
0
41
1
10
34.5208017680624
20
2.63893729628296
30
0
41
1
10
34.512716629087
20
2.65497734530456
30
0
41
1
10
34.5059707412988
20
2.67114114936558
30
0
41
1
10
34.5021357549169
20
2.6875735129324
30
0
41
1
10
34.4998914527536
20
2.7041524590253
30
0
41
1
10
34.4995883764568
20
2.71238118675237
30
0
41
1
10
34.5010707514037
20
2.73667479922548
30
0
41
1
10
34.5052317537639
20
2.75244278420897
30
0
41
1
10
34.5194429607409
20
2.78318460348899
30
0
41
1
10
34.5291942414433
20
2.79757038079862
30
0
41
1
10
34.5468144817134
20
2.81801769271092
30
0
41
1
10
34.5531921841122
20
2.82464401831544
30
0
41
1
10
34.5668412451391
20
2.83756106712494
30
0
41
1
10
34.5741383386156
20
2.84387006718353
30
0
41
1
10
34.5969216764526
20
2.8621129185257
30
0
41
1
10
34.6133687958373
20
2.87342503529965
30
0
41
1
10
34.6481324794402
20
2.89479170385155
30
0
41
1
10
34.6664476690974
20
2.904846300244
30
0
41
1
10
34.7045188113749
20
2.92398574427674
30
0
41
1
10
34.7243389375502
20
2.93309431841592
30
0
41
1
10
34.7648291634786
20
2.95039878025486
30
0
41
1
10
34.7854568867169
20
2.95858120279666
30
0
41
1
10
34.848245169592
20
2.98201886941464
30
0
41
1
10
34.8912984779687
20
2.9961797638488
30
0
41
1
10
34.9790340276382
20
3.02251357217571
30
0
41
1
10
35.023725333232
20
3.03467532372861
30
0
41
1
10
35.1143299805668
20
3.05751579060211
30
0
41
1
10
35.1602468073712
20
3.06819020982778
30
0
41
1
10
35.2530434998185
20
3.0883781919282
30
0
41
1
10
35.2999249557387
20
3.09788979245329
30
0
41
1
10
35.3944745113004
20
3.11597210122937
30
0
41
1
10
35.4419473253026
20
3.12450483375858
30
0
41
1
10
35.5848242258245
20
3.1488594533582
30
0
41
1
10
35.6806957543374
20
3.16345494221832
30
0
41
1
10
35.8733335037687
20
3.19032787623365
30
0
41
1
10
35.9701034075906
20
3.20259554720931
30
0
41
1
10
36.2614456829278
20
3.23677293081889
30
0
41
1
10
36.4570379003464
20
3.25609543804589
30
0
41
1
10
36.8500308516135
20
3.29036049468308
30
0
41
1
10
37.0474442065958
20
3.30526770616407
30
0
41
1
10
37.4436156809393
20
3.33197876638863
30
0
41
1
10
37.6423775936368
20
3.34377099577458
30
0
41
1
10
38.0409562175698
20
3.36504364335323
30
0
41
1
10
38.2408115099963
20
3.37451976493699
30
0
41
1
10
38.6412363744077
20
3.39167443129097
30
0
41
1
10
38.8415745107352
20
3.39934079430984
30
0
41
1
10
39.4429077961954
20
3.42019293299217
30
0
41
1
10
39.8442184296286
20
3.43126261334481
30
0
41
1
10
40.6474841458592
20
3.44972898411893
30
0
41
1
10
41.0494409150054
20
3.45710768131997
30
0
41
1
10
41.8538785731125
20
3.46936003008264
30
0
41
1
10
42.25636021013
20
3.47422576439021
30
0
41
1
10
43.0617660651904
20
3.48222311179117
30
0
41
1
10
43.4646906605505
20
3.48535076191365
30
0
41
1
10
44.6740414689602
20
3.4929327478379
30
0
41
1
10
45.4810393397935
20
3.49563133973305
30
0
41
1
10
47.0962719194618
20
3.49896378515169
30
0
41
1
10
47.9045086147153
20
3.49957251284135
30
0
41
1
10
49.1176681213878
20
3.49996570457179
30
0
41
1
10
49.5221894733219
20
3.50000293310222
30
0
41
1
10
50.3314886706647
20
3.49999672669821
30
0
41
1
10
50.7362994635899
20
3.49995307483471
30
0
41
1
10
51.95085325268
20
3.49980776157685
30
0
41
1
10
52.7606156881376
20
3.49970514764348
30
0
41
1
10
53.5704363989317
20
3.49970514764348
30
0
0
SPLINE
5
1DB
100
AcDbEntity
8
1
62
256
6
ByLayer
370
18
48
1
60
0
100
AcDbSpline
70
4
71
3
72
8
73
4
40
0
40
0
40
0
40
0
40
1
40
1
40
1
40
1
41
1
10
74.5585264378876
20
5.07817856417117
30
0
41
1
10
74.5213662716466
20
5.07817775874526
30
0
41
1
10
74.4842061054039
20
5.07817695311888
30
0
41
1
10
74.4470459391595
20
5.07817614729214
30
0
0
SPLINE
5
1DC
100
AcDbEntity
8
1
62
256
6
ByLayer
370
18
48
1
60
0
100
AcDbSpline
70
4
71
3
72
8
73
4
40
0
40
0
40
0
40
0
40
1
40
1
40
1
40
1
41
1
10
73.3085715762276
20
5.07815139665158
30
0
41
1
10
73.2714161646454
20
5.07815058684832
30
0
41
1
10
73.2342607530614
20
5.07814977684592
30
0
41
1
10
73.1971053414759
20
5.07814896664453
30
0
0
SPLINE
5
1DD
100
AcDbEntity
8
1
62
256
6
ByLayer
370
18
48
1
60
0
100
AcDbSpline
70
4
71
3
72
8
73
4
40
0
40
0
40
0
40
0
40
1
40
1
40
1
40
1
41
1
10
72.0585683221617
20
5.07812407783112
30
0
41
1
10
72.0214337661895
20
5.07812326403322
30
0
41
1
10
71.9842992102156
20
5.07812245003768
30
0
41
1
10
71.9471646542401
20
5.07812163584467
30
0
0
SPLINE
5
1DE
100
AcDbEntity
8
1
62
256
6
ByLayer
370
18
48
1
60
0
100
AcDbSpline
70
4
71
3
72
8
73
4
40
0
40
0
40
0
40
0
40
1
40
1
40
1
40
1
41
1
10
70.8086543989448
20
5.07809661169901
30
0
41
1
10
70.7714997798557
20
5.07809579303907
30
0
41
1
10
70.7343451607649
20
5.07809497418259
30
0
41
1
10
70.6971905416725
20
5.07809415512969
30
0
0
SPLINE
5
1DF
100
AcDbEntity
8
1
62
256
6
ByLayer
370
18
48
1
60
0
100
AcDbSpline
70
4
71
3
72
8
73
4
40
0
40
0
40
0
40
0
40
1
40
1
40
1
40
1
41
1
10
69.5586832479801
20
5.07806899601283
30
0
41
1
10
69.5216318037576
20
5.07806817524477
30
0
41
1
10
69.4845803595335
20
5.0780673542825
30
0
41
1
10
69.4475289153078
20
5.07806653312622
30
0
0
SPLINE
5
1E0
100
AcDbEntity
8
1
62
256
6
ByLayer
370
18
48
1
60
0
100
AcDbSpline
70
4
71
3
72
8
73
4
40
0
40
0
40
0
40
0
40
1
40
1
40
1
40
1
41
1
10
68.3085575075363
20
5.07804122955633
30
0
41
1
10
68.2714591525121
20
5.07804040339039
30
0
41
1
10
68.2343607974863
20
5.07803957703106
30
0
41
1
10
68.1972624424589
20
5.07803875047847
30
0
0
SPLINE
5
1E1
100
AcDbEntity
8
1
62
256
6
ByLayer
370
18
48
1
60
0
100
AcDbSpline
70
4
71
3
72
8
73
4
40
0
40
0
40
0
40
0
40
1
40
1
40
1
40
1
41
1
10
67.058781251317
20
5.07801332453224
30
0
41
1
10
67.0217315352783
20
5.07801249512653
30
0
41
1
10
66.9846818192378
20
5.07801166552923
30
0
41
1
10
66.9476321031959
20
5.07801083574043
30
0
0
SPLINE
5
1E2
100
AcDbEntity
8
1
62
256
6
ByLayer
370
18
48
1
60
0
100
AcDbSpline
70
4
71
3
72
8
73
4
40
0
40
0
40
0
40
0
40
1
40
1
40
1
40
1
41
1
10
56.5359814996787
20
0.669056200325343
30
0
41
1
10
55.5474655968749
20
0.661721774319574
30
0
41
1
10
54.5589496837601
20
0.654384075401168
30
0
41
1
10
53.5704337623047
20
0.647043078274805
30
0
0
SPLINE
5
1E3
100
AcDbEntity
8
1
62
256
6
ByLayer
370
18
48
1
60
0
100
AcDbSpline
70
4
71
3
72
12
73
8
40
0
40
0
40
0
40
0
40
0.5
40
0.5
40
0.75
40
0.75
40
1
40
1
40
1
40
1
41
1
10
56.6359814996787
20
0.673859028751338
30
0
41
1
10
56.6207585323521
20
0.672413649827263
30
0
41
1
10
56.6047317427609
20
0.671291110261649
30
0
41
1
10
56.5795212014281
20
0.670076649120404
30
0
41
1
10
56.5708715956692
20
0.669750238133844
30
0
41
1
10
56.5535067641266
20
0.669273637816929
30
0
41
1
10
56.5447710637777
20
0.669121415674283
30
0
41
1
10
56.5359814996787
20
0.66905620032739
30
0
0
SPLINE
5
1E4
100
AcDbEntity
8
1
62
256
6
ByLayer
370
18
48
1
60
0
100
AcDbSpline
70
4
71
3
72
8
73
4
40
0
40
0
40
0
40
0
40
1
40
1
40
1
40
1
41
1
10
57
20
0.708496317673763
30
0
41
1
10
56.8786596523701
20
0.69692614985621
30
0
41
1
10
56.757320090496
20
0.685379794583866
30
0
41
1
10
56.6359814996787
20
0.673859028751338
30
0
0
SPLINE
5
1E5
100
AcDbEntity
8
1
62
256
6
ByLayer
370
18
48
1
60
0
100
AcDbSpline
70
4
71
3
72
8
73
4
40
0
40
0
40
0
40
0
40
1
40
1
40
1
40
1
41
1
10
70.9640142051678
20
1.0165995383289
30
0
41
1
10
71.0011132336485
20
1.01686707159306
30
0
41
1
10
71.0382122621176
20
1.01713460197871
30
0
41
1
10
71.0753112905749
20
1.01740212948678
30
0
0
SPLINE
5
1E6
100
AcDbEntity
8
1
62
256
6
ByLayer
370
18
48
1
60
0
100
AcDbSpline
70
4
71
3
72
8
73
4
40
0
40
0
40
0
40
0
40
1
40
1
40
1
40
1
41
1
10
67.4753895208666
20
-2.66394891112435
30
0
41
1
10
67.4382268123053
20
-2.66397381209077
30
0
41
1
10
67.4010641037424
20
-2.66399871114871
30
0
41
1
10
67.3639013951779
20
-2.66402360829804
30
0
0
SPLINE
5
1E7
100
AcDbEntity
8
1
62
256
6
ByLayer
370
18
48
1
60
0
100
AcDbSpline
70
4
71
3
72
8
73
4
40
0
40
0
40
0
40
0
40
1
40
1
40
1
40
1
41
1
10
67.2152199754744
20
0.989555923195496
30
0
41
1
10
67.2523007590999
20
0.989823519689537
30
0
41
1
10
67.2893815427139
20
0.99009111327851
30
0
41
1
10
67.3264623263164
20
0.990358703963267
30
0
0
SPLINE
5
1E8
100
AcDbEntity
8
1
62
256
6
ByLayer
370
18
48
1
60
0
100
AcDbSpline
70
4
71
3
72
27
73
23
40
0
40
0
40
0
40
0
40
0.124999999999999
40
0.124999999999999
40
0.156249999999999
40
0.156249999999999
40
0.187499999999999
40
0.249999999999999
40
0.249999999999999
40
0.374999999999999
40
0.499999999999999
40
0.499999999999999
40
0.562499999999999
40
0.59375
40
0.59375
40
0.625
40
0.625
40
0.75
40
0.75
40
0.875
40
0.875
40
1
40
1
40
1
40
1
41
1
10
67.2152199754744
20
0.989555923195496
30
0
41
1
10
67.2213449053089
20
0.834706846531986
30
0
41
1
10
67.2275296687923
20
0.677999917803305
30
0
41
1
10
67.2353897889197
20
0.479725456157951
30
0
41
1
10
67.2369690251588
20
0.439897354286984
30
0
41
1
10
67.2401235823249
20
0.360322781443472
30
0
41
1
10
67.2448498431925
20
0.241077743957845
30
0
41
1
10
67.2495542802653
20
0.122179040806429
30
0
41
1
10
67.2589274574913
20
-0.115164234832349
30
0
41
1
10
67.2713252035676
20
-0.430413051648145
30
0
41
1
10
67.2835685258247
20
-0.743271755381272
30
0
41
1
10
67.2927678153604
20
-0.977004050493065
30
0
41
1
10
67.2973725681628
20
-1.09364186356362
30
0
41
1
10
67.3020076296997
20
-1.20993046585289
30
0
41
1
10
67.3051075597471
20
-1.28737756987994
30
0
41
1
10
67.3066586886052
20
-1.32596533173393
30
0
41
1
10
67.3144093664395
20
-1.51780380349948
30
0
41
1
10
67.3206036590595
20
-1.66819487535705
30
0
41
1
10
67.3329613235731
20
-1.96299094172775
30
0
41
1
10
67.3391247449759
20
-2.10739551281301
30
0
41
1
10
67.3514769597123
20
-2.39022833619819
30
0
41
1
10
67.3576704166658
20
-2.52865671552348
30
0
41
1
10
67.363901395178
20
-2.66402360829804
30
0
0
SPLINE
5
1E9
100
AcDbEntity
8
1
62
256
6
ByLayer
370
18
48
1
60
0
100
AcDbSpline
70
4
71
3
72
8
73
4
40
0
40
0
40
0
40
0
40
1
40
1
40
1
40
1
41
1
10
68.7253635759255
20
-2.6631106433739
30
0
41
1
10
68.6882133771287
20
-2.66313557871919
30
0
41
1
10
68.6510631783302
20
-2.66316051215901
30
0
41
1
10
68.61391297953
20
-2.66318544369321
30
0
0
SPLINE
5
1EA
100
AcDbEntity
8
1
62
256
6
ByLayer
370
18
48
1
60
0
100
AcDbSpline
70
4
71
3
72
32
73
28
40
0
40
0
40
0
40
0
40
0.0625000000000002
40
0.0625000000000002
40
0.0937500000000004
40
0.0937500000000004
40
0.125000000000001
40
0.125000000000001
40
0.250000000000001
40
0.250000000000001
40
0.375000000000002
40
0.500000000000002
40
0.500000000000002
40
0.531250000000002
40
0.531250000000002
40
0.562500000000002
40
0.562500000000002
40
0.625000000000002
40
0.625000000000002
40
0.750000000000001
40
0.750000000000001
40
0.875
40
0.875
40
0.9375
40
0.96875
40
0.96875
40
1
40
1
40
1
40
1
41
1
10
68.7253635759255
20
-2.6631106433739
30
0
41
1
10
68.7222575142014
20
-2.5955164533091
30
0
41
1
10
68.7191459728739
20
-2.52678118521916
30
0
41
1
10
68.7144632897424
20
-2.42193550323401
30
0
41
1
10
68.7128977414055
20
-2.38664975459341
30
0
41
1
10
68.7097708964113
20
-2.3157446448682
30
0
41
1
10
68.708210299042
20
-2.28014191445035
30
0
41
1
10
68.7004164029514
20
-2.10138555192384
30
0
41
1
10
68.6942021340286
20
-1.9560091243672
30
0
41
1
10
68.6817214623447
20
-1.66063812199238
30
0
41
1
10
68.6692302917563
20
-1.36064670386665
30
0
41
1
10
68.6567937163619
20
-1.05140845044375
30
0
41
1
10
68.6490133070788
20
-0.855167280202409
30
0
41
1
10
68.647456650158
20
-0.815770373513118
30
0
41
1
10
68.644340754674
20
-0.736675991755703
30
0
41
1
10
68.6427847472399
20
-0.697060390700585
30
0
41
1
10
68.6381329771069
20
-0.57834235256172
30
0
41
1
10
68.6350481886536
20
-0.49923170689334
30
0
41
1
10
68.6258166700256
20
-0.262003090337601
30
0
41
1
10
68.6196946461116
20
-0.10398814348008
30
0
41
1
10
68.6073293947816
20
0.21176373324414
30
0
41
1
10
68.6010822524365
20
0.369500509338223
30
0
41
1
10
68.5916782428559
20
0.605897206209164
30
0
41
1
10
68.5869671272527
20
0.724043323017554
30
0
41
1
10
68.5822464812643
20
0.842110047104825
30
0
41
1
10
68.5790971482948
20
0.920803356484356
30
0
41
1
10
68.5775195336332
20
0.960187310891797
30
0
41
1
10
68.5759481991464
20
0.999374426835487
30
0
0
SPLINE
5
1EB
100
AcDbEntity
8
1
62
256
6
ByLayer
370
18
48
1
60
0
100
AcDbSpline
70
4
71
3
72
8
73
4
40
0
40
0
40
0
40
0
40
1
40
1
40
1
40
1
41
1
10
68.4650389333161
20
0.998574244631897
30
0
41
1
10
68.5020086886043
20
0.998840974910735
30
0
41
1
10
68.538978443881
20
0.999107702311647
30
0
41
1
10
68.5759481991462
20
0.999374426835516
30
0
0
SPLINE
5
1EC
100
AcDbEntity
8
1
62
256
6
ByLayer
370
18
48
1
60
0
100
AcDbSpline
70
4
71
3
72
8
73
4
40
0
40
0
40
0
40
0
40
1
40
1
40
1
40
1
41
1
10
73.4633073835803
20
1.03461841662019
30
0
41
1
10
73.5004620385761
20
1.03488622199487
30
0
41
1
10
73.53761669356
20
1.03515402450191
30
0
41
1
10
73.574771348532
20
1.03542182414222
30
0
0
SPLINE
5
1ED
100
AcDbEntity
8
1
62
256
6
ByLayer
370
18
48
1
60
0
100
AcDbSpline
70
4
71
3
72
8
73
4
40
0
40
0
40
0
40
0
40
1
40
1
40
1
40
1
41
1
10
72.2139733898231
20
1.02561231609982
30
0
41
1
10
72.2510267241103
20
1.02587945538363
30
0
41
1
10
72.2880800583857
20
1.02614659180577
30
0
41
1
10
72.3251333926494
20
1.02641372536709
30
0
0
SPLINE
5
1EE
100
AcDbEntity
8
1
62
256
6
ByLayer
370
18
48
1
60
0
100
AcDbSpline
70
4
71
3
72
8
73
4
40
0
40
0
40
0
40
0
40
1
40
1
40
1
40
1
41
1
10
69.9753077736191
20
-2.66227095758555
30
0
41
1
10
69.9381378416367
20
-2.66229594892007
30
0
41
1
10
69.9009679096525
20
-2.66232093834881
30
0
41
1
10
69.8637979776668
20
-2.66234592587162
30
0
0
SPLINE
5
1EF
100
AcDbEntity
8
1
62
256
6
ByLayer
370
18
48
1
60
0
100
AcDbSpline
70
4
71
3
72
27
73
23
40
0
40
0
40
0
40
0
40
0.125000000000001
40
0.250000000000002
40
0.250000000000002
40
0.312500000000002
40
0.343750000000003
40
0.343750000000003
40
0.375000000000003
40
0.375000000000003
40
0.500000000000002
40
0.500000000000002
40
0.625000000000002
40
0.750000000000002
40
0.750000000000002
40
0.781250000000002
40
0.781250000000002
40
0.812500000000002
40
0.812500000000002
40
0.875000000000001
40
0.875000000000001
40
1
40
1
40
1
40
1
41
1
10
69.9753077736191
20
-2.66227095758555
30
0
41
1
10
69.9690798684264
20
-2.52672475447722
30
0
41
1
10
69.9567105256787
20
-2.24909387178539
30
0
41
1
10
69.944334499762
20
-1.95858873865649
30
0
41
1
10
69.9350165652438
20
-1.73582916988926
30
0
41
1
10
69.9303476602371
20
-1.62322726165957
30
0
41
1
10
69.9256484968133
20
-1.50876389441984
30
0
41
1
10
69.9225066187843
20
-1.43203682959691
30
0
41
1
10
69.920929608465
20
-1.39342612910093
30
0
41
1
10
69.9130554798953
20
-1.2002997124232
30
0
41
1
10
69.9067497388011
20
-1.04493337771029
30
0
41
1
10
69.8941795741891
20
-0.732521245449135
30
0
41
1
10
69.8816593088995
20
-0.41842898367247
30
0
41
1
10
69.8692579119275
20
-0.100990841358026
30
0
41
1
10
69.8615030464865
20
0.0984751366758871
30
0
41
1
10
69.8599516824754
20
0.138421794403001
30
0
41
1
10
69.8568463572141
20
0.218423006290692
30
0
41
1
10
69.8552910584766
20
0.258512040309824
30
0
41
1
10
69.850627070144
20
0.378710016330046
30
0
41
1
10
69.8475334356688
20
0.458413527894521
30
0
41
1
10
69.8382688363776
20
0.696263217968777
30
0
41
1
10
69.8321001534013
20
0.853150752244886
30
0
41
1
10
69.825897212685
20
1.00839129944336
30
0
0
SPLINE
5
1F0
100
AcDbEntity
8
1
62
256
6
ByLayer
370
18
48
1
60
0
100
AcDbSpline
70
4
71
3
72
8
73
4
40
0
40
0
40
0
40
0
40
1
40
1
40
1
40
1
41
1
10
69.7147597770539
20
1.00758966567491
30
0
41
1
10
69.7518055889426
20
1.00785687981076
30
0
41
1
10
69.7888514008196
20
1.00812409106663
30
0
41
1
10
69.8258972126849
20
1.00839129944339
30
0
0
SPLINE
5
1F1
100
AcDbEntity
8
1
62
256
6
ByLayer
370
18
48
1
60
0
100
AcDbSpline
70
4
71
3
72
28
73
24
40
0
40
0
40
0
40
0
40
0.125
40
0.25
40
0.25
40
0.3125
40
0.3125
40
0.34375
40
0.34375
40
0.375
40
0.375
40
0.5
40
0.5
40
0.625000000000001
40
0.625000000000001
40
0.750000000000001
40
0.750000000000001
40
0.781250000000001
40
0.781250000000001
40
0.812500000000001
40
0.875000000000001
40
0.875000000000001
40
1
40
1
40
1
40
1
41
1
10
68.4650389333161
20
0.998574244631868
30
0
41
1
10
68.4713186304922
20
0.843242768587771
30
0
41
1
10
68.4837945093966
20
0.530743834320333
30
0
41
1
10
68.4961077193192
20
0.21460098807583
30
0
41
1
10
68.5053417694055
20
-0.0238958998652663
30
0
41
1
10
68.508420259457
20
-0.103626840426074
30
0
41
1
10
68.5130521006559
20
-0.22357750063415
30
0
41
1
10
68.5145988825247
20
-0.263631412431295
30
0
41
1
10
68.5176834361332
20
-0.343430747256974
30
0
41
1
10
68.5192232583632
20
-0.383229270069421
30
0
41
1
10
68.526917506573
20
-0.581720959096714
30
0
41
1
10
68.5330752556978
20
-0.738914031425622
30
0
41
1
10
68.5454398077445
20
-1.05017243280622
30
0
41
1
10
68.551632370349
20
-1.20423817325866
30
0
41
1
10
68.5640512558975
20
-1.50923355909344
30
0
41
1
10
68.5702833471269
20
-1.66016320410139
30
0
41
1
10
68.578130557502
20
-1.8468060227311
30
0
41
1
10
68.5797043788681
20
-1.88407769671514
30
0
41
1
10
68.5828478939416
20
-1.95819459771332
30
0
41
1
10
68.5875521785791
20
-2.06861659665196
30
0
41
1
10
68.5922258412231
20
-2.17680424835055
30
0
41
1
10
68.6015451792172
20
-2.39024874230878
30
0
41
1
10
68.6077219201308
20
-2.52864357380361
30
0
41
1
10
68.6139129795301
20
-2.66318544369321
30
0
0
SPLINE
5
1F2
100
AcDbEntity
8
1
62
256
6
ByLayer
370
18
48
1
60
0
100
AcDbSpline
70
4
71
3
72
29
73
25
40
0
40
0
40
0
40
0
40
0.125
40
0.125
40
0.250000000000001
40
0.250000000000001
40
0.281250000000001
40
0.281250000000001
40
0.312500000000001
40
0.375000000000001
40
0.375000000000001
40
0.500000000000001
40
0.500000000000001
40
0.625000000000001
40
0.625000000000001
40
0.687500000000002
40
0.687500000000002
40
0.718750000000002
40
0.718750000000002
40
0.750000000000002
40
0.750000000000002
40
0.875000000000001
40
0.875000000000001
40
1
40
1
40
1
40
1
41
1
10
67.4753895208665
20
-2.66394891112435
30
0
41
1
10
67.4692178344864
20
-2.52962837565053
30
0
41
1
10
67.4630364471121
20
-2.39163266842257
30
0
41
1
10
67.4506553531331
20
-2.10825081112387
30
0
41
1
10
67.4444570580581
20
-1.96286520156022
30
0
41
1
10
67.4366568633546
20
-1.77636671428377
30
0
41
1
10
67.4350934499288
20
-1.73881423165824
30
0
41
1
10
67.4319757762338
20
-1.66362966296535
30
0
41
1
10
67.4273062896046
20
-1.55058686896928
30
0
41
1
10
67.4226569649802
20
-1.43675482250236
30
0
41
1
10
67.4133776247329
20
-1.20805449685901
30
0
41
1
10
67.4072195121969
20
-1.05420808746419
30
0
41
1
10
67.3948609091594
20
-0.743788604055482
30
0
41
1
10
67.388643187325
20
-0.587216237462656
30
0
41
1
10
67.3792308639
20
-0.350282608165827
30
0
41
1
10
67.3760828732733
20
-0.270958178534528
30
0
41
1
10
67.3713494991007
20
-0.15144216381205
30
0
41
1
10
67.3697680762069
20
-0.111472233476121
30
0
41
1
10
67.366609772082
20
-0.0315588363701238
30
0
41
1
10
67.3650351861464
20
0.008326457032922
30
0
41
1
10
67.357184954098
20
0.20739975422461
30
0
41
1
10
67.3509801373182
20
0.365530764394549
30
0
41
1
10
67.3386733608035
20
0.679594608095897
30
0
41
1
10
67.3325713832618
20
0.835527305645115
30
0
41
1
10
67.3264623263165
20
0.990358703963238
30
0
0
SPLINE
5
1F3
100
AcDbEntity
8
1
62
256
6
ByLayer
370
18
48
1
60
0
100
AcDbSpline
70
4
71
3
72
30
73
26
40
0
40
0
40
0
40
0
40
0.03125
40
0.03125
40
0.0625000000000001
40
0.0625000000000001
40
0.125
40
0.125
40
0.25
40
0.25
40
0.375
40
0.375
40
0.5
40
0.5
40
0.625
40
0.625
40
0.75
40
0.75
40
0.875000000000001
40
0.875000000000001
40
0.937500000000001
40
0.937500000000001
40
0.96875
40
0.96875
40
1
40
1
40
1
40
1
41
1
10
69.7147597770539
20
1.00758966567489
30
0
41
1
10
69.7163143830036
20
0.968503097753171
30
0
41
1
10
69.7178691971638
20
0.929263203885284
30
0
41
1
10
69.7209808793032
20
0.850473713451947
30
0
41
1
10
69.7225398229447
20
0.810871126047346
30
0
41
1
10
69.7272029148668
20
0.692098760656648
30
0
41
1
10
69.7302945659932
20
0.612931583678346
30
0
41
1
10
69.7395477413643
20
0.37547354291911
30
0
41
1
10
69.7456878403483
20
0.217226087455913
30
0
41
1
10
69.7580992540591
20
-0.0991477758879569
30
0
41
1
10
69.7643538238531
20
-0.257274841213445
30
0
41
1
10
69.7768832296049
20
-0.573411401512431
30
0
41
1
10
69.7831578113806
20
-0.731420917092237
30
0
41
1
10
69.7957273760767
20
-1.04731831180038
30
0
41
1
10
69.8019244355017
20
-1.20273892201516
30
0
41
1
10
69.8142210603959
20
-1.5084755845196
30
0
41
1
10
69.82032216623
20
-1.658828118358
30
0
41
1
10
69.8325868237843
20
-1.95453599991686
30
0
41
1
10
69.8387689571942
20
-2.09989081238894
30
0
41
1
10
69.848116970917
20
-2.31410551352525
30
0
41
1
10
69.8512444849089
20
-2.38487315646765
30
0
41
1
10
69.8559545050779
20
-2.49005014314608
30
0
41
1
10
69.8575286278158
20
-2.52496699422702
30
0
41
1
10
69.8606672886888
20
-2.59410794958467
30
0
41
1
10
69.8622337989945
20
-2.62837641823103
30
0
41
1
10
69.8637979776668
20
-2.66234592587159
30
0
0
SPLINE
5
1F4
100
AcDbEntity
8
SK1
62
256
6
ByLayer
370
18
48
1
60
0
100
AcDbSpline
70
4
71
3
72
22
73
18
40
0
40
0
40
0
40
0
40
0.124983802314505
40
0.124983802314505
40
0.24996760462901
40
0.24996760462901
40
0.499935209258021
40
0.499935209258021
40
0.749902813887031
40
0.749902813887031
40
0.781148764465658
40
0.781148764465658
40
0.812394715044284
40
0.874886616201537
40
0.874886616201537
40
0.999870418516043
40
1
40
1
40
1
40
1
41
1
10
-21.6
20
2.74999999999997
30
0
41
1
10
-21.6425101242836
20
2.74999999999997
30
0
41
1
10
-21.6838915937518
20
2.74999999999997
30
0
41
1
10
-21.7638322771203
20
2.74999999999997
30
0
41
1
10
-21.8021926489972
20
2.74999999999997
30
0
41
1
10
-21.9116128118806
20
2.74999999999997
30
0
41
1
10
-21.9770645254946
20
2.74999999999997
30
0
41
1
10
-22.0873601599756
20
2.74999999999997
30
0
41
1
10
-22.1321961551575
20
2.74999999999997
30
0
41
1
10
-22.1669769105785
20
2.74999999999997
30
0
41
1
10
-22.1706219029563
20
2.74999999999997
30
0
41
1
10
-22.1774281181226
20
2.74999999999997
30
0
41
1
10
-22.1869271078174
20
2.74999999999997
30
0
41
1
10
-22.1942720192454
20
2.74999999999997
30
0
41
1
10
-22.2060439582791
20
2.74999999999997
30
0
41
1
10
-22.209998589376
20
2.74999999999997
30
0
41
1
10
-22.2100009994306
20
2.74999999999997
30
0
41
1
10
-22.2099994090853
20
2.74999999999997
30
0
0
SPLINE
5
1F5
100
AcDbEntity
8
SK1
62
256
6
ByLayer
370
18
48
1
60
0
100
AcDbSpline
70
4
71
3
72
22
73
18
40
0
40
0
40
0
40
0
40
0.0001294636699312
40
0.12511328071119
40
0.12511328071119
40
0.187605189231819
40
0.218851143492134
40
0.218851143492134
40
0.250097097752449
40
0.250097097752449
40
0.500064731834966
40
0.500064731834966
40
0.750032365917483
40
0.750032365917483
40
0.875016182958741
40
0.875016182958741
40
1
40
1
40
1
40
1
41
1
10
-22.2099994109508
20
-2.75000000000003
30
0
41
1
10
-22.2100009994291
20
-2.75000000000003
30
0
41
1
10
-22.2099985875073
20
-2.75000000000003
30
0
41
1
10
-22.2060439582791
20
-2.75000000000003
30
0
41
1
10
-22.1942720192453
20
-2.75000000000003
30
0
41
1
10
-22.1869271078174
20
-2.75000000000003
30
0
41
1
10
-22.1774281181226
20
-2.75000000000003
30
0
41
1
10
-22.1706219029563
20
-2.75000000000003
30
0
41
1
10
-22.1669769105785
20
-2.75000000000003
30
0
41
1
10
-22.1321961551575
20
-2.75000000000003
30
0
41
1
10
-22.0873601599755
20
-2.75000000000003
30
0
41
1
10
-21.9770645254945
20
-2.75000000000003
30
0
41
1
10
-21.9116128118806
20
-2.75000000000003
30
0
41
1
10
-21.8021926489971
20
-2.75000000000003
30
0
41
1
10
-21.7638322771202
20
-2.75000000000003
30
0
41
1
10
-21.6838915937517
20
-2.75000000000003
30
0
41
1
10
-21.6425101242835
20
-2.75000000000003
30
0
41
1
10
-21.6
20
-2.75000000000003
30
0
0
SPLINE
5
1F6
100
AcDbEntity
8
SK1
62
256
6
ByLayer
370
18
48
1
60
0
100
AcDbSpline
70
4
71
3
72
34
73
30
40
0
40
0
40
0
40
0
40
0.0625
40
0.0625
40
0.125
40
0.125
40
0.25
40
0.25
40
0.375
40
0.375
40
0.40625
40
0.40625
40
0.4375
40
0.4375
40
0.5
40
0.5625
40
0.5625
40
0.59375
40
0.609375
40
0.609375
40
0.625
40
0.625
40
0.75
40
0.75
40
0.875
40
0.875
40
0.9375
40
0.9375
40
1
40
1
40
1
40
1
41
1
10
-21.6
20
-1.93056986405574
30
0
41
1
10
-21.6424853000041
20
-1.85662765110013
30
0
41
1
10
-21.6838381892748
20
-1.7818222426024
30
0
41
1
10
-21.7638065531685
20
-1.63012479391835
30
0
41
1
10
-21.8021885370536
20
-1.55367034926087
30
0
41
1
10
-21.911653350069
20
-1.32226720929202
30
0
41
1
10
-21.9771267451505
20
-1.16526228136479
30
0
41
1
10
-22.0874442974362
20
-0.84372957409758
30
0
41
1
10
-22.1322804090831
20
-0.679198860789256
30
0
41
1
10
-22.1709099891249
20
-0.467184547840503
30
0
41
1
10
-22.177724945591
20
-0.424646536716551
30
0
41
1
10
-22.1894189595335
20
-0.339690306825901
30
0
41
1
10
-22.1943092422736
20
-0.29721130241677
30
0
41
1
10
-22.2060636127594
20
-0.169771577748264
30
0
41
1
10
-22.2139462093349
20
0.0001552973887158
30
0
41
1
10
-22.2060439582791
20
0.170096847653895
30
0
41
1
10
-22.1942720192453
20
0.297558444665896
30
0
41
1
10
-22.1869271078174
20
0.361290599546067
30
0
41
1
10
-22.1774281181226
20
0.425024757066723
30
0
41
1
10
-22.1706219029563
20
0.467514635676906
30
0
41
1
10
-22.1669769105785
20
0.488786496404913
30
0
41
1
10
-22.1321961551575
20
0.679534613236967
30
0
41
1
10
-22.0873601599755
20
0.844004884015021
30
0
41
1
10
-21.9770645254945
20
1.16541350550278
30
0
41
1
10
-21.9116128118806
20
1.32235475073611
30
0
41
1
10
-21.8021926489971
20
1.5536607337431
30
0
41
1
10
-21.7638322771202
20
1.63007358631245
30
0
41
1
10
-21.6838915937517
20
1.78172334370566
30
0
41
1
10
-21.6425101242835
20
1.85658444645856
30
0
41
1
10
-21.5999999999999
20
1.9305698640558
30
0
0
SPLINE
5
1F7
100
AcDbEntity
8
1
62
256
6
ByLayer
370
18
48
1
60
0
100
AcDbSpline
70
4
71
3
72
8
73
4
40
0
40
0
40
0
40
0
40
1
40
1
40
1
40
1
41
1
10
62.7632783861779
20
4.35201638556643
30
0
41
1
10
62.7573208489571
20
4.32632539877036
30
0
41
1
10
62.7348222141139
20
4.30973165068278
30
0
41
1
10
62.6969227182786
20
4.29227444515058
30
0
0
SPLINE
5
1F8
100
AcDbEntity
8
1
62
256
6
ByLayer
370
18
48
1
60
0
100
AcDbSpline
70
4
71
2
72
6
73
3
40
0
40
0
40
0
40
1
40
1
40
1
41
1
10
76.5467230898851
20
4.40972722529926
30
0
41
1
10
76.529999368336
20
4.38086181604001
30
0
41
1
10
76.5132740943803
20
4.35199736398485
30
0
0
SPLINE
5
1F9
100
AcDbEntity
8
1
62
256
6
ByLayer
370
18
48
1
60
0
100
AcDbSpline
70
4
71
1
72
4
73
2
40
0
40
0
40
1
40
1
41
1
10
76.9999999999999
20
4.23981778581063
30
0
41
1
10
76.5554382523775
20
4.41056259416106
30
0
0
SPLINE
5
1FA
100
AcDbEntity
8
1
62
256
6
ByLayer
370
18
48
1
60
0
100
AcDbSpline
70
4
71
3
72
8
73
4
40
0
40
0
40
0
40
0
40
1
40
1
40
1
40
1
41
1
10
76.513274093061
20
4.35199736170802
30
0
41
1
10
76.5075782153289
20
4.32816770230551
30
0
41
1
10
76.4864062993057
20
4.31205768975801
30
0
41
1
10
76.4518223477935
20
4.29471486149055
30
0
0
SPLINE
5
1FB
100
AcDbEntity
8
1
62
256
6
ByLayer
370
18
48
1
60
0
100
AcDbSpline
70
4
71
3
72
9
73
5
40
0
40
0
40
0
40
0
40
0.715166984088926
40
1
40
1
40
1
40
1
41
1
10
75.2632733544723
20
4.35195000888962
30
0
41
1
10
75.257338189968
20
4.32686870568787
30
0
41
1
10
75.2248957023778
20
4.30376496725177
30
0
41
1
10
75.1635072951509
20
4.27686622911685
30
0
41
1
10
75.1419470559673
20
4.27625952398165
30
0
0
SPLINE
5
1FC
100
AcDbEntity
8
1
62
256
6
ByLayer
370
18
48
1
60
0
100
AcDbSpline
70
4
71
3
72
8
73
4
40
0
40
0
40
0
40
0
40
1
40
1
40
1
40
1
41
1
10
74.0132617408129
20
4.35197663905657
30
0
41
1
10
74.0075720140126
20
4.32801516141799
30
0
41
1
10
73.9862935027676
20
4.31186967301068
30
0
41
1
10
73.9514319271627
20
4.29450370568509
30
0
0
SPLINE
5
1FD
100
AcDbEntity
8
1
62
256
6
ByLayer
370
18
48
1
60
0
100
AcDbSpline
70
4
71
3
72
8
73
4
40
0
40
0
40
0
40
0
40
1
40
1
40
1
40
1
41
1
10
72.7632526086354
20
4.35190426277921
30
0
41
1
10
72.7576271247187
20
4.32776482467318
30
0
41
1
10
72.7361857827152
20
4.31160257507906
30
0
41
1
10
72.7009199817723
20
4.29417752466216
30
0
0
SPLINE
5
1FE
100
AcDbEntity
8
1
62
256
6
ByLayer
370
18
48
1
60
0
100
AcDbSpline
70
4
71
3
72
8
73
4
40
0
40
0
40
0
40
0
40
1
40
1
40
1
40
1
41
1
10
71.5132825152869
20
4.35201165284917
30
0
41
1
10
71.5074508672282
20
4.32749763713585
30
0
41
1
10
71.4858255382191
20
4.31118447174961
30
0
41
1
10
71.450084912371
20
4.29382185602367
30
0
0
SPLINE
5
1FF
100
AcDbEntity
8
1
62
256
6
ByLayer
370
18
48
1
60
0
100
AcDbSpline
70
4
71
3
72
8
73
4
40
0
40
0
40
0
40
0
40
1
40
1
40
1
40
1
41
1
10
70.2632922439456
20
4.35198142748575
30
0
41
1
10
70.2574839632145
20
4.32739601599948
30
0
41
1
10
70.235790460696
20
4.3110663905282
30
0
41
1
10
70.1998689645761
20
4.29368109623803
30
0
0
SPLINE
5
200
100
AcDbEntity
8
1
62
256
6
ByLayer
370
18
48
1
60
0
100
AcDbSpline
70
4
71
3
72
8
73
4
40
0
40
0
40
0
40
0
40
1
40
1
40
1
40
1
41
1
10
69.0131819965222
20
4.35178913413964
30
0
41
1
10
69.0073845087995
20
4.32652885260623
30
0
41
1
10
68.9851537090571
20
4.3100795951591
30
0
41
1
10
68.9479460041041
20
4.29257344564601
30
0
0
SPLINE
5
201
100
AcDbEntity
8
1
62
256
6
ByLayer
370
18
48
1
60
0
100
AcDbSpline
70
4
71
3
72
8
73
4
40
0
40
0
40
0
40
0
40
1
40
1
40
1
40
1
41
1
10
67.7632723236731
20
4.35196390435371
30
0
41
1
10
67.7575164143668
20
4.32715489162857
30
0
41
1
10
67.7356306800517
20
4.31079004483269
30
0
41
1
10
67.6992128528527
20
4.29335842710503
30
0
0
SPLINE
5
202
100
AcDbEntity
8
1
62
256
6
ByLayer
370
18
48
1
60
0
100
AcDbSpline
70
4
71
3
72
8
73
4
40
0
40
0
40
0
40
0
40
1
40
1
40
1
40
1
41
1
10
66.5131758799697
20
4.35144129535516
30
0
41
1
10
66.5074250733799
20
4.32652259174009
30
0
41
1
10
66.4854440122639
20
4.3101365218505
30
0
41
1
10
66.4487621629576
20
4.2927099618696
30
0
0
SPLINE
5
203
100
AcDbEntity
8
1
62
256
6
ByLayer
370
18
48
1
60
0
100
AcDbSpline
70
4
71
2
72
6
73
3
40
0
40
0
40
0
40
1
40
1
40
1
41
1
10
75.5270182979273
20
4.80730243643464
30
0
41
1
10
75.3951898522047
20
4.5796017823069
30
0
41
1
10
75.2632733547166
20
4.35195000931125
30
0
0
SPLINE
5
204
100
AcDbEntity
8
1
62
256
6
ByLayer
370
18
48
1
60
0
100
AcDbSpline
70
4
71
3
72
8
73
4
40
0
40
0
40
0
40
0
40
1
40
1
40
1
40
1
41
1
10
65.263291633244
20
4.3520372200131
30
0
41
1
10
65.2573710572539
20
4.32668196946616
30
0
41
1
10
65.2351210306262
20
4.31016389941723
30
0
41
1
10
65.1978474213469
20
4.29271798159505
30
0
0
SPLINE
5
205
100
AcDbEntity
8
1
62
256
6
ByLayer
370
18
48
1
60
0
100
AcDbSpline
70
4
71
3
72
8
73
4
40
0
40
0
40
0
40
0
40
1
40
1
40
1
40
1
41
1
10
61.513366823641
20
4.35206825933363
30
0
41
1
10
61.5089495650473
20
4.32604868045291
30
0
41
1
10
61.4861969577134
20
4.30968598068381
30
0
41
1
10
61.4456251699968
20
4.29157537081684
30
0
0
SPLINE
5
206
100
AcDbEntity
8
1
62
256
6
ByLayer
370
18
48
1
60
0
100
AcDbSpline
70
4
71
2
72
6
73
3
40
0
40
0
40
0
40
1
40
1
40
1
41
1
10
62.8803318717227
20
4.55404825866944
30
0
41
1
10
62.8218143149368
20
4.45302684786657
30
0
41
1
10
62.7632783861732
20
4.35201638555821
30
0
0
SPLINE
5
207
100
AcDbEntity
8
1
62
256
6
ByLayer
370
18
48
1
60
0
100
AcDbSpline
70
4
71
1
72
4
73
2
40
0
40
0
40
1
40
1
41
1
10
76.0931146599646
20
4.58812933133243
30
0
41
1
10
75.532688454205
20
4.80337492522614
30
0
0
SPLINE
5
208
100
AcDbEntity
8
1
62
256
6
ByLayer
370
18
48
1
60
0
100
AcDbSpline
70
4
71
2
72
6
73
3
40
0
40
0
40
0
40
1
40
1
40
1
41
1
10
64.2343584518986
20
4.72941093623388
30
0
41
1
10
64.1202899706108
20
4.53293423975288
30
0
41
1
10
64.0062044414542
20
4.33660362109393
30
0
0
SPLINE
5
209
100
AcDbEntity
8
1
62
256
6
ByLayer
370
18
48
1
60
0
100
AcDbSpline
70
4
71
2
72
6
73
3
40
0
40
0
40
0
40
1
40
1
40
1
41
1
10
65.5960369967278
20
4.922714521502
30
0
41
1
10
65.4263383227426
20
4.63022788466344
30
0
41
1
10
65.2566062903999
20
4.33804292001778
30
0
0
SPLINE
5
20A
100
AcDbEntity
8
1
62
256
6
ByLayer
370
18
48
1
60
0
100
AcDbSpline
70
4
71
2
72
6
73
3
40
0
40
0
40
0
40
1
40
1
40
1
41
1
10
74.4227996342155
20
5.05498193572501
30
0
41
1
10
74.2146494544963
20
4.6961071672113
30
0
41
1
10
74.0064513822861
20
4.33767782535074
30
0
0
SPLINE
5
20B
100
AcDbEntity
8
1
62
256
6
ByLayer
370
18
48
1
60
0
100
AcDbSpline
70
4
71
2
72
6
73
3
40
0
40
0
40
0
40
1
40
1
40
1
41
1
10
73.1713810608801
20
5.05247313828735
30
0
41
1
10
72.9639803729775
20
4.69492414959493
30
0
41
1
10
72.7565309098111
20
4.33781901660109
30
0
0
SPLINE
5
20C
100
AcDbEntity
8
1
62
256
6
ByLayer
370
18
48
1
60
0
100
AcDbSpline
70
4
71
2
72
6
73
3
40
0
40
0
40
0
40
1
40
1
40
1
41
1
10
71.9229251100531
20
5.05526244186456
30
0
41
1
10
71.7147735874224
20
4.69639162632473
30
0
41
1
10
71.5065743531148
20
4.33796491401938
30
0
0
SPLINE
5
20D
100
AcDbEntity
8
1
62
256
6
ByLayer
370
18
48
1
60
0
100
AcDbSpline
70
4
71
2
72
6
73
3
40
0
40
0
40
0
40
1
40
1
40
1
41
1
10
70.6726576528773
20
5.05476932624885
30
0
41
1
10
70.4646771431306
20
4.69621015703575
30
0
41
1
10
70.2566477236981
20
4.33809287856565
30
0
0
SPLINE
5
20E
100
AcDbEntity
8
1
62
256
6
ByLayer
370
18
48
1
60
0
100
AcDbSpline
70
4
71
2
72
6
73
3
40
0
40
0
40
0
40
1
40
1
40
1
41
1
10
69.4229786534992
20
5.05530986028802
30
0
41
1
10
69.2148616284094
20
4.6965726332532
30
0
41
1
10
69.0066992963554
20
4.3382736818335
30
0
0
SPLINE
5
20F
100
AcDbEntity
8
1
62
256
6
ByLayer
370
18
48
1
60
0
100
AcDbSpline
70
4
71
2
72
6
73
3
40
0
40
0
40
0
40
1
40
1
40
1
41
1
10
68.1727819293018
20
5.05515331932625
30
0
41
1
10
67.9648079876279
20
4.69658771293808
30
0
41
1
10
67.7567851962787
20
4.33845958947978
30
0
0
SPLINE
5
210
100
AcDbEntity
8
1
62
256
6
ByLayer
370
18
48
1
60
0
100
AcDbSpline
70
4
71
2
72
6
73
3
40
0
40
0
40
0
40
1
40
1
40
1
41
1
10
66.9232104300123
20
5.05548478967899
30
0
41
1
10
66.7150309989156
20
4.69663644749551
30
0
41
1
10
66.5068038125492
20
4.33822961202245
30
0
0
LINE
5
7D
100
AcDbEntity
8
81
62
256
6
ByLayer
370
18
48
1
60
0
100
AcDbLine
10
77
20
0
30
0
11
82
21
0
31
0
39
0
210
0
220
0
230
1
0
LINE
5
7E
100
AcDbEntity
8
SK4
62
256
6
ByLayer
370
18
48
0.05
60
0
100
AcDbLine
10
-23
20
0
30
0
11
77
21
0
31
0
39
0
210
0
220
0
230
1
0
LINE
5
80
100
AcDbEntity
8
80
62
256
6
ByLayer
370
18
48
1
60
0
100
AcDbLine
10
0
20
0
30
0
11
-5
21
0
31
0
39
0
210
0
220
0
230
1
0
LINE
5
81
100
AcDbEntity
8
4
62
256
6
ByLayer
370
18
48
0.05
60
0
100
AcDbLine
10
0
20
0
30
0
11
77
21
0
31
0
39
0
210
0
220
0
230
1
0
LINE
5
83
100
AcDbEntity
8
1
62
256
6
ByLayer
370
18
48
1
60
0
100
AcDbLine
10
0
20
3.5
30
0
11
0
21
-3.5
31
0
39
0
210
0
220
0
230
1
0
LINE
5
84
100
AcDbEntity
8
1
62
256
6
ByLayer
370
18
48
1
60
0
100
AcDbLine
10
62.393599
20
4.494657
30
0
11
62.391393
21
4.494673
31
0
39
0
210
0
220
0
230
1
0
LINE
5
85
100
AcDbEntity
8
1
62
256
6
ByLayer
370
18
48
1
60
0
100
AcDbLine
10
61.533991
20
4.374173
30
0
11
61.535745
21
4.374275
31
0
39
0
210
0
220
0
230
1
0
LINE
5
86
100
AcDbEntity
8
1
62
256
6
ByLayer
370
18
48
1
60
0
100
AcDbLine
10
62.894356
20
4.565359
30
0
11
62.897436
21
4.565329
31
0
39
0
210
0
220
0
230
1
0
LINE
5
87
100
AcDbEntity
8
1
62
256
6
ByLayer
370
18
48
1
60
0
100
AcDbLine
10
63.550515
20
4.656901
30
0
11
63.547366
21
4.657134
31
0
39
0
210
0
220
0
230
1
0
LINE
5
88
100
AcDbEntity
8
1
62
256
6
ByLayer
370
18
48
1
60
0
100
AcDbLine
10
76.088896
20
4.589362
30
0
11
76.085638
21
4.591001
31
0
39
0
210
0
220
0
230
1
0
LINE
5
89
100
AcDbEntity
8
1
62
256
6
ByLayer
370
18
48
1
60
0
100
AcDbLine
10
64.707583
20
4.819058
30
0
11
64.703606
21
4.819634
31
0
39
0
210
0
220
0
230
1
0
LINE
5
8A
100
AcDbEntity
8
1
62
256
6
ByLayer
370
18
48
1
60
0
100
AcDbLine
10
64.254947
20
4.756579
30
0
11
64.259215
21
4.756234
31
0
39
0
210
0
220
0
230
1
0
LINE
5
8B
100
AcDbEntity
8
1
62
256
6
ByLayer
370
18
48
1
60
0
100
AcDbLine
10
65.615229
20
4.947754
30
0
11
65.620674
21
4.946952
31
0
39
0
210
0
220
0
230
1
0
LINE
5
8C
100
AcDbEntity
8
1
62
256
6
ByLayer
370
18
48
1
60
0
100
AcDbLine
10
65.86426
20
4.98106
30
0
11
65.859467
21
4.98208
31
0
39
0
210
0
220
0
230
1
0
LINE
5
8D
100
AcDbEntity
8
1
62
256
6
ByLayer
370
18
48
1
60
0
100
AcDbLine
10
57
20
0.708496
30
0
11
57
21
-1.831501
31
0
39
0
210
0
220
0
230
1
0
LINE
5
8E
100
AcDbEntity
8
1
62
256
6
ByLayer
370
18
48
1
60
0
100
AcDbLine
10
74.441604
20
5.080074
30
0
11
74.447046
21
5.078176
31
0
39
0
210
0
220
0
230
1
0
LINE
5
8F
100
AcDbEntity
8
1
62
256
6
ByLayer
370
18
48
1
60
0
100
AcDbLine
10
74.556364
20
5.079385
30
0
11
74.553105
21
5.080073
31
0
39
0
210
0
220
0
230
1
0
LINE
5
90
100
AcDbEntity
8
1
62
256
6
ByLayer
370
18
48
1
60
0
100
AcDbLine
10
73.191649
20
5.080074
30
0
11
73.197105
21
5.078149
31
0
39
0
210
0
220
0
230
1
0
LINE
5
91
100
AcDbEntity
8
1
62
256
6
ByLayer
370
18
48
1
60
0
100
AcDbLine
10
73.308572
20
5.078151
30
0
11
73.303105
21
5.080074
31
0
39
0
210
0
220
0
230
1
0
LINE
5
92
100
AcDbEntity
8
1
62
256
6
ByLayer
370
18
48
1
60
0
100
AcDbLine
10
71.941619
20
5.080071
30
0
11
71.947165
21
5.078122
31
0
39
0
210
0
220
0
230
1
0
LINE
5
93
100
AcDbEntity
8
1
62
256
6
ByLayer
370
18
48
1
60
0
100
AcDbLine
10
72.058568
20
5.078124
30
0
11
72.053068
21
5.080074
31
0
39
0
210
0
220
0
230
1
0
LINE
5
94
100
AcDbEntity
8
1
62
256
6
ByLayer
370
18
48
1
60
0
100
AcDbLine
10
70.808654
20
5.078097
30
0
11
70.803114
21
5.080072
31
0
39
0
210
0
220
0
230
1
0
LINE
5
95
100
AcDbEntity
8
1
62
256
6
ByLayer
370
18
48
1
60
0
100
AcDbLine
10
70.691659
20
5.080074
30
0
11
70.697191
21
5.078094
31
0
39
0
210
0
220
0
230
1
0
LINE
5
96
100
AcDbEntity
8
1
62
256
6
ByLayer
370
18
48
1
60
0
100
AcDbLine
10
69.441906
20
5.080074
30
0
11
69.447529
21
5.078067
31
0
39
0
210
0
220
0
230
1
0
LINE
5
97
100
AcDbEntity
8
1
62
256
6
ByLayer
370
18
48
1
60
0
100
AcDbLine
10
69.558683
20
5.078069
30
0
11
69.553133
21
5.080074
31
0
39
0
210
0
220
0
230
1
0
LINE
5
98
100
AcDbEntity
8
1
62
256
6
ByLayer
370
18
48
1
60
0
100
AcDbLine
10
68.191641
20
5.080074
30
0
11
68.197262
21
5.078039
31
0
39
0
210
0
220
0
230
1
0
LINE
5
99
100
AcDbEntity
8
1
62
256
6
ByLayer
370
18
48
1
60
0
100
AcDbLine
10
68.308558
20
5.078041
30
0
11
68.303007
21
5.080074
31
0
39
0
210
0
220
0
230
1
0
LINE
5
9A
100
AcDbEntity
8
1
62
256
6
ByLayer
370
18
48
1
60
0
100
AcDbLine
10
66.941993
20
5.080074
30
0
11
66.947632
21
5.078011
31
0
39
0
210
0
220
0
230
1
0
LINE
5
9B
100
AcDbEntity
8
1
62
256
6
ByLayer
370
18
48
1
60
0
100
AcDbLine
10
67.058781
20
5.078013
30
0
11
67.053118
21
5.080074
31
0
39
0
210
0
220
0
230
1
0
LINE
5
9C
100
AcDbEntity
8
1
62
256
6
ByLayer
370
13
48
1
60
0
100
AcDbLine
10
56.535981
20
-1.711983
30
0
11
56.535981
21
0.669056
31
0
39
0
210
0
220
0
230
1
0
LINE
5
9D
100
AcDbEntity
8
1
62
256
6
ByLayer
370
13
48
1
60
0
100
AcDbLine
10
56.635981
20
0.673859
30
0
11
56.635981
21
-1.724711
31
0
39
0
210
0
220
0
230
1
0
LINE
5
9E
100
AcDbEntity
8
SK1
62
256
6
ByLayer
370
18
48
1
60
0
100
AcDbLine
10
-23
20
1.96
30
0
11
-23
21
-1.96
31
0
39
0
210
0
220
0
230
1
0
LINE
5
A0
100
AcDbEntity
8
SK1
62
256
6
ByLayer
370
18
48
1
60
0
100
AcDbLine
10
-15
20
1.93057
30
0
11
-15
21
-1.93057
31
0
39
0
210
0
220
0
230
1
0
LINE
5
A1
100
AcDbEntity
8
SK1
62
256
6
ByLayer
370
18
48
1
60
0
100
AcDbLine
10
-14.39
20
3.36
30
0
11
-15
21
2.75
31
0
39
0
210
0
220
0
230
1
0
LINE
5
A2
100
AcDbEntity
8
SK1
62
256
6
ByLayer
370
18
48
1
60
0
100
AcDbLine
10
-21.6
20
2.75
30
0
11
-15
21
2.75
31
0
39
0
210
0
220
0
230
1
0
LINE
5
A3
100
AcDbEntity
8
SK1
62
256
6
ByLayer
370
18
48
1
60
0
100
AcDbLine
10
-21.6
20
1.93057
30
0
11
-21.6
21
2.75
31
0
39
0
210
0
220
0
230
1
0
LINE
5
A4
100
AcDbEntity
8
SK1
62
256
6
ByLayer
370
18
48
1
60
0
100
AcDbLine
10
-15
20
1.93057
30
0
11
-21.6
21
1.93057
31
0
39
0
210
0
220
0
230
1
0
LINE
5
A5
100
AcDbEntity
8
SK1
62
256
6
ByLayer
370
18
48
1
60
0
100
AcDbLine
10
-21.6
20
-1.93057
30
0
11
-15
21
-1.93057
31
0
39
0
210
0
220
0
230
1
0
LINE
5
A6
100
AcDbEntity
8
SK1
62
256
6
ByLayer
370
18
48
1
60
0
100
AcDbLine
10
-21.6
20
-2.75
30
0
11
-21.6
21
-1.93057
31
0
39
0
210
0
220
0
230
1
0
LINE
5
A7
100
AcDbEntity
8
SK1
62
256
6
ByLayer
370
18
48
1
60
0
100
AcDbLine
10
-15
20
-2.75
30
0
11
-21.6
21
-2.75
31
0
39
0
210
0
220
0
230
1
0
LINE
5
A8
100
AcDbEntity
8
SK1
62
256
6
ByLayer
370
18
48
1
60
0
100
AcDbLine
10
-15
20
-2.75
30
0
11
-14.39
21
-3.36
31
0
39
0
210
0
220
0
230
1
0
LINE
5
A9
100
AcDbEntity
8
SK1
62
256
6
ByLayer
370
18
48
1
60
0
100
AcDbLine
10
-14.2
20
3.36
30
0
11
-14.2
21
-3.36
31
0
39
0
210
0
220
0
230
1
0
LINE
5
AA
100
AcDbEntity
8
SK1
62
256
6
ByLayer
370
18
48
1
60
0
100
AcDbLine
10
0
20
3.5
30
0
11
0
21
-3.5
31
0
39
0
210
0
220
0
230
1
0
LINE
5
AB
100
AcDbEntity
8
SK1
62
256
6
ByLayer
370
18
48
1
60
0
100
AcDbLine
10
-14.06
20
-3.5
30
0
11
-14.06
21
3.5
31
0
39
0
210
0
220
0
230
1
0
LINE
5
AC
100
AcDbEntity
8
1
62
256
6
ByLayer
370
18
48
1
60
0
100
AcDbLine
10
63.54665
20
4.657033
30
0
11
62.894031
21
4.565313
31
0
39
0
210
0
220
0
230
1
0
LINE
5
AD
100
AcDbEntity
8
1
62
256
6
ByLayer
370
18
48
1
60
0
100
AcDbLine
10
64.702666
20
4.8195
30
0
11
64.254453
21
4.756508
31
0
39
0
210
0
220
0
230
1
0
LINE
5
AE
100
AcDbEntity
8
1
62
256
6
ByLayer
370
18
48
1
60
0
100
AcDbLine
10
65.85836
20
4.981922
30
0
11
65.614553
21
4.947658
31
0
39
0
210
0
220
0
230
1
0
LINE
5
AF
100
AcDbEntity
8
1
62
256
6
ByLayer
370
18
48
1
60
0
100
AcDbLine
10
0
20
-3.5
30
0
11
37.325917
21
-3.5
31
0
39
0
210
0
220
0
230
1
0
LINE
5
B0
100
AcDbEntity
8
1
62
256
6
ByLayer
370
18
48
1
60
0
100
AcDbLine
10
49.099178
20
3.5
30
0
11
0
21
3.5
31
0
39
0
210
0
220
0
230
1
0
LINE
5
B1
100
AcDbEntity
8
1
62
256
6
ByLayer
370
18
48
1
60
0
100
AcDbLine
10
62.390887
20
4.494601
30
0
11
61.533643
21
4.374123
31
0
39
0
210
0
220
0
230
1
0
LINE
5
B2
100
AcDbEntity
8
1
62
256
6
ByLayer
370
18
48
1
60
0
100
AcDbLine
10
74.553098
20
5.080072
30
0
11
74.4416
21
5.080072
31
0
39
0
210
0
220
0
230
1
0
LINE
5
B3
100
AcDbEntity
8
1
62
256
6
ByLayer
370
18
48
1
60
0
100
AcDbLine
10
73.303103
20
5.080072
30
0
11
73.191636
21
5.080072
31
0
39
0
210
0
220
0
230
1
0
LINE
5
B4
100
AcDbEntity
8
1
62
256
6
ByLayer
370
18
48
1
60
0
100
AcDbLine
10
72.053067
20
5.080072
30
0
11
71.941624
21
5.080072
31
0
39
0
210
0
220
0
230
1
0
LINE
5
B5
100
AcDbEntity
8
1
62
256
6
ByLayer
370
18
48
1
60
0
100
AcDbLine
10
70.803107
20
5.080072
30
0
11
70.69165
21
5.080072
31
0
39
0
210
0
220
0
230
1
0
LINE
5
B6
100
AcDbEntity
8
1
62
256
6
ByLayer
370
18
48
1
60
0
100
AcDbLine
10
69.553106
20
5.080072
30
0
11
69.441895
21
5.080072
31
0
39
0
210
0
220
0
230
1
0
LINE
5
B7
100
AcDbEntity
8
1
62
256
6
ByLayer
370
18
48
1
60
0
100
AcDbLine
10
68.302975
20
5.080072
30
0
11
68.191638
21
5.080072
31
0
39
0
210
0
220
0
230
1
0
LINE
5
B8
100
AcDbEntity
8
1
62
256
6
ByLayer
370
18
48
1
60
0
100
AcDbLine
10
67.053118
20
5.080072
30
0
11
66.941957
21
5.080072
31
0
39
0
210
0
220
0
230
1
0
LINE
5
B9
100
AcDbEntity
8
SK1
62
256
6
ByLayer
370
18
48
1
60
0
100
AcDbLine
10
-23
20
-1.96
30
0
11
-22.21
21
-2.75
31
0
39
0
210
0
220
0
230
1
0
LINE
5
BA
100
AcDbEntity
8
SK1
62
256
6
ByLayer
370
18
48
1
60
0
100
AcDbLine
10
-22.21
20
2.75
30
0
11
-23
21
1.96
31
0
39
0
210
0
220
0
230
1
0
LINE
5
BB
100
AcDbEntity
8
SK1
62
256
6
ByLayer
370
18
48
1
60
0
100
AcDbLine
10
-14.2
20
3.36
30
0
11
-14.39
21
3.36
31
0
39
0
210
0
220
0
230
1
0
LINE
5
BC
100
AcDbEntity
8
SK1
62
256
6
ByLayer
370
18
48
1
60
0
100
AcDbLine
10
-14.39
20
-3.36
30
0
11
-14.2
21
-3.36
31
0
39
0
210
0
220
0
230
1
0
LINE
5
BD
100
AcDbEntity
8
SK1
62
256
6
ByLayer
370
18
48
1
60
0
100
AcDbLine
10
-14.2
20
-3.36
30
0
11
-14.06
21
-3.5
31
0
39
0
210
0
220
0
230
1
0
LINE
5
BE
100
AcDbEntity
8
SK1
62
256
6
ByLayer
370
18
48
1
60
0
100
AcDbLine
10
-14.06
20
3.5
30
0
11
-14.2
21
3.36
31
0
39
0
210
0
220
0
230
1
0
LINE
5
BF
100
AcDbEntity
8
SK1
62
256
6
ByLayer
370
18
48
1
60
0
100
AcDbLine
10
-14.06
20
-3.5
30
0
11
0
21
-3.5
31
0
39
0
210
0
220
0
230
1
0
LINE
5
C0
100
AcDbEntity
8
SK1
62
256
6
ByLayer
370
18
48
1
60
0
100
AcDbLine
10
0
20
3.5
30
0
11
-14.06
21
3.5
31
0
39
0
210
0
220
0
230
1
0
LINE
5
C1
100
AcDbEntity
8
SK2
62
256
6
ByLayer
370
18
48
1
60
0
100
AcDbLine
10
29.237991
20
-11
30
0
11
29.237991
21
16.341828
31
0
39
0
210
0
220
0
230
1
0
LINE
5
C3
100
AcDbEntity
8
1
62
256
6
ByLayer
370
18
48
1
60
1
100
AcDbLine
10
29.237991
20
-3.5
30
0
11
29.698774
21
-6.999998
31
0
39
0
210
0
220
0
230
1
0
LINE
5
C4
100
AcDbEntity
8
1
62
256
6
ByLayer
370
18
48
1
60
1
100
AcDbLine
10
29.698774
20
-6.999998
30
0
11
28.777207
21
-7.000002
31
0
39
0
210
0
220
0
230
1
0
LINE
5
C5
100
AcDbEntity
8
1
62
256
6
ByLayer
370
18
48
1
60
1
100
AcDbLine
10
28.777207
20
-7.000002
30
0
11
29.237991
21
-3.5
31
0
39
0
210
0
220
0
230
1
0
LINE
5
C6
100
AcDbEntity
8
1
62
256
6
ByLayer
370
18
48
1
60
1
100
AcDbLine
10
29.237991
20
3.5
30
0
11
28.777207
21
6.999998
31
0
39
0
210
0
220
0
230
1
0
LINE
5
C7
100
AcDbEntity
8
1
62
256
6
ByLayer
370
18
48
1
60
1
100
AcDbLine
10
28.777207
20
6.999998
30
0
11
29.698774
21
7.000002
31
0
39
0
210
0
220
0
230
1
0
LINE
5
C8
100
AcDbEntity
8
1
62
256
6
ByLayer
370
18
48
1
60
1
100
AcDbLine
10
29.698774
20
7.000002
30
0
11
29.237991
21
3.5
31
0
39
0
210
0
220
0
230
1
0
LINE
5
C9
100
AcDbEntity
8
2
62
256
6
ByLayer
370
18
48
1
60
0
100
AcDbLine
10
77
20
-34.580072
30
0
11
-23
21
-34.580072
31
0
39
0
210
0
220
0
230
1
0
LINE
5
CB
100
AcDbEntity
8
2
62
256
6
ByLayer
370
18
48
1
60
0
100
AcDbLine
10
-23
20
-3.5475
30
0
11
-23
21
-36.580072
31
0
39
0
210
0
220
0
230
1
0
LINE
5
CC
100
AcDbEntity
8
2
62
256
6
ByLayer
370
18
48
1
60
0
100
AcDbLine
10
77
20
-6.667572
30
0
11
77
21
-36.580072
31
0
39
0
210
0
220
0
230
1
0
LINE
5
CD
100
AcDbEntity
8
1
62
256
6
ByLayer
370
18
48
1
60
1
100
AcDbLine
10
-23
20
-34.580072
30
0
11
-19.500002
21
-34.119288
31
0
39
0
210
0
220
0
230
1
0
LINE
5
CE
100
AcDbEntity
8
1
62
256
6
ByLayer
370
18
48
1
60
1
100
AcDbLine
10
-19.500002
20
-34.119288
30
0
11
-19.499998
21
-35.040855
31
0
39
0
210
0
220
0
230
1
0
LINE
5
CF
100
AcDbEntity
8
1
62
256
6
ByLayer
370
18
48
1
60
1
100
AcDbLine
10
-19.499998
20
-35.040855
30
0
11
-23
21
-34.580072
31
0
39
0
210
0
220
0
230
1
0
LINE
5
D0
100
AcDbEntity
8
1
62
256
6
ByLayer
370
18
48
1
60
1
100
AcDbLine
10
77
20
-34.580072
30
0
11
73.500002
21
-35.040855
31
0
39
0
210
0
220
0
230
1
0
LINE
5
D1
100
AcDbEntity
8
1
62
256
6
ByLayer
370
18
48
1
60
1
100
AcDbLine
10
73.500002
20
-35.040855
30
0
11
73.499998
21
-34.119288
31
0
39
0
210
0
220
0
230
1
0
LINE
5
D2
100
AcDbEntity
8
1
62
256
6
ByLayer
370
18
48
1
60
1
100
AcDbLine
10
73.499998
20
-34.119288
30
0
11
77
21
-34.580072
31
0
39
0
210
0
220
0
230
1
0
LINE
5
215
100
AcDbEntity
8
1
62
256
6
ByLayer
370
18
48
1
60
1
100
AcDbLine
10
29.237991
20
-3.5
30
0
11
29.698774
21
-6.999998
31
0
39
0
210
0
220
0
230
1
0
LINE
5
216
100
AcDbEntity
8
1
62
256
6
ByLayer
370
18
48
1
60
1
100
AcDbLine
10
29.698774
20
-6.999998
30
0
11
28.777207
21
-7.000002
31
0
39
0
210
0
220
0
230
1
0
LINE
5
217
100
AcDbEntity
8
1
62
256
6
ByLayer
370
18
48
1
60
1
100
AcDbLine
10
28.777207
20
-7.000002
30
0
11
29.237991
21
-3.5
31
0
39
0
210
0
220
0
230
1
0
LINE
5
219
100
AcDbEntity
8
1
62
256
6
ByLayer
370
18
48
1
60
1
100
AcDbLine
10
29.237991
20
3.5
30
0
11
28.777207
21
6.999998
31
0
39
0
210
0
220
0
230
1
0
LINE
5
21A
100
AcDbEntity
8
1
62
256
6
ByLayer
370
18
48
1
60
1
100
AcDbLine
10
28.777207
20
6.999998
30
0
11
29.698774
21
7.000002
31
0
39
0
210
0
220
0
230
1
0
LINE
5
21B
100
AcDbEntity
8
1
62
256
6
ByLayer
370
18
48
1
60
1
100
AcDbLine
10
29.698774
20
7.000002
30
0
11
29.237991
21
3.5
31
0
39
0
210
0
220
0
230
1
0
LINE
5
21E
100
AcDbEntity
8
1
62
256
6
ByLayer
370
18
48
1
60
1
100
AcDbLine
10
-23
20
-34.580072
30
0
11
-19.500002
21
-34.119288
31
0
39
0
210
0
220
0
230
1
0
LINE
5
21F
100
AcDbEntity
8
1
62
256
6
ByLayer
370
18
48
1
60
1
100
AcDbLine
10
-19.500002
20
-34.119288
30
0
11
-19.499998
21
-35.040855
31
0
39
0
210
0
220
0
230
1
0
LINE
5
220
100
AcDbEntity
8
1
62
256
6
ByLayer
370
18
48
1
60
1
100
AcDbLine
10
-19.499998
20
-35.040855
30
0
11
-23
21
-34.580072
31
0
39
0
210
0
220
0
230
1
0
LINE
5
222
100
AcDbEntity
8
1
62
256
6
ByLayer
370
18
48
1
60
1
100
AcDbLine
10
77
20
-34.580072
30
0
11
73.500002
21
-35.040855
31
0
39
0
210
0
220
0
230
1
0
LINE
5
223
100
AcDbEntity
8
1
62
256
6
ByLayer
370
18
48
1
60
1
100
AcDbLine
10
73.500002
20
-35.040855
30
0
11
73.499998
21
-34.119288
31
0
39
0
210
0
220
0
230
1
0
LINE
5
224
100
AcDbEntity
8
1
62
256
6
ByLayer
370
18
48
1
60
1
100
AcDbLine
10
73.499998
20
-34.119288
30
0
11
77
21
-34.580072
31
0
39
0
210
0
220
0
230
1
0
MTEXT
5
211
100
AcDbEntity
8
SK2
62
256
6
ByLayer
370
18
48
1
60
0
100
AcDbMText
10
27.896876
20
9.158438
30
0
210
0
220
0
230
1
1
%%c
40
3
41
0
44
1.084337
50
90
71
7
72
5
7
iso_b_vert
0
MTEXT
5
214
100
AcDbEntity
8
SK2
62
256
6
ByLayer
370
18
48
1
60
0
100
AcDbMText
10
27.896876
20
15.135
30
0
210
0
220
0
230
1
1
\W0.5404;7
40
3
41
0
44
1.084337
50
90
71
7
72
5
7
iso_b_vert
0
MTEXT
5
21D
100
AcDbEntity
8
2
62
256
6
ByLayer
370
18
48
1
60
0
100
AcDbMText
10
24.621201
20
-33.694957
30
0
210
0
220
0
230
1
1
\W0.6217;100
40
3
41
0
44
1.084337
50
0
71
7
72
5
7
iso_b_vert
0
MTEXT
5
226
100
AcDbEntity
8
SK6
62
256
6
ByLayer
370
18
48
1
60
0
100
AcDbMText
10
15.52899
20
-82.114886
30
0
210
0
220
0
230
1
1
\W0.7453;T100-NM107DB-M10X125N1PR
40
3
41
0
44
1.084337
50
0
71
7
72
5
7
iso_b_vert
0
HATCH
5
218
100
AcDbEntity
8
SK2
62
256
6
ByLayer
370
13
48
1
60
0
100
AcDbHatch
10
0
20
0
30
0
210
0
220
0
230
1
2
ANSI31
70
0
71
0
91
1
92
5
93
3
72
1
10
29.2379907498393
20
-3.49999999999992
11
29.6987744913921
21
-6.99999830744673
72
1
10
29.6987744913921
20
-6.99999830744673
11
28.7772070082865
21
-7.0000016925531
72
1
10
28.7772070082865
20
-7.0000016925531
11
29.2379907498393
21
-3.49999999999992
97
0
75
0
76
1
52
0
41
0.0062
77
0
78
1
53
45
43
0
44
0
45
-0.0139193969876572
46
0.0139193969876572
79
0
47
0
98
1
10
0
20
0
0
HATCH
5
21C
100
AcDbEntity
8
SK2
62
256
6
ByLayer
370
13
48
1
60
0
100
AcDbHatch
10
0
20
0
30
0
210
0
220
0
230
1
2
ANSI31
70
0
71
0
91
1
92
5
93
3
72
1
10
29.2379907498393
20
3.50000000000006
11
28.7772070082865
21
6.99999830744687
72
1
10
28.7772070082865
20
6.99999830744687
11
29.6987744913921
21
7.00000169255324
72
1
10
29.6987744913921
20
7.00000169255324
11
29.2379907498393
21
3.50000000000006
97
0
75
0
76
1
52
0
41
0.0062
77
0
78
1
53
45
43
0
44
0
45
-0.0139193969876572
46
0.0139193969876572
79
0
47
0
98
1
10
0
20
0
0
HATCH
5
221
100
AcDbEntity
8
2
62
256
6
ByLayer
370
13
48
1
60
0
100
AcDbHatch
10
0
20
0
30
0
210
0
220
0
230
1
2
ANSI31
70
0
71
0
91
1
92
5
93
3
72
1
10
-23
20
-34.5800715049635
11
-19.5000016925532
21
-34.1192877634107
72
1
10
-19.5000016925532
20
-34.1192877634107
11
-19.4999983074468
21
-35.0408552465162
72
1
10
-19.4999983074468
20
-35.0408552465162
11
-23
21
-34.5800715049635
97
0
75
0
76
1
52
0
41
0.0062
77
0
78
1
53
45
43
0
44
0
45
-0.0139193969876572
46
0.0139193969876572
79
0
47
0
98
1
10
0
20
0
0
HATCH
5
225
100
AcDbEntity
8
2
62
256
6
ByLayer
370
13
48
1
60
0
100
AcDbHatch
10
0
20
0
30
0
210
0
220
0
230
1
2
ANSI31
70
0
71
0
91
1
92
5
93
3
72
1
10
77
20
-34.5800715049635
11
73.5000016925532
21
-35.0408552465162
72
1
10
73.5000016925532
20
-35.0408552465162
11
73.4999983074468
21
-34.1192877634107
72
1
10
73.4999983074468
20
-34.1192877634107
11
77
21
-34.5800715049635
97
0
75
0
76
1
52
0
41
0.0062
77
0
78
1
53
45
43
0
44
0
45
-0.0139193969876572
46
0.0139193969876572
79
0
47
0
98
1
10
0
20
0
0
DIMENSION
5
229
100
AcDbEntity
8
2
62
256
6
ByLayer
370
18
48
1
60
0
100
AcDbDimension
2
_U0
10
96.5
20
-5.080072
30
0
11
96.5
21
22.66987
31
0
70
32
71
1
72
1
41
1
210
0
220
0
230
1
3
Standard
100
AcDbAlignedDimension
13
77
23
5.080072
33
0
14
77
24
-5.080072
34
0
50
90
100
AcDbRotatedDimension
1001
ACAD
1000
DSTYLE
1002
{
1070
   371
1070
    13
1070
   372
1070
    13
1070
     3
1000

1070
   170
1070
     0
1070
   144
1040
1.0
1070
   277
1070
     2
1070
   284
1070
     8
1070
   278
1070
    46
1070
   146
1040
1.166667
1070
   345
1005
16
1070
   347
1005
16
1070
   346
1005
16
1070
   344
1005
0
1070
   343
1005
0
1070
   172
1070
     1
1070
    76
1070
     0
1070
    75
1070
     0
1070
   282
1070
     0
1070
   281
1070
     0
1070
    71
1070
     0
1070
    74
1070
     0
1070
   279
1070
     0
1070
   173
1070
     1
1070
   340
1005
212
1070
   271
1070
     3
1070
   272
1070
     3
1070
    77
1070
     1
1070
    73
1070
     0
1070
   171
1070
     3
1070
   274
1070
     4
1070
   177
1070
     2
1070
   176
1070
     2
1070
   178
1070
     2
1070
    78
1070
     8
1070
    48
1040
-0.1
1070
    41
1040
3.5
1070
   147
1040
1.5
1070
    42
1040
1.5875
1070
    44
1040
2.0
1070
   140
1040
3.0
1002
}
1001
ACAD_DSTYLE_DIM_LINETYPE
1070
   380
1005
16
1001
ACAD_DSTYLE_DIM_EXT1_LINETYPE
1070
   381
1005
16
1001
ACAD_DSTYLE_DIM_EXT2_LINETYPE
1070
   382
1005
16
0
DIMENSION
5
244
100
AcDbEntity
8
SK2
62
256
6
ByLayer
370
18
48
1
60
0
100
AcDbDimension
2
_U1
10
74.8125
20
14.113266
30
0
11
75.90625
21
14.113266
31
0
70
32
71
1
72
1
41
1
210
0
220
0
230
1
3
Standard
100
AcDbAlignedDimension
13
77
23
5.080072
33
0
14
74.8125
24
0
34
0
50
0
100
AcDbRotatedDimension
1001
ACAD
1000
DSTYLE
1002
{
1070
   371
1070
    13
1070
   372
1070
    13
1070
   170
1070
     0
1070
   144
1040
1.0
1070
   277
1070
     2
1070
   284
1070
     8
1070
   278
1070
    46
1070
   146
1040
1.166667
1070
   345
1005
16
1070
   347
1005
16
1070
   346
1005
16
1070
   344
1005
0
1070
   343
1005
0
1070
   172
1070
     1
1070
    76
1070
     0
1070
    75
1070
     0
1070
   282
1070
     0
1070
   281
1070
     0
1070
    71
1070
     0
1070
    74
1070
     0
1070
   279
1070
     0
1070
   173
1070
     1
1070
   340
1005
212
1070
   271
1070
     3
1070
   272
1070
     3
1070
    77
1070
     1
1070
    73
1070
     1
1070
   171
1070
     3
1070
   274
1070
     4
1070
   177
1070
     2
1070
   176
1070
     2
1070
   178
1070
     2
1070
    78
1070
     8
1070
    48
1040
-0.1
1070
    41
1040
3.5
1070
   147
1040
1.5
1070
    42
1040
1.5875
1070
    44
1040
2.0
1070
   140
1040
3.0
1002
}
1001
ACAD_DSTYLE_DIM_LINETYPE
1070
   380
1005
16
1001
ACAD_DSTYLE_DIM_EXT1_LINETYPE
1070
   381
1005
16
1001
ACAD_DSTYLE_DIM_EXT2_LINETYPE
1070
   382
1005
16
0
DIMENSION
5
25E
100
AcDbEntity
8
SK2
62
256
6
ByLayer
370
18
48
1
60
0
100
AcDbDimension
2
_U2
10
57
20
-12.080072
30
0
11
66.655172
21
-12.080072
31
0
70
32
71
1
72
1
41
1
210
0
220
0
230
1
3
Standard
100
AcDbAlignedDimension
13
77
23
-5.080072
33
0
14
57
24
-5.080072
34
0
50
0
100
AcDbRotatedDimension
1001
ACAD
1000
DSTYLE
1002
{
1070
   371
1070
    13
1070
   372
1070
    13
1070
   170
1070
     0
1070
   144
1040
1.0
1070
   277
1070
     2
1070
   284
1070
     8
1070
   278
1070
    46
1070
   146
1040
0.833333
1070
   345
1005
16
1070
   347
1005
16
1070
   346
1005
16
1070
   344
1005
0
1070
   343
1005
0
1070
   172
1070
     1
1070
    76
1070
     0
1070
    75
1070
     0
1070
   282
1070
     0
1070
   281
1070
     0
1070
    47
1040
0.5
1070
    72
1070
     0
1070
    71
1070
     1
1070
    74
1070
     0
1070
   279
1070
     0
1070
   173
1070
     1
1070
   340
1005
212
1070
   271
1070
     1
1070
   272
1070
     3
1070
    77
1070
     1
1070
    73
1070
     1
1070
   171
1070
     3
1070
   274
1070
     4
1070
   177
1070
     2
1070
   176
1070
     2
1070
   178
1070
     2
1070
    78
1070
     8
1070
    48
1040
0.5
1070
    41
1040
3.5
1070
   147
1040
1.5
1070
    42
1040
1.5875
1070
    44
1040
2.0
1070
   140
1040
3.0
1002
}
1001
ACAD_DSTYLE_DIM_LINETYPE
1070
   380
1005
16
1001
ACAD_DSTYLE_DIM_EXT1_LINETYPE
1070
   381
1005
16
1001
ACAD_DSTYLE_DIM_EXT2_LINETYPE
1070
   382
1005
16
0
DIMENSION
5
277
100
AcDbEntity
8
2
62
256
6
ByLayer
370
18
48
1
60
0
100
AcDbDimension
2
_U3
10
34.5
20
-23.580072
30
0
11
55.75
21
-23.580072
31
0
70
32
71
1
72
1
41
1
210
0
220
0
230
1
3
Standard
100
AcDbAlignedDimension
13
77
23
-5.080072
33
0
14
34.5
24
0
34
0
50
0
100
AcDbRotatedDimension
1001
ACAD
1000
DSTYLE
1002
{
1070
   371
1070
    13
1070
   372
1070
    13
1070
   170
1070
     0
1070
   144
1040
1.0
1070
   277
1070
     2
1070
   284
1070
     8
1070
   278
1070
    46
1070
   146
1040
1.166667
1070
   345
1005
16
1070
   347
1005
16
1070
   346
1005
16
1070
   344
1005
0
1070
   343
1005
0
1070
   172
1070
     1
1070
    76
1070
     0
1070
    75
1070
     0
1070
   282
1070
     0
1070
   281
1070
     0
1070
    71
1070
     0
1070
    74
1070
     0
1070
   279
1070
     0
1070
   173
1070
     1
1070
   340
1005
212
1070
   271
1070
     1
1070
   272
1070
     3
1070
    77
1070
     1
1070
    73
1070
     1
1070
   171
1070
     3
1070
   274
1070
     4
1070
   177
1070
     2
1070
   176
1070
     2
1070
   178
1070
     2
1070
    78
1070
     8
1070
    48
1040
-0.1
1070
    41
1040
3.5
1070
   147
1040
1.5
1070
    42
1040
1.5875
1070
    44
1040
2.0
1070
   140
1040
3.0
1002
}
1001
ACAD_DSTYLE_DIM_LINETYPE
1070
   380
1005
16
1001
ACAD_DSTYLE_DIM_EXT1_LINETYPE
1070
   381
1005
16
1001
ACAD_DSTYLE_DIM_EXT2_LINETYPE
1070
   382
1005
16
0
ENDSEC
0
SECTION
2
OBJECTS
0
DICTIONARY
5
2ff
330
0
100
AcDbDictionary
280
0
281
1
3
ACAD_GROUP
350
300
3
ACAD_MLINESTYLE
350
301
0
DICTIONARY
5
300
330
0
100
AcDbDictionary
280
0
281
1
0
DICTIONARY
5
301
330
0
100
AcDbDictionary
280
0
281
1
3
Standard
350
18
0
MLINESTYLE
5
18
330
301
100
AcDbMlineStyle
2
Standard
70
0
3

62
256
51
90
52
90
71
2
49
-0.5
62
256
6
ByLayer
49
0.5
62
256
6
ByLayer
0
RASTERVARIABLES
5
2ed
330

100
AcDbRasterVariables
90
0
70
1
71
1
72
1
0
ENDSEC
0
EOF
