0
SECTION
2
HEADER
9
$ACADVER
1
AC1015
9
$DWGCODEPAGE
3
ANSI_1252
9
$HANDSEED
5
1d5
9
$ANGBASE
50
0
9
$ANGDIR
70
0
9
$ATTMODE
70
1
9
$AUNITS
70
0
9
$AUPREC
70
0
9
$CECOLOR
62
256
9
$CELTSCALE
40
1
9
$CELTYPE
6
ByLayer
9
$CELWEIGHT
370
18
9
$CLAYER
8
0
9
$CMLJUST
70
0
9
$CMLSCALE
40
1
9
$CMLSTYLE
2
Standard
9
$DIMSTYLE
2
Standard
9
$TEXTSIZE
40
0.2
9
$TEXTSTYLE
7
Standard
9
$LUNITS
70
2
9
$LUPREC
70
4
9
$EXTNAMES
290
1
9
$INSUNITS
70
4
9
$LTSCALE
40
1
9
$LWDISPLAY
290
1
9
$PDMODE
70
0
9
$PDSIZE
40
0
9
$PLINEGEN
70
0
0
ENDSEC
0
SECTION
2
CLASSES
0
CLASS
1
RASTERVARIABLES
2
AcDbRasterVariables
3
ISM
90
0
280
0
281
0
0
ENDSEC
0
SECTION
2
TABLES
0
TABLE
2
VPORT
5
1cb
100
AcDbSymbolTable
0
VPORT
5
1
100
AcDbSymbolTableRecord
100
AcDbViewportTableRecord
2
*Active
70
0
10
0
20
0
11
1
21
1
12
-1
22
1
13
0
23
0
14
0.5
24
0.5
15
10
25
10
16
0
26
0
36
1
17
0
27
0
37
0
0
ENDTAB
0
TABLE
2
LTYPE
5
1cc
100
AcDbSymbolTable
0
LTYPE
5
14
100
AcDbSymbolTableRecord
100
AcDbLinetypeTableRecord
70
0
2
ByBlock
3

72
65
73
0
40
0
0
LTYPE
5
15
100
AcDbSymbolTableRecord
100
AcDbLinetypeTableRecord
70
0
2
ByLayer
3

72
65
73
0
40
0
0
LTYPE
5
16
100
AcDbSymbolTableRecord
100
AcDbLinetypeTableRecord
70
0
2
Continuous
3
Solid line
72
65
73
0
40
0
0
LTYPE
5
6E
100
AcDbSymbolTableRecord
100
AcDbLinetypeTableRecord
70
0
2
CENTER
3
____ _ ____ _ ____ _ ____
72
65
73
4
40
47.5
49
22
74
0
49
-8.5
74
0
49
8.5
74
0
49
-8.5
74
0
0
LTYPE
5
6F
100
AcDbSymbolTableRecord
100
AcDbLinetypeTableRecord
70
0
2
DASHED
3
__ __ __ __ __ __ __ __ __
72
65
73
2
40
25.72
49
12.86
74
0
49
-12.86
74
0
0
ENDTAB
0
TABLE
2
LAYER
5
1cd
100
AcDbSymbolTable
0
LAYER
5
10
100
AcDbSymbolTableRecord
100
AcDbLayerTableRecord
2
0
70
0
62
7
6
Continuous
290
1
370
-3
390
0
0
LAYER
5
71
100
AcDbSymbolTableRecord
100
AcDbLayerTableRecord
2
81
70
0
62
-3
6
Continuous
290
1
370
-3
390
0
0
LAYER
5
73
100
AcDbSymbolTableRecord
100
AcDbLayerTableRecord
2
80
70
0
62
-6
6
Continuous
290
1
370
-3
390
0
0
LAYER
5
75
100
AcDbSymbolTableRecord
100
AcDbLayerTableRecord
2
1
70
0
62
4
6
Continuous
290
1
370
-3
390
0
0
LAYER
5
79
100
AcDbSymbolTableRecord
100
AcDbLayerTableRecord
2
4
70
0
62
-2
6
CENTER
290
1
370
-3
390
0
0
LAYER
5
AC
100
AcDbSymbolTableRecord
100
AcDbLayerTableRecord
2
2
70
0
62
7
6
Continuous
290
1
370
-3
390
0
0
LAYER
5
142
100
AcDbSymbolTableRecord
100
AcDbLayerTableRecord
2
Defpoints
70
0
62
7
6
Continuous
290
0
370
-3
390
0
0
LAYER
5
1b7
100
AcDbSymbolTableRecord
100
AcDbLayerTableRecord
2
SK4
70
0
62
2
6
CENTER
290
1
370
-3
390
0
0
LAYER
5
1b8
100
AcDbSymbolTableRecord
100
AcDbLayerTableRecord
2
SK1
70
0
62
4
6
Continuous
290
1
370
-3
390
0
0
LAYER
5
1b9
100
AcDbSymbolTableRecord
100
AcDbLayerTableRecord
2
SK2
70
0
62
7
6
Continuous
290
1
370
-3
390
0
0
LAYER
5
1ba
100
AcDbSymbolTableRecord
100
AcDbLayerTableRecord
2
SK6
70
0
62
5
6
Continuous
290
1
370
-3
390
0
0
ENDTAB
0
TABLE
2
STYLE
5
1ce
100
AcDbSymbolTable
0
STYLE
5
11
100
AcDbSymbolTableRecord
100
AcDbTextStyleTableRecord
2
Standard
3
txt
70
0
71
0
40
0
41
1
42
0
50
0
0
STYLE
5
11E
100
AcDbSymbolTableRecord
100
AcDbTextStyleTableRecord
2
iso_b_vert
3
simplex.shx
70
0
71
0
40
0
41
1
42
0
50
0
0
STYLE
5
11F
100
AcDbSymbolTableRecord
100
AcDbTextStyleTableRecord
2
DWGDirectTextStyle
3
simplex
70
0
71
0
40
0
41
1
42
0
50
0
0
ENDTAB
0
TABLE
2
DIMSTYLE
5
1cf
100
AcDbSymbolTable
100
AcDbDimStyleTable
0
DIMSTYLE
105
27
100
AcDbSymbolTableRecord
100
AcDbDimStyleTableRecord
2
Standard
70
0
3
<>
41
0.18
42
0.0625
44
0.18
140
0.18
147
0.09
73
0
74
0
77
1
271
2
275
0
278
52
280
0
340
11
0
ENDTAB
0
TABLE
2
VIEW
5
1d0
100
AcDbSymbolTable
0
ENDTAB
0
TABLE
2
UCS
5
1d1
100
AcDbSymbolTable
0
ENDTAB
0
TABLE
2
APPID
5
1d2
100
AcDbSymbolTable
0
APPID
5
12
100
AcDbSymbolTableRecord
100
AcDbRegAppTableRecord
2
ACAD
70
0
0
APPID
5
13E
100
AcDbSymbolTableRecord
100
AcDbRegAppTableRecord
2
ACAD_DSTYLE_DIMBREAK
70
0
0
APPID
5
176
100
AcDbSymbolTableRecord
100
AcDbRegAppTableRecord
2
ACAD_DSTYLE_DIM_LINETYPE
70
0
0
APPID
5
177
100
AcDbSymbolTableRecord
100
AcDbRegAppTableRecord
2
ACAD_DSTYLE_DIM_EXT1_LINETYPE
70
0
0
APPID
5
178
100
AcDbSymbolTableRecord
100
AcDbRegAppTableRecord
2
ACAD_DSTYLE_DIM_EXT2_LINETYPE
70
0
0
APPID
5
1B3
100
AcDbSymbolTableRecord
100
AcDbRegAppTableRecord
2
ACAD_MLEADERVER
70
0
0
ENDTAB
0
TABLE
2
BLOCK_RECORD
5
1d3
100
AcDbSymbolTable
0
BLOCK_RECORD
5
1F
100
AcDbSymbolTableRecord
100
AcDbBlockTableRecord
2
*Model_Space
340
0
70
0
0
BLOCK_RECORD
5
1B
100
AcDbSymbolTableRecord
100
AcDbBlockTableRecord
2
*Paper_Space
340
0
70
0
0
BLOCK_RECORD
5
23
100
AcDbSymbolTableRecord
100
AcDbBlockTableRecord
2
*Paper_Space0
340
0
70
0
0
BLOCK_RECORD
5
143
100
AcDbSymbolTableRecord
100
AcDbBlockTableRecord
2
*D1
340
0
70
0
0
BLOCK_RECORD
5
14F
100
AcDbSymbolTableRecord
100
AcDbBlockTableRecord
2
_U0
340
0
70
0
0
ENDTAB
0
ENDSEC
0
SECTION
2
BLOCKS
0
BLOCK
5
20
100
AcDbEntity
8
0
100
AcDbBlockBegin
2
*Model_Space
70
0
10
0
20
0
30
0
3
*Model_Space
0
ENDBLK
5
21
100
AcDbEntity
8
0
100
AcDbBlockEnd
0
BLOCK
5
1C
100
AcDbEntity
8
0
100
AcDbBlockBegin
2
*Paper_Space
70
0
10
0
20
0
30
0
3
*Paper_Space
0
ENDBLK
5
1D
100
AcDbEntity
8
0
100
AcDbBlockEnd
0
BLOCK
5
24
100
AcDbEntity
8
0
100
AcDbBlockBegin
2
*Paper_Space0
70
0
10
0
20
0
30
0
3
*Paper_Space0
0
ENDBLK
5
25
100
AcDbEntity
8
0
100
AcDbBlockEnd
0
BLOCK
5
144
100
AcDbEntity
8
0
100
AcDbBlockBegin
2
*D1
70
1
10
0
20
0
30
0
3
*D1
0
LINE
5
146
100
AcDbEntity
8
0
62
256
6
ByLayer
370
-2
48
1
60
0
100
AcDbLine
10
43.6
20
-7.9376
30
0
11
43.6
21
-22.627662
31
0
39
0
210
0
220
0
230
1
0
LINE
5
147
100
AcDbEntity
8
0
62
256
6
ByLayer
370
-2
48
1
60
0
100
AcDbLine
10
15.02
20
-7.9376
30
0
11
15.02
21
-22.627662
31
0
39
0
210
0
220
0
230
1
0
LINE
5
148
100
AcDbEntity
8
0
62
256
6
ByLayer
370
-2
48
1
60
0
100
AcDbLine
10
40.1
20
-20.627662
30
0
11
18.52
21
-20.627662
31
0
39
0
210
0
220
0
230
1
0
SOLID
5
149
100
AcDbEntity
8
0
62
256
6
ByLayer
370
-1
48
1
60
0
100
AcDbTrace
10
40.1
20
-21.210996
30
0
11
40.1
21
-20.044329
31
0
12
43.6
22
-20.627662
32
0
13
43.6
23
-20.627662
33
0
39
0
210
0
220
0
230
1
0
SOLID
5
14A
100
AcDbEntity
8
0
62
256
6
ByLayer
370
-1
48
1
60
0
100
AcDbTrace
10
18.52
20
-20.044329
30
0
11
18.52
21
-21.210996
31
0
12
15.02
22
-20.627662
32
0
13
15.02
23
-20.627662
33
0
39
0
210
0
220
0
230
1
0
MTEXT
5
14B
100
AcDbEntity
8
0
62
256
6
ByLayer
370
18
48
1
60
0
100
AcDbMText
10
29.31
20
-13.627662
30
0
210
0
220
0
230
1
1
\A1;28.58
40
3.5
41
0
44
1
50
0
71
5
72
5
7
iso_b_vert
0
POINT
5
14C
100
AcDbEntity
8
Defpoints
62
0
6
ByLayer
370
-1
48
1
60
0
100
AcDbPoint
10
43.6
20
-6.3501
30
0
39
0
210
0
220
0
230
1
50
360
0
POINT
5
14D
100
AcDbEntity
8
Defpoints
62
0
6
ByLayer
370
-1
48
1
60
0
100
AcDbPoint
10
15.02
20
-6.3501
30
0
39
0
210
0
220
0
230
1
50
360
0
POINT
5
14E
100
AcDbEntity
8
Defpoints
62
0
6
ByLayer
370
-1
48
1
60
0
100
AcDbPoint
10
15.02
20
-20.627662
30
0
39
0
210
0
220
0
230
1
50
360
0
ENDBLK
5
145
100
AcDbEntity
8
0
100
AcDbBlockEnd
0
BLOCK
5
156
100
AcDbEntity
8
0
100
AcDbBlockBegin
2
_U0
70
0
10
0
20
0
30
0
3
_U0
0
MTEXT
5
150
100
AcDbEntity
8
2
62
256
6
ByLayer
370
18
48
1
60
0
100
AcDbMText
10
24.080568
20
-19.595029
30
0
210
0
220
0
230
1
1
\W0.7468;28.58
40
3.5
41
0
44
1.084337
50
0
71
7
72
5
7
iso_b_vert
0
LINE
5
151
100
AcDbEntity
8
2
62
256
6
ByLayer
370
13
48
1
60
0
100
AcDbLine
10
43.6
20
-7.9376
30
0
11
43.6
21
-22.627662
31
0
39
0
210
0
220
0
230
1
0
LINE
5
152
100
AcDbEntity
8
2
62
256
6
ByLayer
370
13
48
1
60
0
100
AcDbLine
10
15.02
20
-7.9376
30
0
11
15.02
21
-22.627662
31
0
39
0
210
0
220
0
230
1
0
LINE
5
153
100
AcDbEntity
8
2
62
256
6
ByLayer
370
13
48
1
60
0
100
AcDbLine
10
43.6
20
-20.627662
30
0
11
15.02
21
-20.627662
31
0
39
0
210
0
220
0
230
1
0
SOLID
5
154
100
AcDbEntity
8
2
62
256
6
ByLayer
370
18
48
1
60
0
100
AcDbTrace
10
43.6
20
-20.627662
30
0
11
40.100002
21
-21.088446
31
0
12
40.099998
22
-20.166878
32
0
13
40.099998
23
-20.166878
33
0
39
0
210
0
220
0
230
1
0
SOLID
5
155
100
AcDbEntity
8
2
62
256
6
ByLayer
370
18
48
1
60
0
100
AcDbTrace
10
15.02
20
-20.627662
30
0
11
18.519998
21
-20.166878
31
0
12
18.520002
22
-21.088446
32
0
13
18.520002
23
-21.088446
33
0
39
0
210
0
220
0
230
1
0
ENDBLK
5
157
100
AcDbEntity
8
0
100
AcDbBlockEnd
0
ENDSEC
0
SECTION
2
ENTITIES
0
ELLIPSE
5
BE
100
AcDbEntity
8
1
62
256
6
ByLayer
370
18
48
1
60
0
100
AcDbEllipse
10
43.159139
20
-0.374235
30
0
11
0.0787753574535989
21
-1.52424489161857
31
0
210
0
220
0
230
1
40
0.053243
41
1.08445496150357
42
1.5696795670814
0
ELLIPSE
5
BF
100
AcDbEntity
8
1
62
256
6
ByLayer
370
18
48
1
60
0
100
AcDbEllipse
10
43.117953
20
-0.786773
30
0
11
0.0832301972486384
21
-0.734249504540474
31
0
210
0
220
0
230
1
40
0.172232
41
1.02920513236072
42
1.13615807498012
0
ELLIPSE
5
C0
100
AcDbEntity
8
1
62
256
6
ByLayer
370
18
48
1
60
0
100
AcDbEllipse
10
43.159139
20
-0.374235
30
0
11
0.0787753574419693
21
-1.52424489149451
31
0
210
0
220
0
230
1
40
0.053243
41
-0.0491573065511866
42
1.03179709077335
0
ELLIPSE
5
C1
100
AcDbEntity
8
1
62
256
6
ByLayer
370
18
48
1
60
0
100
AcDbEllipse
10
63.531693
20
-35.610151
30
0
11
23.2999896435135
21
-39.1335482749192
31
0
210
0
220
0
230
1
40
0.008434
41
-2.6507688644794
42
-2.61400047919902
0
ELLIPSE
5
C2
100
AcDbEntity
8
1
62
256
6
ByLayer
370
18
48
1
60
0
100
AcDbEllipse
10
42.936551
20
-0.745297
30
0
11
0.241555983875076
21
-0.74383055209863
31
0
210
0
220
0
230
1
40
0.481231
41
2.92045412033893
42
-2.1568632210981
0
ELLIPSE
5
C3
100
AcDbEntity
8
1
62
256
6
ByLayer
370
13
48
1
60
0
100
AcDbEllipse
10
11.609943
20
-74.625069
30
0
11
15.7364476821291
21
-70.8479366614686
31
0
210
0
220
0
230
1
40
0.736913
41
2.8970701388934
42
2.93277224129121
0
ELLIPSE
5
C4
100
AcDbEntity
8
1
62
256
6
ByLayer
370
13
48
1
60
0
100
AcDbEllipse
10
11.609943
20
10.569049
30
0
11
54.3377190066225
21
-48.1090241846288
31
0
210
0
220
0
230
1
40
0.094814
41
-1.57098023409928
42
-1.46418254653608
0
POINT
5
70
100
AcDbEntity
8
81
62
256
6
ByLayer
370
18
48
1
60
0
100
AcDbPoint
10
43.6
20
0
30
0
39
0
210
0
220
0
230
1
50
360
0
POINT
5
72
100
AcDbEntity
8
80
62
256
6
ByLayer
370
18
48
1
60
0
100
AcDbPoint
10
0
20
0
30
0
39
0
210
0
220
0
230
1
50
360
0
POINT
5
74
100
AcDbEntity
8
1
62
256
6
ByLayer
370
18
48
1
60
1
100
AcDbPoint
10
43.6
20
-6.3501
30
0
39
0
210
0
220
0
230
1
50
360
0
POINT
5
76
100
AcDbEntity
8
1
62
256
6
ByLayer
370
18
48
1
60
1
100
AcDbPoint
10
15.02
20
-6.3501
30
0
39
0
210
0
220
0
230
1
50
360
0
SPLINE
5
C5
100
AcDbEntity
8
1
62
256
6
ByLayer
370
18
48
1
60
0
100
AcDbSpline
70
4
71
3
72
8
73
4
40
0
40
0
40
0
40
0
40
1
40
1
40
1
40
1
41
1
10
43.3286548925433
20
-1.28935784245431
30
0
41
1
10
43.3394147085864
20
-1.25311682554479
30
0
41
1
10
43.3501744041484
20
-1.2168756630887
30
0
41
1
10
43.360933982999
20
-1.18063435963998
30
0
0
SPLINE
5
C6
100
AcDbEntity
8
1
62
256
6
ByLayer
370
18
48
1
60
0
100
AcDbSpline
70
4
71
3
72
14
73
10
40
0
40
0
40
0
40
0
40
0.25
40
0.25
40
0.5
40
0.5
40
0.75
40
0.75
40
1
40
1
40
1
40
1
41
1
10
43.3609269718216
20
-1.18061076478284
30
0
41
1
10
43.3628646085373
20
-1.17127169270367
30
0
41
1
10
43.3645622408932
20
-1.16263690465345
30
0
41
1
10
43.3673762373275
20
-1.14707303908227
30
0
41
1
10
43.3684950828972
20
-1.14011011750676
30
0
41
1
10
43.369978257612
20
-1.12861694588634
30
0
41
1
10
43.3703533330488
20
-1.12403825492143
30
0
41
1
10
43.3703098655416
20
-1.11740974794321
30
0
41
1
10
43.3698831964268
20
-1.11536822077451
30
0
41
1
10
43.3690531293938
20
-1.11469115867516
30
0
0
SPLINE
5
C7
100
AcDbEntity
8
1
62
256
6
ByLayer
370
18
48
1
60
0
100
AcDbSpline
70
4
71
3
72
8
73
4
40
0
40
0
40
0
40
0
40
1
40
1
40
1
40
1
41
1
10
43.5114894979837
20
-0.0118986328499204
30
0
41
1
10
43.4640107084506
20
-0.379496141472345
30
0
41
1
10
43.4165319189175
20
-0.747093650094882
30
0
41
1
10
43.3690531293843
20
-1.11469115871739
30
0
0
SPLINE
5
C8
100
AcDbEntity
8
1
62
256
6
ByLayer
370
18
48
1
60
0
100
AcDbSpline
70
4
71
3
72
8
73
4
40
0
40
0
40
0
40
0
40
1
40
1
40
1
40
1
41
1
10
43.514114240204
20
0.0084230457113676
30
0
41
1
10
43.5137486952326
20
0.0093153527967331
30
0
41
1
10
43.5133775760176
20
0.0101630861457807
30
0
41
1
10
43.5130009164588
20
0.0109665168329798
30
0
0
SPLINE
5
C9
100
AcDbEntity
8
1
62
256
6
ByLayer
370
18
48
1
60
0
100
AcDbSpline
70
4
71
3
72
8
73
4
40
0
40
0
40
0
40
0
40
1
40
1
40
1
40
1
41
1
10
43.5141142402043
20
4.73327135555201
30
0
41
1
10
43.5137487030005
20
4.72514149138269
30
0
41
1
10
43.5133775840058
20
4.71700490590933
30
0
41
1
10
43.5130009164589
20
4.70886163915648
30
0
0
SPLINE
5
CA
100
AcDbEntity
8
1
62
256
6
ByLayer
370
18
48
1
60
0
100
AcDbSpline
70
4
71
3
72
39
73
35
40
0
40
0
40
0
40
0
40
0.124999999999989
40
0.124999999999989
40
0.187499999999984
40
0.187499999999984
40
0.218749999999981
40
0.218749999999981
40
0.249999999999979
40
0.249999999999979
40
0.374999999999953
40
0.374999999999953
40
0.437499999999941
40
0.437499999999941
40
0.46874999999994
40
0.46874999999994
40
0.499999999999939
40
0.56249999999995
40
0.56249999999995
40
0.62499999999996
40
0.62499999999996
40
0.656249999999965
40
0.656249999999965
40
0.68749999999997
40
0.68749999999997
40
0.74999999999998
40
0.74999999999998
40
0.874999999999994
40
0.874999999999994
40
0.906249999999996
40
0.906249999999996
40
0.937499999999998
40
0.937499999999998
40
1
40
1
40
1
40
1
41
1
10
42.1168743770389
20
6.23442077546645
30
0
41
1
10
42.2104977591134
20
6.2348953883311
30
0
41
1
10
42.3024979795191
20
6.22627075234433
30
0
41
1
10
42.4381720147093
20
6.19980236443999
30
0
41
1
10
42.4830087840394
20
6.18870540716134
30
0
41
1
10
42.5496576589689
20
6.16853763701002
30
0
41
1
10
42.5717725777214
20
6.16122729661723
30
0
41
1
10
42.6157968455201
20
6.14539564577527
30
0
41
1
10
42.6376352651298
20
6.13689641242573
30
0
41
1
10
42.7451245725464
20
6.09183316675018
30
0
41
1
10
42.8265216261862
20
6.04734645745046
30
0
41
1
10
42.9417102935162
20
5.96804899405822
30
0
41
1
10
42.9789440040857
20
5.9395185777874
30
0
41
1
10
43.0329801138989
20
5.89345249088362
30
0
41
1
10
43.0507371713958
20
5.87750071970706
30
0
41
1
10
43.0852952905778
20
5.84478697046441
30
0
41
1
10
43.135764209579
20
5.79444429465627
30
0
41
1
10
43.1821814247861
20
5.74040020312154
30
0
41
1
10
43.2404795727251
20
5.66512622803617
30
0
41
1
10
43.2678335325484
20
5.62588518784585
30
0
41
1
10
43.3061041747559
20
5.56454508449994
30
0
41
1
10
43.3184001081995
20
5.54368330551463
30
0
41
1
10
43.3420473027482
20
5.50111463284659
30
0
41
1
10
43.3534281409181
20
5.47934776468892
30
0
41
1
10
43.3858736394407
20
5.41323932676849
30
0
41
1
10
43.4051940284431
20
5.36822683470831
30
0
41
1
10
43.4563614592443
20
5.23047809792939
30
0
41
1
10
43.4814866260355
20
5.13504519892754
30
0
41
1
10
43.5010560051698
20
5.01119716855686
30
0
41
1
10
43.5043763602552
20
4.98613742477227
30
0
41
1
10
43.5097481154107
20
4.9358980459306
30
0
41
1
10
43.5118046654018
20
4.91071355558168
30
0
41
1
10
43.5160836514207
20
4.83498507076484
30
0
41
1
10
43.5164065840977
20
4.78425507018369
30
0
41
1
10
43.5141142402039
20
4.73327135554493
30
0
0
SPLINE
5
CB
100
AcDbEntity
8
1
62
256
6
ByLayer
370
18
48
1
60
0
100
AcDbSpline
70
4
71
3
72
26
73
22
40
0
40
0
40
0
40
0
40
0.125000000000014
40
0.125000000000014
40
0.250000000000028
40
0.250000000000028
40
0.312500000000037
40
0.312500000000037
40
0.375000000000045
40
0.375000000000045
40
0.500000000000049
40
0.500000000000049
40
0.625000000000054
40
0.625000000000054
40
0.687500000000045
40
0.687500000000045
40
0.750000000000037
40
0.750000000000037
40
0.875000000000018
40
0.875000000000018
40
1
40
1
40
1
40
1
41
1
10
43.5130009164589
20
4.70886163915648
30
0
41
1
10
43.5103418704106
20
4.75561673528827
30
0
41
1
10
43.5050716757312
20
4.80193377762578
30
0
41
1
10
43.489274894575
20
4.89368603491514
30
0
41
1
10
43.4788865538004
20
4.93914444236307
30
0
41
1
10
43.4592160563801
20
5.0066462412185
30
0
41
1
10
43.4519370689155
20
5.0290813312339
30
0
41
1
10
43.436196351154
20
5.07315447716863
30
0
41
1
10
43.4277219866248
20
5.09485606637688
30
0
41
1
10
43.4005249479494
20
5.15897699752065
30
0
41
1
10
43.3800184986463
20
5.20040705118066
30
0
41
1
10
43.3342983917196
20
5.28065652341857
30
0
41
1
10
43.3090902387045
20
5.31947899487307
30
0
41
1
10
43.267717501478
20
5.37573803136152
30
0
41
1
10
43.2533003217227
20
5.39418466055179
30
0
41
1
10
43.2236359667514
20
5.42997021333971
30
0
41
1
10
43.2083541355861
20
5.44736969027215
30
0
41
1
10
43.1612008458287
20
5.49813338313729
30
0
41
1
10
43.1280036105107
20
5.53004313539265
30
0
41
1
10
43.0582342692515
20
5.59016018635819
30
0
41
1
10
43.0216656026034
20
5.61837125819815
30
0
41
1
10
42.9834070905352
20
5.64472845921949
30
0
0
SPLINE
5
CC
100
AcDbEntity
8
1
62
256
6
ByLayer
370
18
48
1
60
0
100
AcDbSpline
70
4
71
3
72
8
73
4
40
0
40
0
40
0
40
0
40
1
40
1
40
1
40
1
41
1
10
43.2692215260292
20
-1.15299569983256
30
0
41
1
10
43.2665619200623
20
-1.12968884165417
30
0
41
1
10
43.2661965180679
20
-1.10637942615207
30
0
41
1
10
43.2677030024839
20
-1.08295081988302
30
0
0
SPLINE
5
CD
100
AcDbEntity
8
1
62
256
6
ByLayer
370
18
48
1
60
0
100
AcDbSpline
70
4
71
3
72
8
73
4
40
0
40
0
40
0
40
0
40
1
40
1
40
1
40
1
41
1
10
43.5141142402041
20
-4.73327135555013
30
0
41
1
10
43.5137487030004
20
-4.72514149138158
30
0
41
1
10
43.5133775840058
20
-4.71700490590894
30
0
41
1
10
43.513000916459
20
-4.70886163915685
30
0
0
SPLINE
5
CE
100
AcDbEntity
8
1
62
256
6
ByLayer
370
18
48
1
60
0
100
AcDbSpline
70
4
71
3
72
39
73
35
40
0
40
0
40
0
40
0
40
0.125000000000051
40
0.125000000000051
40
0.187500000000076
40
0.187500000000076
40
0.218750000000082
40
0.218750000000082
40
0.250000000000087
40
0.250000000000087
40
0.375000000000108
40
0.375000000000108
40
0.437500000000113
40
0.437500000000113
40
0.468750000000109
40
0.468750000000109
40
0.500000000000105
40
0.562500000000088
40
0.562500000000088
40
0.625000000000071
40
0.625000000000071
40
0.656250000000062
40
0.656250000000062
40
0.687500000000053
40
0.687500000000053
40
0.750000000000042
40
0.750000000000042
40
0.87500000000002
40
0.87500000000002
40
0.906250000000015
40
0.906250000000015
40
0.93750000000001
40
0.93750000000001
40
1
40
1
40
1
40
1
41
1
10
42.1168743770388
20
-6.23442077546676
30
0
41
1
10
42.2104977591135
20
-6.23489538833138
30
0
41
1
10
42.3024979795193
20
-6.22627075234462
30
0
41
1
10
42.4381720147097
20
-6.19980236444022
30
0
41
1
10
42.4830087840397
20
-6.18870540716156
30
0
41
1
10
42.5496576589692
20
-6.16853763701022
30
0
41
1
10
42.5717725777217
20
-6.16122729661737
30
0
41
1
10
42.6157968455204
20
-6.14539564577538
30
0
41
1
10
42.6376352651302
20
-6.13689641242584
30
0
41
1
10
42.7451245725469
20
-6.09183316675021
30
0
41
1
10
42.8265216261867
20
-6.04734645745037
30
0
41
1
10
42.9417102935168
20
-5.96804899405797
30
0
41
1
10
42.9789440040864
20
-5.93951857778711
30
0
41
1
10
43.0329801138997
20
-5.89345249088325
30
0
41
1
10
43.0507371713966
20
-5.87750071970663
30
0
41
1
10
43.0852952905785
20
-5.84478697046393
30
0
41
1
10
43.1357642095797
20
-5.7944442946557
30
0
41
1
10
43.1821814247868
20
-5.74040020312083
30
0
41
1
10
43.2404795727259
20
-5.66512622803532
30
0
41
1
10
43.2678335325493
20
-5.62588518784492
30
0
41
1
10
43.3061041747567
20
-5.56454508449886
30
0
41
1
10
43.3184001082003
20
-5.54368330551353
30
0
41
1
10
43.3420473027491
20
-5.5011146328454
30
0
41
1
10
43.3534281409189
20
-5.4793477646877
30
0
41
1
10
43.3858736394414
20
-5.41323932676713
30
0
41
1
10
43.4051940284438
20
-5.36822683470686
30
0
41
1
10
43.4563614592449
20
-5.23047809792769
30
0
41
1
10
43.481486626036
20
-5.13504519892567
30
0
41
1
10
43.5010560051701
20
-5.01119716855479
30
0
41
1
10
43.5043763602554
20
-4.98613742477016
30
0
41
1
10
43.5097481154108
20
-4.93589804592841
30
0
41
1
10
43.511804665402
20
-4.91071355557943
30
0
41
1
10
43.5160836514207
20
-4.83498507076249
30
0
41
1
10
43.5164065840977
20
-4.78425507018406
30
0
41
1
10
43.5141142402039
20
-4.73327135554527
30
0
0
SPLINE
5
CF
100
AcDbEntity
8
1
62
256
6
ByLayer
370
13
48
1
60
0
100
AcDbSpline
70
4
71
3
72
8
73
4
40
0
40
0
40
0
40
0
40
1
40
1
40
1
40
1
41
1
10
43.5141142402019
20
-4.73327135555172
30
0
41
1
10
43.465760536596
20
-4.65167577848396
30
0
41
1
10
43.4174068329902
20
-4.5700802014162
30
0
41
1
10
43.3690531293843
20
-4.48848462434844
30
0
0
SPLINE
5
D0
100
AcDbEntity
8
1
62
256
6
ByLayer
370
18
48
1
60
0
100
AcDbSpline
70
4
71
3
72
52
73
48
40
0
40
0
40
0
40
0
40
0.0233355858301717
40
0.0467500769001677
40
0.0702413683275268
40
0.0938074434383505
40
0.117446378944631
40
0.141156316350175
40
0.164935399068094
40
0.188781710187025
40
0.212693299229533
40
0.236668275503048
40
0.260704861745838
40
0.284801365476286
40
0.379515367447726
40
0.477280152640065
40
0.577985885451032
40
0.681533514950514
40
0.691404978407512
40
0.701356810977724
40
0.711388880663229
40
0.721501056884535
40
0.731693210581632
40
0.741965214315899
40
0.75231694237305
40
0.762748270867225
40
0.773259077846693
40
0.783849243401379
40
0.794518649772724
40
0.805267181465903
40
0.816094725365456
40
0.8270011708542
40
0.83798640993633
40
0.849050337365442
40
0.860192850777427
40
0.871413850830052
40
0.882713241348867
40
0.894090929481016
40
0.905546825851782
40
0.917080844691906
40
0.928692903931605
40
0.940382925288918
40
0.952150834356556
40
0.963996560687894
40
0.975920037882159
40
0.987921203670108
40
1
40
1
40
1
40
1
41
1
10
43.360920058644
20
-4.65671654686923
30
0
41
1
10
43.3600317121766
20
-4.66899826136432
30
0
41
1
10
43.358252015452
20
-4.69360321884386
30
0
41
1
10
43.3544546795901
20
-4.7304114270483
30
0
41
1
10
43.3498238981408
20
-4.76719283616083
30
0
41
1
10
43.3442755458315
20
-4.80390974434209
30
0
41
1
10
43.3378290500154
20
-4.84053691822382
30
0
41
1
10
43.3304768366937
20
-4.87704571934188
30
0
41
1
10
43.322219995565
20
-4.91340847388454
30
0
41
1
10
43.3130591008339
20
-4.94959742472363
30
0
41
1
10
43.3029963562759
20
-4.98558513861849
30
0
41
1
10
43.2920345278924
20
-5.02134401932591
30
0
41
1
10
43.2801763407172
20
-5.05684759501011
30
0
41
1
10
43.254982615813
20
-5.12644193630976
30
0
41
1
10
43.2104479026287
20
-5.22911429108203
30
0
41
1
10
43.1370349999069
20
-5.3603494327316
30
0
41
1
10
43.0483502874597
20
-5.48598363897131
30
0
41
1
10
42.9766452322129
20
-5.56718159412245
30
0
41
1
10
42.932816603132
20
-5.61112584916984
30
0
41
1
10
42.9221032287166
20
-5.62164141484087
30
0
41
1
10
42.9111963757071
20
-5.63211924035835
30
0
41
1
10
42.9000946712945
20
-5.64255526695248
30
0
41
1
10
42.8887969531082
20
-5.6529451623615
30
0
41
1
10
42.8773020682284
20
-5.66328460212625
30
0
41
1
10
42.8656089296496
20
-5.67356919404304
30
0
41
1
10
42.8537165029337
20
-5.68379449942088
30
0
41
1
10
42.8416238117887
20
-5.69395602813373
30
0
41
1
10
42.8293299385144
20
-5.70404924081862
30
0
41
1
10
42.8168340258352
20
-5.71406954917811
30
0
41
1
10
42.8041352783521
20
-5.72401231683838
30
0
41
1
10
42.7912329640907
20
-5.73387286009699
30
0
41
1
10
42.7781264160147
20
-5.74364644874191
30
0
41
1
10
42.7648150335398
20
-5.75332830689072
30
0
41
1
10
42.7512982840363
20
-5.76291361386771
30
0
41
1
10
42.7375757043161
20
-5.77239750509469
30
0
41
1
10
42.7236469021366
20
-5.78177507307902
30
0
41
1
10
42.7095115575757
20
-5.79104136817628
30
0
41
1
10
42.6951694248378
20
-5.80019140034779
30
0
41
1
10
42.680620332385
20
-5.80922013728778
30
0
41
1
10
42.6658641894412
20
-5.81812251634634
30
0
41
1
10
42.6509009686604
20
-5.82689340467738
30
0
41
1
10
42.6357307788322
20
-5.83552775477921
30
0
41
1
10
42.6203535982027
20
-5.84402002354565
30
0
41
1
10
42.6047702870679
20
-5.8523663675918
30
0
41
1
10
42.5889787785783
20
-5.86055637453089
30
0
41
1
10
42.5729884422008
20
-5.86860423199423
30
0
41
1
10
42.5622081932324
20
-5.87380549807918
30
0
41
1
10
42.5568006917156
20
-5.87641451521094
30
0
0
SPLINE
5
D1
100
AcDbEntity
8
1
62
256
6
ByLayer
370
18
48
1
60
0
100
AcDbSpline
70
4
71
3
72
8
73
4
40
0
40
0
40
0
40
0
40
1
40
1
40
1
40
1
41
1
10
43.0307816622287
20
-4.53103104050615
30
0
41
1
10
43.1408473274676
20
-4.57327005365599
30
0
41
1
10
43.2508967573107
20
-4.61517287402674
30
0
41
1
10
43.360933982998
20
-4.65682297811935
30
0
0
SPLINE
5
D2
100
AcDbEntity
8
1
62
256
6
ByLayer
370
18
48
1
60
0
100
AcDbSpline
70
4
71
3
72
14
73
10
40
0
40
0
40
0
40
0
40
0.25
40
0.25
40
0.5
40
0.5
40
0.75
40
0.75
40
1
40
1
40
1
40
1
41
1
10
43.3609269718215
20
-4.65661065232194
30
0
41
1
10
43.3628646085372
20
-4.64485285943917
30
0
41
1
10
43.3645622408931
20
-4.63254180980675
30
0
41
1
10
43.3673762373275
20
-4.60657977406157
30
0
41
1
10
43.3684950828971
20
-4.59281653972945
30
0
41
1
10
43.369978257612
20
-4.56452148353293
30
0
41
1
10
43.3703533330488
20
-4.54993934932571
30
0
41
1
10
43.3703098655415
20
-4.51983401630446
30
0
41
1
10
43.3698831964269
20
-4.50422299260026
30
0
41
1
10
43.3690531293939
20
-4.48848462435484
30
0
0
SPLINE
5
D3
100
AcDbEntity
8
1
62
256
6
ByLayer
370
18
48
1
60
0
100
AcDbSpline
70
4
71
3
72
26
73
22
40
0
40
0
40
0
40
0
40
0.125000000000003
40
0.125000000000003
40
0.250000000000006
40
0.250000000000006
40
0.375000000000009
40
0.375000000000009
40
0.437500000000004
40
0.437500000000004
40
0.499999999999998
40
0.499999999999998
40
0.625000000000004
40
0.625000000000004
40
0.750000000000011
40
0.750000000000011
40
0.812500000000014
40
0.812500000000014
40
0.875000000000017
40
0.875000000000017
40
1
40
1
40
1
40
1
41
1
10
42.5047287294454
20
-0.430738389714406
30
0
41
1
10
42.5048803025013
20
-0.462490780745384
30
0
41
1
10
42.5079590359236
20
-0.494062478958057
30
0
41
1
10
42.5184943989089
20
-0.557057709622057
30
0
41
1
10
42.5259675147345
20
-0.588478853398328
30
0
41
1
10
42.5444897991101
20
-0.651352745200143
30
0
41
1
10
42.5555455928076
20
-0.682803418338779
30
0
41
1
10
42.5744320990661
20
-0.730164622745008
30
0
41
1
10
42.5811208564933
20
-0.745996052147774
30
0
41
1
10
42.5950786679555
20
-0.777450354739898
30
0
41
1
10
42.6023623296632
20
-0.793111579802741
30
0
41
1
10
42.6250327427444
20
-0.839968000484021
30
0
41
1
10
42.6412371477734
20
-0.871030831022409
30
0
41
1
10
42.6753992903986
20
-0.933257828818768
30
0
41
1
10
42.6933591321645
20
-0.964413859948564
30
0
41
1
10
42.7213207303263
20
-1.01174564676657
30
0
41
1
10
42.7308115334525
20
-1.02762516270238
30
0
41
1
10
42.750085422242
20
-1.05972944947641
30
0
41
1
10
42.7598999355191
20
-1.0760069637293
30
0
41
1
10
42.789057751063
20
-1.12455113832161
30
0
41
1
10
42.8082632423204
20
-1.15682816119951
30
0
41
1
10
42.8268193726178
20
-1.18914346233288
30
0
0
SPLINE
5
D4
100
AcDbEntity
8
1
62
256
6
ByLayer
370
18
48
1
60
0
100
AcDbSpline
70
4
71
3
72
8
73
4
40
0
40
0
40
0
40
0
40
1
40
1
40
1
40
1
41
1
10
42.0190794980998
20
6.2303135253174
30
0
41
1
10
42.0514295219748
20
6.23204938633862
30
0
41
1
10
42.0840349387131
20
6.23340274482277
30
0
41
1
10
42.1168743770389
20
6.23442077546619
30
0
0
SPLINE
5
D5
100
AcDbEntity
8
1
62
256
6
ByLayer
370
18
48
1
60
0
100
AcDbSpline
70
4
71
3
72
47
73
43
40
0
40
0
40
0
40
0
40
0.044832323173262
40
0.0900463843664798
40
0.135636606273372
40
0.18159708539659
40
0.227921592069008
40
0.246443997580597
40
0.265184280563538
40
0.284141859974658
40
0.303316119558051
40
0.322706407139923
40
0.342312033525311
40
0.362132271389054
40
0.382166355658585
40
0.402413483055809
40
0.422872811482858
40
0.443543459417929
40
0.464424505323092
40
0.485514987065556
40
0.506813901354221
40
0.528320203193293
40
0.550032805354575
40
0.571950577870319
40
0.594072347548408
40
0.616396897511597
40
0.63892296676278
40
0.661649249777956
40
0.684574396128861
40
0.707697010137052
40
0.731015650561341
40
0.754528830320424
40
0.778235016252595
40
0.802132628914419
40
0.826220042420146
40
0.850495584323846
40
0.87495753554605
40
0.899604130346637
40
0.924433556345932
40
0.949443954595712
40
0.974633419701763
40
1
40
1
40
1
40
1
41
1
10
14.3731406610193
20
-4.18729872296404
30
0
41
1
10
14.3600099364791
20
-4.20654638931217
30
0
41
1
10
14.3336366819772
20
-4.24520561193245
30
0
41
1
10
14.2934770183945
20
-4.30273905984714
30
0
41
1
10
14.2526646790829
20
-4.36022724275449
30
0
41
1
10
14.2111672845462
20
-4.41759567997613
30
0
41
1
10
14.177540897736
20
-4.46323616389466
30
0
41
1
10
14.1520251120479
20
-4.49741356978265
30
0
41
1
10
14.1348036430338
20
-4.52030329901558
30
0
41
1
10
14.1173238204638
20
-4.54335898424489
30
0
41
1
10
14.0995853702958
20
-4.56657668282608
30
0
41
1
10
14.0815883271616
20
-4.58995245329029
30
0
41
1
10
14.063332642595
20
-4.61348222363588
30
0
41
1
10
14.0448183003223
20
-4.63716179912001
30
0
41
1
10
14.0260452778617
20
-4.66098688922301
30
0
41
1
10
14.0070135552215
20
-4.68495310611488
30
0
41
1
10
13.9877231124387
20
-4.70905596525731
30
0
41
1
10
13.9681739302961
20
-4.73329088539728
30
0
41
1
10
13.9483659901893
20
-4.75765318886462
30
0
41
1
10
13.9282992742278
20
-4.78213810194922
30
0
41
1
10
13.9079737652746
20
-4.80674075542453
30
0
41
1
10
13.8873894470044
20
-4.83145618520538
30
0
41
1
10
13.8665463039593
20
-4.85627933314885
30
0
41
1
10
13.8454443216082
20
-4.88120504800131
30
0
41
1
10
13.8240834864067
20
-4.90622808649655
30
0
41
1
10
13.8024637858596
20
-4.93134311460886
30
0
41
1
10
13.7805852085859
20
-4.95654470896514
30
0
41
1
10
13.7584477443844
20
-4.9818273584188
30
0
41
1
10
13.736051384304
20
-5.00718546579449
30
0
41
1
10
13.7133961207084
20
-5.03261334978697
30
0
41
1
10
13.6904819473693
20
-5.05810524709119
30
0
41
1
10
13.6673088594666
20
-5.08365531449095
30
0
41
1
10
13.6438768539447
20
-5.109257631948
30
0
41
1
10
13.620185928537
20
-5.13490620276863
30
0
41
1
10
13.5962360858297
20
-5.1605949656786
30
0
41
1
10
13.5720273183075
20
-5.18631776280509
30
0
41
1
10
13.5475596652139
20
-5.21206847503274
30
0
41
1
10
13.5228329983191
20
-5.23784052639894
30
0
41
1
10
13.4978478309016
20
-5.26362877087456
30
0
41
1
10
13.47260226549
20
-5.28942238976077
30
0
41
1
10
13.4471035097689
20
-5.31523170622108
30
0
41
1
10
13.429977011121
20
-5.33234244712753
30
0
41
1
10
13.4213837617934
20
-5.34092778998209
30
0
0
SPLINE
5
D6
100
AcDbEntity
8
1
62
256
6
ByLayer
370
18
48
1
60
0
100
AcDbSpline
70
4
71
3
72
18
73
14
40
0
40
0
40
0
40
0
40
0.0808816247040914
40
0.0808816247040914
40
0.19577142161608
40
0.19577142161608
40
0.310661218528068
40
0.310661218528068
40
0.540440812352046
40
0.540440812352046
40
0.770220406176024
40
0.770220406176024
40
1
40
1
40
1
40
1
41
1
10
40.3932866193167
20
3.818724234032
30
0
41
1
10
40.402168632538
20
3.82195225357469
30
0
41
1
10
40.4111463462854
20
3.82520281762348
30
0
41
1
10
40.4331132921606
20
3.83311293726007
30
0
41
1
10
40.4462026926354
20
3.8377901246312
30
0
41
1
10
40.4727977144429
20
3.84718287068813
30
0
41
1
10
40.4863564514857
20
3.85191656434256
30
0
41
1
10
40.5272444009738
20
3.86596880302776
30
0
41
1
10
40.5547420396929
20
3.87512620655818
30
0
41
1
10
40.6102838175683
20
3.89275312554779
30
0
41
1
10
40.6383278968252
20
3.90122308530781
30
0
41
1
10
40.6950487655794
20
3.91719434061025
30
0
41
1
10
40.7237940929716
20
3.92470582205846
30
0
41
1
10
40.7523716595143
20
3.93146389419783
30
0
0
SPLINE
5
D7
100
AcDbEntity
8
1
62
256
6
ByLayer
370
18
48
1
60
0
100
AcDbSpline
70
4
71
3
72
40
73
36
40
0
40
0
40
0
40
0
40
0.062499999999994
40
0.062499999999994
40
0.0937499999999911
40
0.0937499999999911
40
0.124999999999988
40
0.156249999999985
40
0.171874999999983
40
0.171874999999983
40
0.187499999999981
40
0.187499999999981
40
0.249999999999968
40
0.249999999999968
40
0.312499999999954
40
0.312499999999954
40
0.343749999999952
40
0.343749999999952
40
0.37499999999995
40
0.37499999999995
40
0.437499999999947
40
0.437499999999947
40
0.499999999999943
40
0.499999999999943
40
0.531249999999941
40
0.531249999999941
40
0.56249999999994
40
0.56249999999994
40
0.624999999999948
40
0.624999999999948
40
0.749999999999966
40
0.749999999999966
40
0.874999999999983
40
0.874999999999983
40
1
40
1
40
1
40
1
41
1
10
42.9834070905341
20
5.64472845923291
30
0
41
1
10
42.9884066121037
20
5.58164518451773
30
0
41
1
10
42.9886232769673
20
5.51809606633697
30
0
41
1
10
42.9797603084851
20
5.4218774942191
30
0
41
1
10
42.9752258825204
20
5.38951327813086
30
0
41
1
10
42.9630831616955
20
5.32606625840549
30
0
41
1
10
42.9478625506661
20
5.26356045318994
30
0
41
1
10
42.9212055857747
20
5.18776180726658
30
0
41
1
10
42.901829634448
20
5.14331676097189
30
0
41
1
10
42.8881685615674
20
5.11391417454118
30
0
41
1
10
42.8809513025151
20
5.09929874670539
30
0
41
1
10
42.8431942049073
20
5.02710406399046
30
0
41
1
10
42.8081553670637
20
4.97302120898593
30
0
41
1
10
42.7304222474216
20
4.87067314496744
30
0
41
1
10
42.6877248437288
20
4.82241030839279
30
0
41
1
10
42.6190092310193
20
4.75356457923715
30
0
41
1
10
42.5954403394384
20
4.73134770878067
30
0
41
1
10
42.5473774708057
20
4.68849469871247
30
0
41
1
10
42.5228391132324
20
4.66781370619907
30
0
41
1
10
42.4478584513837
20
4.60777904802444
30
0
41
1
10
42.3960560724938
20
4.57042559174474
30
0
41
1
10
42.2895034648596
20
4.50005396849332
30
0
41
1
10
42.2347518024579
20
4.4670379099461
30
0
41
1
10
42.1508049380897
20
4.4201895006768
30
0
41
1
10
42.1224819663823
20
4.40500229509703
30
0
41
1
10
42.0654526671632
20
4.37553134284261
30
0
41
1
10
42.0368012354727
20
4.36127405630765
30
0
41
1
10
41.9504820058117
20
4.31977800652902
30
0
41
1
10
41.8924511297876
20
4.29380856266775
30
0
41
1
10
41.7171976510675
20
4.21995856017628
30
0
41
1
10
41.5988291608281
20
4.17608401968815
30
0
41
1
10
41.3599956706898
20
4.09566432786255
30
0
41
1
10
41.2395208047762
20
4.05915366807255
30
0
41
1
10
40.9970226983812
20
3.99154545961684
30
0
41
1
10
40.8749953812128
20
3.96046216303233
30
0
41
1
10
40.7523716595238
20
3.93146389420005
30
0
0
SPLINE
5
D8
100
AcDbEntity
8
1
62
256
6
ByLayer
370
18
48
1
60
0
100
AcDbSpline
70
4
71
3
72
24
73
20
40
0
40
0
40
0
40
0
40
0.250000000000041
40
0.250000000000041
40
0.37500000000005
40
0.37500000000005
40
0.437500000000054
40
0.437500000000054
40
0.500000000000059
40
0.500000000000059
40
0.625000000000044
40
0.625000000000044
40
0.75000000000003
40
0.75000000000003
40
0.875000000000016
40
0.875000000000016
40
0.937500000000008
40
0.937500000000008
40
1
40
1
40
1
40
1
41
1
10
42.0190794980998
20
6.23031352531737
30
0
41
1
10
42.1096148007605
20
6.21961966412897
30
0
41
1
10
42.1986749884165
20
6.19907368359279
30
0
41
1
10
42.3302123226034
20
6.15401649824773
30
0
41
1
10
42.3737096260762
20
6.13660934434265
30
0
41
1
10
42.4383763123688
20
6.10677906752395
30
0
41
1
10
42.4598354055011
20
6.09621824590616
30
0
41
1
10
42.502543905022
20
6.07382395141394
30
0
41
1
10
42.5238507776146
20
6.06195214001247
30
0
41
1
10
42.5867988984392
20
6.02472200021063
30
0
41
1
10
42.6275834017869
20
5.9977344527251
30
0
41
1
10
42.7066379203825
20
5.93942613901029
30
0
41
1
10
42.7449031293754
20
5.90809531893137
30
0
41
1
10
42.8185899426752
20
5.84089895026764
30
0
41
1
10
42.8540171964958
20
5.80504153806382
30
0
41
1
10
42.904655581675
20
5.74760279215687
30
0
41
1
10
42.9211186909954
20
5.72785032870396
30
0
41
1
10
42.9531274272296
20
5.68707029567904
30
0
41
1
10
42.9686131386789
20
5.66609789155495
30
0
41
1
10
42.9834070905293
20
5.64472845922887
30
0
0
SPLINE
5
D9
100
AcDbEntity
8
1
62
256
6
ByLayer
370
18
48
1
60
0
100
AcDbSpline
70
4
71
3
72
12
73
8
40
0
40
0
40
0
40
0
40
0.218054962415321
40
0.436109924830642
40
0.654164887245963
40
0.872219849661284
40
1
40
1
40
1
40
1
41
1
10
42.019086778882
20
6.23025399478985
30
0
41
1
10
41.7378462834573
20
6.18778331872917
30
0
41
1
10
41.175365292608
20
6.08044232097316
30
0
41
1
10
40.3316438063339
20
5.8539646941214
30
0
41
1
10
39.48792232006
20
5.56445950401036
30
0
41
1
10
38.7606344732299
20
5.26326314863957
30
0
41
1
10
38.3145871218243
20
5.05499942011826
30
0
41
1
10
38.1497802658434
20
4.97498245921381
30
0
0
SPLINE
5
DA
100
AcDbEntity
8
1
62
256
6
ByLayer
370
18
48
1
60
0
100
AcDbSpline
70
4
71
3
72
15
73
11
40
0
40
0
40
0
40
0
40
0.16692700817102
40
0.16692700817102
40
0.375195256128265
40
0.375195256128265
40
0.58346350408551
40
0.58346350408551
40
0.791731752042755
40
1
40
1
40
1
40
1
41
1
10
19.0711279645716
20
-6.30153721197726
30
0
41
1
10
18.845713697451
20
-6.32325337712868
30
0
41
1
10
18.6202994303304
20
-6.33769860030773
30
0
41
1
10
18.1136446677851
20
-6.3536976517272
30
0
41
1
10
17.8324041723604
20
-6.35117274860164
30
0
41
1
10
17.2699231815111
20
-6.32333837055012
30
0
41
1
10
16.9886826860864
20
-6.29802895213189
30
0
41
1
10
16.426201695237
20
-6.22489795598833
30
0
41
1
10
15.8637207043878
20
-6.12925508129521
30
0
41
1
10
15.3012397135384
20
-5.98961769624341
30
0
41
1
10
15.0199992181137
20
-5.90917624549894
30
0
0
SPLINE
5
DB
100
AcDbEntity
8
1
62
256
6
ByLayer
370
18
48
1
60
0
100
AcDbSpline
70
4
71
3
72
9
73
5
40
0
40
0
40
0
40
0
40
0.268070841639232
40
1
40
1
40
1
40
1
41
1
10
11.3756780596123
20
-4.29583911964451
30
0
41
1
10
11.1269968437253
20
-4.43427108451613
30
0
41
1
10
10.2079432503552
20
-5.02058234867192
30
0
41
1
10
9.33826699803774
20
-5.81830495421588
30
0
41
1
10
8.69099698350237
20
-6.27611312460866
30
0
0
SPLINE
5
DC
100
AcDbEntity
8
1
62
256
6
ByLayer
370
18
48
1
60
0
100
AcDbSpline
70
4
71
3
72
10
73
6
40
0
40
0
40
0
40
0
40
0.5
40
0.5
40
1
40
1
40
1
40
1
41
1
10
42.8898264378357
20
2.5726175253416
30
0
41
1
10
42.9141708795318
20
2.52279032612458
30
0
41
1
10
42.9382473305408
20
2.47396121986859
30
0
41
1
10
42.9852597964641
20
2.38048749044691
30
0
41
1
10
43.008218648444
20
2.33576333729457
30
0
41
1
10
43.0307816622295
20
2.29249467517297
30
0
0
SPLINE
5
DD
100
AcDbEntity
8
1
62
256
6
ByLayer
370
18
48
1
60
0
100
AcDbSpline
70
4
71
3
72
16
73
12
40
0
40
0
40
0
40
0
40
0.115240115196403
40
0.115240115196403
40
0.4101600767976
40
0.705080038398796
40
0.705080038398796
40
0.852540019199394
40
0.926270009599697
40
0.926270009599697
40
1
40
1
40
1
40
1
41
1
10
40.9057075710319
20
3.5281727381487
30
0
41
1
10
40.9797071852438
20
3.50818132728563
30
0
41
1
10
41.0539670265336
20
3.48623271641463
30
0
41
1
10
41.3191971698431
20
3.40114798797836
30
0
41
1
10
41.7040238649351
20
3.25316910543771
30
0
41
1
10
42.0955569808467
20
3.05475040322608
30
0
41
1
10
42.3916543550766
20
2.88752814614583
30
0
41
1
10
42.5403145243365
20
2.79931798483756
30
0
41
1
10
42.6898743963979
20
2.70434104758667
30
0
41
1
10
42.7897784900743
20
2.63953757499067
30
0
41
1
10
42.8398526494053
20
2.60637582646297
30
0
41
1
10
42.8898264378333
20
2.57261752534299
30
0
0
SPLINE
5
DE
100
AcDbEntity
8
1
62
256
6
ByLayer
370
18
48
1
60
0
100
AcDbSpline
70
4
71
3
72
20
73
16
40
0
40
0
40
0
40
0
40
0.151742198492964
40
0.151742198492964
40
0.303484396985929
40
0.303484396985929
40
0.455226595478893
40
0.455226595478893
40
0.606968793971857
40
0.606968793971857
40
0.758710992464821
40
0.758710992464821
40
0.910453190957786
40
0.910453190957786
40
1
40
1
40
1
40
1
41
1
10
4.744402443708
20
-4.86641335361398
30
0
41
1
10
5.01504568841767
20
-4.80230129133392
30
0
41
1
10
5.28774118494539
20
-4.73824930800967
30
0
41
1
10
5.83784835273835
20
-4.61083484675794
30
0
41
1
10
6.11526126657182
20
-4.54747001200388
30
0
41
1
10
6.6754451052671
20
-4.42239266437568
30
0
41
1
10
6.95821787028237
20
-4.36067879979856
30
0
41
1
10
7.52974588310579
20
-4.24032335231885
30
0
41
1
10
7.81850350504058
20
-4.18168209895785
30
0
41
1
10
8.40254474547891
20
-4.06936689945147
30
0
41
1
10
8.69783107404263
20
-4.01569549853386
30
0
41
1
10
9.29531511822037
20
-3.91564882225649
30
0
41
1
10
9.5975155675448
20
-3.86927853297024
30
0
41
1
10
10.0836616571857
20
-3.80345191302013
30
0
41
1
10
10.2653088426626
20
-3.78075685321133
30
0
41
1
10
10.4481669486336
20
-3.76008105792536
30
0
0
SPLINE
5
DF
100
AcDbEntity
8
1
62
256
6
ByLayer
370
18
48
1
60
0
100
AcDbSpline
70
4
71
3
72
8
73
4
40
0
40
0
40
0
40
0
40
1
40
1
40
1
40
1
41
1
10
43.0307816622289
20
2.29249467517391
30
0
41
1
10
43.1408473307108
20
1.92189256368849
30
0
41
1
10
43.2508967602607
20
1.55127083484987
30
0
41
1
10
43.360933982999
20
1.18063435963967
30
0
0
SPLINE
5
E0
100
AcDbEntity
8
1
62
256
6
ByLayer
370
18
48
1
60
0
100
AcDbSpline
70
4
71
3
72
28
73
24
40
0
40
0
40
0
40
0
40
0.124999999999981
40
0.124999999999981
40
0.187499999999974
40
0.187499999999974
40
0.249999999999966
40
0.249999999999966
40
0.37499999999996
40
0.37499999999996
40
0.437499999999964
40
0.437499999999964
40
0.499999999999968
40
0.499999999999968
40
0.624999999999976
40
0.624999999999976
40
0.749999999999984
40
0.749999999999984
40
0.812499999999989
40
0.812499999999989
40
0.874999999999993
40
0.874999999999993
40
1
40
1
40
1
40
1
41
1
10
43.0307816622291
20
2.29249467517312
30
0
41
1
10
43.0313776176052
20
2.28344626466904
30
0
41
1
10
43.029799989501
20
2.2756769132138
30
0
41
1
10
43.0238622981749
20
2.26628212195655
30
0
41
1
10
43.021275272239
20
2.26352114842189
30
0
41
1
10
43.0149023201969
20
2.25885380511852
30
0
41
1
10
43.0111320758871
20
2.25695296024017
30
0
41
1
10
42.9980657268878
20
2.25258873717931
30
0
41
1
10
42.9870054236872
20
2.25146844450981
30
0
41
1
10
42.9667393781897
20
2.25271650759339
30
0
41
1
10
42.9593737684616
20
2.25361920385464
30
0
41
1
10
42.9433729559122
20
2.25645483034396
30
0
41
1
10
42.9347132066508
20
2.25839758352913
30
0
41
1
10
42.9072665174287
20
2.26570796664916
30
0
41
1
10
42.8868953873035
20
2.27256754504776
30
0
41
1
10
42.8422290603458
20
2.29015070754016
30
0
41
1
10
42.8179184447869
20
2.30088520025615
30
0
41
1
10
42.7784734613598
20
2.3199402923247
30
0
41
1
10
42.7649511098736
20
2.3267256031651
30
0
41
1
10
42.7373088077042
20
2.34106101097925
30
0
41
1
10
42.7231738704497
20
2.34861757406222
30
0
41
1
10
42.6798449704382
20
2.37241712144225
30
0
41
1
10
42.6497459407528
20
2.38977435028656
30
0
41
1
10
42.6185215525483
20
2.40849334298556
30
0
0
SPLINE
5
E1
100
AcDbEntity
8
1
62
256
6
ByLayer
370
18
48
1
60
0
100
AcDbSpline
70
4
71
3
72
8
73
4
40
0
40
0
40
0
40
0
40
1
40
1
40
1
40
1
41
1
10
43.5141142402019
20
-0.0084230457434273
30
0
41
1
10
43.465760536596
20
0.365948355738567
30
0
41
1
10
43.4174068329902
20
0.740319757220533
30
0
41
1
10
43.3690531293843
20
1.11469115870253
30
0
0
SPLINE
5
E2
100
AcDbEntity
8
1
62
256
6
ByLayer
370
18
48
1
60
0
100
AcDbSpline
70
4
71
3
72
14
73
10
40
0
40
0
40
0
40
0
40
0.25
40
0.25
40
0.5
40
0.5
40
0.75
40
0.75
40
1
40
1
40
1
40
1
41
1
10
43.3609269718216
20
1.18061076478239
30
0
41
1
10
43.3628646085373
20
1.17127169270321
30
0
41
1
10
43.3645622408932
20
1.16263690465311
30
0
41
1
10
43.3673762373276
20
1.14707303908193
30
0
41
1
10
43.3684950828972
20
1.14011011750642
30
0
41
1
10
43.369978257612
20
1.12861694588611
30
0
41
1
10
43.3703533330487
20
1.12403825492083
30
0
41
1
10
43.3703098655415
20
1.11740974794273
30
0
41
1
10
43.369883196427
20
1.11536822077377
30
0
41
1
10
43.369053129394
20
1.11469115867465
30
0
0
SPLINE
5
E3
100
AcDbEntity
8
1
62
256
6
ByLayer
370
18
48
1
60
0
100
AcDbSpline
70
4
71
3
72
52
73
48
40
0
40
0
40
0
40
0
40
0.0233355858301749
40
0.0467500769001714
40
0.0702413683275322
40
0.0938074434383545
40
0.117446378944638
40
0.141156316350179
40
0.164935399068104
40
0.188781710187031
40
0.212693299229549
40
0.236668275503064
40
0.260704861745851
40
0.284801365476304
40
0.379515367447738
40
0.477280152640071
40
0.577985885451029
40
0.681533514950505
40
0.691404978407514
40
0.701356810977725
40
0.71138888066323
40
0.72150105688452
40
0.731693210581611
40
0.741965214315894
40
0.752316942373051
40
0.762748270867233
40
0.773259077846693
40
0.783849243401386
40
0.794518649772705
40
0.805267181465909
40
0.816094725365455
40
0.827001170854186
40
0.837986409936348
40
0.849050337365441
40
0.860192850777411
40
0.871413850830043
40
0.88271324134887
40
0.894090929481006
40
0.905546825851779
40
0.917080844691902
40
0.9286929039316
40
0.940382925288905
40
0.952150834356564
40
0.963996560687887
40
0.975920037882145
40
0.987921203670108
40
1
40
1
40
1
40
1
41
1
10
43.3609200586441
20
1.18061996411453
30
0
41
1
10
43.3600317121766
20
1.18171984421824
30
0
41
1
10
43.358252015452
20
1.18392332347969
30
0
41
1
10
43.3544546795901
20
1.18764328058546
30
0
41
1
10
43.3498238981408
20
1.19167284037508
30
0
41
1
10
43.3442755458316
20
1.19604119427842
30
0
41
1
10
43.3378290500154
20
1.20073962801843
30
0
41
1
10
43.3304768366938
20
1.20576919831521
30
0
41
1
10
43.322219995565
20
1.21112764872333
30
0
41
1
10
43.313059100834
20
1.2168127325192
30
0
41
1
10
43.3029963562759
20
1.22282147675415
30
0
41
1
10
43.2920345278924
20
1.2291506336114
30
0
41
1
10
43.2801763407172
20
1.2357969486016
30
0
41
1
10
43.2549826158129
20
1.24954883750863
30
0
41
1
10
43.2104479026287
20
1.27256311158789
30
0
41
1
10
43.1370349999069
20
1.30813148836472
30
0
41
1
10
43.0483502874597
20
1.34906406068987
30
0
41
1
10
42.976645232213
20
1.38088739435085
30
0
41
1
10
42.932816603132
20
1.39997188380576
30
0
41
1
10
42.9221032287167
20
1.40462182705622
30
0
41
1
10
42.9111963757071
20
1.40934092149882
30
0
41
1
10
42.9000946712945
20
1.41412950413152
30
0
41
1
10
42.8887969531082
20
1.41898786421515
30
0
41
1
10
42.8773020682284
20
1.42391626663425
30
0
41
1
10
42.8656089296496
20
1.42891494464678
30
0
41
1
10
42.8537165029337
20
1.43398410093738
30
0
41
1
10
42.8416238117887
20
1.43912390642282
30
0
41
1
10
42.8293299385144
20
1.44433449967116
30
0
41
1
10
42.8168340258352
20
1.44961598615922
30
0
41
1
10
42.8041352783521
20
1.45496843757934
30
0
41
1
10
42.7912329640906
20
1.46039189113924
30
0
41
1
10
42.7781264160147
20
1.46588634887013
30
0
41
1
10
42.7648150335398
20
1.47145177694065
30
0
41
1
10
42.7512982840363
20
1.47708810497701
30
0
41
1
10
42.7375757043162
20
1.48279522539224
30
0
41
1
10
42.7236469021367
20
1.48857299271586
30
0
41
1
10
42.7095115575756
20
1.49442122296043
30
0
41
1
10
42.6951694248378
20
1.50033969289055
30
0
41
1
10
42.680620332385
20
1.50632813969094
30
0
41
1
10
42.6658641894412
20
1.51238625912237
30
0
41
1
10
42.6509009686604
20
1.51851370928239
30
0
41
1
10
42.6357307788323
20
1.5247100931596
30
0
41
1
10
42.6203535982027
20
1.53097502112729
30
0
41
1
10
42.6047702870679
20
1.53730787212888
30
0
41
1
10
42.5889787785783
20
1.54370869055828
30
0
41
1
10
42.5729884422008
20
1.5501748028787
30
0
41
1
10
42.5622081932323
20
1.55451997574255
30
0
41
1
10
42.5568006917156
20
1.55669956629936
30
0
0
SPLINE
5
E4
100
AcDbEntity
8
1
62
256
6
ByLayer
370
18
48
1
60
0
100
AcDbSpline
70
4
71
3
72
30
73
26
40
0
40
0
40
0
40
0
40
0.0156249999999999
40
0.0156249999999999
40
0.0312499999999999
40
0.0312499999999999
40
0.0624999999999997
40
0.0624999999999997
40
0.0937499999999996
40
0.0937499999999996
40
0.124999999999999
40
0.124999999999999
40
0.1875
40
0.1875
40
0.250000000000001
40
0.250000000000001
40
0.375000000000003
40
0.375000000000003
40
0.500000000000005
40
0.500000000000005
40
0.625000000000008
40
0.625000000000008
40
0.75000000000001
40
0.75000000000001
40
1
40
1
40
1
40
1
41
1
10
42.1168743770369
20
0.746603984219689
30
0
41
1
10
42.1221146618637
20
0.746603179122104
30
0
41
1
10
42.1274225142491
20
0.747004440262941
30
0
41
1
10
42.1377653276998
20
0.748590328575943
30
0
41
1
10
42.1428215480904
20
0.749767246427211
30
0
41
1
10
42.1576747480823
20
0.754348443943798
30
0
41
1
10
42.1671984353147
20
0.758859103099155
30
0
41
1
10
42.1847227958468
20
0.769521266722847
30
0
41
1
10
42.1928720378204
20
0.775704384503058
30
0
41
1
10
42.2083336984691
20
0.789227428455831
30
0
41
1
10
42.2155260164415
20
0.7964669357128
30
0
41
1
10
42.2358811725481
20
0.818947200735238
30
0
41
1
10
42.2479497201601
20
0.835016919125621
30
0
41
1
10
42.2705550673632
20
0.868231149947377
30
0
41
1
10
42.2810822949158
20
0.885439022241769
30
0
41
1
10
42.3110410678273
20
0.937746179586668
30
0
41
1
10
42.3288666386243
20
0.9734070391209
30
0
41
1
10
42.3625980843748
20
1.04529551750363
30
0
41
1
10
42.3784378254328
20
1.08155123476666
30
0
41
1
10
42.4089246484344
20
1.15431791514234
30
0
41
1
10
42.4235565951015
20
1.19083532351738
30
0
41
1
10
42.4519932727623
20
1.26396793101603
30
0
41
1
10
42.4657930598271
20
1.3005852395886
30
0
41
1
10
42.5062479636286
20
1.41045470040197
30
0
41
1
10
42.5319825994065
20
1.48373970007566
30
0
41
1
10
42.5567850705111
20
1.55670585822096
30
0
0
SPLINE
5
E5
100
AcDbEntity
8
1
62
256
6
ByLayer
370
18
48
1
60
0
100
AcDbSpline
70
4
71
3
72
12
73
8
40
0
40
0
40
0
40
0
40
0.500000000000002
40
0.500000000000002
40
0.750000000000001
40
0.750000000000001
40
1
40
1
40
1
40
1
41
1
10
42.556826815718
20
1.55670347701928
30
0
41
1
10
42.5547126787721
20
1.70515839757303
30
0
41
1
10
42.5624994690484
20
1.84994115400244
30
0
41
1
10
42.5806007317977
20
2.06259970815455
30
0
41
1
10
42.5877119561499
20
2.13273070603779
30
0
41
1
10
42.6027630686542
20
2.2716183796835
30
0
41
1
10
42.6106982209391
20
2.34037544593639
30
0
41
1
10
42.6185215525483
20
2.40849334298556
30
0
0
SPLINE
5
E6
100
AcDbEntity
8
1
62
256
6
ByLayer
370
18
48
1
60
0
100
AcDbSpline
70
4
71
3
72
30
73
26
40
0
40
0
40
0
40
0
40
0.103912293395755
40
0.103912293395755
40
0.207824586791509
40
0.207824586791509
40
0.415649173583018
40
0.415649173583018
40
0.441627246931956
40
0.441627246931956
40
0.467605320280894
40
0.519561466978766
40
0.519561466978766
40
0.623473760374512
40
0.623473760374512
40
0.727386053770257
40
0.727386053770257
40
0.831298347166002
40
0.831298347166002
40
0.935210640561747
40
0.935210640561747
40
0.961188713910684
40
0.961188713910684
40
0.98716678725962
40
1
40
1
40
1
40
1
41
1
10
42.6185215525483
20
2.40849334298556
30
0
41
1
10
42.3243339061827
20
2.61050591349834
30
0
41
1
10
42.031063428417
20
2.80714918254913
30
0
41
1
10
41.4450464475104
20
3.18840946914651
30
0
41
1
10
41.1523229893009
20
3.37302102323068
30
0
41
1
10
40.2732548731226
20
3.90661927196098
30
0
41
1
10
39.6859770198085
20
4.23551239651224
30
0
41
1
10
39.018217076632
20
4.56833468657678
30
0
41
1
10
38.9439493308401
20
4.60478370764022
30
0
41
1
10
38.7957293892077
20
4.67637280637248
30
0
41
1
10
38.5736757959923
20
4.78189288403271
30
0
41
1
10
38.3523640960609
20
4.88178264803264
30
0
41
1
10
37.9105084951894
20
5.07392392795799
30
0
41
1
10
37.616968435299
20
5.19181746793055
30
0
41
1
10
37.0306796565254
20
5.40665487836802
30
0
41
1
10
36.7379303341847
20
5.50361494882432
30
0
41
1
10
36.1520605371598
20
5.67571369897598
30
0
41
1
10
35.858926883791
20
5.75087284095301
30
0
41
1
10
35.2709502344176
20
5.87897745988064
30
0
41
1
10
34.9761234180314
20
5.93189164397361
30
0
41
1
10
34.6057736951564
20
5.98338819321046
30
0
41
1
10
34.5316001633495
20
5.99295598333629
30
0
41
1
10
34.3831015441972
20
6.01059859511244
30
0
41
1
10
34.2723289364605
20
6.02263055511153
30
0
41
1
10
34.1617674916658
20
6.03295297769881
30
0
41
1
10
34.1252315307678
20
6.03617937991234
30
0
0
SPLINE
5
E7
100
AcDbEntity
8
1
62
256
6
ByLayer
370
18
48
1
60
0
100
AcDbSpline
70
4
71
3
72
8
73
4
40
0
40
0
40
0
40
0
40
1
40
1
40
1
40
1
41
1
10
42.0190794980996
20
-6.23031352531771
30
0
41
1
10
42.0514295219747
20
-6.23204938633893
30
0
41
1
10
42.0840349387131
20
-6.23340274482308
30
0
41
1
10
42.1168743770389
20
-6.2344207754665
30
0
0
SPLINE
5
E8
100
AcDbEntity
8
1
62
256
6
ByLayer
370
18
48
1
60
0
100
AcDbSpline
70
4
71
3
72
30
73
26
40
0
40
0
40
0
40
0
40
0.0156250000000268
40
0.0156250000000268
40
0.0312500000000537
40
0.0312500000000537
40
0.0625000000000683
40
0.0625000000000683
40
0.0937500000000828
40
0.0937500000000828
40
0.125000000000097
40
0.125000000000097
40
0.1875000000001
40
0.1875000000001
40
0.250000000000102
40
0.250000000000102
40
0.375000000000087
40
0.375000000000087
40
0.500000000000072
40
0.500000000000072
40
0.625000000000058
40
0.625000000000058
40
0.750000000000043
40
0.750000000000043
40
1
40
1
40
1
40
1
41
1
10
42.1168743770371
20
-6.23442077546781
30
0
41
1
10
42.1221146618639
20
-6.2339041552558
30
0
41
1
10
42.1274225142493
20
-6.23325420954657
30
0
41
1
10
42.1377653277
20
-6.23173386720993
30
0
41
1
10
42.1428215480905
20
-6.23086379430907
30
0
41
1
10
42.1576747480825
20
-6.22795082628994
30
0
41
1
10
42.1671984353148
20
-6.22558314557804
30
0
41
1
10
42.1847227958469
20
-6.2204599349412
30
0
41
1
10
42.1928720378205
20
-6.21767975957027
30
0
41
1
10
42.2083336984692
20
-6.21180529374291
30
0
41
1
10
42.2155260164415
20
-6.20875508561338
30
0
41
1
10
42.2358811725481
20
-6.19943180395936
30
0
41
1
10
42.2479497201601
20
-6.19295135121993
30
0
41
1
10
42.2705550673631
20
-6.17963409903024
30
0
41
1
10
42.2810822949158
20
-6.17277740893997
30
0
41
1
10
42.3110410678273
20
-6.15188751412518
30
0
41
1
10
42.3288666386243
20
-6.13757600220961
30
0
41
1
10
42.3625980843748
20
-6.10823614210207
30
0
41
1
10
42.3784378254327
20
-6.09320606728667
30
0
41
1
10
42.4089246484343
20
-6.06244105397116
30
0
41
1
10
42.4235565951015
20
-6.04670575973631
30
0
41
1
10
42.4519932727623
20
-6.0145339853625
30
0
41
1
10
42.4657930598271
20
-5.99809740002826
30
0
41
1
10
42.5062479636286
20
-5.94773494010684
30
0
41
1
10
42.5319825994065
20
-5.91274435284615
30
0
41
1
10
42.556785070511
20
-5.87642197852944
30
0
0
SPLINE
5
E9
100
AcDbEntity
8
1
62
256
6
ByLayer
370
18
48
1
60
0
100
AcDbSpline
70
4
71
3
72
12
73
8
40
0
40
0
40
0
40
0
40
0.500000000000002
40
0.500000000000002
40
0.750000000000001
40
0.750000000000001
40
1
40
1
40
1
40
1
41
1
10
42.556826815718
20
-5.87641891759378
30
0
41
1
10
42.554712678772
20
-5.8077648070151
30
0
41
1
10
42.5624994690484
20
-5.73339692509162
30
0
41
1
10
42.5806007317977
20
-5.61396883743376
30
0
41
1
10
42.5877119561499
20
-5.57284277937472
30
0
41
1
10
42.6027630686542
20
-5.48802720020689
30
0
41
1
10
42.610698220939
20
-5.44433774250382
30
0
41
1
10
42.6185215525483
20
-5.39938260434326
30
0
0
SPLINE
5
EA
100
AcDbEntity
8
1
62
256
6
ByLayer
370
18
48
1
60
0
100
AcDbSpline
70
4
71
3
72
47
73
43
40
0
40
0
40
0
40
0
40
0.0448323231732635
40
0.0900463843664796
40
0.135636606273372
40
0.181597085396586
40
0.227921592069005
40
0.246443997580594
40
0.265184280563535
40
0.284141859974656
40
0.303316119558048
40
0.32270640713992
40
0.342312033525307
40
0.362132271389052
40
0.382166355658583
40
0.402413483055808
40
0.422872811482855
40
0.443543459417928
40
0.46442450532309
40
0.485514987065554
40
0.506813901354219
40
0.528320203193292
40
0.550032805354574
40
0.571950577870318
40
0.594072347548406
40
0.616396897511596
40
0.638922966762778
40
0.661649249777955
40
0.68457439612886
40
0.707697010137051
40
0.73101565056134
40
0.754528830320423
40
0.778235016252595
40
0.802132628914418
40
0.826220042420146
40
0.850495584323846
40
0.87495753554605
40
0.899604130346636
40
0.924433556345932
40
0.949443954595712
40
0.974633419701764
40
1
40
1
40
1
40
1
41
1
10
14.3731406610193
20
4.10321132281129
30
0
41
1
10
14.3600099364791
20
4.0888673133872
30
0
41
1
10
14.3336366819772
20
4.06005715824602
30
0
41
1
10
14.2934770183945
20
4.01612576555991
30
0
41
1
10
14.2526646790829
20
3.97144208384748
30
0
41
1
10
14.2111672845463
20
3.92597230340371
30
0
41
1
10
14.1775408977361
20
3.88910196098826
30
0
41
1
10
14.152025112048
20
3.86112031091111
30
0
41
1
10
14.1348036430338
20
3.84223657753915
30
0
41
1
10
14.1173238204638
20
3.82306851226193
30
0
41
1
10
14.0995853702958
20
3.80361466384429
30
0
41
1
10
14.0815883271617
20
3.78387347906147
30
0
41
1
10
14.063332642595
20
3.7638435009911
30
0
41
1
10
14.0448183003224
20
3.7435232786915
30
0
41
1
10
14.0260452778618
20
3.72291143878442
30
0
41
1
10
14.0070135552216
20
3.70200667807239
30
0
41
1
10
13.9877231124387
20
3.68080777007452
30
0
41
1
10
13.9681739302961
20
3.6593135679841
30
0
41
1
10
13.9483659901893
20
3.63752300867452
30
0
41
1
10
13.9282992742279
20
3.61543511647395
30
0
41
1
10
13.9079737652747
20
3.59304900705172
30
0
41
1
10
13.8873894470044
20
3.5703638913177
30
0
41
1
10
13.8665463039594
20
3.54737907935541
30
0
41
1
10
13.8454443216083
20
3.52409398437732
30
0
41
1
10
13.8240834864067
20
3.5005081266988
30
0
41
1
10
13.8024637858597
20
3.47662113772466
30
0
41
1
10
13.780585208586
20
3.45243276394263
30
0
41
1
10
13.7584477443845
20
3.42794287091775
30
0
41
1
10
13.736051384304
20
3.40315144728268
30
0
41
1
10
13.7133961207085
20
3.37805860870935
30
0
41
1
10
13.6904819473694
20
3.35266460188836
30
0
41
1
10
13.6673088594667
20
3.32696980838054
30
0
41
1
10
13.6438768539447
20
3.30097474882172
30
0
41
1
10
13.6201859285371
20
3.27468008562477
30
0
41
1
10
13.5962360858297
20
3.24808663115564
30
0
41
1
10
13.5720273183075
20
3.22119533499546
30
0
41
1
10
13.5475596652139
20
3.19400734989057
30
0
41
1
10
13.5228329983191
20
3.16652380032869
30
0
41
1
10
13.4978478309016
20
3.13874667315713
30
0
41
1
10
13.47260226549
20
3.11067547360901
30
0
41
1
10
13.447103509769
20
3.08231985766488
30
0
41
1
10
13.429977011121
20
3.06327417312343
30
0
41
1
10
13.4213837617934
20
3.0537179690653
30
0
0
SPLINE
5
EB
100
AcDbEntity
8
1
62
256
6
ByLayer
370
18
48
1
60
0
100
AcDbSpline
70
4
71
3
72
8
73
4
40
0
40
0
40
0
40
0
40
1
40
1
40
1
40
1
41
1
10
13.9100257091732
20
-4.21034334693093
30
0
41
1
10
14.0608559969191
20
-4.20097076265185
30
0
41
1
10
14.2155481865108
20
-4.19308665283961
30
0
41
1
10
14.3733507508354
20
-4.1876937993361
30
0
0
SPLINE
5
EC
100
AcDbEntity
8
1
62
256
6
ByLayer
370
18
48
1
60
0
100
AcDbSpline
70
4
71
3
72
48
73
44
40
0
40
0
40
0
40
0
40
0.0142828109075627
40
0.0142828109075627
40
0.0343994882359814
40
0.0746328428928162
40
0.0746328428928162
40
0.114866197549651
40
0.114866197549651
40
0.155099552206486
40
0.155099552206486
40
0.195332906863321
40
0.195332906863321
40
0.275799616176988
40
0.275799616176988
40
0.356266325490656
40
0.356266325490656
40
0.39649968014749
40
0.39649968014749
40
0.416616357475906
40
0.416616357475906
40
0.436733034804323
40
0.436733034804323
40
0.517199744117993
40
0.517199744117993
40
0.597666453431663
40
0.597666453431663
40
0.678133162745332
40
0.678133162745332
40
0.718366517402167
40
0.718366517402167
40
0.758599872059002
40
0.758599872059002
40
0.798833226715836
40
0.798833226715836
40
0.83906658137267
40
0.83906658137267
40
0.859183258701087
40
0.859183258701087
40
0.879299936029504
40
0.919533290686336
40
0.919533290686336
40
1
40
1
40
1
40
1
41
1
10
25.3487832401801
20
-5.21485757282491
30
0
41
1
10
25.2961188912765
20
-5.23510461515181
30
0
41
1
10
25.2434071275607
20
-5.25504316552554
30
0
41
1
10
25.1165380056581
20
-5.30222781248227
30
0
41
1
10
24.8942647873927
20
-5.38291315643059
30
0
41
1
10
24.6728259624979
20
-5.45727064155483
30
0
41
1
10
24.3781771200521
20
-5.55068941679994
30
0
41
1
10
24.2311442359304
20
-5.59455295543762
30
0
41
1
10
23.9373865808343
20
-5.67686525150211
30
0
41
1
10
23.790686487292
20
-5.71526021361061
30
0
41
1
10
23.4975629816576
20
-5.78629589615372
30
0
41
1
10
23.3511290928099
20
-5.81896243487353
30
0
41
1
10
22.9119669678428
20
-5.90837742438146
30
0
41
1
10
22.6193923002689
20
-5.95648958176631
30
0
41
1
10
22.0333390761694
20
-6.02961634887092
30
0
41
1
10
21.7398531045919
20
-6.054718628334
30
0
41
1
10
21.2981055489831
20
-6.07424442781064
30
0
41
1
10
21.1505972252648
20
-6.07774989864728
30
0
41
1
10
20.928813043659
20
-6.07852450750383
30
0
41
1
10
20.8547980733081
20
-6.07803573583945
30
0
41
1
10
20.7065735600233
20
-6.07556127583533
30
0
41
1
10
20.6322970293655
20
-6.07357014267117
30
0
41
1
10
20.2615070962114
20
-6.05980600889558
30
0
41
1
10
19.9665229891918
20
-6.03651958244299
30
0
41
1
10
19.3782984587289
20
-5.96690037489597
30
0
41
1
10
19.0850514306984
20
-5.92064004083292
30
0
41
1
10
18.4993401856847
20
-5.80484693750762
30
0
41
1
10
18.2068024057008
20
-5.73554334660781
30
0
41
1
10
17.7674801290447
20
-5.6152848525256
30
0
41
1
10
17.6209618344562
20
-5.57245083348894
30
0
41
1
10
17.3276505837852
20
-5.48116172066074
30
0
41
1
10
17.180857294186
20
-5.43270092082588
30
0
41
1
10
16.8868074539044
20
-5.33035317443509
30
0
41
1
10
16.7395496167964
20
-5.27647595952945
30
0
41
1
10
16.444401612673
20
-5.16345193643471
30
0
41
1
10
16.2965166900264
20
-5.10427443993552
30
0
41
1
10
16.0741125677476
20
-5.01144029782785
30
0
41
1
10
15.9998421973146
20
-4.97980178471369
30
0
41
1
10
15.8515105102026
20
-4.91535550820234
30
0
41
1
10
15.6291935084609
20
-4.81688233767267
30
0
41
1
10
15.4073096748577
20
-4.71313718480994
30
0
41
1
10
14.9638375813055
20
-4.49900410364381
30
0
41
1
10
14.6685669148055
20
-4.34748617861916
30
0
41
1
10
14.3732019420052
20
-4.18720842310165
30
0
0
SPLINE
5
ED
100
AcDbEntity
8
1
62
256
6
ByLayer
370
18
48
1
60
0
100
AcDbSpline
70
4
71
3
72
55
73
51
40
0
40
0
40
0
40
0
40
0.0624999999999951
40
0.0624999999999951
40
0.0937499999999924
40
0.0937499999999924
40
0.12499999999999
40
0.12499999999999
40
0.187499999999985
40
0.187499999999985
40
0.203124999999985
40
0.203124999999985
40
0.218749999999985
40
0.218749999999985
40
0.249999999999986
40
0.249999999999986
40
0.312499999999976
40
0.312499999999976
40
0.328124999999974
40
0.328124999999974
40
0.343749999999972
40
0.374999999999983
40
0.406249999999995
40
0.406249999999995
40
0.437500000000006
40
0.437500000000006
40
0.50000000000001
40
0.50000000000001
40
0.531250000000011
40
0.531250000000011
40
0.562500000000013
40
0.562500000000013
40
0.624999999999994
40
0.624999999999994
40
0.656249999999996
40
0.656249999999996
40
0.687499999999998
40
0.687499999999998
40
0.750000000000002
40
0.750000000000002
40
0.812500000000005
40
0.812500000000005
40
0.843750000000007
40
0.843750000000007
40
0.875000000000009
40
0.906250000000011
40
0.906250000000011
40
0.937500000000013
40
0.937500000000013
40
1
40
1
40
1
40
1
41
1
10
37.9312259557197
20
0.523235901314109
30
0
41
1
10
37.9418426439767
20
0.557976021569658
30
0
41
1
10
37.9489105122175
20
0.593452582620131
30
0
41
1
10
37.9542830130139
20
0.647685591668761
30
0
41
1
10
37.9551950932153
20
0.665933701982567
30
0
41
1
10
37.9551897688593
20
0.702764338225762
30
0
41
1
10
37.9542568157106
20
0.72139627396237
30
0
41
1
10
37.9487012048608
20
0.776534612118496
30
0
41
1
10
37.9413661169315
20
0.812681119055839
30
0
41
1
10
37.9275606324834
20
0.856975392560088
30
0
41
1
10
37.9245659197817
20
0.865789447404183
30
0
41
1
10
37.9180998490118
20
0.883323505603755
30
0
41
1
10
37.9146173486085
20
0.892068518998599
30
0
41
1
10
37.903530720062
20
0.91794129420083
30
0
41
1
10
37.895302925452
20
0.934692133973869
30
0
41
1
10
37.868204936876
20
0.983483773810406
30
0
41
1
10
37.8469335418011
20
1.01407059719534
30
0
41
1
10
37.8164236439201
20
1.04986826933626
30
0
41
1
10
37.8101169496721
20
1.05691175192692
30
0
41
1
10
37.7972414343369
20
1.07061570856226
30
0
41
1
10
37.7774909245954
20
1.0906506994981
30
0
41
1
10
37.7424685026563
20
1.12152561518206
30
0
41
1
10
37.7123287286707
20
1.14367674774175
30
0
41
1
10
37.6811669108207
20
1.16459754183049
30
0
41
1
10
37.6650114351403
20
1.17447464722701
30
0
41
1
10
37.6157139218475
20
1.20193945666577
30
0
41
1
10
37.5816571262914
20
1.21746943724258
30
0
41
1
10
37.5289688135591
20
1.23706186498524
30
0
41
1
10
37.5111369721277
20
1.24297158993255
30
0
41
1
10
37.4749453894968
20
1.25358353151103
30
0
41
1
10
37.4565694434675
20
1.25828435906385
30
0
41
1
10
37.4013791737954
20
1.27045592323717
30
0
41
1
10
37.3642675911845
20
1.27608753430124
30
0
41
1
10
37.3081248355883
20
1.28102300536557
30
0
41
1
10
37.2893308315294
20
1.28207910679129
30
0
41
1
10
37.2515770693285
20
1.28300378439226
30
0
41
1
10
37.232585701665
20
1.28287117510038
30
0
41
1
10
37.1755510242836
20
1.28063811824737
30
0
41
1
10
37.1379723425469
20
1.27674776999123
30
0
41
1
10
37.0637365007816
20
1.26404168855137
30
0
41
1
10
37.0270777208699
20
1.25523416296002
30
0
41
1
10
36.9728920375927
20
1.23777656717218
30
0
41
1
10
36.9550435973161
20
1.23126069901718
30
0
41
1
10
36.9203304394007
20
1.21695758723365
30
0
41
1
10
36.886450189039
20
1.20133699130267
30
0
41
1
10
36.8543589057487
20
1.18292000549459
30
0
41
1
10
36.823253900001
20
1.16297340880519
30
0
41
1
10
36.8081756598031
20
1.15220225472566
30
0
41
1
10
36.7656788719984
20
1.11824906987104
30
0
41
1
10
36.7405832292546
20
1.09321748446072
30
0
41
1
10
36.7190150133351
20
1.06553836018062
30
0
0
SPLINE
5
EE
100
AcDbEntity
8
1
62
256
6
ByLayer
370
18
48
1
60
0
100
AcDbSpline
70
4
71
3
72
46
73
42
40
0
40
0
40
0
40
0
40
0.124999999999968
40
0.124999999999968
40
0.156249999999957
40
0.156249999999957
40
0.187499999999946
40
0.187499999999946
40
0.249999999999925
40
0.249999999999925
40
0.281249999999912
40
0.281249999999912
40
0.312499999999899
40
0.312499999999899
40
0.374999999999873
40
0.374999999999873
40
0.40624999999986
40
0.40624999999986
40
0.437499999999848
40
0.437499999999848
40
0.499999999999837
40
0.499999999999837
40
0.531249999999832
40
0.531249999999832
40
0.562499999999826
40
0.562499999999826
40
0.624999999999836
40
0.624999999999836
40
0.687499999999846
40
0.687499999999846
40
0.718749999999851
40
0.718749999999851
40
0.749999999999856
40
0.749999999999856
40
0.812499999999866
40
0.812499999999866
40
0.843749999999884
40
0.843749999999884
40
0.874999999999902
40
0.874999999999902
40
1
40
1
40
1
40
1
41
1
10
40.0036825068057
20
-0.424084793896697
30
0
41
1
10
39.9774297583321
20
-0.367658501789407
30
0
41
1
10
39.959983557294
20
-0.308811720189055
30
0
41
1
10
39.949744845828
20
-0.232043419282377
30
0
41
1
10
39.9482834555751
20
-0.216492453719724
30
0
41
1
10
39.9465748258756
20
-0.185604165791261
30
0
41
1
10
39.9463160912083
20
-0.170203711436159
30
0
41
1
10
39.9472647407486
20
-0.124131468378351
30
0
41
1
10
39.9501872690628
20
-0.0935881805397685
30
0
41
1
10
39.9579222535577
20
-0.0480331053635155
30
0
41
1
10
39.9610720016699
20
-0.0328506932766004
30
0
41
1
10
39.9684620110436
20
-0.0027593013343221
30
0
41
1
10
39.9726749413016
20
0.0120527956729291
30
0
41
1
10
39.9867959372329
20
0.055813840890238
30
0
41
1
10
39.9981782009086
20
0.0840908753184806
30
0
41
1
10
40.0180764563304
20
0.125198004500732
30
0
41
1
10
40.0251820722427
20
0.138681461128243
30
0
41
1
10
40.0403421609531
20
0.165206503479169
30
0
41
1
10
40.0483879222371
20
0.178223465288511
30
0
41
1
10
40.0735585850523
20
0.216034126144109
30
0
41
1
10
40.0918211445385
20
0.239793808656998
30
0
41
1
10
40.1213742894787
20
0.273333857794512
30
0
41
1
10
40.1315868392563
20
0.28416259550329
30
0
41
1
10
40.152742772588
20
0.3051139437583
30
0
41
1
10
40.1637118467361
20
0.315258494663084
30
0
41
1
10
40.1975731760455
20
0.344465654361073
30
0
41
1
10
40.2211356045163
20
0.362079857532535
30
0
41
1
10
40.270193226627
20
0.393790282602538
30
0
41
1
10
40.2956890568702
20
0.407885066731666
30
0
41
1
10
40.3354335263223
20
0.426402925749784
30
0
41
1
10
40.3489796620097
20
0.432154128053526
30
0
41
1
10
40.3763349878891
20
0.442672711646367
30
0
41
1
10
40.3901270144119
20
0.447438114954508
30
0
41
1
10
40.4318488003231
20
0.460309250884535
30
0
41
1
10
40.4601232922952
20
0.466993905841036
30
0
41
1
10
40.5032553473565
20
0.47431583009157
30
0
41
1
10
40.517753007038
20
0.476304549749216
30
0
41
1
10
40.5469968633575
20
0.479389936794519
30
0
41
1
10
40.561779172721
20
0.48048781718316
30
0
41
1
10
40.6358876982908
20
0.483744230219543
30
0
41
1
10
40.6952750412626
20
0.479289476957263
30
0
41
1
10
40.7549912738847
20
0.468786546413639
30
0
0
SPLINE
5
EF
100
AcDbEntity
8
1
62
256
6
ByLayer
370
18
48
1
60
0
100
AcDbSpline
70
4
71
3
72
40
73
36
40
0
40
0
40
0
40
0
40
0.0624999999999901
40
0.0624999999999901
40
0.0937499999999854
40
0.0937499999999854
40
0.124999999999981
40
0.156249999999976
40
0.171874999999971
40
0.171874999999971
40
0.187499999999966
40
0.187499999999966
40
0.249999999999953
40
0.249999999999953
40
0.312499999999939
40
0.312499999999939
40
0.343749999999937
40
0.343749999999937
40
0.374999999999935
40
0.374999999999935
40
0.43749999999994
40
0.43749999999994
40
0.499999999999946
40
0.499999999999946
40
0.531249999999955
40
0.531249999999955
40
0.562499999999964
40
0.562499999999964
40
0.624999999999969
40
0.624999999999969
40
0.749999999999979
40
0.749999999999979
40
0.87499999999999
40
0.87499999999999
40
1
40
1
40
1
40
1
41
1
10
42.9834070905332
20
0.127833365566033
30
0
41
1
10
42.988402161742
20
0.124192539372757
30
0
41
1
10
42.9886228512307
20
0.121420055004279
30
0
41
1
10
42.9797841677547
20
0.118929073067562
30
0
41
1
10
42.9752608795334
20
0.118379603406169
30
0
41
1
10
42.9631453792879
20
0.117906610809314
30
0
41
1
10
42.9479574374855
20
0.118045712225921
30
0
41
1
10
42.921354566905
20
0.119737241154894
30
0
41
1
10
42.9020168176546
20
0.12142473301796
30
0
41
1
10
42.8883824610824
20
0.122697653706723
30
0
41
1
10
42.881179978897
20
0.123409553604745
30
0
41
1
10
42.8434889306391
20
0.127318450628764
30
0
41
1
10
42.8085083576894
20
0.131501671970966
30
0
41
1
10
42.7308993001245
20
0.141541153685324
30
0
41
1
10
42.6882674384849
20
0.147398152807312
30
0
41
1
10
42.6196551675738
20
0.157204041741352
30
0
41
1
10
42.596114795426
20
0.160628427033316
30
0
41
1
10
42.5481145789737
20
0.167716456608275
30
0
41
1
10
42.5236079111008
20
0.171386773400002
30
0
41
1
10
42.4487231928891
20
0.182737992071964
30
0
41
1
10
42.396985931418
20
0.190757790055159
30
0
41
1
10
42.2905650812791
20
0.207532002433254
30
0
41
1
10
42.2358800646256
20
0.216286772871712
30
0
41
1
10
42.1520339510702
20
0.229872362559547
30
0
41
1
10
42.1237468519058
20
0.23448234604848
30
0
41
1
10
42.0667766111152
20
0.243814577287139
30
0
41
1
10
42.0381547025045
20
0.248526717011316
30
0
41
1
10
41.9519240261016
20
0.262785928365162
30
0
41
1
10
41.8939521294004
20
0.272455179255246
30
0
41
1
10
41.7188754694367
20
0.301853554746373
30
0
41
1
10
41.6006247311297
20
0.321968256975367
30
0
41
1
10
41.3620267064773
20
0.362903071226782
30
0
41
1
10
41.2416695471237
20
0.3837265051462
30
0
41
1
10
40.9994068644922
20
0.425894339381244
30
0
41
1
10
40.8774972626933
20
0.447240111966266
30
0
41
1
10
40.7549912738946
20
0.468786546411906
30
0
0
SPLINE
5
F0
100
AcDbEntity
8
1
62
256
6
ByLayer
370
18
48
1
60
0
100
AcDbSpline
70
4
71
5
72
48
73
42
40
0
40
0
40
0
40
0
40
0
40
0
40
0.020412963948117
40
0.0423670786271396
40
0.0752982506456735
40
0.0972523653246962
40
0.13018353734323
40
0.163114709361764
40
0.185068824040787
40
0.21799999605932
40
0.239954110738343
40
0.272885282756877
40
0.2948393974359
40
0.327770569454433
40
0.360701741472967
40
0.38265585615199
40
0.404609970831013
40
0.437541142849546
40
0.47047231486808
40
0.492426429547103
40
0.525357601565637
40
0.558288773584171
40
0.580242888263192
40
0.602197002942216
40
0.63512817496075
40
0.668059346979284
40
0.690013461658306
40
0.72294463367684
40
0.744898748355863
40
0.777829920374397
40
0.799784035053419
40
0.832715207071953
40
0.865646379090487
40
0.88760049376951
40
0.920531665788044
40
0.942485780467066
40
0.9754169524856
40
0.997371067164623
40
1
40
1
40
1
40
1
40
1
40
1
41
1
10
15.3216400600822
20
3.57140296744535
30
0
41
1
10
15.4040750170874
20
3.5606456780597
30
0
41
1
10
15.5751686570869
20
3.53736577769752
30
0
41
1
10
15.879250321578
20
3.49249250865015
30
0
41
1
10
16.2719906690635
20
3.4265968783742
30
0
41
1
10
16.7977190410406
20
3.32498766187138
30
0
41
1
10
17.3740004805041
20
3.19751147688518
30
0
41
1
10
17.9502819199676
20
3.05302398939517
30
0
41
1
10
18.526563359431
20
2.89378032806644
30
0
41
1
10
19.1028447988945
20
2.71918091756436
30
0
41
1
10
19.679126238358
20
2.53148680210785
30
0
41
1
10
20.2110783363243
20
2.34689485163764
30
0
41
1
10
20.7873597757877
20
2.13563053363782
30
0
41
1
10
21.3636412152512
20
1.91399296377006
30
0
41
1
10
21.9399226547147
20
1.68215275351346
30
0
41
1
10
22.471874752681
20
1.46064147193178
30
0
41
1
10
23.0481561921445
20
1.21373370508223
30
0
41
1
10
23.6244376316079
20
0.960962146204508
30
0
41
1
10
24.1563897295742
20
0.72323144861457
30
0
41
1
10
24.7326711690377
20
0.46219426704468
30
0
41
1
10
25.3532819499984
20
0.17847071225313
30
0
41
1
10
25.9295633894618
20
-0.0859714228565736
30
0
41
1
10
26.4615154874281
20
-0.329688293458503
30
0
41
1
10
27.0377969268916
20
-0.59199127891813
30
0
41
1
10
27.614078366355
20
-0.851434235223422
30
0
41
1
10
28.1460304643213
20
-1.08724018375654
30
0
41
1
10
28.7223119037848
20
-1.33744167245689
30
0
41
1
10
29.2985933432483
20
-1.58050179885063
30
0
41
1
10
29.8748747827117
20
-1.81586551321601
30
0
41
1
10
30.406826880678
20
-2.02507748970487
30
0
41
1
10
30.9831083201415
20
-2.2418834505095
30
0
41
1
10
31.559389759605
20
-2.44790857184202
30
0
41
1
10
32.1356711990684
20
-2.64095192368114
30
0
41
1
10
32.7119526385319
20
-2.82123076864588
30
0
41
1
10
33.2882340779954
20
-2.9864929698077
30
0
41
1
10
33.8645155174589
20
-3.1372848685742
30
0
41
1
10
34.3964676154251
20
-3.26251637897309
30
0
41
1
10
34.8503776153185
20
-3.35693306473343
30
0
41
1
10
35.1712995907203
20
-3.41710911037393
30
0
41
1
10
35.4035628831277
20
-3.45714421609833
30
0
41
1
10
35.5028381510436
20
-3.4736086551348
30
0
41
1
10
35.513454735965
20
-3.47536196451935
30
0
0
SPLINE
5
F1
100
AcDbEntity
8
1
62
256
6
ByLayer
370
18
48
1
60
0
100
AcDbSpline
70
4
71
3
72
8
73
4
40
0
40
0
40
0
40
0
40
1
40
1
40
1
40
1
41
1
10
13.9100257091733
20
4.44819542393171
30
0
41
1
10
14.0608559969191
20
4.3287272663606
30
0
41
1
10
14.2155481865108
20
4.2141382271318
30
0
41
1
10
14.3733507508354
20
4.10330186913467
30
0
0
SPLINE
5
F2
100
AcDbEntity
8
1
62
256
6
ByLayer
370
18
48
1
60
0
100
AcDbSpline
70
4
71
3
72
95
73
91
40
0
40
0
40
0
40
0
40
0.0347848680733961
40
0.0347848680733961
40
0.0719085269936507
40
0.0719085269936507
40
0.109032185913905
40
0.109032185913905
40
0.14615584483416
40
0.14615584483416
40
0.155436759564224
40
0.155436759564224
40
0.164717674294287
40
0.183279503754415
40
0.183279503754415
40
0.220403162674668
40
0.220403162674668
40
0.257526821594921
40
0.257526821594921
40
0.276088651055049
40
0.276088651055049
40
0.294650480515176
40
0.294650480515176
40
0.313212309975303
40
0.313212309975303
40
0.33177413943543
40
0.33177413943543
40
0.341055054165494
40
0.341055054165494
40
0.350335968895558
40
0.350335968895558
40
0.368897798355686
40
0.368897798355686
40
0.387459627815815
40
0.387459627815815
40
0.406021457275943
40
0.406021457275943
40
0.4431451161962
40
0.4431451161962
40
0.461706945656328
40
0.461706945656328
40
0.480268775116457
40
0.480268775116457
40
0.498830604576585
40
0.498830604576585
40
0.517392434036714
40
0.517392434036714
40
0.535954263496842
40
0.535954263496842
40
0.545235178226905
40
0.545235178226905
40
0.554516092956969
40
0.573077922417095
40
0.573077922417095
40
0.591639751877222
40
0.591639751877222
40
0.610201581337348
40
0.610201581337348
40
0.628763410797474
40
0.628763410797474
40
0.665887069717725
40
0.665887069717725
40
0.703010728637976
40
0.703010728637976
40
0.721572558098102
40
0.721572558098102
40
0.730853472828165
40
0.730853472828165
40
0.740134387558227
40
0.740134387558227
40
0.777258046478481
40
0.777258046478481
40
0.814381705398734
40
0.814381705398734
40
0.851505364318987
40
0.851505364318987
40
0.870067193779114
40
0.870067193779114
40
0.888629023239241
40
0.888629023239241
40
0.907190852699368
40
0.907190852699368
40
0.925752682159494
40
0.925752682159494
40
0.935033596889558
40
0.935033596889558
40
0.944314511619621
40
0.962876341079747
40
0.962876341079747
40
1
40
1
40
1
40
1
41
1
10
38.1494171916615
20
-4.96991801838416
30
0
41
1
10
37.8735240127639
20
-5.08873694149074
30
0
41
1
10
37.5985003361232
20
-5.19858484732865
30
0
41
1
10
37.0306796565253
20
-5.40665487836827
30
0
41
1
10
36.7379303341846
20
-5.50361494882461
30
0
41
1
10
36.1520605371598
20
-5.67571369897624
30
0
41
1
10
35.858926883791
20
-5.75087284095326
30
0
41
1
10
35.2709502344176
20
-5.8789774598809
30
0
41
1
10
34.9761234180314
20
-5.93189164397387
30
0
41
1
10
34.6057736951563
20
-5.98338819321071
30
0
41
1
10
34.5316001633494
20
-5.99295598333654
30
0
41
1
10
34.3831015441971
20
-6.0105985951127
30
0
41
1
10
34.160666843975
20
-6.03475912965428
30
0
41
1
10
33.9390835915429
20
-6.05202649517005
30
0
41
1
10
33.4968208325127
20
-6.07739703269871
30
0
41
1
10
33.2032211126756
20
-6.08193488869679
30
0
41
1
10
32.6167199401887
20
-6.06838266497346
30
0
41
1
10
32.3239207630388
20
-6.05005618348662
30
0
41
1
10
31.8847613838481
20
-6.00430499408111
30
0
41
1
10
31.7383772576877
20
-5.9860032984075
30
0
41
1
10
31.4453446141966
20
-5.94385005084393
30
0
41
1
10
31.2987070231813
20
-5.91996273370523
30
0
41
1
10
31.0050851396875
20
-5.86637571757896
30
0
41
1
10
30.8581015229039
20
-5.83667209532769
30
0
41
1
10
30.5636575407287
20
-5.77125988792744
30
0
41
1
10
30.4162024522715
20
-5.73550302713673
30
0
41
1
10
30.1945101107971
20
-5.67751906312137
30
0
41
1
10
30.1205259024564
20
-5.65748233866483
30
0
41
1
10
29.9723621778815
20
-5.61601907051346
30
0
41
1
10
29.8981378720511
20
-5.59457152276252
30
0
41
1
10
29.6754636342729
20
-5.52816344429493
30
0
41
1
10
29.527409094494
20
-5.48125442510516
30
0
41
1
10
29.231977918609
20
-5.38218333279451
30
0
41
1
10
29.0846050556281
20
-5.33000993947175
30
0
41
1
10
28.7904025046679
20
-5.2204646637087
30
0
41
1
10
28.643543447992
20
-5.16317729610009
30
0
41
1
10
28.2033171502416
20
-4.98448597894455
30
0
41
1
10
27.9104255427622
20
-4.85589482882818
30
0
41
1
10
27.4713083111628
20
-4.64872300571014
30
0
41
1
10
27.3249780322735
20
-4.57724760878236
30
0
41
1
10
27.0321353785827
20
-4.43004135187408
30
0
41
1
10
26.8856192971738
20
-4.3543387088751
30
0
41
1
10
26.59231408646
20
-4.19858649645175
30
0
41
1
10
26.4455226039667
20
-4.11854468933007
30
0
41
1
10
26.1515198460814
20
-3.95416635187587
30
0
41
1
10
26.0043128124191
20
-3.86980293312374
30
0
41
1
10
25.7093045145718
20
-3.69694299490459
30
0
41
1
10
25.5614893869744
20
-3.6085360652468
30
0
41
1
10
25.3391853856077
20
-3.47305580619198
30
0
41
1
10
25.2649230729444
20
-3.42736519620607
30
0
41
1
10
25.1165380056582
20
-3.3352117198485
30
0
41
1
10
24.8942647873928
20
-3.19589122067808
30
0
41
1
10
24.6728259624979
20
-3.05339577382989
30
0
41
1
10
24.3781771200522
20
-2.86074124990478
30
0
41
1
10
24.2311442359305
20
-2.76310273980525
30
0
41
1
10
23.9373865808344
20
-2.56567435804331
30
0
41
1
10
23.790686487292
20
-2.46583299779601
30
0
41
1
10
23.4975629816577
20
-2.26393474345383
30
0
41
1
10
23.35112909281
20
-2.16190065636235
30
0
41
1
10
22.9119669678429
20
-1.85287374635746
30
0
41
1
10
22.6193923002691
20
-1.64292030088146
30
0
41
1
10
22.0333390761695
20
-1.21692675228422
30
0
41
1
10
21.739853104592
20
-1.00092486189564
30
0
41
1
10
21.2981055489832
20
-0.673272386704269
30
0
41
1
10
21.1505972252648
20
-0.563460804256778
30
0
41
1
10
20.928813043659
20
-0.398044277642697
30
0
41
1
10
20.8547980733082
20
-0.342788947631988
30
0
41
1
10
20.7065735600233
20
-0.232073280393706
30
0
41
1
10
20.6322970293656
20
-0.176561299192258
30
0
41
1
10
20.2615070962115
20
0.100650600438712
30
0
41
1
10
19.9665229891919
20
0.321531978316045
30
0
41
1
10
19.378298458729
20
0.759702808775756
30
0
41
1
10
19.0850514306985
20
0.977001951609509
30
0
41
1
10
18.4993401856847
20
1.40657906312558
30
0
41
1
10
18.2068024057008
20
1.61881260973348
30
0
41
1
10
17.7674801290447
20
1.93212881452342
30
0
41
1
10
17.6209618344562
20
2.03573241418627
30
0
41
1
10
17.3276505837852
20
2.24106581954476
30
0
41
1
10
17.1808572941861
20
2.34279364514759
30
0
41
1
10
16.8868074539045
20
2.54415807488556
30
0
41
1
10
16.7395496167965
20
2.64379541160432
30
0
41
1
10
16.444401612673
20
2.84077915581977
30
0
41
1
10
16.2965166900264
20
2.93812494607812
30
0
41
1
10
16.0741125677477
20
3.08224883271925
30
0
41
1
10
15.9998421973146
20
3.12999877465731
30
0
41
1
10
15.8515105102026
20
3.22456861462482
30
0
41
1
10
15.629193508461
20
3.36511606389615
30
0
41
1
10
15.4073096748577
20
3.50166473358587
30
0
41
1
10
14.9638375813055
20
3.76925265786801
30
0
41
1
10
14.6685669148055
20
3.94035357520755
30
0
41
1
10
14.3732019420052
20
4.10327824303275
30
0
0
SPLINE
5
F3
100
AcDbEntity
8
1
62
256
6
ByLayer
370
18
48
1
60
0
100
AcDbSpline
70
4
71
3
72
59
73
55
40
0
40
0
40
0
40
0
40
0.0624999999999825
40
0.0624999999999825
40
0.0937499999999737
40
0.0937499999999737
40
0.124999999999965
40
0.156249999999956
40
0.156249999999956
40
0.171874999999951
40
0.171874999999951
40
0.187499999999946
40
0.218749999999939
40
0.218749999999939
40
0.234374999999938
40
0.234374999999938
40
0.249999999999937
40
0.249999999999937
40
0.31249999999994
40
0.31249999999994
40
0.343749999999937
40
0.343749999999937
40
0.374999999999933
40
0.374999999999933
40
0.437499999999926
40
0.437499999999926
40
0.468749999999923
40
0.468749999999923
40
0.499999999999919
40
0.499999999999919
40
0.562499999999895
40
0.562499999999895
40
0.624999999999871
40
0.624999999999871
40
0.656249999999858
40
0.656249999999858
40
0.687499999999846
40
0.687499999999846
40
0.74999999999984
40
0.74999999999984
40
0.765624999999843
40
0.765624999999843
40
0.781249999999846
40
0.781249999999846
40
0.812499999999868
40
0.84374999999989
40
0.84374999999989
40
0.874999999999912
40
0.874999999999912
40
0.937499999999956
40
0.937499999999956
40
0.968749999999978
40
0.968749999999978
40
1
40
1
40
1
40
1
41
1
10
36.7190150133351
20
1.06553836018062
30
0
41
1
10
36.6930795639764
20
1.03205374391834
30
0
41
1
10
36.6731440357627
20
0.996262704907707
30
0
41
1
10
36.6516207899595
20
0.939186449731153
30
0
41
1
10
36.6458398386598
20
0.919452173128605
30
0
41
1
10
36.6373324644854
20
0.879824758501542
30
0
41
1
10
36.6317819994167
20
0.839900019173029
30
0
41
1
10
36.6317516506264
20
0.799348728435746
30
0
41
1
10
36.6337436189256
20
0.76867955967063
30
0
41
1
10
36.6347452809039
20
0.758430091810311
30
0
41
1
10
36.6373792351414
20
0.738077476601177
30
0
41
1
10
36.6422822695682
20
0.707682026153549
30
0
41
1
10
36.6499186097844
20
0.677652092532469
30
0
41
1
10
36.6592906838515
20
0.647833526924586
30
0
41
1
10
36.6627048122689
20
0.637929380650974
30
0
41
1
10
36.6701081182801
20
0.618188067284223
30
0
41
1
10
36.6741084423857
20
0.608326271406725
30
0
41
1
10
36.6953951369294
20
0.559521660087881
30
0
41
1
10
36.7164160640328
20
0.522156760311162
30
0
41
1
10
36.7534729940102
20
0.468351974452617
30
0
41
1
10
36.7667676400388
20
0.450781368259072
30
0
41
1
10
36.795200588131
20
0.41646039762378
30
0
41
1
10
36.8101455985431
20
0.399940707693958
30
0
41
1
10
36.857083390679
20
0.352229244270575
30
0
41
1
10
36.8911564267064
20
0.322863552877521
30
0
41
1
10
36.9465458300407
20
0.282597288654244
30
0
41
1
10
36.9657826896064
20
0.269790075390262
30
0
41
1
10
37.004912875945
20
0.246020232525069
30
0
41
1
10
37.0248973762791
20
0.234984925437999
30
0
41
1
10
37.0861098593916
20
0.2044328847293
30
0
41
1
10
37.1286111365753
20
0.187431459982207
30
0
41
1
10
37.2171560445878
20
0.160909864792359
30
0
41
1
10
37.2617038510783
20
0.151836519510255
30
0
41
1
10
37.3289986031295
20
0.144555292751136
30
0
41
1
10
37.3515095660658
20
0.143190594743288
30
0
41
1
10
37.3967080397246
20
0.142693422034682
30
0
41
1
10
37.4194839897049
20
0.14358114307646
30
0
41
1
10
37.4864691055296
20
0.149651176753707
30
0
41
1
10
37.5298376490685
20
0.158161739812783
30
0
41
1
10
37.5824539472155
20
0.174579857684591
30
0
41
1
10
37.5928965814238
20
0.178155428598529
30
0
41
1
10
37.6136171411455
20
0.185908223410081
30
0
41
1
10
37.6239253068172
20
0.190100028169837
30
0
41
1
10
37.654242415136
20
0.203451077886143
30
0
41
1
10
37.6931963637618
20
0.223354323204973
30
0
41
1
10
37.7292707394215
20
0.247406759046044
30
0
41
1
10
37.7638758757178
20
0.273582468132815
30
0
41
1
10
37.7804786187144
20
0.287764774442138
30
0
41
1
10
37.8277251577735
20
0.333487905890024
30
0
41
1
10
37.8548327866331
20
0.36715482782526
30
0
41
1
10
37.8888774982756
20
0.422379366825424
30
0
41
1
10
37.8991256691378
20
0.441613116490373
30
0
41
1
10
37.9171795533704
20
0.481628801998511
30
0
41
1
10
37.9248797734897
20
0.502167624985873
30
0
41
1
10
37.9312259557197
20
0.523235901314109
30
0
0
SPLINE
5
F4
100
AcDbEntity
8
1
62
256
6
ByLayer
370
18
48
1
60
0
100
AcDbSpline
70
4
71
5
72
26
73
20
40
0
40
0
40
0
40
0
40
0
40
0
40
0.0207802962542124
40
0.0756714454520543
40
0.158008169248817
40
0.212899318446659
40
0.295236042243422
40
0.350127191441264
40
0.432463915238026
40
0.514800639034789
40
0.569691788232631
40
0.652028512029394
40
0.706919661227236
40
0.789256385023999
40
0.844147534221841
40
0.926484258018603
40
1
40
1
40
1
40
1
40
1
40
1
41
1
10
28.6431517557787
20
3.57306292315727
30
0
41
1
10
28.6767155219788
20
3.56870619335308
30
0
41
1
10
28.7989379711733
20
3.55256380202334
30
0
41
1
10
29.0541484448593
20
3.51675247461824
30
0
41
1
10
29.3980176015397
20
3.46262444616238
30
0
41
1
10
29.8748747827117
20
3.37678260769732
30
0
41
1
10
30.4068268806781
20
3.26593527173969
30
0
41
1
10
30.9831083201415
20
3.1301007913855
30
0
41
1
10
31.559389759605
20
2.97910568784235
30
0
41
1
10
32.1356711990684
20
2.81225683060671
30
0
41
1
10
32.7119526385319
20
2.63181549895023
30
0
41
1
10
33.2882340779954
20
2.43741339512891
30
0
41
1
10
33.8645155174589
20
2.23128286168031
30
0
41
1
10
34.3964676154252
20
2.03100768057084
30
0
41
1
10
34.9727490548887
20
1.80428362687167
30
0
41
1
10
35.5347830857645
20
1.57460607852803
30
0
41
1
10
36.0081584336459
20
1.37448490176152
30
0
41
1
10
36.3485457570358
20
1.22765857138359
30
0
41
1
10
36.6002743974312
20
1.11769333772273
30
0
41
1
10
36.7190150133351
20
1.06553836018062
30
0
0
SPLINE
5
F5
100
AcDbEntity
8
1
62
256
6
ByLayer
370
18
48
1
60
0
100
AcDbSpline
70
4
71
3
72
79
73
75
40
0
40
0
40
0
40
0
40
0.0426330155002279
40
0.0426330155002279
40
0.0852660310004558
40
0.0852660310004558
40
0.170532062000912
40
0.170532062000912
40
0.181190315875969
40
0.181190315875969
40
0.191848569751025
40
0.21316507750114
40
0.21316507750114
40
0.255798093001371
40
0.255798093001371
40
0.298431108501603
40
0.298431108501603
40
0.341064124001834
40
0.341064124001834
40
0.383697139502065
40
0.383697139502065
40
0.394355393377123
40
0.394355393377123
40
0.405013647252181
40
0.426330155002296
40
0.426330155002296
40
0.468963170502526
40
0.468963170502526
40
0.511596186002756
40
0.511596186002756
40
0.53291269375287
40
0.53291269375287
40
0.554229201502984
40
0.554229201502984
40
0.575545709253099
40
0.575545709253099
40
0.596862217003213
40
0.596862217003213
40
0.60752047087827
40
0.60752047087827
40
0.618178724753326
40
0.618178724753326
40
0.639495232503438
40
0.639495232503438
40
0.660811740253549
40
0.660811740253549
40
0.682128248003661
40
0.682128248003661
40
0.724761263503884
40
0.724761263503884
40
0.746077771253996
40
0.746077771253996
40
0.767394279004108
40
0.767394279004108
40
0.788710786754219
40
0.788710786754219
40
0.810027294504331
40
0.810027294504331
40
0.831343802254443
40
0.831343802254443
40
0.842002056129499
40
0.842002056129499
40
0.852660310004556
40
0.873976817754668
40
0.873976817754668
40
0.895293325504779
40
0.895293325504779
40
0.916609833254891
40
0.916609833254891
40
0.937926341005003
40
0.937926341005003
40
0.980559356505225
40
0.980559356505225
40
1
40
1
40
1
40
1
41
1
10
42.6185215525483
20
-5.39938260434326
30
0
41
1
10
42.3243339061827
20
-5.29828671043299
30
0
41
1
10
42.0310634284169
20
-5.18685910812357
30
0
41
1
10
41.4450464475104
20
-4.94471021362941
30
0
41
1
10
41.1523229893009
20
-4.81392281643733
30
0
41
1
10
40.2732548731225
20
-4.39356913792537
30
0
41
1
10
39.6859770198084
20
-4.07631402227352
30
0
41
1
10
39.018217076632
20
-3.68160418812775
30
0
41
1
10
38.94394933084
20
-3.63724044436103
30
0
41
1
10
38.7957293892077
20
-3.54781465300488
30
0
41
1
10
38.5736757959922
20
-3.41251499699149
30
0
41
1
10
38.3523640960608
20
-3.27384668004584
30
0
41
1
10
37.9105084951893
20
-2.9922967839741
30
0
41
1
10
37.616968435299
20
-2.79896274360911
30
0
41
1
10
37.0306796565253
20
-2.40270371191531
30
0
41
1
10
36.7379303341846
20
-2.1997861244277
30
0
41
1
10
36.1520605371597
20
-1.78574778275174
30
0
41
1
10
35.858926883791
20
-1.57465493999158
30
0
41
1
10
35.2709502344176
20
-1.14610892116931
30
0
41
1
10
34.9761234180314
20
-0.928619001188025
30
0
41
1
10
34.6057736951564
20
-0.65359318456737
30
0
41
1
10
34.5316001633494
20
-0.598420716871715
30
0
41
1
10
34.383101544197
20
-0.48782018335163
30
0
41
1
10
34.160666843975
20
-0.321938638116109
30
0
41
1
10
33.9390835915428
20
-0.156231765749027
30
0
41
1
10
33.4968208325127
20
0.174638883114511
30
0
41
1
10
33.2032211126756
20
0.394515381241717
30
0
41
1
10
32.6167199401887
20
0.830838853106314
30
0
41
1
10
32.3239207630388
20
1.04737937727157
30
0
41
1
10
31.8847613838482
20
1.36870846185468
30
0
41
1
10
31.7383772576877
20
1.47523061512854
30
0
41
1
10
31.4453446141966
20
1.68684034334757
30
0
41
1
10
31.2987070231813
20
1.79193587780571
30
0
41
1
10
31.0050851396875
20
2.00052942352747
30
0
41
1
10
30.8581015229039
20
2.10402759567387
30
0
41
1
10
30.5636575407287
20
2.30921198705741
30
0
41
1
10
30.4162024522715
20
2.41089604840582
30
0
41
1
10
30.1945101107971
20
2.56188594171635
30
0
41
1
10
30.1205259024564
20
2.61196051362626
30
0
41
1
10
29.9723621778815
20
2.71157455037775
30
0
41
1
10
29.8981378720512
20
2.76114423599208
30
0
41
1
10
29.6754636342729
20
2.90880105475719
30
0
41
1
10
29.527409094494
20
3.00557522460446
30
0
41
1
10
29.231977918609
20
3.19561843023686
30
0
41
1
10
29.0846050556281
20
3.28888396666071
30
0
41
1
10
28.7904025046679
20
3.47172243861434
30
0
41
1
10
28.643543447992
20
3.56131939735008
30
0
41
1
10
28.2033171502416
20
3.82462341913421
30
0
41
1
10
27.9104255427622
20
3.9927425054052
30
0
41
1
10
27.4713083111627
20
4.23254314969836
30
0
41
1
10
27.3249780322735
20
4.31038992550663
30
0
41
1
10
27.0321353785827
20
4.46196186205123
30
0
41
1
10
26.8856192971738
20
4.53570573639595
30
0
41
1
10
26.5923140864599
20
4.67883067825514
30
0
41
1
10
26.4455226039667
20
4.74821455567005
30
0
41
1
10
26.1515198460814
20
4.88240885830152
30
0
41
1
10
26.0043128124192
20
4.9472026952443
30
0
41
1
10
25.7093045145718
20
5.07205548609713
30
0
41
1
10
25.5614893869744
20
5.13217018343545
30
0
41
1
10
25.3391853856077
20
5.21875872768743
30
0
41
1
10
25.2649230729445
20
5.24704104277356
30
0
41
1
10
25.1165380056582
20
5.30222781248205
30
0
41
1
10
24.8942647873928
20
5.38291315643039
30
0
41
1
10
24.6728259624979
20
5.45727064155463
30
0
41
1
10
24.3781771200522
20
5.55068941679974
30
0
41
1
10
24.2311442359305
20
5.59455295543745
30
0
41
1
10
23.9373865808344
20
5.67686525150191
30
0
41
1
10
23.790686487292
20
5.71526021361043
30
0
41
1
10
23.4975629816577
20
5.78629589615355
30
0
41
1
10
23.35112909281
20
5.81896243487333
30
0
41
1
10
22.9119669678429
20
5.90837742438126
30
0
41
1
10
22.6193923002691
20
5.95648958176614
30
0
41
1
10
22.1927456326708
20
6.00972585829268
30
0
41
1
10
22.0590300598532
20
6.02401557796446
30
0
41
1
10
21.9251665313286
20
6.03586295980026
30
0
0
SPLINE
5
F6
100
AcDbEntity
8
1
62
256
6
ByLayer
370
18
48
1
60
0
100
AcDbSpline
70
4
71
3
72
28
73
24
40
0
40
0
40
0
40
0
40
0.124999999999991
40
0.124999999999991
40
0.187499999999988
40
0.187499999999988
40
0.249999999999985
40
0.249999999999985
40
0.374999999999982
40
0.374999999999982
40
0.437499999999986
40
0.437499999999986
40
0.49999999999999
40
0.49999999999999
40
0.624999999999999
40
0.624999999999999
40
0.750000000000008
40
0.750000000000008
40
0.812500000000013
40
0.812500000000013
40
0.875000000000018
40
0.875000000000018
40
1
40
1
40
1
40
1
41
1
10
43.0307816622291
20
-4.53103104050689
30
0
41
1
10
43.0313776176052
20
-4.57346468608742
30
0
41
1
10
43.029799989501
20
-4.61609618062519
30
0
41
1
10
43.023862298175
20
-4.680390643479
30
0
41
1
10
43.0212752722391
20
-4.70194932064751
30
0
41
1
10
43.0149023201969
20
-4.74485541739855
30
0
41
1
10
43.0111320758871
20
-4.76612625743707
30
0
41
1
10
42.9980657268878
20
-4.8293889586688
30
0
41
1
10
42.9870054236873
20
-4.87082840237383
30
0
41
1
10
42.9667393781898
20
-4.93183007039474
30
0
41
1
10
42.9593737684617
20
-4.95197175661392
30
0
41
1
10
42.9433729559123
20
-4.99185437239265
30
0
41
1
10
42.9347132066509
20
-5.01163263782328
30
0
41
1
10
42.9072665174288
20
-5.06932174295443
30
0
41
1
10
42.8868953873036
20
-5.10593402872135
30
0
41
1
10
42.8422290603459
20
-5.17563117891072
30
0
41
1
10
42.817918444787
20
-5.20870346246835
30
0
41
1
10
42.7784734613598
20
-5.25562799817845
30
0
41
1
10
42.7649511098737
20
-5.27067352889557
30
0
41
1
10
42.7373088077042
20
-5.29952382369382
30
0
41
1
10
42.7231738704497
20
-5.31335314324264
30
0
41
1
10
42.6798449704382
20
-5.3530966184756
30
0
41
1
10
42.6497459407528
20
-5.37729710581525
30
0
41
1
10
42.6185215525483
20
-5.39938260434326
30
0
0
SPLINE
5
F7
100
AcDbEntity
8
1
62
256
6
ByLayer
370
18
48
1
60
0
100
AcDbSpline
70
4
71
3
72
14
73
10
40
0
40
0
40
0
40
0
40
0.249999999999999
40
0.249999999999999
40
0.499999999999998
40
0.499999999999998
40
0.749999999999999
40
0.749999999999999
40
1
40
1
40
1
40
1
41
1
10
42.8315519239988
20
-3.2522587923047
30
0
41
1
10
42.8487688164717
20
-3.35815922880749
30
0
41
1
10
42.8659207392825
20
-3.46413696922909
30
0
41
1
10
42.8999771586517
20
-3.67638684930935
30
0
41
1
10
42.9168838598279
20
-3.78266876291389
30
0
41
1
10
42.9502653232954
20
-3.99565361336411
30
0
41
1
10
42.9667161703625
20
-4.10238412503406
30
0
41
1
10
42.9990891000155
20
-4.31636994913396
30
0
41
1
10
43.0150321485297
20
-4.42360445280033
30
0
41
1
10
43.0307816622294
20
-4.53103104050666
30
0
0
SPLINE
5
F8
100
AcDbEntity
8
1
62
256
6
ByLayer
370
18
48
1
60
0
100
AcDbSpline
70
4
71
3
72
18
73
14
40
0
40
0
40
0
40
0
40
0.250000000000018
40
0.250000000000018
40
0.500000000000037
40
0.500000000000037
40
0.562500000000036
40
0.562500000000036
40
0.625000000000035
40
0.625000000000035
40
0.750000000000026
40
0.750000000000026
40
1
40
1
40
1
40
1
41
1
10
40.0909437602232
20
-0.563598727653499
30
0
41
1
10
40.2976504761212
20
-0.821328741348793
30
0
41
1
10
40.5104771064539
20
-1.0710098927218
30
0
41
1
10
40.9483194543099
20
-1.55434120587199
30
0
41
1
10
41.173326284475
20
-1.78800305623145
30
0
41
1
10
41.4620585819658
20
-2.07025094032579
30
0
41
1
10
41.5201786693598
20
-2.12620912473614
30
0
41
1
10
41.6371628949343
20
-2.23714692393725
30
0
41
1
10
41.6960841139368
20
-2.29217744137034
30
0
41
1
10
41.8730950831967
20
-2.4550212293837
30
0
41
1
10
41.9916622243769
20
-2.56081295957424
30
0
41
1
10
42.3489594929128
20
-2.87028972975105
30
0
41
1
10
42.5892817251769
20
-3.06609486040472
30
0
41
1
10
42.8315519239987
20
-3.25225879230422
30
0
0
SPLINE
5
F9
100
AcDbEntity
8
1
62
256
6
ByLayer
370
18
48
1
60
0
100
AcDbSpline
70
4
71
3
72
8
73
4
40
0
40
0
40
0
40
0
40
1
40
1
40
1
40
1
41
1
10
40.0909437602274
20
-0.563598727658729
30
0
41
1
10
40.056387113196
20
-0.520512149295968
30
0
41
1
10
40.0267835922793
20
-0.474330512100863
30
0
41
1
10
40.0036825068058
20
-0.424084793896697
30
0
0
SPLINE
5
FA
100
AcDbEntity
8
1
62
256
6
ByLayer
370
18
48
1
60
0
100
AcDbSpline
70
4
71
5
72
15
73
9
40
0
40
0
40
0
40
0
40
0
40
0
40
0.198099715402615
40
0.518946066612152
40
0.732843634085177
40
1
40
1
40
1
40
1
40
1
40
1
41
1
10
37.9312259557197
20
0.523235901314109
30
0
41
1
10
38.0133365663108
20
0.485970896554505
30
0
41
1
10
38.2284352013934
20
0.38817585727665
30
0
41
1
10
38.5321925194705
20
0.249501842610215
30
0
41
1
10
38.9466838296887
20
0.0595649525638464
30
0
41
1
10
39.3611751399069
20
-0.130586088289817
30
0
41
1
10
39.693555839534
20
-0.282675022414878
30
0
41
1
10
39.8929485146695
20
-0.37365621146796
30
0
41
1
10
40.0036825068107
20
-0.424084793898942
30
0
0
SPLINE
5
FB
100
AcDbEntity
8
1
62
256
6
ByLayer
370
18
48
1
60
0
100
AcDbSpline
70
4
71
5
72
15
73
9
40
0
40
0
40
0
40
0
40
0
40
0
40
0.251643561536989
40
0.667586738929815
40
0.944882190525033
40
1
40
1
40
1
40
1
40
1
40
1
41
1
10
15.0199999360344
20
1.90682949738399
30
0
41
1
10
14.9395428401047
20
1.96678839150604
30
0
41
1
10
14.7260977196833
20
2.12523405984444
30
0
41
1
10
14.4239939162676
20
2.34704467890393
30
0
41
1
10
14.1042674927567
20
2.57764553940856
30
0
41
1
10
13.7845410692458
20
2.8031529394336
30
0
41
1
10
13.5452717416646
20
2.96875831321452
30
0
41
1
10
13.4389904385751
20
3.04167032277942
30
0
41
1
10
13.4213678184799
20
3.05374199800957
30
0
0
SPLINE
5
FC
100
AcDbEntity
8
1
62
256
6
ByLayer
370
18
48
1
60
0
100
AcDbSpline
70
4
71
3
72
73
73
69
40
0
40
0
40
0
40
0
40
0.0058894865619672
40
0.0117773725873563
40
0.0176636471159961
40
0.0235482991979708
40
0.0294313178956112
40
0.0353126922852992
40
0.0411924114594392
40
0.0470704645282926
40
0.0529468406219731
40
0.0588215288922561
40
0.0646945185144245
40
0.0705657986892125
40
0.0764353586446596
40
0.0823031876379218
40
0.0881692749571505
40
0.0940336099233483
40
0.0998961818921802
40
0.105756980255803
40
0.11161599444469
40
0.117473213929403
40
0.12332862822243
40
0.129182226879968
40
0.140726322097813
40
0.152308373888431
40
0.163929101369606
40
0.175589212425282
40
0.187289403804986
40
0.199030361232839
40
0.21081275952592
40
0.222637262721102
40
0.234504524209722
40
0.246415186879539
40
0.25836988326341
40
0.280454690190088
40
0.302405641565974
40
0.324231968723928
40
0.345943101777261
40
0.367548663022288
40
0.389058459033355
40
0.410482471470903
40
0.431830846639142
40
0.453113883845573
40
0.474342022631244
40
0.495525828955325
40
0.516675980433127
40
0.534984957010692
40
0.553734636642503
40
0.572931295636333
40
0.592580762427594
40
0.61268845497816
40
0.633259415223183
40
0.654298340732538
40
0.675809613765286
40
0.69779732789781
40
0.720265312405161
40
0.743217154570108
40
0.766656220086235
40
0.790585671713192
40
0.815008486331727
40
0.839927470536207
40
0.865345274892035
40
0.891264406975571
40
0.917687243304315
40
0.944616040256247
40
0.972052944068877
40
1
40
1
40
1
40
1
41
1
10
12.8566260945235
20
0.326964224447892
30
0
41
1
10
12.8556873631436
20
0.336784070677396
30
0
41
1
10
12.8538101554949
20
0.356421094478776
30
0
41
1
10
12.8510281860041
20
0.385956440083731
30
0
41
1
10
12.8482689047668
20
0.415541889509427
30
0
41
1
10
12.8455328259922
20
0.445181036522655
30
0
41
1
10
12.8428172338382
20
0.474869610937816
30
0
41
1
10
12.8401202750951
20
0.504605437197085
30
0
41
1
10
12.8374398633949
20
0.534385767631562
30
0
41
1
10
12.8347739730967
20
0.564207997270444
30
0
41
1
10
12.8321205609607
20
0.594069472945449
30
0
41
1
10
12.8294775875239
20
0.623967544978854
30
0
41
1
10
12.8268430117421
20
0.653899553897446
30
0
41
1
10
12.8242147929039
20
0.683862834560529
30
0
41
1
10
12.8215908901763
20
0.713854715587388
30
0
41
1
10
12.8189692643591
20
0.743872520185079
30
0
41
1
10
12.8163478731736
20
0.773913566079983
30
0
41
1
10
12.8137246901938
20
0.803975167638214
30
0
41
1
10
12.8110976357103
20
0.834054630134943
30
0
41
1
10
12.8084648360822
20
0.864149273231561
30
0
41
1
10
12.8058236577215
20
0.894256345521626
30
0
41
1
10
12.8031743121155
20
0.924373345424954
30
0
41
1
10
12.8005064093474
20
0.954496826270656
30
0
41
1
10
12.7969877595891
20
0.994393494557698
30
0
41
1
10
12.7923360985736
20
1.04412278447305
30
0
41
1
10
12.7860966687459
20
1.10371139425681
30
0
41
1
10
12.7792256711103
20
1.16344439794889
30
0
41
1
10
12.7716943824641
20
1.22330046184433
30
0
41
1
10
12.7634957268377
20
1.2832610807975
30
0
41
1
10
12.7546174847433
20
1.34330780610895
30
0
41
1
10
12.7450498268177
20
1.40342304515315
30
0
41
1
10
12.7347820540051
20
1.46358965716848
30
0
41
1
10
12.7238080553334
20
1.52379177567687
30
0
41
1
10
12.7121076112547
20
1.58401190926841
30
0
41
1
10
12.6962314144757
20
1.66117890119651
30
0
41
1
10
12.6750843265066
20
1.7546436870916
30
0
41
1
10
12.6471371704746
20
1.86355778258994
30
0
41
1
10
12.6163710968317
20
1.97076264064518
30
0
41
1
10
12.582797793262
20
2.07624255175472
30
0
41
1
10
12.5464646883745
20
2.18000211630502
30
0
41
1
10
12.5074199617042
20
2.28205725608936
30
0
41
1
10
12.4657201623991
20
2.38243561324399
30
0
41
1
10
12.4214267237481
20
2.48117458344041
30
0
41
1
10
12.3746050526773
20
2.57831985692309
30
0
41
1
10
12.325324798896
20
2.6739246757644
30
0
41
1
10
12.2736533391694
20
2.76804616570376
30
0
41
1
10
12.2220727404854
20
2.85663598849601
30
0
41
1
10
12.1705569301383
20
2.94058284724716
30
0
41
1
10
12.1190728001396
20
3.02076306743038
30
0
41
1
10
12.064754816978
20
3.10191965388844
30
0
41
1
10
12.0076216203461
20
3.18406789314966
30
0
41
1
10
11.9476962573126
20
3.26722562685652
30
0
41
1
10
11.8850008582522
20
3.35141116912843
30
0
41
1
10
11.8195580053817
20
3.43664375278263
30
0
41
1
10
11.7513902503232
20
3.52294327875083
30
0
41
1
10
11.6805201508797
20
3.6103302635986
30
0
41
1
10
11.6069701697679
20
3.69882573711826
30
0
41
1
10
11.5307626167627
20
3.78845115821082
30
0
41
1
10
11.4519195862335
20
3.87922833222027
30
0
41
1
10
11.3704628939632
20
3.97117932633407
30
0
41
1
10
11.2864140476145
20
4.06432641480799
30
0
41
1
10
11.1997941040808
20
4.15869192637186
30
0
41
1
10
11.1106239813974
20
4.25429848602201
30
0
41
1
10
11.0189230406208
20
4.35116775789905
30
0
41
1
10
10.9247143335754
20
4.44932496583095
30
0
41
1
10
10.828004260142
20
4.5487812358607
30
0
41
1
10
10.7288605048126
20
4.64960111554075
30
0
41
1
10
10.6616493527679
20
4.71700668686816
30
0
41
1
10
10.6277342294348
20
4.75101991525904
30
0
0
SPLINE
5
FD
100
AcDbEntity
8
1
62
256
6
ByLayer
370
18
48
1
60
0
100
AcDbSpline
70
4
71
5
72
25
73
19
40
0
40
0
40
0
40
0
40
0
40
0
40
0.199810526460066
40
0.249763158075082
40
0.324692105497607
40
0.374644737112623
40
0.449573684535148
40
0.499526316150164
40
0.574455263572689
40
0.649384210995214
40
0.69933684261023
40
0.774265790032755
40
0.824218421647771
40
0.899147369070296
40
0.949100000685312
40
1
40
1
40
1
40
1
40
1
40
1
41
1
10
12.8524076477907
20
0.316080982780932
30
0
41
1
10
13.2070423797682
20
0.154108790558809
30
0
41
1
10
13.6503357947401
20
-0.0492967276149443
30
0
41
1
10
14.2266172342036
20
-0.313946867805214
30
0
41
1
10
14.8915573566614
20
-0.617177366938478
30
0
41
1
10
15.6894855036109
20
-0.973732750427445
30
0
41
1
10
16.2214376015771
20
-1.20715132040175
30
0
41
1
10
16.7977190410406
20
-1.45412646553132
30
0
41
1
10
17.3740004805041
20
-1.69413527339765
30
0
41
1
10
17.9502819199676
20
-1.92517305119472
30
0
41
1
10
18.526563359431
20
-2.1469058944798
30
0
41
1
10
19.1028447988945
20
-2.3571997822707
30
0
41
1
10
19.679126238358
20
-2.55605269836931
30
0
41
1
10
20.2110783363242
20
-2.72825208122919
30
0
41
1
10
20.7447118746841
20
-2.88874683852728
30
0
41
1
10
21.1453573885525
20
-3.00046031712131
30
0
41
1
10
21.4573442194265
20
-3.08186159717653
30
0
41
1
10
21.6363430258088
20
-3.12667789582324
30
0
41
1
10
21.7266831491968
20
-3.14881025389585
30
0
0
SPLINE
5
FE
100
AcDbEntity
8
1
62
256
6
ByLayer
370
18
48
1
60
0
100
AcDbSpline
70
4
71
3
72
17
73
13
40
0
40
0
40
0
40
0
40
0.0377482906805969
40
0.0377482906805969
40
0.35849886045374
40
0.35849886045374
40
0.438686502897024
40
0.438686502897024
40
0.518874145340308
40
0.679249430226873
40
0.679249430226873
40
1
40
1
40
1
40
1
41
1
10
12.7644556240867
20
-5.04070051348967
30
0
41
1
10
12.7135438913683
20
-5.06489085101586
30
0
41
1
10
12.6626266456945
20
-5.08878722765206
30
0
41
1
10
12.1789764587667
20
-5.31291591151893
30
0
41
1
10
11.7456192368227
20
-5.49203494343442
30
0
41
1
10
11.2004707581214
20
-5.68672181432123
30
0
41
1
10
11.0912266749803
20
-5.72421020443883
30
0
41
1
10
10.8724966786439
20
-5.79613555645989
30
0
41
1
10
10.5447512704233
20
-5.89921499331905
30
0
41
1
10
10.2177479252185
20
-5.98779540939134
30
0
41
1
10
9.56392633065593
20
-6.14537229133683
30
0
41
1
10
9.12829672138946
20
-6.22433518166193
30
0
41
1
10
8.6907699420899
20
-6.27627370344433
30
0
0
SPLINE
5
FF
100
AcDbEntity
8
1
62
256
6
ByLayer
370
18
48
1
60
0
100
AcDbSpline
70
4
71
3
72
52
73
48
40
0
40
0
40
0
40
0
40
0.125000000000007
40
0.125000000000007
40
0.187500000000009
40
0.187500000000009
40
0.21875000000001
40
0.21875000000001
40
0.250000000000011
40
0.250000000000011
40
0.375000000000012
40
0.375000000000012
40
0.437500000000012
40
0.437500000000012
40
0.500000000000012
40
0.500000000000012
40
0.562500000000012
40
0.562500000000012
40
0.593750000000012
40
0.593750000000012
40
0.625000000000012
40
0.625000000000012
40
0.68750000000001
40
0.68750000000001
40
0.718750000000009
40
0.718750000000009
40
0.734375000000009
40
0.734375000000009
40
0.750000000000009
40
0.750000000000009
40
0.812500000000007
40
0.812500000000007
40
0.843750000000006
40
0.843750000000006
40
0.875000000000004
40
0.875000000000004
40
0.890625000000003
40
0.890625000000003
40
0.906250000000003
40
0.906250000000003
40
0.937500000000001
40
0.937500000000001
40
0.953125000000001
40
0.953125000000001
40
0.96875
40
0.96875
40
1
40
1
40
1
40
1
41
1
10
8.69111587661024
20
-6.27614734187367
30
0
41
1
10
8.46476843378878
20
-6.30312248633882
30
0
41
1
10
8.24058495601264
20
-6.3232898602152
30
0
41
1
10
7.90734028264242
20
-6.34189122452827
30
0
41
1
10
7.79676718859545
20
-6.34614833857614
30
0
41
1
10
7.63168057328031
20
-6.34940876593302
30
0
41
1
10
7.57678083525849
20
-6.34997440808195
30
0
41
1
10
7.46724533393205
20
-6.35002389504115
30
0
41
1
10
7.41258267949075
20
-6.34950719917126
30
0
41
1
10
7.14024719899908
20
-6.3441171106835
30
0
41
1
10
6.92681839772314
20
-6.33090097222248
30
0
41
1
10
6.6144602462164
20
-6.29603711601257
30
0
41
1
10
6.51164861066167
20
-6.28190156884079
30
0
41
1
10
6.30899643309974
20
-6.24817972342382
30
0
41
1
10
6.20915371124369
20
-6.22859566628992
30
0
41
1
10
6.0129630228576
20
-6.18340054682409
30
0
41
1
10
5.91661112745288
20
-6.15779337735614
30
0
41
1
10
5.77529072836106
20
-6.11424644003651
30
0
41
1
10
5.72872085902975
20
-6.0988725116114
30
0
41
1
10
5.63679051936691
20
-6.06626915249399
30
0
41
1
10
5.59138371123692
20
-6.04901864594069
30
0
41
1
10
5.45791482636895
20
-5.99452066643332
30
0
41
1
10
5.37239588141011
20
-5.95448982714277
30
0
41
1
10
5.25072303132379
20
-5.88795213142862
30
0
41
1
10
5.2112723556537
20
-5.86468705249212
30
0
41
1
10
5.15400877880489
20
-5.82799394001498
30
0
41
1
10
5.13524029515196
20
-5.81546324189534
30
0
41
1
10
5.09839314815764
20
-5.78976889531396
30
0
41
1
10
5.08029460575446
20
-5.77658953004035
30
0
41
1
10
4.99200547442655
20
-5.70927392550675
30
0
41
1
10
4.92824382468723
20
-5.65087036813316
30
0
41
1
10
4.84622462743542
20
-5.55510172250374
30
0
41
1
10
4.82117085266651
20
-5.52181205579146
30
0
41
1
10
4.77646584246924
20
-5.45216644124579
30
0
41
1
10
4.75681004006529
20
-5.41581220173509
30
0
41
1
10
4.73222707061572
20
-5.35864381189677
30
0
41
1
10
4.72485708571887
20
-5.33913727194667
30
0
41
1
10
4.71206784130967
20
-5.29965675386046
30
0
41
1
10
4.7066233624399
20
-5.27962922748551
30
0
41
1
10
4.69330841839974
20
-5.2186714901998
30
0
41
1
10
4.68844753140746
20
-5.17686695863648
30
0
41
1
10
4.6879908558912
20
-5.11234415194028
30
0
41
1
10
4.68897980532395
20
-5.0905336836945
30
0
41
1
10
4.69340498473323
20
-5.04629313100511
30
0
41
1
10
4.69686300566957
20
-5.02379864514694
30
0
41
1
10
4.7109151635288
20
-4.95644786603913
30
0
41
1
10
4.72518731754909
20
-4.91143108923271
30
0
41
1
10
4.74440244370908
20
-4.86641335361324
30
0
0
SPLINE
5
100
100
AcDbEntity
8
1
62
256
6
ByLayer
370
18
48
1
60
0
100
AcDbSpline
70
4
71
3
72
49
73
45
40
0
40
0
40
0
40
0
40
0.0625000000000002
40
0.0625000000000002
40
0.125
40
0.125
40
0.140625
40
0.140625
40
0.15625
40
0.15625
40
0.187499999999999
40
0.187499999999999
40
0.249999999999997
40
0.249999999999997
40
0.281249999999997
40
0.281249999999997
40
0.312499999999997
40
0.312499999999997
40
0.374999999999996
40
0.374999999999996
40
0.406249999999998
40
0.421874999999998
40
0.421874999999998
40
0.437499999999998
40
0.437499999999998
40
0.500000000000004
40
0.500000000000004
40
0.562500000000009
40
0.562500000000009
40
0.625000000000014
40
0.625000000000014
40
0.656250000000015
40
0.656250000000015
40
0.687500000000015
40
0.687500000000015
40
0.750000000000016
40
0.750000000000016
40
0.875000000000013
40
0.875000000000013
40
0.937500000000009
40
0.937500000000009
40
0.968750000000005
40
0.968750000000005
40
1
40
1
40
1
40
1
41
1
10
4.74440244370899
20
-4.86641335361307
30
0
41
1
10
4.72577351333345
20
-4.81584119896286
30
0
41
1
10
4.711355280113
20
-4.76390768960454
30
0
41
1
10
4.6921599080672
20
-4.65716349902837
30
0
41
1
10
4.68737733057111
20
-4.60235344450339
30
0
41
1
10
4.6884347670339
20
-4.53191260921906
30
0
41
1
10
4.68899928065554
20
-4.51772786624454
30
0
41
1
10
4.69086525327833
20
-4.48916125086686
30
0
41
1
10
4.69216745594471
20
-4.47479726565862
30
0
41
1
10
4.69716747217785
20
-4.43179296950962
30
0
41
1
10
4.70196507515129
20
-4.40312035958405
30
0
41
1
10
4.72079239806641
20
-4.31714324919875
30
0
41
1
10
4.73925225392332
20
-4.25987891313244
30
0
41
1
10
4.7760448974729
20
-4.17427022581086
30
0
41
1
10
4.78982730952973
20
-4.14578208747167
30
0
41
1
10
4.8204824943104
20
-4.08893847955224
30
0
41
1
10
4.83743233476318
20
-4.06048088129981
30
0
41
1
10
4.8920152758225
20
-3.97679912505896
30
0
41
1
10
4.9335315452808
20
-3.92287853708152
30
0
41
1
10
5.00270001055702
20
-3.84467655313097
30
0
41
1
10
5.03901161405264
20
-3.8062461070129
30
0
41
1
10
5.07779513450623
20
-3.76880530128733
30
0
41
1
10
5.10418866519149
20
-3.74406329616514
30
0
41
1
10
5.11767524408512
20
-3.73178362408089
30
0
41
1
10
5.18602012203658
20
-3.67128014538582
30
0
41
1
10
5.24377682440661
20
-3.62554463718013
30
0
41
1
10
5.36444145753796
20
-3.53868711397197
30
0
41
1
10
5.42735408969102
20
-3.49756841282107
30
0
41
1
10
5.55763144468315
20
-3.41944736113047
30
0
41
1
10
5.62499880156386
20
-3.38244687742355
30
0
41
1
10
5.72900739551591
20
-3.32976452533342
30
0
41
1
10
5.76411176952112
20
-3.3127070036459
30
0
41
1
10
5.83471387253198
20
-3.27973200556261
30
0
41
1
10
5.87027338310267
20
-3.26378296904645
30
0
41
1
10
5.97766783851196
20
-3.21744276687994
30
0
41
1
10
6.05021639759676
20
-3.18855431892078
30
0
41
1
10
6.27034655016061
20
-3.10722331060771
30
0
41
1
10
6.42039318580916
20
-3.06007966634974
30
0
41
1
10
6.64944132690158
20
-2.99821515427476
30
0
41
1
10
6.7264595218617
20
-2.97907933500102
30
0
41
1
10
6.84290998073311
20
-2.95245668179746
30
0
41
1
10
6.88188087938343
20
-2.94392970728882
30
0
41
1
10
6.96011980689031
20
-2.92754988720284
30
0
41
1
10
6.99933978695017
20
-2.91970770857398
30
0
41
1
10
7.03855282439724
20
-2.91221939923133
30
0
0
SPLINE
5
101
100
AcDbEntity
8
1
62
256
6
ByLayer
370
18
48
1
60
0
100
AcDbSpline
70
4
71
3
72
30
73
26
40
0
40
0
40
0
40
0
40
0.0625000000000062
40
0.0625000000000062
40
0.125000000000012
40
0.125000000000012
40
0.187500000000019
40
0.187500000000019
40
0.218750000000019
40
0.218750000000019
40
0.250000000000019
40
0.250000000000019
40
0.375000000000026
40
0.375000000000026
40
0.500000000000033
40
0.500000000000033
40
0.531250000000032
40
0.531250000000032
40
0.562500000000032
40
0.562500000000032
40
0.62500000000003
40
0.62500000000003
40
0.750000000000021
40
0.750000000000021
40
1
40
1
40
1
40
1
41
1
10
7.03855282439724
20
-2.9122193992313
30
0
41
1
10
7.11835082542601
20
-2.89698079096397
30
0
41
1
10
7.19849464767225
20
-2.88583600972498
30
0
41
1
10
7.3593393686422
20
-2.87019679900325
30
0
41
1
10
7.44004151499428
20
-2.86571627718783
30
0
41
1
10
7.6019270274785
20
-2.86251930077097
30
0
41
1
10
7.68311094850722
20
-2.8638090697159
30
0
41
1
10
7.8052126748081
20
-2.86964231198507
30
0
41
1
10
7.84598586261598
20
-2.87224250785846
30
0
41
1
10
7.92705996773276
20
-2.87863839338189
30
0
41
1
10
7.96743494876233
20
-2.88243671938346
30
0
41
1
10
8.16854805310521
20
-2.9042407124565
30
0
41
1
10
8.32702390423819
20
-2.93060370359183
30
0
41
1
10
8.63993024601086
20
-2.99791094123464
30
0
41
1
10
8.79435029396399
20
-3.03889281225247
30
0
41
1
10
8.98508667815042
20
-3.09804269797758
30
0
41
1
10
9.02311895768813
20
-3.11027061060878
30
0
41
1
10
9.09895790896144
20
-3.1354974191589
30
0
41
1
10
9.13680511302482
20
-3.14851084845071
30
0
41
1
10
9.24971339894938
20
-3.1885650474351
30
0
41
1
10
9.32398722084116
20
-3.21655937660611
30
0
41
1
10
9.54401132489551
20
-3.30401524338023
30
0
41
1
10
9.68696991305922
20
-3.36694168729756
30
0
41
1
10
10.1059310258353
20
-3.56683046821502
30
0
41
1
10
10.3720140959634
20
-3.7148996707794
30
0
41
1
10
10.627630429041
20
-3.87131032466323
30
0
0
SPLINE
5
102
100
AcDbEntity
8
1
62
256
6
ByLayer
370
18
48
1
60
0
100
AcDbSpline
70
4
71
3
72
10
73
6
40
0
40
0
40
0
40
0
40
0.5
40
0.5
40
1
40
1
40
1
40
1
41
1
10
10.6280737853552
20
-3.87127554369903
30
0
41
1
10
11.0936227919559
20
-4.15959117417719
30
0
41
1
10
11.5591717985567
20
-4.42880353415356
30
0
41
1
10
12.4902698117582
20
-4.9211072547852
30
0
41
1
10
12.9558188183589
20
-5.14419147109891
30
0
41
1
10
13.4213678249597
20
-5.3409288649741
30
0
0
SPLINE
5
103
100
AcDbEntity
8
1
62
256
6
ByLayer
370
18
48
1
60
0
100
AcDbSpline
70
4
71
3
72
20
73
16
40
0
40
0
40
0
40
0
40
0.125000000000001
40
0.125000000000001
40
0.250000000000001
40
0.250000000000001
40
0.375000000000002
40
0.375000000000002
40
0.500000000000002
40
0.500000000000002
40
0.750000000000001
40
0.750000000000001
40
0.875000000000001
40
0.875000000000001
40
1
40
1
40
1
40
1
41
1
10
13.4213473873385
20
-5.3409242064678
30
0
41
1
10
13.4323849265749
20
-5.30037085674829
30
0
41
1
10
13.4456600043082
20
-5.2590323995704
30
0
41
1
10
13.4755036553133
20
-5.17471975397262
30
0
41
1
10
13.4920780430891
20
-5.13174588870055
30
0
41
1
10
13.5277056056397
20
-5.04410987080095
30
0
41
1
10
13.5467620124504
20
-4.99944789697787
30
0
41
1
10
13.5867568130102
20
-4.90838781124432
30
0
41
1
10
13.6077149913147
20
-4.86195096282663
30
0
41
1
10
13.6726032497939
20
-4.72025090422059
30
0
41
1
10
13.7184323074698
20
-4.62276126577603
30
0
41
1
10
13.7891175635182
20
-4.4717364861126
30
0
41
1
10
13.8130131881733
20
-4.42059664880134
30
0
41
1
10
13.8612478248505
20
-4.31667693971323
30
0
41
1
10
13.8856044331896
20
-4.26385897712734
30
0
41
1
10
13.9100257091732
20
-4.21034334693096
30
0
0
SPLINE
5
104
100
AcDbEntity
8
1
62
256
6
ByLayer
370
18
48
1
60
0
100
AcDbSpline
70
4
71
3
72
17
73
13
40
0
40
0
40
0
40
0
40
0.250000000000005
40
0.250000000000005
40
0.50000000000001
40
0.50000000000001
40
0.56250000000001
40
0.56250000000001
40
0.62500000000001
40
0.750000000000007
40
0.750000000000007
40
1
40
1
40
1
40
1
41
1
10
13.9100257091731
20
-4.21034334693087
30
0
41
1
10
13.4765054415411
20
-3.95679745456204
30
0
41
1
10
13.0444245264769
20
-3.68614802667361
30
0
41
1
10
12.1789764587667
20
-3.11511937621202
30
0
41
1
10
11.7456192368227
20
-2.814729899193
30
0
41
1
10
11.2004707581214
20
-2.42325538685847
30
0
41
1
10
11.0912266749803
20
-2.34413072262413
30
0
41
1
10
10.8724966786439
20
-2.18447384716242
30
0
41
1
10
10.5447512704234
20
-1.94339875925951
30
0
41
1
10
10.2177479252185
20
-1.69794791180476
30
0
41
1
10
9.56392633065599
20
-1.20223005272595
30
0
41
1
10
9.12829672138946
20
-0.865329187173984
30
0
41
1
10
8.69076994208993
20
-0.524664591383186
30
0
0
SPLINE
5
105
100
AcDbEntity
8
1
62
256
6
ByLayer
370
18
48
1
60
0
100
AcDbSpline
70
4
71
3
72
30
73
26
40
0
40
0
40
0
40
0
40
0.0625000000000033
40
0.0625000000000033
40
0.125000000000007
40
0.125000000000007
40
0.18750000000001
40
0.18750000000001
40
0.218750000000009
40
0.218750000000009
40
0.250000000000008
40
0.250000000000008
40
0.374999999999999
40
0.374999999999999
40
0.49999999999999
40
0.49999999999999
40
0.531249999999987
40
0.531249999999987
40
0.562499999999985
40
0.562499999999985
40
0.624999999999985
40
0.624999999999985
40
0.74999999999999
40
0.74999999999999
40
1
40
1
40
1
40
1
41
1
10
7.0385528243973
20
5.42593357622152
30
0
41
1
10
7.11835082542603
20
5.43484194041068
30
0
41
1
10
7.19849464767225
20
5.44128614357271
30
0
41
1
10
7.3593393686422
20
5.45030950294588
30
0
41
1
10
7.44004151499428
20
5.45287815327916
30
0
41
1
10
7.60192702747852
20
5.4547128766533
30
0
41
1
10
7.68311094850725
20
5.45397434826094
30
0
41
1
10
7.80521267480813
20
5.45062207262788
30
0
41
1
10
7.84598586261603
20
5.44912662759236
30
0
41
1
10
7.92705996773279
20
5.44544004488111
30
0
41
1
10
7.96743494876236
20
5.44324737834015
30
0
41
1
10
8.16854805310527
20
5.43062460622849
30
0
41
1
10
8.32702390423822
20
5.41527658682836
30
0
41
1
10
8.63993024601089
20
5.37513954087564
30
0
41
1
10
8.79435029396404
20
5.35032611568585
30
0
41
1
10
8.98508667815051
20
5.31338590741774
30
0
41
1
10
9.02311895768818
20
5.30569998211226
30
0
41
1
10
9.09895790896149
20
5.28972643717677
30
0
41
1
10
9.13680511302491
20
5.28142945799732
30
0
41
1
10
9.24971339894944
20
5.25569346081002
30
0
41
1
10
9.32398722084125
20
5.23744868909216
30
0
41
1
10
9.54401132489554
20
5.17946568393728
30
0
41
1
10
9.68696991305927
20
5.13648404725564
30
0
41
1
10
10.1059310258354
20
4.9943662305997
30
0
41
1
10
10.3720140959635
20
4.88203974841079
30
0
41
1
10
10.627630429041
20
4.75112370584279
30
0
0
SPLINE
5
106
100
AcDbEntity
8
1
62
256
6
ByLayer
370
18
48
1
60
0
100
AcDbSpline
70
4
71
3
72
10
73
6
40
0
40
0
40
0
40
0
40
0.5
40
0.5
40
1
40
1
40
1
40
1
41
1
10
10.6280737853552
20
4.75115281739139
30
0
41
1
10
11.093622791956
20
4.50983519812473
30
0
41
1
10
11.5591717985567
20
4.24508108613281
30
0
41
1
10
12.4902698117582
20
3.67648326890199
30
0
41
1
10
12.9558188183589
20
3.37264781518923
30
0
41
1
10
13.4213678249597
20
3.05374198025433
30
0
0
SPLINE
5
107
100
AcDbEntity
8
1
62
256
6
ByLayer
370
18
48
1
60
0
100
AcDbSpline
70
4
71
3
72
20
73
16
40
0
40
0
40
0
40
0
40
0.124999999999999
40
0.124999999999999
40
0.249999999999998
40
0.249999999999998
40
0.374999999999998
40
0.374999999999998
40
0.499999999999997
40
0.499999999999997
40
0.749999999999997
40
0.749999999999997
40
0.874999999999998
40
0.874999999999998
40
1
40
1
40
1
40
1
41
1
10
13.4213473873381
20
3.05374953155251
30
0
41
1
10
13.4323849265747
20
3.119485194204
30
0
41
1
10
13.4456600043083
20
3.18404849415691
30
0
41
1
10
13.4755036553134
20
3.31112835725438
30
0
41
1
10
13.4920780430891
20
3.37364345451007
30
0
41
1
10
13.5277056056398
20
3.4968274401144
30
0
41
1
10
13.5467620124504
20
3.55749551308958
30
0
41
1
10
13.5867568130103
20
3.67712608870076
30
0
41
1
10
13.6077149913148
20
3.73613541515221
30
0
41
1
10
13.672603249794
20
3.9104054597461
30
0
41
1
10
13.7184323074699
20
4.0227394390156
30
0
41
1
10
13.7891175635182
20
4.18609853333135
30
0
41
1
10
13.8130131881733
20
4.23969012581469
30
0
41
1
10
13.8612478248505
20
4.34521188441784
30
0
41
1
10
13.8856044331897
20
4.39717687338418
30
0
41
1
10
13.9100257091733
20
4.44819542393174
30
0
0
SPLINE
5
108
100
AcDbEntity
8
1
62
256
6
ByLayer
370
18
48
1
60
0
100
AcDbSpline
70
4
71
5
72
15
73
9
40
0
40
0
40
0
40
0
40
0
40
0
40
0.251643561536989
40
0.667586738929829
40
0.944882190525055
40
1
40
1
40
1
40
1
40
1
40
1
41
1
10
15.0199999360344
20
5.90917023086396
30
0
41
1
10
14.9395428401047
20
5.88615758880223
30
0
41
1
10
14.7260977196833
20
5.82318695340925
30
0
41
1
10
14.4239939162676
20
5.72689674494015
30
0
41
1
10
14.1042674927567
20
5.61445692697669
30
0
41
1
10
13.7845410692458
20
5.49121164551099
30
0
41
1
10
13.5452717416647
20
5.39310045992301
30
0
41
1
10
13.4389904385751
20
5.34837609569129
30
0
41
1
10
13.4213678184799
20
5.3409289132363
30
0
0
SPLINE
5
109
100
AcDbEntity
8
1
62
256
6
ByLayer
370
18
48
1
60
0
100
AcDbSpline
70
4
71
3
72
8
73
4
40
0
40
0
40
0
40
0
40
1
40
1
40
1
40
1
41
1
10
12.7648130912263
20
5.04634760262203
30
0
41
1
10
12.9836646691375
20
5.15013658155615
30
0
41
1
10
13.2025162470486
20
5.24844388815475
30
0
41
1
10
13.4213678249597
20
5.34092886497402
30
0
0
SPLINE
5
10A
100
AcDbEntity
8
1
62
256
6
ByLayer
370
18
48
1
60
0
100
AcDbSpline
70
4
71
3
72
50
73
46
40
0
40
0
40
0
40
0
40
0.0383138029874166
40
0.0383138029874166
40
0.0572342045690022
40
0.0572342045690022
40
0.0761546061505878
40
0.113995409313759
40
0.113995409313759
40
0.189677015640103
40
0.189677015640103
40
0.265358621966447
40
0.265358621966447
40
0.341040228292792
40
0.341040228292792
40
0.378881031455964
40
0.378881031455964
40
0.388341232246757
40
0.388341232246757
40
0.397801433037551
40
0.397801433037551
40
0.416721834619137
40
0.416721834619137
40
0.49240344094549
40
0.49240344094549
40
0.568085047271843
40
0.568085047271843
40
0.643766653598196
40
0.643766653598196
40
0.719448259924549
40
0.719448259924549
40
0.738368661506137
40
0.738368661506137
40
0.757289063087726
40
0.795129866250905
40
0.795129866250905
40
0.870811472577261
40
0.870811472577261
40
0.88973187415885
40
0.88973187415885
40
0.908652275740439
40
0.908652275740439
40
0.946493078903619
40
0.946493078903619
40
1
40
1
40
1
40
1
41
1
10
15.1095100578387
20
3.69667666558726
30
0
41
1
10
15.3644183114821
20
3.68292231739952
30
0
41
1
10
15.6194683278819
20
3.66370846904337
30
0
41
1
10
16.0009716268441
20
3.62689922082137
30
0
41
1
10
16.1271712051969
20
3.61340847546074
30
0
41
1
10
16.379779477773
20
3.5837951482456
30
0
41
1
10
16.7580916936966
20
3.53553495405575
30
0
41
1
10
17.1348149448354
20
3.47598623769181
30
0
41
1
10
17.8866964993778
20
3.34248134052768
30
0
41
1
10
18.3858660553089
20
3.23425885562799
30
0
41
1
10
19.3829231762773
20
2.98302615803664
30
0
41
1
10
19.8808085123008
20
2.84001365773275
30
0
41
1
10
20.8781502334236
20
2.52317393514127
30
0
41
1
10
21.3776043928012
20
2.34934265089586
30
0
41
1
10
22.1301312946332
20
2.06877847903138
30
0
41
1
10
22.3815317029449
20
1.97195787519763
30
0
41
1
10
22.6967114165877
20
1.84718370382669
30
0
41
1
10
22.7597938379562
20
1.82204154325626
30
0
41
1
10
22.8860575051323
20
1.77139235035597
30
0
41
1
10
22.9492081288093
20
1.74589744275369
30
0
41
1
10
23.1384295232713
20
1.66903963654067
30
0
41
1
10
23.2643842380865
20
1.61725787914961
30
0
41
1
10
23.8933099850085
20
1.35589040057573
30
0
41
1
10
24.3937412727805
20
1.13893515770369
30
0
41
1
10
25.3921015142997
20
0.695769523101802
30
0
41
1
10
25.8900282628498
20
0.469554372272569
30
0
41
1
10
26.8862329108387
20
0.0142387897453489
30
0
41
1
10
27.384508584388
20
-0.214866646578685
30
0
41
1
10
28.3842727096305
20
-0.66953469523807
30
0
41
1
10
28.8857589723431
20
-0.895102432024572
30
0
41
1
10
29.5164599388679
20
-1.1706985897348
30
0
41
1
10
29.6428368941694
20
-1.22551722279366
30
0
41
1
10
29.8952226364459
20
-1.33406845629713
30
0
41
1
10
30.2735349514529
20
-1.49539254046758
30
0
41
1
10
30.6512610959094
20
-1.65178890785191
30
0
41
1
10
31.4064953154464
20
-1.95692091317844
30
0
41
1
10
31.9096930855749
20
-2.15012250700823
30
0
41
1
10
32.5402023454969
20
-2.37532742503629
30
0
41
1
10
32.6663798679684
20
-2.41955399602568
30
0
41
1
10
32.9189335957323
20
-2.50629176858595
30
0
41
1
10
33.0452061674761
20
-2.54876662651637
30
0
41
1
10
33.4236477302663
20
-2.67325720421368
30
0
41
1
10
33.6756183865719
20
-2.75239934460257
30
0
41
1
10
34.2835488422994
20
-2.93351897388939
30
0
41
1
10
34.6393730339849
20
-3.03138026571676
30
0
41
1
10
34.9954564870989
20
-3.12032406148097
30
0
0
SPLINE
5
10B
100
AcDbEntity
8
1
62
256
6
ByLayer
370
18
48
1
60
0
100
AcDbSpline
70
4
71
3
72
24
73
20
40
0
40
0
40
0
40
0
40
0.249999999999983
40
0.249999999999983
40
0.374999999999974
40
0.374999999999974
40
0.43749999999997
40
0.43749999999997
40
0.499999999999966
40
0.499999999999966
40
0.624999999999979
40
0.624999999999979
40
0.749999999999992
40
0.749999999999992
40
0.875000000000006
40
0.875000000000006
40
0.937500000000003
40
0.937500000000003
40
1
40
1
40
1
40
1
41
1
10
42.0190794980998
20
0.789778670532769
30
0
41
1
10
42.1096148007599
20
0.722635290593189
30
0
41
1
10
42.1986749884152
20
0.658172116250199
30
0
41
1
10
42.3302123226012
20
0.565457802600889
30
0
41
1
10
42.3737096260737
20
0.535215022955896
30
0
41
1
10
42.4383763123659
20
0.490832394346853
30
0
41
1
10
42.459835405498
20
0.476200676397696
30
0
41
1
10
42.5025439050186
20
0.447257487754825
30
0
41
1
10
42.5238507776111
20
0.432908089751948
30
0
41
1
10
42.5867988984354
20
0.390747096953532
30
0
41
1
10
42.6275834017828
20
0.363742512795454
30
0
41
1
10
42.706637920378
20
0.311726245963115
30
0
41
1
10
42.7449031293707
20
0.286720604063902
30
0
41
1
10
42.8185899426703
20
0.238502393292407
30
0
41
1
10
42.8540171964908
20
0.215287361851296
30
0
41
1
10
42.9046555816699
20
0.181616800951616
30
0
41
1
10
42.9211186909902
20
0.170583064195228
30
0
41
1
10
42.9531274272244
20
0.148857251469025
30
0
41
1
10
42.9686131386738
20
0.138204865540956
30
0
41
1
10
42.9834070905242
20
0.127833365572599
30
0
0
SPLINE
5
10C
100
AcDbEntity
8
1
62
256
6
ByLayer
370
18
48
1
60
0
100
AcDbSpline
70
4
71
3
72
26
73
22
40
0
40
0
40
0
40
0
40
0.125000000000001
40
0.125000000000001
40
0.250000000000001
40
0.250000000000001
40
0.312500000000002
40
0.312500000000002
40
0.375000000000002
40
0.375000000000002
40
0.5
40
0.5
40
0.624999999999999
40
0.624999999999999
40
0.687499999999999
40
0.687499999999999
40
0.749999999999999
40
0.749999999999999
40
0.875
40
0.875
40
1
40
1
40
1
40
1
41
1
10
43.5130009164589
20
-0.0109665168332924
30
0
41
1
10
43.5103418704106
20
-0.0084603637991165
30
0
41
1
10
43.5050716757312
20
-0.0054872115839544
30
0
41
1
10
43.4892748945749
20
0.0013991889538545
30
0
41
1
10
43.4788865538003
20
0.005287712284229
30
0
41
1
10
43.45921605638
20
0.0118516261828745
30
0
41
1
10
43.4519370689154
20
0.0141711472636814
30
0
41
1
10
43.436196351154
20
0.0189959685596648
30
0
41
1
10
43.4277219866248
20
0.0215063527595873
30
0
41
1
10
43.4005249479494
20
0.0293252505161377
30
0
41
1
10
43.3800184986462
20
0.0349231037301081
30
0
41
1
10
43.3342983917196
20
0.0468823492388708
30
0
41
1
10
43.3090902387044
20
0.0532428486509104
30
0
41
1
10
43.2677175014779
20
0.0633611347276144
30
0
41
1
10
43.2533003217227
20
0.0668372428358168
30
0
41
1
10
43.2236359667513
20
0.0738962390984454
30
0
41
1
10
43.208354135586
20
0.0774881805178893
30
0
41
1
10
43.1612008458286
20
0.0884456180977793
30
0
41
1
10
43.1280036105106
20
0.0959952245225963
30
0
41
1
10
43.0582342692514
20
0.111563104766447
30
0
41
1
10
43.0216656026033
20
0.119580900971528
30
0
41
1
10
42.9834070905351
20
0.127833365564641
30
0
0
SPLINE
5
10D
100
AcDbEntity
8
1
62
256
6
ByLayer
370
18
48
1
60
0
100
AcDbSpline
70
4
71
3
72
8
73
4
40
0
40
0
40
0
40
0
40
1
40
1
40
1
40
1
41
1
10
43.5141142402039
20
-0.0084230457119077
30
0
41
1
10
43.5137486952326
20
-0.0093153527971879
30
0
41
1
10
43.5133775760178
20
-0.0101630861461217
30
0
41
1
10
43.513000916459
20
-0.0109665168332924
30
0
0
SPLINE
5
10E
100
AcDbEntity
8
1
62
256
6
ByLayer
370
18
48
1
60
0
100
AcDbSpline
70
4
71
3
72
39
73
35
40
0
40
0
40
0
40
0
40
0.124999999999944
40
0.124999999999944
40
0.187499999999916
40
0.187499999999916
40
0.218749999999902
40
0.218749999999902
40
0.249999999999889
40
0.249999999999889
40
0.374999999999876
40
0.374999999999876
40
0.437499999999876
40
0.437499999999876
40
0.468749999999882
40
0.468749999999882
40
0.499999999999888
40
0.562499999999901
40
0.562499999999901
40
0.624999999999914
40
0.624999999999914
40
0.65624999999992
40
0.65624999999992
40
0.687499999999927
40
0.687499999999927
40
0.749999999999939
40
0.749999999999939
40
0.87499999999997
40
0.87499999999997
40
0.906249999999978
40
0.906249999999978
40
0.937499999999985
40
0.937499999999985
40
1
40
1
40
1
40
1
41
1
10
42.1168743770387
20
0.746603984223697
30
0
41
1
10
42.2104977591135
20
0.704522190050966
30
0
41
1
10
42.3024979795194
20
0.66242667028061
30
0
41
1
10
42.43817201471
20
0.599448122356392
30
0
41
1
10
42.4830087840402
20
0.578489433412102
30
0
41
1
10
42.5496576589698
20
0.5470927429418
30
0
41
1
10
42.5717725777224
20
0.536633640479181
30
0
41
1
10
42.6157968455212
20
0.515735716886468
30
0
41
1
10
42.6376352651308
20
0.505330417771376
30
0
41
1
10
42.7451245725477
20
0.453922055767293
30
0
41
1
10
42.8265216261876
20
0.414383494608273
30
0
41
1
10
42.9417102935179
20
0.35732466321133
30
0
41
1
10
42.9789440040875
20
0.33866272895483
30
0
41
1
10
43.0329801139007
20
0.311223273027053
30
0
41
1
10
43.0507371713977
20
0.302151881824074
30
0
41
1
10
43.0852952905797
20
0.284386151661863
30
0
41
1
10
43.1357642095809
20
0.25830475897186
30
0
41
1
10
43.182181424788
20
0.233763651680164
30
0
41
1
10
43.240479572727
20
0.202267348307856
30
0
41
1
10
43.2678335325503
20
0.187125214517209
30
0
41
1
10
43.3061041747577
20
0.16536951122464
30
0
41
1
10
43.3184001082013
20
0.158280021028531
30
0
41
1
10
43.3420473027501
20
0.144422059727873
30
0
41
1
10
43.35342814092
20
0.137631669400662
30
0
41
1
10
43.3858736394424
20
0.117870106382895
30
0
41
1
10
43.4051940284448
20
0.105555951683613
30
0
41
1
10
43.4563614592456
20
0.0709585879974668
30
0
41
1
10
43.4814866260365
20
0.05104390102926
30
0
41
1
10
43.5010560051706
20
0.0296639875202516
30
0
41
1
10
43.5043763602559
20
0.0255691399546265
30
0
41
1
10
43.5097481154112
20
0.0177879468018602
30
0
41
1
10
43.5118046654022
20
0.0140949674193394
30
0
41
1
10
43.5160836514208
20
0.0035127154798431
30
0
41
1
10
43.5164065840977
20
-0.002827360205373
30
0
41
1
10
43.5141142402039
20
-0.0084230457120782
30
0
0
SPLINE
5
10F
100
AcDbEntity
8
1
62
256
6
ByLayer
370
18
48
1
60
0
100
AcDbSpline
70
4
71
3
72
9
73
5
40
0
40
0
40
0
40
0
40
0.519865900947621
40
1
40
1
40
1
40
1
41
1
10
12.8524076477907
20
0.316080982780932
30
0
41
1
10
12.1045290450056
20
-0.151583566054626
30
0
41
1
10
10.6640245490478
20
-0.882919360971897
30
0
41
1
10
9.33826690053738
20
-0.801037348207217
30
0
41
1
10
8.69099683478686
20
-0.524761446079026
30
0
0
SPLINE
5
110
100
AcDbEntity
8
1
62
256
6
ByLayer
370
18
48
1
60
0
100
AcDbSpline
70
4
71
3
72
83
73
79
40
0
40
0
40
0
40
0
40
0.0624999999999968
40
0.0624999999999968
40
0.124999999999994
40
0.124999999999994
40
0.140624999999994
40
0.140624999999994
40
0.156249999999994
40
0.156249999999994
40
0.187499999999994
40
0.187499999999994
40
0.249999999999995
40
0.249999999999995
40
0.312499999999997
40
0.312499999999997
40
0.374999999999998
40
0.374999999999998
40
0.406249999999999
40
0.406249999999999
40
0.4375
40
0.4375
40
0.468750000000001
40
0.468750000000001
40
0.500000000000001
40
0.500000000000001
40
0.515625000000001
40
0.515625000000001
40
0.531250000000001
40
0.531250000000001
40
0.5625
40
0.5625
40
0.59375
40
0.59375
40
0.609375
40
0.609375
40
0.6171875
40
0.6171875
40
0.625
40
0.625
40
0.656250000000001
40
0.656250000000001
40
0.671875000000001
40
0.671875000000001
40
0.679687500000001
40
0.679687500000001
40
0.687500000000001
40
0.687500000000001
40
0.718750000000001
40
0.718750000000001
40
0.726562500000001
40
0.726562500000001
40
0.734375000000001
40
0.734375000000001
40
0.750000000000002
40
0.750000000000002
40
0.781250000000005
40
0.781250000000005
40
0.789062500000006
40
0.789062500000006
40
0.796875000000007
40
0.81250000000001
40
0.81250000000001
40
0.843750000000015
40
0.843750000000015
40
0.859375000000018
40
0.859375000000018
40
0.867187500000018
40
0.867187500000018
40
0.875000000000018
40
0.875000000000018
40
0.906250000000014
40
0.906250000000014
40
0.937500000000009
40
0.937500000000009
40
0.968750000000005
40
0.968750000000005
40
1
40
1
40
1
40
1
41
1
10
8.69111561519665
20
-0.525492835101119
30
0
41
1
10
8.53002231003063
20
-0.399678911778608
30
0
41
1
10
8.36997048434796
20
-0.271758944860181
30
0
41
1
10
8.05182102394258
20
-0.0117693483913683
30
0
41
1
10
7.89372217319453
20
0.120298049472467
30
0
41
1
10
7.69731640335067
20
0.288057743827181
30
0
41
1
10
7.65809650036238
20
0.321744039104289
30
0
41
1
10
7.57978069675721
20
0.389389990977037
30
0
41
1
10
7.54068753286498
20
0.423347574435525
30
0
41
1
10
7.42387316866288
20
0.525396277195853
30
0
41
1
10
7.3465251827588
20
0.593741522984857
30
0
41
1
10
7.11612003775787
20
0.799745535892015
30
0
41
1
10
6.96469011868109
20
0.938362771440751
30
0
41
1
10
6.66670485737887
20
1.2185255241904
30
0
41
1
10
6.52014289496364
20
1.36006585485427
30
0
41
1
10
6.2328588146091
20
1.64680728172661
30
0
41
1
10
6.09212263206703
20
1.79199713264367
30
0
41
1
10
5.88667227381484
20
2.01352750490699
30
0
41
1
10
5.81910843344463
20
2.08803431658302
30
0
41
1
10
5.68633592691339
20
2.23843419498118
30
0
41
1
10
5.62140280561482
20
2.31401330014293
30
0
41
1
10
5.49489973490262
20
2.46613983299989
30
0
41
1
10
5.43332767149974
20
2.5426862625115
30
0
41
1
10
5.31416337401237
20
2.69703231909745
30
0
41
1
10
5.25656746257368
20
2.77483019318464
30
0
41
1
10
5.17380523768676
20
2.89276730236261
30
0
41
1
10
5.14678522732805
20
2.93234886841086
30
0
41
1
10
5.09431224369769
20
3.01167589948994
30
0
41
1
10
5.06888258977784
20
3.05138204455997
30
0
41
1
10
4.99523572970105
20
3.17067639778372
30
0
41
1
10
4.94964262398727
20
3.25043659114152
30
0
41
1
10
4.86700397746171
20
3.41075148142167
30
0
41
1
10
4.82994526962796
20
3.49130313419542
30
0
41
1
10
4.78245383833851
20
3.61309403581836
30
0
41
1
10
4.76797954937871
20
3.65385307474983
30
0
41
1
10
4.7485995235798
20
3.71530019165189
30
0
41
1
10
4.742528791447
20
3.73583415133231
30
0
41
1
10
4.73122546370107
20
3.77701845408896
30
0
41
1
10
4.72598994152571
20
3.79769032504819
30
0
41
1
10
4.70226728483539
20
3.90046514617305
30
0
41
1
10
4.69090798781056
20
3.98148315899729
30
0
41
1
10
4.68740790437295
20
4.10124254869677
30
0
41
1
10
4.68850481946254
20
4.14086774878871
30
0
41
1
10
4.69389269985283
20
4.19986857627154
30
0
41
1
10
4.69632350633222
20
4.21951559576391
30
0
41
1
10
4.70243087004448
20
4.25827129615138
30
0
41
1
10
4.70610612994111
20
4.27740672618333
30
0
41
1
10
4.72759355460025
20
4.37189416222529
30
0
41
1
10
4.75472487871619
20
4.44368165590777
30
0
41
1
10
4.80125598869574
20
4.52897324191989
30
0
41
1
10
4.81119396546973
20
4.54580913596993
30
0
41
1
10
4.83234195519617
20
4.57904272488844
30
0
41
1
10
4.8435802466596
20
4.59547834761162
30
0
41
1
10
4.8790150315684
20
4.64386363173236
30
0
41
1
10
4.90477596848845
20
4.67470856728931
30
0
41
1
10
4.98797587874569
20
4.76345079413909
30
0
41
1
10
5.05130953805124
20
4.81757389487615
30
0
41
1
10
5.13907818932196
20
4.8800553718489
30
0
41
1
10
5.15707140167368
20
4.89229388269302
30
0
41
1
10
5.19359014101155
20
4.91608357217876
30
0
41
1
10
5.24927666321065
20
4.95081638385329
30
0
41
1
10
5.30752141395632
20
4.98290618520497
30
0
41
1
10
5.42706304125025
20
5.04401789705057
30
0
41
1
10
5.51081032658249
20
5.08068936021269
30
0
41
1
10
5.64148214023447
20
5.13090343291682
30
0
41
1
10
5.68588594055075
20
5.14683667959196
30
0
41
1
10
5.75366723245054
20
5.16965032226315
30
0
41
1
10
5.77648427377767
20
5.17708186366025
30
0
41
1
10
5.82230233796352
20
5.19153960564151
30
0
41
1
10
5.84531495739367
20
5.19857035139296
30
0
41
1
10
5.96086881315495
20
5.23279765364347
30
0
41
1
10
6.05487333779416
20
5.25723637897605
30
0
41
1
10
6.24547272852163
20
5.30148105635908
30
0
41
1
10
6.3420705513189
20
5.32127990535008
30
0
41
1
10
6.53750300465009
20
5.35707208472908
30
0
41
1
10
6.63633921000294
20
5.3730616602399
30
0
41
1
10
6.8359992842164
20
5.40181515862452
30
0
41
1
10
6.93682405959044
20
5.41457693979291
30
0
41
1
10
7.03855282439727
20
5.42593357622152
30
0
0
SPLINE
5
111
100
AcDbEntity
8
1
62
256
6
ByLayer
370
18
48
1
60
0
100
AcDbSpline
70
4
71
3
72
30
73
26
40
0
40
0
40
0
40
0
40
0.0506136916339282
40
0.101227383267856
40
0.151841074901784
40
0.202454766535712
40
0.25306845816964
40
0.303682149803568
40
0.354295841437496
40
0.404909533071425
40
0.455523224705353
40
0.506136916339281
40
0.556750607973209
40
0.607364299607137
40
0.657977991241065
40
0.657977991241065
40
0.708591682874993
40
0.708591682874993
40
0.759205374508921
40
0.759205374508921
40
0.809819066142849
40
0.860432757776777
40
0.911046449410705
40
0.961660141044633
40
1
40
1
40
1
40
1
41
1
10
42.0190867788821
20
0.789780595298623
30
0
41
1
10
41.7378462834573
20
1.00780362441128
30
0
41
1
10
41.1753652926081
20
1.44101015957207
30
0
41
1
10
40.3316438063342
20
2.07530474144335
30
0
41
1
10
39.4879223200602
20
2.68725529283895
30
0
41
1
10
38.6442008337861
20
3.27027315830594
30
0
41
1
10
37.8004793475121
20
3.81808119034238
30
0
41
1
10
36.9567578612381
20
4.32478133491338
30
0
41
1
10
36.1130363749642
20
4.78491812710953
30
0
41
1
10
35.26931488869
20
5.19353694588199
30
0
41
1
10
34.4255934024159
20
5.54623938572649
30
0
41
1
10
33.581871916142
20
5.83922746112646
30
0
41
1
10
32.7381504298681
20
6.06934667318677
30
0
41
1
10
31.8944289435941
20
6.23411940313719
30
0
41
1
10
31.3319479527447
20
6.2992209217139
30
0
41
1
10
30.7694669618954
20
6.34159841064024
30
0
41
1
10
30.4882264664707
20
6.35142513988612
30
0
41
1
10
29.9257454756214
20
6.34824884651806
30
0
41
1
10
29.6445049801968
20
6.33524582861335
30
0
41
1
10
29.0820239893474
20
6.28654994981127
30
0
41
1
10
28.5195429984981
20
6.21516423097498
30
0
41
1
10
27.6758215122241
20
6.04116928118077
30
0
41
1
10
26.8321000259502
20
5.80213120568931
30
0
41
1
10
26.0565794290372
20
5.52499552047448
30
0
41
1
10
25.5622993275487
20
5.31787416549176
30
0
41
1
10
25.349259721485
20
5.22322039682314
30
0
0
SPLINE
5
112
100
AcDbEntity
8
1
62
256
6
ByLayer
370
18
48
1
60
0
100
AcDbSpline
70
4
71
3
72
33
73
29
40
0
40
0
40
0
40
0
40
0.0134994767737841
40
0.0134994767737841
40
0.065420556943585
40
0.065420556943585
40
0.117341637113386
40
0.117341637113386
40
0.169262717283187
40
0.221183797452987
40
0.273104877622788
40
0.325025957792589
40
0.37694703796239
40
0.428868118132191
40
0.480789198301992
40
0.532710278471792
40
0.584631358641593
40
0.636552438811394
40
0.688473518981195
40
0.740394599150996
40
0.792315679320797
40
0.792315679320797
40
0.844236759490598
40
0.844236759490598
40
0.896157839660398
40
0.896157839660398
40
0.948078919830199
40
1
40
1
40
1
40
1
41
1
10
31.2700749776075
20
-6.30158131585446
30
0
41
1
10
31.196952470845
20
-6.30862345063966
30
0
41
1
10
31.1238299640825
20
-6.31490059427799
30
0
41
1
10
30.7694669618953
20
-6.34159841064044
30
0
41
1
10
30.4882264664707
20
-6.35142513988635
30
0
41
1
10
29.9257454756213
20
-6.34824884651826
30
0
41
1
10
29.6445049801966
20
-6.33524582861358
30
0
41
1
10
29.0820239893473
20
-6.28654994981147
30
0
41
1
10
28.5195429984979
20
-6.21516441292866
30
0
41
1
10
27.6758215122238
20
-6.04116955069983
30
0
41
1
10
26.8321000259497
20
-5.80213155434566
30
0
41
1
10
25.9883785396759
20
-5.50062405942009
30
0
41
1
10
25.1446570534018
20
-5.13989329025554
30
0
41
1
10
24.300935567128
20
-4.72382309979361
30
0
41
1
10
23.4572140808538
20
-4.25689316440489
30
0
41
1
10
22.6134925945799
20
-3.74413075088717
30
0
41
1
10
21.7697711083058
20
-3.19105658486276
30
0
41
1
10
20.9260496220319
20
-2.60362541799881
30
0
41
1
10
20.0823281357579
20
-1.98816191032535
30
0
41
1
10
19.2386066494839
20
-1.35129253653298
30
0
41
1
10
18.6761256586344
20
-0.917013396088777
30
0
41
1
10
18.1136446677851
20
-0.480222468087789
30
0
41
1
10
17.8324041723604
20
-0.260571540091178
30
0
41
1
10
17.2699231815111
20
0.178878036207635
30
0
41
1
10
16.9886826860864
20
0.398675834283552
30
0
41
1
10
16.426201695237
20
0.836052662013373
30
0
41
1
10
15.8637207043877
20
1.2712090290045
30
0
41
1
10
15.3012397135383
20
1.69724182598341
30
0
41
1
10
15.0199992181137
20
1.90683037908238
30
0
0
SPLINE
5
113
100
AcDbEntity
8
1
62
256
6
ByLayer
370
18
48
1
60
0
100
AcDbSpline
70
4
71
3
72
47
73
43
40
0
40
0
40
0
40
0
40
0.03125
40
0.0625
40
0.09375
40
0.125
40
0.15625
40
0.1875
40
0.21875
40
0.25
40
0.28125
40
0.3125
40
0.34375
40
0.375
40
0.375
40
0.40625
40
0.40625
40
0.4375
40
0.4375
40
0.46875
40
0.46875
40
0.5
40
0.53125
40
0.5625
40
0.59375
40
0.625
40
0.65625
40
0.6875
40
0.71875
40
0.75
40
0.78125
40
0.8125
40
0.84375
40
0.84375
40
0.875
40
0.875
40
0.90625
40
0.90625
40
0.9375
40
0.9375
40
0.96875
40
1
40
1
40
1
40
1
41
1
10
42.019086778882
20
-6.23025399479016
30
0
41
1
10
41.7378462834574
20
-6.18778331872949
30
0
41
1
10
41.1753652926078
20
-6.08044232097345
30
0
41
1
10
40.3316438063339
20
-5.85396469412171
30
0
41
1
10
39.4879223200599
20
-5.56445950401067
30
0
41
1
10
38.6442008337858
20
-5.21504374280781
30
0
41
1
10
37.800479347512
20
-4.80947944340841
30
0
41
1
10
36.9567578612379
20
-4.35213316909949
30
0
41
1
10
36.1130363749639
20
-3.84792899975784
30
0
41
1
10
35.2693148886899
20
-3.30229552196474
30
0
41
1
10
34.425593402416
20
-2.72110737336487
30
0
41
1
10
33.5818719161421
20
-2.11062199751328
30
0
41
1
10
32.7381504298681
20
-1.47741227207578
30
0
41
1
10
32.1756694390186
20
-1.04466764057815
30
0
41
1
10
31.6131884481694
20
-0.608950331216107
30
0
41
1
10
31.3319479527447
20
-0.389605766901553
30
0
41
1
10
30.7694669618953
20
0.0496952687429371
30
0
41
1
10
30.4882264664707
20
0.269650890457541
30
0
41
1
10
29.9257454756213
20
0.707805855049202
30
0
41
1
10
29.6445049801966
20
0.92600435020185
30
0
41
1
10
29.0820239893473
20
1.35829578532878
30
0
41
1
10
28.5195429984979
20
1.78647999163641
30
0
41
1
10
27.675821512224
20
2.40952278177284
30
0
41
1
10
26.83210002595
20
3.00662313267884
30
0
41
1
10
25.9883785396759
20
3.57135227668533
30
0
41
1
10
25.1446570534018
20
4.09762997634701
30
0
41
1
10
24.300935567128
20
4.57978998333977
30
0
41
1
10
23.4572140808538
20
5.01264104998305
30
0
41
1
10
22.6134925945799
20
5.39152282181081
30
0
41
1
10
21.769771108306
20
5.71235600780329
30
0
41
1
10
20.9260496220318
20
5.97168631012246
30
0
41
1
10
20.0823281357578
20
6.16672160767064
30
0
41
1
10
19.5198471449085
20
6.25248195285781
30
0
41
1
10
18.9573661540591
20
6.31564893712982
30
0
41
1
10
18.6761256586345
20
6.33593572988138
30
0
41
1
10
18.1136446677851
20
6.35369765172706
30
0
41
1
10
17.8324041723605
20
6.35117274860153
30
0
41
1
10
17.2699231815111
20
6.32333837054998
30
0
41
1
10
16.9886826860865
20
6.29802895213175
30
0
41
1
10
16.4262016952371
20
6.22489795598818
30
0
41
1
10
15.8637207043877
20
6.1292550812951
30
0
41
1
10
15.3012397135383
20
5.98961769624333
30
0
41
1
10
15.0199992181137
20
5.90917624549885
30
0
0
SPLINE
5
114
100
AcDbEntity
8
1
62
256
6
ByLayer
370
18
48
1
60
0
100
AcDbSpline
70
4
71
3
72
8
73
4
40
0
40
0
40
0
40
0
40
1
40
1
40
1
40
1
41
1
10
42.0190794980997
20
0.789778670532826
30
0
41
1
10
42.0514295219748
20
0.774474480842088
30
0
41
1
10
42.0840349387131
20
0.760109682621277
30
0
41
1
10
42.1168743770388
20
0.74660398422327
30
0
0
SPLINE
5
115
100
AcDbEntity
8
1
62
256
6
ByLayer
370
18
48
1
60
0
100
AcDbSpline
70
4
71
5
72
15
73
9
40
0
40
0
40
0
40
0
40
0
40
0
40
0.251643561536999
40
0.667586738929829
40
0.944882190525048
40
1
40
1
40
1
40
1
40
1
40
1
41
1
10
15.0199999360344
20
-5.90917023086408
30
0
41
1
10
14.9395428401046
20
-5.88615758880235
30
0
41
1
10
14.7260977196833
20
-5.82318695340933
30
0
41
1
10
14.4239939162676
20
-5.72689674494026
30
0
41
1
10
14.1042674927567
20
-5.6144569269768
30
0
41
1
10
13.7845410692457
20
-5.49121164551107
30
0
41
1
10
13.5452717416646
20
-5.39310045992309
30
0
41
1
10
13.4389904385751
20
-5.34837609569138
30
0
41
1
10
13.4213678184799
20
-5.34092891323638
30
0
0
SPLINE
5
116
100
AcDbEntity
8
1
62
256
6
ByLayer
370
18
48
1
60
0
100
AcDbSpline
70
4
71
3
72
17
73
13
40
0
40
0
40
0
40
0
40
0.250000000000006
40
0.250000000000006
40
0.500000000000012
40
0.500000000000012
40
0.562500000000012
40
0.562500000000012
40
0.625000000000011
40
0.750000000000009
40
0.750000000000009
40
1
40
1
40
1
40
1
41
1
10
13.9100257091731
20
4.44819542393179
30
0
41
1
10
13.4765054415411
20
4.68991067382191
30
0
41
1
10
13.0444245264769
20
4.91185799483921
30
0
41
1
10
12.1789764587668
20
5.31291591151884
30
0
41
1
10
11.7456192368227
20
5.49203494343433
30
0
41
1
10
11.2004707581215
20
5.68672181432117
30
0
41
1
10
11.0912266749803
20
5.72421020443875
30
0
41
1
10
10.8724966786439
20
5.79613555645983
30
0
41
1
10
10.5447512704234
20
5.89921499331896
30
0
41
1
10
10.2177479252185
20
5.98779540939128
30
0
41
1
10
9.56392633065602
20
6.14537229133677
30
0
41
1
10
9.12829672138952
20
6.22433518166184
30
0
41
1
10
8.69076994208996
20
6.27627370344428
30
0
0
SPLINE
5
117
100
AcDbEntity
8
1
62
256
6
ByLayer
370
18
48
1
60
0
100
AcDbSpline
70
4
71
3
72
12
73
8
40
0
40
0
40
0
40
0
40
0.571673387514507
40
0.571673387514507
40
0.857510081271766
40
0.857510081271766
40
1
40
1
40
1
40
1
41
1
10
8.69111587661033
20
6.27614734187358
30
0
41
1
10
8.46476843378889
20
6.30312248633876
30
0
41
1
10
8.24058495601275
20
6.32328986021511
30
0
41
1
10
7.90734028264248
20
6.34189122452818
30
0
41
1
10
7.79676718859554
20
6.34614833857609
30
0
41
1
10
7.63184553403084
20
6.34940550799141
30
0
41
1
10
7.57710998370811
20
6.34997101213315
30
0
41
1
10
7.52250562210662
20
6.34999891445847
30
0
0
SPLINE
5
118
100
AcDbEntity
8
1
62
256
6
ByLayer
370
18
48
1
60
0
100
AcDbSpline
70
4
71
3
72
15
73
11
40
0
40
0
40
0
40
0
40
0.208536028011688
40
0.339939811063017
40
0.410803118778927
40
0.47535380373919
40
0.539573503046604
40
0.640689952421724
40
0.794172354608706
40
1
40
1
40
1
40
1
41
1
10
19.0684570999091
20
-6.30178997073563
30
0
41
1
10
19.2682510181194
20
-6.28255216345761
30
0
41
1
10
19.5938334220492
20
-6.25137171010806
30
0
41
1
10
19.9878375887345
20
-6.21387697119584
30
0
41
1
10
20.2429018450902
20
-6.18982892542701
30
0
41
1
10
20.4340061040594
20
-6.17187864222672
30
0
41
1
10
20.6542883775957
20
-6.15126898327611
30
0
41
1
10
20.9597931445552
20
-6.12288937712788
30
0
41
1
10
21.4009931119219
20
-6.08259284759714
30
0
41
1
10
21.7452901892939
20
-6.05176681621862
30
0
41
1
10
21.942515828354
20
-6.03432558209209
30
0
0
SPLINE
5
119
100
AcDbEntity
8
1
62
256
6
ByLayer
370
18
48
1
60
0
100
AcDbSpline
70
4
71
2
72
6
73
3
40
0
40
0
40
0
40
1
40
1
40
1
41
1
10
43.4895345247508
20
0.0468340156599254
30
0
41
1
10
43.4144490210725
20
0.628172427132142
30
0
41
1
10
43.3393635173942
20
1.20951083860439
30
0
0
SPLINE
5
11A
100
AcDbEntity
8
1
62
256
6
ByLayer
370
18
48
1
60
0
100
AcDbSpline
70
4
71
3
72
13
73
9
40
0
40
0
40
0
40
0
40
0.200012327124265
40
0.341757407512504
40
0.502535783217979
40
0.664005129298999
40
0.807242912562987
40
1
40
1
40
1
40
1
41
1
10
34.1406554016496
20
6.03482280249617
30
0
41
1
10
33.9502152284961
20
6.05148202964975
30
0
41
1
10
33.6240609001757
20
6.08044514090571
30
0
41
1
10
33.1415501821114
20
6.12433056493373
30
0
41
1
10
32.6965252813628
20
6.16578165485268
30
0
41
1
10
32.249946769305
20
6.20802152619225
30
0
41
1
10
31.7732358876893
20
6.25306523967529
30
0
41
1
10
31.4521102924209
20
6.28394081987739
30
0
41
1
10
31.2681203107071
20
6.30175105254136
30
0
0
SPLINE
5
11B
100
AcDbEntity
8
1
62
256
6
ByLayer
370
18
48
1
60
0
100
AcDbSpline
70
4
71
3
72
15
73
11
40
0
40
0
40
0
40
0
40
0.172385628283082
40
0.287387109735993
40
0.358823075889498
40
0.432961728329617
40
0.5147789364076
40
0.630879965101207
40
0.792584568790394
40
1
40
1
40
1
40
1
41
1
10
21.9425158283538
20
6.03432558209195
30
0
41
1
10
21.7774317289304
20
6.04893217576469
30
0
41
1
10
21.5023020986382
20
6.07350833261575
30
0
41
1
10
21.158794468274
20
6.10467621585767
30
0
41
1
10
20.909618858072
20
6.12751467213414
30
0
41
1
10
20.6915407011186
20
6.14773843851705
30
0
41
1
10
20.4308154898785
20
6.17214939107859
30
0
41
1
10
20.0860666603022
20
6.20456997418398
30
0
41
1
10
19.6210119378082
20
6.24878328410634
30
0
41
1
10
19.2672383801768
20
6.2826572397272
30
0
41
1
10
19.0684570999092
20
6.30178997073548
30
0
0
SPLINE
5
11C
100
AcDbEntity
8
1
62
256
6
ByLayer
370
18
48
1
60
0
100
AcDbSpline
70
4
71
3
72
13
73
9
40
0
40
0
40
0
40
0
40
0.192757087437014
40
0.335994870701012
40
0.497464216782024
40
0.658242592487514
40
0.799987672875739
40
1
40
1
40
1
40
1
41
1
10
31.268120310707
20
-6.30175105254159
30
0
41
1
10
31.4521102924208
20
-6.28394081987761
30
0
41
1
10
31.7732358876893
20
-6.25306523967552
30
0
41
1
10
32.249946769305
20
-6.20802152619251
30
0
41
1
10
32.6965252813627
20
-6.16578165485291
30
0
41
1
10
33.1415501821113
20
-6.12433056493396
30
0
41
1
10
33.6240609001757
20
-6.08044514090597
30
0
41
1
10
33.9502152284959
20
-6.05148202965
30
0
41
1
10
34.1406554016495
20
-6.03482280249642
30
0
0
LINE
5
77
100
AcDbEntity
8
80
62
256
6
ByLayer
370
18
48
1
60
0
100
AcDbLine
10
0
20
0
30
0
11
-5
21
0
31
0
39
0
210
0
220
0
230
1
0
LINE
5
78
100
AcDbEntity
8
4
62
256
6
ByLayer
370
18
48
0.05
60
0
100
AcDbLine
10
0
20
0
30
0
11
43.6
21
0
31
0
39
0
210
0
220
0
230
1
0
LINE
5
7A
100
AcDbEntity
8
SK4
62
256
6
ByLayer
370
18
48
0.05
60
0
100
AcDbLine
10
-45.3
20
0
30
0
11
43.6
21
0
31
0
39
0
210
0
220
0
230
1
0
LINE
5
7C
100
AcDbEntity
8
81
62
256
6
ByLayer
370
18
48
1
60
0
100
AcDbLine
10
43.6
20
0
30
0
11
48.6
21
0
31
0
39
0
210
0
220
0
230
1
0
LINE
5
7D
100
AcDbEntity
8
1
62
256
6
ByLayer
370
18
48
1
60
0
100
AcDbLine
10
0
20
6.35
30
0
11
0
21
0
31
0
39
0
210
0
220
0
230
1
0
LINE
5
7E
100
AcDbEntity
8
1
62
256
6
ByLayer
370
18
48
1
60
0
100
AcDbLine
10
0
20
0
30
0
11
0
21
-6.35
31
0
39
0
210
0
220
0
230
1
0
LINE
5
7F
100
AcDbEntity
8
1
62
256
6
ByLayer
370
18
48
1
60
0
100
AcDbLine
10
43.511489
20
0.011892
30
0
11
43.513001
21
0.010967
31
0
39
0
210
0
220
0
230
1
0
LINE
5
80
100
AcDbEntity
8
1
62
256
6
ByLayer
370
18
48
1
60
0
100
AcDbLine
10
43.514114
20
0.008423
30
0
11
43.513026
21
0
31
0
39
0
210
0
220
0
230
1
0
LINE
5
81
100
AcDbEntity
8
1
62
256
6
ByLayer
370
18
48
1
60
0
100
AcDbLine
10
43.369053
20
-1.114691
30
0
11
43.316945
21
-1.072188
31
0
39
0
210
0
220
0
230
1
0
LINE
5
82
100
AcDbEntity
8
1
62
256
6
ByLayer
370
18
48
1
60
0
100
AcDbLine
10
43.314035
20
-1.018178
30
0
11
43.39968
21
-0.070798
31
0
39
0
210
0
220
0
230
1
0
LINE
5
83
100
AcDbEntity
8
1
62
256
6
ByLayer
370
18
48
1
60
0
100
AcDbLine
10
43.328653
20
1.289377
30
0
11
43.513001
21
4.708862
31
0
39
0
210
0
220
0
230
1
0
LINE
5
84
100
AcDbEntity
8
1
62
256
6
ByLayer
370
13
48
1
60
0
100
AcDbLine
10
40.752372
20
3.931464
30
0
11
41.004322
21
3.495697
31
0
39
0
210
0
220
0
230
1
0
LINE
5
85
100
AcDbEntity
8
1
62
256
6
ByLayer
370
13
48
1
60
0
100
AcDbLine
10
43.04068
20
-0.026343
30
0
11
43.240382
21
-0.371743
31
0
39
0
210
0
220
0
230
1
0
LINE
5
86
100
AcDbEntity
8
1
62
256
6
ByLayer
370
18
48
1
60
0
100
AcDbLine
10
43.262042
20
-0.053792
30
0
11
43.513001
21
-4.708862
31
0
39
0
210
0
220
0
230
1
0
LINE
5
87
100
AcDbEntity
8
1
62
256
6
ByLayer
370
18
48
1
60
0
100
AcDbLine
10
43.243749
20
-0.075718
30
0
11
43.250316
21
-0.052317
31
0
39
0
210
0
220
0
230
1
0
LINE
5
88
100
AcDbEntity
8
1
62
256
6
ByLayer
370
18
48
1
60
0
100
AcDbLine
10
43.239755
20
-0.072069
30
0
11
43.243749
21
-0.075718
31
0
39
0
210
0
220
0
230
1
0
LINE
5
89
100
AcDbEntity
8
1
62
256
6
ByLayer
370
18
48
1
60
0
100
AcDbLine
10
43.239755
20
-0.051009
30
0
11
43.239755
21
-0.072069
31
0
39
0
210
0
220
0
230
1
0
LINE
5
8A
100
AcDbEntity
8
1
62
256
6
ByLayer
370
18
48
1
60
0
100
AcDbLine
10
43.240382
20
-0.371743
30
0
11
43.223723
21
-0.049032
31
0
39
0
210
0
220
0
230
1
0
LINE
5
8B
100
AcDbEntity
8
1
62
256
6
ByLayer
370
18
48
1
60
0
100
AcDbLine
10
43.369053
20
-4.488485
30
0
11
43.233091
21
-1.910585
31
0
39
0
210
0
220
0
230
1
0
LINE
5
8C
100
AcDbEntity
8
1
62
256
6
ByLayer
370
18
48
1
60
0
100
AcDbLine
10
42.831552
20
-3.252259
30
0
11
43.233091
21
-1.910585
31
0
39
0
210
0
220
0
230
1
0
LINE
5
8D
100
AcDbEntity
8
1
62
256
6
ByLayer
370
18
48
1
60
0
100
AcDbLine
10
43.233091
20
-1.910585
30
0
11
43.233831
21
-1.896845
31
0
39
0
210
0
220
0
230
1
0
LINE
5
8E
100
AcDbEntity
8
1
62
256
6
ByLayer
370
13
48
1
60
0
100
AcDbLine
10
42.826819
20
-1.189143
30
0
11
40.090944
21
-0.563599
31
0
39
0
210
0
220
0
230
1
0
LINE
5
8F
100
AcDbEntity
8
1
62
256
6
ByLayer
370
18
48
1
60
0
100
AcDbLine
10
43.412624
20
-0.072388
30
0
11
43.513001
21
-0.010967
31
0
39
0
210
0
220
0
230
1
0
LINE
5
90
100
AcDbEntity
8
1
62
256
6
ByLayer
370
13
48
1
60
0
100
AcDbLine
10
40.754991
20
0.468787
30
0
11
42.779391
21
0.005917
31
0
39
0
210
0
220
0
230
1
0
LINE
5
91
100
AcDbEntity
8
1
62
256
6
ByLayer
370
18
48
1
60
0
100
AcDbLine
10
43.412624
20
-0.072388
30
0
11
42.779391
21
0.005917
31
0
39
0
210
0
220
0
230
1
0
LINE
5
92
100
AcDbEntity
8
SK1
62
256
6
ByLayer
370
18
48
1
60
0
100
AcDbLine
10
-45.3
20
-5.55
30
0
11
-45.3
21
5.55
31
0
39
0
210
0
220
0
230
1
0
LINE
5
94
100
AcDbEntity
8
SK1
62
256
6
ByLayer
370
18
48
1
60
0
100
AcDbLine
10
0
20
6.35
30
0
11
0
21
0
31
0
39
0
210
0
220
0
230
1
0
LINE
5
95
100
AcDbEntity
8
SK1
62
256
6
ByLayer
370
18
48
1
60
0
100
AcDbLine
10
0
20
0
30
0
11
0
21
-6.35
31
0
39
0
210
0
220
0
230
1
0
LINE
5
96
100
AcDbEntity
8
SK1
62
256
6
ByLayer
370
18
48
1
60
0
100
AcDbLine
10
-44.5
20
6.35
30
0
11
-44.5
21
-6.35
31
0
39
0
210
0
220
0
230
1
0
LINE
5
97
100
AcDbEntity
8
SK1
62
256
6
ByLayer
370
18
48
1
60
0
100
AcDbLine
10
-26.87
20
4.826
30
0
11
-28.394
21
6.35
31
0
39
0
210
0
220
0
230
1
0
LINE
5
98
100
AcDbEntity
8
SK1
62
256
6
ByLayer
370
18
48
1
60
0
100
AcDbLine
10
-18.49
20
4.826
30
0
11
-16.966
21
6.35
31
0
39
0
210
0
220
0
230
1
0
LINE
5
99
100
AcDbEntity
8
SK1
62
256
6
ByLayer
370
18
48
1
60
0
100
AcDbLine
10
-26.87
20
4.826
30
0
11
-18.49
21
4.826
31
0
39
0
210
0
220
0
230
1
0
LINE
5
9A
100
AcDbEntity
8
1
62
256
6
ByLayer
370
18
48
1
60
0
100
AcDbLine
10
7.5263
20
6.35
30
0
11
0
21
6.35
31
0
39
0
210
0
220
0
230
1
0
LINE
5
9B
100
AcDbEntity
8
1
62
256
6
ByLayer
370
18
48
1
60
0
100
AcDbLine
10
0
20
-6.35
30
0
11
7.5263
21
-6.35
31
0
39
0
210
0
220
0
230
1
0
LINE
5
9C
100
AcDbEntity
8
SK1
62
256
6
ByLayer
370
18
48
1
60
0
100
AcDbLine
10
-45.3
20
-5.55
30
0
11
-44.5
21
-6.35
31
0
39
0
210
0
220
0
230
1
0
LINE
5
9D
100
AcDbEntity
8
SK1
62
256
6
ByLayer
370
18
48
1
60
0
100
AcDbLine
10
-44.5
20
6.35
30
0
11
-45.3
21
5.55
31
0
39
0
210
0
220
0
230
1
0
LINE
5
9E
100
AcDbEntity
8
SK1
62
256
6
ByLayer
370
18
48
1
60
0
100
AcDbLine
10
0
20
6.35
30
0
11
-16.966
21
6.35
31
0
39
0
210
0
220
0
230
1
0
LINE
5
9F
100
AcDbEntity
8
SK1
62
256
6
ByLayer
370
18
48
1
60
0
100
AcDbLine
10
-28.394
20
6.35
30
0
11
-44.5
21
6.35
31
0
39
0
210
0
220
0
230
1
0
LINE
5
A0
100
AcDbEntity
8
SK1
62
256
6
ByLayer
370
18
48
1
60
0
100
AcDbLine
10
-44.5
20
-6.35
30
0
11
0
21
-6.35
31
0
39
0
210
0
220
0
230
1
0
LINE
5
A1
100
AcDbEntity
8
SK2
62
256
6
ByLayer
370
18
48
1
60
0
100
AcDbLine
10
-52.75
20
6.35
30
0
11
-52.75
21
-28.439532
31
0
39
0
210
0
220
0
230
1
0
LINE
5
A3
100
AcDbEntity
8
SK2
62
256
6
ByLayer
370
18
48
1
60
0
100
AcDbLine
10
-46.0875
20
6.35
30
0
11
-54.75
21
6.35
31
0
39
0
210
0
220
0
230
1
0
LINE
5
A4
100
AcDbEntity
8
SK2
62
256
6
ByLayer
370
18
48
1
60
0
100
AcDbLine
10
-46.0875
20
-6.35
30
0
11
-54.75
21
-6.35
31
0
39
0
210
0
220
0
230
1
0
LINE
5
A5
100
AcDbEntity
8
1
62
256
6
ByLayer
370
18
48
1
60
1
100
AcDbLine
10
-52.75
20
6.35
30
0
11
-52.289216
21
2.850002
31
0
39
0
210
0
220
0
230
1
0
LINE
5
A6
100
AcDbEntity
8
1
62
256
6
ByLayer
370
18
48
1
60
1
100
AcDbLine
10
-52.289216
20
2.850002
30
0
11
-53.210784
21
2.849998
31
0
39
0
210
0
220
0
230
1
0
LINE
5
A7
100
AcDbEntity
8
1
62
256
6
ByLayer
370
18
48
1
60
1
100
AcDbLine
10
-53.210784
20
2.849998
30
0
11
-52.75
21
6.35
31
0
39
0
210
0
220
0
230
1
0
LINE
5
A8
100
AcDbEntity
8
1
62
256
6
ByLayer
370
18
48
1
60
1
100
AcDbLine
10
-52.75
20
-6.35
30
0
11
-53.210784
21
-2.850002
31
0
39
0
210
0
220
0
230
1
0
LINE
5
A9
100
AcDbEntity
8
1
62
256
6
ByLayer
370
18
48
1
60
1
100
AcDbLine
10
-53.210784
20
-2.850002
30
0
11
-52.289216
21
-2.849998
31
0
39
0
210
0
220
0
230
1
0
LINE
5
AA
100
AcDbEntity
8
1
62
256
6
ByLayer
370
18
48
1
60
1
100
AcDbLine
10
-52.289216
20
-2.849998
30
0
11
-52.75
21
-6.35
31
0
39
0
210
0
220
0
230
1
0
LINE
5
AB
100
AcDbEntity
8
2
62
256
6
ByLayer
370
18
48
1
60
0
100
AcDbLine
10
55.6
20
-6.3501
30
0
11
55.6
21
28.439632
31
0
39
0
210
0
220
0
230
1
0
LINE
5
AD
100
AcDbEntity
8
2
62
256
6
ByLayer
370
18
48
1
60
0
100
AcDbLine
10
45.1875
20
6.3501
30
0
11
57.6
21
6.3501
31
0
39
0
210
0
220
0
230
1
0
LINE
5
AE
100
AcDbEntity
8
2
62
256
6
ByLayer
370
18
48
1
60
0
100
AcDbLine
10
45.1875
20
-6.3501
30
0
11
57.6
21
-6.3501
31
0
39
0
210
0
220
0
230
1
0
LINE
5
AF
100
AcDbEntity
8
1
62
256
6
ByLayer
370
18
48
1
60
1
100
AcDbLine
10
55.6
20
6.3501
30
0
11
56.060784
21
2.850102
31
0
39
0
210
0
220
0
230
1
0
LINE
5
B0
100
AcDbEntity
8
1
62
256
6
ByLayer
370
18
48
1
60
1
100
AcDbLine
10
56.060784
20
2.850102
30
0
11
55.139216
21
2.850098
31
0
39
0
210
0
220
0
230
1
0
LINE
5
B1
100
AcDbEntity
8
1
62
256
6
ByLayer
370
18
48
1
60
1
100
AcDbLine
10
55.139216
20
2.850098
30
0
11
55.6
21
6.3501
31
0
39
0
210
0
220
0
230
1
0
LINE
5
B2
100
AcDbEntity
8
1
62
256
6
ByLayer
370
18
48
1
60
1
100
AcDbLine
10
55.6
20
-6.3501
30
0
11
55.139216
21
-2.850102
31
0
39
0
210
0
220
0
230
1
0
LINE
5
B3
100
AcDbEntity
8
1
62
256
6
ByLayer
370
18
48
1
60
1
100
AcDbLine
10
55.139216
20
-2.850102
30
0
11
56.060784
21
-2.850098
31
0
39
0
210
0
220
0
230
1
0
LINE
5
B4
100
AcDbEntity
8
1
62
256
6
ByLayer
370
18
48
1
60
1
100
AcDbLine
10
56.060784
20
-2.850098
30
0
11
55.6
21
-6.3501
31
0
39
0
210
0
220
0
230
1
0
LINE
5
B5
100
AcDbEntity
8
SK2
62
256
6
ByLayer
370
18
48
1
60
0
100
AcDbLine
10
43.6
20
-36.627662
30
0
11
-45.3
21
-36.627662
31
0
39
0
210
0
220
0
230
1
0
LINE
5
B6
100
AcDbEntity
8
SK2
62
256
6
ByLayer
370
18
48
1
60
0
100
AcDbLine
10
-45.3
20
-7.1375
30
0
11
-45.3
21
-38.627662
31
0
39
0
210
0
220
0
230
1
0
LINE
5
B7
100
AcDbEntity
8
SK2
62
256
6
ByLayer
370
18
48
1
60
0
100
AcDbLine
10
43.6
20
-7.9376
30
0
11
43.6
21
-38.627662
31
0
39
0
210
0
220
0
230
1
0
LINE
5
B8
100
AcDbEntity
8
1
62
256
6
ByLayer
370
18
48
1
60
1
100
AcDbLine
10
-45.3
20
-36.627662
30
0
11
-41.800002
21
-36.166878
31
0
39
0
210
0
220
0
230
1
0
LINE
5
B9
100
AcDbEntity
8
1
62
256
6
ByLayer
370
18
48
1
60
1
100
AcDbLine
10
-41.800002
20
-36.166878
30
0
11
-41.799998
21
-37.088446
31
0
39
0
210
0
220
0
230
1
0
LINE
5
BA
100
AcDbEntity
8
1
62
256
6
ByLayer
370
18
48
1
60
1
100
AcDbLine
10
-41.799998
20
-37.088446
30
0
11
-45.3
21
-36.627662
31
0
39
0
210
0
220
0
230
1
0
LINE
5
BB
100
AcDbEntity
8
1
62
256
6
ByLayer
370
18
48
1
60
1
100
AcDbLine
10
43.6
20
-36.627662
30
0
11
40.100002
21
-37.088446
31
0
39
0
210
0
220
0
230
1
0
LINE
5
BC
100
AcDbEntity
8
1
62
256
6
ByLayer
370
18
48
1
60
1
100
AcDbLine
10
40.100002
20
-37.088446
30
0
11
40.099998
21
-36.166878
31
0
39
0
210
0
220
0
230
1
0
LINE
5
BD
100
AcDbEntity
8
1
62
256
6
ByLayer
370
18
48
1
60
1
100
AcDbLine
10
40.099998
20
-36.166878
30
0
11
43.6
21
-36.627662
31
0
39
0
210
0
220
0
230
1
0
LINE
5
121
100
AcDbEntity
8
1
62
256
6
ByLayer
370
18
48
1
60
1
100
AcDbLine
10
-52.75
20
6.35
30
0
11
-52.289216
21
2.850002
31
0
39
0
210
0
220
0
230
1
0
LINE
5
122
100
AcDbEntity
8
1
62
256
6
ByLayer
370
18
48
1
60
1
100
AcDbLine
10
-52.289216
20
2.850002
30
0
11
-53.210784
21
2.849998
31
0
39
0
210
0
220
0
230
1
0
LINE
5
123
100
AcDbEntity
8
1
62
256
6
ByLayer
370
18
48
1
60
1
100
AcDbLine
10
-53.210784
20
2.849998
30
0
11
-52.75
21
6.35
31
0
39
0
210
0
220
0
230
1
0
LINE
5
125
100
AcDbEntity
8
1
62
256
6
ByLayer
370
18
48
1
60
1
100
AcDbLine
10
-52.75
20
-6.35
30
0
11
-53.210784
21
-2.850002
31
0
39
0
210
0
220
0
230
1
0
LINE
5
126
100
AcDbEntity
8
1
62
256
6
ByLayer
370
18
48
1
60
1
100
AcDbLine
10
-53.210784
20
-2.850002
30
0
11
-52.289216
21
-2.849998
31
0
39
0
210
0
220
0
230
1
0
LINE
5
127
100
AcDbEntity
8
1
62
256
6
ByLayer
370
18
48
1
60
1
100
AcDbLine
10
-52.289216
20
-2.849998
30
0
11
-52.75
21
-6.35
31
0
39
0
210
0
220
0
230
1
0
LINE
5
12B
100
AcDbEntity
8
1
62
256
6
ByLayer
370
18
48
1
60
1
100
AcDbLine
10
55.6
20
6.3501
30
0
11
56.060784
21
2.850102
31
0
39
0
210
0
220
0
230
1
0
LINE
5
12C
100
AcDbEntity
8
1
62
256
6
ByLayer
370
18
48
1
60
1
100
AcDbLine
10
56.060784
20
2.850102
30
0
11
55.139216
21
2.850098
31
0
39
0
210
0
220
0
230
1
0
LINE
5
12D
100
AcDbEntity
8
1
62
256
6
ByLayer
370
18
48
1
60
1
100
AcDbLine
10
55.139216
20
2.850098
30
0
11
55.6
21
6.3501
31
0
39
0
210
0
220
0
230
1
0
LINE
5
12F
100
AcDbEntity
8
1
62
256
6
ByLayer
370
18
48
1
60
1
100
AcDbLine
10
55.6
20
-6.3501
30
0
11
55.139216
21
-2.850102
31
0
39
0
210
0
220
0
230
1
0
LINE
5
130
100
AcDbEntity
8
1
62
256
6
ByLayer
370
18
48
1
60
1
100
AcDbLine
10
55.139216
20
-2.850102
30
0
11
56.060784
21
-2.850098
31
0
39
0
210
0
220
0
230
1
0
LINE
5
131
100
AcDbEntity
8
1
62
256
6
ByLayer
370
18
48
1
60
1
100
AcDbLine
10
56.060784
20
-2.850098
30
0
11
55.6
21
-6.3501
31
0
39
0
210
0
220
0
230
1
0
LINE
5
134
100
AcDbEntity
8
1
62
256
6
ByLayer
370
18
48
1
60
1
100
AcDbLine
10
-45.3
20
-36.627662
30
0
11
-41.800002
21
-36.166878
31
0
39
0
210
0
220
0
230
1
0
LINE
5
135
100
AcDbEntity
8
1
62
256
6
ByLayer
370
18
48
1
60
1
100
AcDbLine
10
-41.800002
20
-36.166878
30
0
11
-41.799998
21
-37.088446
31
0
39
0
210
0
220
0
230
1
0
LINE
5
136
100
AcDbEntity
8
1
62
256
6
ByLayer
370
18
48
1
60
1
100
AcDbLine
10
-41.799998
20
-37.088446
30
0
11
-45.3
21
-36.627662
31
0
39
0
210
0
220
0
230
1
0
LINE
5
138
100
AcDbEntity
8
1
62
256
6
ByLayer
370
18
48
1
60
1
100
AcDbLine
10
43.6
20
-36.627662
30
0
11
40.100002
21
-37.088446
31
0
39
0
210
0
220
0
230
1
0
LINE
5
139
100
AcDbEntity
8
1
62
256
6
ByLayer
370
18
48
1
60
1
100
AcDbLine
10
40.100002
20
-37.088446
30
0
11
40.099998
21
-36.166878
31
0
39
0
210
0
220
0
230
1
0
LINE
5
13A
100
AcDbEntity
8
1
62
256
6
ByLayer
370
18
48
1
60
1
100
AcDbLine
10
40.099998
20
-36.166878
30
0
11
43.6
21
-36.627662
31
0
39
0
210
0
220
0
230
1
0
MTEXT
5
11D
100
AcDbEntity
8
SK2
62
256
6
ByLayer
370
18
48
1
60
0
100
AcDbMText
10
-54.314634
20
-26.504688
30
0
210
0
220
0
230
1
1
%%c
40
3.5
41
0
44
1.084337
50
90
71
7
72
5
7
iso_b_vert
0
MTEXT
5
120
100
AcDbEntity
8
SK2
62
256
6
ByLayer
370
18
48
1
60
0
100
AcDbMText
10
-54.314634
20
-19.532032
30
0
210
0
220
0
230
1
1
\W0.6563;12.7
40
3.5
41
0
44
1.084337
50
90
71
7
72
5
7
iso_b_vert
0
MTEXT
5
129
100
AcDbEntity
8
2
62
256
6
ByLayer
370
18
48
1
60
0
100
AcDbMText
10
54.035366
20
14.284944
30
0
210
0
220
0
230
1
1
%%c
40
3.5
41
0
44
1.084337
50
90
71
7
72
5
7
iso_b_vert
0
MTEXT
5
12A
100
AcDbEntity
8
2
62
256
6
ByLayer
370
18
48
1
60
0
100
AcDbMText
10
54.035366
20
21.2576
30
0
210
0
220
0
230
1
1
\W0.6563;12.7
40
3.5
41
0
44
1.084337
50
90
71
7
72
5
7
iso_b_vert
0
MTEXT
5
133
100
AcDbEntity
8
SK2
62
256
6
ByLayer
370
18
48
1
60
0
100
AcDbMText
10
-4.771699
20
-35.595029
30
0
210
0
220
0
230
1
1
\W0.7457;88.9
40
3.5
41
0
44
1.084337
50
0
71
7
72
5
7
iso_b_vert
0
MTEXT
5
13C
100
AcDbEntity
8
SK6
62
256
6
ByLayer
370
18
48
1
60
0
100
AcDbMText
10
-25.72064
20
-62.114886
30
0
210
0
220
0
230
1
1
\W0.7341;2S342-1270-152CMB   M2CM
40
3
41
0
44
1.084337
50
0
71
7
72
5
7
iso_b_vert
0
HATCH
5
124
100
AcDbEntity
8
SK2
62
256
6
ByLayer
370
13
48
1
60
0
100
AcDbHatch
10
0
20
0
30
0
210
0
220
0
230
1
2
ANSI31
70
0
71
0
91
1
92
5
93
3
72
1
10
-52.75
20
6.34999999999994
11
-52.2892162584472
21
2.85000169255312
72
1
10
-52.2892162584472
20
2.85000169255312
11
-53.2107837415528
21
2.84999830744675
72
1
10
-53.2107837415528
20
2.84999830744675
11
-52.75
21
6.34999999999994
97
0
75
0
76
1
52
0
41
0.0062
77
0
78
1
53
45
43
0
44
0
45
-0.0139193969876572
46
0.0139193969876572
79
0
47
0
98
1
10
0
20
0
0
HATCH
5
128
100
AcDbEntity
8
SK2
62
256
6
ByLayer
370
13
48
1
60
0
100
AcDbHatch
10
0
20
0
30
0
210
0
220
0
230
1
2
ANSI31
70
0
71
0
91
1
92
5
93
3
72
1
10
-52.75
20
-6.35000000000005
11
-53.2107837415528
21
-2.85000169255324
72
1
10
-53.2107837415528
20
-2.85000169255324
11
-52.2892162584472
21
-2.84999830744687
72
1
10
-52.2892162584472
20
-2.84999830744687
11
-52.75
21
-6.35000000000005
97
0
75
0
76
1
52
0
41
0.0062
77
0
78
1
53
45
43
0
44
0
45
-0.0139193969876572
46
0.0139193969876572
79
0
47
0
98
1
10
0
20
0
0
HATCH
5
12E
100
AcDbEntity
8
2
62
256
6
ByLayer
370
13
48
1
60
0
100
AcDbHatch
10
0
20
0
30
0
210
0
220
0
230
1
2
ANSI31
70
0
71
0
91
1
92
5
93
3
72
1
10
55.6
20
6.35009999999983
11
56.0607837415528
21
2.85010169255301
72
1
10
56.0607837415528
20
2.85010169255301
11
55.1392162584472
21
2.85009830744664
72
1
10
55.1392162584472
20
2.85009830744664
11
55.6
21
6.35009999999983
97
0
75
0
76
1
52
0
41
0.0062
77
0
78
1
53
45
43
0
44
0
45
-0.0139193969876572
46
0.0139193969876572
79
0
47
0
98
1
10
0
20
0
0
HATCH
5
132
100
AcDbEntity
8
2
62
256
6
ByLayer
370
13
48
1
60
0
100
AcDbHatch
10
0
20
0
30
0
210
0
220
0
230
1
2
ANSI31
70
0
71
0
91
1
92
5
93
3
72
1
10
55.6
20
-6.35010000000017
11
55.1392162584472
21
-2.85010169255335
72
1
10
55.1392162584472
20
-2.85010169255335
11
56.0607837415528
21
-2.85009830744698
72
1
10
56.0607837415528
20
-2.85009830744698
11
55.6
21
-6.35010000000017
97
0
75
0
76
1
52
0
41
0.0062
77
0
78
1
53
45
43
0
44
0
45
-0.0139193969876572
46
0.0139193969876572
79
0
47
0
98
1
10
0
20
0
0
HATCH
5
137
100
AcDbEntity
8
SK2
62
256
6
ByLayer
370
13
48
1
60
0
100
AcDbHatch
10
0
20
0
30
0
210
0
220
0
230
1
2
ANSI31
70
0
71
0
91
1
92
5
93
3
72
1
10
-45.3
20
-36.6276622321039
11
-41.8000016925532
21
-36.1668784905511
72
1
10
-41.8000016925532
20
-36.1668784905511
11
-41.7999983074468
21
-37.0884459736567
72
1
10
-41.7999983074468
20
-37.0884459736567
11
-45.3
21
-36.6276622321039
97
0
75
0
76
1
52
0
41
0.0062
77
0
78
1
53
45
43
0
44
0
45
-0.0139193969876572
46
0.0139193969876572
79
0
47
0
98
1
10
0
20
0
0
HATCH
5
13B
100
AcDbEntity
8
SK2
62
256
6
ByLayer
370
13
48
1
60
0
100
AcDbHatch
10
0
20
0
30
0
210
0
220
0
230
1
2
ANSI31
70
0
71
0
91
1
92
5
93
3
72
1
10
43.6
20
-36.6276622321039
11
40.1000016925532
21
-37.0884459736567
72
1
10
40.1000016925532
20
-37.0884459736567
11
40.0999983074468
21
-36.1668784905511
72
1
10
40.0999983074468
20
-36.1668784905511
11
43.6
21
-36.6276622321039
97
0
75
0
76
1
52
0
41
0.0062
77
0
78
1
53
45
43
0
44
0
45
-0.0139193969876572
46
0.0139193969876572
79
0
47
0
98
1
10
0
20
0
0
DIMENSION
5
13F
100
AcDbEntity
8
2
62
256
6
ByLayer
370
18
48
1
60
0
100
AcDbDimension
2
_U0
10
15.02
20
-20.627662
30
0
11
29.31
21
-20.627662
31
0
70
32
71
1
72
1
41
1
210
0
220
0
230
1
3
Standard
100
AcDbAlignedDimension
13
43.6
23
-6.3501
33
0
14
15.02
24
-6.3501
34
0
50
0
100
AcDbRotatedDimension
1001
ACAD
1000
DSTYLE
1002
{
1070
   371
1070
    13
1070
   372
1070
    13
1070
   170
1070
     0
1070
   144
1040
1.0
1070
   277
1070
     2
1070
   284
1070
     8
1070
   278
1070
    46
1070
   146
1040
1.0
1070
   345
1005
16
1070
   347
1005
16
1070
   346
1005
16
1070
   344
1005
0
1070
   343
1005
0
1070
   172
1070
     1
1070
    76
1070
     0
1070
    75
1070
     0
1070
   282
1070
     0
1070
   281
1070
     0
1070
    71
1070
     0
1070
    74
1070
     0
1070
   279
1070
     0
1070
   173
1070
     1
1070
   340
1005
11E
1070
   271
1070
     2
1070
   272
1070
     2
1070
    77
1070
     1
1070
    73
1070
     1
1070
   171
1070
     3
1070
   274
1070
     4
1070
   177
1070
     2
1070
   176
1070
     2
1070
   178
1070
     2
1070
    78
1070
     8
1070
    48
1040
-0.1
1070
    41
1040
3.5
1070
   147
1040
1.75
1070
    42
1040
1.5875
1070
    44
1040
2.0
1070
   140
1040
3.5
1002
}
1001
ACAD_DSTYLE_DIM_LINETYPE
1070
   380
1005
16
1001
ACAD_DSTYLE_DIM_EXT1_LINETYPE
1070
   381
1005
16
1001
ACAD_DSTYLE_DIM_EXT2_LINETYPE
1070
   382
1005
16
0
ENDSEC
0
SECTION
2
OBJECTS
0
DICTIONARY
5
1c8
330
0
100
AcDbDictionary
280
0
281
1
3
ACAD_GROUP
350
1c9
3
ACAD_MLINESTYLE
350
1ca
0
DICTIONARY
5
1c9
330
0
100
AcDbDictionary
280
0
281
1
0
DICTIONARY
5
1ca
330
0
100
AcDbDictionary
280
0
281
1
3
Standard
350
18
0
MLINESTYLE
5
18
330
1ca
100
AcDbMlineStyle
2
Standard
70
0
3

62
256
51
90
52
90
71
2
49
-0.5
62
256
6
ByLayer
49
0.5
62
256
6
ByLayer
0
RASTERVARIABLES
5
1b6
330

100
AcDbRasterVariables
90
0
70
1
71
1
72
1
0
ENDSEC
0
EOF
