0
SECTION
2
HEADER
9
$ACADVER
1
AC1015
9
$DWGCODEPAGE
3
ANSI_1252
9
$HANDSEED
5
1e0
9
$ANGBASE
50
0
9
$ANGDIR
70
0
9
$ATTMODE
70
1
9
$AUNITS
70
0
9
$AUPREC
70
0
9
$CECOLOR
62
256
9
$CELTSCALE
40
1
9
$CELTYPE
6
ByLayer
9
$CELWEIGHT
370
18
9
$CLAYER
8
0
9
$CMLJUST
70
0
9
$CMLSCALE
40
1
9
$CMLSTYLE
2
Standard
9
$DIMSTYLE
2
Standard
9
$TEXTSIZE
40
0.2
9
$TEXTSTYLE
7
Standard
9
$LUNITS
70
2
9
$LUPREC
70
4
9
$EXTNAMES
290
1
9
$INSUNITS
70
4
9
$LTSCALE
40
1
9
$LWDISPLAY
290
1
9
$PDMODE
70
0
9
$PDSIZE
40
0
9
$PLINEGEN
70
0
0
ENDSEC
0
SECTION
2
CLASSES
0
CLASS
1
RASTERVARIABLES
2
AcDbRasterVariables
3
ISM
90
0
280
0
281
0
0
ENDSEC
0
SECTION
2
TABLES
0
TABLE
2
VPORT
5
1d6
100
AcDbSymbolTable
0
VPORT
5
1
100
AcDbSymbolTableRecord
100
AcDbViewportTableRecord
2
*Active
70
0
10
0
20
0
11
1
21
1
12
-1
22
1
13
0
23
0
14
0.5
24
0.5
15
10
25
10
16
0
26
0
36
1
17
0
27
0
37
0
0
ENDTAB
0
TABLE
2
LTYPE
5
1d7
100
AcDbSymbolTable
0
LTYPE
5
14
100
AcDbSymbolTableRecord
100
AcDbLinetypeTableRecord
70
0
2
ByBlock
3

72
65
73
0
40
0
0
LTYPE
5
15
100
AcDbSymbolTableRecord
100
AcDbLinetypeTableRecord
70
0
2
ByLayer
3

72
65
73
0
40
0
0
LTYPE
5
16
100
AcDbSymbolTableRecord
100
AcDbLinetypeTableRecord
70
0
2
Continuous
3
Solid line
72
65
73
0
40
0
0
LTYPE
5
6E
100
AcDbSymbolTableRecord
100
AcDbLinetypeTableRecord
70
0
2
CENTER
3
____ _ ____ _ ____ _ ____
72
65
73
4
40
47.5
49
22
74
0
49
-8.5
74
0
49
8.5
74
0
49
-8.5
74
0
0
LTYPE
5
6F
100
AcDbSymbolTableRecord
100
AcDbLinetypeTableRecord
70
0
2
DASHED
3
__ __ __ __ __ __ __ __ __
72
65
73
2
40
25.72
49
12.86
74
0
49
-12.86
74
0
0
ENDTAB
0
TABLE
2
LAYER
5
1d8
100
AcDbSymbolTable
0
LAYER
5
10
100
AcDbSymbolTableRecord
100
AcDbLayerTableRecord
2
0
70
0
62
7
6
Continuous
290
1
370
-3
390
0
0
LAYER
5
71
100
AcDbSymbolTableRecord
100
AcDbLayerTableRecord
2
81
70
0
62
-3
6
Continuous
290
1
370
-3
390
0
0
LAYER
5
73
100
AcDbSymbolTableRecord
100
AcDbLayerTableRecord
2
80
70
0
62
-6
6
Continuous
290
1
370
-3
390
0
0
LAYER
5
75
100
AcDbSymbolTableRecord
100
AcDbLayerTableRecord
2
1
70
0
62
4
6
Continuous
290
1
370
-3
390
0
0
LAYER
5
7C
100
AcDbSymbolTableRecord
100
AcDbLayerTableRecord
2
4
70
0
62
-2
6
CENTER
290
1
370
-3
390
0
0
LAYER
5
AD
100
AcDbSymbolTableRecord
100
AcDbLayerTableRecord
2
2
70
0
62
7
6
Continuous
290
1
370
-3
390
0
0
LAYER
5
14D
100
AcDbSymbolTableRecord
100
AcDbLayerTableRecord
2
Defpoints
70
0
62
7
6
Continuous
290
0
370
-3
390
0
0
LAYER
5
1c2
100
AcDbSymbolTableRecord
100
AcDbLayerTableRecord
2
SK4
70
0
62
2
6
CENTER
290
1
370
-3
390
0
0
LAYER
5
1c3
100
AcDbSymbolTableRecord
100
AcDbLayerTableRecord
2
SK1
70
0
62
4
6
Continuous
290
1
370
-3
390
0
0
LAYER
5
1c4
100
AcDbSymbolTableRecord
100
AcDbLayerTableRecord
2
SK2
70
0
62
7
6
Continuous
290
1
370
-3
390
0
0
LAYER
5
1c5
100
AcDbSymbolTableRecord
100
AcDbLayerTableRecord
2
SK6
70
0
62
5
6
Continuous
290
1
370
-3
390
0
0
ENDTAB
0
TABLE
2
STYLE
5
1d9
100
AcDbSymbolTable
0
STYLE
5
11
100
AcDbSymbolTableRecord
100
AcDbTextStyleTableRecord
2
Standard
3
txt
70
0
71
0
40
0
41
1
42
0
50
0
0
STYLE
5
129
100
AcDbSymbolTableRecord
100
AcDbTextStyleTableRecord
2
iso_b_vert
3
simplex.shx
70
0
71
0
40
0
41
1
42
0
50
0
0
STYLE
5
12A
100
AcDbSymbolTableRecord
100
AcDbTextStyleTableRecord
2
DWGDirectTextStyle
3
simplex
70
0
71
0
40
0
41
1
42
0
50
0
0
ENDTAB
0
TABLE
2
DIMSTYLE
5
1da
100
AcDbSymbolTable
100
AcDbDimStyleTable
0
DIMSTYLE
105
27
100
AcDbSymbolTableRecord
100
AcDbDimStyleTableRecord
2
Standard
70
0
3
<>
41
0.18
42
0.0625
44
0.18
140
0.18
147
0.09
73
0
74
0
77
1
271
2
275
0
278
52
280
0
340
11
0
ENDTAB
0
TABLE
2
VIEW
5
1db
100
AcDbSymbolTable
0
ENDTAB
0
TABLE
2
UCS
5
1dc
100
AcDbSymbolTable
0
ENDTAB
0
TABLE
2
APPID
5
1dd
100
AcDbSymbolTable
0
APPID
5
12
100
AcDbSymbolTableRecord
100
AcDbRegAppTableRecord
2
ACAD
70
0
0
APPID
5
149
100
AcDbSymbolTableRecord
100
AcDbRegAppTableRecord
2
ACAD_DSTYLE_DIMBREAK
70
0
0
APPID
5
181
100
AcDbSymbolTableRecord
100
AcDbRegAppTableRecord
2
ACAD_DSTYLE_DIM_LINETYPE
70
0
0
APPID
5
182
100
AcDbSymbolTableRecord
100
AcDbRegAppTableRecord
2
ACAD_DSTYLE_DIM_EXT1_LINETYPE
70
0
0
APPID
5
183
100
AcDbSymbolTableRecord
100
AcDbRegAppTableRecord
2
ACAD_DSTYLE_DIM_EXT2_LINETYPE
70
0
0
APPID
5
1BE
100
AcDbSymbolTableRecord
100
AcDbRegAppTableRecord
2
ACAD_MLEADERVER
70
0
0
ENDTAB
0
TABLE
2
BLOCK_RECORD
5
1de
100
AcDbSymbolTable
0
BLOCK_RECORD
5
1F
100
AcDbSymbolTableRecord
100
AcDbBlockTableRecord
2
*Model_Space
340
0
70
0
0
BLOCK_RECORD
5
1B
100
AcDbSymbolTableRecord
100
AcDbBlockTableRecord
2
*Paper_Space
340
0
70
0
0
BLOCK_RECORD
5
23
100
AcDbSymbolTableRecord
100
AcDbBlockTableRecord
2
*Paper_Space0
340
0
70
0
0
BLOCK_RECORD
5
14E
100
AcDbSymbolTableRecord
100
AcDbBlockTableRecord
2
*D1
340
0
70
0
0
BLOCK_RECORD
5
15A
100
AcDbSymbolTableRecord
100
AcDbBlockTableRecord
2
_U0
340
0
70
0
0
ENDTAB
0
ENDSEC
0
SECTION
2
BLOCKS
0
BLOCK
5
20
100
AcDbEntity
8
0
100
AcDbBlockBegin
2
*Model_Space
70
0
10
0
20
0
30
0
3
*Model_Space
0
ENDBLK
5
21
100
AcDbEntity
8
0
100
AcDbBlockEnd
0
BLOCK
5
1C
100
AcDbEntity
8
0
100
AcDbBlockBegin
2
*Paper_Space
70
0
10
0
20
0
30
0
3
*Paper_Space
0
ENDBLK
5
1D
100
AcDbEntity
8
0
100
AcDbBlockEnd
0
BLOCK
5
24
100
AcDbEntity
8
0
100
AcDbBlockBegin
2
*Paper_Space0
70
0
10
0
20
0
30
0
3
*Paper_Space0
0
ENDBLK
5
25
100
AcDbEntity
8
0
100
AcDbBlockEnd
0
BLOCK
5
14F
100
AcDbEntity
8
0
100
AcDbBlockBegin
2
*D1
70
1
10
0
20
0
30
0
3
*D1
0
LINE
5
151
100
AcDbEntity
8
0
62
256
6
ByLayer
370
-2
48
1
60
0
100
AcDbLine
10
49
20
-9.5876
30
0
11
49
21
-24.732446
31
0
39
0
210
0
220
0
230
1
0
LINE
5
152
100
AcDbEntity
8
0
62
256
6
ByLayer
370
-2
48
1
60
0
100
AcDbLine
10
15
20
-9.5876
30
0
11
15
21
-24.732446
31
0
39
0
210
0
220
0
230
1
0
LINE
5
153
100
AcDbEntity
8
0
62
256
6
ByLayer
370
-2
48
1
60
0
100
AcDbLine
10
45.5
20
-22.732446
30
0
11
18.5
21
-22.732446
31
0
39
0
210
0
220
0
230
1
0
SOLID
5
154
100
AcDbEntity
8
0
62
256
6
ByLayer
370
-1
48
1
60
0
100
AcDbTrace
10
45.5
20
-23.315779
30
0
11
45.5
21
-22.149113
31
0
12
49
22
-22.732446
32
0
13
49
23
-22.732446
33
0
39
0
210
0
220
0
230
1
0
SOLID
5
155
100
AcDbEntity
8
0
62
256
6
ByLayer
370
-1
48
1
60
0
100
AcDbTrace
10
18.5
20
-22.149113
30
0
11
18.5
21
-23.315779
31
0
12
15
22
-22.732446
32
0
13
15
23
-22.732446
33
0
39
0
210
0
220
0
230
1
0
MTEXT
5
156
100
AcDbEntity
8
0
62
256
6
ByLayer
370
18
48
1
60
0
100
AcDbMText
10
32
20
-15.732446
30
0
210
0
220
0
230
1
1
\A1;34
40
3.5
41
0
44
1
50
0
71
5
72
5
7
iso_b_vert
0
POINT
5
157
100
AcDbEntity
8
Defpoints
62
0
6
ByLayer
370
-1
48
1
60
0
100
AcDbPoint
10
49
20
-8.0001
30
0
39
0
210
0
220
0
230
1
50
360
0
POINT
5
158
100
AcDbEntity
8
Defpoints
62
0
6
ByLayer
370
-1
48
1
60
0
100
AcDbPoint
10
15
20
-8.0001
30
0
39
0
210
0
220
0
230
1
50
360
0
POINT
5
159
100
AcDbEntity
8
Defpoints
62
0
6
ByLayer
370
-1
48
1
60
0
100
AcDbPoint
10
15
20
-22.732446
30
0
39
0
210
0
220
0
230
1
50
360
0
ENDBLK
5
150
100
AcDbEntity
8
0
100
AcDbBlockEnd
0
BLOCK
5
161
100
AcDbEntity
8
0
100
AcDbBlockBegin
2
_U0
70
0
10
0
20
0
30
0
3
_U0
0
MTEXT
5
15B
100
AcDbEntity
8
2
62
256
6
ByLayer
370
18
48
1
60
0
100
AcDbMText
10
29.910767
20
-21.699813
30
0
210
0
220
0
230
1
1
\W0.7167;34
40
3.5
41
0
44
1.084337
50
0
71
7
72
5
7
iso_b_vert
0
LINE
5
15C
100
AcDbEntity
8
2
62
256
6
ByLayer
370
13
48
1
60
0
100
AcDbLine
10
49
20
-9.5876
30
0
11
49
21
-24.732446
31
0
39
0
210
0
220
0
230
1
0
LINE
5
15D
100
AcDbEntity
8
2
62
256
6
ByLayer
370
13
48
1
60
0
100
AcDbLine
10
15
20
-9.5876
30
0
11
15
21
-24.732446
31
0
39
0
210
0
220
0
230
1
0
LINE
5
15E
100
AcDbEntity
8
2
62
256
6
ByLayer
370
13
48
1
60
0
100
AcDbLine
10
49
20
-22.732446
30
0
11
15
21
-22.732446
31
0
39
0
210
0
220
0
230
1
0
SOLID
5
15F
100
AcDbEntity
8
2
62
256
6
ByLayer
370
18
48
1
60
0
100
AcDbTrace
10
49
20
-22.732446
30
0
11
45.500002
21
-23.19323
31
0
12
45.499998
22
-22.271662
32
0
13
45.499998
23
-22.271662
33
0
39
0
210
0
220
0
230
1
0
SOLID
5
160
100
AcDbEntity
8
2
62
256
6
ByLayer
370
18
48
1
60
0
100
AcDbTrace
10
15
20
-22.732446
30
0
11
18.499998
21
-22.271662
31
0
12
18.500002
22
-23.19323
32
0
13
18.500002
23
-23.19323
33
0
39
0
210
0
220
0
230
1
0
ENDBLK
5
162
100
AcDbEntity
8
0
100
AcDbBlockEnd
0
ENDSEC
0
SECTION
2
ENTITIES
0
ELLIPSE
5
BF
100
AcDbEntity
8
1
62
256
6
ByLayer
370
18
48
1
60
0
100
AcDbEllipse
10
48.446824
20
-0.476317
30
0
11
0.0992445448081283
21
-1.92030852470961
31
0
210
0
220
0
230
1
40
0.053243
41
-0.0700547971091477
42
1.5696795671508
0
ELLIPSE
5
C0
100
AcDbEntity
8
1
62
256
6
ByLayer
370
18
48
1
60
0
100
AcDbEllipse
10
48.164934
20
-0.930533
30
0
11
0.304322499369681
21
-0.937109356973684
31
0
210
0
220
0
230
1
40
0.481231
41
2.92045412033891
42
-2.14425363898461
0
ELLIPSE
5
C1
100
AcDbEntity
8
1
62
256
6
ByLayer
370
18
48
1
60
0
100
AcDbEllipse
10
73.803951
20
-44.333435
30
0
11
29.3543803089429
21
-49.3022122900944
31
0
210
0
220
0
230
1
40
0.008434
41
-2.62906375568089
42
-2.59310353735299
0
ELLIPSE
5
C2
100
AcDbEntity
8
1
62
256
6
ByLayer
370
13
48
1
60
0
100
AcDbEllipse
10
6.313943
20
-12.944441
30
0
11
53.7899677823632
21
-49.4582544487383
31
0
210
0
220
0
230
1
40
0.18697
41
1.62243075164214
42
1.74743229471692
0
POINT
5
70
100
AcDbEntity
8
81
62
256
6
ByLayer
370
18
48
1
60
0
100
AcDbPoint
10
49
20
0
30
0
39
0
210
0
220
0
230
1
50
360
0
POINT
5
72
100
AcDbEntity
8
80
62
256
6
ByLayer
370
18
48
1
60
0
100
AcDbPoint
10
0
20
0
30
0
39
0
210
0
220
0
230
1
50
360
0
POINT
5
74
100
AcDbEntity
8
1
62
256
6
ByLayer
370
18
48
1
60
1
100
AcDbPoint
10
49
20
-8.0001
30
0
39
0
210
0
220
0
230
1
50
360
0
POINT
5
76
100
AcDbEntity
8
1
62
256
6
ByLayer
370
18
48
1
60
1
100
AcDbPoint
10
15
20
-8.0001
30
0
39
0
210
0
220
0
230
1
50
360
0
SPLINE
5
C3
100
AcDbEntity
8
1
62
256
6
ByLayer
370
18
48
1
60
0
100
AcDbSpline
70
4
71
3
72
8
73
4
40
0
40
0
40
0
40
0
40
1
40
1
40
1
40
1
41
1
10
48.8305068692505
20
0.001078296351352
30
0
41
1
10
48.8341212673054
20
0.0154206745733916
30
0
41
1
10
48.8342941882193
20
0.0286088919998519
30
0
41
1
10
48.8308645400139
20
0.040678215721158
30
0
0
SPLINE
5
C4
100
AcDbEntity
8
1
62
256
6
ByLayer
370
18
48
1
60
0
100
AcDbSpline
70
4
71
3
72
8
73
4
40
0
40
0
40
0
40
0
40
1
40
1
40
1
40
1
41
1
10
48.8308645400193
20
0.0406782157804457
30
0
41
1
10
48.8280955385407
20
0.0192396312052381
30
0
41
1
10
48.8253265370619
20
-0.0021989533699696
30
0
41
1
10
48.8225575355833
20
-0.0236375379451772
30
0
0
SPLINE
5
C5
100
AcDbEntity
8
1
62
256
6
ByLayer
370
18
48
1
60
0
100
AcDbSpline
70
4
71
3
72
8
73
4
40
0
40
0
40
0
40
0
40
1
40
1
40
1
40
1
41
1
10
48.8193226804917
20
-0.0486829252461121
30
0
41
1
10
48.7626868009336
20
-0.487177849588221
30
0
41
1
10
48.7060509213755
20
-0.925672773930359
30
0
41
1
10
48.6494150418175
20
-1.36416769827247
30
0
0
SPLINE
5
C6
100
AcDbEntity
8
1
62
256
6
ByLayer
370
18
48
1
60
0
100
AcDbSpline
70
4
71
3
72
8
73
4
40
0
40
0
40
0
40
0
40
1
40
1
40
1
40
1
41
1
10
48.8308645400137
20
0.0406782157206464
30
0
41
1
10
48.830756224233
20
0.0410593913231594
30
0
41
1
10
48.8306476204195
20
0.0414383086726389
30
0
41
1
10
48.8305387284101
20
0.0418149665001408
30
0
0
SPLINE
5
C7
100
AcDbEntity
8
1
62
256
6
ByLayer
370
18
48
1
60
0
100
AcDbSpline
70
4
71
3
72
8
73
4
40
0
40
0
40
0
40
0
40
1
40
1
40
1
40
1
41
1
10
48.8308645400141
20
4.82974444583721
30
0
41
1
10
48.8307562244503
20
4.82709972771158
30
0
41
1
10
48.8306476206371
20
4.8244545751495
30
0
41
1
10
48.8305387284092
20
4.82180898790159
30
0
0
SPLINE
5
C8
100
AcDbEntity
8
1
62
256
6
ByLayer
370
18
48
1
60
0
100
AcDbSpline
70
4
71
3
72
51
73
47
40
0
40
0
40
0
40
0
40
0.0624999999999904
40
0.0624999999999904
40
0.124999999999981
40
0.124999999999981
40
0.187499999999971
40
0.187499999999971
40
0.203124999999972
40
0.203124999999972
40
0.218749999999974
40
0.218749999999974
40
0.249999999999976
40
0.249999999999976
40
0.312499999999974
40
0.312499999999974
40
0.374999999999972
40
0.374999999999972
40
0.40624999999997
40
0.40624999999997
40
0.437499999999969
40
0.437499999999969
40
0.499999999999961
40
0.499999999999961
40
0.562499999999953
40
0.562499999999953
40
0.624999999999945
40
0.624999999999945
40
0.640624999999945
40
0.640624999999945
40
0.656249999999946
40
0.687499999999951
40
0.687499999999951
40
0.749999999999957
40
0.749999999999957
40
0.812499999999963
40
0.812499999999963
40
0.828124999999965
40
0.828124999999965
40
0.843749999999968
40
0.843749999999968
40
0.874999999999975
40
0.874999999999975
40
0.937499999999987
40
0.937499999999987
40
1
40
1
40
1
40
1
41
1
10
45.9091003299063
20
7.63378887315136
30
0
41
1
10
46.0041519169391
20
7.64712994216725
30
0
41
1
10
46.0985916662986
20
7.65528194841986
30
0
41
1
10
46.2863004359464
20
7.66153571807746
30
0
41
1
10
46.3796193003958
20
7.65961071738389
30
0
41
1
10
46.5651926958489
20
7.6456420439695
30
0
41
1
10
46.6574473256855
20
7.63360126735176
30
0
41
1
10
46.7721444119675
20
7.61198169976171
30
0
41
1
10
46.7950526947571
20
7.6073284393056
30
0
41
1
10
46.8408063642258
20
7.5973545141147
30
0
41
1
10
46.8636248921999
20
7.59203869026786
30
0
41
1
10
46.9316041903658
20
7.5751798112795
30
0
41
1
10
46.9764065542288
20
7.5627004378868
30
0
41
1
10
47.1092882270578
20
7.52160071348052
30
0
41
1
10
47.1958432553308
20
7.48933205123987
30
0
41
1
10
47.3649599851552
20
7.41510302722881
30
0
41
1
10
47.4475241384869
20
7.37313698753039
30
0
41
1
10
47.5682899784073
20
7.30279505861159
30
0
41
1
10
47.6080343063855
20
7.27810773955665
30
0
41
1
10
47.6864751601437
20
7.22620075419971
30
0
41
1
10
47.725253555815
20
7.19891599152945
30
0
41
1
10
47.8387149463385
20
7.11413987936706
30
0
41
1
10
47.9108895461679
20
7.05351857499878
30
0
41
1
10
48.048469629722
20
6.92410933320835
30
0
41
1
10
48.1138681175873
20
6.85533615984323
30
0
41
1
10
48.2377557469296
20
6.70970879978643
30
0
41
1
10
48.29624635662
20
6.63286280157456
30
0
41
1
10
48.3648375615355
20
6.53155208336631
30
0
41
1
10
48.3783460255129
20
6.51099778700316
30
0
41
1
10
48.4047572622329
20
6.46958403152158
30
0
41
1
10
48.4435059958158
20
6.40695026001677
30
0
41
1
10
48.47967371915
20
6.34279834905789
30
0
41
1
10
48.5486006634303
20
6.21250327451747
30
0
41
1
10
48.5900166523378
20
6.12298451859971
30
0
41
1
10
48.6637105789927
20
5.93868333545808
30
0
41
1
10
48.6959910189163
20
5.84391048414273
30
0
41
1
10
48.7303815219441
20
5.72207635801902
30
0
41
1
10
48.7369607522386
20
5.6975406788261
30
0
41
1
10
48.7495118307506
20
5.64812909120909
30
0
41
1
10
48.7554913362794
20
5.62321816746979
30
0
41
1
10
48.772435425802
20
5.54826906196837
30
0
41
1
10
48.7824054677187
20
5.49803981390954
30
0
41
1
10
48.8083595135879
20
5.34658721437447
30
0
41
1
10
48.8204032436435
20
5.24460108164681
30
0
41
1
10
48.833802869964
20
5.03863817953768
30
0
41
1
10
48.8351623674973
20
4.93468358696416
30
0
41
1
10
48.8308645400139
20
4.82974444583499
30
0
0
SPLINE
5
C9
100
AcDbEntity
8
1
62
256
6
ByLayer
370
18
48
1
60
0
100
AcDbSpline
70
4
71
3
72
24
73
20
40
0
40
0
40
0
40
0
40
0.125000000000005
40
0.125000000000005
40
0.25000000000001
40
0.25000000000001
40
0.312500000000012
40
0.312500000000012
40
0.375000000000015
40
0.375000000000015
40
0.500000000000011
40
0.500000000000011
40
0.750000000000015
40
0.750000000000015
40
0.812500000000015
40
0.812500000000015
40
0.875000000000016
40
0.875000000000016
40
1
40
1
40
1
40
1
41
1
10
48.8305387284111
20
4.82180898790202
30
0
41
1
10
48.8193690085252
20
4.89012712179411
30
0
41
1
10
48.8049742752656
20
4.95747385557118
30
0
41
1
10
48.769930991656
20
5.09028362283104
30
0
41
1
10
48.7492972092865
20
5.15575110454901
30
0
41
1
10
48.7134401170737
20
5.25247447413841
30
0
41
1
10
48.700673598695
20
5.28447036747178
30
0
41
1
10
48.6735120329061
20
5.3479716280211
30
0
41
1
10
48.6590899133294
20
5.3795315455146
30
0
41
1
10
48.613519122633
20
5.47309702942877
30
0
41
1
10
48.5803661078086
20
5.53341829237874
30
0
41
1
10
48.4729533735691
20
5.70848463054577
30
0
41
1
10
48.3907276719029
20
5.81732314052732
30
0
41
1
10
48.2753339052209
20
5.94402008066626
30
0
41
1
10
48.2516199985115
20
5.96888851925999
30
0
41
1
10
48.2029158889059
20
6.01767905656763
30
0
41
1
10
48.1780006576274
20
6.04152003519462
30
0
41
1
10
48.1020419565937
20
6.11104430595347
30
0
41
1
10
48.0496229615835
20
6.15490543029884
30
0
41
1
10
47.9955312935472
20
6.19642802258264
30
0
0
SPLINE
5
CA
100
AcDbEntity
8
1
62
256
6
ByLayer
370
18
48
1
60
0
100
AcDbSpline
70
4
71
3
72
8
73
4
40
0
40
0
40
0
40
0
40
1
40
1
40
1
40
1
41
1
10
48.8308645400144
20
-4.82974444584372
30
0
41
1
10
48.8307562244504
20
-4.82709972771608
30
0
41
1
10
48.8306476206371
20
-4.82445457515198
30
0
41
1
10
48.8305387284091
20
-4.82180898790207
30
0
0
SPLINE
5
CB
100
AcDbEntity
8
1
62
256
6
ByLayer
370
18
48
1
60
0
100
AcDbSpline
70
4
71
3
72
51
73
47
40
0
40
0
40
0
40
0
40
0.0625000000000094
40
0.0625000000000094
40
0.125000000000019
40
0.125000000000019
40
0.187500000000028
40
0.187500000000028
40
0.203125000000027
40
0.203125000000027
40
0.218750000000026
40
0.218750000000026
40
0.250000000000024
40
0.250000000000024
40
0.312500000000019
40
0.312500000000019
40
0.375000000000015
40
0.375000000000015
40
0.406250000000013
40
0.406250000000013
40
0.43750000000001
40
0.43750000000001
40
0.500000000000012
40
0.500000000000012
40
0.562500000000013
40
0.562500000000013
40
0.625000000000014
40
0.625000000000014
40
0.640625000000015
40
0.640625000000015
40
0.656250000000015
40
0.687500000000011
40
0.687500000000011
40
0.750000000000008
40
0.750000000000008
40
0.812500000000005
40
0.812500000000005
40
0.828125000000004
40
0.828125000000004
40
0.843750000000004
40
0.843750000000004
40
0.875000000000003
40
0.875000000000003
40
0.937500000000002
40
0.937500000000002
40
1
40
1
40
1
40
1
41
1
10
45.9091003299062
20
-7.63378887315173
30
0
41
1
10
46.004151916939
20
-7.64712994216762
30
0
41
1
10
46.0985916662983
20
-7.6552819484202
30
0
41
1
10
46.2863004359459
20
-7.66153571807783
30
0
41
1
10
46.3796193003951
20
-7.65961071738425
30
0
41
1
10
46.565192695848
20
-7.64564204396996
30
0
41
1
10
46.6574473256845
20
-7.63360126735228
30
0
41
1
10
46.7721444119663
20
-7.61198169976231
30
0
41
1
10
46.7950526947559
20
-7.60732843930623
30
0
41
1
10
46.8408063642246
20
-7.59735451411535
30
0
41
1
10
46.8636248921986
20
-7.59203869026854
30
0
41
1
10
46.9316041903645
20
-7.57517981128021
30
0
41
1
10
46.9764065542274
20
-7.56270043788757
30
0
41
1
10
47.1092882270562
20
-7.5216007134814
30
0
41
1
10
47.1958432553291
20
-7.48933205124087
30
0
41
1
10
47.3649599851533
20
-7.41510302723003
30
0
41
1
10
47.4475241384849
20
-7.37313698753175
30
0
41
1
10
47.5682899784052
20
-7.30279505861316
30
0
41
1
10
47.6080343063834
20
-7.27810773955829
30
0
41
1
10
47.6864751601415
20
-7.22620075420153
30
0
41
1
10
47.7252535558129
20
-7.19891599153132
30
0
41
1
10
47.8387149463364
20
-7.11413987936916
30
0
41
1
10
47.9108895461657
20
-7.05351857500102
30
0
41
1
10
48.0484696297197
20
-6.92410933321096
30
0
41
1
10
48.1138681175851
20
-6.85533615984602
30
0
41
1
10
48.2377557469273
20
-6.70970879978964
30
0
41
1
10
48.2962463566177
20
-6.63286280157797
30
0
41
1
10
48.3648375615333
20
-6.53155208337
30
0
41
1
10
48.3783460255106
20
-6.51099778700689
30
0
41
1
10
48.4047572622307
20
-6.46958403152539
30
0
41
1
10
48.4435059958136
20
-6.40695026002075
30
0
41
1
10
48.4796737191478
20
-6.34279834906204
30
0
41
1
10
48.5486006634283
20
-6.21250327452191
30
0
41
1
10
48.5900166523359
20
-6.12298451860434
30
0
41
1
10
48.663710578991
20
-5.93868333546314
30
0
41
1
10
48.6959910189146
20
-5.84391048414801
30
0
41
1
10
48.7303815219426
20
-5.72207635802462
30
0
41
1
10
48.7369607522372
20
-5.69754067883173
30
0
41
1
10
48.7495118307493
20
-5.64812909121483
30
0
41
1
10
48.7554913362781
20
-5.62321816747559
30
0
41
1
10
48.7724354258008
20
-5.54826906197434
30
0
41
1
10
48.7824054677175
20
-5.4980398139156
30
0
41
1
10
48.8083595135871
20
-5.3465872143808
30
0
41
1
10
48.8204032436429
20
-5.24460108165334
30
0
41
1
10
48.8338028699638
20
-5.03863817954459
30
0
41
1
10
48.8351623674975
20
-4.93468358696296
30
0
41
1
10
48.8308645400139
20
-4.82974444583394
30
0
0
SPLINE
5
CC
100
AcDbEntity
8
1
62
256
6
ByLayer
370
13
48
1
60
0
100
AcDbSpline
70
4
71
3
72
8
73
4
40
0
40
0
40
0
40
0
40
1
40
1
40
1
40
1
41
1
10
48.8308645400193
20
-4.82974444584417
30
0
41
1
10
48.7703813739569
20
-4.7276807264241
30
0
41
1
10
48.7098982078945
20
-4.62561700700405
30
0
41
1
10
48.649415041832
20
-4.52355328758401
30
0
0
SPLINE
5
CD
100
AcDbEntity
8
1
62
256
6
ByLayer
370
13
48
1
60
0
100
AcDbSpline
70
4
71
3
72
8
73
4
40
0
40
0
40
0
40
0
40
1
40
1
40
1
40
1
41
1
10
45.8370927998178
20
-7.61880986810959
30
0
41
1
10
45.8365822211671
20
-7.61794828033987
30
0
41
1
10
45.8360716425163
20
-7.61708669257013
30
0
41
1
10
45.8355610638655
20
-7.61622510480041
30
0
0
SPLINE
5
CE
100
AcDbEntity
8
1
62
256
6
ByLayer
370
18
48
1
60
0
100
AcDbSpline
70
4
71
3
72
14
73
10
40
0
40
0
40
0
40
0
40
0.250000000000011
40
0.250000000000011
40
0.375000000000009
40
0.375000000000009
40
0.500000000000006
40
0.500000000000006
40
1
40
1
40
1
40
1
41
1
10
48.639009862175
20
-4.82132837222025
30
0
41
1
10
48.6418968720605
20
-4.79976251051991
30
0
41
1
10
48.6443692004095
20
-4.77737718976724
30
0
41
1
10
48.6473593750866
20
-4.74237972884535
30
0
41
1
10
48.6482361360411
20
-4.73047684581334
30
0
41
1
10
48.6497301996044
20
-4.70615835981576
30
0
41
1
10
48.6503490660497
20
-4.69369401933253
30
0
41
1
10
48.6527164760545
20
-4.63064743375543
30
0
41
1
10
48.6522961324467
20
-4.57817979770149
30
0
41
1
10
48.6494150418226
20
-4.52355328756829
30
0
0
SPLINE
5
CF
100
AcDbEntity
8
1
62
256
6
ByLayer
370
18
48
1
60
0
100
AcDbSpline
70
4
71
3
72
75
73
71
40
0
40
0
40
0
40
0
40
0.0153834481093569
40
0.0308072185271161
40
0.0462703815650527
40
0.0617720305948201
40
0.0773112836180346
40
0.0928872772022975
40
0.108499155022228
40
0.124146051129414
40
0.139827076520417
40
0.155541329195258
40
0.171287920396485
40
0.187065990833655
40
0.202874704701157
40
0.218713237021018
40
0.234580766543275
40
0.250476475876396
40
0.266399553249593
40
0.282349195090536
40
0.372122542612166
40
0.464912264841665
40
0.560570130742345
40
0.658964434770484
40
0.665423008713313
40
0.671924873809331
40
0.678469964879868
40
0.685058217203378
40
0.691689566548229
40
0.698363949206294
40
0.705081302027183
40
0.711841562453219
40
0.718644668555272
40
0.725490559069495
40
0.732379173435038
40
0.739310451832768
40
0.746284335225224
40
0.753300765397442
40
0.760359684996361
40
0.767461037567576
40
0.774604767591523
40
0.781790820519899
40
0.789019142812262
40
0.79628968197261
40
0.80360238658629
40
0.810957206356977
40
0.818354092143735
40
0.825792995998346
40
0.833273871202703
40
0.840796672306452
40
0.848361355164717
40
0.855967876976026
40
0.863616196320502
40
0.871306273198179
40
0.879038069067543
40
0.886811546884347
40
0.894626671140683
40
0.902483407904273
40
0.910381724858116
40
0.918321591340439
40
0.926302978385007
40
0.934325858761793
40
0.942390207018089
40
0.950495999520052
40
0.958643214494736
40
0.966831832072648
40
0.975061834330886
40
0.983333205336269
40
0.991645931180394
40
1
40
1
40
1
40
1
41
1
10
48.6389945067235
20
-4.82162637668981
30
0
41
1
10
48.6380397000316
20
-4.8385450691587
30
0
41
1
10
48.636127583957
20
-4.87242680050895
30
0
41
1
10
48.6321792720372
20
-4.92316905965092
30
0
41
1
10
48.6274329923103
20
-4.97391299166554
30
0
41
1
10
48.6218083534141
20
-5.02462902188134
30
0
41
1
10
48.615323735545
20
-5.07529936502749
30
0
41
1
10
48.6079713774947
20
-5.12590303574919
30
0
41
1
10
48.5997511830068
20
-5.17641990076169
30
0
41
1
10
48.5906618555585
20
-5.22682962229405
30
0
41
1
10
48.5807034514295
20
-5.27711200446802
30
0
41
1
10
48.5698764931122
20
-5.32724690977719
30
0
41
1
10
48.5581818057418
20
-5.37721424340117
30
0
41
1
10
48.5456203423789
20
-5.42699393446927
30
0
41
1
10
48.53219333032
20
-5.47656598595157
30
0
41
1
10
48.5179024165774
20
-5.52591047745341
30
0
41
1
10
48.5027496689568
20
-5.57500767928346
30
0
41
1
10
48.4867377310806
20
-5.62383767045603
30
0
41
1
10
48.4698691231235
20
-5.67238177022662
30
0
41
1
10
48.4248179798295
20
-5.79501253694062
30
0
41
1
10
48.339978369071
20
-5.98973440299017
30
0
41
1
10
48.1951753613378
20
-6.24634361154654
30
0
41
1
10
48.0200150383536
20
-6.49073271311391
30
0
41
1
10
47.8802912273965
20
-6.64509892586025
30
0
41
1
10
47.7980925738236
20
-6.72523030684789
30
0
41
1
10
47.7835934388499
20
-6.73914720870636
30
0
41
1
10
47.7688970810187
20
-6.7530340883151
30
0
41
1
10
47.7540022979216
20
-6.76688770073034
30
0
41
1
10
47.7389080846547
20
-6.78070452293264
30
0
41
1
10
47.7236134189709
20
-6.79448106444144
30
0
41
1
10
47.708117320342
20
-6.8082137835741
30
0
41
1
10
47.6924188348981
20
-6.8218991104356
30
0
41
1
10
47.6765170404229
20
-6.8355334410453
30
0
41
1
10
47.660411045919
20
-6.84911313928967
30
0
41
1
10
47.6440999926405
20
-6.86263453677427
30
0
41
1
10
47.6275830547253
20
-6.87609393326093
30
0
41
1
10
47.6108594399333
20
-6.88948759696342
30
0
41
1
10
47.5939283903514
20
-6.90281176489424
30
0
41
1
10
47.5767891831222
20
-6.9160626432265
30
0
41
1
10
47.5594411311876
20
-6.92923640769436
30
0
41
1
10
47.5418835840359
20
-6.94232920400628
30
0
41
1
10
47.5241159284497
20
-6.95533714827411
30
0
41
1
10
47.506137589251
20
-6.96825632745768
30
0
41
1
10
47.4879480300482
20
-6.98108279982679
30
0
41
1
10
47.4695467539787
20
-6.9938125954383
30
0
41
1
10
47.4509333044524
20
-7.00644171663023
30
0
41
1
10
47.4321072658922
20
-7.01896613853242
30
0
41
1
10
47.4130682644725
20
-7.03138180959303
30
0
41
1
10
47.3938159688554
20
-7.04368465212235
30
0
41
1
10
47.3743500909245
20
-7.05587056285265
30
0
41
1
10
47.3546703865144
20
-7.06793541351502
30
0
41
1
10
47.3347766561391
20
-7.07987505143285
30
0
41
1
10
47.3146687457133
20
-7.0916853001317
30
0
41
1
10
47.2943465472737
20
-7.10336195996635
30
0
41
1
10
47.2738099996923
20
-7.1149008087647
30
0
41
1
10
47.2530590893871
20
-7.126297602487
30
0
41
1
10
47.2320938510276
20
-7.13754807590743
30
0
41
1
10
47.2109143682291
20
-7.14864794329128
30
0
41
1
10
47.1895207742688
20
-7.15959289916952
30
0
41
1
10
47.1679132526863
20
-7.17037861882611
30
0
41
1
10
47.1460920382905
20
-7.18100075994559
30
0
41
1
10
47.1240574166065
20
-7.19145495997628
30
0
41
1
10
47.1018097291551
20
-7.2017368496879
30
0
41
1
10
47.0793493567602
20
-7.21184200589988
30
0
41
1
10
47.0566767854504
20
-7.22176613306038
30
0
41
1
10
47.0337923617121
20
-7.23150438426387
30
0
41
1
10
47.0106972159032
20
-7.24105391852689
30
0
41
1
10
46.9873897929011
20
-7.25040428855314
30
0
41
1
10
46.9638789005794
20
-7.25957358874746
30
0
41
1
10
46.948088562804
20
-7.26549154592914
30
0
41
1
10
46.9401738094803
20
-7.26845786444235
30
0
0
SPLINE
5
D0
100
AcDbEntity
8
1
62
256
6
ByLayer
370
18
48
1
60
0
100
AcDbSpline
70
4
71
3
72
8
73
4
40
0
40
0
40
0
40
0
40
1
40
1
40
1
40
1
41
1
10
48.148757996428
20
-4.63900065501988
30
0
41
1
10
48.312195239291
20
-4.7002443697057
30
0
41
1
10
48.4756184877872
20
-4.76120249418656
30
0
41
1
10
48.6390302027308
20
-4.82192524753469
30
0
0
SPLINE
5
D1
100
AcDbEntity
8
1
62
256
6
ByLayer
370
18
48
1
60
0
100
AcDbSpline
70
4
71
3
72
57
73
53
40
0
40
0
40
0
40
0
40
0.0490139112104915
40
0.0490139112104915
40
0.119639120775821
40
0.119639120775821
40
0.137295423167153
40
0.137295423167153
40
0.154951725558484
40
0.154951725558484
40
0.190264330341148
40
0.190264330341148
40
0.260889539906477
40
0.260889539906477
40
0.296202144689141
40
0.296202144689141
40
0.313858447080473
40
0.313858447080473
40
0.331514749471805
40
0.331514749471805
40
0.402139959037134
40
0.402139959037134
40
0.437452563819798
40
0.455108866211131
40
0.455108866211131
40
0.472765168602463
40
0.472765168602463
40
0.543390378167797
40
0.543390378167797
40
0.614015587733131
40
0.614015587733131
40
0.631671890124464
40
0.631671890124464
40
0.649328192515798
40
0.649328192515798
40
0.684640797298465
40
0.684640797298465
40
0.755266006863799
40
0.755266006863799
40
0.790578611646466
40
0.790578611646466
40
0.8082349140378
40
0.8082349140378
40
0.825891216429133
40
0.896516425994467
40
0.896516425994467
40
0.931829030777135
40
0.949485333168469
40
0.949485333168469
40
0.967141635559802
40
0.967141635559802
40
1
40
1
40
1
40
1
41
1
10
13.2496601321025
20
4.64264725393312
30
0
41
1
10
13.6561206770569
20
4.6193572515534
30
0
41
1
10
14.0619726114738
20
4.5851310723952
30
0
41
1
10
15.0523483025915
20
4.47549845581796
30
0
41
1
10
15.6367477423397
20
4.3885877996853
30
0
41
1
10
16.3687947135589
20
4.2533877377964
30
0
41
1
10
16.5152815525234
20
4.22502067354699
30
0
41
1
10
16.8084566166635
20
4.16566619464814
30
0
41
1
10
16.9551240002036
20
4.13468148326803
30
0
41
1
10
17.3946428546288
20
4.0380495860021
30
0
41
1
10
17.6872922453005
20
3.96866842504338
30
0
41
1
10
18.5647066090877
20
3.7463599784985
30
0
41
1
10
19.1489375503924
20
3.57925721233897
30
0
41
1
10
20.0264273029099
20
3.30328768145554
30
0
41
1
10
20.3191144029467
20
3.20708110284562
30
0
41
1
10
20.7587088428023
20
3.05685056870337
30
0
41
1
10
20.9054006038725
20
3.00576316391965
30
0
41
1
10
21.1985216233513
20
2.90186324336861
30
0
41
1
10
21.344984615787
20
2.84904012396203
30
0
41
1
10
22.0769281549986
20
2.58077551609648
30
0
41
1
10
22.6612953358185
20
2.35288076196099
30
0
41
1
10
23.5382780799952
20
1.99534089143094
30
0
41
1
10
23.9768771523537
20
1.8126483326385
30
0
41
1
10
24.4160531011471
20
1.62488648490955
30
0
41
1
10
24.7090116717345
20
1.49867794879321
30
0
41
1
10
24.8556248456875
20
1.43503622406646
30
0
41
1
10
25.5887178231885
20
1.1147058229862
30
0
41
1
10
26.1735262834359
20
0.852426323336431
30
0
41
1
10
27.342771931903
20
0.322295102485811
30
0
41
1
10
27.9272070534461
20
0.0544388781288774
30
0
41
1
10
28.659361767797
20
-0.279816573368862
30
0
41
1
10
28.8058733179573
20
-0.346639168118884
30
0
41
1
10
29.0991041605188
20
-0.480124741754537
30
0
41
1
10
29.2457240806831
20
-0.546742305289598
30
0
41
1
10
29.6851699418594
20
-0.74584235003465
30
0
41
1
10
29.9777833418344
20
-0.877663440742822
30
0
41
1
10
30.8551274655729
20
-1.26920282295512
30
0
41
1
10
31.4393618197021
20
-1.52499406395577
30
0
41
1
10
32.3169321075659
20
-1.89617129669014
30
0
41
1
10
32.6096586401907
20
-2.01781309470451
30
0
41
1
10
33.0493312598408
20
-2.19657273846124
30
0
41
1
10
33.196024311696
20
-2.25555670353097
30
0
41
1
10
33.489093016686
20
-2.37197492134004
30
0
41
1
10
34.2212928598356
20
-2.65928188672166
30
0
41
1
10
34.951715778133
20
-2.92683116045251
30
0
41
1
10
35.8287304795277
20
-3.22511489631506
30
0
41
1
10
36.2673643599503
20
-3.3685665182843
30
0
41
1
10
36.7066035048886
20
-3.50279654444341
30
0
41
1
10
36.999610543462
20
-3.59015928248735
30
0
41
1
10
37.1462737636388
20
-3.63279795628648
30
0
41
1
10
37.5656693792705
20
-3.75149281118439
30
0
41
1
10
37.8381247748269
20
-3.82468545493612
30
0
41
1
10
38.1103795702107
20
-3.89370016133699
30
0
0
SPLINE
5
D2
100
AcDbEntity
8
1
62
256
6
ByLayer
370
18
48
1
60
0
100
AcDbSpline
70
4
71
3
72
26
73
22
40
0
40
0
40
0
40
0
40
0.125000000000005
40
0.125000000000005
40
0.25000000000001
40
0.25000000000001
40
0.375000000000015
40
0.375000000000015
40
0.437500000000012
40
0.437500000000012
40
0.500000000000008
40
0.500000000000008
40
0.625000000000015
40
0.625000000000015
40
0.750000000000023
40
0.750000000000023
40
0.812500000000017
40
0.812500000000017
40
0.875000000000011
40
0.875000000000011
40
1
40
1
40
1
40
1
41
1
10
47.6210018460231
20
-0.545136353011372
30
0
41
1
10
47.6215014604078
20
-0.584596287446828
30
0
41
1
10
47.6255057009391
20
-0.623826198723208
30
0
41
1
10
47.6387879496892
20
-0.702096423934421
30
0
41
1
10
47.6480846298881
20
-0.741133826750286
30
0
41
1
10
47.6709951179897
20
-0.819248475276453
30
0
41
1
10
47.6846165387085
20
-0.85832319896943
30
0
41
1
10
47.7078301399938
20
-0.917169612747443
30
0
41
1
10
47.7160502333194
20
-0.936859354620196
30
0
41
1
10
47.7332178072469
20
-0.976039576302298
30
0
41
1
10
47.7421763191575
20
-0.995561599049438
30
0
41
1
10
47.7700643861997
20
-1.05400968572371
30
0
41
1
10
47.7900039647824
20
-1.09281122972595
30
0
41
1
10
47.8320795906461
20
-1.17064656751378
30
0
41
1
10
47.8542172000587
20
-1.20967062235633
30
0
41
1
10
47.8887467507165
20
-1.26903086104713
30
0
41
1
10
47.9004938079138
20
-1.2889851464441
30
0
41
1
10
47.923991658145
20
-1.32869292599494
30
0
41
1
10
47.9357822665537
20
-1.34851621359519
30
0
41
1
10
47.9710934875602
20
-1.40799946640956
30
0
41
1
10
47.9945293127736
20
-1.4476875175923
30
0
41
1
10
48.0174942401136
20
-1.48760746795426
30
0
0
SPLINE
5
D3
100
AcDbEntity
8
1
62
256
6
ByLayer
370
18
48
1
60
0
100
AcDbSpline
70
4
71
3
72
38
73
34
40
0
40
0
40
0
40
0
40
0.0624999999999884
40
0.0624999999999884
40
0.124999999999977
40
0.124999999999977
40
0.249999999999964
40
0.249999999999964
40
0.312499999999963
40
0.312499999999963
40
0.343749999999962
40
0.343749999999962
40
0.374999999999962
40
0.374999999999962
40
0.499999999999969
40
0.499999999999969
40
0.624999999999977
40
0.624999999999977
40
0.687499999999985
40
0.687499999999985
40
0.718749999999985
40
0.718749999999985
40
0.749999999999985
40
0.749999999999985
40
0.812499999999986
40
0.812499999999986
40
0.874999999999986
40
0.874999999999986
40
0.90624999999999
40
0.90624999999999
40
0.937499999999993
40
0.937499999999993
40
1
40
1
40
1
40
1
41
1
10
45.9091003299063
20
7.63378887315133
30
0
41
1
10
45.9631111314465
20
7.63335647585583
30
0
41
1
10
46.0169151083861
20
7.63099100275724
30
0
41
1
10
46.1241696105974
20
7.62265317791775
30
0
41
1
10
46.1776173237301
20
7.61665826331267
30
0
41
1
10
46.3374334383674
20
7.59309624151601
30
0
41
1
10
46.4432987750965
20
7.5700841561991
30
0
41
1
10
46.6010259273627
20
7.52449127510715
30
0
41
1
10
46.6534189288748
20
7.50742794634161
30
0
41
1
10
46.7316963780844
20
7.47893246483025
30
0
41
1
10
46.7577539762722
20
7.46894234463647
30
0
41
1
10
46.8094164439733
20
7.44811654321381
30
0
41
1
10
46.8350623526972
20
7.4372663191771
30
0
41
1
10
46.9623511969422
20
7.38084424225087
30
0
41
1
10
47.0612163441981
20
7.32881918217643
30
0
41
1
10
47.2519545559104
20
7.21039453066334
30
0
41
1
10
47.3438803172775
20
7.14408503126262
30
0
41
1
10
47.4749170539267
20
7.03256637985277
30
0
41
1
10
47.5174616874132
20
6.99340935986882
30
0
41
1
10
47.5792155990262
20
6.9313636217237
30
0
41
1
10
47.5994803395466
20
6.91009306839527
30
0
41
1
10
47.6389065542326
20
6.86676121691201
30
0
41
1
10
47.658113245954
20
6.84466942866248
30
0
41
1
10
47.7141031152791
20
6.77707371457936
30
0
41
1
10
47.7492612071136
20
6.73025190308439
30
0
41
1
10
47.8146534430928
20
6.63293516950921
30
0
41
1
10
47.8448873861551
20
6.58243851780676
30
0
41
1
10
47.8859123808169
20
6.50370841248107
30
0
41
1
10
47.8988643550641
20
6.47696650579374
30
0
41
1
10
47.9231976168894
20
6.42244216058143
30
0
41
1
10
47.9345048696011
20
6.39482175207169
30
0
41
1
10
47.9655781384116
20
6.31121883249463
30
0
41
1
10
47.9825616410544
20
6.25435766114788
30
0
41
1
10
47.9955312935472
20
6.19642802258267
30
0
0
SPLINE
5
D4
100
AcDbEntity
8
1
62
256
6
ByLayer
370
18
48
1
60
0
100
AcDbSpline
70
4
71
3
72
8
73
4
40
0
40
0
40
0
40
0
40
1
40
1
40
1
40
1
41
1
10
45.8370927998179
20
7.61880986810922
30
0
41
1
10
45.8611063051263
20
7.62411854310685
30
0
41
1
10
45.8851079438977
20
7.62911143161963
30
0
41
1
10
45.9091003299064
20
7.63378887315136
30
0
0
SPLINE
5
D5
100
AcDbEntity
8
1
62
256
6
ByLayer
370
18
48
1
60
0
100
AcDbSpline
70
4
71
3
72
8
73
4
40
0
40
0
40
0
40
0
40
1
40
1
40
1
40
1
41
1
10
45.8165648926632
20
7.61426331652123
30
0
41
1
10
45.8234077396742
20
7.61578169474785
30
0
41
1
10
45.8302503768302
20
7.61729721098683
30
0
41
1
10
45.837092799818
20
7.61880986810922
30
0
0
SPLINE
5
D6
100
AcDbEntity
8
1
62
256
6
ByLayer
370
18
48
1
60
0
100
AcDbSpline
70
4
71
3
72
8
73
4
40
0
40
0
40
0
40
0
40
1
40
1
40
1
40
1
41
1
10
45.816564892666
20
7.61426331652186
30
0
41
1
10
45.8092278670708
20
7.6126352836439
30
0
41
1
10
45.8019007012576
20
7.61162919402599
30
0
41
1
10
45.7945851166251
20
7.61125764089454
30
0
0
SPLINE
5
D7
100
AcDbEntity
8
1
62
256
6
ByLayer
370
18
48
1
60
0
100
AcDbSpline
70
4
71
3
72
16
73
12
40
0
40
0
40
0
40
0
40
0.245959189107068
40
0.245959189107068
40
0.434469391830299
40
0.434469391830299
40
0.528724493191873
40
0.528724493191873
40
0.622979594553448
40
0.622979594553448
40
1
40
1
40
1
40
1
41
1
10
44.9901202651846
20
4.79068101288752
30
0
41
1
10
45.0236009724038
20
4.8023400329962
30
0
41
1
10
45.0578128704652
20
4.81415528192818
30
0
41
1
10
45.1195737415285
20
4.83493506644058
30
0
41
1
10
45.1468243916334
20
4.84392404369657
30
0
41
1
10
45.1884441493738
20
4.85722501235679
30
0
41
1
10
45.2024804092864
20
4.8616400024498
30
0
41
1
10
45.2305979905873
20
4.8703171165981
30
0
41
1
10
45.2446693210265
20
4.87457664358499
30
0
41
1
10
45.3151033740923
20
4.89542935820822
30
0
41
1
10
45.3716990759655
20
4.91068841760946
30
0
41
1
10
45.4287220735474
20
4.92389155239658
30
0
0
SPLINE
5
D8
100
AcDbEntity
8
1
62
256
6
ByLayer
370
18
48
1
60
0
100
AcDbSpline
70
4
71
3
72
30
73
26
40
0
40
0
40
0
40
0
40
0.0624999999999926
40
0.0624999999999926
40
0.0937499999999889
40
0.0937499999999889
40
0.124999999999985
40
0.124999999999985
40
0.249999999999959
40
0.249999999999959
40
0.281249999999952
40
0.281249999999952
40
0.312499999999946
40
0.312499999999946
40
0.374999999999945
40
0.374999999999945
40
0.499999999999956
40
0.499999999999956
40
0.624999999999967
40
0.624999999999967
40
0.749999999999978
40
0.749999999999978
40
0.874999999999989
40
0.874999999999989
40
1
40
1
40
1
40
1
41
1
10
47.9955312935472
20
6.19642802258264
30
0
41
1
10
47.9602528759568
20
6.14575536199285
30
0
41
1
10
47.9218895348252
20
6.09720336640359
30
0
41
1
10
47.8602949969832
20
6.02715913354078
30
0
41
1
10
47.8391309240935
20
6.00434544737055
30
0
41
1
10
47.7959508307816
20
5.96005933047451
30
0
41
1
10
47.773886871009
20
5.93853149116973
30
0
41
1
10
47.6613888908036
20
5.83371994134555
30
0
41
1
10
47.5644820228164
20
5.7588390784959
30
0
41
1
10
47.4371297942512
20
5.6733108479788
30
0
41
1
10
47.4113447327427
20
5.65661362623283
30
0
41
1
10
47.3591921567036
20
5.62397530498535
30
0
41
1
10
47.3327911898331
20
5.60801481821281
30
0
41
1
10
47.2530164854677
20
5.56132382516219
30
0
41
1
10
47.1992575803996
20
5.53188065339018
30
0
41
1
10
47.0365654292141
20
5.44769136973053
30
0
41
1
10
46.9262337199368
20
5.39703584302128
30
0
41
1
10
46.7029254010115
20
5.30346127531419
30
0
41
1
10
46.589939326948
20
5.26056991827591
30
0
41
1
10
46.361976252458
20
5.1806107783236
30
0
41
1
10
46.2469950078967
20
5.1435554097481
30
0
41
1
10
46.0154791173696
20
5.07398846105187
30
0
41
1
10
45.8989416152704
20
5.04148523528499
30
0
41
1
10
45.6646248909486
20
4.98011088653462
30
0
41
1
10
45.5467360725835
20
4.95121657566997
30
0
41
1
10
45.4287220735539
20
4.92389155239809
30
0
0
SPLINE
5
D9
100
AcDbEntity
8
1
62
256
6
ByLayer
370
18
48
1
60
0
100
AcDbSpline
70
4
71
3
72
11
73
7
40
0
40
0
40
0
40
0
40
0.261643108486537
40
0.523286216973075
40
0.784929325459613
40
1
40
1
40
1
40
1
41
1
10
45.7945838634403
20
7.61120706090009
30
0
41
1
10
45.4738069396958
20
7.53402784049217
30
0
41
1
10
44.8322530922071
20
7.35724421132542
30
0
41
1
10
43.8699223209736
20
7.02713280149035
30
0
41
1
10
42.9646897939057
20
6.65826579290626
30
0
41
1
10
42.3802341905822
20
6.38770921068712
30
0
41
1
10
42.1165555110031
20
6.25942031589045
30
0
0
SPLINE
5
DA
100
AcDbEntity
8
1
62
256
6
ByLayer
370
18
48
1
60
0
100
AcDbSpline
70
4
71
3
72
11
73
7
40
0
40
0
40
0
40
0
40
0.0681784199413549
40
0.378785613294236
40
0.689392806647118
40
1
40
1
40
1
40
1
41
1
10
18.0982235388109
20
-7.93887233960385
30
0
41
1
10
18.027812858432
20
-7.94566041937321
30
0
41
1
10
17.6366252543087
20
-7.98024535331919
30
0
41
1
10
16.9246607264409
20
-8.01145998762138
30
0
41
1
10
15.9623299552076
20
-7.98294149152824
30
0
41
1
10
15.3207761077187
20
-7.91695699621371
30
0
41
1
10
14.9999991839743
20
-7.87236728763784
30
0
0
SPLINE
5
DB
100
AcDbEntity
8
1
62
256
6
ByLayer
370
18
48
1
60
0
100
AcDbSpline
70
4
71
3
72
16
73
12
40
0
40
0
40
0
40
0
40
0.222562258102759
40
0.222562258102759
40
0.445124516205517
40
0.445124516205517
40
0.667686774308275
40
0.667686774308275
40
0.890249032411034
40
0.890249032411034
40
1
40
1
40
1
40
1
41
1
10
2.60602215707297
20
-7.17945501339517
30
0
41
1
10
2.97072084120612
20
-7.03395084515813
30
0
41
1
10
3.33852965072339
20
-6.89037661093317
30
0
41
1
10
4.08157085679443
20
-6.60831986463597
30
0
41
1
10
4.45680617314054
20
-6.46983231621863
30
0
41
1
10
5.21601289515084
20
-6.19996558960614
30
0
41
1
10
5.59998930253022
20
-6.06858459027515
30
0
41
1
10
6.37797968847266
20
-5.81585639022978
30
0
41
1
10
6.77200061260498
20
-5.6945129073747
30
0
41
1
10
7.36864544461611
20
-5.52367056455898
30
0
41
1
10
7.56705289059539
20
-5.46893394287571
30
0
41
1
10
7.76685806756905
20
-5.41615164806277
30
0
0
SPLINE
5
DC
100
AcDbEntity
8
1
62
256
6
ByLayer
370
18
48
1
60
0
100
AcDbSpline
70
4
71
3
72
9
73
5
40
0
40
0
40
0
40
0
40
0.17626122722879
40
1
40
1
40
1
40
1
41
1
10
9.35022299916503
20
-5.9833940258406
30
0
41
1
10
9.27788659564976
20
-6.04885973603612
30
0
41
1
10
8.86858141850905
20
-6.43007507182074
30
0
41
1
10
8.46248572881441
20
-6.86156346694094
30
0
41
1
10
8.1145130737911
20
-7.19925843377169
30
0
0
SPLINE
5
DD
100
AcDbEntity
8
1
62
256
6
ByLayer
370
18
48
1
60
0
100
AcDbSpline
70
4
71
3
72
8
73
4
40
0
40
0
40
0
40
0
40
1
40
1
40
1
40
1
41
1
10
48.1316957168671
20
3.15425708129567
30
0
41
1
10
48.1374044697238
20
3.142488174373
30
0
41
1
10
48.1430924130525
20
3.13079588882022
30
0
41
1
10
48.1487579964282
20
3.11918593335338
30
0
0
SPLINE
5
DE
100
AcDbEntity
8
1
62
256
6
ByLayer
370
18
48
1
60
0
100
AcDbSpline
70
4
71
3
72
18
73
14
40
0
40
0
40
0
40
0
40
0.320276963254298
40
0.320276963254298
40
0.660138481627155
40
0.660138481627155
40
0.83006924081358
40
0.83006924081358
40
0.872551930610184
40
0.872551930610184
40
0.915034620406787
40
0.915034620406787
40
1
40
1
40
1
40
1
41
1
10
45.6431713726568
20
4.40767326305749
30
0
41
1
10
45.9015454547019
20
4.32608600622842
30
0
41
1
10
46.1623020665457
20
4.22763867215122
30
0
41
1
10
46.7046561937991
20
3.99007768102413
30
0
41
1
10
46.986543993842
20
3.8489098119592
30
0
41
1
10
47.413344239618
20
3.60907441952264
30
0
41
1
10
47.5562718202504
20
3.52445288161792
30
0
41
1
10
47.7357481037405
20
3.4128957835093
30
0
41
1
10
47.7716841824459
20
3.39029548515075
30
0
41
1
10
47.8436376690491
20
3.34451935881575
30
0
41
1
10
47.8796659993141
20
3.32133625543776
30
0
41
1
10
47.9877021991473
20
3.25103920805421
30
0
41
1
10
48.0597079296418
20
3.20314839341358
30
0
41
1
10
48.1316957168671
20
3.15425708129567
30
0
0
SPLINE
5
DF
100
AcDbEntity
8
1
62
256
6
ByLayer
370
18
48
1
60
0
100
AcDbSpline
70
4
71
3
72
8
73
4
40
0
40
0
40
0
40
0
40
1
40
1
40
1
40
1
41
1
10
48.1487579964258
20
3.11918593335559
30
0
41
1
10
48.3121952424743
20
2.56854375422347
30
0
41
1
10
48.4756184907743
20
2.01788561166697
30
0
41
1
10
48.6390302027321
20
1.46721431274989
30
0
0
SPLINE
5
E0
100
AcDbEntity
8
1
62
256
6
ByLayer
370
18
48
1
60
0
100
AcDbSpline
70
4
71
3
72
38
73
34
40
0
40
0
40
0
40
0
40
0.124999999999968
40
0.124999999999968
40
0.187499999999953
40
0.187499999999953
40
0.218749999999945
40
0.218749999999945
40
0.249999999999938
40
0.249999999999938
40
0.374999999999909
40
0.374999999999909
40
0.437499999999897
40
0.437499999999897
40
0.468749999999895
40
0.468749999999895
40
0.499999999999893
40
0.499999999999893
40
0.624999999999903
40
0.624999999999903
40
0.656249999999909
40
0.656249999999909
40
0.687499999999914
40
0.687499999999914
40
0.749999999999927
40
0.749999999999927
40
0.87499999999995
40
0.87499999999995
40
0.906249999999959
40
0.906249999999959
40
0.937499999999969
40
0.937499999999969
40
1
40
1
40
1
40
1
41
1
10
48.1487579964281
20
3.11918593335341
30
0
41
1
10
48.1541237961739
20
3.09096063421274
30
0
41
1
10
48.1542858947528
20
3.06557856878035
30
0
41
1
10
48.1457876337413
20
3.03318335043767
30
0
41
1
10
48.1414819651273
20
3.02333702968212
30
0
41
1
10
48.1326758153259
20
3.01019990046259
30
0
41
1
10
48.1293482275304
20
3.0060935002482
30
0
41
1
10
48.1218728196114
20
2.99846849307045
30
0
41
1
10
48.1177378534322
20
2.99496543495613
30
0
41
1
10
48.095138833568
20
2.9791465031191
30
0
41
1
10
48.0708024583321
20
2.97183332226413
30
0
41
1
10
48.0241557725463
20
2.97030178274895
30
0
41
1
10
48.0069156378062
20
2.97136579512701
30
0
41
1
10
47.9783476656804
20
2.97556067018218
30
0
41
1
10
47.9683596199111
20
2.97739769336192
30
0
41
1
10
47.9477013687618
20
2.98191836700528
30
0
41
1
10
47.937005466623
20
2.98460474965214
30
0
41
1
10
47.8817244011947
20
3.00016091713195
30
0
41
1
10
47.8317878200156
20
3.01937146627608
30
0
41
1
10
47.7624070363889
20
3.05193371451807
30
0
41
1
10
47.7481801963374
20
3.05887618709718
30
0
41
1
10
47.719025356373
20
3.07361507137006
30
0
41
1
10
47.7040575281847
20
3.08143277720134
30
0
41
1
10
47.6584241319079
20
3.10597943225181
30
0
41
1
10
47.6270970937461
20
3.12375720933758
30
0
41
1
10
47.5306001181509
20
3.18091495998613
30
0
41
1
10
47.4629393018793
20
3.22409136956148
30
0
41
1
10
47.374509774148
20
3.28350577793975
30
0
41
1
10
47.3566078372018
20
3.29567831780102
30
0
41
1
10
47.3206946461586
20
3.32036443416109
30
0
41
1
10
47.3026523847654
20
3.33289838779828
30
0
41
1
10
47.2482786325369
20
3.37103481476544
30
0
41
1
10
47.2117014020402
20
3.39717032445318
30
0
41
1
10
47.1748064045617
20
3.42393801274901
30
0
0
SPLINE
5
E1
100
AcDbEntity
8
1
62
256
6
ByLayer
370
18
48
1
60
0
100
AcDbSpline
70
4
71
3
72
8
73
4
40
0
40
0
40
0
40
0
40
1
40
1
40
1
40
1
41
1
10
13.6184203065094
20
-6.35971349039775
30
0
41
1
10
13.8001889635901
20
-6.32145272145524
30
0
41
1
10
13.9879982349311
20
-6.28782500809945
30
0
41
1
10
14.180727092965
20
-6.26008315598727
30
0
0
SPLINE
5
E2
100
AcDbEntity
8
1
62
256
6
ByLayer
370
18
48
1
60
0
100
AcDbSpline
70
4
71
3
72
48
73
44
40
0
40
0
40
0
40
0
40
0.0194369136883702
40
0.0194369136883702
40
0.0412272044952978
40
0.0412272044952978
40
0.128388367723001
40
0.128388367723001
40
0.215549530950705
40
0.215549530950705
40
0.302710694178408
40
0.302710694178408
40
0.34629127579226
40
0.34629127579226
40
0.389871857406112
40
0.389871857406112
40
0.433452439019963
40
0.433452439019963
40
0.477033020633815
40
0.477033020633815
40
0.487928166037276
40
0.487928166037276
40
0.498823311440737
40
0.498823311440737
40
0.52061360224766
40
0.52061360224766
40
0.564194183861507
40
0.564194183861507
40
0.651355347089204
40
0.651355347089204
40
0.738516510316901
40
0.738516510316901
40
0.78209709193075
40
0.78209709193075
40
0.8256776735446
40
0.8256776735446
40
0.912838836772298
40
0.912838836772298
40
0.956419418386149
40
0.956419418386149
40
0.978209709193074
40
0.978209709193074
40
1
40
1
40
1
40
1
41
1
10
25.9986685440745
20
-6.5678936564442
30
0
41
1
10
25.9214109597907
20
-6.59760665350044
30
0
41
1
10
25.8441303591277
20
-6.62676521890151
30
0
41
1
10
25.6804806651211
20
-6.68730569746464
30
0
41
1
10
25.5940887262312
20
-6.71855127312159
30
0
41
1
10
25.1625824221935
20
-6.87104421250388
30
0
41
1
10
24.8188205685374
20
-6.98111704491143
30
0
41
1
10
24.133041255073
20
-7.17683637152055
30
0
41
1
10
23.7910167299929
20
-7.26248467938541
30
0
41
1
10
23.1073891266444
20
-7.40931286886652
30
0
41
1
10
22.7658073800506
20
-7.47042904973631
30
0
41
1
10
22.252881648315
20
-7.54325041582086
30
0
41
1
10
22.0818115206648
20
-7.56439109659541
30
0
41
1
10
21.7393125503774
20
-7.60045891713438
30
0
41
1
10
21.567893970957
20
-7.61532854290292
30
0
41
1
10
21.224576002983
20
-7.6385296070483
30
0
41
1
10
21.0526703247408
20
-7.64690015852841
30
0
41
1
10
20.7081906360276
20
-7.65724787886288
30
0
41
1
10
20.5356162265022
20
-7.65924108565082
30
0
41
1
10
20.3193864853436
20
-7.65763760812237
30
0
41
1
10
20.2761149393739
20
-7.65711174009124
30
0
41
1
10
20.189518138108
20
-7.65564654068623
30
0
41
1
10
20.1461840109666
20
-7.65470680150605
30
0
41
1
10
20.0163158065747
20
-7.65126928019049
30
0
41
1
10
19.9298478849622
20
-7.64815125804657
30
0
41
1
10
19.6707478063312
20
-7.63632719303021
30
0
41
1
10
19.4984167688294
20
-7.62515703552413
30
0
41
1
10
18.9823188518952
20
-7.5821519855061
30
0
41
1
10
18.6394098121556
20
-7.54098727072639
30
0
41
1
10
17.9549351489862
20
-7.43330719355302
30
0
41
1
10
17.6133226526315
20
-7.36694526393524
30
0
41
1
10
17.1008746255999
20
-7.24926801721139
30
0
41
1
10
16.9300523312532
20
-7.20703238900296
30
0
41
1
10
16.5882648067436
20
-7.11648420338648
30
0
41
1
10
16.4173101331832
20
-7.06810231602463
30
0
41
1
10
15.9039700891642
20
-6.91406031652741
30
0
41
1
10
15.5610817867801
20
-6.79976924910096
30
0
41
1
10
15.0449238511031
20
-6.61057298729986
30
0
41
1
10
14.8725710227528
20
-6.54448602020045
30
0
41
1
10
14.6134607567017
20
-6.44085076060219
30
0
41
1
10
14.5269923890647
20
-6.40557166466712
30
0
41
1
10
14.3538347981805
20
-6.33361365419168
30
0
41
1
10
14.267167868884
20
-6.29693802818295
30
0
41
1
10
14.1805649660702
20
-6.25963277769347
30
0
0
SPLINE
5
E3
100
AcDbEntity
8
1
62
256
6
ByLayer
370
18
48
1
60
0
100
AcDbSpline
70
4
71
3
72
32
73
28
40
0
40
0
40
0
40
0
40
0.125000000000001
40
0.125000000000001
40
0.187500000000001
40
0.187500000000001
40
0.218749999999988
40
0.218749999999988
40
0.249999999999975
40
0.249999999999975
40
0.37499999999998
40
0.37499999999998
40
0.437499999999982
40
0.437499999999982
40
0.499999999999984
40
0.499999999999984
40
0.624999999999988
40
0.624999999999988
40
0.68749999999999
40
0.68749999999999
40
0.749999999999992
40
0.749999999999992
40
0.874999999999996
40
0.874999999999996
40
0.937499999999998
40
0.937499999999998
40
1
40
1
40
1
40
1
41
1
10
41.717261361653
20
1.08976769476169
30
0
41
1
10
41.6990455113202
20
1.13064564563004
30
0
41
1
10
41.6765978660318
20
1.16884938701233
30
0
41
1
10
41.6371994342877
20
1.22245903897613
30
0
41
1
10
41.6231033911761
20
1.23970717471573
30
0
41
1
10
41.6005282549563
20
1.26464540944724
30
0
41
1
10
41.5927426706719
20
1.27282333453343
30
0
41
1
10
41.576813308946
20
1.28874536913682
30
0
41
1
10
41.5686753501669
20
1.29648641338417
30
0
41
1
10
41.5271515775078
20
1.33412956260054
30
0
41
1
10
41.4912848281756
20
1.36086907998879
30
0
41
1
10
41.433857450214
20
1.39632664801164
30
0
41
1
10
41.4140196097982
20
1.407406922528
30
0
41
1
10
41.3736427678689
20
1.42778061652533
30
0
41
1
10
41.353114458389
20
1.43708094849384
30
0
41
1
10
41.2905666937967
20
1.46248261691682
30
0
41
1
10
41.2475931648496
20
1.47610526077318
30
0
41
1
10
41.1812756381626
20
1.49180345780641
30
0
41
1
10
41.1588445540248
20
1.49623558550726
30
0
41
1
10
41.1140532649793
20
1.50340205477883
30
0
41
1
10
41.0916065815009
20
1.5061593070468
30
0
41
1
10
41.0241131926013
20
1.51200804448342
30
0
41
1
10
40.9789149458845
20
1.51270384431223
30
0
41
1
10
40.9107823475793
20
1.50869775189216
30
0
41
1
10
40.8879431324269
20
1.50650186411789
30
0
41
1
10
40.8426376212591
20
1.50035648177746
30
0
41
1
10
40.8201476669166
20
1.49641183766389
30
0
41
1
10
40.7978307357248
20
1.49154808954242
30
0
0
SPLINE
5
E4
100
AcDbEntity
8
1
62
256
6
ByLayer
370
18
48
1
60
0
100
AcDbSpline
70
4
71
3
72
33
73
29
40
0
40
0
40
0
40
0
40
0.062499999999997
40
0.062499999999997
40
0.124999999999994
40
0.124999999999994
40
0.187499999999991
40
0.187499999999991
40
0.249999999999988
40
0.249999999999988
40
0.312499999999985
40
0.312499999999985
40
0.374999999999982
40
0.374999999999982
40
0.499999999999976
40
0.499999999999976
40
0.562499999999972
40
0.562499999999972
40
0.624999999999969
40
0.624999999999969
40
0.749999999999961
40
0.749999999999961
40
0.781249999999966
40
0.781249999999966
40
0.812499999999971
40
0.874999999999981
40
0.874999999999981
40
1
40
1
40
1
40
1
41
1
10
44.4057512671294
20
-0.123236232868066
30
0
41
1
10
44.4097398896065
20
-0.0928378467656046
30
0
41
1
10
44.415599308293
20
-0.063039946052811
30
0
41
1
10
44.4305300045194
20
-0.0045052435378068
30
0
41
1
10
44.439598389069
20
0.0242322394207974
30
0
41
1
10
44.460700752066
20
0.0807070496311439
30
0
41
1
10
44.4727536894316
20
0.108458744153722
30
0
41
1
10
44.4998614295418
20
0.162867544959113
30
0
41
1
10
44.5146786060361
20
0.189051300222559
30
0
41
1
10
44.5467082278643
20
0.239478887724829
30
0
41
1
10
44.5639191637428
20
0.26372324049558
30
0
41
1
10
44.6006870878444
20
0.310306828928617
30
0
41
1
10
44.6202741837787
20
0.332676762928429
30
0
41
1
10
44.6824490647353
20
0.396680843650728
30
0
41
1
10
44.7272264405971
20
0.434058276655378
30
0
41
1
10
44.7992510806118
20
0.482653462041412
30
0
41
1
10
44.8240795952275
20
0.497594268075687
30
0
41
1
10
44.8754585661446
20
0.524914288211363
30
0
41
1
10
44.9016925213012
20
0.537118450907855
30
0
41
1
10
44.9815849566009
20
0.569356992139546
30
0
41
1
10
45.0366193633405
20
0.585147960227232
30
0
41
1
10
45.1078198956953
20
0.598038783646388
30
0
41
1
10
45.1222184676352
20
0.600276623801733
30
0
41
1
10
45.1510411099884
20
0.604035147676967
30
0
41
1
10
45.1943134211559
20
0.608603970457636
30
0
41
1
10
45.2377218555489
20
0.610095983445632
30
0
41
1
10
45.3247716739181
20
0.609239711531416
30
0
41
1
10
45.3831162769696
20
0.603565792208826
30
0
41
1
10
45.441895386616
20
0.59321709542408
30
0
0
SPLINE
5
E5
100
AcDbEntity
8
1
62
256
6
ByLayer
370
18
48
1
60
0
100
AcDbSpline
70
4
71
3
72
32
73
28
40
0
40
0
40
0
40
0
40
0.0624999999999929
40
0.0624999999999929
40
0.0937499999999893
40
0.0937499999999893
40
0.124999999999986
40
0.124999999999986
40
0.249999999999962
40
0.249999999999962
40
0.281249999999962
40
0.281249999999962
40
0.312499999999961
40
0.312499999999961
40
0.374999999999961
40
0.374999999999961
40
0.499999999999971
40
0.499999999999971
40
0.624999999999982
40
0.624999999999982
40
0.749999999999992
40
0.749999999999992
40
0.875000000000003
40
0.875000000000003
40
0.937500000000002
40
0.937500000000002
40
1
40
1
40
1
40
1
41
1
10
47.9955312935471
20
0.172686844929103
30
0
41
1
10
47.9604169665357
20
0.177050612862274
30
0
41
1
10
47.9222460219061
20
0.182073504885153
30
0
41
1
10
47.8609759715601
20
0.19047333634802
30
0
41
1
10
47.8399208417058
20
0.193413388245574
30
0
41
1
10
47.7969679519059
20
0.199507638850918
30
0
41
1
10
47.7750214368232
20
0.202668479921982
30
0
41
1
10
47.6631275080878
20
0.218995543276492
30
0
41
1
10
47.5667567136776
20
0.233715660504629
30
0
41
1
10
47.4401136074895
20
0.253610731602606
30
0
41
1
10
47.4144723809655
20
0.257665368892276
30
0
41
1
10
47.3626110305703
20
0.265914685872531
30
0
41
1
10
47.3363637149217
20
0.270113743428595
30
0
41
1
10
47.2570003046172
20
0.28287616149845
30
0
41
1
10
47.2035181974945
20
0.291563211444838
30
0
41
1
10
47.0416620118382
20
0.318064099113826
30
0
41
1
10
46.9318950640298
20
0.336312373907589
30
0
41
1
10
46.7097253512538
20
0.37363103703251
30
0
41
1
10
46.5973131908297
20
0.392704355814203
30
0
41
1
10
46.3705039903278
20
0.431470078972467
30
0
41
1
10
46.2561027337471
20
0.45116379847974
30
0
41
1
10
46.0257510288565
20
0.491034431667202
30
0
41
1
10
45.9097977820631
20
0.511212218195908
30
0
41
1
10
45.7349385790254
20
0.54176875766899
30
0
41
1
10
45.6764966356421
20
0.552002784620754
30
0
41
1
10
45.5593325622435
20
0.57255822896326
30
0
41
1
10
45.5006213442752
20
0.582877756620491
30
0
41
1
10
45.441895386616
20
0.59321709542408
30
0
0
SPLINE
5
E6
100
AcDbEntity
8
1
62
256
6
ByLayer
370
18
48
1
60
0
100
AcDbSpline
70
4
71
3
72
8
73
4
40
0
40
0
40
0
40
0
40
1
40
1
40
1
40
1
41
1
10
45.8165648926632
20
1.91008052872576
30
0
41
1
10
45.8234077396742
20
1.90489261288025
30
0
41
1
10
45.8302503768301
20
1.89970376362189
30
0
41
1
10
45.8370927998179
20
1.89451398141407
30
0
0
SPLINE
5
E7
100
AcDbEntity
8
1
62
256
6
ByLayer
370
18
48
1
60
0
100
AcDbSpline
70
4
71
3
72
8
73
4
40
0
40
0
40
0
40
0
40
1
40
1
40
1
40
1
41
1
10
48.8308645400193
20
-0.0406782157662917
30
0
41
1
10
48.770381373952
20
0.427603755584698
30
0
41
1
10
48.7098982078848
20
0.89588572693566
30
0
41
1
10
48.6494150418175
20
1.36416769828665
30
0
0
SPLINE
5
E8
100
AcDbEntity
8
1
62
256
6
ByLayer
370
18
48
1
60
0
100
AcDbSpline
70
4
71
3
72
14
73
10
40
0
40
0
40
0
40
0
40
0.250000000000002
40
0.250000000000002
40
0.375000000000003
40
0.375000000000003
40
0.500000000000004
40
0.500000000000004
40
1
40
1
40
1
40
1
41
1
10
48.6390098621761
20
1.46715016450651
30
0
41
1
10
48.6418968720613
20
1.4523240042856
30
0
41
1
10
48.6443692004101
20
1.43874543828096
30
0
41
1
10
48.6473593750871
20
1.42053869149726
30
0
41
1
10
48.6482361360415
20
1.41483069458838
30
0
41
1
10
48.6497301996048
20
1.4041952967286
30
0
41
1
10
48.6503490660499
20
1.39925152114444
30
0
41
1
10
48.6527164760545
20
1.3768798585491
30
0
41
1
10
48.6522961324466
20
1.36651772203041
30
0
41
1
10
48.6494150418225
20
1.36416769825141
30
0
0
SPLINE
5
E9
100
AcDbEntity
8
1
62
256
6
ByLayer
370
18
48
1
60
0
100
AcDbSpline
70
4
71
3
72
75
73
71
40
0
40
0
40
0
40
0
40
0.0153834481094209
40
0.0308072185272431
40
0.0462703815652439
40
0.0617720305950765
40
0.0773112836183552
40
0.0928872772026827
40
0.108499155022681
40
0.124146051129935
40
0.139827076521003
40
0.155541329195913
40
0.171287920397205
40
0.187065990834443
40
0.202874704702015
40
0.218713237021941
40
0.234580766544267
40
0.250476475877465
40
0.266399553250728
40
0.28234919509174
40
0.372122542613218
40
0.464912264842561
40
0.560570130743079
40
0.658964434771051
40
0.665423008713875
40
0.671924873809872
40
0.678469964880403
40
0.685058217203908
40
0.691689566548744
40
0.698363949206799
40
0.705081302027676
40
0.711841562453698
40
0.718644668555734
40
0.725490559069953
40
0.732379173435482
40
0.739310451833201
40
0.746284335225645
40
0.753300765397845
40
0.76035968499675
40
0.767461037567958
40
0.774604767591894
40
0.781790820520266
40
0.789019142812614
40
0.796289681972948
40
0.803602386586627
40
0.810957206357292
40
0.818354092144041
40
0.825792995998636
40
0.833273871202983
40
0.840796672306719
40
0.848361355164966
40
0.855967876976263
40
0.863616196320732
40
0.871306273198389
40
0.879038069067734
40
0.886811546884531
40
0.894626671140854
40
0.902483407904428
40
0.910381724858257
40
0.918321591340574
40
0.926302978385128
40
0.934325858761904
40
0.942390207018183
40
0.950495999520136
40
0.958643214494806
40
0.966831832072697
40
0.975061834330915
40
0.983333205336308
40
0.991645931180402
40
1
40
1
40
1
40
1
41
1
10
48.6389945067238
20
1.46717674119208
30
0
41
1
10
48.6380397000318
20
1.46872248709062
30
0
41
1
10
48.6361275839573
20
1.47181803051788
30
0
41
1
10
48.6321792720377
20
1.47693643389175
30
0
41
1
10
48.6274329923108
20
1.48241018213636
30
0
41
1
10
48.6218083534145
20
1.48827329282432
30
0
41
1
10
48.6153237355455
20
1.49451662838635
30
0
41
1
10
48.6079713774954
20
1.50114240455059
30
0
41
1
10
48.5997511830074
20
1.50814940676028
30
0
41
1
10
48.5906618555591
20
1.51553683367942
30
0
41
1
10
48.5807034514301
20
1.523303166181
30
0
41
1
10
48.5698764931127
20
1.53144659065575
30
0
41
1
10
48.5581818057424
20
1.53996512269441
30
0
41
1
10
48.5456203423794
20
1.54885670393631
30
0
41
1
10
48.5321933303204
20
1.55811911891391
30
0
41
1
10
48.5179024165779
20
1.56774991081147
30
0
41
1
10
48.5027496689572
20
1.57774637661245
30
0
41
1
10
48.4867377310807
20
1.58810549401537
30
0
41
1
10
48.4698691231237
20
1.59882426742908
30
0
41
1
10
48.4248179798296
20
1.62697869060233
30
0
41
1
10
48.339978369071
20
1.67754386530825
30
0
41
1
10
48.1951753613378
20
1.75885215318107
30
0
41
1
10
48.0200150383535
20
1.85289480307392
30
0
41
1
10
47.8802912273966
20
1.92522960570531
30
0
41
1
10
47.7980925738236
20
1.96704728685808
30
0
41
1
10
47.78359343885
20
1.97440773558046
30
0
41
1
10
47.7688970810187
20
1.98185277926188
30
0
41
1
10
47.7540022979216
20
1.98938279753247
30
0
41
1
10
47.7389080846547
20
1.99699815058034
30
0
41
1
10
47.7236134189709
20
2.00469917923456
30
0
41
1
10
47.708117320342
20
2.01248620441839
30
0
41
1
10
47.6924188348982
20
2.02035952677431
30
0
41
1
10
47.676517040423
20
2.02831942624519
30
0
41
1
10
47.660411045919
20
2.03636616166952
30
0
41
1
10
47.6440999926405
20
2.04449997037585
30
0
41
1
10
47.6275830547254
20
2.05272106778051
30
0
41
1
10
47.6108594399333
20
2.06102964698727
30
0
41
1
10
47.5939283903514
20
2.06942587839003
30
0
41
1
10
47.5767891831223
20
2.07790990926912
30
0
41
1
10
47.5594411311876
20
2.08648186337783
30
0
41
1
10
47.541883584036
20
2.09514184052964
30
0
41
1
10
47.5241159284497
20
2.10388991618612
30
0
41
1
10
47.5061375892511
20
2.11272614104678
30
0
41
1
10
47.4879480300482
20
2.12165054064062
30
0
41
1
10
47.4695467539787
20
2.13066311491946
30
0
41
1
10
47.4509333044524
20
2.13976383785396
30
0
41
1
10
47.4321072658922
20
2.14895265703115
30
0
41
1
10
47.4130682644725
20
2.15822949325516
30
0
41
1
10
47.3938159688554
20
2.16759424015029
30
0
41
1
10
47.3743500909245
20
2.1770467637669
30
0
41
1
10
47.3546703865145
20
2.18658690219061
30
0
41
1
10
47.3347766561391
20
2.1962144651545
30
0
41
1
10
47.3146687457133
20
2.20592923365484
30
0
41
1
10
47.2943465472738
20
2.21573095957066
30
0
41
1
10
47.2738099996924
20
2.22561936528675
30
0
41
1
10
47.2530590893871
20
2.23559414332129
30
0
41
1
10
47.2320938510276
20
2.24565495595704
30
0
41
1
10
47.2109143682292
20
2.255801434879
30
0
41
1
10
47.1895207742688
20
2.2660331808095
30
0
41
1
10
47.1679132526863
20
2.27634976317583
30
0
41
1
10
47.1460920382905
20
2.28675071967948
30
0
41
1
10
47.1240574166066
20
2.29723555626046
30
0
41
1
10
47.1018097291551
20
2.30780374560146
30
0
41
1
10
47.0793493567602
20
2.3184547311516
30
0
41
1
10
47.0566767854505
20
2.32918791041948
30
0
41
1
10
47.0337923617122
20
2.34000269625904
30
0
41
1
10
47.0106972159032
20
2.35089828488918
30
0
41
1
10
46.9873897929011
20
2.36187452673684
30
0
41
1
10
46.9638789005794
20
2.37292865041144
30
0
41
1
10
46.948088562804
20
2.3803362309188
30
0
41
1
10
46.9401738094803
20
2.38404920864448
30
0
0
SPLINE
5
EA
100
AcDbEntity
8
1
62
256
6
ByLayer
370
13
48
1
60
0
100
AcDbSpline
70
4
71
3
72
8
73
4
40
0
40
0
40
0
40
0
40
1
40
1
40
1
40
1
41
1
10
45.8370927998179
20
1.89451398141407
30
0
41
1
10
45.8365822211671
20
1.89846706113289
30
0
41
1
10
45.8360716425163
20
1.90242014085172
30
0
41
1
10
45.8355610638655
20
1.90637322057054
30
0
0
SPLINE
5
EB
100
AcDbEntity
8
1
62
256
6
ByLayer
370
18
48
1
60
0
100
AcDbSpline
70
4
71
3
72
13
73
9
40
0
40
0
40
0
40
0
40
0.25
40
0.5
40
0.5
40
0.75
40
0.75
40
1
40
1
40
1
40
1
41
1
10
46.9401993952749
20
2.38404968026342
30
0
41
1
10
46.9537557725981
20
2.47580423759916
30
0
41
1
10
46.9863395731269
20
2.65614178396714
30
0
41
1
10
47.0256607005301
20
2.83122275911853
30
0
41
1
10
47.0666972001007
20
3.00407889909528
30
0
41
1
10
47.0880753996167
20
3.0893937485279
30
0
41
1
10
47.1313122972982
20
3.25807812943685
30
0
41
1
10
47.1531880167407
20
3.34144390268742
30
0
41
1
10
47.1748064045617
20
3.42393801274864
30
0
0
SPLINE
5
EC
100
AcDbEntity
8
1
62
256
6
ByLayer
370
18
48
1
60
0
100
AcDbSpline
70
4
71
3
72
34
73
30
40
0
40
0
40
0
40
0
40
0.101724223229021
40
0.101724223229021
40
0.203448446458042
40
0.203448446458042
40
0.305172669687063
40
0.305172669687063
40
0.356034781301573
40
0.356034781301573
40
0.381465837108829
40
0.381465837108829
40
0.406896892916086
40
0.406896892916086
40
0.508621116145117
40
0.508621116145117
40
0.610345339374148
40
0.610345339374148
40
0.71206956260318
40
0.71206956260318
40
0.813793785832211
40
0.813793785832211
40
0.915518009061242
40
0.915518009061242
40
0.940949064868501
40
0.940949064868501
40
0.96638012067576
40
0.96638012067576
40
1
40
1
40
1
40
1
41
1
10
47.1748064045625
20
3.42393801274847
30
0
41
1
10
46.83247374612
20
3.65296828111636
30
0
41
1
10
46.4907615248667
20
3.87585860128064
30
0
41
1
10
45.8074400138846
20
4.30787676226191
30
0
41
1
10
45.465809227196
20
4.51702496759273
30
0
41
1
10
44.7813522809287
20
4.92025717736917
30
0
41
1
10
44.4385490758618
20
5.11429565675263
30
0
41
1
10
43.922527980554
20
5.392846623862
30
0
41
1
10
43.7502154360789
20
5.48362116782869
30
0
41
1
10
43.4911662366931
20
5.61653833946121
30
0
41
1
10
43.4047199791311
20
5.66030226746679
30
0
41
1
10
43.2316145588045
20
5.74671807452688
30
0
41
1
10
43.1449319820713
20
5.78938013155124
30
0
41
1
10
42.7123961971905
20
5.99913945308018
30
0
41
1
10
42.3680421355458
20
6.15614015585842
30
0
41
1
10
41.6813587736423
20
6.44806965660939
30
0
41
1
10
41.3390408197174
20
6.58298993735784
30
0
41
1
10
40.6553035876909
20
6.82976184639503
30
0
41
1
10
40.3138374702862
20
6.94173108667331
30
0
41
1
10
39.630386104734
20
7.14267454378569
30
0
41
1
10
39.2884287372681
20
7.23157792519242
30
0
41
1
10
38.6029028701723
20
7.38513458746493
30
0
41
1
10
38.2593360311901
20
7.44979798478238
30
0
41
1
10
37.8280834412637
20
7.51454749485845
30
0
41
1
10
37.7417431544309
20
7.52668726227978
30
0
41
1
10
37.5688573085353
20
7.54937554363886
30
0
41
1
10
37.4822635493638
20
7.55993167704429
30
0
41
1
10
37.2811796480525
20
7.58261819698205
30
0
41
1
10
37.1668696551929
20
7.59413667004407
30
0
41
1
10
37.0527176628314
20
7.6042492687113
30
0
0
SPLINE
5
ED
100
AcDbEntity
8
1
62
256
6
ByLayer
370
18
48
1
60
0
100
AcDbSpline
70
4
71
3
72
8
73
4
40
0
40
0
40
0
40
0
40
1
40
1
40
1
40
1
41
1
10
45.8152469710482
20
1.92028434198633
30
0
41
1
10
45.8220208246324
20
1.91565154510442
30
0
41
1
10
45.8287922125025
20
1.91101453097784
30
0
41
1
10
45.8355610638656
20
1.90637322057054
30
0
0
SPLINE
5
EE
100
AcDbEntity
8
1
62
256
6
ByLayer
370
18
48
1
60
0
100
AcDbSpline
70
4
71
3
72
10
73
6
40
0
40
0
40
0
40
0
40
0.330123472761428
40
0.330123472761428
40
1
40
1
40
1
40
1
41
1
10
10.1753557825549
20
-6.35650009233561
30
0
41
1
10
9.94837117505304
20
-6.46417771751874
30
0
41
1
10
9.72164793576266
20
-6.56704668997176
30
0
41
1
10
9.03508071782721
20
-6.86372544984872
30
0
41
1
10
8.57546103673531
20
-7.04218434318347
30
0
41
1
10
8.11455095207668
20
-7.19922167413401
30
0
0
SPLINE
5
EF
100
AcDbEntity
8
1
62
256
6
ByLayer
370
18
48
1
60
0
100
AcDbSpline
70
4
71
3
72
58
73
54
40
0
40
0
40
0
40
0
40
0.125
40
0.125
40
0.250000000000001
40
0.250000000000001
40
0.3125
40
0.3125
40
0.328124999999999
40
0.328124999999999
40
0.343749999999999
40
0.343749999999999
40
0.374999999999999
40
0.374999999999999
40
0.4375
40
0.4375
40
0.500000000000001
40
0.500000000000001
40
0.562500000000002
40
0.562500000000002
40
0.625000000000002
40
0.625000000000002
40
0.656250000000002
40
0.656250000000002
40
0.687500000000002
40
0.687500000000002
40
0.750000000000001
40
0.750000000000001
40
0.765625000000001
40
0.765625000000001
40
0.781250000000001
40
0.781250000000001
40
0.812500000000001
40
0.812500000000001
40
0.84375
40
0.84375
40
0.875
40
0.875
40
0.890625
40
0.890625
40
0.8984375
40
0.8984375
40
0.906249999999999
40
0.906249999999999
40
0.937499999999999
40
0.937499999999999
40
0.953124999999999
40
0.953124999999999
40
0.960937499999999
40
0.960937499999999
40
0.968749999999999
40
0.968749999999999
40
1
40
1
40
1
40
1
41
1
10
8.11437776517141
20
-7.19919875143444
30
0
41
1
10
7.8058304402374
20
-7.30462977116639
30
0
41
1
10
7.5009023151195
20
-7.40206597432211
30
0
41
1
10
6.89701155453966
20
-7.57809275746268
30
0
41
1
10
6.59803800827444
20
-7.65670283096856
30
0
41
1
10
6.15380978144623
20
-7.75842164185465
30
0
41
1
10
6.00644747885923
20
-7.78962747159986
30
0
41
1
10
5.82319151109741
20
-7.82500870424948
30
0
41
1
10
5.78658790943237
20
-7.83190349443211
30
0
41
1
10
5.71347830017677
20
-7.84532319848219
30
0
41
1
10
5.67696325127793
20
-7.85184952703628
30
0
41
1
10
5.56776752193329
20
-7.87082912159804
30
0
41
1
10
5.4953749945083
20
-7.88269471561142
30
0
41
1
10
5.27946341277578
20
-7.91587070205878
30
0
41
1
10
5.13720395150796
20
-7.93476398100572
30
0
41
1
10
4.8564628234665
20
-7.96571875441185
30
0
41
1
10
4.71797848357713
20
-7.97778249993428
30
0
41
1
10
4.44543460910029
20
-7.9945537624728
30
0
41
1
10
4.31137024524787
20
-7.99926500574534
30
0
41
1
10
4.04865641518765
20
-8.00057684719792
30
0
41
1
10
3.91999752931491
20
-7.99718430616875
30
0
41
1
10
3.73222163028285
20
-7.98516117609898
30
0
41
1
10
3.67049962618188
20
-7.97999379030466
30
0
41
1
10
3.54909543970106
20
-7.96714024872352
30
0
41
1
10
3.48967514319219
20
-7.95948160628711
30
0
41
1
10
3.31578715174663
20
-7.93254786308239
30
0
41
1
10
3.20562179037177
20
-7.90935009391183
30
0
41
1
10
3.07768651478497
20
-7.8725181680488
30
0
41
1
10
3.05259358592736
20
-7.86475728324925
30
0
41
1
10
3.00348655133684
20
-7.84840146584386
30
0
41
1
10
2.97944248501574
20
-7.83979429080276
30
0
41
1
10
2.90938740418511
20
-7.81276383933397
30
0
41
1
10
2.86540822215693
20
-7.79312866105062
30
0
41
1
10
2.78378463024811
20
-7.75035090455418
30
0
41
1
10
2.74613636810827
20
-7.72720946088194
30
0
41
1
10
2.6783457756348
20
-7.67705141897679
30
0
41
1
10
2.64819673300474
20
-7.65003676308984
30
0
41
1
10
2.60981213583565
20
-7.60623068265639
30
0
41
1
10
2.59816113381976
20
-7.5910800743338
30
0
41
1
10
2.58259982379985
20
-7.56746958924154
30
0
41
1
10
2.57772517686715
20
-7.55943839875343
30
0
41
1
10
2.56869321093887
20
-7.54314316693225
30
0
41
1
10
2.56453693798974
20
-7.53488391243758
30
0
41
1
10
2.54560835122584
20
-7.49302700372075
30
0
41
1
10
2.53637781118419
20
-7.45774865802241
30
0
41
1
10
2.53262607636884
20
-7.40208099009118
30
0
41
1
10
2.53306106205795
20
-7.38306650297707
30
0
41
1
10
2.53643031425861
20
-7.35384684331976
30
0
41
1
10
2.53800647282318
20
-7.34399061705764
30
0
41
1
10
2.54210004693326
20
-7.32404357981338
30
0
41
1
10
2.54462235769387
20
-7.313936570614
30
0
41
1
10
2.55962613169646
20
-7.26299458130609
30
0
41
1
10
2.57909278106681
20
-7.22148816707332
30
0
41
1
10
2.60602215709673
20
-7.17945501338505
30
0
0
SPLINE
5
F0
100
AcDbEntity
8
1
62
256
6
ByLayer
370
18
48
1
60
0
100
AcDbSpline
70
4
71
3
72
20
73
16
40
0
40
0
40
0
40
0
40
0.125000000000001
40
0.125000000000001
40
0.250000000000001
40
0.250000000000001
40
0.375000000000002
40
0.375000000000002
40
0.500000000000002
40
0.500000000000002
40
0.750000000000001
40
0.750000000000001
40
0.875000000000001
40
0.875000000000001
40
1
40
1
40
1
40
1
41
1
10
12.9860830520348
20
-7.44238302167116
30
0
41
1
10
13.0000914031073
20
-7.40725853596979
30
0
41
1
10
13.0172632968332
20
-7.37092222076095
30
0
41
1
10
13.0560146022562
20
-7.2957931518998
30
0
41
1
10
13.0776071139036
20
-7.25700071392015
30
0
41
1
10
13.1239748924209
20
-7.17693186507324
30
0
41
1
10
13.1487566684805
20
-7.1356555986755
30
0
41
1
10
13.2006502111019
20
-7.05058924065767
30
0
41
1
10
13.2277655271446
20
-7.00679922582978
30
0
41
1
10
13.3116761505553
20
-6.871605692077
30
0
41
1
10
13.3709899733381
20
-6.77638299276765
30
0
41
1
10
13.4625231321509
20
-6.62562982909287
30
0
41
1
10
13.4934508257989
20
-6.57409609897112
30
0
41
1
10
13.5556775332566
20
-6.46871172766586
30
0
41
1
10
13.5870016410282
20
-6.41482100277122
30
0
41
1
10
13.6184203065094
20
-6.35971349039775
30
0
0
SPLINE
5
F1
100
AcDbEntity
8
1
62
256
6
ByLayer
370
18
48
1
60
0
100
AcDbSpline
70
4
71
3
72
18
73
14
40
0
40
0
40
0
40
0
40
0.250000000000002
40
0.250000000000002
40
0.500000000000004
40
0.500000000000004
40
0.562500000000004
40
0.562500000000004
40
0.625000000000003
40
0.625000000000003
40
0.750000000000002
40
0.750000000000002
40
1
40
1
40
1
40
1
41
1
10
13.6184203065091
20
-6.35971349039758
30
0
41
1
10
13.161226015529
20
-6.14301624513411
30
0
41
1
10
12.7050870736805
20
-5.90781674811342
30
0
41
1
10
11.7918352780039
20
-5.40316716145776
30
0
41
1
10
11.3347275706394
20
-5.13371271152334
30
0
41
1
10
10.7607823707796
20
-4.77702997700311
30
0
41
1
10
10.645864967928
20
-4.70469969711192
30
0
41
1
10
10.4157228064564
20
-4.55808862240352
30
0
41
1
10
10.3004389941842
20
-4.48376838069001
30
0
41
1
10
9.95498462470317
20
-4.25855215273063
30
0
41
1
10
9.72495361332693
20
-4.10524084699654
30
0
41
1
10
9.03508071782724
20
-3.63649644714374
30
0
41
1
10
8.57546103673533
20
-3.31225720532876
30
0
41
1
10
8.11455095207671
20
-2.97803506142731
30
0
0
SPLINE
5
F2
100
AcDbEntity
8
1
62
256
6
ByLayer
370
18
48
1
60
0
100
AcDbSpline
70
4
71
3
72
27
73
23
40
0
40
0
40
0
40
0
40
0.0625000000000029
40
0.0625000000000029
40
0.125000000000006
40
0.125000000000006
40
0.250000000000017
40
0.250000000000017
40
0.281250000000019
40
0.281250000000019
40
0.312500000000022
40
0.375000000000022
40
0.375000000000022
40
0.500000000000024
40
0.500000000000024
40
0.625000000000025
40
0.625000000000025
40
0.687500000000023
40
0.687500000000023
40
0.750000000000021
40
0.750000000000021
40
1
40
1
40
1
40
1
41
1
10
5.96537708931189
20
5.64695558728209
30
0
41
1
10
6.04955069462892
20
5.65457447434625
30
0
41
1
10
6.13362988573084
20
5.65952414101429
30
0
41
1
10
6.30162853936716
20
5.66494199998428
30
0
41
1
10
6.38554780641732
20
5.66540410669217
30
0
41
1
10
6.63709319042559
20
5.66083426813532
30
0
41
1
10
6.8045085925099
20
5.64990212139332
30
0
41
1
10
7.0134762085454
20
5.62763996285443
30
0
41
1
10
7.05529177104904
20
5.62274794909527
30
0
41
1
10
7.13872696813431
20
5.61213002200901
30
0
41
1
10
7.2632838240045
20
5.5949921946553
30
0
41
1
10
7.3861358117249
20
5.57435834882435
30
0
41
1
10
7.62973468246662
20
5.52867767660396
30
0
41
1
10
7.78933580279389
20
5.4923601437529
30
0
41
1
10
8.10352822187448
20
5.4086268442363
30
0
41
1
10
8.25811439241681
20
5.36120063913302
30
0
41
1
10
8.48649611156063
20
5.2817811387477
30
0
41
1
10
8.56203911808353
20
5.25392462465447
30
0
41
1
10
8.7119892941009
20
5.19542254436405
30
0
41
1
10
8.78648948747502
20
5.16473104868803
30
0
41
1
10
9.1534797196087
20
5.00544963523978
30
0
41
1
10
9.43153263270895
20
4.85873419041596
30
0
41
1
10
9.69683294247983
20
4.69337231743791
30
0
0
SPLINE
5
F3
100
AcDbEntity
8
1
62
256
6
ByLayer
370
18
48
1
60
0
100
AcDbSpline
70
4
71
3
72
13
73
9
40
0
40
0
40
0
40
0
40
0.25
40
0.5
40
0.5
40
0.75
40
0.75
40
1
40
1
40
1
40
1
41
1
10
46.9401993952749
20
-7.26846358274881
30
0
41
1
10
46.9537557725981
20
-7.21841153212083
30
0
41
1
10
46.9863395731269
20
-7.11520465226798
30
0
41
1
10
47.0256607005301
20
-7.00595016336035
30
0
41
1
10
47.0666972001007
20
-6.89369477668939
30
0
41
1
10
47.0880753996167
20
-6.83606619010018
30
0
41
1
10
47.1313122972981
20
-6.71778925175363
30
0
41
1
10
47.1531880167406
20
-6.6571413159692
30
0
41
1
10
47.1748064045616
20
-6.59495672085939
30
0
0
SPLINE
5
F4
100
AcDbEntity
8
1
62
256
6
ByLayer
370
18
48
1
60
0
100
AcDbSpline
70
4
71
3
72
10
73
6
40
0
40
0
40
0
40
0
40
0.5
40
0.5
40
1
40
1
40
1
40
1
41
1
10
45.8152469710509
20
-7.61203935916862
30
0
41
1
10
45.8122095916639
20
-7.61141269758332
30
0
41
1
10
45.8089631974855
20
-7.61094016528406
30
0
41
1
10
45.8019577652753
20
-7.61057532165046
30
0
41
1
10
45.798232189645
20
-7.61070521170382
30
0
41
1
10
45.7945578809874
20
-7.61126175858706
30
0
0
SPLINE
5
F5
100
AcDbEntity
8
1
62
256
6
ByLayer
370
18
48
1
60
0
100
AcDbSpline
70
4
71
3
72
8
73
4
40
0
40
0
40
0
40
0
40
1
40
1
40
1
40
1
41
1
10
45.8152469710482
20
-7.61203935916805
30
0
41
1
10
45.8220208246323
20
-7.61343691715607
30
0
41
1
10
45.8287922125024
20
-7.61483215788095
30
0
41
1
10
45.8355610638655
20
-7.61622510480041
30
0
0
SPLINE
5
F6
100
AcDbEntity
8
1
62
256
6
ByLayer
370
18
48
1
60
0
100
AcDbSpline
70
4
71
3
72
8
73
4
40
0
40
0
40
0
40
0
40
1
40
1
40
1
40
1
41
1
10
48.8308645400137
20
-0.0406782157210159
30
0
41
1
10
48.8307562242332
20
-0.0410593913228183
30
0
41
1
10
48.8306476204199
20
-0.0414383086715873
30
0
41
1
10
48.8305387284108
20
-0.0418149664984071
30
0
0
SPLINE
5
F7
100
AcDbEntity
8
1
62
256
6
ByLayer
370
18
48
1
60
0
100
AcDbSpline
70
4
71
3
72
51
73
47
40
0
40
0
40
0
40
0
40
0.0624999999999931
40
0.0624999999999931
40
0.124999999999986
40
0.124999999999986
40
0.187499999999979
40
0.187499999999979
40
0.203124999999976
40
0.203124999999976
40
0.218749999999972
40
0.218749999999972
40
0.249999999999966
40
0.249999999999966
40
0.312499999999958
40
0.312499999999958
40
0.374999999999951
40
0.374999999999951
40
0.406249999999951
40
0.406249999999951
40
0.437499999999951
40
0.437499999999951
40
0.499999999999956
40
0.499999999999956
40
0.562499999999961
40
0.562499999999961
40
0.624999999999966
40
0.624999999999966
40
0.640624999999967
40
0.640624999999967
40
0.656249999999969
40
0.687499999999971
40
0.687499999999971
40
0.74999999999998
40
0.74999999999998
40
0.812499999999988
40
0.812499999999988
40
0.828124999999989
40
0.828124999999989
40
0.843749999999991
40
0.843749999999991
40
0.874999999999993
40
0.874999999999993
40
0.937499999999997
40
0.937499999999997
40
1
40
1
40
1
40
1
41
1
10
45.9091003299062
20
1.83988074273012
30
0
41
1
10
46.0041519169391
20
1.79203027181595
30
0
41
1
10
46.0985916662985
20
1.74362938733904
30
0
41
1
10
46.2863004359463
20
1.64578839729691
30
0
41
1
10
46.3796193003957
20
1.59644497896363
30
0
41
1
10
46.5651926958489
20
1.49692660976584
30
0
41
1
10
46.6574473256854
20
1.44675151044584
30
0
41
1
10
46.7721444119673
20
1.38362376125457
30
0
41
1
10
46.795052694757
20
1.37097773370365
30
0
41
1
10
46.8408063642258
20
1.34564455012472
30
0
41
1
10
46.8636248921998
20
1.33297215807391
30
0
41
1
10
46.9316041903657
20
1.29510771674214
30
0
41
1
10
46.9764065542287
20
1.27000481818399
30
0
41
1
10
47.1092882270576
20
1.19511226140676
30
0
41
1
10
47.1958432553307
20
1.14573003373911
30
0
41
1
10
47.3649599851551
20
1.04813937419698
30
0
41
1
10
47.4475241384868
20
0.999939468077969
30
0
41
1
10
47.5682899784071
20
0.92847893343307
30
0
41
1
10
47.6080343063853
20
0.904808898213247
30
0
41
1
10
47.6864751601436
20
0.857768356485423
30
0
41
1
10
47.7252535558149
20
0.834336694748401
30
0
41
1
10
47.8387149463384
20
0.765232226508942
30
0
41
1
10
47.9108895461678
20
0.720567640082294
30
0
41
1
10
48.0484696297218
20
0.634214607426344
30
0
41
1
10
48.1138681175872
20
0.592493879179273
30
0
41
1
10
48.2377557469295
20
0.511701959610264
30
0
41
1
10
48.2962463566198
20
0.472620344535045
30
0
41
1
10
48.3648375615354
20
0.425448046413806
30
0
41
1
10
48.3783460255128
20
0.416087753674788
30
0
41
1
10
48.4047572622328
20
0.397640146251092
30
0
41
1
10
48.4435059958157
20
0.370350622693166
30
0
41
1
10
48.4796737191499
20
0.344177884710405
30
0
41
1
10
48.5486006634302
20
0.293273343217265
30
0
41
1
10
48.5900166523377
20
0.261268810138745
30
0
41
1
10
48.6637105789927
20
0.200936583940688
30
0
41
1
10
48.6959910189162
20
0.172587627752648
30
0
41
1
10
48.7303815219441
20
0.139387630135616
30
0
41
1
10
48.7369607522385
20
0.132859667481568
30
0
41
1
10
48.7495118307506
20
0.120024144357501
30
0
41
1
10
48.7554913362793
20
0.113708039655705
30
0
41
1
10
48.7724354258019
20
0.09515934577297
30
0
41
1
10
48.7824054677186
20
0.0833297014538914
30
0
41
1
10
48.8083595135879
20
0.0493624101716819
30
0
41
1
10
48.8204032436434
20
0.028744091132495
30
0
41
1
10
48.833802869964
20
-0.008672059983212
30
0
41
1
10
48.8351623674973
20
-0.0255536699692414
30
0
41
1
10
48.8308645400139
20
-0.0406782157214423
30
0
0
SPLINE
5
F8
100
AcDbEntity
8
1
62
256
6
ByLayer
370
18
48
1
60
0
100
AcDbSpline
70
4
71
3
72
38
73
34
40
0
40
0
40
0
40
0
40
0.0624999999999927
40
0.0624999999999927
40
0.124999999999985
40
0.124999999999985
40
0.249999999999981
40
0.249999999999981
40
0.312499999999984
40
0.312499999999984
40
0.343749999999986
40
0.343749999999986
40
0.374999999999987
40
0.374999999999987
40
0.499999999999993
40
0.499999999999993
40
0.624999999999999
40
0.624999999999999
40
0.687500000000002
40
0.687500000000002
40
0.718749999999999
40
0.718749999999999
40
0.749999999999997
40
0.749999999999997
40
0.812499999999999
40
0.812499999999999
40
0.875000000000002
40
0.875000000000002
40
0.90625
40
0.90625
40
0.937499999999999
40
0.937499999999999
40
1
40
1
40
1
40
1
41
1
10
45.9091003299063
20
1.83988074273017
30
0
41
1
10
45.9631111314464
20
1.7991931508146
30
0
41
1
10
46.0169151083861
20
1.75877998465728
30
0
41
1
10
46.1241696105974
20
1.67850862836303
30
0
41
1
10
46.17761732373
20
1.63865311477497
30
0
41
1
10
46.3374334383674
20
1.51997053870142
30
0
41
1
10
46.4432987750965
20
1.44202162827253
30
0
41
1
10
46.6010259273627
20
1.32682134319094
30
0
41
1
10
46.6534189288748
20
1.28870846339956
30
0
41
1
10
46.7316963780843
20
1.23194862804087
30
0
41
1
10
46.7577539762721
20
1.21308427277125
30
0
41
1
10
46.8094164439732
20
1.17573056801473
30
0
41
1
10
46.8350623526971
20
1.1572114246577
30
0
41
1
10
46.9623511969422
20
1.06537218358525
30
0
41
1
10
47.061216344198
20
0.994324271244892
30
0
41
1
10
47.2519545559104
20
0.856263281389857
30
0
41
1
10
47.3438803172774
20
0.789236237477297
30
0
41
1
10
47.4749170539266
20
0.690818266898788
30
0
41
1
10
47.5174616874132
20
0.658353403755285
30
0
41
1
10
47.5792155990262
20
0.610007468803701
30
0
41
1
10
47.5994803395466
20
0.593928231993829
30
0
41
1
10
47.6389065542325
20
0.562125039370414
30
0
41
1
10
47.6581132459539
20
0.546367615528482
30
0
41
1
10
47.714103115279
20
0.499484381221549
30
0
41
1
10
47.7492612071135
20
0.468748885892438
30
0
41
1
10
47.8146534430927
20
0.40798524658797
30
0
41
1
10
47.844887386155
20
0.37795947743524
30
0
41
1
10
47.8859123808168
20
0.333183053563943
30
0
41
1
10
47.8988643550641
20
0.318300829829354
30
0
41
1
10
47.9231976168893
20
0.288567243896608
30
0
41
1
10
47.9345048696011
20
0.273803947519951
30
0
41
1
10
47.9655781384116
20
0.229936619532395
30
0
41
1
10
47.9825616410543
20
0.201179341208501
30
0
41
1
10
47.9955312935471
20
0.172686844929103
30
0
0
SPLINE
5
F9
100
AcDbEntity
8
1
62
256
6
ByLayer
370
18
48
1
60
0
100
AcDbSpline
70
4
71
3
72
24
73
20
40
0
40
0
40
0
40
0
40
0.125000000000009
40
0.125000000000009
40
0.250000000000018
40
0.250000000000018
40
0.312500000000023
40
0.312500000000023
40
0.375000000000027
40
0.375000000000027
40
0.500000000000037
40
0.500000000000037
40
0.750000000000044
40
0.750000000000044
40
0.812500000000037
40
0.812500000000037
40
0.875000000000031
40
0.875000000000031
40
1
40
1
40
1
40
1
41
1
10
48.8305387284047
20
-0.041814966500624
30
0
41
1
10
48.8193690085178
20
-0.0367976338252163
30
0
41
1
10
48.8049742752575
20
-0.0312220275077664
30
0
41
1
10
48.7699309916466
20
-0.0189882329299564
30
0
41
1
10
48.7492972092766
20
-0.0123326011161282
30
0
41
1
10
48.7134401170634
20
-0.0014998160759774
30
0
41
1
10
48.7006735986844
20
0.0022520483965707
30
0
41
1
10
48.6735120328953
20
0.0100376877489339
30
0
41
1
10
48.6590899133184
20
0.0140788465641322
30
0
41
1
10
48.6135191226223
20
0.0265831622065775
30
0
41
1
10
48.580366107798
20
0.0353467994037544
30
0
41
1
10
48.4729533735594
20
0.0628639093750394
30
0
41
1
10
48.3907276718945
20
0.0828454756272663
30
0
41
1
10
48.2753339052147
20
0.109766735080683
30
0
41
1
10
48.2516199985058
20
0.115248906812269
30
0
41
1
10
48.2029158889011
20
0.126410013332958
30
0
41
1
10
48.1780006576232
20
0.132071508731315
30
0
41
1
10
48.1020419565911
20
0.149195711233801
30
0
41
1
10
48.0496229615821
20
0.160835966505687
30
0
41
1
10
47.9955312935471
20
0.172686844929103
30
0
0
SPLINE
5
FA
100
AcDbEntity
8
1
62
256
6
ByLayer
370
18
48
1
60
0
100
AcDbSpline
70
4
71
3
72
8
73
4
40
0
40
0
40
0
40
0
40
1
40
1
40
1
40
1
41
1
10
45.8370927998178
20
-7.61880986810959
30
0
41
1
10
45.8611063051262
20
-7.62411854310719
30
0
41
1
10
45.8851079438977
20
-7.62911143162
30
0
41
1
10
45.9091003299063
20
-7.63378887315173
30
0
0
SPLINE
5
FB
100
AcDbEntity
8
1
62
256
6
ByLayer
370
18
48
1
60
0
100
AcDbSpline
70
4
71
3
72
8
73
4
40
0
40
0
40
0
40
0
40
1
40
1
40
1
40
1
41
1
10
45.8165648926632
20
-7.6142633165216
30
0
41
1
10
45.8234077396742
20
-7.61578169474822
30
0
41
1
10
45.8302503768301
20
-7.6172972109872
30
0
41
1
10
45.8370927998179
20
-7.61880986810959
30
0
0
SPLINE
5
FC
100
AcDbEntity
8
1
62
256
6
ByLayer
370
18
48
1
60
0
100
AcDbSpline
70
4
71
5
72
15
73
9
40
0
40
0
40
0
40
0
40
0
40
0
40
0.137345843832361
40
0.553301641900226
40
0.830605507278802
40
1
40
1
40
1
40
1
40
1
40
1
41
1
10
14.9999999245389
20
7.87236120720331
30
0
41
1
10
14.9446780183361
20
7.86467115644462
30
0
41
1
10
14.7218121442698
20
7.83253440256985
30
0
41
1
10
14.387250291628
20
7.77730472190592
30
0
41
1
10
13.9844575702821
20
7.69827345195009
30
0
41
1
10
13.5816648489361
20
7.60435320355927
30
0
41
1
10
13.2341940337929
20
7.5124543771278
30
0
41
1
10
13.0542671865131
20
7.46198240338279
30
0
41
1
10
12.9860363178089
20
7.44242962691067
30
0
0
SPLINE
5
FD
100
AcDbEntity
8
1
62
256
6
ByLayer
370
18
48
1
60
0
100
AcDbSpline
70
4
71
3
72
10
73
6
40
0
40
0
40
0
40
0
40
0.414980074776822
40
0.414980074776822
40
1
40
1
40
1
40
1
41
1
10
10.1750509633375
20
6.36827939013321
30
0
41
1
10
10.5638852686728
20
6.55214112188386
30
0
41
1
10
10.952719574008
20
6.72223517140216
30
0
41
1
10
11.8897146949048
20
7.09619864162838
30
0
41
1
10
12.4378755104663
20
7.28534427490976
30
0
41
1
10
12.9860363260278
20
7.44242956495785
30
0
0
SPLINE
5
FE
100
AcDbEntity
8
1
62
256
6
ByLayer
370
18
48
1
60
0
100
AcDbSpline
70
4
71
5
72
44
73
38
40
0
40
0
40
0
40
0
40
0
40
0
40
0.0727561544820366
40
0.0956953744539114
40
0.130104204411723
40
0.153043424383598
40
0.18745225434141
40
0.210391474313285
40
0.244800304271097
40
0.279209134228909
40
0.302148354200784
40
0.336557184158596
40
0.359496404130471
40
0.393905234088283
40
0.416844454060158
40
0.45125328401797
40
0.485662113975783
40
0.508601333947657
40
0.531540553919532
40
0.565949383877344
40
0.600358213835156
40
0.623297433807031
40
0.657706263764843
40
0.692115093722655
40
0.715054313694525
40
0.737993533666405
40
0.772402363624217
40
0.806811193582029
40
0.829750413553904
40
0.864159243511716
40
0.887098463483591
40
0.921507293441403
40
0.944446513413278
40
0.97885534337109
40
1
40
1
40
1
40
1
40
1
40
1
41
1
10
13.2314771872913
20
4.65205987039857
30
0
41
1
10
13.5857424971943
20
4.64340308516094
30
0
41
1
10
14.0517037856728
20
4.62286159496881
30
0
41
1
10
14.6852090420147
20
4.57861300062166
30
0
41
1
10
15.4304102769322
20
4.50074004895305
30
0
41
1
10
16.3431554797132
20
4.36913314601725
30
0
41
1
10
17.0133313511668
20
4.25298718823547
30
0
41
1
10
17.7393552119082
20
4.10664495267923
30
0
41
1
10
18.4653790726496
20
3.94042009303675
30
0
41
1
10
19.191402933391
20
3.75323028262912
30
0
41
1
10
19.9174267941324
20
3.54789999291393
30
0
41
1
10
20.6434506548738
20
3.32374426943412
30
0
41
1
10
21.3694745156151
20
3.08358511316519
30
0
41
1
10
22.0396503870687
20
2.84808899836423
30
0
41
1
10
22.7656742478101
20
2.57927059192824
30
0
41
1
10
23.4916981085515
20
2.29792068972691
30
0
41
1
10
24.2177219692929
20
2.00431951421462
30
0
41
1
10
24.8878978407465
20
1.7243607620907
30
0
41
1
10
25.6139217014879
20
1.41289230016756
30
0
41
1
10
26.3399455622292
20
1.09459787092453
30
0
41
1
10
27.0101214336829
20
0.795758298489062
30
0
41
1
10
27.7361452944242
20
0.468169292049169
30
0
41
1
10
28.5180171444534
20
0.112750147092925
30
0
41
1
10
29.2440410051948
20
-0.217926282205695
30
0
41
1
10
29.9142168766484
20
-0.522193784024438
30
0
41
1
10
30.6402407373898
20
-0.849130781796134
30
0
41
1
10
31.3662645981311
20
-1.17196545766731
30
0
41
1
10
32.0364404695848
20
-1.46488582028576
30
0
41
1
10
32.7624643303261
20
-1.77513598379969
30
0
41
1
10
33.4884881910675
20
-2.07591067111448
30
0
41
1
10
34.2145120518089
20
-2.36658107233242
30
0
41
1
10
34.8846879232625
20
-2.62440126009986
30
0
41
1
10
35.6107117840038
20
-2.89095742164213
30
0
41
1
10
36.2721495419142
20
-3.12113275985485
30
0
41
1
10
36.8218913212489
20
-3.3011414080693
30
0
41
1
10
37.2040891327202
20
-3.42046570251367
30
0
41
1
10
37.474590965616
20
-3.50188078880566
30
0
41
1
10
37.5775488306483
20
-3.53242241799086
30
0
0
SPLINE
5
FF
100
AcDbEntity
8
1
62
256
6
ByLayer
370
18
48
1
60
0
100
AcDbSpline
70
4
71
3
72
99
73
95
40
0
40
0
40
0
40
0
40
0.0312500000000247
40
0.0312500000000247
40
0.0625000000000495
40
0.0625000000000495
40
0.0781250000000563
40
0.0781250000000563
40
0.0937500000000632
40
0.0937500000000632
40
0.125000000000077
40
0.125000000000077
40
0.132812500000074
40
0.132812500000074
40
0.140625000000072
40
0.140625000000072
40
0.156250000000066
40
0.156250000000066
40
0.187500000000056
40
0.187500000000056
40
0.203125000000053
40
0.203125000000053
40
0.21875000000005
40
0.21875000000005
40
0.250000000000041
40
0.250000000000041
40
0.265625000000036
40
0.265625000000036
40
0.281250000000032
40
0.281250000000032
40
0.312500000000025
40
0.312500000000025
40
0.328125000000022
40
0.328125000000022
40
0.343750000000019
40
0.343750000000019
40
0.375000000000018
40
0.375000000000018
40
0.390625000000018
40
0.390625000000018
40
0.406250000000017
40
0.406250000000017
40
0.437500000000025
40
0.437500000000025
40
0.453125000000029
40
0.453125000000029
40
0.468750000000033
40
0.468750000000033
40
0.500000000000031
40
0.531250000000028
40
0.531250000000028
40
0.546875000000027
40
0.546875000000027
40
0.562500000000026
40
0.562500000000026
40
0.593750000000023
40
0.593750000000023
40
0.609375000000028
40
0.609375000000028
40
0.625000000000033
40
0.625000000000033
40
0.656250000000031
40
0.656250000000031
40
0.687500000000029
40
0.687500000000029
40
0.703125000000028
40
0.703125000000028
40
0.718750000000026
40
0.718750000000026
40
0.750000000000024
40
0.750000000000024
40
0.765625000000023
40
0.765625000000023
40
0.781250000000022
40
0.781250000000022
40
0.81250000000002
40
0.81250000000002
40
0.828125000000019
40
0.828125000000019
40
0.843750000000017
40
0.843750000000017
40
0.875000000000015
40
0.875000000000015
40
0.906250000000012
40
0.906250000000012
40
0.921875000000011
40
0.921875000000011
40
0.937500000000009
40
0.937500000000009
40
0.968750000000006
40
0.968750000000006
40
0.984375000000003
40
0.984375000000003
40
1
40
1
40
1
40
1
41
1
10
40.7978307357248
20
1.49154808954239
30
0
41
1
10
40.7645167114414
20
1.48429834589223
30
0
41
1
10
40.7320763036917
20
1.47509340343959
30
0
41
1
10
40.6690293049717
20
1.45262115184596
30
0
41
1
10
40.6384212185972
20
1.43935711130624
30
0
41
1
10
40.5940507203937
20
1.41606798425397
30
0
41
1
10
40.5795084785198
20
1.40772114324508
30
0
41
1
10
40.5515262269534
20
1.39016566825572
30
0
41
1
10
40.5380139955071
20
1.38092193207129
30
0
41
1
10
40.4989345751863
20
1.3517736836408
30
0
41
1
10
40.4748153511366
20
1.33046198864707
30
0
41
1
10
40.4472778507104
20
1.30127612717251
30
0
41
1
10
40.4419016623707
20
1.29531086409096
30
0
41
1
10
40.4314199885307
20
1.28311582758337
30
0
41
1
10
40.4263019714641
20
1.27686888433203
30
0
41
1
10
40.4115228057113
20
1.25792085284843
30
0
41
1
10
40.402397220941
20
1.24497452042419
30
0
41
1
10
40.3771505386278
20
1.2052065937082
30
0
41
1
10
40.3631476579498
20
1.17746196879764
30
0
41
1
10
40.3463989247507
20
1.13394478458829
30
0
41
1
10
40.3415095011014
20
1.11904073743605
30
0
41
1
10
40.3333187120187
20
1.08906690540556
30
0
41
1
10
40.330003713442
20
1.0739907129078
30
0
41
1
10
40.3222910410468
20
1.02849226348812
30
0
41
1
10
40.3201124373859
20
0.997801887528283
30
0
41
1
10
40.3211213126134
20
0.951188541303196
30
0
41
1
10
40.3221798533324
20
0.935587867189042
30
0
41
1
10
40.3256435934853
20
0.904704344580608
30
0
41
1
10
40.3280491795134
20
0.889357245028918
30
0
41
1
10
40.3371937007109
20
0.843572993826143
30
0
41
1
10
40.3458487832132
20
0.813391040566358
30
0
41
1
10
40.3625323205907
20
0.768561534069789
30
0
41
1
10
40.3686759521713
20
0.753799366124269
30
0
41
1
10
40.3820020063926
20
0.724781445748164
30
0
41
1
10
40.3891948289869
20
0.710497880494984
30
0
41
1
10
40.4123059490485
20
0.668291382499575
30
0
41
1
10
40.4297482388955
20
0.641008570529834
30
0
41
1
10
40.4589091161137
20
0.601320551616908
30
0
41
1
10
40.4691512207306
20
0.588280067010601
30
0
41
1
10
40.4903522348037
20
0.562958733972181
30
0
41
1
10
40.501341455478
20
0.550633489694889
30
0
41
1
10
40.5354431942429
20
0.514634864125668
30
0
41
1
10
40.5596839512347
20
0.49193318447567
30
0
41
1
10
40.5982904567166
20
0.459815752116924
30
0
41
1
10
40.6115350062804
20
0.449433830885113
30
0
41
1
10
40.6387912186616
20
0.429332633681696
30
0
41
1
10
40.6527798312482
20
0.419635391306713
30
0
41
1
10
40.695308810985
20
0.391945440807547
30
0
41
1
10
40.7538764918152
20
0.358473595135365
30
0
41
1
10
40.8161394231145
20
0.331861582881544
30
0
41
1
10
40.8642942527164
20
0.314618299896921
30
0
41
1
10
40.8806136888552
20
0.309322338200644
30
0
41
1
10
40.9132571223597
20
0.299814597804072
30
0
41
1
10
40.9296399819058
20
0.295579779066685
30
0
41
1
10
40.9789738551481
20
0.28442305985223
30
0
41
1
10
41.0121092340652
20
0.279041659072192
30
0
41
1
10
41.0622052290798
20
0.274146166228064
30
0
41
1
10
41.0789696061988
20
0.273045536087636
30
0
41
1
10
41.1126367655163
20
0.271945304473604
30
0
41
1
10
41.1296030864329
20
0.271950360480588
30
0
41
1
10
41.1799952715602
20
0.273662177824576
30
0
41
1
10
41.2130553074913
20
0.277035313008213
30
0
41
1
10
41.2781432630121
20
0.288232524771843
30
0
41
1
10
41.3101713730136
20
0.296055356459476
30
0
41
1
10
41.3574183128808
20
0.311316966571013
30
0
41
1
10
41.373096647343
20
0.317022650607783
30
0
41
1
10
41.4037178638102
20
0.329478436185411
30
0
41
1
10
41.4186924450988
20
0.336233062113479
30
0
41
1
10
41.4626238781473
20
0.35806121525286
30
0
41
1
10
41.4905943822899
20
0.374690301821289
30
0
41
1
10
41.5305323461065
20
0.402838334626807
30
0
41
1
10
41.5435072799232
20
0.412757172707955
30
0
41
1
10
41.5687550055907
20
0.433710680637034
30
0
41
1
10
41.5810380552814
20
0.444765261652464
30
0
41
1
10
41.6161326907068
20
0.479021063670245
30
0
41
1
10
41.6374396818838
20
0.503492285502603
30
0
41
1
10
41.6662390413093
20
0.542654250380593
30
0
41
1
10
41.6753094924125
20
0.556119194349407
30
0
41
1
10
41.6923550915873
20
0.5838944527857
30
0
41
1
10
41.7003455064462
20
0.598235061809078
30
0
41
1
10
41.7224845822019
20
0.642392524200659
30
0
41
1
10
41.7345043207021
20
0.672697122728181
30
0
41
1
10
41.7531254614348
20
0.734968482685758
30
0
41
1
10
41.7597279963759
20
0.766935145249874
30
0
41
1
10
41.7652891213044
20
0.816170571207579
30
0
41
1
10
41.7663971526349
20
0.832698200903934
30
0
41
1
10
41.7671140020455
20
0.865528923538676
30
0
41
1
10
41.7667310211298
20
0.881899231764237
30
0
41
1
10
41.7633870415038
20
0.930866350077991
30
0
41
1
10
41.7582433713278
20
0.963320102053586
30
0
41
1
10
41.7460449866594
20
1.01166736797791
30
0
41
1
10
41.7412452506421
20
1.0276440697042
30
0
41
1
10
41.7302850821808
20
1.05905216504689
30
0
41
1
10
41.7241144233886
20
1.07452525152169
30
0
41
1
10
41.717261361653
20
1.08976769476169
30
0
0
SPLINE
5
100
100
AcDbEntity
8
1
62
256
6
ByLayer
370
18
48
1
60
0
100
AcDbSpline
70
4
71
5
72
28
73
22
40
0
40
0
40
0
40
0
40
0
40
0
40
0.0057060724286838
40
0.0575248055833138
40
0.109343538737967
40
0.187071638469929
40
0.264799738201892
40
0.316618471356533
40
0.394346571088495
40
0.446165304243137
40
0.523893403975099
40
0.575712137129741
40
0.653440236861703
40
0.731168336593665
40
0.782987069748307
40
0.860715169480269
40
0.912533902634911
40
0.990262002366873
40
1
40
1
40
1
40
1
40
1
40
1
41
1
10
30.0202632639126
20
4.57286077873954
30
0
41
1
10
30.0325627800324
20
4.57179097924865
30
0
41
1
10
30.1565582747278
20
4.5609228322046
30
0
41
1
10
30.3922497479989
20
4.5386719431263
30
0
41
1
10
30.7954851891333
20
4.49544513857867
30
0
41
1
10
31.3662645981311
20
4.42187465271414
30
0
41
1
10
32.0364404695848
20
4.31572140223261
30
0
41
1
10
32.7624643303262
20
4.17986288222218
30
0
41
1
10
33.4884881910675
20
4.02181118455493
30
0
41
1
10
34.214512051809
20
3.8443669498088
30
0
41
1
10
34.8846879232625
20
3.66338200194105
30
0
41
1
10
35.6107117840039
20
3.4496636139969
30
0
41
1
10
36.3367356447454
20
3.21922096447551
30
0
41
1
10
37.0627595054867
20
2.97163755213648
30
0
41
1
10
37.7887833662281
20
2.70969133091754
30
0
41
1
10
38.5148072269695
20
2.43338165008902
30
0
41
1
10
39.2408310877109
20
2.14538327860257
30
0
41
1
10
39.8203013658951
20
1.90718752533743
30
0
41
1
10
40.2880756655037
20
1.71006958841647
30
0
41
1
10
40.5883059972491
20
1.58178954563044
30
0
41
1
10
40.7768403504187
20
1.50059561336391
30
0
41
1
10
40.797830735725
20
1.49154808954233
30
0
0
SPLINE
5
101
100
AcDbEntity
8
1
62
256
6
ByLayer
370
18
48
1
60
0
100
AcDbSpline
70
4
71
3
72
86
73
82
40
0
40
0
40
0
40
0
40
0.0404514375497058
40
0.0404514375497058
40
0.0809028750994116
40
0.0809028750994116
40
0.121354312649117
40
0.121354312649117
40
0.14158003142397
40
0.14158003142397
40
0.151692890811397
40
0.151692890811397
40
0.161805750198824
40
0.161805750198824
40
0.202257187748533
40
0.202257187748533
40
0.242708625298242
40
0.242708625298242
40
0.283160062847951
40
0.283160062847951
40
0.32361150039766
40
0.32361150039766
40
0.364062937947369
40
0.364062937947369
40
0.374175797334797
40
0.374175797334797
40
0.384288656722225
40
0.384288656722225
40
0.40451437549708
40
0.40451437549708
40
0.424740094271936
40
0.424740094271936
40
0.444965813046791
40
0.444965813046791
40
0.485417250596503
40
0.485417250596503
40
0.525868688146215
40
0.525868688146215
40
0.566320125695928
40
0.566320125695928
40
0.586545844470784
40
0.586545844470784
40
0.606771563245641
40
0.606771563245641
40
0.61688442263307
40
0.61688442263307
40
0.626997282020498
40
0.626997282020498
40
0.647223000795356
40
0.647223000795356
40
0.687674438345072
40
0.687674438345072
40
0.707900157119931
40
0.707900157119931
40
0.718013016507361
40
0.718013016507361
40
0.728125875894791
40
0.728125875894791
40
0.748351594669652
40
0.748351594669652
40
0.768577313444512
40
0.768577313444512
40
0.788803032219373
40
0.788803032219373
40
0.809028750994234
40
0.809028750994234
40
0.829254469769095
40
0.829254469769095
40
0.839367329156525
40
0.839367329156525
40
0.849480188543955
40
0.849480188543955
40
0.889931626093674
40
0.889931626093674
40
0.930383063643392
40
0.930383063643392
40
0.97083450119311
40
0.97083450119311
40
0.99106021996797
40
0.99106021996797
40
1
40
1
40
1
40
1
41
1
10
47.1748064045617
20
-6.59495672085913
30
0
41
1
10
46.8324737461192
20
-6.4648170392837
30
0
41
1
10
46.4907615248658
20
-6.3239424968742
30
0
41
1
10
45.8074400138838
20
-6.02136840815507
30
0
41
1
10
45.4658092271952
20
-5.85975332722481
30
0
41
1
10
44.781352280928
20
-5.51701622682984
30
0
41
1
10
44.4385490758611
20
-5.33576847913648
30
0
41
1
10
43.9225279805532
20
-5.04977238887926
30
0
41
1
10
43.7502154360781
20
-4.95210628529017
30
0
41
1
10
43.4911662366924
20
-4.80221722742183
30
0
41
1
10
43.4047199791304
20
-4.751687179589
30
0
41
1
10
43.2316145588037
20
-4.64950041058216
30
0
41
1
10
43.1449319820706
20
-4.59782867663719
30
0
41
1
10
42.7123961971897
20
-4.33755920354841
30
0
41
1
10
42.3680421355451
20
-4.12254522177491
30
0
41
1
10
41.6813587736416
20
-3.6807150682763
30
0
41
1
10
41.3390408197167
20
-3.45387857133071
30
0
41
1
10
40.6553035876903
20
-2.98968786847149
30
0
41
1
10
40.3138374702855
20
-2.7524503654825
30
0
41
1
10
39.6303861047333
20
-2.26960337102079
30
0
41
1
10
39.2884287372675
20
-2.02392408383059
30
0
41
1
10
38.6029028701716
20
-1.52532436495881
30
0
41
1
10
38.2593360311894
20
-1.27240547844835
30
0
41
1
10
37.828083441263
20
-0.952538757058676
30
0
41
1
10
37.7417431544303
20
-0.888377161367742
30
0
41
1
10
37.5688573085346
20
-0.759727424235678
30
0
41
1
10
37.4822635493631
20
-0.695204700372784
30
0
41
1
10
37.2224653308522
20
-0.501470815413882
30
0
41
1
10
37.0496659088752
20
-0.372400240697999
30
0
41
1
10
36.7047515695014
20
-0.114596506725917
30
0
41
1
10
36.5326376198351
20
0.0141375041726803
30
0
41
1
10
36.1889856716802
20
0.27109705619452
30
0
41
1
10
36.0174583664573
20
0.399328686296798
30
0
41
1
10
35.5034354329892
20
0.78290135309598
30
0
41
1
10
35.1614382678878
20
1.03709437036122
30
0
41
1
10
34.4778995958479
20
1.54100699122702
30
0
41
1
10
34.1363850071661
20
1.79071506825164
30
0
41
1
10
33.4523017255726
20
2.28390025557135
30
0
41
1
10
33.1097993295533
20
2.52741842758968
30
0
41
1
10
32.5945216791877
20
2.88678339342874
30
0
41
1
10
32.4224961852113
20
3.00558381748149
30
0
41
1
10
32.0777270909593
20
3.24102246756271
30
0
41
1
10
31.9049917210153
20
3.35765836628616
30
0
41
1
10
31.6452523725001
20
3.53080718409706
30
0
41
1
10
31.5585667251216
20
3.58822152714248
30
0
41
1
10
31.3854110858342
20
3.70212332996144
30
0
41
1
10
31.2988854593615
20
3.75864804003487
30
0
41
1
10
31.0394401681261
20
3.92690165180264
30
0
41
1
10
30.8666540607348
20
4.03730224363244
30
0
41
1
10
30.3484151104778
20
4.363180748118
30
0
41
1
10
30.0031557379312
20
4.57328227455983
30
0
41
1
10
29.4848531850565
20
4.87633534766343
30
0
41
1
10
29.3120189523499
20
4.97531634411624
30
0
41
1
10
29.0524985856503
20
5.12071259992314
30
0
41
1
10
28.9659457859301
20
5.16867060152455
30
0
41
1
10
28.7927339430978
20
5.26353846642883
30
0
41
1
10
28.7060648025666
20
5.31045251036869
30
0
41
1
10
28.4463115822498
20
5.44933252226411
30
0
41
1
10
28.2733390089505
20
5.53951866934614
30
0
41
1
10
27.9276461066525
20
5.7149087642174
30
0
41
1
10
27.7549338446551
20
5.80008928675261
30
0
41
1
10
27.4095682874467
20
5.96540163993308
30
0
41
1
10
27.2368953596536
20
6.04559475661949
30
0
41
1
10
26.8914574240649
20
6.20081921387643
30
0
41
1
10
26.7186993483105
20
6.27582380037012
30
0
41
1
10
26.3729386568604
20
6.4204917086758
30
0
41
1
10
26.1999358805817
20
6.49015648240166
30
0
41
1
10
25.9401267325544
20
6.59053671444482
30
0
41
1
10
25.8534719928875
20
6.62330938000216
30
0
41
1
10
25.6804806651211
20
6.68730569746444
30
0
41
1
10
25.5940887262312
20
6.71855127312136
30
0
41
1
10
25.1625824221936
20
6.87104421250368
30
0
41
1
10
24.8188205685375
20
6.98111704491123
30
0
41
1
10
24.1330412550731
20
7.17683637152035
30
0
41
1
10
23.7910167299929
20
7.26248467938521
30
0
41
1
10
23.1073891266445
20
7.40931286886632
30
0
41
1
10
22.7658073800507
20
7.47042904973611
30
0
41
1
10
22.2528816483151
20
7.54325041582069
30
0
41
1
10
22.0818115206648
20
7.56439109659524
30
0
41
1
10
21.8348696586605
20
7.59039600620079
30
0
41
1
10
21.7591442467745
20
7.59774881655395
30
0
41
1
10
21.6833796421307
20
7.60447438751959
30
0
0
SPLINE
5
102
100
AcDbEntity
8
1
62
256
6
ByLayer
370
18
48
1
60
0
100
AcDbSpline
70
4
71
3
72
38
73
34
40
0
40
0
40
0
40
0
40
0.125000000000004
40
0.125000000000004
40
0.187500000000005
40
0.187500000000005
40
0.218750000000005
40
0.218750000000005
40
0.250000000000005
40
0.250000000000005
40
0.375000000000003
40
0.375000000000003
40
0.437500000000003
40
0.437500000000003
40
0.468750000000003
40
0.468750000000003
40
0.500000000000002
40
0.500000000000002
40
0.625000000000003
40
0.625000000000003
40
0.656250000000005
40
0.656250000000005
40
0.687500000000007
40
0.687500000000007
40
0.75000000000001
40
0.75000000000001
40
0.875000000000018
40
0.875000000000018
40
0.906250000000016
40
0.906250000000016
40
0.937500000000015
40
0.937500000000015
40
1
40
1
40
1
40
1
41
1
10
48.1487579964281
20
-4.63900065502239
30
0
41
1
10
48.1541237961739
20
-4.7370575797818
30
0
41
1
10
48.1542858947526
20
-4.83571424445398
30
0
41
1
10
48.1457876337411
20
-4.98487893825603
30
0
41
1
10
48.1414819651272
20
-5.03479839586728
30
0
41
1
10
48.1326758153258
20
-5.11001493536017
30
0
41
1
10
48.1293482275303
20
-5.13514346241834
30
0
41
1
10
48.1218728196112
20
-5.18552172024997
30
0
41
1
10
48.117737853432
20
-5.21067577450577
30
0
41
1
10
48.0951388335677
20
-5.33568641463802
30
0
41
1
10
48.0708024583318
20
-5.43383069812484
30
0
41
1
10
48.024155772546
20
-5.57800743363313
30
0
41
1
10
48.0069156378059
20
-5.62555944977902
30
0
41
1
10
47.9783476656801
20
-5.69607410603442
30
0
41
1
10
47.9683596199108
20
-5.71946650624534
30
0
41
1
10
47.9477013687614
20
-5.76543488461826
30
0
41
1
10
47.9370054666226
20
-5.78807782587026
30
0
41
1
10
47.8817244011942
20
-5.89960698348276
30
0
41
1
10
47.8317878200153
20
-5.98347721998519
30
0
41
1
10
47.7624070363886
20
-6.08170137678528
30
0
41
1
10
47.7481801963371
20
-6.10101319395173
30
0
41
1
10
47.7190253563727
20
-6.1389727362355
30
0
41
1
10
47.7040575281843
20
-6.15766757830082
30
0
41
1
10
47.6584241319076
20
-6.21237647696424
30
0
41
1
10
47.6270970937458
20
-6.24695708826408
30
0
41
1
10
47.5306001181506
20
-6.3455109845338
30
0
41
1
10
47.4629393018791
20
-6.40434093694631
30
0
41
1
10
47.3745097741479
20
-6.47021833722678
30
0
41
1
10
47.3566078372017
20
-6.48302284729158
30
0
41
1
10
47.3206946461585
20
-6.50769710352296
30
0
41
1
10
47.3026523847653
20
-6.5195872824288
30
0
41
1
10
47.2482786325367
20
-6.55399267860267
30
0
41
1
10
47.2117014020401
20
-6.57524737404333
30
0
41
1
10
47.1748064045617
20
-6.59495672085913
30
0
0
SPLINE
5
103
100
AcDbEntity
8
1
62
256
6
ByLayer
370
18
48
1
60
0
100
AcDbSpline
70
4
71
3
72
8
73
4
40
0
40
0
40
0
40
0
40
1
40
1
40
1
40
1
41
1
10
48.0500962255149
20
-4.03752514450844
30
0
41
1
10
48.0835210428543
20
-4.23731291976586
30
0
41
1
10
48.1164968619693
20
-4.437794126445
30
0
41
1
10
48.1487579964283
20
-4.63900065502222
30
0
0
SPLINE
5
104
100
AcDbEntity
8
1
62
256
6
ByLayer
370
18
48
1
60
0
100
AcDbSpline
70
4
71
3
72
19
73
15
40
0
40
0
40
0
40
0
40
0.250000000000001
40
0.250000000000001
40
0.500000000000001
40
0.500000000000001
40
0.624999999999999
40
0.624999999999999
40
0.656249999999998
40
0.656249999999998
40
0.687499999999998
40
0.749999999999997
40
0.749999999999997
40
1
40
1
40
1
40
1
41
1
10
44.594513064312
20
-0.704959367392178
30
0
41
1
10
44.8574391055621
20
-1.02104400513366
30
0
41
1
10
45.1272511073519
20
-1.32804634886378
30
0
41
1
10
45.6806208283298
20
-1.92392100986075
30
0
41
1
10
45.9642045349711
20
-2.21275905076391
30
0
41
1
10
46.3999393796312
20
-2.63235264878105
30
0
41
1
10
46.5469092802678
20
-2.76994204134584
30
0
41
1
10
46.7327850125243
20
-2.93907540534209
30
0
41
1
10
46.7700774650563
20
-2.9727672441216
30
0
41
1
10
46.8446820919507
20
-3.0396900844126
30
0
41
1
10
46.9566898104654
20
-3.13944830342751
30
0
41
1
10
47.0689965641926
20
-3.23734889371832
30
0
41
1
10
47.4440029845996
20
-3.55964277713048
30
0
41
1
10
47.7460866927215
20
-3.80456564304268
30
0
41
1
10
48.0500962255147
20
-4.03752514450787
30
0
0
SPLINE
5
105
100
AcDbEntity
8
1
62
256
6
ByLayer
370
18
48
1
60
0
100
AcDbSpline
70
4
71
3
72
18
73
14
40
0
40
0
40
0
40
0
40
0.250000000000014
40
0.250000000000014
40
0.375000000000005
40
0.375000000000005
40
0.499999999999995
40
0.499999999999995
40
0.749999999999998
40
0.749999999999998
40
0.874999999999999
40
0.874999999999999
40
1
40
1
40
1
40
1
41
1
10
44.594513064312
20
-0.704959367392178
30
0
41
1
10
44.5607383241807
20
-0.664356023392969
30
0
41
1
10
44.5303281705342
20
-0.621672003254133
30
0
41
1
10
44.490665823018
20
-0.553971618476282
30
0
41
1
10
44.4784418992563
20
-0.530789564296271
30
0
41
1
10
44.4562196486028
20
-0.48305348984789
30
0
41
1
10
44.4462021304544
20
-0.458398368440413
30
0
41
1
10
44.4205107154785
20
-0.383973094064913
30
0
41
1
10
44.4088939676409
20
-0.333257460747177
30
0
41
1
10
44.4005531410232
20
-0.255375021180441
30
0
41
1
10
44.3992943760726
20
-0.229072582890865
30
0
41
1
10
44.4000669154205
20
-0.175973376642105
30
0
41
1
10
44.402089064645
20
-0.149544327095981
30
0
41
1
10
44.4057512671293
20
-0.12323623286801
30
0
0
SPLINE
5
106
100
AcDbEntity
8
1
62
256
6
ByLayer
370
18
48
1
60
0
100
AcDbSpline
70
4
71
5
72
16
73
10
40
0
40
0
40
0
40
0
40
0
40
0
40
0.138299637643515
40
0.449894573376978
40
0.65762453053262
40
0.865354487688262
40
1
40
1
40
1
40
1
40
1
40
1
41
1
10
41.717261361653
20
1.08976769476169
30
0
41
1
10
41.7916247976001
20
1.05687247663892
30
0
41
1
10
42.0335322014106
20
0.949629222113202
30
0
41
1
10
42.3871355837967
20
0.791813072551292
30
0
41
1
10
42.8524349447584
20
0.582467353233397
30
0
41
1
10
43.3901329258537
20
0.338786001446692
30
0
41
1
10
43.8534674710019
20
0.12804940202048
30
0
41
1
10
44.1492580482866
20
-0.0065581739770266
30
0
41
1
10
44.3333526469958
20
-0.0903078272594939
30
0
41
1
10
44.4057512671294
20
-0.123236232868038
30
0
0
SPLINE
5
107
100
AcDbEntity
8
1
62
256
6
ByLayer
370
18
48
1
60
0
100
AcDbSpline
70
4
71
3
72
108
73
104
40
0
40
0
40
0
40
0
40
0.0052211560534159
40
0.0104013328203137
40
0.0155405214314334
40
0.020638713535733
40
0.0256959012958026
40
0.0307120773833751
40
0.0356872349748145
40
0.0406213677467346
40
0.0455144698715531
40
0.0503665360131852
40
0.0551775613228531
40
0.0599475414348612
40
0.0646764724625938
40
0.06936435099458
40
0.0740111740907086
40
0.078616939278549
40
0.0831816445498993
40
0.087705288357517
40
0.0921878696118832
40
0.0966293876783648
40
0.101029842374548
40
0.105389233967734
40
0.109707563172772
40
0.113984831150102
40
0.118221039504148
40
0.122416190282014
40
0.126570285972463
40
0.130683329505294
40
0.134755324251084
40
0.138786274021331
40
0.142776183068956
40
0.146725056089395
40
0.150632898222053
40
0.154499715052265
40
0.158325512613815
40
0.16211029739211
40
0.165854076327753
40
0.169556856821
40
0.173218646736728
40
0.176839454410131
40
0.180419288653342
40
0.183958158762667
40
0.187456074526855
40
0.190913046236216
40
0.194329084692715
40
0.197704201221212
40
0.201038407681719
40
0.204331716482974
40
0.207584140597181
40
0.210795693576294
40
0.213966389569601
40
0.217096243343044
40
0.220185270300132
40
0.223233486504808
40
0.226240908706171
40
0.229207554365392
40
0.232133441684933
40
0.235018589640169
40
0.23786301801373
40
0.240666747432795
40
0.243429799409429
40
0.246152196384337
40
0.248833961774365
40
0.251475120024006
40
0.254075696661216
40
0.256635718358111
40
0.27369146391233
40
0.290741175528963
40
0.307787993096118
40
0.324835070326304
40
0.341885573561857
40
0.358942680503316
40
0.376009578866543
40
0.393089464974791
40
0.410185542292169
40
0.427301019905566
40
0.444439110962111
40
0.461603031069198
40
0.478795996664931
40
0.496021223365905
40
0.513281924300151
40
0.533036161848971
40
0.55325365451595
40
0.573938530912227
40
0.595094627465595
40
0.616725514080173
40
0.638834517547852
40
0.661424742901087
40
0.684499092884782
40
0.708060285712913
40
0.732110871262116
40
0.756653245843356
40
0.78168966567976
40
0.80722225920879
40
0.833253038315548
40
0.859783908594608
40
0.886816678729327
40
0.914353069068708
40
0.942394719474715
40
0.970943196506319
40
1
40
1
40
1
40
1
41
1
10
12.7726691757349
20
-0.348098472805049
30
0
41
1
10
12.7706976781246
20
-0.337267585457994
30
0
41
1
10
12.7667701565967
20
-0.315690819147335
30
0
41
1
10
12.7608693285125
20
-0.283479395957528
30
0
41
1
10
12.754989205082
20
-0.251543985867528
30
0
41
1
10
12.7491263823504
20
-0.219887595731166
30
0
41
1
10
12.7432803108187
20
-0.188510942494133
30
0
41
1
10
12.7374497714728
20
-0.157415236796823
30
0
41
1
10
12.7316338068566
20
-0.126601448621983
30
0
41
1
10
12.7258314726811
20
-0.0960705043126495
30
0
41
1
10
12.7200419016659
20
-0.0658232370325038
30
0
41
1
10
12.7142642847376
20
-0.0358604024834221
30
0
41
1
10
12.7084978741055
20
-0.0061826773448956
30
0
41
1
10
12.7027419805537
20
0.0232093377229319
30
0
41
1
10
12.6969959722705
20
0.0523151162936415
30
0
41
1
10
12.6912592732776
20
0.0811342040784382
30
0
41
1
10
12.6855313619757
20
0.109666216925206
30
0
41
1
10
12.6798117696677
20
0.137910838806704
30
0
41
1
10
12.6741000790988
20
0.165867819827184
30
0
41
1
10
12.6683959230031
20
0.193536974240771
30
0
41
1
10
12.6626989826618
20
0.220918178485192
30
0
41
1
10
12.6570089864709
20
0.248011369229971
30
0
41
1
10
12.651325708519
20
0.274816541441311
30
0
41
1
10
12.6456489671787
20
0.301333746463598
30
0
41
1
10
12.6399786237085
20
0.327563090118588
30
0
41
1
10
12.634314580868
20
0.353504730822749
30
0
41
1
10
12.6286567815462
20
0.379158877723739
30
0
41
1
10
12.6230052074023
20
0.404525788856461
30
0
41
1
10
12.6173598775221
20
0.429605769319124
30
0
41
1
10
12.6117208470872
20
0.454399169470037
30
0
41
1
10
12.6060882060598
20
0.478906383145699
30
0
41
1
10
12.600462077882
20
0.503127845900252
30
0
41
1
10
12.5948426181909
20
0.527064033267379
30
0
41
1
10
12.5892300135487
20
0.550715459044454
30
0
41
1
10
12.583624480189
20
0.574082673599605
30
0
41
1
10
12.5780262627799
20
0.597166262201824
30
0
41
1
10
12.5724356332028
20
0.619966843374868
30
0
41
1
10
12.5668528893471
20
0.642485067274379
30
0
41
1
10
12.5612783539241
20
0.6647216140897
30
0
41
1
10
12.5557123732948
20
0.68667719246929
30
0
41
1
10
12.5501553163174
20
0.708352537970939
30
0
41
1
10
12.544607573211
20
0.729748411536349
30
0
41
1
10
12.5390695544362
20
0.75086559799044
30
0
41
1
10
12.5335416895949
20
0.771704904565695
30
0
41
1
10
12.5280244263453
20
0.792267159451313
30
0
41
1
10
12.522518229337
20
0.812553210367099
30
0
41
1
10
12.5170235791628
20
0.832563923163008
30
0
41
1
10
12.5115409713276
20
0.852300180443137
30
0
41
1
10
12.5060709152364
20
0.871762880215414
30
0
41
1
10
12.5006139331998
20
0.890952934565775
30
0
41
1
10
12.495170559457
20
0.90987126835816
30
0
41
1
10
12.4897413392168
20
0.928518817958746
30
0
41
1
10
12.4843268277171
20
0.946896529985935
30
0
41
1
10
12.4789275893013
20
0.965005360084575
30
0
41
1
10
12.473544196514
20
0.98284627172572
30
0
41
1
10
12.4681772292112
20
1.00042023503025
30
0
41
1
10
12.462827273697
20
1.01772822561892
30
0
41
1
10
12.4574949218519
20
1.03477122348195
30
0
41
1
10
12.4521807703665
20
1.05155021189006
30
0
41
1
10
12.4468854196785
20
1.06806617626745
30
0
41
1
10
12.4416094740727
20
1.08432010331774
30
0
41
1
10
12.4363535376149
20
1.10031297933662
30
0
41
1
10
12.4311182253787
20
1.11604579160712
30
0
41
1
10
12.4259041189212
20
1.13151951864935
30
0
41
1
10
12.420711925329
20
1.14673516126271
30
0
41
1
10
12.4155418935398
20
1.1616936248289
30
0
41
1
10
12.4103959399712
20
1.17639614427787
30
0
41
1
10
12.3955677365452
20
1.21818604521715
30
0
41
1
10
12.3702855632904
20
1.28672845745444
30
0
41
1
10
12.3331846259628
20
1.38133075432424
30
0
41
1
10
12.2942478509371
20
1.47489432825958
30
0
41
1
10
12.2535003819727
20
1.56744481123701
30
0
41
1
10
12.2109589424342
20
1.65900956354821
30
0
41
1
10
12.1666454715213
20
1.74961913408086
30
0
41
1
10
12.1205831177307
20
1.83930644507475
30
0
41
1
10
12.0727969728561
20
1.92810660360516
30
0
41
1
10
12.0233135555447
20
2.01605656398547
30
0
41
1
10
11.9721606253997
20
2.10319484396047
30
0
41
1
10
11.919366997487
20
2.189561260592
30
0
41
1
10
11.8649620955701
20
2.27519661973741
30
0
41
1
10
11.8089766240654
20
2.36014265833708
30
0
41
1
10
11.7514390874457
20
2.44444110558723
30
0
41
1
10
11.689588624791
20
2.53210362379954
30
0
41
1
10
11.6226971643088
20
2.6237110832034
30
0
41
1
10
11.5500720964214
20
2.71984132772434
30
0
41
1
10
11.4741225842124
20
2.81726290647444
30
0
41
1
10
11.3948690437701
20
2.91599872719493
30
0
41
1
10
11.3123351938409
20
3.01607285168382
30
0
41
1
10
11.2265440805991
20
3.1175093705001
30
0
41
1
10
11.1375190708479
20
3.22033260115808
30
0
41
1
10
11.0452834744681
20
3.32456692480488
30
0
41
1
10
10.9498605528366
20
3.43023672837327
30
0
41
1
10
10.8512734257877
20
3.5373663222903
30
0
41
1
10
10.749545014746
20
3.64597987153195
30
0
41
1
10
10.6446979728642
20
3.75610132208018
30
0
41
1
10
10.5367546575872
20
3.86775435601294
30
0
41
1
10
10.4257369686746
20
3.9809622567891
30
0
41
1
10
10.3116667207641
20
4.09574813659077
30
0
41
1
10
10.1945639828481
20
4.21213379051514
30
0
41
1
10
10.0744532399803
20
4.33014383811479
30
0
41
1
10
9.95133955920051
20
4.44978959367239
30
0
41
1
10
9.8252998159308
20
4.57113069876806
30
0
41
1
10
9.73994312022296
20
4.65235126264665
30
0
41
1
10
9.69688816568691
20
4.69331990202738
30
0
0
SPLINE
5
108
100
AcDbEntity
8
1
62
256
6
ByLayer
370
18
48
1
60
0
100
AcDbSpline
70
4
71
5
72
21
73
15
40
0
40
0
40
0
40
0
40
0
40
0
40
0.277475314955895
40
0.346844143694869
40
0.45089738680333
40
0.520266215542303
40
0.624319458650764
40
0.693688287389738
40
0.797741530498199
40
0.901794773606659
40
0.971163602345633
40
1
40
1
40
1
40
1
40
1
40
1
41
1
10
12.7688841652941
20
-0.36473291874708
30
0
41
1
10
13.2156680795964
20
-0.56738678110824
30
0
41
1
10
13.7741479724745
20
-0.819619146345758
30
0
41
1
10
14.5001718332159
20
-1.14412527804632
30
0
41
1
10
15.3378916725328
20
-1.51042679723898
30
0
41
1
10
16.3431554797132
20
-1.93349150692316
30
0
41
1
10
17.0133313511668
20
-2.20697910707045
30
0
41
1
10
17.7393552119082
20
-2.49252090176148
30
0
41
1
10
18.4653790726496
20
-2.76608759252971
30
0
41
1
10
19.191402933391
20
-3.02499071831267
30
0
41
1
10
19.796314483155
20
-3.22852297174345
30
0
41
1
10
20.2895300543435
20
-3.38497976136384
30
0
41
1
10
20.6152016576686
20
-3.48393509752253
30
0
41
1
10
20.7733292931304
20
-3.53093233460183
30
0
41
1
10
20.8197609500165
20
-3.54464121662798
30
0
0
SPLINE
5
109
100
AcDbEntity
8
1
62
256
6
ByLayer
370
18
48
1
60
0
100
AcDbSpline
70
4
71
5
72
46
73
40
40
0
40
0
40
0
40
0
40
0
40
0
40
0.0643214003901699
40
0.0865807142301747
40
0.119969684990182
40
0.142228998830187
40
0.175617969590194
40
0.197877283430199
40
0.231266254190206
40
0.264655224950213
40
0.286914538790218
40
0.320303509550225
40
0.34256282339023
40
0.375951794150237
40
0.398211107990242
40
0.431600078750249
40
0.464989049510256
40
0.487248363350261
40
0.509507677190266
40
0.542896647950273
40
0.57628561871028
40
0.598544932550285
40
0.631933903310292
40
0.665322874070299
40
0.687582187910299
40
0.709841501750309
40
0.743230472510316
40
0.776619443270323
40
0.798878757110328
40
0.832267727870335
40
0.85452704171034
40
0.887916012470347
40
0.910175326310352
40
0.943564297070359
40
0.976953267830366
40
0.999212581670371
40
1
40
1
40
1
40
1
40
1
40
1
41
1
10
13.3889979808036
20
4.55765141786389
30
0
41
1
10
13.7117591320041
20
4.52721960711898
30
0
41
1
10
14.1462162617802
20
4.47863707024777
30
0
41
1
10
14.7482173594197
20
4.39726593440699
30
0
41
1
10
15.4619144356347
20
4.27819156716865
30
0
41
1
10
16.3431554797132
20
4.09938604694293
30
0
41
1
10
17.0133313511668
20
3.9450850279631
30
0
41
1
10
17.7393552119082
20
3.75890601499842
30
0
41
1
10
18.4653790726496
20
3.55451505999227
30
0
41
1
10
19.191402933391
20
3.33120491139275
30
0
41
1
10
19.9174267941324
20
3.09179405774765
30
0
41
1
10
20.6434506548738
20
2.83598617289502
30
0
41
1
10
21.3694745156151
20
2.56653931768327
30
0
41
1
10
22.0396503870687
20
2.30630826001067
30
0
41
1
10
22.7656742478101
20
2.01331794049244
30
0
41
1
10
23.4916981085515
20
1.71052525672886
30
0
41
1
10
24.2177219692929
20
1.39860020831634
30
0
41
1
10
24.8878978407465
20
1.10442953187064
30
0
41
1
10
25.6139217014879
20
0.780567280376061
30
0
41
1
10
26.3399455622292
20
0.452933951111959
30
0
41
1
10
27.0101214336829
20
0.148332365981304
30
0
41
1
10
27.7361452944242
20
-0.182369618769485
30
0
41
1
10
28.5180171444534
20
-0.537417865750967
30
0
41
1
10
29.2440410051948
20
-0.864294383191833
30
0
41
1
10
29.9142168766484
20
-1.16217049936077
30
0
41
1
10
30.6402407373898
20
-1.47909526523816
30
0
41
1
10
31.3662645981311
20
-1.78887422389107
30
0
41
1
10
32.0364404695847
20
-2.06698483364937
30
0
41
1
10
32.7624643303261
20
-2.35828097459526
30
0
41
1
10
33.4884881910675
20
-2.63700540371301
30
0
41
1
10
34.2145120518089
20
-2.9029200367267
30
0
41
1
10
34.8846879232625
20
-3.1354904809661
30
0
41
1
10
35.6107117840038
20
-3.37223016027383
30
0
41
1
10
36.3367356447453
20
-3.59273124063458
30
0
41
1
10
37.0627595054866
20
-3.79416812182305
30
0
41
1
10
37.6251906190315
20
-3.93600962275829
30
0
41
1
10
38.0759257540009
20
-4.04004357607397
30
0
41
1
10
38.3591169211068
20
-4.10150143642502
30
0
41
1
10
38.4747641203494
20
-4.12594128874633
30
0
41
1
10
38.4787153410163
20
-4.12677553653191
30
0
0
SPLINE
5
10A
100
AcDbEntity
8
1
62
256
6
ByLayer
370
18
48
1
60
0
100
AcDbSpline
70
4
71
3
72
102
73
98
40
0
40
0
40
0
40
0
40
0.0033038701107082
40
0.0033038701107082
40
0.0402185415880896
40
0.0402185415880896
40
0.0771332130654709
40
0.0771332130654709
40
0.114047884542852
40
0.114047884542852
40
0.150962556020234
40
0.150962556020234
40
0.160191223889579
40
0.160191223889579
40
0.169419891758925
40
0.169419891758925
40
0.187877227497617
40
0.187877227497617
40
0.206334563236309
40
0.206334563236309
40
0.224791898975001
40
0.224791898975001
40
0.261706570452387
40
0.261706570452387
40
0.298621241929772
40
0.298621241929772
40
0.335535913407157
40
0.335535913407157
40
0.353993249145849
40
0.353993249145849
40
0.372450584884541
40
0.372450584884541
40
0.381679252753888
40
0.381679252753888
40
0.390907920623234
40
0.390907920623234
40
0.409365256361928
40
0.409365256361928
40
0.446279927839313
40
0.446279927839313
40
0.464737263578005
40
0.464737263578005
40
0.473965931447351
40
0.473965931447351
40
0.483194599316697
40
0.483194599316697
40
0.501651935055388
40
0.501651935055388
40
0.52010927079408
40
0.52010927079408
40
0.538566606532771
40
0.538566606532771
40
0.557023942271462
40
0.557023942271462
40
0.575481278010153
40
0.575481278010153
40
0.584709945879498
40
0.584709945879498
40
0.593938613748844
40
0.593938613748844
40
0.630853285226222
40
0.630853285226222
40
0.667767956703601
40
0.667767956703601
40
0.70468262818098
40
0.70468262818098
40
0.723139963919669
40
0.723139963919669
40
0.741597299658357
40
0.741597299658357
40
0.760054635397046
40
0.760054635397046
40
0.778511971135735
40
0.778511971135735
40
0.783126305070408
40
0.783126305070408
40
0.787740639005081
40
0.787740639005081
40
0.796969306874425
40
0.796969306874425
40
0.815426642613113
40
0.815426642613113
40
0.85234131409049
40
0.85234131409049
40
0.889255985567867
40
0.889255985567867
40
0.907713321306555
40
0.907713321306555
40
0.926170657045243
40
0.926170657045243
40
0.963085328522621
40
0.963085328522621
40
0.98154266426131
40
0.98154266426131
40
0.990771332130655
40
0.990771332130655
40
1
40
1
40
1
40
1
41
1
10
42.1169126947319
20
-6.26264824853999
30
0
41
1
10
42.0861668554055
20
-6.27588875933975
30
0
41
1
10
42.0554296002714
20
-6.28904103334352
30
0
41
1
10
41.6813587736424
20
-6.4480696566097
30
0
41
1
10
41.3390408197174
20
-6.58298993735815
30
0
41
1
10
40.655303587691
20
-6.82976184639531
30
0
41
1
10
40.3138374702862
20
-6.9417310866736
30
0
41
1
10
39.630386104734
20
-7.14267454378597
30
0
41
1
10
39.2884287372682
20
-7.23157792519274
30
0
41
1
10
38.6029028701723
20
-7.38513458746525
30
0
41
1
10
38.2593360311901
20
-7.44979798478269
30
0
41
1
10
37.8280834412637
20
-7.51454749485873
30
0
41
1
10
37.7417431544309
20
-7.52668726228009
30
0
41
1
10
37.5688573085353
20
-7.54937554363914
30
0
41
1
10
37.4822635493638
20
-7.5599316770446
30
0
41
1
10
37.2224653308529
20
-7.58924241463026
30
0
41
1
10
37.0496659088759
20
-7.60558370316676
30
0
41
1
10
36.704751569502
20
-7.63181196506758
30
0
41
1
10
36.5326376198358
20
-7.64169656525837
30
0
41
1
10
36.1889856716808
20
-7.6548938817964
30
0
41
1
10
36.017458366458
20
-7.65816349636415
30
0
41
1
10
35.5034354329899
20
-7.65839912059141
30
0
41
1
10
35.1614382678883
20
-7.64607987895238
30
0
41
1
10
34.4778995958486
20
-7.59555430799981
30
0
41
1
10
34.1363850071667
20
-7.55710301551085
30
0
41
1
10
33.4523017255731
20
-7.45583625582489
30
0
41
1
10
33.1097993295538
20
-7.39277038725402
30
0
41
1
10
32.5945216791882
20
-7.27868086612452
30
0
41
1
10
32.4224961852119
20
-7.23747473406723
30
0
41
1
10
32.0777270909597
20
-7.14904748710669
30
0
41
1
10
31.9049917210158
20
-7.10175755655999
30
0
41
1
10
31.6452523725006
20
-7.02605615602684
30
0
41
1
10
31.5585667251221
20
-7.00002854876794
30
0
41
1
10
31.3854110858347
20
-6.9465116814639
30
0
41
1
10
31.298885459362
20
-6.91900652194823
30
0
41
1
10
31.0394401681266
20
-6.83424684531647
30
0
41
1
10
30.8666540607353
20
-6.77473213839642
30
0
41
1
10
30.3484151104782
20
-6.58808910431722
30
0
41
1
10
30.0031557379317
20
-6.45261294188506
30
0
41
1
10
29.484853185057
20
-6.23256980894058
30
0
41
1
10
29.3120189523503
20
-6.15638258176546
30
0
41
1
10
29.0524985856507
20
-6.03820234079626
30
0
41
1
10
28.9659457859305
20
-5.99816926445126
30
0
41
1
10
28.7927339430983
20
-5.91680763162276
30
0
41
1
10
28.7060648025671
20
-5.87547162034099
30
0
41
1
10
28.4463115822502
20
-5.74969748842628
30
0
41
1
10
28.2733390089509
20
-5.66343527536779
30
0
41
1
10
27.927646106653
20
-5.48616854133235
30
0
41
1
10
27.7549338446555
20
-5.39512994677742
30
0
41
1
10
27.4095682874471
20
-5.20858369802352
30
0
41
1
10
27.236895359654
20
-5.11316266816567
30
0
41
1
10
26.8914574240653
20
-4.91801221160827
30
0
41
1
10
26.7186993483108
20
-4.81824777360993
30
0
41
1
10
26.3729386568608
20
-4.61451612882692
30
0
41
1
10
26.1999358805821
20
-4.510550453067
30
0
41
1
10
25.9401267325547
20
-4.35156191400901
30
0
41
1
10
25.8534719928879
20
-4.29805733453753
30
0
41
1
10
25.6804806651215
20
-4.19033178003926
30
0
41
1
10
25.5940887262315
20
-4.13607756494841
30
0
41
1
10
25.1625824221939
20
-3.86294953567557
30
0
41
1
10
24.8188205685378
20
-3.63852547818772
30
0
41
1
10
24.1330412550734
20
-3.17923713573958
30
0
41
1
10
23.7910167299931
20
-2.94438330821529
30
0
41
1
10
23.1073891266448
20
-2.46606845487244
30
0
41
1
10
22.7658073800509
20
-2.22255677403473
30
0
41
1
10
22.2528816483153
20
-1.85188286429909
30
0
41
1
10
22.0818115206651
20
-1.72743056020764
30
0
41
1
10
21.7393125503777
20
-1.47699039564466
30
0
41
1
10
21.5678939709573
20
-1.35096935916272
30
0
41
1
10
21.2245760029833
20
-1.0974557781343
30
0
41
1
10
21.052670324741
20
-0.969984832194939
30
0
41
1
10
20.7081906360279
20
-0.713880668668622
30
0
41
1
10
20.5356162265024
20
-0.585253264155313
30
0
41
1
10
20.3193864853438
20
-0.423841357568534
30
0
41
1
10
20.2761149393742
20
-0.391527470743739
30
0
41
1
10
20.1895181381083
20
-0.326839173457245
30
0
41
1
10
20.1461840109668
20
-0.294458126154837
30
0
41
1
10
20.0163158065749
20
-0.197391393090612
30
0
41
1
10
19.9298478849624
20
-0.132730788609479
30
0
41
1
10
19.6707478063314
20
0.0610605162884212
30
0
41
1
10
19.4984167688296
20
0.18999854404791
30
0
41
1
10
18.9823188518954
20
0.575693774485813
30
0
41
1
10
18.6394098121558
20
0.831320546109623
30
0
41
1
10
17.9549351489864
20
1.33810003865858
30
0
41
1
10
17.6133226526317
20
1.58922481408967
30
0
41
1
10
17.1008746256001
20
1.96130503136439
30
0
41
1
10
16.9300523312534
20
2.08456510087851
30
0
41
1
10
16.5882648067438
20
2.32935235349541
30
0
41
1
10
16.4173101331833
20
2.45087707594092
30
0
41
1
10
15.9039700891643
20
2.81253548951722
30
0
41
1
10
15.5610817867802
20
3.04978201971161
30
0
41
1
10
15.0449238511031
20
3.39858809970397
30
0
41
1
10
14.8725710227529
20
3.51366977031631
30
0
41
1
10
14.6134607567017
20
3.68433296864617
30
0
41
1
10
14.5269923890648
20
3.74089632998744
30
0
41
1
10
14.3538347981805
20
3.8533569698856
30
0
41
1
10
14.2671678688841
20
3.90923898055516
30
0
41
1
10
14.1805649660702
20
3.96465666646662
30
0
0
SPLINE
5
10B
100
AcDbEntity
8
1
62
256
6
ByLayer
370
18
48
1
60
0
100
AcDbSpline
70
4
71
3
72
14
73
10
40
0
40
0
40
0
40
0
40
0.128334919936293
40
0.256669839872585
40
0.385004759808878
40
0.513339679745171
40
0.641674599681463
40
0.770009519617756
40
1
40
1
40
1
40
1
41
1
10
12.7688841652941
20
-0.36473291874708
30
0
41
1
10
12.5666043939101
20
-0.54536621186017
30
0
41
1
10
12.131285968302
20
-0.871975068481021
30
0
41
1
10
11.5001003688925
20
-1.36786673732647
30
0
41
1
10
10.8798778128074
20
-1.83303587553411
30
0
41
1
10
10.2782066577663
20
-2.25326015130668
30
0
41
1
10
9.69868090668879
20
-2.6101741659798
30
0
41
1
10
8.98366318604224
20
-2.94304763284745
30
0
41
1
10
8.46248572881441
20
-3.02468185449627
30
0
41
1
10
8.1145130737911
20
-2.97802998355923
30
0
0
SPLINE
5
10C
100
AcDbEntity
8
1
62
256
6
ByLayer
370
18
48
1
60
0
100
AcDbSpline
70
4
71
3
72
90
73
86
40
0
40
0
40
0
40
0
40
0.0624999999999972
40
0.0624999999999972
40
0.124999999999994
40
0.124999999999994
40
0.187499999999992
40
0.187499999999992
40
0.218749999999991
40
0.218749999999991
40
0.23437499999999
40
0.23437499999999
40
0.24999999999999
40
0.24999999999999
40
0.312499999999986
40
0.312499999999986
40
0.374999999999982
40
0.374999999999982
40
0.40624999999998
40
0.40624999999998
40
0.437499999999978
40
0.437499999999978
40
0.453124999999977
40
0.453124999999977
40
0.468749999999976
40
0.468749999999976
40
0.499999999999975
40
0.499999999999975
40
0.531249999999974
40
0.531249999999974
40
0.539062499999974
40
0.539062499999974
40
0.546874999999974
40
0.546874999999974
40
0.562499999999974
40
0.562499999999974
40
0.593749999999973
40
0.593749999999973
40
0.624999999999972
40
0.624999999999972
40
0.656249999999972
40
0.656249999999972
40
0.671874999999971
40
0.671874999999971
40
0.675781249999971
40
0.675781249999971
40
0.679687499999971
40
0.68749999999997
40
0.68749999999997
40
0.71874999999997
40
0.71874999999997
40
0.72265624999997
40
0.72265624999997
40
0.72656249999997
40
0.72656249999997
40
0.73437499999997
40
0.73437499999997
40
0.749999999999971
40
0.749999999999971
40
0.765624999999972
40
0.765624999999972
40
0.773437499999973
40
0.773437499999973
40
0.781249999999974
40
0.781249999999974
40
0.812499999999978
40
0.812499999999978
40
0.828124999999981
40
0.828124999999981
40
0.835937499999981
40
0.835937499999981
40
0.843749999999982
40
0.843749999999982
40
0.874999999999986
40
0.874999999999986
40
0.90624999999999
40
0.90624999999999
40
0.937499999999995
40
0.937499999999995
40
0.953124999999997
40
0.960937499999997
40
0.960937499999997
40
0.968749999999997
40
0.968749999999997
40
1
40
1
40
1
40
1
41
1
10
8.11437776395431
20
-2.97808384646916
30
0
41
1
10
7.89281478655425
20
-2.81695655867259
30
0
41
1
10
7.67315589607895
20
-2.65169036905161
30
0
41
1
10
7.23713095651243
20
-2.3132002617478
30
0
41
1
10
7.02076311347642
20
-2.13997999246001
30
0
41
1
10
6.59103696663351
20
-1.78560702702359
30
0
41
1
10
6.37767599132778
20
-1.6044597153853
30
0
41
1
10
6.0599037245841
20
-1.32648478557385
30
0
41
1
10
5.95436040604849
20
-1.23278030386612
30
0
41
1
10
5.79664574442779
20
-1.09057276112847
30
0
41
1
10
5.74417445369301
20
-1.04289477237535
30
0
41
1
10
5.63944002805846
20
-0.946969729978377
30
0
41
1
10
5.58715800570747
20
-0.898704602618352
30
0
41
1
10
5.32699047292729
20
-0.656557000385106
30
0
41
1
10
5.12228671032312
20
-0.459772667021412
30
0
41
1
10
4.72095183298927
20
-0.0589616541763576
30
0
41
1
10
4.5243024099864
20
0.14504822255654
30
0
41
1
10
4.23708458649139
20
0.458058278084252
30
0
41
1
10
4.14264786755712
20
0.563569900517393
30
0
41
1
10
3.9568330649775
20
0.777360019042987
30
0
41
1
10
3.86545274814969
20
0.885636460437155
30
0
41
1
10
3.73114263704829
20
1.05055522701522
30
0
41
1
10
3.68683419570112
20
1.10594691271692
30
0
41
1
10
3.59924168802655
20
1.21766088753895
30
0
41
1
10
3.55590949745098
20
1.27404777180732
30
0
41
1
10
3.42805700504573
20
1.44419996207967
30
0
41
1
10
3.34567505357748
20
1.55892472347182
30
0
41
1
10
3.1878692704334
20
1.79163870784674
30
0
41
1
10
3.11243575254954
20
1.90962259919058
30
0
41
1
10
3.02362195504517
20
2.0597600121622
30
0
41
1
10
3.0061349579361
20
2.08992138915732
30
0
41
1
10
2.97174944437774
20
2.15053214533594
30
0
41
1
10
2.95483577814315
20
2.18101010252863
30
0
41
1
10
2.90519874763263
20
2.2726120091269
30
0
41
1
10
2.87355284282654
20
2.33394121923323
30
0
41
1
10
2.78343997521637
20
2.51884758724793
30
0
41
1
10
2.72974821469296
20
2.64332974789656
30
0
41
1
10
2.63868389243237
20
2.89569666326116
30
0
41
1
10
2.60125886053541
20
3.02358800681907
30
0
41
1
10
2.54837240841312
20
3.28424995593548
30
0
41
1
10
2.53371700083469
20
3.41338746378239
30
0
41
1
10
2.53294346351737
20
3.60538473926562
30
0
41
1
10
2.53623319048484
20
3.66909911902914
30
0
41
1
10
2.54527465901489
20
3.74839640335864
30
0
41
1
10
2.54733390372948
20
3.7642647587536
30
0
41
1
10
2.55193753580551
20
3.795817475348
30
0
41
1
10
2.55956577256853
20
3.84285843570874
30
0
41
1
10
2.56935953068586
20
3.88904285778219
30
0
41
1
10
2.60681121540122
20
4.04111963145658
30
0
41
1
10
2.65212230151624
20
4.15680331699068
30
0
41
1
10
2.72052540082785
20
4.28058957722274
30
0
41
1
10
2.72836829177012
20
4.29425513180118
30
0
41
1
10
2.74454058673973
20
4.3214102748598
30
0
41
1
10
2.75288149317495
20
4.33491682622642
30
0
41
1
10
2.77848343438936
20
4.37494085220064
30
0
41
1
10
2.79635644716558
20
4.40102362002426
30
0
41
1
10
2.85227799677654
20
4.4775753070561
30
0
41
1
10
2.89262553424237
20
4.52635066822467
30
0
41
1
10
2.97894882601651
20
4.61984912118345
30
0
41
1
10
3.02492543221334
20
4.66457143437722
30
0
41
1
10
3.09781125336266
20
4.7288971465747
30
0
41
1
10
3.12281690052012
20
4.74992176277442
30
0
41
1
10
3.17369580378329
20
4.79077952290768
30
0
41
1
10
3.19958973885846
20
4.81063591359904
30
0
41
1
10
3.331180943421
20
4.9072721637892
30
0
41
1
10
3.44318456064488
20
4.97619801974969
30
0
41
1
10
3.61920649300046
20
5.07000472792899
30
0
41
1
10
3.67922813366354
20
5.09966009850842
30
0
41
1
10
3.77110323079663
20
5.14198160825242
30
0
41
1
10
3.80203581363122
20
5.1557278904844
30
0
41
1
10
3.86449100694392
20
5.18253510280627
30
0
41
1
10
3.89604716521512
20
5.19560933831582
30
0
41
1
10
4.05485454667823
20
5.25919270609981
30
0
41
1
10
4.18430029621456
20
5.30406428762529
30
0
41
1
10
4.44705945223547
20
5.38450234443465
30
0
41
1
10
4.5803795447533
20
5.42004932592903
30
0
41
1
10
4.85030955052932
20
5.48349598782917
30
0
41
1
10
4.98692272234243
20
5.51138622488469
30
0
41
1
10
5.19401937303286
20
5.54831616717999
30
0
41
1
10
5.29811376926975
20
5.56554944105113
30
0
41
1
10
5.40298584532957
20
5.58105306773149
30
0
41
1
10
5.47306954612918
20
5.59101532336459
30
0
41
1
10
5.5082209346416
20
5.59581296123412
30
0
41
1
10
5.68395994009734
20
5.61883858987727
30
0
41
1
10
5.82463249556597
20
5.63421623555058
30
0
41
1
10
5.96537708931186
20
5.64695558728209
30
0
0
SPLINE
5
10D
100
AcDbEntity
8
1
62
256
6
ByLayer
370
18
48
1
60
0
100
AcDbSpline
70
4
71
3
72
52
73
48
40
0
40
0
40
0
40
0
40
0.0442646682209328
40
0.0888831403683799
40
0.133850022846662
40
0.179159633853242
40
0.224806006002999
40
0.241144354073652
40
0.257646187163968
40
0.274311117634964
40
0.291138737647573
40
0.308128618859706
40
0.32528031212439
40
0.342593347189756
40
0.3600672324013
40
0.377701454407153
40
0.395495477866949
40
0.413448745164918
40
0.431560676127752
40
0.449830667748035
40
0.468258093914106
40
0.486842305733382
40
0.505582632353106
40
0.52447837914271
40
0.54352882708986
40
0.562733232544719
40
0.582090826974342
40
0.601600816727699
40
0.621262382812219
40
0.641074680682572
40
0.661036840042352
40
0.681147964659582
40
0.701407132196661
40
0.721813394055572
40
0.742365775239141
40
0.76306327422904
40
0.783904862881379
40
0.804889486340595
40
0.826016062695429
40
0.847283480909152
40
0.868690602238559
40
0.890236261518513
40
0.911919267179264
40
0.933738401271534
40
0.955692419510082
40
0.97778005133626
40
1
40
1
40
1
40
1
41
1
10
14.1805139827464
20
-6.25969658881658
30
0
41
1
10
14.1642395210245
20
-6.27994291161903
30
0
41
1
10
14.1315605171196
20
-6.32059738445076
30
0
41
1
10
14.0818222244913
20
-6.38084853547909
30
0
41
1
10
14.0313088239731
20
-6.44084475720524
30
0
41
1
10
13.9799814139702
20
-6.5004881365706
30
0
41
1
10
13.9391362532011
20
-6.54693943849185
30
0
41
1
10
13.9090896968082
20
-6.58060029979052
30
0
41
1
10
13.8900793143523
20
-6.60172475991266
30
0
41
1
10
13.8708235871373
20
-6.6229493616799
30
0
41
1
10
13.8513222567853
20
-6.64427057746241
30
0
41
1
10
13.8315754163037
20
-6.6656848980445
30
0
41
1
10
13.8115830640296
20
-6.6871887350691
30
0
41
1
10
13.7913452249421
20
-6.70877844796783
30
0
41
1
10
13.7708619177213
20
-6.73045033712913
30
0
41
1
10
13.7501331637386
20
-6.75220064632964
30
0
41
1
10
13.7291589846518
20
-6.77402556273708
30
0
41
1
10
13.7079394031003
20
-6.79592121766044
30
0
41
1
10
13.6864744425498
20
-6.8178836872026
30
0
41
1
10
13.6647641274096
20
-6.839908992989
30
0
41
1
10
13.6428084826852
20
-6.86199310338171
30
0
41
1
10
13.6206075338742
20
-6.88413193448449
30
0
41
1
10
13.5981613104622
20
-6.90632134723211
30
0
41
1
10
13.5754698417383
20
-6.92855715302994
30
0
41
1
10
13.5525331579536
20
-6.95083511379065
30
0
41
1
10
13.5293512903731
20
-6.97315094321672
30
0
41
1
10
13.505924271326
20
-6.99550030816897
30
0
41
1
10
13.4822521342202
20
-7.01787883017224
30
0
41
1
10
13.4583349135651
20
-7.04028208700944
30
0
41
1
10
13.4341726449923
20
-7.06270561441991
30
0
41
1
10
13.4097653652763
20
-7.08514490789958
30
0
41
1
10
13.3851131123536
20
-7.10759542460664
30
0
41
1
10
13.3602159253426
20
-7.13005258536955
30
0
41
1
10
13.3350738445612
20
-7.15251177681554
30
0
41
1
10
13.3096869115461
20
-7.17496835355806
30
0
41
1
10
13.2840551690651
20
-7.19741764068036
30
0
41
1
10
13.2581786611489
20
-7.2198549356267
30
0
41
1
10
13.2320574331624
20
-7.24227551275683
30
0
41
1
10
13.2056915329969
20
-7.26467461730999
30
0
41
1
10
13.1790810071906
20
-7.28704751416046
30
0
41
1
10
13.1522258904648
20
-7.30938941531957
30
0
41
1
10
13.1251262619631
20
-7.33169560736971
30
0
41
1
10
13.0977820374906
20
-7.35396093503556
30
0
41
1
10
13.0701937475364
20
-7.37618176524782
30
0
41
1
10
13.0423596066709
20
-7.39834859009258
30
0
41
1
10
13.0142865514299
20
-7.42047389432469
30
0
41
1
10
12.9954505066213
20
-7.43510603272429
30
0
41
1
10
12.9860043589407
20
-7.44244395008482
30
0
0
SPLINE
5
10E
100
AcDbEntity
8
1
62
256
6
ByLayer
370
18
48
1
60
0
100
AcDbSpline
70
4
71
5
72
15
73
9
40
0
40
0
40
0
40
0
40
0
40
0
40
0.137345843832351
40
0.553301641900209
40
0.830605507278781
40
1
40
1
40
1
40
1
40
1
40
1
41
1
10
14.9999999245388
20
-7.87236120720343
30
0
41
1
10
14.944678018336
20
-7.86467115644476
30
0
41
1
10
14.7218121442698
20
-7.83253440256996
30
0
41
1
10
14.387250291628
20
-7.77730472190604
30
0
41
1
10
13.984457570282
20
-7.6982734519502
30
0
41
1
10
13.581664848936
20
-7.60435320355938
30
0
41
1
10
13.2341940337928
20
-7.51245437712791
30
0
41
1
10
13.054267186513
20
-7.4619824033829
30
0
41
1
10
12.9860363178088
20
-7.44242962691075
30
0
0
SPLINE
5
10F
100
AcDbEntity
8
1
62
256
6
ByLayer
370
18
48
1
60
0
100
AcDbSpline
70
4
71
3
72
27
73
23
40
0
40
0
40
0
40
0
40
0.0625000000000026
40
0.0625000000000026
40
0.125000000000005
40
0.125000000000005
40
0.250000000000016
40
0.250000000000016
40
0.281250000000016
40
0.281250000000016
40
0.312500000000016
40
0.375000000000016
40
0.375000000000016
40
0.500000000000011
40
0.500000000000011
40
0.625000000000006
40
0.625000000000006
40
0.687500000000006
40
0.687500000000006
40
0.750000000000006
40
0.750000000000006
40
1
40
1
40
1
40
1
41
1
10
5.96537708931317
20
-5.25902002840962
30
0
41
1
10
6.04953861703055
20
-5.25091592619211
30
0
41
1
10
6.13360575746856
20
-5.24562416434193
30
0
41
1
10
6.30158035206188
20
-5.23983072755317
30
0
41
1
10
6.38548761085437
20
-5.2393343499771
30
0
41
1
10
6.63699702446522
20
-5.24421880425771
30
0
41
1
10
6.80438851814867
20
-5.25592985891672
30
0
41
1
10
7.01332632549861
20
-5.27948901243585
30
0
41
1
10
7.05513562573861
20
-5.28465574818529
30
0
41
1
10
7.13855987692224
20
-5.29583867101201
30
0
41
1
10
7.26310044784276
20
-5.31384468360784
30
0
41
1
10
7.38593653480319
20
-5.33534179605147
30
0
41
1
10
7.62950408412468
20
-5.38254867638341
30
0
41
1
10
7.78908496180046
20
-5.41962149997417
30
0
41
1
10
8.10323807735023
20
-5.5031855114423
30
0
41
1
10
8.25780518861245
20
-5.54968727827725
30
0
41
1
10
8.48615916982575
20
-5.62547324157072
30
0
41
1
10
8.56169307240202
20
-5.65174282546755
30
0
41
1
10
8.71162531940726
20
-5.70613945107655
30
0
41
1
10
8.78611568388945
20
-5.73430616303369
30
0
41
1
10
9.15311462106263
20
-5.87831436352224
30
0
41
1
10
9.43130720921633
20
-6.00427548714637
30
0
41
1
10
9.69683294248199
20
-6.13542522460259
30
0
0
SPLINE
5
110
100
AcDbEntity
8
1
62
256
6
ByLayer
370
18
48
1
60
0
100
AcDbSpline
70
4
71
3
72
10
73
6
40
0
40
0
40
0
40
0
40
0.5
40
0.5
40
1
40
1
40
1
40
1
41
1
10
9.69707143265865
20
-6.13540864753512
30
0
41
1
10
10.2452322482202
20
-6.4102447948903
30
0
41
1
10
10.7933930637817
20
-6.65864647885255
30
0
41
1
10
11.8897146949047
20
-7.09619864162846
30
0
41
1
10
12.4378755104662
20
-7.28534427490987
30
0
41
1
10
12.9860363260277
20
-7.44242956495793
30
0
0
SPLINE
5
111
100
AcDbEntity
8
1
62
256
6
ByLayer
370
18
48
1
60
0
100
AcDbSpline
70
4
71
3
72
8
73
4
40
0
40
0
40
0
40
0
40
1
40
1
40
1
40
1
41
1
10
45.816564892666
20
1.91008052872365
30
0
41
1
10
45.8092278670708
20
1.91564310688489
30
0
41
1
10
45.8019007012576
20
1.92118532625932
30
0
41
1
10
45.7945851166251
20
1.92670878384206
30
0
0
SPLINE
5
112
100
AcDbEntity
8
1
62
256
6
ByLayer
370
18
48
1
60
0
100
AcDbSpline
70
4
71
3
72
8
73
4
40
0
40
0
40
0
40
0
40
1
40
1
40
1
40
1
41
1
10
45.8370927998179
20
1.89451398141407
30
0
41
1
10
45.8611063051263
20
1.87630042419602
30
0
41
1
10
45.8851079438977
20
1.85808819015051
30
0
41
1
10
45.9091003299063
20
1.83988074273017
30
0
0
SPLINE
5
113
100
AcDbEntity
8
1
62
256
6
ByLayer
370
18
48
1
60
0
100
AcDbSpline
70
4
71
3
72
42
73
38
40
0
40
0
40
0
40
0
40
0.0625000000000324
40
0.0625000000000324
40
0.125000000000065
40
0.125000000000065
40
0.156250000000081
40
0.156250000000081
40
0.187500000000097
40
0.187500000000097
40
0.25000000000013
40
0.25000000000013
40
0.281250000000146
40
0.281250000000146
40
0.312500000000162
40
0.343750000000179
40
0.359375000000187
40
0.359375000000187
40
0.375000000000195
40
0.375000000000195
40
0.437500000000175
40
0.437500000000175
40
0.468750000000165
40
0.468750000000165
40
0.500000000000155
40
0.500000000000155
40
0.562500000000136
40
0.562500000000136
40
0.625000000000116
40
0.625000000000116
40
0.687500000000097
40
0.687500000000097
40
0.750000000000077
40
0.750000000000077
40
0.875000000000039
40
0.875000000000039
40
1
40
1
40
1
40
1
41
1
10
45.8355610638655
20
1.90637322057054
30
0
41
1
10
45.8606676263893
20
1.88915798807659
30
0
41
1
10
45.8862946644682
20
1.87278009486542
30
0
41
1
10
45.9389289521076
20
1.84226020618351
30
0
41
1
10
45.9659328402753
20
1.82811270890869
30
0
41
1
10
46.0078582196357
20
1.80920285585302
30
0
41
1
10
46.0220571361572
20
1.80329904221912
30
0
41
1
10
46.0506180782897
20
1.79254856274702
30
0
41
1
10
46.0650224248789
20
1.78768203833059
30
0
41
1
10
46.1086545175639
20
1.7748027779385
30
0
41
1
10
46.1382987553213
20
1.76849980395221
30
0
41
1
10
46.1838307526494
20
1.76341829071515
30
0
41
1
10
46.1992955174042
20
1.76245977385634
30
0
41
1
10
46.2299115891521
20
1.7621834042163
30
0
41
1
10
46.2602598308199
20
1.76351736986331
30
0
41
1
10
46.2975334283864
20
1.76915854141208
30
0
41
1
10
46.3196056339804
20
1.77429113419044
30
0
41
1
10
46.3342564194762
20
1.77809521748057
30
0
41
1
10
46.3415662248016
20
1.78019450612277
30
0
41
1
10
46.3775620042943
20
1.79149841999839
30
0
41
1
10
46.4048607925174
20
1.8031617664999
30
0
41
1
10
46.4440909848412
20
1.8236328721905
30
0
41
1
10
46.456879475256
20
1.83095592990085
30
0
41
1
10
46.481948516876
20
1.84647619462618
30
0
41
1
10
46.4942659259649
20
1.85470104911931
30
0
41
1
10
46.5301959999654
20
1.8802726144252
30
0
41
1
10
46.5528342677588
20
1.89850991083637
30
0
41
1
10
46.5962090708774
20
1.93666744520732
30
0
41
1
10
46.6169403675577
20
1.95659261523659
30
0
41
1
10
46.6569550528105
20
1.99768991518115
30
0
41
1
10
46.67623584738
20
2.01886449654714
30
0
41
1
10
46.7136576402887
20
2.06216332246825
30
0
41
1
10
46.7318083881544
20
2.08430629715608
30
0
41
1
10
46.7845453850485
20
2.15140108837147
30
0
41
1
10
46.8175787198996
20
2.19715494819158
30
0
41
1
10
46.8808179262255
20
2.28983403745022
30
0
41
1
10
46.9110072688468
20
2.33676930661764
30
0
41
1
10
46.9401571683632
20
2.38405701178164
30
0
0
SPLINE
5
114
100
AcDbEntity
8
1
62
256
6
ByLayer
370
18
48
1
60
0
100
AcDbSpline
70
4
71
3
72
28
73
24
40
0
40
0
40
0
40
0
40
0.0486133065477301
40
0.0972266130954603
40
0.14583991964319
40
0.194453226190921
40
0.243066532738651
40
0.291679839286381
40
0.340293145834111
40
0.388906452381841
40
0.437519758929571
40
0.486133065477301
40
0.534746372025031
40
0.583359678572762
40
0.631972985120492
40
0.680586291668222
40
0.729199598215952
40
0.777812904763682
40
0.826426211311412
40
0.875039517859142
40
0.923652824406872
40
0.972266130954603
40
1
40
1
40
1
40
1
41
1
10
45.7945838634435
20
1.92671059933781
30
0
41
1
10
45.4738069396991
20
2.16995209510793
30
0
41
1
10
44.83225309221
20
2.65075767430278
30
0
41
1
10
43.8699223209768
20
3.34857086098114
30
0
41
1
10
42.9075915497433
20
4.01682926553491
30
0
41
1
10
41.9452607785099
20
4.64963477126099
30
0
41
1
10
40.9829300072764
20
5.24140217666007
30
0
41
1
10
40.020599236043
20
5.7869084813868
30
0
41
1
10
39.0582684648096
20
6.28133899222371
30
0
41
1
10
38.0959376935763
20
6.72032981473961
30
0
41
1
10
37.133606922343
20
7.1000063693491
30
0
41
1
10
36.1712761511095
20
7.41701759862255
30
0
41
1
10
35.2089453798762
20
7.66856551782928
30
0
41
1
10
34.2466146086427
20
7.8524299409905
30
0
41
1
10
33.2842838374094
20
7.96698806380945
30
0
41
1
10
32.3219530661758
20
8.01122877958335
30
0
41
1
10
31.3596222949424
20
7.98476161497928
30
0
41
1
10
30.397291523709
20
7.88782015959811
30
0
41
1
10
29.4349607524757
20
7.72126003536138
30
0
41
1
10
28.4726299812422
20
7.48655131289897
30
0
41
1
10
27.5102992100088
20
7.1857655482913
30
0
41
1
10
26.6857422749356
20
6.87370001203413
30
0
41
1
10
26.1819622636068
20
6.65828706902695
30
0
41
1
10
25.9989591760225
20
6.57688613811811
30
0
0
SPLINE
5
115
100
AcDbEntity
8
1
62
256
6
ByLayer
370
18
48
1
60
0
100
AcDbSpline
70
4
71
3
72
10
73
6
40
0
40
0
40
0
40
0
40
0.5
40
0.5
40
1
40
1
40
1
40
1
41
1
10
45.8152469710509
20
1.92028434198446
30
0
41
1
10
45.8122095916639
20
1.9223616767807
30
0
41
1
10
45.8089631974855
20
1.92414351863474
30
0
41
1
10
45.8019577652753
20
1.92654091177786
30
0
41
1
10
45.798232189645
20
1.92710010657106
30
0
41
1
10
45.7945578809874
20
1.9267058785999
30
0
0
SPLINE
5
116
100
AcDbEntity
8
1
62
256
6
ByLayer
370
18
48
1
60
0
100
AcDbSpline
70
4
71
3
72
42
73
38
40
0
40
0
40
0
40
0
40
0.062500000000037
40
0.062500000000037
40
0.125000000000074
40
0.125000000000074
40
0.156250000000079
40
0.156250000000079
40
0.187500000000085
40
0.187500000000085
40
0.250000000000096
40
0.250000000000096
40
0.281250000000115
40
0.281250000000115
40
0.312500000000135
40
0.343750000000154
40
0.359375000000164
40
0.359375000000164
40
0.375000000000174
40
0.375000000000174
40
0.43750000000016
40
0.43750000000016
40
0.468750000000153
40
0.468750000000153
40
0.500000000000146
40
0.500000000000146
40
0.562500000000132
40
0.562500000000132
40
0.625000000000118
40
0.625000000000118
40
0.687500000000104
40
0.687500000000104
40
0.750000000000089
40
0.750000000000089
40
0.875000000000045
40
0.875000000000045
40
1
40
1
40
1
40
1
41
1
10
45.8355610638655
20
-7.61622510480041
30
0
41
1
10
45.8606676263893
20
-7.62139172865574
30
0
41
1
10
45.8862946644681
20
-7.62606588461486
30
0
41
1
10
45.9389289521075
20
-7.63418713340891
30
0
41
1
10
45.9659328402753
20
-7.63763692583359
30
0
41
1
10
46.0078582196356
20
-7.64160980719385
30
0
41
1
10
46.0220571361572
20
-7.64272893382025
30
0
41
1
10
46.0506180782897
20
-7.64448046544217
30
0
41
1
10
46.0650224248787
20
-7.64511724016143
30
0
41
1
10
46.1086545175639
20
-7.64623152815724
30
0
41
1
10
46.1382987553212
20
-7.64591862640805
30
0
41
1
10
46.1838307526493
20
-7.64346168825639
30
0
41
1
10
46.199295517404
20
-7.64229729989202
30
0
41
1
10
46.229911589152
20
-7.63929633436007
30
0
41
1
10
46.2602598251332
20
-7.63563155601648
30
0
41
1
10
46.2975334283863
20
-7.62940706465824
30
0
41
1
10
46.3196056339803
20
-7.62494326065624
30
0
41
1
10
46.3342564194761
20
-7.62180684234534
30
0
41
1
10
46.3415662248015
20
-7.62015406732988
30
0
41
1
10
46.3775620042942
20
-7.61159039821678
30
0
41
1
10
46.4048607925173
20
-7.60373686481822
30
0
41
1
10
46.4440909848411
20
-7.5907584242849
30
0
41
1
10
46.456879475256
20
-7.58623131395905
30
0
41
1
10
46.4819485168759
20
-7.57681337046049
30
0
41
1
10
46.4942659259648
20
-7.57190640303494
30
0
41
1
10
46.5301959999653
20
-7.55683687651197
30
0
41
1
10
46.5528342677587
20
-7.5463237350163
30
0
41
1
10
46.5962090708773
20
-7.52455074029155
30
0
41
1
10
46.6169403675577
20
-7.51328939985336
30
0
41
1
10
46.6569550528105
20
-7.49013207489668
30
0
41
1
10
46.67623584738
20
-7.47823537176563
30
0
41
1
10
46.7136576402887
20
-7.45388090817687
30
0
41
1
10
46.7318083881544
20
-7.44141278288558
30
0
41
1
10
46.7845453850485
20
-7.40349289718154
30
0
41
1
10
46.8175787198996
20
-7.37744396699887
30
0
41
1
10
46.8808179262254
20
-7.32396958856501
30
0
41
1
10
46.9110072688467
20
-7.29654198450217
30
0
41
1
10
46.9401571683631
20
-7.26846404366927
30
0
0
SPLINE
5
117
100
AcDbEntity
8
1
62
256
6
ByLayer
370
18
48
1
60
0
100
AcDbSpline
70
4
71
3
72
8
73
4
40
0
40
0
40
0
40
0
40
1
40
1
40
1
40
1
41
1
10
45.8165648926659
20
-7.61426331652223
30
0
41
1
10
45.8092278670707
20
-7.61263528364424
30
0
41
1
10
45.8019007012575
20
-7.61162919402634
30
0
41
1
10
45.794585116625
20
-7.61125764089491
30
0
0
SPLINE
5
118
100
AcDbEntity
8
1
62
256
6
ByLayer
370
18
48
1
60
0
100
AcDbSpline
70
4
71
3
72
39
73
35
40
0
40
0
40
0
40
0
40
0.03125
40
0.0625
40
0.09375
40
0.125
40
0.15625
40
0.1875
40
0.21875
40
0.25
40
0.28125
40
0.3125
40
0.34375
40
0.375
40
0.40625
40
0.4375
40
0.46875
40
0.5
40
0.53125
40
0.5625
40
0.59375
40
0.625
40
0.65625
40
0.6875
40
0.71875
40
0.75
40
0.78125
40
0.8125
40
0.84375
40
0.875
40
0.90625
40
0.9375
40
0.96875
40
1
40
1
40
1
40
1
41
1
10
45.7945838634402
20
-7.61120706090045
30
0
41
1
10
45.4738069396957
20
-7.53402784049254
30
0
41
1
10
44.8322530922069
20
-7.35724421132576
30
0
41
1
10
43.8699223209737
20
-7.02713280149072
30
0
41
1
10
42.9075915497404
20
-6.63499922007489
30
0
41
1
10
41.945260778507
20
-6.18430447062741
30
0
41
1
10
40.9829300072738
20
-5.67902643134326
30
0
41
1
10
40.0205992360403
20
-5.12362472992106
30
0
41
1
10
39.0582684648071
20
-4.52300139407114
30
0
41
1
10
38.0959376935738
20
-3.88245758208652
30
0
41
1
10
37.1336069223405
20
-3.20764679327542
30
0
41
1
10
36.1712761511072
20
-2.50452497514308
30
0
41
1
10
35.208945379874
20
-1.77929794388993
30
0
41
1
10
34.2466146086406
20
-1.03836662437808
30
0
41
1
10
33.2842838374074
20
-0.288270549377756
30
0
41
1
10
32.3219530661741
20
0.46436986218373
30
0
41
1
10
31.3596222949407
20
1.21291173271166
30
0
41
1
10
30.3972915237073
20
1.95074835747013
30
0
41
1
10
29.4349607524743
20
2.67136751954959
30
0
41
1
10
28.4726299812407
20
3.36840896302309
30
0
41
1
10
27.5102992100075
20
4.03572053096042
30
0
41
1
10
26.5479684387741
20
4.66741246509548
30
0
41
1
10
25.5856376675408
20
5.25790938929191
30
0
41
1
10
24.6233068963076
20
5.80199952060286
30
0
41
1
10
23.6609761250742
20
6.2948806618675
30
0
41
1
10
22.6986453538409
20
6.73220259451062
30
0
41
1
10
21.7363145826076
20
7.11010547077453
30
0
41
1
10
20.7739838113742
20
7.42525388016924
30
0
41
1
10
19.811653040141
20
7.67486629205581
30
0
41
1
10
18.8493222689077
20
7.85673959395788
30
0
41
1
10
17.8869914976744
20
7.96926855542759
30
0
41
1
10
16.924660726441
20
8.01145998762124
30
0
41
1
10
15.9623299552077
20
7.98294149152812
30
0
41
1
10
15.3207761077188
20
7.9169569962136
30
0
41
1
10
14.9999991839743
20
7.8723672876377
30
0
0
SPLINE
5
119
100
AcDbEntity
8
1
62
256
6
ByLayer
370
18
48
1
60
0
100
AcDbSpline
70
4
71
3
72
27
73
23
40
0
40
0
40
0
40
0
40
0.0098493976758093
40
0.0619625872718193
40
0.114075776867829
40
0.166188966463839
40
0.218302156059849
40
0.27041534565586
40
0.322528535251869
40
0.37464172484788
40
0.42675491444389
40
0.4788681040399
40
0.53098129363591
40
0.58309448323192
40
0.63520767282793
40
0.68732086242394
40
0.73943405201995
40
0.79154724161596
40
0.84366043121197
40
0.89577362080798
40
0.94788681040399
40
1
40
1
40
1
40
1
41
1
10
33.4661644425885
20
-7.93900723077155
30
0
41
1
10
33.4055375741954
20
-7.94484552912476
30
0
41
1
10
33.0241337820578
20
-7.97894780260373
30
0
41
1
10
32.3219530661757
20
-8.0112287795836
30
0
41
1
10
31.3596222949424
20
-7.98476161497953
30
0
41
1
10
30.397291523709
20
-7.88782015959836
30
0
41
1
10
29.4349607524756
20
-7.72126003536161
30
0
41
1
10
28.4726299812421
20
-7.4865513128992
30
0
41
1
10
27.5102992100087
20
-7.1857655482915
30
0
41
1
10
26.5479684387753
20
-6.82155750466492
30
0
41
1
10
25.5856376675419
20
-6.39714171490436
30
0
41
1
10
24.6233068963084
20
-5.91626411333812
30
0
41
1
10
23.660976125075
20
-5.38316896737277
30
0
41
1
10
22.6986453538418
20
-4.80256142469042
30
0
41
1
10
21.7363145826082
20
-4.1795659830031
30
0
41
1
10
20.7739838113748
20
-3.51968125844414
30
0
41
1
10
19.8116530401415
20
-2.82873145697508
30
0
41
1
10
18.8493222689079
20
-2.11281496558289
30
0
41
1
10
17.8869914976746
20
-1.37825053315964
30
0
41
1
10
16.9246607264412
20
-0.63152149715458
30
0
41
1
10
15.9623299552078
20
0.120781442061315
30
0
41
1
10
15.3207761077188
20
0.621606287586218
30
0
41
1
10
14.9999991839743
20
0.87073596120743
30
0
0
SPLINE
5
11A
100
AcDbEntity
8
1
62
256
6
ByLayer
370
18
48
1
60
0
100
AcDbSpline
70
4
71
3
72
49
73
45
40
0
40
0
40
0
40
0
40
0.0625000000000027
40
0.0625000000000027
40
0.125000000000005
40
0.125000000000005
40
0.156250000000007
40
0.156250000000007
40
0.187500000000008
40
0.187500000000008
40
0.250000000000012
40
0.250000000000012
40
0.265625000000012
40
0.265625000000012
40
0.281250000000013
40
0.281250000000013
40
0.312500000000014
40
0.312500000000014
40
0.375000000000016
40
0.375000000000016
40
0.390625000000017
40
0.390625000000017
40
0.406250000000018
40
0.406250000000018
40
0.437500000000021
40
0.437500000000021
40
0.500000000000025
40
0.500000000000025
40
0.56250000000003
40
0.56250000000003
40
0.59375000000003
40
0.59375000000003
40
0.625000000000031
40
0.625000000000031
40
0.687500000000028
40
0.687500000000028
40
0.750000000000026
40
0.750000000000026
40
0.875000000000017
40
0.875000000000017
40
0.906250000000013
40
0.906250000000013
40
0.937500000000009
40
1
40
1
40
1
40
1
41
1
10
2.60602215709423
20
-7.1794550133817
30
0
41
1
10
2.57986865810307
20
-7.13185881145287
30
0
41
1
10
2.56014707813935
20
-7.08213693891054
30
0
41
1
10
2.53553146877738
20
-6.97827423237834
30
0
41
1
10
2.53062727409403
20
-6.92413417020913
30
0
41
1
10
2.5363744614703
20
-6.83943202454549
30
0
41
1
10
2.5404803999206
20
-6.81061534910717
30
0
41
1
10
2.55350252449745
20
-6.75177791010452
30
0
41
1
10
2.56231561881097
20
-6.72223542871086
30
0
41
1
10
2.59567188903551
20
-6.63334848618899
30
0
41
1
10
2.62712414788959
20
-6.57374175102379
30
0
41
1
10
2.67811646445864
20
-6.49915274860743
30
0
41
1
10
2.68889943601579
20
-6.48423094892098
30
0
41
1
10
2.71164110441413
20
-6.45438841312276
30
0
41
1
10
2.72363058373978
20
-6.43943252163302
30
0
41
1
10
2.76107521434918
20
-6.39492730103152
30
0
41
1
10
2.78801917715367
20
-6.36570421911452
30
0
41
1
10
2.87440505809246
20
-6.27938538519641
30
0
41
1
10
2.93938457761851
20
-6.22363900543377
30
0
41
1
10
3.02884619435855
20
-6.15625079340231
30
0
41
1
10
3.04715169560896
20
-6.14288796977186
30
0
41
1
10
3.08456899404143
20
-6.11639342479361
30
0
41
1
10
3.10365253120645
20
-6.10328311269308
30
0
41
1
10
3.1616625130286
20
-6.06456789904493
30
0
41
1
10
3.20146829873656
20
-6.03949129004965
30
0
41
1
10
3.32395401418341
20
-5.96631778307162
30
0
41
1
10
3.40968767557331
20
-5.92027053743962
30
0
41
1
10
3.58801466571771
20
-5.83308423629754
30
0
41
1
10
3.68061431632893
20
-5.79194792810674
30
0
41
1
10
3.8240009432148
20
-5.73364623307202
30
0
41
1
10
3.87258339325081
20
-5.71477101311572
30
0
41
1
10
3.97030072595845
20
-5.67842742369777
30
0
41
1
10
4.01954151016952
20
-5.66091432800874
30
0
41
1
10
4.16831395366483
20
-5.61022170738846
30
0
41
1
10
4.26889166802056
20
-5.57888346620072
30
0
41
1
10
4.47244962501892
20
-5.52059481330801
30
0
41
1
10
4.57543148720103
20
-5.49364654006641
30
0
41
1
10
4.88756966345127
20
-5.41882594144062
30
0
41
1
10
5.09989567714109
20
-5.37694715444709
30
0
41
1
10
5.36971680931336
20
-5.3334015873134
30
0
41
1
10
5.42382815239066
20
-5.32514830991366
30
0
41
1
10
5.53200243734938
20
-5.30956653000385
30
0
41
1
10
5.69434292754471
20
-5.28755720518359
30
0
41
1
10
5.8569084852852
20
-5.26946471350831
30
0
41
1
10
5.96537708931319
20
-5.25902002840962
30
0
0
SPLINE
5
11B
100
AcDbEntity
8
1
62
256
6
ByLayer
370
18
48
1
60
0
100
AcDbSpline
70
4
71
3
72
20
73
16
40
0
40
0
40
0
40
0
40
0.125
40
0.125
40
0.25
40
0.25
40
0.374999999999999
40
0.374999999999999
40
0.499999999999999
40
0.499999999999999
40
0.749999999999998
40
0.749999999999998
40
0.874999999999999
40
0.874999999999999
40
1
40
1
40
1
40
1
41
1
10
12.9860830520348
20
2.40813691955174
30
0
41
1
10
13.0000914031073
20
2.49945348788052
30
0
41
1
10
13.0172632968332
20
2.58925536062938
30
0
41
1
10
13.0560146022563
20
2.76640034129795
30
0
41
1
10
13.0776071139036
20
2.85373959674357
30
0
41
1
10
13.1239748924209
20
3.02632042263136
30
0
41
1
10
13.1487566684805
20
3.11156007321259
30
0
41
1
10
13.2006502111019
20
3.28018825258343
30
0
41
1
10
13.2277655271446
20
3.36357573356537
30
0
41
1
10
13.3116761505554
20
3.61122132110683
30
0
41
1
10
13.3709899733381
20
3.77297860652303
30
0
41
1
10
13.4625231321509
20
4.01124031617513
30
0
41
1
10
13.4934508257989
20
4.08986179666692
30
0
41
1
10
13.5556775332566
20
4.24516782529238
30
0
41
1
10
13.5870016410283
20
4.32191620384307
30
0
41
1
10
13.6184203065095
20
4.3977974398484
30
0
0
SPLINE
5
11C
100
AcDbEntity
8
1
62
256
6
ByLayer
370
18
48
1
60
0
100
AcDbSpline
70
4
71
3
72
26
73
22
40
0
40
0
40
0
40
0
40
0.220318881904008
40
0.220318881904008
40
0.440637763808017
40
0.440637763808017
40
0.550797204760022
40
0.550797204760022
40
0.578337064998025
40
0.578337064998025
40
0.605876925236027
40
0.605876925236027
40
0.660956645712033
40
0.660956645712033
40
0.771116086664041
40
0.771116086664041
40
0.881275527616049
40
0.881275527616049
40
0.991434968568057
40
0.991434968568057
40
1
40
1
40
1
40
1
41
1
10
8.11437776517138
20
7.19919875143441
30
0
41
1
10
7.80583044023743
20
7.30462977116633
30
0
41
1
10
7.50090231511956
20
7.40206597432206
30
0
41
1
10
6.8970115545398
20
7.5780927574626
30
0
41
1
10
6.59803800827464
20
7.65670283096847
30
0
41
1
10
6.15380978144648
20
7.75842164185454
30
0
41
1
10
6.00644747885954
20
7.78962747159977
30
0
41
1
10
5.82319151109772
20
7.8250087042494
30
0
41
1
10
5.78658790943268
20
7.831903494432
30
0
41
1
10
5.71347830017712
20
7.84532319848208
30
0
41
1
10
5.67696325127829
20
7.85184952703616
30
0
41
1
10
5.56776752193363
20
7.87082912159795
30
0
41
1
10
5.49537499450867
20
7.88269471561131
30
0
41
1
10
5.27946341277618
20
7.91587070205867
30
0
41
1
10
5.13720395150833
20
7.93476398100563
30
0
41
1
10
4.85646282346693
20
7.96571875441177
30
0
41
1
10
4.71797848357761
20
7.97778249993422
30
0
41
1
10
4.4454346091008
20
7.99455376247272
30
0
41
1
10
4.31137024524838
20
7.99926500574529
30
0
41
1
10
4.169800169219
20
7.99997192511125
30
0
41
1
10
4.15960331848837
20
7.99999844977569
30
0
41
1
10
4.14942314320072
20
8.00000023047392
30
0
0
SPLINE
5
11D
100
AcDbEntity
8
1
62
256
6
ByLayer
370
18
48
1
60
0
100
AcDbSpline
70
4
71
3
72
52
73
48
40
0
40
0
40
0
40
0
40
0.0442646682209296
40
0.088883140368379
40
0.133850022846659
40
0.17915963385324
40
0.224806006002995
40
0.241144354073649
40
0.257646187163965
40
0.27431111763496
40
0.29113873764757
40
0.308128618859703
40
0.325280312124387
40
0.342593347189753
40
0.360067232401297
40
0.37770145440715
40
0.395495477866946
40
0.413448745164915
40
0.43156067612775
40
0.449830667748033
40
0.468258093914103
40
0.48684230573338
40
0.505582632353104
40
0.524478379142709
40
0.543528827089859
40
0.562733232544717
40
0.58209082697434
40
0.601600816727697
40
0.621262382812217
40
0.641074680682571
40
0.661036840042351
40
0.681147964659582
40
0.70140713219666
40
0.721813394055571
40
0.74236577523914
40
0.763063274229039
40
0.783904862881378
40
0.804889486340594
40
0.826016062695429
40
0.847283480909152
40
0.868690602238559
40
0.890236261518513
40
0.911919267179265
40
0.933738401271534
40
0.955692419510082
40
0.977780051336261
40
1
40
1
40
1
40
1
41
1
10
14.1805139827465
20
3.96458817036475
30
0
41
1
10
14.1642395210246
20
3.94274157531294
30
0
41
1
10
14.1315605171197
20
3.89887376713537
30
0
41
1
10
14.0818222244913
20
3.8323502190606
30
0
41
1
10
14.0313088239731
20
3.76497568724892
30
0
41
1
10
13.9799814139703
20
3.69672750459873
30
0
41
1
10
13.9391362532011
20
3.64258233456016
30
0
41
1
10
13.9090896968082
20
3.60284535683687
30
0
41
1
10
13.8900793143524
20
3.57774019772921
30
0
41
1
10
13.8708235871373
20
3.55234423543018
30
0
41
1
10
13.8513222567854
20
3.52665695117
30
0
41
1
10
13.8315754163038
20
3.50067768382945
30
0
41
1
10
13.8115830640296
20
3.47440588314353
30
0
41
1
10
13.7913452249421
20
3.44784104360073
30
0
41
1
10
13.7708619177214
20
3.42098272517742
30
0
41
1
10
13.7501331637387
20
3.39383055048785
30
0
41
1
10
13.7291589846518
20
3.36638420836317
30
0
41
1
10
13.7079394031004
20
3.33864345569418
30
0
41
1
10
13.6864744425498
20
3.31060811977676
30
0
41
1
10
13.6647641274096
20
3.28227810046155
30
0
41
1
10
13.6428084826852
20
3.2536533723208
30
0
41
1
10
13.6206075338742
20
3.22473398517621
30
0
41
1
10
13.5981613104622
20
3.19552006061988
30
0
41
1
10
13.5754698417383
20
3.16601180204214
30
0
41
1
10
13.5525331579536
20
3.13620949734028
30
0
41
1
10
13.5293512903731
20
3.10611352162829
30
0
41
1
10
13.505924271326
20
3.07572433954661
30
0
41
1
10
13.4822521342202
20
3.04504250762111
30
0
41
1
10
13.4583349135651
20
3.0140686765933
30
0
41
1
10
13.4341726449924
20
2.98280359373857
30
0
41
1
10
13.4097653652763
20
2.95124810516319
30
0
41
1
10
13.3851131123537
20
2.91940315807898
30
0
41
1
10
13.3602159253426
20
2.88726980304892
30
0
41
1
10
13.3350738445612
20
2.85484919620984
30
0
41
1
10
13.3096869115461
20
2.82214260143007
30
0
41
1
10
13.2840551690651
20
2.78915139254377
30
0
41
1
10
13.2581786611489
20
2.7558770551083
30
0
41
1
10
13.2320574331625
20
2.72232118990027
30
0
41
1
10
13.2056915329969
20
2.68848551126683
30
0
41
1
10
13.1790810071906
20
2.65437188095484
30
0
41
1
10
13.1522258904649
20
2.6199822726677
30
0
41
1
10
13.1251262619631
20
2.58531879483124
30
0
41
1
10
13.0977820374906
20
2.55038356868903
30
0
41
1
10
13.0701937475365
20
2.51517919936319
30
0
41
1
10
13.0423596066709
20
2.47970700387762
30
0
41
1
10
13.0142865514299
20
2.44397369094244
30
0
41
1
10
12.9954505066213
20
2.42003970120302
30
0
41
1
10
12.9860043589407
20
2.40803696899675
30
0
0
SPLINE
5
11E
100
AcDbEntity
8
1
62
256
6
ByLayer
370
18
48
1
60
0
100
AcDbSpline
70
4
71
5
72
15
73
9
40
0
40
0
40
0
40
0
40
0
40
0
40
0.13734584383235
40
0.553301641900205
40
0.830605507278775
40
1
40
1
40
1
40
1
40
1
40
1
41
1
10
14.9999999245388
20
0.870736321460356
30
0
41
1
10
14.944678018336
20
0.913701751295235
30
0
41
1
10
14.7218121442698
20
1.08666121821741
30
0
41
1
10
14.387250291628
20
1.345466873855
30
0
41
1
10
13.984457570282
20
1.65507684855095
30
0
41
1
10
13.581664848936
20
1.96147674145928
30
0
41
1
10
13.2341940337928
20
2.22277299276661
30
0
41
1
10
13.054267186513
20
2.35718035343834
30
0
41
1
10
12.9860363178088
20
2.40801592241434
30
0
0
SPLINE
5
11F
100
AcDbEntity
8
1
62
256
6
ByLayer
370
18
48
1
60
0
100
AcDbSpline
70
4
71
3
72
10
73
6
40
0
40
0
40
0
40
0
40
0.5
40
0.5
40
1
40
1
40
1
40
1
41
1
10
9.69707143265867
20
4.69339323654521
30
0
41
1
10
10.2452322482202
20
4.34657016739325
30
0
41
1
10
10.7933930637817
20
3.97953174025685
30
0
41
1
10
11.8897146949047
20
3.21445462706518
30
0
41
1
10
12.4378755104662
20
2.81642441361308
30
0
41
1
10
12.9860363260277
20
2.40801591367017
30
0
0
SPLINE
5
120
100
AcDbEntity
8
1
62
256
6
ByLayer
370
18
48
1
60
0
100
AcDbSpline
70
4
71
3
72
18
73
14
40
0
40
0
40
0
40
0
40
0.250000000000003
40
0.250000000000003
40
0.500000000000006
40
0.500000000000006
40
0.562500000000006
40
0.562500000000006
40
0.625000000000005
40
0.625000000000005
40
0.750000000000004
40
0.750000000000004
40
1
40
1
40
1
40
1
41
1
10
13.6184203065091
20
4.39779743984866
30
0
41
1
10
13.1612260155291
20
4.69618243494901
30
0
41
1
10
12.7050870736806
20
4.98073567008311
30
0
41
1
10
11.791835278004
20
5.5191161495805
30
0
41
1
10
11.3347275706394
20
5.77294870210076
30
0
41
1
10
10.7607823707796
20
6.06892775467384
30
0
41
1
10
10.645864967928
20
6.12705697481172
30
0
41
1
10
10.4157228064564
20
6.24112497626325
30
0
41
1
10
10.3004389941842
20
6.29709046309455
30
0
41
1
10
9.95498462470323
20
6.46117601863696
30
0
41
1
10
9.72495361332696
20
6.56561824379088
30
0
41
1
10
9.03508071782724
20
6.86372544984863
30
0
41
1
10
8.57546103673536
20
7.04218434318338
30
0
41
1
10
8.11455095207674
20
7.19922167413392
30
0
0
SPLINE
5
121
100
AcDbEntity
8
1
62
256
6
ByLayer
370
18
48
1
60
0
100
AcDbSpline
70
4
71
3
72
8
73
4
40
0
40
0
40
0
40
0
40
1
40
1
40
1
40
1
41
1
10
13.6184203065095
20
4.3977974398484
30
0
41
1
10
13.8001889635901
20
4.24777173143775
30
0
41
1
10
13.9879982349311
20
4.10397032670477
30
0
41
1
10
14.1807270929651
20
3.9646079701138
30
0
0
SPLINE
5
122
100
AcDbEntity
8
1
62
256
6
ByLayer
370
18
48
1
60
0
100
AcDbSpline
70
4
71
3
72
17
73
13
40
0
40
0
40
0
40
0
40
0.123221023472079
40
0.220137454122463
40
0.301760322435498
40
0.353924058697852
40
0.408706822755845
40
0.469274623598741
40
0.534767883142148
40
0.678218763567764
40
0.823034273159321
40
1
40
1
40
1
40
1
41
1
10
18.0963453151923
20
-7.93909097262556
30
0
41
1
10
18.2448067135384
20
-7.92479121849442
30
0
41
1
10
18.5100328264423
20
-7.89929689765228
30
0
41
1
10
18.8735946424237
20
-7.86445550938876
30
0
41
1
10
19.1515343335364
20
-7.8379305289092
30
0
41
1
10
19.3787110447106
20
-7.81636608681589
30
0
41
1
10
19.5805318844477
20
-7.79728439484774
30
0
41
1
10
19.7983930401556
20
-7.77677271490117
30
0
41
1
10
20.1231914753175
20
-7.74633554240151
30
0
41
1
10
20.548977520729
20
-7.70675419713521
30
0
41
1
10
21.1103639212397
20
-7.65489949885566
30
0
41
1
10
21.4932024236122
20
-7.62099347269813
30
0
41
1
10
21.7027143005077
20
-7.60276980300543
30
0
0
SPLINE
5
123
100
AcDbEntity
8
1
62
256
6
ByLayer
370
18
48
1
60
0
100
AcDbSpline
70
4
71
2
72
6
73
3
40
0
40
0
40
0
40
1
40
1
40
1
41
1
10
48.7731626842704
20
0.0983130556773233
30
0
41
1
10
48.6802819385724
20
0.817428497610052
30
0
41
1
10
48.5874011928746
20
1.53654393954281
30
0
0
SPLINE
5
124
100
AcDbEntity
8
1
62
256
6
ByLayer
370
18
48
1
60
0
100
AcDbSpline
70
4
71
3
72
18
73
14
40
0
40
0
40
0
40
0
40
0.122322386797214
40
0.218618114363822
40
0.29980587552866
40
0.351852054774173
40
0.406990043402172
40
0.468428574116886
40
0.535148545765117
40
0.643834620387229
40
0.748133475363933
40
0.862025173277656
40
1
40
1
40
1
40
1
41
1
10
37.0728455576586
20
7.6024702415867
30
0
41
1
10
36.9251194586924
20
7.61555526116123
30
0
41
1
10
36.6611088118799
20
7.63912467555053
30
0
41
1
10
36.2990862328041
20
7.67199042559292
30
0
41
1
10
36.0219254333369
20
7.6972995724023
30
0
41
1
10
35.7945444056946
20
7.71821502957664
30
0
41
1
10
35.5909012868832
20
7.73710059961624
30
0
41
1
10
35.3694688753106
20
7.75779687324473
30
0
41
1
10
35.0834945202503
20
7.78467925181744
30
0
41
1
10
34.7446851757121
20
7.8168520999732
30
0
41
1
10
34.3579833505728
20
7.8527942879515
30
0
41
1
10
33.9229423089526
20
7.89433186485738
30
0
41
1
10
33.6268384746318
20
7.92317235881626
30
0
41
1
10
33.4659706162073
20
7.93904240269777
30
0
0
SPLINE
5
125
100
AcDbEntity
8
1
62
256
6
ByLayer
370
18
48
1
60
0
100
AcDbSpline
70
4
71
3
72
17
73
13
40
0
40
0
40
0
40
0
40
0.1379752665273
40
0.251867327479219
40
0.356166514916233
40
0.464852935983236
40
0.573230412192411
40
0.665127256807576
40
0.711120942327981
40
0.781381188774788
40
0.877677223291146
40
1
40
1
40
1
40
1
41
1
10
33.4659706162072
20
-7.93904240269802
30
0
41
1
10
33.6268384746317
20
-7.92317235881652
30
0
41
1
10
33.9229436635167
20
-7.89433157405355
30
0
41
1
10
34.357979627343
20
-7.852795087272
30
0
41
1
10
34.7446980160094
20
-7.81684934335888
30
0
41
1
10
35.1339039865318
20
-7.77989845968204
30
0
41
1
10
35.5068934127501
20
-7.74489421579071
30
0
41
1
10
35.8043719848775
20
-7.71729113033413
30
0
41
1
10
36.055619394224
20
-7.69422283788037
30
0
41
1
10
36.3122841750665
20
-7.67079162903912
30
0
41
1
10
36.6611077946473
20
-7.63912503373348
30
0
41
1
10
36.9251194586925
20
-7.61555526116152
30
0
41
1
10
37.0728455576586
20
-7.60247024158699
30
0
0
SPLINE
5
126
100
AcDbEntity
8
1
62
256
6
ByLayer
370
18
48
1
60
0
100
AcDbSpline
70
4
71
3
72
16
73
12
40
0
40
0
40
0
40
0
40
0.176965745719348
40
0.321781270759782
40
0.465232166488695
40
0.571746452230884
40
0.663050644882444
40
0.709217938797618
40
0.779862522393323
40
0.876778963382725
40
1
40
1
40
1
40
1
41
1
10
21.7027143005079
20
7.60276980300523
30
0
41
1
10
21.4932024236123
20
7.62099347269793
30
0
41
1
10
21.1103608600355
20
7.65489979917959
30
0
41
1
10
20.5489861290674
20
7.70675335260088
30
0
41
1
10
20.0737900857247
20
7.75092807350669
30
0
41
1
10
19.6625115970491
20
7.78952944100502
30
0
41
1
10
19.368585848802
20
7.81731640260418
30
0
41
1
10
19.1178572127223
20
7.84114258329575
30
0
41
1
10
18.8603683115425
20
7.86572341418471
30
0
41
1
10
18.5100326800084
20
7.89929675340034
30
0
41
1
10
18.2448067135385
20
7.92479121849428
30
0
41
1
10
18.0963453151923
20
7.93909097262539
30
0
0
SPLINE
5
127
100
AcDbEntity
8
1
62
256
6
ByLayer
370
18
48
1
60
0
100
AcDbSpline
70
4
71
3
72
8
73
4
40
0
40
0
40
0
40
0
40
1
40
1
40
1
40
1
41
1
10
5.18347664198353
20
-5.37008936050961
30
0
41
1
10
5.17256503442738
20
-5.37217735255635
30
0
41
1
10
5.16165365417166
20
-5.3742705120541
30
0
41
1
10
5.15074249590359
20
-5.37636878436541
30
0
0
LINE
5
77
100
AcDbEntity
8
80
62
256
6
ByLayer
370
18
48
1
60
0
100
AcDbLine
10
0
20
0
30
0
11
-5
21
0
31
0
39
0
210
0
220
0
230
1
0
LINE
5
78
100
AcDbEntity
8
SK4
62
256
6
ByLayer
370
18
48
0.05
60
0
100
AcDbLine
10
-48
20
0
30
0
11
49
21
0
31
0
39
0
210
0
220
0
230
1
0
LINE
5
7A
100
AcDbEntity
8
81
62
256
6
ByLayer
370
18
48
1
60
0
100
AcDbLine
10
49
20
0
30
0
11
54
21
0
31
0
39
0
210
0
220
0
230
1
0
LINE
5
7B
100
AcDbEntity
8
4
62
256
6
ByLayer
370
18
48
0.05
60
0
100
AcDbLine
10
0
20
0
30
0
11
49
21
0
31
0
39
0
210
0
220
0
230
1
0
LINE
5
7D
100
AcDbEntity
8
1
62
256
6
ByLayer
370
18
48
1
60
0
100
AcDbLine
10
0
20
8
30
0
11
0
21
0
31
0
39
0
210
0
220
0
230
1
0
LINE
5
7E
100
AcDbEntity
8
1
62
256
6
ByLayer
370
18
48
1
60
0
100
AcDbLine
10
0
20
0
30
0
11
0
21
-8
31
0
39
0
210
0
220
0
230
1
0
LINE
5
7F
100
AcDbEntity
8
1
62
256
6
ByLayer
370
18
48
1
60
0
100
AcDbLine
10
48.763789
20
0.08266
30
0
11
48.830539
21
0.041815
31
0
39
0
210
0
220
0
230
1
0
LINE
5
80
100
AcDbEntity
8
1
62
256
6
ByLayer
370
18
48
1
60
0
100
AcDbLine
10
48.649415
20
-1.364168
30
0
11
48.643891
21
-1.359662
31
0
39
0
210
0
220
0
230
1
0
LINE
5
81
100
AcDbEntity
8
1
62
256
6
ByLayer
370
18
48
1
60
0
100
AcDbLine
10
48.639974
20
-1.286945
30
0
11
48.749009
21
-0.080834
31
0
39
0
210
0
220
0
230
1
0
LINE
5
82
100
AcDbEntity
8
1
62
256
6
ByLayer
370
18
48
1
60
0
100
AcDbLine
10
48.647072
20
1.41867
30
0
11
48.830539
21
4.821809
31
0
39
0
210
0
220
0
230
1
0
LINE
5
83
100
AcDbEntity
8
1
62
256
6
ByLayer
370
13
48
1
60
0
100
AcDbLine
10
45.428722
20
4.923892
30
0
11
45.753591
21
4.362006
31
0
39
0
210
0
220
0
230
1
0
LINE
5
84
100
AcDbEntity
8
1
62
256
6
ByLayer
370
13
48
1
60
0
100
AcDbLine
10
48.289448
20
-0.023956
30
0
11
48.549177
21
-0.473178
31
0
39
0
210
0
220
0
230
1
0
LINE
5
85
100
AcDbEntity
8
1
62
256
6
ByLayer
370
18
48
1
60
0
100
AcDbLine
10
48.57378
20
-0.059168
30
0
11
48.830539
21
-4.821809
31
0
39
0
210
0
220
0
230
1
0
LINE
5
86
100
AcDbEntity
8
1
62
256
6
ByLayer
370
18
48
1
60
0
100
AcDbLine
10
48.552205
20
-0.095392
30
0
11
48.562755
21
-0.057801
31
0
39
0
210
0
220
0
230
1
0
LINE
5
87
100
AcDbEntity
8
1
62
256
6
ByLayer
370
18
48
1
60
0
100
AcDbLine
10
48.547173
20
-0.090796
30
0
11
48.552205
21
-0.095392
31
0
39
0
210
0
220
0
230
1
0
LINE
5
88
100
AcDbEntity
8
1
62
256
6
ByLayer
370
18
48
1
60
0
100
AcDbLine
10
48.547173
20
-0.055873
30
0
11
48.547173
21
-0.090796
31
0
39
0
210
0
220
0
230
1
0
LINE
5
89
100
AcDbEntity
8
1
62
256
6
ByLayer
370
18
48
1
60
0
100
AcDbLine
10
48.549177
20
-0.473178
30
0
11
48.52751
21
-0.053443
31
0
39
0
210
0
220
0
230
1
0
LINE
5
8A
100
AcDbEntity
8
1
62
256
6
ByLayer
370
13
48
1
60
0
100
AcDbLine
10
45.815247
20
-7.612039
30
0
11
45.816565
21
-7.614263
31
0
39
0
210
0
220
0
230
1
0
LINE
5
8B
100
AcDbEntity
8
1
62
256
6
ByLayer
370
18
48
1
60
0
100
AcDbLine
10
48.649415
20
-4.523553
30
0
11
48.537829
21
-2.407847
31
0
39
0
210
0
220
0
230
1
0
LINE
5
8C
100
AcDbEntity
8
1
62
256
6
ByLayer
370
18
48
1
60
0
100
AcDbLine
10
48.050096
20
-4.037525
30
0
11
48.537829
21
-2.407847
31
0
39
0
210
0
220
0
230
1
0
LINE
5
8D
100
AcDbEntity
8
1
62
256
6
ByLayer
370
18
48
1
60
0
100
AcDbLine
10
48.537829
20
-2.407847
30
0
11
48.538668
21
-2.392286
31
0
39
0
210
0
220
0
230
1
0
LINE
5
8E
100
AcDbEntity
8
1
62
256
6
ByLayer
370
13
48
1
60
0
100
AcDbLine
10
48.017494
20
-1.487607
30
0
11
44.594513
21
-0.704959
31
0
39
0
210
0
220
0
230
1
0
LINE
5
8F
100
AcDbEntity
8
1
62
256
6
ByLayer
370
18
48
1
60
0
100
AcDbLine
10
48.763789
20
-0.08266
30
0
11
48.830539
21
-0.041815
31
0
39
0
210
0
220
0
230
1
0
LINE
5
90
100
AcDbEntity
8
1
62
256
6
ByLayer
370
13
48
1
60
0
100
AcDbLine
10
45.441895
20
0.593217
30
0
11
47.966938
21
0.015878
31
0
39
0
210
0
220
0
230
1
0
LINE
5
91
100
AcDbEntity
8
1
62
256
6
ByLayer
370
18
48
1
60
0
100
AcDbLine
10
48.763789
20
-0.08266
30
0
11
47.966938
21
0.015878
31
0
39
0
210
0
220
0
230
1
0
LINE
5
92
100
AcDbEntity
8
1
62
256
6
ByLayer
370
13
48
1
60
0
100
AcDbLine
10
45.815247
20
1.920284
30
0
11
45.816565
21
1.910081
31
0
39
0
210
0
220
0
230
1
0
LINE
5
93
100
AcDbEntity
8
SK1
62
256
6
ByLayer
370
18
48
1
60
0
100
AcDbLine
10
-48
20
-7.2
30
0
11
-48
21
7.2
31
0
39
0
210
0
220
0
230
1
0
LINE
5
95
100
AcDbEntity
8
SK1
62
256
6
ByLayer
370
18
48
1
60
0
100
AcDbLine
10
0
20
8
30
0
11
0
21
0
31
0
39
0
210
0
220
0
230
1
0
LINE
5
96
100
AcDbEntity
8
SK1
62
256
6
ByLayer
370
18
48
1
60
0
100
AcDbLine
10
0
20
0
30
0
11
0
21
-8
31
0
39
0
210
0
220
0
230
1
0
LINE
5
97
100
AcDbEntity
8
SK1
62
256
6
ByLayer
370
18
48
1
60
0
100
AcDbLine
10
-47.2
20
8
30
0
11
-47.2
21
-8
31
0
39
0
210
0
220
0
230
1
0
LINE
5
98
100
AcDbEntity
8
SK1
62
256
6
ByLayer
370
18
48
1
60
0
100
AcDbLine
10
-29
20
6.2
30
0
11
-30.8
21
8
31
0
39
0
210
0
220
0
230
1
0
LINE
5
99
100
AcDbEntity
8
SK1
62
256
6
ByLayer
370
18
48
1
60
0
100
AcDbLine
10
-19
20
6.2
30
0
11
-17.2
21
8
31
0
39
0
210
0
220
0
230
1
0
LINE
5
9A
100
AcDbEntity
8
SK1
62
256
6
ByLayer
370
18
48
1
60
0
100
AcDbLine
10
-29
20
6.2
30
0
11
-19
21
6.2
31
0
39
0
210
0
220
0
230
1
0
LINE
5
9B
100
AcDbEntity
8
1
62
256
6
ByLayer
370
18
48
1
60
0
100
AcDbLine
10
4.150555
20
8
30
0
11
0
21
8
31
0
39
0
210
0
220
0
230
1
0
LINE
5
9C
100
AcDbEntity
8
1
62
256
6
ByLayer
370
18
48
1
60
0
100
AcDbLine
10
0
20
-8
30
0
11
4.150555
21
-8
31
0
39
0
210
0
220
0
230
1
0
LINE
5
9D
100
AcDbEntity
8
SK1
62
256
6
ByLayer
370
18
48
1
60
0
100
AcDbLine
10
-48
20
-7.2
30
0
11
-47.2
21
-8
31
0
39
0
210
0
220
0
230
1
0
LINE
5
9E
100
AcDbEntity
8
SK1
62
256
6
ByLayer
370
18
48
1
60
0
100
AcDbLine
10
-47.2
20
8
30
0
11
-48
21
7.2
31
0
39
0
210
0
220
0
230
1
0
LINE
5
9F
100
AcDbEntity
8
SK1
62
256
6
ByLayer
370
18
48
1
60
0
100
AcDbLine
10
0
20
8
30
0
11
-17.2
21
8
31
0
39
0
210
0
220
0
230
1
0
LINE
5
A0
100
AcDbEntity
8
SK1
62
256
6
ByLayer
370
18
48
1
60
0
100
AcDbLine
10
-30.8
20
8
30
0
11
-47.2
21
8
31
0
39
0
210
0
220
0
230
1
0
LINE
5
A1
100
AcDbEntity
8
SK1
62
256
6
ByLayer
370
18
48
1
60
0
100
AcDbLine
10
-47.2
20
-8
30
0
11
0
21
-8
31
0
39
0
210
0
220
0
230
1
0
LINE
5
A2
100
AcDbEntity
8
SK2
62
256
6
ByLayer
370
18
48
1
60
0
100
AcDbLine
10
-55.45
20
8
30
0
11
-55.45
21
-26.056066
31
0
39
0
210
0
220
0
230
1
0
LINE
5
A4
100
AcDbEntity
8
SK2
62
256
6
ByLayer
370
18
48
1
60
0
100
AcDbLine
10
-48.7875
20
8
30
0
11
-57.45
21
8
31
0
39
0
210
0
220
0
230
1
0
LINE
5
A5
100
AcDbEntity
8
SK2
62
256
6
ByLayer
370
18
48
1
60
0
100
AcDbLine
10
-48.7875
20
-8
30
0
11
-57.45
21
-8
31
0
39
0
210
0
220
0
230
1
0
LINE
5
A6
100
AcDbEntity
8
1
62
256
6
ByLayer
370
18
48
1
60
1
100
AcDbLine
10
-55.45
20
8
30
0
11
-54.989216
21
4.500002
31
0
39
0
210
0
220
0
230
1
0
LINE
5
A7
100
AcDbEntity
8
1
62
256
6
ByLayer
370
18
48
1
60
1
100
AcDbLine
10
-54.989216
20
4.500002
30
0
11
-55.910784
21
4.499998
31
0
39
0
210
0
220
0
230
1
0
LINE
5
A8
100
AcDbEntity
8
1
62
256
6
ByLayer
370
18
48
1
60
1
100
AcDbLine
10
-55.910784
20
4.499998
30
0
11
-55.45
21
8
31
0
39
0
210
0
220
0
230
1
0
LINE
5
A9
100
AcDbEntity
8
1
62
256
6
ByLayer
370
18
48
1
60
1
100
AcDbLine
10
-55.45
20
-8
30
0
11
-55.910784
21
-4.500002
31
0
39
0
210
0
220
0
230
1
0
LINE
5
AA
100
AcDbEntity
8
1
62
256
6
ByLayer
370
18
48
1
60
1
100
AcDbLine
10
-55.910784
20
-4.500002
30
0
11
-54.989216
21
-4.499998
31
0
39
0
210
0
220
0
230
1
0
LINE
5
AB
100
AcDbEntity
8
1
62
256
6
ByLayer
370
18
48
1
60
1
100
AcDbLine
10
-54.989216
20
-4.499998
30
0
11
-55.45
21
-8
31
0
39
0
210
0
220
0
230
1
0
LINE
5
AC
100
AcDbEntity
8
2
62
256
6
ByLayer
370
18
48
1
60
0
100
AcDbLine
10
61
20
-8.0001
30
0
11
61
21
26.056166
31
0
39
0
210
0
220
0
230
1
0
LINE
5
AE
100
AcDbEntity
8
2
62
256
6
ByLayer
370
18
48
1
60
0
100
AcDbLine
10
50.5875
20
8.0001
30
0
11
63
21
8.0001
31
0
39
0
210
0
220
0
230
1
0
LINE
5
AF
100
AcDbEntity
8
2
62
256
6
ByLayer
370
18
48
1
60
0
100
AcDbLine
10
50.5875
20
-8.0001
30
0
11
63
21
-8.0001
31
0
39
0
210
0
220
0
230
1
0
LINE
5
B0
100
AcDbEntity
8
1
62
256
6
ByLayer
370
18
48
1
60
1
100
AcDbLine
10
61
20
8.0001
30
0
11
61.460784
21
4.500102
31
0
39
0
210
0
220
0
230
1
0
LINE
5
B1
100
AcDbEntity
8
1
62
256
6
ByLayer
370
18
48
1
60
1
100
AcDbLine
10
61.460784
20
4.500102
30
0
11
60.539216
21
4.500098
31
0
39
0
210
0
220
0
230
1
0
LINE
5
B2
100
AcDbEntity
8
1
62
256
6
ByLayer
370
18
48
1
60
1
100
AcDbLine
10
60.539216
20
4.500098
30
0
11
61
21
8.0001
31
0
39
0
210
0
220
0
230
1
0
LINE
5
B3
100
AcDbEntity
8
1
62
256
6
ByLayer
370
18
48
1
60
1
100
AcDbLine
10
61
20
-8.0001
30
0
11
60.539216
21
-4.500102
31
0
39
0
210
0
220
0
230
1
0
LINE
5
B4
100
AcDbEntity
8
1
62
256
6
ByLayer
370
18
48
1
60
1
100
AcDbLine
10
60.539216
20
-4.500102
30
0
11
61.460784
21
-4.500098
31
0
39
0
210
0
220
0
230
1
0
LINE
5
B5
100
AcDbEntity
8
1
62
256
6
ByLayer
370
18
48
1
60
1
100
AcDbLine
10
61.460784
20
-4.500098
30
0
11
61
21
-8.0001
31
0
39
0
210
0
220
0
230
1
0
LINE
5
B6
100
AcDbEntity
8
SK2
62
256
6
ByLayer
370
18
48
1
60
0
100
AcDbLine
10
49
20
-38.732446
30
0
11
-48
21
-38.732446
31
0
39
0
210
0
220
0
230
1
0
LINE
5
B7
100
AcDbEntity
8
SK2
62
256
6
ByLayer
370
18
48
1
60
0
100
AcDbLine
10
-48
20
-8.7875
30
0
11
-48
21
-40.732446
31
0
39
0
210
0
220
0
230
1
0
LINE
5
B8
100
AcDbEntity
8
SK2
62
256
6
ByLayer
370
18
48
1
60
0
100
AcDbLine
10
49
20
-9.5876
30
0
11
49
21
-40.732446
31
0
39
0
210
0
220
0
230
1
0
LINE
5
B9
100
AcDbEntity
8
1
62
256
6
ByLayer
370
18
48
1
60
1
100
AcDbLine
10
-48
20
-38.732446
30
0
11
-44.500002
21
-38.271662
31
0
39
0
210
0
220
0
230
1
0
LINE
5
BA
100
AcDbEntity
8
1
62
256
6
ByLayer
370
18
48
1
60
1
100
AcDbLine
10
-44.500002
20
-38.271662
30
0
11
-44.499998
21
-39.19323
31
0
39
0
210
0
220
0
230
1
0
LINE
5
BB
100
AcDbEntity
8
1
62
256
6
ByLayer
370
18
48
1
60
1
100
AcDbLine
10
-44.499998
20
-39.19323
30
0
11
-48
21
-38.732446
31
0
39
0
210
0
220
0
230
1
0
LINE
5
BC
100
AcDbEntity
8
1
62
256
6
ByLayer
370
18
48
1
60
1
100
AcDbLine
10
49
20
-38.732446
30
0
11
45.500002
21
-39.19323
31
0
39
0
210
0
220
0
230
1
0
LINE
5
BD
100
AcDbEntity
8
1
62
256
6
ByLayer
370
18
48
1
60
1
100
AcDbLine
10
45.500002
20
-39.19323
30
0
11
45.499998
21
-38.271662
31
0
39
0
210
0
220
0
230
1
0
LINE
5
BE
100
AcDbEntity
8
1
62
256
6
ByLayer
370
18
48
1
60
1
100
AcDbLine
10
45.499998
20
-38.271662
30
0
11
49
21
-38.732446
31
0
39
0
210
0
220
0
230
1
0
LINE
5
12C
100
AcDbEntity
8
1
62
256
6
ByLayer
370
18
48
1
60
1
100
AcDbLine
10
-55.45
20
8
30
0
11
-54.989216
21
4.500002
31
0
39
0
210
0
220
0
230
1
0
LINE
5
12D
100
AcDbEntity
8
1
62
256
6
ByLayer
370
18
48
1
60
1
100
AcDbLine
10
-54.989216
20
4.500002
30
0
11
-55.910784
21
4.499998
31
0
39
0
210
0
220
0
230
1
0
LINE
5
12E
100
AcDbEntity
8
1
62
256
6
ByLayer
370
18
48
1
60
1
100
AcDbLine
10
-55.910784
20
4.499998
30
0
11
-55.45
21
8
31
0
39
0
210
0
220
0
230
1
0
LINE
5
130
100
AcDbEntity
8
1
62
256
6
ByLayer
370
18
48
1
60
1
100
AcDbLine
10
-55.45
20
-8
30
0
11
-55.910784
21
-4.500002
31
0
39
0
210
0
220
0
230
1
0
LINE
5
131
100
AcDbEntity
8
1
62
256
6
ByLayer
370
18
48
1
60
1
100
AcDbLine
10
-55.910784
20
-4.500002
30
0
11
-54.989216
21
-4.499998
31
0
39
0
210
0
220
0
230
1
0
LINE
5
132
100
AcDbEntity
8
1
62
256
6
ByLayer
370
18
48
1
60
1
100
AcDbLine
10
-54.989216
20
-4.499998
30
0
11
-55.45
21
-8
31
0
39
0
210
0
220
0
230
1
0
LINE
5
136
100
AcDbEntity
8
1
62
256
6
ByLayer
370
18
48
1
60
1
100
AcDbLine
10
61
20
8.0001
30
0
11
61.460784
21
4.500102
31
0
39
0
210
0
220
0
230
1
0
LINE
5
137
100
AcDbEntity
8
1
62
256
6
ByLayer
370
18
48
1
60
1
100
AcDbLine
10
61.460784
20
4.500102
30
0
11
60.539216
21
4.500098
31
0
39
0
210
0
220
0
230
1
0
LINE
5
138
100
AcDbEntity
8
1
62
256
6
ByLayer
370
18
48
1
60
1
100
AcDbLine
10
60.539216
20
4.500098
30
0
11
61
21
8.0001
31
0
39
0
210
0
220
0
230
1
0
LINE
5
13A
100
AcDbEntity
8
1
62
256
6
ByLayer
370
18
48
1
60
1
100
AcDbLine
10
61
20
-8.0001
30
0
11
60.539216
21
-4.500102
31
0
39
0
210
0
220
0
230
1
0
LINE
5
13B
100
AcDbEntity
8
1
62
256
6
ByLayer
370
18
48
1
60
1
100
AcDbLine
10
60.539216
20
-4.500102
30
0
11
61.460784
21
-4.500098
31
0
39
0
210
0
220
0
230
1
0
LINE
5
13C
100
AcDbEntity
8
1
62
256
6
ByLayer
370
18
48
1
60
1
100
AcDbLine
10
61.460784
20
-4.500098
30
0
11
61
21
-8.0001
31
0
39
0
210
0
220
0
230
1
0
LINE
5
13F
100
AcDbEntity
8
1
62
256
6
ByLayer
370
18
48
1
60
1
100
AcDbLine
10
-48
20
-38.732446
30
0
11
-44.500002
21
-38.271662
31
0
39
0
210
0
220
0
230
1
0
LINE
5
140
100
AcDbEntity
8
1
62
256
6
ByLayer
370
18
48
1
60
1
100
AcDbLine
10
-44.500002
20
-38.271662
30
0
11
-44.499998
21
-39.19323
31
0
39
0
210
0
220
0
230
1
0
LINE
5
141
100
AcDbEntity
8
1
62
256
6
ByLayer
370
18
48
1
60
1
100
AcDbLine
10
-44.499998
20
-39.19323
30
0
11
-48
21
-38.732446
31
0
39
0
210
0
220
0
230
1
0
LINE
5
143
100
AcDbEntity
8
1
62
256
6
ByLayer
370
18
48
1
60
1
100
AcDbLine
10
49
20
-38.732446
30
0
11
45.500002
21
-39.19323
31
0
39
0
210
0
220
0
230
1
0
LINE
5
144
100
AcDbEntity
8
1
62
256
6
ByLayer
370
18
48
1
60
1
100
AcDbLine
10
45.500002
20
-39.19323
30
0
11
45.499998
21
-38.271662
31
0
39
0
210
0
220
0
230
1
0
LINE
5
145
100
AcDbEntity
8
1
62
256
6
ByLayer
370
18
48
1
60
1
100
AcDbLine
10
45.499998
20
-38.271662
30
0
11
49
21
-38.732446
31
0
39
0
210
0
220
0
230
1
0
MTEXT
5
128
100
AcDbEntity
8
SK2
62
256
6
ByLayer
370
18
48
1
60
0
100
AcDbMText
10
-57.014634
20
-24.121222
30
0
210
0
220
0
230
1
1
%%c
40
3.5
41
0
44
1.084337
50
90
71
7
72
5
7
iso_b_vert
0
MTEXT
5
12B
100
AcDbEntity
8
SK2
62
256
6
ByLayer
370
18
48
1
60
0
100
AcDbMText
10
-57.014634
20
-17.148566
30
0
210
0
220
0
230
1
1
\W0.5321;16
40
3.5
41
0
44
1.084337
50
90
71
7
72
5
7
iso_b_vert
0
MTEXT
5
134
100
AcDbEntity
8
2
62
256
6
ByLayer
370
18
48
1
60
0
100
AcDbMText
10
59.435366
20
15.934944
30
0
210
0
220
0
230
1
1
%%c
40
3.5
41
0
44
1.084337
50
90
71
7
72
5
7
iso_b_vert
0
MTEXT
5
135
100
AcDbEntity
8
2
62
256
6
ByLayer
370
18
48
1
60
0
100
AcDbMText
10
59.435366
20
22.9076
30
0
210
0
220
0
230
1
1
\W0.5321;16
40
3.5
41
0
44
1.084337
50
90
71
7
72
5
7
iso_b_vert
0
MTEXT
5
13E
100
AcDbEntity
8
SK2
62
256
6
ByLayer
370
18
48
1
60
0
100
AcDbMText
10
-1.404966
20
-37.699813
30
0
210
0
220
0
230
1
1
\W0.6740;97
40
3.5
41
0
44
1.084337
50
0
71
7
72
5
7
iso_b_vert
0
MTEXT
5
147
100
AcDbEntity
8
SK6
62
256
6
ByLayer
370
18
48
1
60
0
100
AcDbMText
10
-24.886951
20
-62.114886
30
0
210
0
220
0
230
1
1
\W0.7444;2S342-1600-300CMB   M2CM
40
3
41
0
44
1.084337
50
0
71
7
72
5
7
iso_b_vert
0
HATCH
5
12F
100
AcDbEntity
8
SK2
62
256
6
ByLayer
370
13
48
1
60
0
100
AcDbHatch
10
0
20
0
30
0
210
0
220
0
230
1
2
ANSI31
70
0
71
0
91
1
92
5
93
3
72
1
10
-55.4500000000001
20
7.99999999999994
11
-54.9892162584473
21
4.50000169255313
72
1
10
-54.9892162584473
20
4.50000169255313
11
-55.9107837415528
21
4.49999830744676
72
1
10
-55.9107837415528
20
4.49999830744676
11
-55.4500000000001
21
7.99999999999994
97
0
75
0
76
1
52
0
41
0.0062
77
0
78
1
53
45
43
0
44
0
45
-0.0139193969876572
46
0.0139193969876572
79
0
47
0
98
1
10
0
20
0
0
HATCH
5
133
100
AcDbEntity
8
SK2
62
256
6
ByLayer
370
13
48
1
60
0
100
AcDbHatch
10
0
20
0
30
0
210
0
220
0
230
1
2
ANSI31
70
0
71
0
91
1
92
5
93
3
72
1
10
-55.4500000000001
20
-8.00000000000006
11
-55.9107837415528
21
-4.50000169255324
72
1
10
-55.9107837415528
20
-4.50000169255324
11
-54.9892162584473
21
-4.49999830744687
72
1
10
-54.9892162584473
20
-4.49999830744687
11
-55.4500000000001
21
-8.00000000000006
97
0
75
0
76
1
52
0
41
0.0062
77
0
78
1
53
45
43
0
44
0
45
-0.0139193969876572
46
0.0139193969876572
79
0
47
0
98
1
10
0
20
0
0
HATCH
5
139
100
AcDbEntity
8
2
62
256
6
ByLayer
370
13
48
1
60
0
100
AcDbHatch
10
0
20
0
30
0
210
0
220
0
230
1
2
ANSI31
70
0
71
0
91
1
92
5
93
3
72
1
10
61
20
8.0000999999998
11
61.4607837415528
21
4.50010169255299
72
1
10
61.4607837415528
20
4.50010169255299
11
60.5392162584472
21
4.50009830744662
72
1
10
60.5392162584472
20
4.50009830744662
11
61
21
8.0000999999998
97
0
75
0
76
1
52
0
41
0.0062
77
0
78
1
53
45
43
0
44
0
45
-0.0139193969876572
46
0.0139193969876572
79
0
47
0
98
1
10
0
20
0
0
HATCH
5
13D
100
AcDbEntity
8
2
62
256
6
ByLayer
370
13
48
1
60
0
100
AcDbHatch
10
0
20
0
30
0
210
0
220
0
230
1
2
ANSI31
70
0
71
0
91
1
92
5
93
3
72
1
10
61
20
-8.0001000000002
11
60.5392162584472
21
-4.50010169255339
72
1
10
60.5392162584472
20
-4.50010169255339
11
61.4607837415528
21
-4.50009830744702
72
1
10
61.4607837415528
20
-4.50009830744702
11
61
21
-8.0001000000002
97
0
75
0
76
1
52
0
41
0.0062
77
0
78
1
53
45
43
0
44
0
45
-0.0139193969876572
46
0.0139193969876572
79
0
47
0
98
1
10
0
20
0
0
HATCH
5
142
100
AcDbEntity
8
SK2
62
256
6
ByLayer
370
13
48
1
60
0
100
AcDbHatch
10
0
20
0
30
0
210
0
220
0
230
1
2
ANSI31
70
0
71
0
91
1
92
5
93
3
72
1
10
-48
20
-38.7324460532349
11
-44.5000016925532
21
-38.2716623116821
72
1
10
-44.5000016925532
20
-38.2716623116821
11
-44.4999983074468
21
-39.1932297947877
72
1
10
-44.4999983074468
20
-39.1932297947877
11
-48
21
-38.7324460532349
97
0
75
0
76
1
52
0
41
0.0062
77
0
78
1
53
45
43
0
44
0
45
-0.0139193969876572
46
0.0139193969876572
79
0
47
0
98
1
10
0
20
0
0
HATCH
5
146
100
AcDbEntity
8
SK2
62
256
6
ByLayer
370
13
48
1
60
0
100
AcDbHatch
10
0
20
0
30
0
210
0
220
0
230
1
2
ANSI31
70
0
71
0
91
1
92
5
93
3
72
1
10
49
20
-38.7324460532349
11
45.5000016925532
21
-39.1932297947877
72
1
10
45.5000016925532
20
-39.1932297947877
11
45.4999983074468
21
-38.2716623116821
72
1
10
45.4999983074468
20
-38.2716623116821
11
49
21
-38.7324460532349
97
0
75
0
76
1
52
0
41
0.0062
77
0
78
1
53
45
43
0
44
0
45
-0.0139193969876572
46
0.0139193969876572
79
0
47
0
98
1
10
0
20
0
0
DIMENSION
5
14A
100
AcDbEntity
8
2
62
256
6
ByLayer
370
18
48
1
60
0
100
AcDbDimension
2
_U0
10
15
20
-22.732446
30
0
11
32
21
-22.732446
31
0
70
32
71
1
72
1
41
1
210
0
220
0
230
1
3
Standard
100
AcDbAlignedDimension
13
49
23
-8.0001
33
0
14
15
24
-8.0001
34
0
50
0
100
AcDbRotatedDimension
1001
ACAD
1000
DSTYLE
1002
{
1070
   371
1070
    13
1070
   372
1070
    13
1070
   170
1070
     0
1070
   144
1040
1.0
1070
   277
1070
     2
1070
   284
1070
     8
1070
   278
1070
    46
1070
   146
1040
1.0
1070
   345
1005
16
1070
   347
1005
16
1070
   346
1005
16
1070
   344
1005
0
1070
   343
1005
0
1070
   172
1070
     1
1070
    76
1070
     0
1070
    75
1070
     0
1070
   282
1070
     0
1070
   281
1070
     0
1070
    71
1070
     0
1070
    74
1070
     0
1070
   279
1070
     0
1070
   173
1070
     1
1070
   340
1005
129
1070
   271
1070
     2
1070
   272
1070
     2
1070
    77
1070
     1
1070
    73
1070
     1
1070
   171
1070
     3
1070
   274
1070
     4
1070
   177
1070
     2
1070
   176
1070
     2
1070
   178
1070
     2
1070
    78
1070
     8
1070
    48
1040
-0.1
1070
    41
1040
3.5
1070
   147
1040
1.75
1070
    42
1040
1.5875
1070
    44
1040
2.0
1070
   140
1040
3.5
1002
}
1001
ACAD_DSTYLE_DIM_LINETYPE
1070
   380
1005
16
1001
ACAD_DSTYLE_DIM_EXT1_LINETYPE
1070
   381
1005
16
1001
ACAD_DSTYLE_DIM_EXT2_LINETYPE
1070
   382
1005
16
0
ENDSEC
0
SECTION
2
OBJECTS
0
DICTIONARY
5
1d3
330
0
100
AcDbDictionary
280
0
281
1
3
ACAD_GROUP
350
1d4
3
ACAD_MLINESTYLE
350
1d5
0
DICTIONARY
5
1d4
330
0
100
AcDbDictionary
280
0
281
1
0
DICTIONARY
5
1d5
330
0
100
AcDbDictionary
280
0
281
1
3
Standard
350
18
0
MLINESTYLE
5
18
330
1d5
100
AcDbMlineStyle
2
Standard
70
0
3

62
256
51
90
52
90
71
2
49
-0.5
62
256
6
ByLayer
49
0.5
62
256
6
ByLayer
0
RASTERVARIABLES
5
1c1
330

100
AcDbRasterVariables
90
0
70
1
71
1
72
1
0
ENDSEC
0
EOF
