0
SECTION
2
HEADER
9
$ACADVER
1
AC1015
9
$DWGCODEPAGE
3
ANSI_1252
9
$HANDSEED
5
1c4
9
$ANGBASE
50
0
9
$ANGDIR
70
0
9
$ATTMODE
70
1
9
$AUNITS
70
0
9
$AUPREC
70
0
9
$CECOLOR
62
256
9
$CELTSCALE
40
1
9
$CELTYPE
6
ByLayer
9
$CELWEIGHT
370
18
9
$CLAYER
8
0
9
$CMLJUST
70
0
9
$CMLSCALE
40
1
9
$CMLSTYLE
2
Standard
9
$DIMSTYLE
2
Standard
9
$TEXTSIZE
40
0.2
9
$TEXTSTYLE
7
Standard
9
$LUNITS
70
2
9
$LUPREC
70
4
9
$EXTNAMES
290
1
9
$INSUNITS
70
4
9
$LTSCALE
40
1
9
$LWDISPLAY
290
1
9
$PDMODE
70
0
9
$PDSIZE
40
0
9
$PLINEGEN
70
0
0
ENDSEC
0
SECTION
2
CLASSES
0
CLASS
1
RASTERVARIABLES
2
AcDbRasterVariables
3
ISM
90
0
280
0
281
0
0
ENDSEC
0
SECTION
2
TABLES
0
TABLE
2
VPORT
5
1ba
100
AcDbSymbolTable
0
VPORT
5
1
100
AcDbSymbolTableRecord
100
AcDbViewportTableRecord
2
*Active
70
0
10
0
20
0
11
1
21
1
12
-1
22
1
13
0
23
0
14
0.5
24
0.5
15
10
25
10
16
0
26
0
36
1
17
0
27
0
37
0
0
ENDTAB
0
TABLE
2
LTYPE
5
1bb
100
AcDbSymbolTable
0
LTYPE
5
14
100
AcDbSymbolTableRecord
100
AcDbLinetypeTableRecord
70
0
2
ByBlock
3

72
65
73
0
40
0
0
LTYPE
5
15
100
AcDbSymbolTableRecord
100
AcDbLinetypeTableRecord
70
0
2
ByLayer
3

72
65
73
0
40
0
0
LTYPE
5
16
100
AcDbSymbolTableRecord
100
AcDbLinetypeTableRecord
70
0
2
Continuous
3
Solid line
72
65
73
0
40
0
0
LTYPE
5
6E
100
AcDbSymbolTableRecord
100
AcDbLinetypeTableRecord
70
0
2
CENTER
3
____ _ ____ _ ____ _ ____
72
65
73
4
40
47.5
49
22
74
0
49
-8.5
74
0
49
8.5
74
0
49
-8.5
74
0
0
LTYPE
5
6F
100
AcDbSymbolTableRecord
100
AcDbLinetypeTableRecord
70
0
2
DASHED
3
__ __ __ __ __ __ __ __ __
72
65
73
2
40
25.72
49
12.86
74
0
49
-12.86
74
0
0
ENDTAB
0
TABLE
2
LAYER
5
1bc
100
AcDbSymbolTable
0
LAYER
5
10
100
AcDbSymbolTableRecord
100
AcDbLayerTableRecord
2
0
70
0
62
7
6
Continuous
290
1
370
-3
390
0
0
LAYER
5
71
100
AcDbSymbolTableRecord
100
AcDbLayerTableRecord
2
81
70
0
62
-3
6
Continuous
290
1
370
-3
390
0
0
LAYER
5
73
100
AcDbSymbolTableRecord
100
AcDbLayerTableRecord
2
80
70
0
62
-6
6
Continuous
290
1
370
-3
390
0
0
LAYER
5
75
100
AcDbSymbolTableRecord
100
AcDbLayerTableRecord
2
1
70
0
62
4
6
Continuous
290
1
370
-3
390
0
0
LAYER
5
79
100
AcDbSymbolTableRecord
100
AcDbLayerTableRecord
2
4
70
0
62
-2
6
CENTER
290
1
370
-3
390
0
0
LAYER
5
A8
100
AcDbSymbolTableRecord
100
AcDbLayerTableRecord
2
2
70
0
62
7
6
Continuous
290
1
370
-3
390
0
0
LAYER
5
131
100
AcDbSymbolTableRecord
100
AcDbLayerTableRecord
2
Defpoints
70
0
62
7
6
Continuous
290
0
370
-3
390
0
0
LAYER
5
1a6
100
AcDbSymbolTableRecord
100
AcDbLayerTableRecord
2
SK4
70
0
62
2
6
CENTER
290
1
370
-3
390
0
0
LAYER
5
1a7
100
AcDbSymbolTableRecord
100
AcDbLayerTableRecord
2
SK1
70
0
62
4
6
Continuous
290
1
370
-3
390
0
0
LAYER
5
1a8
100
AcDbSymbolTableRecord
100
AcDbLayerTableRecord
2
SK2
70
0
62
7
6
Continuous
290
1
370
-3
390
0
0
LAYER
5
1a9
100
AcDbSymbolTableRecord
100
AcDbLayerTableRecord
2
SK6
70
0
62
5
6
Continuous
290
1
370
-3
390
0
0
ENDTAB
0
TABLE
2
STYLE
5
1bd
100
AcDbSymbolTable
0
STYLE
5
11
100
AcDbSymbolTableRecord
100
AcDbTextStyleTableRecord
2
Standard
3
txt
70
0
71
0
40
0
41
1
42
0
50
0
0
STYLE
5
10D
100
AcDbSymbolTableRecord
100
AcDbTextStyleTableRecord
2
iso_b_vert
3
simplex.shx
70
0
71
0
40
0
41
1
42
0
50
0
0
STYLE
5
10E
100
AcDbSymbolTableRecord
100
AcDbTextStyleTableRecord
2
DWGDirectTextStyle
3
simplex
70
0
71
0
40
0
41
1
42
0
50
0
0
ENDTAB
0
TABLE
2
DIMSTYLE
5
1be
100
AcDbSymbolTable
100
AcDbDimStyleTable
0
DIMSTYLE
105
27
100
AcDbSymbolTableRecord
100
AcDbDimStyleTableRecord
2
Standard
70
0
3
<>
41
0.18
42
0.0625
44
0.18
140
0.18
147
0.09
73
0
74
0
77
1
271
2
275
0
278
52
280
0
340
11
0
ENDTAB
0
TABLE
2
VIEW
5
1bf
100
AcDbSymbolTable
0
ENDTAB
0
TABLE
2
UCS
5
1c0
100
AcDbSymbolTable
0
ENDTAB
0
TABLE
2
APPID
5
1c1
100
AcDbSymbolTable
0
APPID
5
12
100
AcDbSymbolTableRecord
100
AcDbRegAppTableRecord
2
ACAD
70
0
0
APPID
5
12D
100
AcDbSymbolTableRecord
100
AcDbRegAppTableRecord
2
ACAD_DSTYLE_DIMBREAK
70
0
0
APPID
5
165
100
AcDbSymbolTableRecord
100
AcDbRegAppTableRecord
2
ACAD_DSTYLE_DIM_LINETYPE
70
0
0
APPID
5
166
100
AcDbSymbolTableRecord
100
AcDbRegAppTableRecord
2
ACAD_DSTYLE_DIM_EXT1_LINETYPE
70
0
0
APPID
5
167
100
AcDbSymbolTableRecord
100
AcDbRegAppTableRecord
2
ACAD_DSTYLE_DIM_EXT2_LINETYPE
70
0
0
APPID
5
1A2
100
AcDbSymbolTableRecord
100
AcDbRegAppTableRecord
2
ACAD_MLEADERVER
70
0
0
ENDTAB
0
TABLE
2
BLOCK_RECORD
5
1c2
100
AcDbSymbolTable
0
BLOCK_RECORD
5
1F
100
AcDbSymbolTableRecord
100
AcDbBlockTableRecord
2
*Model_Space
340
0
70
0
0
BLOCK_RECORD
5
1B
100
AcDbSymbolTableRecord
100
AcDbBlockTableRecord
2
*Paper_Space
340
0
70
0
0
BLOCK_RECORD
5
23
100
AcDbSymbolTableRecord
100
AcDbBlockTableRecord
2
*Paper_Space0
340
0
70
0
0
BLOCK_RECORD
5
132
100
AcDbSymbolTableRecord
100
AcDbBlockTableRecord
2
*D1
340
0
70
0
0
BLOCK_RECORD
5
13E
100
AcDbSymbolTableRecord
100
AcDbBlockTableRecord
2
_U0
340
0
70
0
0
ENDTAB
0
ENDSEC
0
SECTION
2
BLOCKS
0
BLOCK
5
20
100
AcDbEntity
8
0
100
AcDbBlockBegin
2
*Model_Space
70
0
10
0
20
0
30
0
3
*Model_Space
0
ENDBLK
5
21
100
AcDbEntity
8
0
100
AcDbBlockEnd
0
BLOCK
5
1C
100
AcDbEntity
8
0
100
AcDbBlockBegin
2
*Paper_Space
70
0
10
0
20
0
30
0
3
*Paper_Space
0
ENDBLK
5
1D
100
AcDbEntity
8
0
100
AcDbBlockEnd
0
BLOCK
5
24
100
AcDbEntity
8
0
100
AcDbBlockBegin
2
*Paper_Space0
70
0
10
0
20
0
30
0
3
*Paper_Space0
0
ENDBLK
5
25
100
AcDbEntity
8
0
100
AcDbBlockEnd
0
BLOCK
5
133
100
AcDbEntity
8
0
100
AcDbBlockBegin
2
*D1
70
1
10
0
20
0
30
0
3
*D1
0
LINE
5
135
100
AcDbEntity
8
0
62
256
6
ByLayer
370
-2
48
1
60
0
100
AcDbLine
10
59.6
20
-11.5876
30
0
11
59.6
21
-27.431155
31
0
39
0
210
0
220
0
230
1
0
LINE
5
136
100
AcDbEntity
8
0
62
256
6
ByLayer
370
-2
48
1
60
0
100
AcDbLine
10
17.6
20
-11.5876
30
0
11
17.6
21
-27.431155
31
0
39
0
210
0
220
0
230
1
0
LINE
5
137
100
AcDbEntity
8
0
62
256
6
ByLayer
370
-2
48
1
60
0
100
AcDbLine
10
56.1
20
-25.431155
30
0
11
21.1
21
-25.431155
31
0
39
0
210
0
220
0
230
1
0
SOLID
5
138
100
AcDbEntity
8
0
62
256
6
ByLayer
370
-1
48
1
60
0
100
AcDbTrace
10
56.1
20
-26.014488
30
0
11
56.1
21
-24.847822
31
0
12
59.6
22
-25.431155
32
0
13
59.6
23
-25.431155
33
0
39
0
210
0
220
0
230
1
0
SOLID
5
139
100
AcDbEntity
8
0
62
256
6
ByLayer
370
-1
48
1
60
0
100
AcDbTrace
10
21.1
20
-24.847822
30
0
11
21.1
21
-26.014488
31
0
12
17.6
22
-25.431155
32
0
13
17.6
23
-25.431155
33
0
39
0
210
0
220
0
230
1
0
MTEXT
5
13A
100
AcDbEntity
8
0
62
256
6
ByLayer
370
18
48
1
60
0
100
AcDbMText
10
38.6
20
-18.431155
30
0
210
0
220
0
230
1
1
\A1;42
40
3.5
41
0
44
1
50
0
71
5
72
5
7
iso_b_vert
0
POINT
5
13B
100
AcDbEntity
8
Defpoints
62
0
6
ByLayer
370
-1
48
1
60
0
100
AcDbPoint
10
59.6
20
-10.0001
30
0
39
0
210
0
220
0
230
1
50
360
0
POINT
5
13C
100
AcDbEntity
8
Defpoints
62
0
6
ByLayer
370
-1
48
1
60
0
100
AcDbPoint
10
17.6
20
-10.0001
30
0
39
0
210
0
220
0
230
1
50
360
0
POINT
5
13D
100
AcDbEntity
8
Defpoints
62
0
6
ByLayer
370
-1
48
1
60
0
100
AcDbPoint
10
17.6
20
-25.431155
30
0
39
0
210
0
220
0
230
1
50
360
0
ENDBLK
5
134
100
AcDbEntity
8
0
100
AcDbBlockEnd
0
BLOCK
5
145
100
AcDbEntity
8
0
100
AcDbBlockBegin
2
_U0
70
0
10
0
20
0
30
0
3
_U0
0
MTEXT
5
13F
100
AcDbEntity
8
2
62
256
6
ByLayer
370
18
48
1
60
0
100
AcDbMText
10
36.510767
20
-24.398521
30
0
210
0
220
0
230
1
1
\W0.7361;42
40
3.5
41
0
44
1.084337
50
0
71
7
72
5
7
iso_b_vert
0
LINE
5
140
100
AcDbEntity
8
2
62
256
6
ByLayer
370
13
48
1
60
0
100
AcDbLine
10
59.6
20
-11.5876
30
0
11
59.6
21
-27.431155
31
0
39
0
210
0
220
0
230
1
0
LINE
5
141
100
AcDbEntity
8
2
62
256
6
ByLayer
370
13
48
1
60
0
100
AcDbLine
10
17.6
20
-11.5876
30
0
11
17.6
21
-27.431155
31
0
39
0
210
0
220
0
230
1
0
LINE
5
142
100
AcDbEntity
8
2
62
256
6
ByLayer
370
13
48
1
60
0
100
AcDbLine
10
59.6
20
-25.431155
30
0
11
17.6
21
-25.431155
31
0
39
0
210
0
220
0
230
1
0
SOLID
5
143
100
AcDbEntity
8
2
62
256
6
ByLayer
370
18
48
1
60
0
100
AcDbTrace
10
59.6
20
-25.431155
30
0
11
56.100002
21
-25.891939
31
0
12
56.099998
22
-24.970371
32
0
13
56.099998
23
-24.970371
33
0
39
0
210
0
220
0
230
1
0
SOLID
5
144
100
AcDbEntity
8
2
62
256
6
ByLayer
370
18
48
1
60
0
100
AcDbTrace
10
17.6
20
-25.431155
30
0
11
21.099998
21
-24.970371
31
0
12
21.100002
22
-25.891939
32
0
13
21.100002
23
-25.891939
33
0
39
0
210
0
220
0
230
1
0
ENDBLK
5
146
100
AcDbEntity
8
0
100
AcDbBlockEnd
0
ENDSEC
0
SECTION
2
ENTITIES
0
ELLIPSE
5
BA
100
AcDbEntity
8
1
62
256
6
ByLayer
370
18
48
1
60
0
100
AcDbEllipse
10
58.900264
20
-0.587349
30
0
11
0.123655395596047
21
-2.40235849868853
31
0
210
0
220
0
230
1
40
0.05336
41
1.14177212343733
42
1.57280687677106
0
ELLIPSE
5
BB
100
AcDbEntity
8
1
62
256
6
ByLayer
370
18
48
1
60
0
100
AcDbEllipse
10
58.839462
20
-1.275686
30
0
11
0.129010589472345
21
-1.15335147403229
31
0
210
0
220
0
230
1
40
0.173835
41
0.891797755543221
42
1.28377206502568
0
ELLIPSE
5
BC
100
AcDbEntity
8
1
62
256
6
ByLayer
370
18
48
1
60
0
100
AcDbEllipse
10
58.900264
20
-0.587349
30
0
11
0.123655395644703
21
-2.40235849934133
31
0
210
0
220
0
230
1
40
0.05336
41
-0.00279156993916317
42
0.948384233892983
0
ELLIPSE
5
BD
100
AcDbEntity
8
1
62
256
6
ByLayer
370
18
48
1
60
0
100
AcDbEllipse
10
58.553303
20
-1.212222
30
0
11
0.384301641181933
21
-1.16878369276975
31
0
210
0
220
0
230
1
40
0.480035
41
2.9135220069436
42
-2.18814191287573
0
ELLIPSE
5
BE
100
AcDbEntity
8
1
62
256
6
ByLayer
370
18
48
1
60
0
100
AcDbEllipse
10
91.73784
20
-57.466572
30
0
11
36.6927798631505
21
-61.7236528252574
31
0
210
0
220
0
230
1
40
0.008469
41
-2.69581318200581
42
-2.65715641450106
0
ELLIPSE
5
BF
100
AcDbEntity
8
1
62
256
6
ByLayer
370
13
48
1
60
0
100
AcDbEllipse
10
15.166865
20
-6.29974
30
0
11
55.0592629830925
21
-49.6785267459417
31
0
210
0
220
0
230
1
40
0.050895
41
1.62993087987989
42
1.7812266824871
0
POINT
5
70
100
AcDbEntity
8
81
62
256
6
ByLayer
370
18
48
1
60
0
100
AcDbPoint
10
59.6
20
0
30
0
39
0
210
0
220
0
230
1
50
360
0
POINT
5
72
100
AcDbEntity
8
80
62
256
6
ByLayer
370
18
48
1
60
0
100
AcDbPoint
10
0
20
0
30
0
39
0
210
0
220
0
230
1
50
360
0
POINT
5
74
100
AcDbEntity
8
1
62
256
6
ByLayer
370
18
48
1
60
1
100
AcDbPoint
10
59.6
20
-10.0001
30
0
39
0
210
0
220
0
230
1
50
360
0
POINT
5
76
100
AcDbEntity
8
1
62
256
6
ByLayer
370
18
48
1
60
1
100
AcDbPoint
10
17.6
20
-10.0001
30
0
39
0
210
0
220
0
230
1
50
360
0
SPLINE
5
C0
100
AcDbEntity
8
1
62
256
6
ByLayer
370
18
48
1
60
0
100
AcDbSpline
70
4
71
3
72
30
73
26
40
0
40
0
40
0
40
0
40
0.209277895277258
40
0.209277895277258
40
0.341064912731049
40
0.341064912731049
40
0.47285193018484
40
0.47285193018484
40
0.604638947638631
40
0.604638947638631
40
0.670532456365525
40
0.670532456365525
40
0.736425965092418
40
0.736425965092418
40
0.802319473819311
40
0.802319473819311
40
0.83526622818276
40
0.83526622818276
40
0.86821298254621
40
0.86821298254621
40
0.934106491273109
40
0.934106491273109
40
0.967053245636554
40
0.967053245636554
40
1
40
1
40
1
40
1
41
1
10
59.1850196425892
20
-2.2500077011459
30
0
41
1
10
59.1963515797882
20
-2.20927195639331
30
0
41
1
10
59.2075900284127
20
-2.16863001077323
30
0
41
1
10
59.225548368729
20
-2.10313472624585
30
0
41
1
10
59.2324058908976
20
-2.07798699919459
30
0
41
1
10
59.2459087601549
20
-2.02810665834045
30
0
41
1
10
59.2525537180071
20
-2.00337550547891
30
0
41
1
10
59.2654573278963
20
-1.95484500815908
30
0
41
1
10
59.2717282803967
20
-1.93100287334292
30
0
41
1
10
59.2807412156406
20
-1.89616026993323
30
0
41
1
10
59.2836792967451
20
-1.88470101888163
30
0
41
1
10
59.2893890005523
20
-1.86217195499455
30
0
41
1
10
59.2921696788666
20
-1.85106567911683
30
0
41
1
10
59.2974659348923
20
-1.82955618140971
30
0
41
1
10
59.2999788053448
20
-1.8191655842457
30
0
41
1
10
59.3034858174007
20
-1.80428585728038
30
0
41
1
10
59.3046108627071
20
-1.79944429760613
30
0
41
1
10
59.3067590020494
20
-1.79003565997385
30
0
41
1
10
59.3077847711641
20
-1.7854559319812
30
0
41
1
10
59.3106462525877
20
-1.77236777762082
30
0
41
1
10
59.3122781748062
20
-1.76446242960759
30
0
41
1
10
59.3142016650743
20
-1.75416406868902
30
0
41
1
10
59.314754995642
20
-1.75099251607955
30
0
41
1
10
59.3156604666712
20
-1.74524779479637
30
0
41
1
10
59.3160139301292
20
-1.74265973695677
30
0
41
1
10
59.316246768129
20
-1.74046112068288
30
0
0
SPLINE
5
C1
100
AcDbEntity
8
1
62
256
6
ByLayer
370
18
48
1
60
0
100
AcDbSpline
70
4
71
3
72
8
73
4
40
0
40
0
40
0
40
0
40
1
40
1
40
1
40
1
41
1
10
59.316246768129
20
-1.74046112068268
30
0
41
1
10
59.388756846453
20
-1.17850787788979
30
0
41
1
10
59.4612669247771
20
-0.61655463509689
30
0
41
1
10
59.5337770031011
20
-0.0546013923040789
30
0
0
SPLINE
5
C2
100
AcDbEntity
8
1
62
256
6
ByLayer
370
18
48
1
60
0
100
AcDbSpline
70
4
71
3
72
8
73
4
40
0
40
0
40
0
40
0
40
1
40
1
40
1
40
1
41
1
10
59.5408340711209
20
9.08980643999E-05
30
0
41
1
10
59.5429015755603
20
0.0161140613411419
30
0
41
1
10
59.5449690799997
20
0.0321372246178839
30
0
41
1
10
59.547036584439
20
0.048160387894626
30
0
0
SPLINE
5
C3
100
AcDbEntity
8
1
62
256
6
ByLayer
370
18
48
1
60
0
100
AcDbSpline
70
4
71
5
72
21
73
15
40
0
40
0
40
0
40
0
40
0
40
0
40
0.0575844847145418
40
0.151133645628806
40
0.24443612261532
40
0.302200535016346
40
0.337226322433137
40
0.461473651218286
40
0.616694164856622
40
0.896292859944905
40
0.989677849733118
40
1
40
1
40
1
40
1
40
1
40
1
41
1
10
59.5470365844419
20
8.97939798722965
30
0
41
1
10
59.5470816105735
20
8.99515340236934
30
0
41
1
10
59.5463754170549
20
9.03649092681403
30
0
41
1
10
59.5417366805475
20
9.10319670613995
30
0
41
1
10
59.5290880811329
20
9.18486691616232
30
0
41
1
10
59.5055770579285
20
9.27381938367739
30
0
41
1
10
59.4673896046963
20
9.37678896397912
30
0
41
1
10
59.4109926386053
20
9.48986167908646
30
0
41
1
10
59.3123012737776
20
9.63674963398157
30
0
41
1
10
59.1780545539111
20
9.76792857874966
30
0
41
1
10
59.0238312197169
20
9.86214744032176
30
0
41
1
10
58.8874129738628
20
9.91411312082107
30
0
41
1
10
58.7868721823727
20
9.93805842280312
30
0
41
1
10
58.7594617163698
20
9.94357435325401
30
0
41
1
10
58.7567314864869
20
9.94411381864495
30
0
0
SPLINE
5
C4
100
AcDbEntity
8
1
62
256
6
ByLayer
370
18
48
1
60
0
100
AcDbSpline
70
4
71
3
72
18
73
14
40
0
40
0
40
0
40
0
40
0.125000000000007
40
0.125000000000007
40
0.250000000000014
40
0.250000000000014
40
0.50000000000001
40
0.50000000000001
40
0.625000000000007
40
0.625000000000007
40
0.750000000000005
40
0.750000000000005
40
1
40
1
40
1
40
1
41
1
10
59.0765061148543
20
-1.982554524558
30
0
41
1
10
59.0698676339317
20
-1.9662907917818
30
0
41
1
10
59.064078749352
20
-1.94978745005156
30
0
41
1
10
59.054240582294
20
-1.9162730397226
30
0
41
1
10
59.0501913320677
20
-1.8992092401061
30
0
41
1
10
59.0408181522515
20
-1.84836243033342
30
0
41
1
10
59.0381270158447
20
-1.81456546824984
30
0
41
1
10
59.0383902821058
20
-1.76375340327249
30
0
41
1
10
59.0392037365143
20
-1.74673703176279
30
0
41
1
10
59.0420885286927
20
-1.71300003154201
30
0
41
1
10
59.0441535954536
20
-1.69626704197245
30
0
41
1
10
59.0519547289653
20
-1.64635267121778
30
0
41
1
10
59.0592817404761
20
-1.61345010417946
30
0
41
1
10
59.0682753791929
20
-1.58069011514252
30
0
0
SPLINE
5
C5
100
AcDbEntity
8
1
62
256
6
ByLayer
370
18
48
1
60
0
100
AcDbSpline
70
4
71
5
72
21
73
15
40
0
40
0
40
0
40
0
40
0
40
0
40
0.0575844847137446
40
0.151133645628103
40
0.244436122614711
40
0.302200535015796
40
0.337226322432622
40
0.461473651217895
40
0.616694164856387
40
0.896292859944953
40
0.98967784973326
40
1
40
1
40
1
40
1
40
1
40
1
41
1
10
59.5470365844418
20
-8.97939798723121
30
0
41
1
10
59.5470816105734
20
-8.9951534023707
30
0
41
1
10
59.5463754170548
20
-9.03649092681513
30
0
41
1
10
59.5417366805474
20
-9.10319670614084
30
0
41
1
10
59.5290880811328
20
-9.18486691616295
30
0
41
1
10
59.5055770579284
20
-9.27381938367779
30
0
41
1
10
59.4673896046962
20
-9.37678896397955
30
0
41
1
10
59.4109926386051
20
-9.48986167908686
30
0
41
1
10
59.3123012737775
20
-9.63674963398196
30
0
41
1
10
59.1780545539109
20
-9.76792857875006
30
0
41
1
10
59.0238312197168
20
-9.86214744032216
30
0
41
1
10
58.8874129738626
20
-9.91411312082144
30
0
41
1
10
58.7868721823727
20
-9.93805842280349
30
0
41
1
10
58.7594617163699
20
-9.94357435325438
30
0
41
1
10
58.756731486487
20
-9.94411381864532
30
0
0
SPLINE
5
C6
100
AcDbEntity
8
1
62
256
6
ByLayer
370
18
48
1
60
0
100
AcDbSpline
70
4
71
3
72
8
73
4
40
0
40
0
40
0
40
0
40
1
40
1
40
1
40
1
41
1
10
59.3162467681291
20
-8.60196236919401
30
0
41
1
10
59.3931767069
20
-8.72777424187035
30
0
41
1
10
59.4701066456709
20
-8.85358611454669
30
0
41
1
10
59.5470365844418
20
-8.97939798722302
30
0
0
SPLINE
5
C7
100
AcDbEntity
8
1
62
256
6
ByLayer
370
18
48
1
60
0
100
AcDbSpline
70
4
71
3
72
32
73
28
40
0
40
0
40
0
40
0
40
0.250000000000014
40
0.250000000000014
40
0.375000000000016
40
0.375000000000016
40
0.500000000000019
40
0.500000000000019
40
0.562500000000016
40
0.562500000000016
40
0.625000000000013
40
0.625000000000013
40
0.68750000000001
40
0.68750000000001
40
0.750000000000007
40
0.750000000000007
40
0.812500000000004
40
0.812500000000004
40
0.875000000000002
40
0.875000000000002
40
0.906250000000001
40
0.906250000000001
40
0.937500000000001
40
0.937500000000001
40
0.96875
40
0.96875
40
1
40
1
40
1
40
1
41
1
10
59.0000585848017
20
-8.92852633236944
30
0
41
1
10
59.029904088334
20
-8.92490874725519
30
0
41
1
10
59.0595641650225
20
-8.91911629250723
30
0
41
1
10
59.1036353604332
20
-8.90551410639756
30
0
41
1
10
59.1182551293234
20
-8.90015163072565
30
0
41
1
10
59.147309923116
20
-8.88725981899691
30
0
41
1
10
59.1617457022814
20
-8.87973932968805
30
0
41
1
10
59.1832063474673
20
-8.86619462429462
30
0
41
1
10
59.1903274420511
20
-8.86129907206401
30
0
41
1
10
59.2044897668046
20
-8.85057123869615
30
0
41
1
10
59.2115337593178
20
-8.84473575441268
30
0
41
1
10
59.2254340089959
20
-8.83196016717841
30
0
41
1
10
59.2323000788082
20
-8.82501560363406
30
0
41
1
10
59.2458140608164
20
-8.80968142792347
30
0
41
1
10
59.2524752122196
20
-8.80127645835191
30
0
41
1
10
59.2654120989502
20
-8.78261976520886
30
0
41
1
10
59.2716932255394
20
-8.7723761257094
30
0
41
1
10
59.2837154900982
20
-8.74925028024006
30
0
41
1
10
59.289462471392
20
-8.73639662672306
30
0
41
1
10
59.2974318601109
20
-8.71393473429134
30
0
41
1
10
59.2999587350148
20
-8.7059555031073
30
0
41
1
10
59.3046421668888
20
-8.6888458889147
30
0
41
1
10
59.3068048628178
20
-8.67970464294541
30
0
41
1
10
59.3106467499073
20
-8.65983827228283
30
0
41
1
10
59.3122899346214
20
-8.64927907828761
30
0
41
1
10
59.3148531713542
20
-8.62678710819907
30
0
41
1
10
59.3157792988459
20
-8.61483212030939
30
0
41
1
10
59.3162467681285
20
-8.6019623692051
30
0
0
SPLINE
5
C8
100
AcDbEntity
8
1
62
256
6
ByLayer
370
18
48
1
60
0
100
AcDbSpline
70
4
71
3
72
57
73
53
40
0
40
0
40
0
40
0
40
0.0537806498365751
40
0.0537806498365751
40
0.124151150760542
40
0.124151150760542
40
0.141743775991534
40
0.141743775991534
40
0.159336401222527
40
0.159336401222527
40
0.194521651684512
40
0.194521651684512
40
0.264892152608482
40
0.264892152608482
40
0.300077403070467
40
0.300077403070467
40
0.308873715685963
40
0.308873715685963
40
0.317670028301459
40
0.335262653532451
40
0.335262653532451
40
0.405633154456418
40
0.405633154456418
40
0.476003655380385
40
0.476003655380385
40
0.546374156304351
40
0.546374156304351
40
0.616744657228318
40
0.616744657228318
40
0.634337282459309
40
0.634337282459309
40
0.651929907690301
40
0.687115158152283
40
0.687115158152283
40
0.757485659076249
40
0.757485659076249
40
0.792670909538232
40
0.792670909538232
40
0.810263534769222
40
0.810263534769222
40
0.827856160000213
40
0.827856160000213
40
0.898226660924174
40
0.898226660924174
40
0.933411911386155
40
0.933411911386155
40
0.951004536617145
40
0.95980084923264
40
0.95980084923264
40
0.968597161848134
40
0.968597161848134
40
1
40
1
40
1
40
1
41
1
10
14.8905693904078
20
5.82012952418958
30
0
41
1
10
15.4506312840726
20
5.78786668456422
30
0
41
1
10
16.0097065637145
20
5.73894629329149
30
0
41
1
10
17.2999602426989
20
5.58856566612448
30
0
41
1
10
18.0310260485746
20
5.47555209474055
30
0
41
1
10
18.9468480350507
20
5.30109587123226
30
0
41
1
10
19.1301120005487
20
5.26454645394944
30
0
41
1
10
19.4968976403533
20
5.18817488343603
30
0
41
1
10
19.6802924922168
20
5.14837800957579
30
0
41
1
10
20.229969193824
20
5.02438881365006
30
0
41
1
10
20.5959877290217
20
4.93554674400144
30
0
41
1
10
21.6934447531856
20
4.65137846188119
30
0
41
1
10
22.4242842422815
20
4.43839692743472
30
0
41
1
10
23.5221300752318
20
4.08745826300876
30
0
41
1
10
23.8883430999134
20
3.9652374492415
30
0
41
1
10
24.3467318887016
20
3.80633658789688
30
0
41
1
10
24.4384719921455
20
3.7742391300755
30
0
41
1
10
24.6217965323831
20
3.70952283414809
30
0
41
1
10
24.8965906683752
20
3.61165282199212
30
0
41
1
10
25.1708394907265
20
3.51146262312838
30
0
41
1
10
26.0839344602742
20
3.17263392296607
30
0
41
1
10
26.8109976375746
20
2.88601637428903
30
0
41
1
10
28.2619113748702
20
2.28917018973868
30
0
41
1
10
28.9857595854964
20
1.97893713082328
30
0
41
1
10
30.4337873362912
20
1.34237605242939
30
0
41
1
10
31.1579645078152
20
1.01604290711646
30
0
41
1
10
32.6102007083947
20
0.354966948077731
30
0
41
1
10
33.3382573976808
20
0.020218402704046
30
0
41
1
10
34.2530219332982
20
-0.398462169373403
30
0
41
1
10
34.4362390973084
20
-0.482222830710612
30
0
41
1
10
34.8030806323795
20
-0.649581372642984
30
0
41
1
10
35.352934236863
20
-0.899909859229467
30
0
41
1
10
35.9018257523252
20
-1.14754329632788
30
0
41
1
10
36.9990244548811
20
-1.63773028928426
30
0
41
1
10
37.7297107090827
20
-1.95774461916039
30
0
41
1
10
38.8273524523169
20
-2.42176750132498
30
0
41
1
10
39.1935017490367
20
-2.57377657012319
30
0
41
1
10
39.7434788614734
20
-2.79706913218246
30
0
41
1
10
39.9269637872149
20
-2.87072554062428
30
0
41
1
10
40.2935224660094
20
-3.01606211108015
30
0
41
1
10
40.4766834540646
20
-3.08777810122081
30
0
41
1
10
41.3920427145452
20
-3.44133927883067
30
0
41
1
10
42.1229049795692
20
-3.70811315503462
30
0
41
1
10
43.2198452613447
20
-4.07941631498227
30
0
41
1
10
43.5855996080833
20
-4.19837744046373
30
0
41
1
10
44.1347410406607
20
-4.36903911438898
30
0
41
1
10
44.4094392599956
20
-4.45242515496847
30
0
41
1
10
44.6843944274908
20
-4.53278881988947
30
0
41
1
10
44.8677623050365
20
-4.58568137702577
30
0
41
1
10
44.9594939920565
20
-4.61179025849242
30
0
41
1
10
45.3784777647605
20
-4.72941096585816
30
0
41
1
10
45.7053719884816
20
-4.81662613148697
30
0
41
1
10
46.0320234907934
20
-4.89899609424015
30
0
0
SPLINE
5
C9
100
AcDbEntity
8
1
62
256
6
ByLayer
370
18
48
1
60
0
100
AcDbSpline
70
4
71
3
72
57
73
53
40
0
40
0
40
0
40
0
40
0.0625000000000178
40
0.0625000000000178
40
0.0937500000000263
40
0.0937500000000263
40
0.109375000000031
40
0.109375000000031
40
0.125000000000035
40
0.125000000000035
40
0.187500000000051
40
0.187500000000051
40
0.250000000000067
40
0.250000000000067
40
0.257812500000069
40
0.257812500000069
40
0.265625000000072
40
0.281250000000074
40
0.312500000000077
40
0.312500000000077
40
0.328125000000078
40
0.335937500000079
40
0.335937500000079
40
0.34375000000008
40
0.34375000000008
40
0.375000000000077
40
0.406250000000074
40
0.406250000000074
40
0.421875000000073
40
0.421875000000073
40
0.437500000000072
40
0.437500000000072
40
0.500000000000068
40
0.500000000000068
40
0.562500000000063
40
0.562500000000063
40
0.578125000000064
40
0.578125000000064
40
0.593750000000064
40
0.625000000000059
40
0.625000000000059
40
0.687500000000049
40
0.687500000000049
40
0.75000000000004
40
0.75000000000004
40
0.81250000000003
40
0.81250000000003
40
0.87500000000002
40
0.87500000000002
40
0.93750000000001
40
0.93750000000001
40
1
40
1
40
1
40
1
41
1
10
58.4652086882086
20
9.96072376262634
30
0
41
1
10
58.516942892407
20
9.84494629393825
30
0
41
1
10
58.5654436471595
20
9.72791479385941
30
0
41
1
10
58.6303933058556
20
9.54934189180457
30
0
41
1
10
58.6507343450543
20
9.48930997988498
30
0
41
1
10
58.6788080380107
20
9.39831663246656
30
0
41
1
10
58.6877587369469
20
9.36782759244338
30
0
41
1
10
58.7047541220735
20
9.3064981327195
30
0
41
1
10
58.7128083245406
20
9.27561803760429
30
0
41
1
10
58.750445435059
20
9.12071792083532
30
0
41
1
10
58.7719977376534
20
8.99600895107585
30
0
41
1
10
58.7920069604125
20
8.74446192666534
30
0
41
1
10
58.7905059079216
20
8.61762774637245
30
0
41
1
10
58.7711817370784
20
8.47331353789264
30
0
41
1
10
58.7687897063251
20
8.45727543587725
30
0
41
1
10
58.7635422943413
20
8.42540445754611
30
0
41
1
10
58.7549648842155
20
8.37781709608728
30
0
41
1
10
58.7300024668016
20
8.26831503136071
30
0
41
1
10
58.7001238241761
20
8.17708749418796
30
0
41
1
10
58.6646471952282
20
8.08759656502122
30
0
41
1
10
58.6455102945325
20
8.0432849700278
30
0
41
1
10
58.6242934113105
20
7.99961862747011
30
0
41
1
10
58.6096890031204
20
7.97065037765495
30
0
41
1
10
58.6021534646633
20
7.9562331338208
30
0
41
1
10
58.5635849039941
20
7.88494983781285
30
0
41
1
10
58.4958228739355
20
7.77528624328099
30
0
41
1
10
58.4174625539023
20
7.67330945181689
30
0
41
1
10
58.3551923505635
20
7.59936533648442
30
0
41
1
10
58.3338541764831
20
7.57513900871078
30
0
41
1
10
58.2900560730096
20
7.52749994782707
30
0
41
1
10
58.2676366959242
20
7.50413796783278
30
0
41
1
10
58.153790251849
20
7.39020927687147
30
0
41
1
10
58.056491380917
20
7.30750990812601
30
0
41
1
10
57.8524612361947
20
7.15491202658555
30
0
41
1
10
57.7457231311232
20
7.08502278462495
30
0
41
1
10
57.6077555945143
20
7.0038291915518
30
0
41
1
10
57.5798990632304
20
6.98788248656129
30
0
41
1
10
57.523943654431
20
6.95667708435235
30
0
41
1
10
57.4396752795067
20
6.91091481757675
30
0
41
1
10
57.3544844758893
20
6.86803003295387
30
0
41
1
10
57.18305243811
20
6.78553724289733
30
0
41
1
10
57.0673720833653
20
6.73488537002902
30
0
41
1
10
56.8339053342857
20
6.64015133681335
30
0
41
1
10
56.716114802498
20
6.59608208309581
30
0
41
1
10
56.4788738905456
20
6.51312141121355
30
0
41
1
10
56.3594213922969
20
6.47423660033257
30
0
41
1
10
56.119173285495
20
6.40065676143399
30
0
41
1
10
55.9983764914609
20
6.36596543147968
30
0
41
1
10
55.7556731866753
20
6.30004449178119
30
0
41
1
10
55.6337659113298
20
6.26881726715783
30
0
41
1
10
55.3890261898421
20
6.20924885395772
30
0
41
1
10
55.2661230143186
20
6.18089423310713
30
0
41
1
10
55.1429932236766
20
6.15380414066061
30
0
0
SPLINE
5
CA
100
AcDbEntity
8
1
62
256
6
ByLayer
370
18
48
1
60
0
100
AcDbSpline
70
4
71
3
72
16
73
12
40
0
40
0
40
0
40
0
40
0.26035549357039
40
0.26035549357039
40
0.445266620177843
40
0.445266620177843
40
0.537722183481535
40
0.537722183481535
40
0.630177746785227
40
0.630177746785227
40
1
40
1
40
1
40
1
41
1
10
54.5807680439563
20
5.99106592573008
30
0
41
1
10
54.6262488414351
20
6.00609966344274
30
0
41
1
10
54.6727511878053
20
6.02137623239307
30
0
41
1
10
54.7541505688751
20
6.04739368013961
30
0
41
1
10
54.7885095178387
20
6.05816627272733
30
0
41
1
10
54.8409553108422
20
6.0741023086081
30
0
41
1
10
54.8586374297422
20
6.0793911314538
30
0
41
1
10
54.8940142855778
20
6.0897739503551
30
0
41
1
10
54.9117149061966
20
6.09487031746372
30
0
41
1
10
55.0002964245376
20
6.11981570546274
30
0
41
1
10
55.0714137710186
20
6.13805576669145
30
0
41
1
10
55.1429932236765
20
6.15380414066061
30
0
0
SPLINE
5
CB
100
AcDbEntity
8
1
62
256
6
ByLayer
370
18
48
1
60
0
100
AcDbSpline
70
4
71
3
72
8
73
4
40
0
40
0
40
0
40
0
40
1
40
1
40
1
40
1
41
1
10
58.4652445263409
20
9.96085902705627
30
0
41
1
10
58.5624099662487
20
9.95531815912253
30
0
41
1
10
58.6595722620129
20
9.94973610487196
30
0
41
1
10
58.756731486487
20
9.94411381864492
30
0
0
SPLINE
5
CC
100
AcDbEntity
8
1
62
256
6
ByLayer
370
18
48
1
60
0
100
AcDbSpline
70
4
71
3
72
18
73
14
40
0
40
0
40
0
40
0
40
0.170954781114673
40
0.170954781114673
40
0.341909562229345
40
0.341909562229345
40
0.512864343344018
40
0.512864343344018
40
0.683819124458692
40
0.683819124458692
40
0.854773905573364
40
0.854773905573364
40
1
40
1
40
1
40
1
41
1
10
58.4652208644777
20
9.96072460494182
30
0
41
1
10
58.0395414502128
20
9.93127761795731
30
0
41
1
10
57.613862035948
20
9.8852910105341
30
0
41
1
10
56.7625032074183
20
9.76069564902377
30
0
41
1
10
56.3368237931535
20
9.68208710069879
30
0
41
1
10
55.4854649646237
20
9.49302961961664
30
0
41
1
10
55.0597855503588
20
9.3825809996969
30
0
41
1
10
54.2084267218291
20
9.13094183592861
30
0
41
1
10
53.7827473075642
20
8.98975170853177
30
0
41
1
10
52.9313884790345
20
8.67803376342181
30
0
41
1
10
52.5057090647697
20
8.50750646247536
30
0
41
1
10
51.718414968491
20
8.16655459097879
30
0
41
1
10
51.3568002864774
20
7.99997748437073
30
0
41
1
10
50.9951856044637
20
7.82403078612347
30
0
0
SPLINE
5
CD
100
AcDbEntity
8
1
62
256
6
ByLayer
370
18
48
1
60
0
100
AcDbSpline
70
4
71
3
72
12
73
8
40
0
40
0
40
0
40
0
40
0.242567692905407
40
0.242567692905407
40
0.621283846452704
40
0.621283846452704
40
1
40
1
40
1
40
1
41
1
10
20.9720165635424
20
-9.92367739576136
30
0
41
1
10
20.6993689025741
20
-9.94994760345799
30
0
41
1
10
20.4267212416059
20
-9.96946554729993
30
0
41
1
10
19.7283941663726
20
-10.0020401714838
30
0
41
1
10
19.3027147521077
20
-10.0053213621765
30
0
41
1
10
18.4513559235779
20
-9.97870046360498
30
0
41
1
10
18.0256765093129
20
-9.94879841740953
30
0
41
1
10
17.599997095048
20
-9.90245338277626
30
0
0
SPLINE
5
CE
100
AcDbEntity
8
1
62
256
6
ByLayer
370
18
48
1
60
0
100
AcDbSpline
70
4
71
3
72
28
73
24
40
0
40
0
40
0
40
0
40
0.125000000000006
40
0.125000000000006
40
0.250000000000012
40
0.250000000000012
40
0.375000000000018
40
0.375000000000018
40
0.437500000000021
40
0.437500000000021
40
0.500000000000024
40
0.500000000000024
40
0.625000000000018
40
0.625000000000018
40
0.750000000000012
40
0.750000000000012
40
0.812500000000009
40
0.812500000000009
40
0.875000000000006
40
0.875000000000006
40
0.937500000000003
40
0.937500000000003
40
1
40
1
40
1
40
1
41
1
10
57.8733447222517
20
-0.686072426007797
30
0
41
1
10
57.8727938423577
20
-0.737221709438671
30
0
41
1
10
57.8773410725535
20
-0.788104989590124
30
0
41
1
10
57.89396606903
20
-0.889662262196936
30
0
41
1
10
57.9060758320377
20
-0.940332345486524
30
0
41
1
10
57.9364219940911
20
-1.04173343884892
30
0
41
1
10
57.9546708578083
20
-1.09246100349776
30
0
41
1
10
57.9859875757353
20
-1.16884617310814
30
0
41
1
10
57.9970546458747
20
-1.19427329822818
30
0
41
1
10
58.0201830955495
20
-1.2448005577115
30
0
41
1
10
58.0322650602428
20
-1.26995065577418
30
0
41
1
10
58.0699047358284
20
-1.34517863527077
30
0
41
1
10
58.0968536088201
20
-1.39502409556664
30
0
41
1
10
58.1537431845974
20
-1.49487973975425
30
0
41
1
10
58.1836892306524
20
-1.54487171393942
30
0
41
1
10
58.2303376119093
20
-1.6209445062054
30
0
41
1
10
58.2461748479852
20
-1.64648829514198
30
0
41
1
10
58.2783300400623
20
-1.69822945198905
30
0
41
1
10
58.2947239057202
20
-1.72455002658327
30
0
41
1
10
58.3271269448913
20
-1.77701523524382
30
0
41
1
10
58.3431979092677
20
-1.80326272880279
30
0
41
1
10
58.3747996382578
20
-1.85591821874988
30
0
41
1
10
58.3903267439934
20
-1.88232836850077
30
0
41
1
10
58.4054708583187
20
-1.90886292891636
30
0
0
SPLINE
5
CF
100
AcDbEntity
8
1
62
256
6
ByLayer
370
18
48
1
60
0
100
AcDbSpline
70
4
71
3
72
16
73
12
40
0
40
0
40
0
40
0
40
0.23237574388043
40
0.23237574388043
40
0.46475148776086
40
0.46475148776086
40
0.69712723164129
40
0.69712723164129
40
0.929502975521719
40
0.929502975521719
40
1
40
1
40
1
40
1
41
1
10
2.22691525048012
20
-9.14543362893352
30
0
41
1
10
2.65550061510729
20
-8.95118520676667
30
0
41
1
10
3.08836515908513
20
-8.7604307776175
30
0
41
1
10
3.96397648848677
20
-8.3874694565009
30
0
41
1
10
4.40672671569916
20
-8.20525865459902
30
0
41
1
10
5.30351910390726
20
-7.85181194090259
30
0
41
1
10
5.75756655729325
20
-7.68057594270977
30
0
41
1
10
6.67831454869605
20
-7.35245326439684
30
0
41
1
10
7.14502189118664
20
-7.19557204270544
30
0
41
1
10
7.7622984680406
20
-7.00321591655717
30
0
41
1
10
7.90661142904938
20
-6.9592997254307
30
0
41
1
10
8.05156859724102
20
-6.91630794768
30
0
0
SPLINE
5
D0
100
AcDbEntity
8
1
62
256
6
ByLayer
370
18
48
1
60
0
100
AcDbSpline
70
4
71
3
72
8
73
4
40
0
40
0
40
0
40
0
40
1
40
1
40
1
40
1
41
1
10
15.8899038530571
20
-8.18869165928768
30
0
41
1
10
16.1112365803582
20
-8.12688291037654
30
0
41
1
10
16.341443913272
20
-8.0738227841851
30
0
41
1
10
16.5785559892214
20
-8.03167671621884
30
0
0
SPLINE
5
D1
100
AcDbEntity
8
1
62
256
6
ByLayer
370
18
48
1
60
0
100
AcDbSpline
70
4
71
3
72
49
73
45
40
0
40
0
40
0
40
0
40
0.0036147782235996
40
0.0036147782235996
40
0.0267865275672363
40
0.0267865275672363
40
0.0731300262545101
40
0.0731300262545101
40
0.119473524941783
40
0.119473524941783
40
0.165817023629057
40
0.165817023629057
40
0.21216052231633
40
0.21216052231633
40
0.258504021003604
40
0.258504021003604
40
0.304847519690878
40
0.304847519690878
40
0.351191018378151
40
0.351191018378151
40
0.397534517065424
40
0.397534517065424
40
0.443878015752698
40
0.443878015752698
40
0.490221514439972
40
0.513393263783609
40
0.513393263783609
40
0.536565013127247
40
0.536565013127247
40
0.582908511814523
40
0.582908511814523
40
0.629252010501798
40
0.629252010501798
40
0.721939007876349
40
0.721939007876349
40
0.768282506563624
40
0.768282506563624
40
0.814626005250899
40
0.814626005250899
40
0.860969503938174
40
0.860969503938174
40
0.907313002625449
40
0.907313002625449
40
1
40
1
40
1
40
1
41
1
10
30.8498037719553
20
-8.21191413555442
30
0
41
1
10
30.832473163654
20
-8.2185725933858
30
0
41
1
10
30.8151392358991
20
-8.22520973210825
30
0
41
1
10
30.6866649219938
20
-8.27423451327445
30
0
41
1
10
30.5753031279782
20
-8.31579710470442
30
0
41
1
10
30.2417933038909
20
-8.43744603802566
30
0
41
1
10
30.0200070015525
20
-8.51457306913335
30
0
41
1
10
29.5773386459477
20
-8.66080867096881
30
0
41
1
10
29.3564512591625
20
-8.72993086422693
30
0
41
1
10
28.9153669512148
20
-8.86010962170059
30
0
41
1
10
28.6951669199089
20
-8.9211720172467
30
0
41
1
10
28.2551982755526
20
-9.0353407401698
30
0
41
1
10
28.0354553813947
20
-9.08836952091596
30
0
41
1
10
27.596262192993
20
-9.18617384125292
30
0
41
1
10
27.3767989592295
20
-9.23099083069218
30
0
41
1
10
26.9378917327256
20
-9.31256816359999
30
0
41
1
10
26.7184519518866
20
-9.34931935088028
30
0
41
1
10
26.2794359400978
20
-9.41450125773801
30
0
41
1
10
26.0598600321162
20
-9.44292522696875
30
0
41
1
10
25.6203523501488
20
-9.49139519289986
30
0
41
1
10
25.400417861021
20
-9.51145152299421
30
0
41
1
10
24.959948952977
20
-9.54333920953323
30
0
41
1
10
24.7394244205034
20
-9.55512019880015
30
0
41
1
10
24.2976118195627
20
-9.5700119669292
30
0
41
1
10
23.9656706838246
20
-9.57473409995922
30
0
41
1
10
23.6325970183214
20
-9.56975349746668
30
0
41
1
10
23.4102679864317
20
-9.56426709392986
30
0
41
1
10
23.2989022371545
20
-9.56043658119458
30
0
41
1
10
22.9654637904655
20
-9.54573689404612
30
0
41
1
10
22.7437137500279
20
-9.53167862740708
30
0
41
1
10
22.3011280677848
20
-9.49502082622752
30
0
41
1
10
22.0803165193689
20
-9.47233510691797
30
0
41
1
10
21.4188064777201
20
-9.39204371641981
30
0
41
1
10
20.9790259949238
20
-9.32229827236068
30
0
41
1
10
20.3202514153564
20
-9.19282648761873
30
0
41
1
10
20.1008234488421
20
-9.14544233562702
30
0
41
1
10
19.6619476137327
20
-9.04293581637191
30
0
41
1
10
19.442508550944
20
-8.9877873476193
30
0
41
1
10
19.0034692417047
20
-8.8695909732692
30
0
41
1
10
18.7838688929822
20
-8.80654490500024
30
0
41
1
10
18.3443344626434
20
-8.67239258474956
30
0
41
1
10
18.1244013901066
20
-8.60126066451744
30
0
41
1
10
17.4636687780218
20
-8.37661224115814
30
0
41
1
10
17.0219873023327
20
-8.2116410232961
30
0
41
1
10
16.578321592502
20
-8.03100243801418
30
0
0
SPLINE
5
D2
100
AcDbEntity
8
1
62
256
6
ByLayer
370
18
48
1
60
0
100
AcDbSpline
70
4
71
3
72
9
73
5
40
0
40
0
40
0
40
0
40
0.0846515456096514
40
1
40
1
40
1
40
1
41
1
10
10.123076546306
20
-7.53696552400444
30
0
41
1
10
10.0843903747619
20
-7.5727845943762
30
0
41
1
10
9.62793849866287
20
-8.00005759064217
30
0
41
1
10
9.17680870432088
20
-8.47290384995219
30
0
41
1
10
8.75375237277396
20
-8.90798622680464
30
0
0
SPLINE
5
D3
100
AcDbEntity
8
1
62
256
6
ByLayer
370
18
48
1
60
0
100
AcDbSpline
70
4
71
3
72
20
73
16
40
0
40
0
40
0
40
0
40
0.125
40
0.125
40
0.25
40
0.25
40
0.499999999999999
40
0.499999999999999
40
0.624999999999999
40
0.624999999999999
40
0.749999999999999
40
0.749999999999999
40
0.875
40
0.875
40
1
40
1
40
1
40
1
41
1
10
58.4921289037864
20
3.95356204546317
30
0
41
1
10
58.5118526672812
20
3.91286649531867
30
0
41
1
10
58.5313059811324
20
3.87316001947934
30
0
41
1
10
58.5696070679828
20
3.79596162016162
30
0
41
1
10
58.5884661636733
20
3.75842828792798
30
0
41
1
10
58.6441927812837
20
3.64893931513115
30
0
41
1
10
58.6802241163726
20
3.58004173335144
30
0
41
1
10
58.732474848763
20
3.4832645863525
30
0
41
1
10
58.7495918174271
20
3.45210771566244
30
0
41
1
10
58.783101963826
20
3.39235323656038
30
0
41
1
10
58.7994979318819
20
3.36375487574659
30
0
41
1
10
58.8314704642588
20
3.30947629114198
30
0
41
1
10
58.8470508927144
20
3.28378230603383
30
0
41
1
10
58.8772349305314
20
3.23587307510201
30
0
41
1
10
58.8918415127676
20
3.21364724199918
30
0
41
1
10
58.9058075144669
20
3.1937027040637
30
0
0
SPLINE
5
D4
100
AcDbEntity
8
1
62
256
6
ByLayer
370
18
48
1
60
0
100
AcDbSpline
70
4
71
3
72
16
73
12
40
0
40
0
40
0
40
0
40
0.318670512453345
40
0.318670512453345
40
0.659335256226672
40
0.659335256226672
40
0.829667628113336
40
0.829667628113336
40
0.914833814056668
40
0.914833814056668
40
1
40
1
40
1
40
1
41
1
10
55.4039222376892
20
5.51519625631613
30
0
41
1
10
55.7226371715727
20
5.41392893165798
30
0
41
1
10
56.0444569569438
20
5.29144097793216
30
0
41
1
10
56.7165604854888
20
4.99527825121274
30
0
41
1
10
57.0672769947392
20
4.81864566577053
30
0
41
1
10
57.5983885347466
20
4.51927209501938
30
0
41
1
10
57.7762642020894
20
4.41375012218685
30
0
41
1
10
58.0443063318252
20
4.2470698935457
30
0
41
1
10
58.1339208757557
20
4.190069048547
30
0
41
1
10
58.3130424739815
20
4.07364758620704
30
0
41
1
10
58.4025914279715
20
4.0142027518809
30
0
41
1
10
58.4921289037864
20
3.95356204546317
30
0
0
SPLINE
5
D5
100
AcDbEntity
8
1
62
256
6
ByLayer
370
18
48
1
60
0
100
AcDbSpline
70
4
71
3
72
36
73
32
40
0
40
0
40
0
40
0
40
0.249999999999991
40
0.249999999999991
40
0.374999999999986
40
0.374999999999986
40
0.499999999999982
40
0.499999999999982
40
0.624999999999977
40
0.624999999999977
40
0.687499999999976
40
0.687499999999976
40
0.749999999999974
40
0.749999999999974
40
0.812499999999973
40
0.812499999999973
40
0.843749999999975
40
0.843749999999975
40
0.874999999999977
40
0.874999999999977
40
0.906249999999979
40
0.906249999999979
40
0.921874999999982
40
0.921874999999982
40
0.937499999999984
40
0.937499999999984
40
0.968749999999992
40
0.968749999999992
40
0.984374999999996
40
0.984374999999996
40
1
40
1
40
1
40
1
41
1
10
59.0000585848039
20
2.90137597302876
30
0
41
1
10
59.0299188938466
20
2.79766956298093
30
0
41
1
10
59.0595964384711
20
2.69411892491595
30
0
41
1
10
59.1036994210588
20
2.539145256908
30
0
41
1
10
59.1183307251431
20
2.48754676516657
30
0
41
1
10
59.1474108967064
20
2.38450527426727
30
0
41
1
10
59.161860516312
20
2.33306163406448
30
0
41
1
10
59.1905053034662
20
2.23039122574781
30
0
41
1
10
59.2047311340589
20
2.17905659228529
30
0
41
1
10
59.2255483687292
20
2.10313472624483
30
0
41
1
10
59.2324058908976
20
2.07798699919357
30
0
41
1
10
59.2459087601549
20
2.02810665833934
30
0
41
1
10
59.2525537180072
20
2.00337550547781
30
0
41
1
10
59.2654573278964
20
1.95484500815792
30
0
41
1
10
59.2717282803969
20
1.93100287334178
30
0
41
1
10
59.2807412156406
20
1.89616026993207
30
0
41
1
10
59.2836792967453
20
1.88470101888043
30
0
41
1
10
59.2893890005526
20
1.86217195499336
30
0
41
1
10
59.2921696788668
20
1.85106567911555
30
0
41
1
10
59.2974659348924
20
1.82955618140846
30
0
41
1
10
59.2999788053451
20
1.81916558424481
30
0
41
1
10
59.303485817401
20
1.80428585727952
30
0
41
1
10
59.3046108627073
20
1.79944429760499
30
0
41
1
10
59.3067590020496
20
1.79003565997274
30
0
41
1
10
59.3077847711642
20
1.78545593197984
30
0
41
1
10
59.3106462525878
20
1.77236777761948
30
0
41
1
10
59.3122781748061
20
1.76446242960662
30
0
41
1
10
59.3142016650742
20
1.75416406868794
30
0
41
1
10
59.314754995642
20
1.75099251607847
30
0
41
1
10
59.3156604666713
20
1.7452477947954
30
0
41
1
10
59.3160139301293
20
1.74265973695569
30
0
41
1
10
59.316246768129
20
1.74046112068186
30
0
0
SPLINE
5
D6
100
AcDbEntity
8
1
62
256
6
ByLayer
370
18
48
1
60
0
100
AcDbSpline
70
4
71
3
72
10
73
6
40
0
40
0
40
0
40
0
40
0.21706799433985
40
0.21706799433985
40
1
40
1
40
1
40
1
41
1
10
11.0490198621531
20
-7.9545402202175
30
0
41
1
10
10.8833979859901
20
-8.03295722856706
30
0
41
1
10
10.7174939423337
20
-8.10950989594573
30
0
41
1
10
9.95178105571205
20
-8.4532770303091
30
0
41
1
10
9.35338982773681
20
-8.69501608293581
30
0
41
1
10
8.75386949004974
20
-8.90786578007717
30
0
0
SPLINE
5
D7
100
AcDbEntity
8
1
62
256
6
ByLayer
370
18
48
1
60
0
100
AcDbSpline
70
4
71
3
72
58
73
54
40
0
40
0
40
0
40
0
40
0.124999999999995
40
0.124999999999995
40
0.24999999999999
40
0.24999999999999
40
0.312499999999987
40
0.312499999999987
40
0.343749999999986
40
0.359374999999986
40
0.359374999999986
40
0.374999999999986
40
0.374999999999986
40
0.437499999999986
40
0.437499999999986
40
0.499999999999986
40
0.499999999999986
40
0.562499999999986
40
0.562499999999986
40
0.624999999999986
40
0.624999999999986
40
0.656249999999986
40
0.656249999999986
40
0.671874999999987
40
0.671874999999987
40
0.687499999999987
40
0.687499999999987
40
0.74999999999999
40
0.74999999999999
40
0.781249999999991
40
0.781249999999991
40
0.796874999999992
40
0.796874999999992
40
0.812499999999993
40
0.812499999999993
40
0.843749999999994
40
0.843749999999994
40
0.874999999999995
40
0.874999999999995
40
0.906249999999996
40
0.906249999999996
40
0.914062499999997
40
0.914062499999997
40
0.921874999999997
40
0.937499999999998
40
0.937499999999998
40
0.968749999999999
40
0.968749999999999
40
0.984375
40
0.984375
40
0.9921875
40
0.9921875
40
1
40
1
40
1
40
1
41
1
10
8.75342065762484
20
-8.90790012928551
30
0
41
1
10
8.38072751830873
20
-9.04066260035313
30
0
41
1
10
8.0130672782349
20
-9.16465022761994
30
0
41
1
10
7.28643203915865
20
-9.39146843255693
30
0
41
1
10
6.92744259243975
20
-9.49432087910935
30
0
41
1
10
6.39529867331314
20
-9.63011676941787
30
0
41
1
10
6.21898438705639
20
-9.67230043690799
30
0
41
1
10
5.95621093806204
20
-9.73057807989611
30
0
41
1
10
5.82525011322963
20
-9.75846669773335
30
0
41
1
10
5.69496093864387
20
-9.7844005135135
30
0
41
1
10
5.60825555889389
20
-9.80124564572714
30
0
41
1
10
5.56496928823171
20
-9.80944793239442
30
0
41
1
10
5.3493878540682
20
-9.84924304850557
30
0
41
1
10
5.17929182221732
20
-9.87725978217381
30
0
41
1
10
4.8443712795663
20
-9.92518888610616
30
0
41
1
10
4.67954351936081
20
-9.94510375879594
30
0
41
1
10
4.35598452848882
20
-9.97620752965045
30
0
41
1
10
4.19724751658734
20
-9.98740048457137
30
0
41
1
10
3.88712033117969
20
-10.0001846056425
30
0
41
1
10
3.73571909577206
20
-10.0017830649776
30
0
41
1
10
3.51556354633775
20
-9.99601031934978
30
0
41
1
10
3.44334220273495
20
-9.99272045944133
30
0
41
1
10
3.33701179913584
20
-9.98556771374129
30
0
41
1
10
3.30190255307099
20
-9.98281341297556
30
0
41
1
10
3.23240385422045
20
-9.97653094416839
30
0
41
1
10
3.19798488701741
20
-9.97299899078092
30
0
41
1
10
3.02835738757329
20
-9.95337329200936
30
0
41
1
10
2.90027139464016
20
-9.93141683311589
30
0
41
1
10
2.72318805084828
20
-9.88749951326673
30
0
41
1
10
2.66668433904695
20
-9.87102264042969
30
0
41
1
10
2.58638450810713
20
-9.84325616360445
30
0
41
1
10
2.56034613999816
20
-9.83348463298927
30
0
41
1
10
2.50996709346052
20
-9.81289061771523
30
0
41
1
10
2.48570585202577
20
-9.80210145617252
30
0
41
1
10
2.41589635039392
20
-9.76820862491206
30
0
41
1
10
2.37331187270038
20
-9.74358235113925
30
0
41
1
10
2.29727922300296
20
-9.68994947011151
30
0
41
1
10
2.26382585253168
20
-9.66094408837725
30
0
41
1
10
2.20766862671573
20
-9.59813446092684
30
0
41
1
10
2.18495575086484
20
-9.56433229777323
30
0
41
1
10
2.16466535106616
20
-9.518725233829
30
0
41
1
10
2.16100907267344
20
-9.50941915955121
30
0
41
1
10
2.15458374584244
20
-9.49055361336639
30
0
41
1
10
2.14627426730675
20
-9.46188534250464
30
0
41
1
10
2.14203532054791
20
-9.43211308273834
30
0
41
1
10
2.13923793004864
20
-9.37111162975219
30
0
41
1
10
2.14493410677036
20
-9.32850149665052
30
0
41
1
10
2.16603518164601
20
-9.26173018896756
30
0
41
1
10
2.17516467267893
20
-9.23899704048236
30
0
41
1
10
2.19218666799409
20
-9.20419037620431
30
0
41
1
10
2.19841786792438
20
-9.19247153785517
30
0
41
1
10
2.21189225430211
20
-9.16900779156086
30
0
41
1
10
2.21914708199202
20
-9.15723769320502
30
0
41
1
10
2.22691525047969
20
-9.14543362893366
30
0
0
SPLINE
5
D8
100
AcDbEntity
8
1
62
256
6
ByLayer
370
18
48
1
60
0
100
AcDbSpline
70
4
71
3
72
21
73
17
40
0
40
0
40
0
40
0
40
0.125000000000002
40
0.125000000000002
40
0.250000000000005
40
0.250000000000005
40
0.375000000000007
40
0.375000000000007
40
0.500000000000009
40
0.500000000000009
40
0.750000000000013
40
0.750000000000013
40
0.812500000000011
40
0.812500000000011
40
0.875000000000009
40
1
40
1
40
1
40
1
41
1
10
15.0825935410963
20
-9.43913904905534
30
0
41
1
10
15.1000734699888
20
-9.39970269974154
30
0
41
1
10
15.1220209761966
20
-9.35874256611604
30
0
41
1
10
15.1717937162384
20
-9.27371398966167
30
0
41
1
10
15.1996464874793
20
-9.22964631386742
30
0
41
1
10
15.259429548265
20
-9.13836050837782
30
0
41
1
10
15.291372057422
20
-9.09114268822256
30
0
41
1
10
15.3581383989355
20
-8.99351539003928
30
0
41
1
10
15.3929683706189
20
-8.94310605876038
30
0
41
1
10
15.5005212420579
20
-8.7870212481549
30
0
41
1
10
15.57624297142
20
-8.67649427623439
30
0
41
1
10
15.6732054146001
20
-8.52995000269229
30
0
41
1
10
15.6927249067966
20
-8.50021220235189
30
0
41
1
10
15.7318909743083
20
-8.43999124499294
30
0
41
1
10
15.7908530128292
20
-8.34851001877308
30
0
41
1
10
15.8502531477637
20
-8.25355825043044
30
0
41
1
10
15.8899038530571
20
-8.18869165928768
30
0
0
SPLINE
5
D9
100
AcDbEntity
8
1
62
256
6
ByLayer
370
18
48
1
60
0
100
AcDbSpline
70
4
71
3
72
16
73
12
40
0
40
0
40
0
40
0
40
0.25
40
0.25
40
0.499999999999999
40
0.499999999999999
40
0.624999999999999
40
0.624999999999999
40
0.749999999999999
40
0.749999999999999
40
1
40
1
40
1
40
1
41
1
10
15.8899038530567
20
-8.18869165928751
30
0
41
1
10
15.29662129416
20
-7.92263854930576
30
0
41
1
10
14.7055233501749
20
-7.63120140607796
30
0
41
1
10
13.5233943813107
20
-7.00160510414716
30
0
41
1
10
12.9323709397532
20
-6.66343921609462
30
0
41
1
10
12.042673611338
20
-6.12383068537713
30
0
41
1
10
11.7455801405001
20
-5.9385649490815
30
0
41
1
10
11.149782506625
20
-5.55766255929578
30
0
41
1
10
10.8510327448359
20
-5.36199498592765
30
0
41
1
10
9.95178105571205
20
-4.7602391431754
30
0
41
1
10
9.35338982773686
20
-4.34284101466571
30
0
41
1
10
8.75386949004974
20
-3.91176830694204
30
0
0
SPLINE
5
DA
100
AcDbEntity
8
1
62
256
6
ByLayer
370
18
48
1
60
0
100
AcDbSpline
70
4
71
3
72
28
73
24
40
0
40
0
40
0
40
0
40
0.0625000000000029
40
0.0625000000000029
40
0.125000000000006
40
0.125000000000006
40
0.187500000000009
40
0.187500000000009
40
0.21875000000001
40
0.21875000000001
40
0.250000000000011
40
0.250000000000011
40
0.375000000000009
40
0.375000000000009
40
0.500000000000007
40
0.500000000000007
40
0.625000000000004
40
0.625000000000004
40
0.687500000000003
40
0.687500000000003
40
0.750000000000002
40
0.750000000000002
40
1
40
1
40
1
40
1
41
1
10
6.13866717692841
20
6.81758606543994
30
0
41
1
10
6.24386274032514
20
6.83035973875829
30
0
41
1
10
6.34918566932723
20
6.83942167574006
30
0
41
1
10
6.56004687787822
20
6.85133134346248
30
0
41
1
10
6.66558542856862
20
6.85417035926952
30
0
41
1
10
6.87685365574632
20
6.85435016995754
30
0
41
1
10
6.98258346831164
20
6.85168662973695
30
0
41
1
10
7.14130970220896
20
6.84389585033333
30
0
41
1
10
7.19424042118953
20
6.84066451569717
30
0
41
1
10
7.30014436104372
20
6.83297010577965
30
0
41
1
10
7.35313096966829
20
6.82850342252112
30
0
41
1
10
7.61652439842672
20
6.80333824388509
30
0
41
1
10
7.82369461451447
20
6.7741402901452
30
0
41
1
10
8.23202704327446
20
6.69984019678495
30
0
41
1
10
8.43317698260785
20
6.6547054502451
30
0
41
1
10
8.83003072321077
20
6.54926582151938
30
0
41
1
10
9.02572905852739
20
6.48894675930924
30
0
41
1
10
9.31544165336766
20
6.38709528980323
30
0
41
1
10
9.4107768079385
20
6.35145231026448
30
0
41
1
10
9.59883989602585
20
6.27697550962699
30
0
41
1
10
9.69161596998532
20
6.23812441673883
30
0
41
1
10
10.1495631543505
20
6.03596881756053
30
0
41
1
10
10.4970127484222
20
5.84904552968538
30
0
41
1
10
10.8290318047737
20
5.63801276843142
30
0
0
SPLINE
5
DB
100
AcDbEntity
8
1
62
256
6
ByLayer
370
18
48
1
60
0
100
AcDbSpline
70
4
71
3
72
11
73
7
40
0
40
0
40
0
40
0
40
0.255028119102876
40
0.510056238205753
40
0.765084357308629
40
1
40
1
40
1
40
1
41
1
10
14.4312871176813
20
-0.586160122731883
30
0
41
1
10
13.9230772730295
20
-1.00754150149561
30
0
41
1
10
12.8679971118297
20
-1.8089368193715
30
0
41
1
10
11.3770690871107
20
-2.91990321674072
30
0
41
1
10
10.0380448698389
20
-3.73093273679814
30
0
41
1
10
9.17680870432091
20
-3.93055148533568
30
0
41
1
10
8.75375237277399
20
-3.91176310855417
30
0
0
SPLINE
5
DC
100
AcDbEntity
8
1
62
256
6
ByLayer
370
18
48
1
60
0
100
AcDbSpline
70
4
71
3
72
87
73
83
40
0
40
0
40
0
40
0
40
0.0625000000000013
40
0.0625000000000013
40
0.125000000000003
40
0.125000000000003
40
0.187500000000004
40
0.187500000000004
40
0.250000000000005
40
0.250000000000005
40
0.265625000000006
40
0.265625000000006
40
0.281250000000007
40
0.312500000000008
40
0.312500000000008
40
0.375000000000011
40
0.375000000000011
40
0.406250000000013
40
0.406250000000013
40
0.437500000000014
40
0.437500000000014
40
0.468750000000016
40
0.468750000000016
40
0.484375000000017
40
0.484375000000017
40
0.500000000000018
40
0.500000000000018
40
0.531250000000019
40
0.531250000000019
40
0.546875000000019
40
0.546875000000019
40
0.554687500000019
40
0.554687500000019
40
0.562500000000019
40
0.562500000000019
40
0.59375000000002
40
0.59375000000002
40
0.625000000000021
40
0.625000000000021
40
0.632812500000021
40
0.636718750000021
40
0.636718750000021
40
0.640625000000021
40
0.640625000000021
40
0.656250000000022
40
0.656250000000022
40
0.687500000000022
40
0.687500000000022
40
0.695312500000022
40
0.695312500000022
40
0.703125000000022
40
0.718750000000022
40
0.734375000000023
40
0.734375000000023
40
0.742187500000023
40
0.742187500000023
40
0.746093750000023
40
0.746093750000023
40
0.750000000000022
40
0.750000000000022
40
0.781250000000016
40
0.781250000000016
40
0.789062500000015
40
0.789062500000015
40
0.796875000000014
40
0.796875000000014
40
0.812500000000012
40
0.812500000000012
40
0.84375000000001
40
0.84375000000001
40
0.875000000000007
40
0.875000000000007
40
0.882812500000006
40
0.882812500000006
40
0.890625000000006
40
0.906250000000005
40
0.906250000000005
40
0.937500000000003
40
0.937500000000003
40
0.968750000000002
40
0.968750000000002
40
1
40
1
40
1
40
1
41
1
10
8.75342065725346
20
-3.911698740497
30
0
41
1
10
8.4866895202841
20
-3.71926422679007
30
0
41
1
10
8.2225832362289
20
-3.52155520462378
30
0
41
1
10
7.69906149157003
20
-3.11585163274199
30
0
41
1
10
7.43964370199234
20
-2.90786157466707
30
0
41
1
10
6.92521421685222
20
-2.48151393996787
30
0
41
1
10
6.67019906404258
20
-2.26316302202713
30
0
41
1
10
6.16465167519192
20
-1.81549737863446
30
0
41
1
10
5.9141133849572
20
-1.58619402032158
30
0
41
1
10
5.60410107337034
20
-1.29185700954375
30
0
41
1
10
5.54223097807983
20
-1.23257546384542
30
0
41
1
10
5.41894547330875
20
-1.11332013866459
30
0
41
1
10
5.23495399640197
20
-0.933644555643639
30
0
41
1
10
5.0538623604341
20
-0.751514540642717
30
0
41
1
10
4.69588115648304
20
-0.383693836495127
30
0
41
1
10
4.46277499584517
20
-0.133779689929128
30
0
41
1
10
4.12358561520136
20
0.249989147500088
30
0
41
1
10
4.01227946491176
20
0.379405376113254
30
0
41
1
10
3.79373725134607
20
0.641703011209955
30
0
41
1
10
3.68649869016815
20
0.774582266635832
30
0
41
1
10
3.4768457132659
20
1.04445507595929
30
0
41
1
10
3.37442699930188
20
1.1814449271526
30
0
41
1
10
3.22520682570922
20
1.39069543634449
30
0
41
1
10
3.17617026023041
20
1.46112570235817
30
0
41
1
10
3.07989366567375
20
1.60317774107
30
0
41
1
10
3.03277708180374
20
1.67461520155206
30
0
41
1
10
2.89478628194703
20
1.89030274732679
30
0
41
1
10
2.80724664212005
20
2.03591630178232
30
0
41
1
10
2.68415493097765
20
2.25780580848237
30
0
41
1
10
2.64449943641981
20
2.33234978577067
30
0
41
1
10
2.58733501383799
20
2.44515983925336
30
0
41
1
10
2.56866720397738
20
2.4829291256045
30
0
41
1
10
2.53215556358492
20
2.55882355612346
30
0
41
1
10
2.51429321298272
20
2.59698993058492
30
0
41
1
10
2.42742645869686
20
2.7882325263632
30
0
41
1
10
2.36584181684344
20
2.94219111587438
30
0
41
1
10
2.26202390252885
20
3.2527804233348
30
0
41
1
10
2.21975728661698
20
3.40940386650181
30
0
41
1
10
2.18229018555147
20
3.60754137724268
30
0
41
1
10
2.17221137579995
20
3.66716138139401
30
0
41
1
10
2.16399849475792
20
3.7270756977066
30
0
41
1
10
2.15895333399089
20
3.76708724709317
30
0
41
1
10
2.1566433803566
20
3.78715220286557
30
0
41
1
10
2.14624846142448
20
3.88725285367079
30
0
41
1
10
2.14160441063584
20
3.96669815975304
30
0
41
1
10
2.1393853948847
20
4.20311830512469
30
0
41
1
10
2.15346765584042
20
4.35818009980926
30
0
41
1
10
2.19353825399176
20
4.54874749101896
30
0
41
1
10
2.20271059332436
20
4.58678965471779
30
0
41
1
10
2.22314700163292
20
4.66167570918657
30
0
41
1
10
2.25697686130991
20
4.77246469409852
30
0
41
1
10
2.32901627355409
20
4.9496141679202
30
0
41
1
10
2.40298568370196
20
5.083705949098
30
0
41
1
10
2.46449498065422
20
5.18153186563487
30
0
41
1
10
2.48600387448352
20
5.21368313637234
30
0
41
1
10
2.51976787398229
20
5.26123681848051
30
0
41
1
10
2.53128440316149
20
5.27699052162535
30
0
41
1
10
2.5546981168001
20
5.30812140400602
30
0
41
1
10
2.56660644927297
20
5.32351518675617
30
0
41
1
10
2.67555027062051
20
5.46055970019609
30
0
41
1
10
2.78489122163887
20
5.57178874367978
30
0
41
1
10
2.93474410732071
20
5.70011794579193
30
0
41
1
10
2.96537768601201
20
5.72524434763835
30
0
41
1
10
3.02792464580722
20
5.77446676721891
30
0
41
1
10
3.05990019639555
20
5.79860658205152
30
0
41
1
10
3.15711278650153
20
5.86913912780739
30
0
41
1
10
3.22364381145198
20
5.91367923096749
30
0
41
1
10
3.42781634141244
20
6.04082472387049
30
0
41
1
10
3.57000868460992
20
6.11700195079598
30
0
41
1
10
3.86437055143927
20
6.25578396033058
30
0
41
1
10
4.01655429005285
20
6.31836532166224
30
0
41
1
10
4.21216434276343
20
6.38953616431684
30
0
41
1
10
4.25159516486823
20
6.40342773558299
30
0
41
1
10
4.3306441754188
20
6.43041670534842
30
0
41
1
10
4.44958986085913
20
6.46974365258117
30
0
41
1
10
4.56959713645739
20
6.50580087056503
30
0
41
1
10
4.81090680836638
20
6.57399253198489
30
0
41
1
10
4.97350137262345
20
6.61424299252229
30
0
41
1
10
5.30166091802559
20
6.68603137637396
30
0
41
1
10
5.4672281782571
20
6.71756095833351
30
0
41
1
10
5.80101400462911
20
6.77305366450796
30
0
41
1
10
5.9692338518052
20
6.79701213746728
30
0
41
1
10
6.13866717692841
20
6.81758606543994
30
0
0
SPLINE
5
DD
100
AcDbEntity
8
1
62
256
6
ByLayer
370
18
48
1
60
0
100
AcDbSpline
70
4
71
3
72
8
73
4
40
0
40
0
40
0
40
0
40
1
40
1
40
1
40
1
41
1
10
58.4652445263408
20
-9.9608590270567
30
0
41
1
10
58.5624099662487
20
-9.95531815912295
30
0
41
1
10
58.6595722620128
20
-9.94973610487236
30
0
41
1
10
58.7567314864869
20
-9.94411381864532
30
0
0
SPLINE
5
DE
100
AcDbEntity
8
1
62
256
6
ByLayer
370
18
48
1
60
0
100
AcDbSpline
70
4
71
3
72
28
73
24
40
0
40
0
40
0
40
0
40
0.0312500000000009
40
0.0312500000000009
40
0.0625000000000017
40
0.0625000000000017
40
0.125000000000001
40
0.125000000000001
40
0.187500000000001
40
0.187500000000001
40
0.250000000000001
40
0.250000000000001
40
0.312500000000001
40
0.312500000000001
40
0.375000000000001
40
0.375000000000001
40
0.500000000000001
40
0.500000000000001
40
0.625000000000001
40
0.625000000000001
40
0.750000000000001
40
0.750000000000001
40
1
40
1
40
1
40
1
41
1
10
58.756731486487
20
-9.94411381864532
30
0
41
1
10
58.7496378009806
20
-9.93864117988196
30
0
41
1
10
58.7433029878764
20
-9.93292411213235
30
0
41
1
10
58.7325167132342
20
-9.92093498527194
30
0
41
1
10
58.7280759121246
20
-9.9146541461094
30
0
41
1
10
58.7179434913393
20
-9.89519097362961
30
0
41
1
10
58.7154370566787
20
-9.88130848523687
30
0
41
1
10
58.7163749753717
20
-9.85196577629586
30
0
41
1
10
58.7196952342018
20
-9.83651620293472
30
0
41
1
10
58.7292324877957
20
-9.80430961354867
30
0
41
1
10
58.735455293794
20
-9.78755194946274
30
0
41
1
10
58.7492609970447
20
-9.75286272053589
30
0
41
1
10
58.7568661770746
20
-9.73492085674084
30
0
41
1
10
58.7726597582499
20
-9.69802375306477
30
0
41
1
10
58.780862070646
20
-9.67905645793087
30
0
41
1
10
58.8057801898351
20
-9.62064389345613
30
0
41
1
10
58.8227813583176
20
-9.57969034944691
30
0
41
1
10
58.856034701104
20
-9.49387123026941
30
0
41
1
10
58.8723179083315
20
-9.44900359560592
30
0
41
1
10
58.9034016795383
20
-9.35539241054238
30
0
41
1
10
58.9182108912308
20
-9.30664833757399
30
0
41
1
10
58.959546545274
20
-9.15460557522977
30
0
41
1
10
58.9830170441062
20
-9.0455088491735
30
0
41
1
10
59.0000585848051
20
-8.928526332366
30
0
0
SPLINE
5
DF
100
AcDbEntity
8
1
62
256
6
ByLayer
370
18
48
1
60
0
100
AcDbSpline
70
4
71
3
72
8
73
4
40
0
40
0
40
0
40
0
40
1
40
1
40
1
40
1
41
1
10
59.0000585848049
20
-8.92852633236606
30
0
41
1
10
58.9685908869168
20
-8.88037842646546
30
0
41
1
10
58.9371736509857
20
-8.8306074286939
30
0
41
1
10
58.9058075144668
20
-8.77919283550827
30
0
0
SPLINE
5
E0
100
AcDbEntity
8
1
62
256
6
ByLayer
370
18
48
1
60
0
100
AcDbSpline
70
4
71
3
72
28
73
24
40
0
40
0
40
0
40
0
40
0.0312500000000004
40
0.0312500000000004
40
0.0625000000000008
40
0.0625000000000008
40
0.125000000000001
40
0.125000000000001
40
0.187500000000002
40
0.187500000000002
40
0.250000000000003
40
0.250000000000003
40
0.312500000000003
40
0.312500000000003
40
0.375000000000004
40
0.375000000000004
40
0.500000000000003
40
0.500000000000003
40
0.625000000000002
40
0.625000000000002
40
0.750000000000001
40
0.750000000000001
40
1
40
1
40
1
40
1
41
1
10
58.7567314864871
20
0.133650892633796
30
0
41
1
10
58.7496378009807
20
0.163361167263588
30
0
41
1
10
58.7433029878765
20
0.193242976259143
30
0
41
1
10
58.7325167132343
20
0.25343791709534
30
0
41
1
10
58.7280759121246
20
0.283780185814976
30
0
41
1
10
58.7179434913393
20
0.374294652443893
30
0
41
1
10
58.7154370566786
20
0.434333030255033
30
0
41
1
10
58.7163749753716
20
0.553924120347034
30
0
41
1
10
58.719695234202
20
0.613482685838704
30
0
41
1
10
58.7292324877958
20
0.732259788469122
30
0
41
1
10
58.7354552937941
20
0.791478022798145
30
0
41
1
10
58.7492609970448
20
0.909647268981416
30
0
41
1
10
58.7568661770748
20
0.968622736678242
30
0
41
1
10
58.7726597582499
20
1.08603536018021
30
0
41
1
10
58.780862070646
20
1.1445120678909
30
0
41
1
10
58.8057801898352
20
1.31934444242651
30
0
41
1
10
58.8227813583176
20
1.43510641561818
30
0
41
1
10
58.856034701104
20
1.66527298550273
30
0
41
1
10
58.8723179083315
20
1.77967301619401
30
0
41
1
10
58.9034016795383
20
2.00721898833189
30
0
41
1
10
58.9182108912309
20
2.1203636764217
30
0
41
1
10
58.9595465452741
20
2.4580242158595
30
0
41
1
10
58.9830170441062
20
2.68076675895807
30
0
41
1
10
59.0000585848052
20
2.90137597302885
30
0
0
SPLINE
5
E1
100
AcDbEntity
8
1
62
256
6
ByLayer
370
18
48
1
60
0
100
AcDbSpline
70
4
71
3
72
8
73
4
40
0
40
0
40
0
40
0
40
1
40
1
40
1
40
1
41
1
10
59.000058584805
20
2.90137597302888
30
0
41
1
10
58.9685765812821
20
2.99939240232135
30
0
41
1
10
58.937159344765
20
3.09683652876711
30
0
41
1
10
58.905807514467
20
3.1937027040637
30
0
0
SPLINE
5
E2
100
AcDbEntity
8
1
62
256
6
ByLayer
370
18
48
1
60
0
100
AcDbSpline
70
4
71
3
72
40
73
36
40
0
40
0
40
0
40
0
40
0.0929540811973018
40
0.0929540811973018
40
0.185908162394604
40
0.185908162394604
40
0.278862243591905
40
0.278862243591905
40
0.371816324789207
40
0.371816324789207
40
0.418293365387857
40
0.418293365387857
40
0.441531885687182
40
0.453151145836845
40
0.453151145836845
40
0.464770405986507
40
0.464770405986507
40
0.557724487183811
40
0.557724487183811
40
0.650678568381115
40
0.650678568381115
40
0.743632649578418
40
0.743632649578418
40
0.836586730775722
40
0.836586730775722
40
0.883063771374375
40
0.883063771374375
40
0.929540811973028
40
0.929540811973028
40
0.952779332272355
40
0.964398592422019
40
0.964398592422019
40
0.976017852571682
40
0.976017852571682
40
1
40
1
40
1
40
1
41
1
10
58.9058075144664
20
3.19370270406364
30
0
41
1
10
58.4627813854401
20
3.50606337582687
30
0
41
1
10
58.0215869647347
20
3.81136281655
30
0
41
1
10
57.1411565851115
20
4.40606666041884
30
0
41
1
10
56.7019318806162
20
4.69547526403721
30
0
41
1
10
55.8239131893747
20
5.25642570659826
30
0
41
1
10
55.3850783726198
20
5.52801053022532
30
0
41
1
10
54.5061016919345
20
6.05150349149272
30
0
41
1
10
54.0659919889204
20
6.30333415757067
30
0
41
1
10
53.4035519053132
20
6.66485491988311
30
0
41
1
10
53.1823588984757
20
6.78266439148919
30
0
41
1
10
52.8498453833562
20
6.95511070490983
30
0
41
1
10
52.6834074880058
20
7.0402665680385
30
0
41
1
10
52.516667491116
20
7.12377695284658
30
0
41
1
10
52.4054367393133
20
7.17908059758292
30
0
41
1
10
52.3497623792944
20
7.20655895022901
30
0
41
1
10
51.849086998589
20
7.45182503257629
30
0
41
1
10
51.4063128776944
20
7.65565891803533
30
0
41
1
10
50.5236696588266
20
8.03396628783307
30
0
41
1
10
50.0838612775758
20
8.20825256361135
30
0
41
1
10
49.2052105348335
20
8.52722939899715
30
0
41
1
10
48.7663854379046
20
8.67193635251391
30
0
41
1
10
47.8882464461732
20
8.93048043547316
30
0
41
1
10
47.4489337756325
20
9.04433166116505
30
0
41
1
10
46.7884120240229
20
9.1906224668962
30
0
41
1
10
46.567983846566
20
9.23524915282252
30
0
41
1
10
46.1263315627082
20
9.31652158306505
30
0
41
1
10
45.9051079089779
20
9.35318584411675
30
0
41
1
10
45.572530669679
20
9.40205221086131
30
0
41
1
10
45.4060568243863
20
9.42494943744688
30
0
41
1
10
45.2392770857695
20
9.44549246291336
30
0
41
1
10
45.1280192947596
20
9.45865864449667
30
0
41
1
10
45.0723469286622
20
9.46497775393789
30
0
41
1
10
44.9019517965488
20
9.48348855898934
30
0
41
1
10
44.7873263304459
20
9.49478157785782
30
0
41
1
10
44.6728391923558
20
9.50491491366947
30
0
0
SPLINE
5
E3
100
AcDbEntity
8
1
62
256
6
ByLayer
370
18
48
1
60
0
100
AcDbSpline
70
4
71
3
72
34
73
30
40
0
40
0
40
0
40
0
40
0.12499999999995
40
0.12499999999995
40
0.187499999999925
40
0.187499999999925
40
0.218749999999913
40
0.218749999999913
40
0.2499999999999
40
0.2499999999999
40
0.374999999999872
40
0.374999999999872
40
0.406249999999859
40
0.406249999999859
40
0.437499999999846
40
0.499999999999846
40
0.562499999999847
40
0.562499999999847
40
0.593749999999847
40
0.593749999999847
40
0.624999999999847
40
0.624999999999847
40
0.749999999999909
40
0.749999999999909
40
0.812499999999939
40
0.812499999999939
40
0.87499999999997
40
0.87499999999997
40
1
40
1
40
1
40
1
41
1
10
50.4511952464735
20
1.31352146196031
30
0
41
1
10
50.4314151482871
20
1.364184849005
30
0
41
1
10
50.4060500063071
20
1.41172838478539
30
0
41
1
10
50.3603429962201
20
1.47862217305376
30
0
41
1
10
50.343819770549
20
1.500177423092
30
0
41
1
10
50.317107823312
20
1.5313839104295
30
0
41
1
10
50.3078884005258
20
1.54158680177829
30
0
41
1
10
50.2890289545093
20
1.56138997525073
30
0
41
1
10
50.2793637226228
20
1.57102046536954
30
0
41
1
10
50.2299017028611
20
1.61786118598945
30
0
41
1
10
50.1867284079071
20
1.65116827570847
30
0
41
1
10
50.1285854523587
20
1.68794541488089
30
0
41
1
10
50.1167223397322
20
1.69506857336083
30
0
41
1
10
50.0927779788981
20
1.70871549247954
30
0
41
1
10
50.0564840743641
20
1.72832169330329
30
0
41
1
10
49.994178946561
20
1.75684522897325
30
0
41
1
10
49.9424897213341
20
1.77546080671141
30
0
41
1
10
49.9030426507859
20
1.78788418319988
30
0
41
1
10
49.8897800586457
20
1.79176848535181
30
0
41
1
10
49.8630270389473
20
1.79902420465206
30
0
41
1
10
49.8495297203585
20
1.80239583196996
30
0
41
1
10
49.782031230469
20
1.81784856848475
30
0
41
1
10
49.7275605142663
20
1.82588465102125
30
0
41
1
10
49.6451541587835
20
1.83172160701014
30
0
41
1
10
49.6175676866205
20
1.83262258675367
30
0
41
1
10
49.562148029677
20
1.8322729545371
30
0
41
1
10
49.5342060062548
20
1.83101002961789
30
0
41
1
10
49.4510413284159
20
1.823885246537
30
0
41
1
10
49.3963818636709
20
1.81477494854428
30
0
41
1
10
49.3426170898453
20
1.80081659662471
30
0
0
SPLINE
5
E4
100
AcDbEntity
8
1
62
256
6
ByLayer
370
18
48
1
60
0
100
AcDbSpline
70
4
71
3
72
37
73
33
40
0
40
0
40
0
40
0
40
0.0625000000000082
40
0.0625000000000082
40
0.125000000000016
40
0.125000000000016
40
0.187500000000025
40
0.187500000000025
40
0.250000000000033
40
0.250000000000033
40
0.312500000000041
40
0.312500000000041
40
0.343750000000045
40
0.343750000000045
40
0.37500000000005
40
0.37500000000005
40
0.500000000000051
40
0.500000000000051
40
0.562500000000052
40
0.562500000000052
40
0.593750000000052
40
0.593750000000052
40
0.625000000000053
40
0.625000000000053
40
0.750000000000014
40
0.750000000000014
40
0.781250000000015
40
0.781250000000015
40
0.812500000000016
40
0.875000000000018
40
0.875000000000018
40
1
40
1
40
1
40
1
41
1
10
53.8431119236009
20
-0.222670791199022
30
0
41
1
10
53.8487204261978
20
-0.184564660094196
30
0
41
1
10
53.8566122761788
20
-0.14723379527058
30
0
41
1
10
53.8764858665337
20
-0.073980566812196
30
0
41
1
10
53.8884684902913
20
-0.0380584857477402
30
0
41
1
10
53.9162715372811
20
0.0324475273487224
30
0
41
1
10
53.9321069419646
20
0.0670602553948356
30
0
41
1
10
53.9675115421979
20
0.134833867089327
30
0
41
1
10
53.9867772784297
20
0.167424156547355
30
0
41
1
10
54.0282378660097
20
0.230159592391942
30
0
41
1
10
54.0504365747651
20
0.260302625204929
30
0
41
1
10
54.0859091830903
20
0.303706701284909
30
0
41
1
10
54.0980967392189
20
0.317872282339636
30
0
41
1
10
54.1232048040304
20
0.345594790602433
30
0
41
1
10
54.1361477333699
20
0.359173905921693
30
0
41
1
10
54.2024796703299
20
0.425278431248955
30
0
41
1
10
54.2596371831552
20
0.471510010997377
30
0
41
1
10
54.3513679816005
20
0.531465196127868
30
0
41
1
10
54.3829550892615
20
0.549870479507803
30
0
41
1
10
54.4319198154441
20
0.575070576954801
30
0
41
1
10
54.4484384913741
20
0.583031934654599
30
0
41
1
10
54.4816846748774
20
0.598009605896777
30
0
41
1
10
54.4984406261408
20
0.605040677009043
30
0
41
1
10
54.5828884552894
20
0.637962165250855
30
0
41
1
10
54.6525703925486
20
0.657195967821934
30
0
41
1
10
54.7425386501038
20
0.672737255919202
30
0
41
1
10
54.7607209839766
20
0.675422753605119
30
0
41
1
10
54.7971393963843
20
0.679909896611861
30
0
41
1
10
54.8518015492227
20
0.685316426690719
30
0
41
1
10
54.9065932124804
20
0.686910654951561
30
0
41
1
10
55.0164119529035
20
0.685339721515959
30
0
41
1
10
55.0899394332607
20
0.677967886446226
30
0
41
1
10
55.1639300837928
20
0.664802770500813
30
0
0
SPLINE
5
E5
100
AcDbEntity
8
1
62
256
6
ByLayer
370
18
48
1
60
0
100
AcDbSpline
70
4
71
3
72
76
73
72
40
0
40
0
40
0
40
0
40
0.004886615453515
40
0.0097003582310422
40
0.0144412200807115
40
0.019109193604276
40
0.0237042722293429
40
0.0282264501821559
40
0.0326757224609728
40
0.0370520848098864
40
0.0413555336934736
40
0.0455860662720356
40
0.0497436803775556
40
0.0538283744904748
40
0.0578401477173462
40
0.0617789997692975
40
0.065644930941566
40
0.0694379420939719
40
0.0731580346325381
40
0.0768052104924114
40
0.0803794721218533
40
0.0838808224678781
40
0.0873092649632546
40
0.0906648035152441
40
0.0939474424961916
40
0.0971571867360216
40
0.100294041517097
40
0.103358012571459
40
0.106349106080838
40
0.109267328679793
40
0.112112687462327
40
0.11488518999246
40
0.117584844319326
40
0.12021165899746
40
0.122765643113028
40
0.12524680631707
40
0.127655158866705
40
0.147306309715165
40
0.16648162738215
40
0.185183151866935
40
0.203413177525542
40
0.221174265880969
40
0.238469260643504
40
0.255301305266307
40
0.306222287436298
40
0.357105726660576
40
0.408052622407368
40
0.459165103683821
40
0.510545917121347
40
0.52840901243227
40
0.546671368814495
40
0.565336633197005
40
0.584408202904172
40
0.603889246786037
40
0.623782724591463
40
0.644091404720733
40
0.664817880487586
40
0.685964585012486
40
0.707533804861775
40
0.729527692538674
40
0.751948277924241
40
0.774797478758927
40
0.798077110247633
40
0.821788893864764
40
0.845934465428728
40
0.870515382509736
40
0.895533131229069
40
0.920989132502835
40
0.94688474777847
40
0.973221284308322
40
1
40
1
40
1
40
1
41
1
10
14.4368355711998
20
-0.566381431268525
30
0
41
1
10
14.4351561290885
20
-0.553819897809802
30
0
41
1
10
14.431822289898
20
-0.528884157389911
30
0
41
1
10
14.4268436999306
20
-0.491788177441549
30
0
41
1
10
14.4219269040346
20
-0.455275187795166
30
0
41
1
10
14.4170695592247
20
-0.419347825888025
30
0
41
1
10
14.4122706386366
20
-0.384006361094066
30
0
41
1
10
14.4075289271629
20
-0.349251483222616
30
0
41
1
10
14.4028434090822
20
-0.315083581499835
30
0
41
1
10
14.3982131604633
20
-0.281502942177298
30
0
41
1
10
14.3936373712419
20
-0.248509705613429
30
0
41
1
10
14.3891153334585
20
-0.216103886140587
30
0
41
1
10
14.3846464384312
20
-0.184285375376589
30
0
41
1
10
14.3802301716782
20
-0.153053949722221
30
0
41
1
10
14.37586610852
20
-0.122409276620772
30
0
41
1
10
14.3715539095962
20
-0.0923509209930842
30
0
41
1
10
14.3672933164984
20
-0.0628783514775648
30
0
41
1
10
14.3630841474709
20
-0.0339909465685366
30
0
41
1
10
14.3589262931914
20
-0.0056880006269466
30
0
41
1
10
14.3548197126298
20
0.0220312702311674
30
0
41
1
10
14.3507644289915
20
0.0491677223723457
30
0
41
1
10
14.3467605257381
20
0.0757222790085734
30
0
41
1
10
14.3428081426949
20
0.101695924687846
30
0
41
1
10
14.3389074722405
20
0.127089699912176
30
0
41
1
10
14.3350587555798
20
0.151904695883303
30
0
41
1
10
14.331262279109
20
0.176142049378399
30
0
41
1
10
14.3275183708467
20
0.199802937751201
30
0
41
1
10
14.3238273970174
20
0.222888574072613
30
0
41
1
10
14.3201897584894
20
0.24540020236438
30
0
41
1
10
14.3166058881389
20
0.267339093091465
30
0
41
1
10
14.3130762452811
20
0.288706538316404
30
0
41
1
10
14.309601321054
20
0.309503848661478
30
0
41
1
10
14.3061816048841
20
0.32973234437199
30
0
41
1
10
14.3028176909323
20
0.34939336812343
30
0
41
1
10
14.2995098834949
20
0.36848822052292
30
0
41
1
10
14.2962595956707
20
0.387018372814339
30
0
41
1
10
14.2854065890947
20
0.448042760783494
30
0
41
1
10
14.2663475327934
20
0.550094505268618
30
0
41
1
10
14.2376641076381
20
0.691176413402786
30
0
41
1
10
14.2075178349154
20
0.827463151109356
30
0
41
1
10
14.1759255188068
20
0.959001682013252
30
0
41
1
10
14.142909951674
20
1.08585495522459
30
0
41
1
10
14.1085008626199
20
1.20810005141874
30
0
41
1
10
14.0483048345758
20
1.4063586587815
30
0
41
1
10
13.9529090704173
20
1.67697867482386
30
0
41
1
10
13.8084792907866
20
2.01375339107219
30
0
41
1
10
13.6433227251836
20
2.33984385264526
30
0
41
1
10
13.4583677443221
20
2.65662168616791
30
0
41
1
10
13.2994497727093
20
2.89776037094583
30
0
41
1
10
13.1777516688415
20
3.06986835878553
30
0
41
1
10
13.0996435418698
20
3.17664769732292
30
0
41
1
10
13.0180045270476
20
3.28482339458563
30
0
41
1
10
12.9328541188201
20
3.3944198556409
30
0
41
1
10
12.8442187514452
20
3.50546200756335
30
0
41
1
10
12.7521232072246
20
3.61797501531663
30
0
41
1
10
12.6565929046701
20
3.73198426334218
30
0
41
1
10
12.5576531808154
20
3.84751526755772
30
0
41
1
10
12.4553294098185
20
3.96459361051967
30
0
41
1
10
12.349646895049
20
4.08324487402143
30
0
41
1
10
12.2406308285692
20
4.20349457631534
30
0
41
1
10
12.1283062359214
20
4.32536811143271
30
0
41
1
10
12.0126979316523
20
4.44889069307752
30
0
41
1
10
11.8938304673273
20
4.57408729524437
30
0
41
1
10
11.7717281194878
20
4.70098261886196
30
0
41
1
10
11.6464147410032
20
4.82960097185381
30
0
41
1
10
11.5179141506951
20
4.95996649411856
30
0
41
1
10
11.3862484737304
20
5.09210207275439
30
0
41
1
10
11.2514443483321
20
5.22603328846066
30
0
41
1
10
11.1135090124907
20
5.361773101045
30
0
41
1
10
10.9725217393886
20
5.49938030056589
30
0
41
1
10
10.8771584193283
20
5.59151541847308
30
0
41
1
10
10.8290798142478
20
5.63796648524698
30
0
0
SPLINE
5
E6
100
AcDbEntity
8
1
62
256
6
ByLayer
370
18
48
1
60
0
100
AcDbSpline
70
4
71
5
72
21
73
15
40
0
40
0
40
0
40
0
40
0
40
0
40
0.276931057614622
40
0.346163822018278
40
0.450012968623761
40
0.553862115229245
40
0.6230948796329
40
0.692327644036556
40
0.796176790642039
40
0.900025937247522
40
0.969258701651178
40
1
40
1
40
1
40
1
40
1
40
1
41
1
10
14.4312871176813
20
-0.586160122731883
30
0
41
1
10
14.9897670105594
20
-0.839682992586262
30
0
41
1
10
15.6878668766567
20
-1.15484293335857
30
0
41
1
10
16.5953967025836
20
-1.55967465808339
30
0
41
1
10
17.7123564883394
20
-2.04608761933514
30
0
41
1
10
18.968936247315
20
-2.56995116474712
30
0
41
1
10
19.8066560866319
20
-2.90772767677916
30
0
41
1
10
20.7141859125586
20
-3.2594238215228
30
0
41
1
10
21.6217157384854
20
-3.5953730329816
30
0
41
1
10
22.4594355778023
20
-3.88959307934348
30
0
41
1
10
23.2195306464483
20
-4.1408046800469
30
0
41
1
10
23.8400057418747
20
-4.33355035902881
30
0
41
1
10
24.2510508774719
20
-4.4555608158378
30
0
41
1
10
24.4526660532399
20
-4.51400986838209
30
0
41
1
10
24.5146612557884
20
-4.53184962874727
30
0
0
SPLINE
5
E7
100
AcDbEntity
8
1
62
256
6
ByLayer
370
18
48
1
60
0
100
AcDbSpline
70
4
71
5
72
15
73
9
40
0
40
0
40
0
40
0
40
0
40
0
40
0.193789382136181
40
0.471092795297198
40
0.887047915038725
40
1
40
1
40
1
40
1
40
1
40
1
41
1
10
17.5999999081773
20
9.90242919905168
30
0
41
1
10
17.5024285583131
20
9.89180624491144
30
0
41
1
10
17.2652372352293
20
9.86423373894189
30
0
41
1
10
16.8186159523164
20
9.80432613368154
30
0
41
1
10
16.315124229557
20
9.71991404789401
30
0
41
1
10
15.8116325067977
20
9.61670616957059
30
0
41
1
10
15.4057121339025
20
9.52146162985457
30
0
41
1
10
15.1394117342268
20
9.45385658421176
30
0
41
1
10
15.0825412943804
20
9.43918608523069
30
0
0
SPLINE
5
E8
100
AcDbEntity
8
1
62
256
6
ByLayer
370
18
48
1
60
0
100
AcDbSpline
70
4
71
3
72
10
73
6
40
0
40
0
40
0
40
0
40
0.472756287715108
40
0.472756287715108
40
1
40
1
40
1
40
1
41
1
10
11.0490206101975
20
7.95098742274197
30
0
41
1
10
11.6846447000669
20
8.2521561139994
30
0
41
1
10
12.3202687899364
20
8.52388081525808
30
0
41
1
10
13.6647756878593
20
9.02992642683543
30
0
41
1
10
14.3736584959128
20
9.25632010208253
30
0
41
1
10
15.0825413039663
20
9.43918600603627
30
0
0
SPLINE
5
E9
100
AcDbEntity
8
1
62
256
6
ByLayer
370
18
48
1
60
0
100
AcDbSpline
70
4
71
5
72
44
73
38
40
0
40
0
40
0
40
0
40
0
40
0
40
0.0785099800891671
40
0.101282857078691
40
0.135442172562976
40
0.169601488047261
40
0.192374365036785
40
0.215147242026308
40
0.249306557510593
40
0.283465872994879
40
0.306238749984402
40
0.340398065468687
40
0.363170942458211
40
0.397330257942496
40
0.42010313493202
40
0.454262450416305
40
0.48842176590059
40
0.511194642890114
40
0.545353958374399
40
0.568126835363923
40
0.602286150848208
40
0.625059027837731
40
0.659218343322017
40
0.693377658806302
40
0.716150535795825
40
0.738923412785349
40
0.773082728269634
40
0.807242043753919
40
0.830014920743443
40
0.864174236227728
40
0.898333551712013
40
0.921106428701537
40
0.94387930569106
40
0.978038621175346
40
1
40
1
40
1
40
1
40
1
40
1
41
1
10
14.8169723749565
20
5.82899562611854
30
0
41
1
10
15.2983152163795
20
5.81563756779653
30
0
41
1
10
15.9192780310218
20
5.78511123332973
30
0
41
1
10
16.7496708054937
20
5.72144313232096
30
0
41
1
10
17.7894935397945
20
5.60394328425048
30
0
41
1
10
18.968936247315
20
5.41862581150301
30
0
41
1
10
19.8066560866319
20
5.26282559865686
30
0
41
1
10
20.7141859125586
20
5.06870154618062
30
0
41
1
10
21.6217157384854
20
4.85008957459746
30
0
41
1
10
22.4594355778023
20
4.62655508297738
30
0
41
1
10
23.3669654037291
20
4.36203120028293
30
0
41
1
10
24.2744952296558
20
4.07436369089424
30
0
41
1
10
25.1820250555825
20
3.76708179397951
30
0
41
1
10
26.0197448948995
20
3.46656181383955
30
0
41
1
10
26.9272747208262
20
3.12433012060816
30
0
41
1
10
27.8348045467529
20
2.76691462829771
30
0
41
1
10
28.7423343726796
20
2.39474489076187
30
0
41
1
10
29.6498641986064
20
2.01100063820178
30
0
41
1
10
30.5573940245331
20
1.61662241520861
30
0
41
1
10
31.4649238504598
20
1.21453092805436
30
0
41
1
10
32.3026436897768
20
0.837859697245563
30
0
41
1
10
33.2101735157035
20
0.425851957917274
30
0
41
1
10
34.1177033416302
20
0.011684246423556
30
0
41
1
10
35.025233167557
20
-0.402602199437524
30
0
41
1
10
35.8629530068739
20
-0.783224245700978
30
0
41
1
10
36.7704828328007
20
-1.19157663392315
30
0
41
1
10
37.6780126587273
20
-1.59417227543113
30
0
41
1
10
38.5157324980443
20
-1.95887099588984
30
0
41
1
10
39.4232623239711
20
-2.34449347006137
30
0
41
1
10
40.4006021365075
20
-2.74630545749398
30
0
41
1
10
41.3081319624343
20
-3.10487177225949
30
0
41
1
10
42.1458518017512
20
-3.42200366108798
30
0
41
1
10
43.0533816276779
20
-3.74886147123888
30
0
41
1
10
43.886126190832
20
-4.03216544615873
30
0
41
1
10
44.5094407941568
20
-4.23228742230521
30
0
41
1
10
44.9931354242622
20
-4.37993533381902
30
0
41
1
10
45.337210081148
20
-4.48093997731624
30
0
41
1
10
45.4718547782046
20
-4.51984030840597
30
0
0
SPLINE
5
EA
100
AcDbEntity
8
1
62
256
6
ByLayer
370
18
48
1
60
0
100
AcDbSpline
70
4
71
3
72
102
73
98
40
0
40
0
40
0
40
0
40
0.0312499999999917
40
0.0312499999999917
40
0.0624999999999834
40
0.0624999999999834
40
0.0781249999999792
40
0.0781249999999792
40
0.093749999999975
40
0.093749999999975
40
0.124999999999958
40
0.124999999999958
40
0.132812499999954
40
0.132812499999954
40
0.14062499999995
40
0.14062499999995
40
0.156249999999948
40
0.156249999999948
40
0.187499999999938
40
0.187499999999938
40
0.203124999999933
40
0.203124999999933
40
0.218749999999928
40
0.218749999999928
40
0.249999999999917
40
0.249999999999917
40
0.265624999999911
40
0.265624999999911
40
0.281249999999906
40
0.281249999999906
40
0.312499999999895
40
0.312499999999895
40
0.328124999999889
40
0.328124999999889
40
0.343749999999884
40
0.343749999999884
40
0.374999999999879
40
0.374999999999879
40
0.390624999999879
40
0.390624999999879
40
0.406249999999879
40
0.406249999999879
40
0.43749999999988
40
0.43749999999988
40
0.453124999999885
40
0.453124999999885
40
0.46874999999989
40
0.46874999999989
40
0.499999999999899
40
0.531249999999909
40
0.531249999999909
40
0.546874999999913
40
0.546874999999913
40
0.562499999999918
40
0.562499999999918
40
0.593749999999917
40
0.593749999999917
40
0.624999999999915
40
0.624999999999915
40
0.640624999999914
40
0.640624999999914
40
0.656249999999914
40
0.656249999999914
40
0.687499999999912
40
0.687499999999912
40
0.703124999999911
40
0.703124999999911
40
0.718749999999911
40
0.718749999999911
40
0.749999999999909
40
0.749999999999909
40
0.781249999999907
40
0.781249999999907
40
0.789062499999911
40
0.789062499999911
40
0.796874999999914
40
0.812499999999922
40
0.812499999999922
40
0.843749999999936
40
0.843749999999936
40
0.85156249999994
40
0.85156249999994
40
0.859374999999945
40
0.859374999999945
40
0.87499999999995
40
0.87499999999995
40
0.906249999999964
40
0.906249999999964
40
0.92187499999997
40
0.92187499999997
40
0.937499999999976
40
0.937499999999976
40
0.968749999999988
40
0.968749999999988
40
0.984374999999994
40
0.984374999999994
40
1
40
1
40
1
40
1
41
1
10
49.3426170898465
20
1.8008165966246
30
0
41
1
10
49.305354321383
20
1.79115094646218
30
0
41
1
10
49.2692069989729
20
1.77929170160624
30
0
41
1
10
49.1992492404642
20
1.75101760699764
30
0
41
1
10
49.16543703994
20
1.73460619448576
30
0
41
1
10
49.116674169153
20
1.70619547300251
30
0
41
1
10
49.1007507188064
20
1.69608065143106
30
0
41
1
10
49.0701973197653
20
1.67492270161131
30
0
41
1
10
49.0554877072505
20
1.6638358817807
30
0
41
1
10
49.0130781804084
20
1.62903510589948
30
0
41
1
10
48.9870872111346
20
1.60379098523259
30
0
41
1
10
48.9576527569521
20
1.56948670112561
30
0
41
1
10
48.9519193978209
20
1.56248758568535
30
0
41
1
10
48.9407683495616
20
1.548204482123
30
0
41
1
10
48.9353450707853
20
1.54091042855166
30
0
41
1
10
48.9197347656735
20
1.51884004273128
30
0
41
1
10
48.9101444481308
20
1.50380066033335
30
0
41
1
10
48.8837611969283
20
1.45772004687822
30
0
41
1
10
48.8693429980883
20
1.42572221812662
30
0
41
1
10
48.8524653186949
20
1.37576161346826
30
0
41
1
10
48.8476183289903
20
1.35869363310016
30
0
41
1
10
48.839671723925
20
1.32444754101505
30
0
41
1
10
48.8365540715787
20
1.30724679709655
30
0
41
1
10
48.8296510258531
20
1.2554073355314
30
0
41
1
10
48.828301462083
20
1.22053280560371
30
0
41
1
10
48.830972214867
20
1.16770619820264
30
0
41
1
10
48.8326567868825
20
1.15001435543141
30
0
41
1
10
48.8374959191347
20
1.115027607694
30
0
41
1
10
48.8406523596163
20
1.09765840947659
30
0
41
1
10
48.8522315979955
20
1.04589350136035
30
0
41
1
10
48.862752217752
20
1.01183819668992
30
0
41
1
10
48.8825790254544
20
0.961366291532897
30
0
41
1
10
48.8898652772456
20
0.944661142426384
30
0
41
1
10
48.9055503355912
20
0.911914736150266
30
0
41
1
10
48.9139719436263
20
0.895812426548844
30
0
41
1
10
48.9409088215978
20
0.848280633296127
30
0
41
1
10
48.9610871907295
20
0.81762170626547
30
0
41
1
10
48.9946048429491
20
0.773119278171265
30
0
41
1
10
49.0063611761376
20
0.758488616167881
30
0
41
1
10
49.0307699585236
20
0.729965250840252
30
0
41
1
10
49.0433949506287
20
0.716097738005146
30
0
41
1
10
49.0824916584307
20
0.67563904588107
30
0
41
1
10
49.1101791273673
20
0.650185771782247
30
0
41
1
10
49.1541039838508
20
0.614248450076133
30
0
41
1
10
49.1691460833352
20
0.60264463517106
30
0
41
1
10
49.2000426536318
20
0.5801996827187
30
0
41
1
10
49.2159539329064
20
0.569323208818417
30
0
41
1
10
49.2644688490069
20
0.538171526529482
30
0
41
1
10
49.3310927926417
20
0.50060528400607
30
0
41
1
10
49.4015103922985
20
0.470826020233972
30
0
41
1
10
49.4557966028139
20
0.451522631222247
30
0
41
1
10
49.4741526286315
20
0.445590923274494
30
0
41
1
10
49.5113177834001
20
0.434799431639675
30
0
41
1
10
49.5299465612087
20
0.429991167926147
30
0
41
1
10
49.5859727177955
20
0.417303677454726
30
0
41
1
10
49.6235092628898
20
0.411154152368482
30
0
41
1
10
49.6989761455362
20
0.403526898452469
30
0
41
1
10
49.7369063044345
20
0.402047731128761
30
0
41
1
10
49.794130831832
20
0.403568659649835
30
0
41
1
10
49.8132147583025
20
0.404705685472152
30
0
41
1
10
49.8508960906924
20
0.40820911618485
30
0
41
1
10
49.8695654273067
20
0.41057654471669
30
0
41
1
10
49.9250678571989
20
0.419518488229301
30
0
41
1
10
49.961397984908
20
0.427923557554692
30
0
41
1
10
50.0148735128499
20
0.444324529110617
30
0
41
1
10
50.032528113205
20
0.450425929094024
30
0
41
1
10
50.0674855767798
20
0.463948745466638
30
0
41
1
10
50.0847989262542
20
0.471383094793282
30
0
41
1
10
50.1353153776396
20
0.495318797474994
30
0
41
1
10
50.1674070085322
20
0.51355200224603
30
0
41
1
10
50.2284261091099
20
0.554586508693461
30
0
41
1
10
50.2573550973756
20
0.577385678361168
30
0
41
1
10
50.2914000974549
20
0.608941363468659
30
0
41
1
10
50.2981125039124
20
0.615417166384219
30
0
41
1
10
50.3112018482838
20
0.628564316590968
30
0
41
1
10
50.3303728935122
20
0.648613791671778
30
0
41
1
10
50.3481688349272
20
0.669638676739424
30
0
41
1
10
50.3819318786244
20
0.712981169641893
30
0
41
1
10
50.4020144622265
20
0.743591817542296
30
0
41
1
10
50.4239241027888
20
0.784088299222105
30
0
41
1
10
50.4281453736498
20
0.792299886557316
30
0
41
1
10
50.4362583962129
20
0.808952555875891
30
0
41
1
10
50.4401591463711
20
0.817415285643619
30
0
41
1
10
50.4512655887257
20
0.842952781699665
30
0
41
1
10
50.4578865038767
20
0.860185932485734
30
0
41
1
10
50.4754354977995
20
0.912490572154553
30
0
41
1
10
50.4840638903736
20
0.948163926828073
30
0
41
1
10
50.4922863295045
20
1.00286526668131
30
0
41
1
10
50.4942369867427
20
1.02129842727126
30
0
41
1
10
50.4964937959945
20
1.05857169432099
30
0
41
1
10
50.4967842374951
20
1.07722301066559
30
0
41
1
10
50.495197231522
20
1.13279529822716
30
0
41
1
10
50.4908859303551
20
1.16951445527505
30
0
41
1
10
50.4796123547026
20
1.22406693972852
30
0
41
1
10
50.4750500869854
20
1.24216310093158
30
0
41
1
10
50.4642896266939
20
1.27817027450314
30
0
41
1
10
50.4581176967639
20
1.29598407947415
30
0
41
1
10
50.4511952464736
20
1.31352146196031
30
0
0
SPLINE
5
EB
100
AcDbEntity
8
1
62
256
6
ByLayer
370
18
48
1
60
0
100
AcDbSpline
70
4
71
5
72
28
73
22
40
0
40
0
40
0
40
0
40
0
40
0
40
0.0137353985137162
40
0.0656192748526794
40
0.117503151191643
40
0.195328965700088
40
0.273154780208533
40
0.325038656547496
40
0.402864471055941
40
0.480690285564386
40
0.532574161903349
40
0.584458038242312
40
0.662283852750757
40
0.740109667259202
40
0.791993543598165
40
0.86981935810661
40
0.921703234445574
40
0.999529048954018
40
1
40
1
40
1
40
1
40
1
40
1
41
1
10
35.8875725681783
20
5.71622340639584
30
0
41
1
10
35.9245346478833
20
5.71277234046215
30
0
41
1
10
36.1011167008077
20
5.69600060275587
30
0
41
1
10
36.4173187269517
20
5.66353494403793
30
0
41
1
10
36.9429507129249
20
5.60236054236225
30
0
41
1
10
37.6780126587273
20
5.50023510247468
30
0
41
1
10
38.5157324980444
20
5.35924986383844
30
0
41
1
10
39.4232623239711
20
5.18061300700532
30
0
41
1
10
40.4006021365075
20
4.95861375393133
30
0
41
1
10
41.3081319624343
20
4.72608976871211
30
0
41
1
10
42.1458518017512
20
4.49036676901162
30
0
41
1
10
43.0533816276779
20
4.21343430495369
30
0
41
1
10
43.9609114536047
20
3.91614589098356
30
0
41
1
10
44.7986312929217
20
3.62411775325256
30
0
41
1
10
45.7061611188483
20
3.29023749862603
30
0
41
1
10
46.6136909447752
20
2.93891860225531
30
0
41
1
10
47.5212207707018
20
2.57348703541831
30
0
41
1
10
48.2205879702576
20
2.28222152537515
30
0
41
1
10
48.7803351965938
20
2.04383427513025
30
0
41
1
10
49.1306524631008
20
1.89281002891656
30
0
41
1
10
49.3413497563883
20
1.80136664597128
30
0
41
1
10
49.3426170898465
20
1.8008165966242
30
0
0
SPLINE
5
EC
100
AcDbEntity
8
1
62
256
6
ByLayer
370
18
48
1
60
0
100
AcDbSpline
70
4
71
3
72
96
73
92
40
0
40
0
40
0
40
0
40
0.0395444474571716
40
0.0395444474571716
40
0.0790888949143431
40
0.0790888949143431
40
0.118633342371515
40
0.118633342371515
40
0.158177789828686
40
0.158177789828686
40
0.177950013557272
40
0.177950013557272
40
0.187836125421564
40
0.192779181353711
40
0.192779181353711
40
0.197722237285857
40
0.197722237285857
40
0.237266684743029
40
0.237266684743029
40
0.276811132200201
40
0.276811132200201
40
0.316355579657372
40
0.316355579657372
40
0.355900027114544
40
0.355900027114544
40
0.37567225084313
40
0.37567225084313
40
0.395444474571715
40
0.395444474571715
40
0.405330586436008
40
0.410273642368155
40
0.410273642368155
40
0.415216698300301
40
0.415216698300301
40
0.434988922028886
40
0.434988922028886
40
0.45476114575747
40
0.45476114575747
40
0.474533369486055
40
0.474533369486055
40
0.49430559321464
40
0.49430559321464
40
0.514077816943224
40
0.514077816943224
40
0.533850040671809
40
0.533850040671809
40
0.553622264400394
40
0.553622264400394
40
0.593166711857563
40
0.593166711857563
40
0.612938935586148
40
0.612938935586148
40
0.62282504745044
40
0.62282504745044
40
0.627768103382587
40
0.627768103382587
40
0.632711159314733
40
0.632711159314733
40
0.652483383043319
40
0.652483383043319
40
0.672255606771905
40
0.672255606771905
40
0.692027830500491
40
0.692027830500491
40
0.711800054229077
40
0.711800054229077
40
0.751344501686249
40
0.751344501686249
40
0.790888949143421
40
0.790888949143421
40
0.830433396600593
40
0.830433396600593
40
0.840319508464886
40
0.840319508464886
40
0.850205620329179
40
0.850205620329179
40
0.869977844057766
40
0.869977844057766
40
0.889750067786352
40
0.889750067786352
40
0.909522291514938
40
0.909522291514938
40
0.929294515243525
40
0.929294515243525
40
0.949066738972111
40
0.949066738972111
40
0.968838962700697
40
0.968838962700697
40
0.988611186429284
40
0.988611186429284
40
1
40
1
40
1
40
1
41
1
10
58.9058075144664
20
-8.77919283550824
30
0
41
1
10
58.46278138544
20
-8.64695014195402
30
0
41
1
10
58.0215869647347
20
-8.49958554439181
30
0
41
1
10
57.1411565851115
20
-8.17624895686379
30
0
41
1
10
56.7019318806161
20
-8.00025498516538
30
0
41
1
10
55.8239131893747
20
-7.62055450740229
30
0
41
1
10
55.3850783726198
20
-7.41701453538272
30
0
41
1
10
54.5061016919345
20
-6.9838851425186
30
0
41
1
10
54.0659919889203
20
-6.75409953751958
30
0
41
1
10
53.403551905313
20
-6.39094669894479
30
0
41
1
10
53.1823588984757
20
-6.2668277333149
30
0
41
1
10
52.8498453833561
20
-6.07610457345024
30
0
41
1
10
52.6834074880057
20
-5.97960668128738
30
0
41
1
10
52.5166674911159
20
-5.88141420937154
30
0
41
1
10
52.4054367393131
20
-5.81557868846067
30
0
41
1
10
52.3497623792944
20
-5.78245982591642
30
0
41
1
10
51.849086998589
20
-5.48315665841355
30
0
41
1
10
51.4063128776944
20
-5.20811646105008
30
0
41
1
10
50.5236696588265
20
-4.64209560232015
30
0
41
1
10
50.0838612775758
20
-4.35095036787618
30
0
41
1
10
49.2052105348334
20
-3.75551848507831
30
0
41
1
10
48.7663854379046
20
-3.45121256739046
30
0
41
1
10
47.8882464461731
20
-2.83112550777412
30
0
41
1
10
47.4489337756325
20
-2.51534811272694
30
0
41
1
10
46.7884120240228
20
-2.03431751636282
30
0
41
1
10
46.567983846566
20
-1.87271770521494
30
0
41
1
10
46.1263315627081
20
-1.54754999634611
30
0
41
1
10
45.9051079089779
20
-1.38398874398203
30
0
41
1
10
45.572530669679
20
-1.13732973603851
30
0
41
1
10
45.4060568243863
20
-1.01366926630692
30
0
41
1
10
45.2392770857694
20
-0.889534320125875
30
0
41
1
10
45.1280192947596
20
-0.806674828254728
30
0
41
1
10
45.0723469286621
20
-0.765187785880045
30
0
41
1
10
44.7942869441061
20
-0.557866470402075
30
0
41
1
10
44.5724311277993
20
-0.392086114027052
30
0
41
1
10
44.1296222836329
20
-0.0610139748871177
30
0
41
1
10
43.9086619707617
20
0.104272879674198
30
0
41
1
10
43.4674173211523
20
0.434074760884897
30
0
41
1
10
43.2471435306292
20
0.598597976142685
30
0
41
1
10
42.8071544267451
20
0.926652916815442
30
0
41
1
10
42.5874362742937
20
1.09017982936683
30
0
41
1
10
42.1481848480585
20
1.41586832355082
30
0
41
1
10
41.9286720879203
20
1.57804405663705
30
0
41
1
10
41.4897240114017
20
1.90082001077647
30
0
41
1
10
41.2702882782248
20
2.06142008144616
30
0
41
1
10
40.8313230515345
20
2.38077344457278
30
0
41
1
10
40.6117810453297
20
2.53951976989586
30
0
41
1
10
39.9525502891772
20
3.01253683718369
30
0
41
1
10
39.5123418824682
20
3.32362852623675
30
0
41
1
10
38.8498251536718
20
3.78211745422996
30
0
41
1
10
38.6286003680878
20
3.93358650782196
30
0
41
1
10
38.2960009126476
20
4.1585524127309
30
0
41
1
10
38.1850097223594
20
4.23316690050908
30
0
41
1
10
38.0183177060087
20
4.34449664585361
30
0
41
1
10
37.9627194359089
20
4.38150791587253
30
0
41
1
10
37.8514509864619
20
4.45532799630672
30
0
41
1
10
37.7957936082969
20
4.4921281838557
30
0
41
1
10
37.5178036253955
20
4.67529174546885
30
0
41
1
10
37.2959974839141
20
4.81938345813006
30
0
41
1
10
36.8533355984209
20
5.10247657781716
30
0
41
1
10
36.6324373509951
20
5.24152223678726
30
0
41
1
10
36.1912709273294
20
5.51447644939924
30
0
41
1
10
35.9710268810212
20
5.64835707744786
30
0
41
1
10
35.5310466369195
20
5.91067314894153
30
0
41
1
10
35.3113174367338
20
6.03909523722376
30
0
41
1
10
34.6525526587036
20
6.41590250614118
30
0
41
1
10
34.2138127211723
20
6.65609844519673
30
0
41
1
10
33.3358562988353
20
7.11232083036123
30
0
41
1
10
32.8966112495611
20
7.32837023548532
30
0
41
1
10
32.0158315712566
20
7.73489086852197
30
0
41
1
10
31.5743090866365
20
7.9253623263771
30
0
41
1
10
31.0199372478233
20
8.14612974110563
30
0
41
1
10
30.9089389432484
20
8.18941650631467
30
0
41
1
10
30.6866649219938
20
8.27423451327425
30
0
41
1
10
30.5753031279783
20
8.31579710470422
30
0
41
1
10
30.2417933038909
20
8.43744603802546
30
0
41
1
10
30.0200070015525
20
8.51457306913315
30
0
41
1
10
29.5773386459478
20
8.66080867096861
30
0
41
1
10
29.3564512591626
20
8.72993086422673
30
0
41
1
10
28.9153669512148
20
8.86010962170039
30
0
41
1
10
28.6951669199089
20
8.92117201724651
30
0
41
1
10
28.2551982755526
20
9.03534074016963
30
0
41
1
10
28.0354553813947
20
9.08836952091579
30
0
41
1
10
27.596262192993
20
9.18617384125275
30
0
41
1
10
27.3767989592296
20
9.23099083069198
30
0
41
1
10
26.9378917327256
20
9.31256816359982
30
0
41
1
10
26.7184519518867
20
9.34931935088011
30
0
41
1
10
26.2794359400979
20
9.41450125773784
30
0
41
1
10
26.0598600321162
20
9.44292522696861
30
0
41
1
10
25.7135278375408
20
9.48111957569256
30
0
41
1
10
25.5868895490967
20
9.49369256162322
30
0
41
1
10
25.460168523938
20
9.50489181229685
30
0
0
SPLINE
5
ED
100
AcDbEntity
8
1
62
256
6
ByLayer
370
18
48
1
60
0
100
AcDbSpline
70
4
71
3
72
18
73
14
40
0
40
0
40
0
40
0
40
0.25
40
0.25
40
0.5
40
0.5
40
0.625
40
0.625
40
0.75
40
0.75
40
0.875
40
0.875
40
1
40
1
40
1
40
1
41
1
10
58.3965700803381
20
-5.12749592692123
30
0
41
1
10
58.4454642927634
20
-5.42573395071059
30
0
41
1
10
58.4933884480065
20
-5.72542486969581
30
0
41
1
10
58.5857073704327
20
-6.3280206519922
30
0
41
1
10
58.6302023451146
20
-6.63092723997477
30
0
41
1
10
58.6944980006953
20
-7.08765191716
30
0
41
1
10
58.7155171502385
20
-7.24029237793823
30
0
41
1
10
58.7566532918154
20
-7.54644521879374
30
0
41
1
10
58.7767469218473
20
-7.69977916170927
30
0
41
1
10
58.8158159103327
20
-8.00702793591404
30
0
41
1
10
58.8347982455984
20
-8.16094296193631
30
0
41
1
10
58.8714236964058
20
-8.46947793663946
30
0
41
1
10
58.8890731572903
20
-8.62409454533383
30
0
41
1
10
58.9058075144668
20
-8.77919283550827
30
0
0
SPLINE
5
EE
100
AcDbEntity
8
1
62
256
6
ByLayer
370
18
48
1
60
0
100
AcDbSpline
70
4
71
3
72
17
73
13
40
0
40
0
40
0
40
0
40
0.50000000000003
40
0.50000000000003
40
0.562500000000031
40
0.593750000000028
40
0.593750000000028
40
0.625000000000026
40
0.625000000000026
40
0.750000000000017
40
0.750000000000017
40
1
40
1
40
1
40
1
41
1
10
54.0696019479116
20
-0.947264874911156
30
0
41
1
10
54.7258998517873
20
-1.74253611706462
30
0
41
1
10
55.4184646197077
20
-2.49081611952982
30
0
41
1
10
56.2377745963013
20
-3.28057658426278
30
0
41
1
10
56.3751636616187
20
-3.41111829980366
30
0
41
1
10
56.5138086763557
20
-3.54003267254146
30
0
41
1
10
56.606517798148
20
-3.62561394029205
30
0
41
1
10
56.6530326255409
20
-3.66824257182162
30
0
41
1
10
56.8860698622279
20
-3.88026817515129
30
0
41
1
10
57.0732372797455
20
-4.04564225890556
30
0
41
1
10
57.6368534933741
20
-4.52959479865655
30
0
41
1
10
58.0154123266776
20
-4.83602613226523
30
0
41
1
10
58.3965700803379
20
-5.12749592692072
30
0
0
SPLINE
5
EF
100
AcDbEntity
8
1
62
256
6
ByLayer
370
18
48
1
60
0
100
AcDbSpline
70
4
71
3
72
22
73
18
40
0
40
0
40
0
40
0
40
0.250000000000008
40
0.250000000000008
40
0.375000000000011
40
0.375000000000011
40
0.437500000000013
40
0.437500000000013
40
0.500000000000016
40
0.500000000000016
40
0.750000000000007
40
0.750000000000007
40
0.812500000000005
40
0.812500000000005
40
0.875000000000003
40
0.875000000000003
40
1
40
1
40
1
40
1
41
1
10
54.0696019479116
20
-0.947264874911156
30
0
41
1
10
54.0278391095614
20
-0.896658611910055
30
0
41
1
10
53.9903347384077
20
-0.843438306318234
30
0
41
1
10
53.9416411594225
20
-0.758973237614811
30
0
41
1
10
53.9266765457781
20
-0.730042100026282
30
0
41
1
10
53.906354991008
20
-0.685344485854245
30
0
41
1
10
53.8999190575432
20
-0.670183617152702
30
0
41
1
10
53.8878919487949
20
-0.63962606986513
30
0
41
1
10
53.8823104771476
20
-0.624261597811255
30
0
41
1
10
53.8565916418381
20
-0.547005121014422
30
0
41
1
10
53.8429738078329
20
-0.483819920170475
30
0
41
1
10
53.8355154310041
20
-0.402940374021739
30
0
41
1
10
53.8345050474165
20
-0.386668946984059
30
0
41
1
10
53.8334827934223
20
-0.353927899448053
30
0
41
1
10
53.8334736446523
20
-0.337411392553918
30
0
41
1
10
53.8349869524321
20
-0.288025483331893
30
0
41
1
10
53.8380322657737
20
-0.25526613757603
30
0
41
1
10
53.8431119236008
20
-0.222670791198993
30
0
0
SPLINE
5
F0
100
AcDbEntity
8
1
62
256
6
ByLayer
370
18
48
1
60
0
100
AcDbSpline
70
4
71
5
72
15
73
9
40
0
40
0
40
0
40
0
40
0
40
0
40
0.185834412023142
40
0.494553610878306
40
0.700366410115081
40
1
40
1
40
1
40
1
40
1
40
1
41
1
10
50.4511952464736
20
1.31352146196031
30
0
41
1
10
50.5772622147387
20
1.2574765357995
30
0
41
1
10
50.912759142833
20
1.10790254526117
30
0
41
1
10
51.3878760441468
20
0.89459808546502
30
0
41
1
10
52.0662593795723
20
0.587651074324668
30
0
41
1
10
52.7446427149977
20
0.278555450086287
30
0
41
1
10
53.2969590821581
20
0.0264518318272451
30
0
41
1
10
53.6398454894893
20
-0.129996738286536
30
0
41
1
10
53.8431119236009
20
-0.222670791198993
30
0
0
SPLINE
5
F1
100
AcDbEntity
8
1
62
256
6
ByLayer
370
18
48
1
60
0
100
AcDbSpline
70
4
71
5
72
46
73
40
40
0
40
0
40
0
40
0
40
0
40
0
40
0.0679952825039132
40
0.0901793130151872
40
0.123455358782098
40
0.156731404549009
40
0.178915435060283
40
0.201099465571557
40
0.234375511338468
40
0.267651557105379
40
0.289835587616653
40
0.323111633383564
40
0.345295663894838
40
0.378571709661749
40
0.400755740173023
40
0.434031785939934
40
0.467307831706845
40
0.489491862218119
40
0.52276790798503
40
0.544951938496304
40
0.578227984263215
40
0.600412014774489
40
0.6336880605414
40
0.666964106308311
40
0.689148136819585
40
0.711332167330859
40
0.74460821309777
40
0.777884258864681
40
0.800068289375955
40
0.833344335142866
40
0.866620380909777
40
0.888804411421051
40
0.910988441932325
40
0.944264487699236
40
0.977540533466146
40
0.99972456397742
40
1
40
1
40
1
40
1
40
1
40
1
41
1
10
15.0839718180153
20
5.69732965821774
30
0
41
1
10
15.5119147708265
20
5.6544630113265
30
0
41
1
10
16.0794776968571
20
5.58705229101682
30
0
41
1
10
16.8564705827171
20
5.47583696520093
30
0
41
1
10
17.8428934284062
20
5.3025048764579
30
0
41
1
10
18.968936247315
20
5.06008434960827
30
0
41
1
10
19.8066560866319
20
4.85715993997624
30
0
41
1
10
20.7141859125586
20
4.61396972172656
30
0
41
1
10
21.6217157384854
20
4.34848848544644
30
0
41
1
10
22.4594355778023
20
4.08390648794827
30
0
41
1
10
23.3669654037291
20
3.77753725599104
30
0
41
1
10
24.2744952296558
20
3.45113611431975
30
0
41
1
10
25.1820250555825
20
3.10814132827321
30
0
41
1
10
26.0197448948995
20
2.77758698620008
30
0
41
1
10
26.9272747208262
20
2.40615493990731
30
0
41
1
10
27.8348045467529
20
2.02300263656588
30
0
41
1
10
28.7423343726796
20
1.62904625069629
30
0
41
1
10
29.6498641986063
20
1.22721619926961
30
0
41
1
10
30.5573940245331
20
0.818919673677897
30
0
41
1
10
31.4649238504598
20
0.406767476644518
30
0
41
1
10
32.3026436897768
20
0.0244105773254546
30
0
41
1
10
33.2101735157035
20
-0.389824883119417
30
0
41
1
10
34.1177033416302
20
-0.802278898592903
30
0
41
1
10
35.025233167557
20
-1.21052542987576
30
0
41
1
10
35.8629530068739
20
-1.58196761652385
30
0
41
1
10
36.7704828328006
20
-1.97652143808543
30
0
41
1
10
37.6780126587273
20
-2.36152628645573
30
0
41
1
10
38.5157324980443
20
-2.70655574071998
30
0
41
1
10
39.4232623239711
20
-3.06725606046467
30
0
41
1
10
40.4006021365075
20
-3.43809627776074
30
0
41
1
10
41.3081319624343
20
-3.76422248598661
30
0
41
1
10
42.1458518017512
20
-4.04846796433611
30
0
41
1
10
43.0533816276779
20
-4.33669011017111
30
0
41
1
10
43.9609114536046
20
-4.60396083247699
30
0
41
1
10
44.7986312929217
20
-4.83025407575946
30
0
41
1
10
45.4984646749407
20
-5.00129695499129
30
0
41
1
10
46.0586780837403
20
-5.12611237103565
30
0
41
1
10
46.4094615327107
20
-5.19940347205571
30
0
41
1
10
46.5508150218517
20
-5.22814020589999
30
0
41
1
10
46.5525485377733
20
-5.22849250452316
30
0
0
SPLINE
5
F2
100
AcDbEntity
8
1
62
256
6
ByLayer
370
18
48
1
60
0
100
AcDbSpline
70
4
71
3
72
104
73
100
40
0
40
0
40
0
40
0
40
0.0008646405468361
40
0.0008646405468361
40
0.0392929236027294
40
0.0392929236027294
40
0.0777212066586227
40
0.0777212066586227
40
0.116149489714516
40
0.116149489714516
40
0.135363631242463
40
0.135363631242463
40
0.154577772770409
40
0.154577772770409
40
0.164184843534383
40
0.168988378916369
40
0.168988378916369
40
0.173791914298356
40
0.173791914298356
40
0.193006055826302
40
0.193006055826302
40
0.212220197354248
40
0.212220197354248
40
0.231434338882193
40
0.231434338882193
40
0.250648480410139
40
0.250648480410139
40
0.269862621938085
40
0.269862621938085
40
0.289076763466031
40
0.289076763466031
40
0.308290904993977
40
0.308290904993977
40
0.346719188049868
40
0.346719188049868
40
0.365933329577813
40
0.365933329577813
40
0.375540400341785
40
0.375540400341785
40
0.380343935723772
40
0.380343935723772
40
0.385147471105758
40
0.385147471105758
40
0.404361612633703
40
0.404361612633703
40
0.423575754161647
40
0.423575754161647
40
0.442789895689592
40
0.442789895689592
40
0.462004037217537
40
0.462004037217537
40
0.500432320273427
40
0.500432320273427
40
0.538860603329318
40
0.538860603329318
40
0.577288886385208
40
0.577288886385208
40
0.586895957149181
40
0.586895957149181
40
0.596503027913153
40
0.596503027913153
40
0.615717169441099
40
0.615717169441099
40
0.634931310969044
40
0.634931310969044
40
0.65414545249699
40
0.65414545249699
40
0.673359594024935
40
0.673359594024935
40
0.692573735552881
40
0.692573735552881
40
0.711787877080826
40
0.711787877080826
40
0.731002018608772
40
0.731002018608772
40
0.750216160136717
40
0.750216160136717
40
0.769430301664663
40
0.769430301664663
40
0.788644443192608
40
0.798251513956581
40
0.798251513956581
40
0.807858584720553
40
0.807858584720553
40
0.827072726248498
40
0.827072726248498
40
0.846286867776442
40
0.846286867776442
40
0.884715150832332
40
0.884715150832332
40
0.903929292360277
40
0.903929292360277
40
0.923143433888222
40
0.923143433888222
40
0.942357575416166
40
0.942357575416166
40
0.961571716944111
40
0.961571716944111
40
1
40
1
40
1
40
1
41
1
10
50.9947828361865
20
-7.83202237743018
30
0
41
1
10
50.9848515719906
20
-7.83629321405965
30
0
41
1
10
50.974921052455
20
-7.84055662445877
30
0
41
1
10
50.5236696588266
20
-8.03396628783344
30
0
41
1
10
50.0838612775757
20
-8.20825256361172
30
0
41
1
10
49.2052105348335
20
-8.52722939899752
30
0
41
1
10
48.7663854379046
20
-8.67193635251422
30
0
41
1
10
47.8882464461732
20
-8.93048043547347
30
0
41
1
10
47.4489337756325
20
-9.04433166116536
30
0
41
1
10
46.7884120240228
20
-9.19062246689651
30
0
41
1
10
46.567983846566
20
-9.23524915282286
30
0
41
1
10
46.1263315627081
20
-9.31652158306539
30
0
41
1
10
45.9051079089779
20
-9.35318584411706
30
0
41
1
10
45.572530669679
20
-9.40205221086165
30
0
41
1
10
45.4060568243863
20
-9.4249494374472
30
0
41
1
10
45.2392770857695
20
-9.44549246291368
30
0
41
1
10
45.1280192947596
20
-9.45865864449695
30
0
41
1
10
45.0723469286622
20
-9.4649777539382
30
0
41
1
10
44.7942869441061
20
-9.49518468592558
30
0
41
1
10
44.5724311277993
20
-9.51493192609851
30
0
41
1
10
44.1296222836329
20
-9.54583314624568
30
0
41
1
10
43.9086619707618
20
-9.55701213598678
30
0
41
1
10
43.4674173211523
20
-9.57090671606753
30
0
41
1
10
43.2471435306293
20
-9.57359136958988
30
0
41
1
10
42.8071544267452
20
-9.57020010185002
30
0
41
1
10
42.5874362742937
20
-9.56411947268211
30
0
41
1
10
42.1481848480585
20
-9.54387496334877
30
0
41
1
10
41.9286720879203
20
-9.52964202966194
30
0
41
1
10
41.4897240114018
20
-9.49277454250836
30
0
41
1
10
41.2702882782248
20
-9.47014207748555
30
0
41
1
10
40.8313230515346
20
-9.41628639198797
30
0
41
1
10
40.6117810453297
20
-9.38511361227629
30
0
41
1
10
39.9525502891773
20
-9.27961379098588
30
0
41
1
10
39.5123418824683
20
-9.19293971444529
30
0
41
1
10
38.8498251536718
20
-9.03722304028477
30
0
41
1
10
38.6286003680879
20
-8.98114700049885
30
0
41
1
10
38.2960009126477
20
-8.89104381393426
30
0
41
1
10
38.1850097223594
20
-8.85998927537048
30
0
41
1
10
38.0183177060087
20
-8.81184732686472
30
0
41
1
10
37.962719435909
20
-8.79554048906726
30
0
41
1
10
37.8514509864619
20
-8.76240496575039
30
0
41
1
10
37.7957936082969
20
-8.74557983951422
30
0
41
1
10
37.5178036253956
20
-8.66029473354644
30
0
41
1
10
37.2959974839142
20
-8.58822718097741
30
0
41
1
10
36.853335598421
20
-8.43660999276287
30
0
41
1
10
36.6324373509951
20
-8.35719214534012
30
0
41
1
10
36.1912709273294
20
-8.19144699565834
30
0
41
1
10
35.9710268810213
20
-8.10504177499132
30
0
41
1
10
35.5310466369195
20
-7.92521940152142
30
0
41
1
10
35.3113174367338
20
-7.83177383890336
30
0
41
1
10
34.6525526587036
20
-7.54125787113995
30
0
41
1
10
34.2138127211724
20
-7.33455442292649
30
0
41
1
10
33.3358562988353
20
-6.8953465126292
30
0
41
1
10
32.8966112495611
20
-6.66292312011362
30
0
41
1
10
32.0158315712566
20
-6.17425140201118
30
0
41
1
10
31.5743090866366
20
-5.91797965862534
30
0
41
1
10
31.0199372478234
20
-5.58329515950811
30
0
41
1
10
30.9089389432485
20
-5.51564130532475
30
0
41
1
10
30.6866649219939
20
-5.37893283727604
30
0
41
1
10
30.5753031279783
20
-5.30982508880541
30
0
41
1
10
30.2417933038909
20
-5.10110017145544
30
0
41
1
10
30.0200070015525
20
-4.95994147050837
30
0
41
1
10
29.5773386459478
20
-4.67386577217718
30
0
41
1
10
29.3564512591626
20
-4.5289604422241
30
0
41
1
10
28.9153669512149
20
-4.23567417496398
30
0
41
1
10
28.6951669199089
20
-4.08729938259992
30
0
41
1
10
28.2551982755526
20
-3.78746871963293
30
0
41
1
10
28.0354553813947
20
-3.63595288984894
30
0
41
1
10
27.5962621929931
20
-3.32994059759216
30
0
41
1
10
27.3767989592296
20
-3.17547506071952
30
0
41
1
10
26.9378917327257
20
-2.86400493213353
30
0
41
1
10
26.7184519518867
20
-2.7069916260196
30
0
41
1
10
26.2794359400979
20
-2.39056027637105
30
0
41
1
10
26.0598600321162
20
-2.23113967860263
30
0
41
1
10
25.6203523501489
20
-1.91018104700476
30
0
41
1
10
25.4004178610211
20
-1.74865001249552
30
0
41
1
10
24.959948952977
20
-1.42385773781851
30
0
41
1
10
24.7394244205036
20
-1.26056703856133
30
0
41
1
10
24.2976118195629
20
-0.932344192295744
30
0
41
1
10
23.9656706838246
20
-0.684975989162382
30
0
41
1
10
23.6325970183215
20
-0.436157681137047
30
0
41
1
10
23.4102679864318
20
-0.269992792318675
30
0
41
1
10
23.2989022371546
20
-0.186721541166492
30
0
41
1
10
22.9654637904656
20
0.0626287430787045
30
0
41
1
10
22.743713750028
20
0.228486611079148
30
0
41
1
10
22.3011280677849
20
0.559201512260955
30
0
41
1
10
22.0803165193689
20
0.724069679124085
30
0
41
1
10
21.4188064777202
20
1.21669054872677
30
0
41
1
10
20.9790259949239
20
1.54247571523956
30
0
41
1
10
20.3202514153566
20
2.02572103133025
30
0
41
1
10
20.1008234488422
20
2.18589482791535
30
0
41
1
10
19.6619476137328
20
2.5041241126452
30
0
41
1
10
19.442508550944
20
2.66218512782004
30
0
41
1
10
19.0034692417048
20
2.97594353151399
30
0
41
1
10
18.7838688929822
20
3.13164127018248
30
0
41
1
10
18.3443344626435
20
3.44038327478469
30
0
41
1
10
18.1244013901067
20
3.59342204956653
30
0
41
1
10
17.4636687780219
20
4.04816626899921
30
0
41
1
10
17.0219873023327
20
4.34551853203675
30
0
41
1
10
16.5783215925021
20
4.63580560064284
30
0
0
SPLINE
5
F3
100
AcDbEntity
8
1
62
256
6
ByLayer
370
18
48
1
60
0
100
AcDbSpline
70
4
71
5
72
21
73
15
40
0
40
0
40
0
40
0
40
0
40
0
40
0.0575844847149301
40
0.151133645629164
40
0.244436122615647
40
0.302200535016655
40
0.337226322433435
40
0.461473651218543
40
0.616694164856828
40
0.896292859945021
40
0.989677849733204
40
1
40
1
40
1
40
1
40
1
40
1
41
1
10
59.5470365844418
20
-0.0481603879160559
30
0
41
1
10
59.5470816105734
20
-0.0475992321512422
30
0
41
1
10
59.5463754170548
20
-0.0459736616959958
30
0
41
1
10
59.5417366805475
20
-0.0426999145055618
30
0
41
1
10
59.5290880811329
20
-0.0373959863818243
30
0
41
1
10
59.5055770579284
20
-0.0298092060063482
30
0
41
1
10
59.4673896046962
20
-0.0189869965767855
30
0
41
1
10
59.4109926386052
20
-0.0044139468213586
30
0
41
1
10
59.3123012737775
20
0.0192451089494057
30
0
41
1
10
59.178054553911
20
0.0489469992304521
30
0
41
1
10
59.0238312197168
20
0.0810270379995472
30
0
41
1
10
58.8874129738626
20
0.108269268658375
30
0
41
1
10
58.7868721823727
20
0.127828046464771
30
0
41
1
10
58.7594617163698
20
0.133123769805479
30
0
41
1
10
58.7567314864869
20
0.133650892633739
30
0
0
SPLINE
5
F4
100
AcDbEntity
8
1
62
256
6
ByLayer
370
18
48
1
60
0
100
AcDbSpline
70
4
71
3
72
8
73
4
40
0
40
0
40
0
40
0
40
1
40
1
40
1
40
1
41
1
10
58.4652445263408
20
0.188451362935012
30
0
41
1
10
58.5624099662487
20
0.17018543674169
30
0
41
1
10
58.6595722620128
20
0.151918606324415
30
0
41
1
10
58.7567314864869
20
0.133650892633796
30
0
0
SPLINE
5
F5
100
AcDbEntity
8
1
62
256
6
ByLayer
370
18
48
1
60
0
100
AcDbSpline
70
4
71
3
72
58
73
54
40
0
40
0
40
0
40
0
40
0.0625000000000021
40
0.0625000000000021
40
0.0937500000000032
40
0.0937500000000032
40
0.109375000000004
40
0.109375000000004
40
0.125000000000005
40
0.125000000000005
40
0.187500000000012
40
0.187500000000012
40
0.250000000000019
40
0.250000000000019
40
0.257812500000021
40
0.257812500000021
40
0.265625000000023
40
0.281250000000026
40
0.312500000000034
40
0.312500000000034
40
0.328125000000038
40
0.33593750000004
40
0.33593750000004
40
0.343750000000042
40
0.343750000000042
40
0.375000000000038
40
0.406250000000034
40
0.406250000000034
40
0.421875000000034
40
0.421875000000034
40
0.437500000000033
40
0.437500000000033
40
0.500000000000034
40
0.500000000000034
40
0.562500000000035
40
0.562500000000035
40
0.578125000000036
40
0.578125000000036
40
0.593750000000038
40
0.593750000000038
40
0.625000000000035
40
0.625000000000035
40
0.687500000000029
40
0.687500000000029
40
0.750000000000023
40
0.750000000000023
40
0.812500000000017
40
0.812500000000017
40
0.875000000000012
40
0.875000000000012
40
0.937500000000006
40
0.937500000000006
40
1
40
1
40
1
40
1
41
1
10
58.4652086882085
20
0.188453136652413
30
0
41
1
10
58.5167596137333
20
0.174698149600033
30
0
41
1
10
58.5650995835633
20
0.16149514902645
30
0
41
1
10
58.629874749917
20
0.143020314164119
30
0
41
1
10
58.6501688645037
20
0.137085103984788
30
0
41
1
10
58.6781948405961
20
0.128597478318284
30
0
41
1
10
58.6871334270666
20
0.125837618092646
30
0
41
1
10
58.7041133604471
20
0.120472139603209
30
0
41
1
10
58.712163329695
20
0.117863629993906
30
0
41
1
10
58.7498188517152
20
0.105283476217266
30
0
41
1
10
58.7714648964206
20
0.0967674547617889
30
0
41
1
10
58.7918939667376
20
0.0839100661190173
30
0
41
1
10
58.7907213566882
20
0.0795605982615655
30
0
41
1
10
58.7719656488759
20
0.0778512543023737
30
0
41
1
10
58.7696361109067
20
0.0777060068904802
30
0
41
1
10
58.7645169925628
20
0.0775085648533889
30
0
41
1
10
58.7561371268763
20
0.0773506343108181
30
0
41
1
10
58.7316709063338
20
0.077950720018606
30
0
41
1
10
58.7022763088131
20
0.0801257014359749
30
0
41
1
10
58.6673203785258
20
0.0833970461908962
30
0
41
1
10
58.6484529874479
20
0.0853066305458015
30
0
41
1
10
58.6275188669803
20
0.0876236507488102
30
0
41
1
10
58.6131058577796
20
0.089258410025792
30
0
41
1
10
58.6056604801769
20
0.0901221011456244
30
0
41
1
10
58.5675237013701
20
0.094637380185759
30
0
41
1
10
58.5004633195088
20
0.103143503733634
30
0
41
1
10
58.4228211075662
20
0.113894501699008
30
0
41
1
10
58.3610942939562
20
0.122699227141396
30
0
41
1
10
58.3399379390334
20
0.125757338478905
30
0
41
1
10
58.2965096566279
20
0.132110223457744
30
0
41
1
10
58.2742426736341
20
0.135404603602296
30
0
41
1
10
58.1611876395621
20
0.152301788734775
30
0
41
1
10
58.0645227321652
20
0.167281341595185
30
0
41
1
10
57.8617545269737
20
0.199458314184938
30
0
41
1
10
57.7556446661167
20
0.216657276126256
30
0
41
1
10
57.6184581893291
20
0.239224954324357
30
0
41
1
10
57.5907667858418
20
0.243796475172843
30
0
41
1
10
57.5350682578274
20
0.253021679089613
30
0
41
1
10
57.5071069976723
20
0.257667733066256
30
0
41
1
10
57.4229137846963
20
0.27169831908563
30
0
41
1
10
57.3663734850882
20
0.281174950923173
30
0
41
1
10
57.1956984075765
20
0.309919718024446
30
0
41
1
10
57.0805177595731
20
0.329500243190125
30
0
41
1
10
56.8480442994145
20
0.369292173733413
30
0
41
1
10
56.7307473067964
20
0.389504827770281
30
0
41
1
10
56.4944893116848
20
0.430427157301949
30
0
41
1
10
56.3755261729022
20
0.451137470882827
30
0
41
1
10
56.1362538137474
20
0.492960157818373
30
0
41
1
10
56.0159433992806
20
0.514072887835994
30
0
41
1
10
55.7742106555544
20
0.556630464596907
30
0
41
1
10
55.6527873639954
20
0.578075598766986
30
0
41
1
10
55.4090135911134
20
0.621242808500398
30
0
41
1
10
55.2866083907868
20
0.642974686493602
30
0
41
1
10
55.1639300838072
20
0.664802770498227
30
0
0
SPLINE
5
F6
100
AcDbEntity
8
1
62
256
6
ByLayer
370
18
48
1
60
0
100
AcDbSpline
70
4
71
3
72
48
73
44
40
0
40
0
40
0
40
0
40
0.046243844550237
40
0.046243844550237
40
0.092487689100474
40
0.092487689100474
40
0.138731533650711
40
0.138731533650711
40
0.184975378200948
40
0.184975378200948
40
0.231219222751185
40
0.231219222751185
40
0.277463067301422
40
0.277463067301422
40
0.323706911851659
40
0.369950756401896
40
0.416194600952133
40
0.416194600952133
40
0.46243844550237
40
0.46243844550237
40
0.508682290052607
40
0.508682290052607
40
0.554926134602844
40
0.554926134602844
40
0.601169979153081
40
0.601169979153081
40
0.647413823703318
40
0.647413823703318
40
0.693657668253555
40
0.693657668253555
40
0.739901512803792
40
0.739901512803792
40
0.786145357354029
40
0.786145357354029
40
0.832389201904266
40
0.832389201904266
40
0.878633046454503
40
0.878633046454503
40
0.92487689100474
40
0.92487689100474
40
0.971120735554977
40
0.971120735554977
40
1
40
1
40
1
40
1
41
1
10
58.4652208644777
20
0.188443625198687
30
0
41
1
10
58.0395414502128
20
0.520961743486197
30
0
41
1
10
57.613862035948
20
0.853166428726837
30
0
41
1
10
56.7625032074182
20
1.51364687169979
30
0
41
1
10
56.3368237931534
20
1.84192153935263
30
0
41
1
10
55.4854649646236
20
2.49127676844853
30
0
41
1
10
55.0597855503588
20
2.81235625817735
30
0
41
1
10
54.208426721829
20
3.44412750805856
30
0
41
1
10
53.7827473075642
20
3.75481822547272
30
0
41
1
10
52.9313884790345
20
4.36272162753809
30
0
41
1
10
52.5057090647696
20
4.65993330984119
30
0
41
1
10
51.6543502362398
20
5.23792239427189
30
0
41
1
10
51.228670821975
20
5.51869884396635
30
0
41
1
10
50.3773119934452
20
6.06102468267599
30
0
41
1
10
49.5259531649155
20
6.58412166633497
30
0
41
1
10
48.248914922121
20
7.30327968005133
30
0
41
1
10
47.3975560935912
20
7.73429098755108
30
0
41
1
10
46.5461972650615
20
8.13894491831931
30
0
41
1
10
46.1205178507965
20
8.32809290400766
30
0
41
1
10
45.2691590222668
20
8.67815080552063
30
0
41
1
10
44.8434796080019
20
8.83906014711218
30
0
41
1
10
43.9921207794721
20
9.13104018973263
30
0
41
1
10
43.5664413652072
20
9.26211040750246
30
0
41
1
10
42.7150825366776
20
9.49310842422003
30
0
41
1
10
42.2894031224126
20
9.59303583782273
30
0
41
1
10
41.4380442938828
20
9.76075421156031
30
0
41
1
10
41.012364879618
20
9.82854489542652
30
0
41
1
10
40.1610060510882
20
9.93131542178654
30
0
41
1
10
39.7353266368233
20
9.96629509485405
30
0
41
1
10
38.8839678082936
20
10.0030955640643
30
0
41
1
10
38.4582883940287
20
10.0049162989188
30
0
41
1
10
37.6069295654989
20
9.9753806685234
30
0
41
1
10
37.181250151234
20
9.94402435036662
30
0
41
1
10
36.3298913227042
20
9.84844638518328
30
0
41
1
10
35.9042119084393
20
9.78422489288172
30
0
41
1
10
35.0528530799096
20
9.62355524021245
30
0
41
1
10
34.6271736656446
20
9.5271073444334
30
0
41
1
10
33.7758148371148
20
9.30294408550066
30
0
41
1
10
33.3501354228499
20
9.17522909195452
30
0
41
1
10
32.4987765943201
20
8.88980184000692
30
0
41
1
10
32.0730971800552
20
8.73209005207468
30
0
41
1
10
31.3815811232507
20
8.45279610495061
30
0
41
1
10
31.115744480711
20
8.33988492192509
30
0
41
1
10
30.8499078381714
20
8.22165567924026
30
0
0
SPLINE
5
F7
100
AcDbEntity
8
1
62
256
6
ByLayer
370
18
48
1
60
0
100
AcDbSpline
70
4
71
3
72
40
73
36
40
0
40
0
40
0
40
0
40
0.0387333921072464
40
0.0387333921072464
40
0.0952784866891731
40
0.0952784866891731
40
0.1518235812711
40
0.1518235812711
40
0.208368675853027
40
0.208368675853027
40
0.264913770434953
40
0.264913770434953
40
0.32145886501688
40
0.32145886501688
40
0.378003959598807
40
0.378003959598807
40
0.434549054180733
40
0.434549054180733
40
0.49109414876266
40
0.547639243344587
40
0.604184337926513
40
0.604184337926513
40
0.66072943250844
40
0.66072943250844
40
0.717274527090367
40
0.717274527090367
40
0.773819621672293
40
0.773819621672293
40
0.83036471625422
40
0.83036471625422
40
0.886909810836147
40
0.886909810836147
40
0.943454905418073
40
0.943454905418073
40
1
40
1
40
1
40
1
41
1
10
40.1844184712376
20
-9.92360025944529
30
0
41
1
10
39.8928280550111
20
-9.95170751859754
30
0
41
1
10
39.6012376387848
20
-9.97209116800045
30
0
41
1
10
38.8839678082935
20
-10.0030955640646
30
0
41
1
10
38.4582883940286
20
-10.0049162989191
30
0
41
1
10
37.6069295654989
20
-9.97538066852366
30
0
41
1
10
37.181250151234
20
-9.94402435036687
30
0
41
1
10
36.3298913227041
20
-9.84844638518354
30
0
41
1
10
35.9042119084393
20
-9.78422489288198
30
0
41
1
10
35.0528530799096
20
-9.62355524021268
30
0
41
1
10
34.6271736656446
20
-9.52710734443363
30
0
41
1
10
33.7758148371148
20
-9.30294408550088
30
0
41
1
10
33.3501354228499
20
-9.17522909195475
30
0
41
1
10
32.4987765943201
20
-8.88980184000718
30
0
41
1
10
32.0730971800552
20
-8.73209005207491
30
0
41
1
10
31.2217383515254
20
-8.38823777952209
30
0
41
1
10
30.7960589372604
20
-8.20209786132307
30
0
41
1
10
29.9447001087307
20
-7.80324066132079
30
0
41
1
10
29.0933412802008
20
-7.37780740874013
30
0
41
1
10
27.8163030374062
20
-6.66627397174966
30
0
41
1
10
26.9649442088764
20
-6.14771426762647
30
0
41
1
10
26.1135853803466
20
-5.60963152138987
30
0
41
1
10
25.6879059660816
20
-5.33082910427535
30
0
41
1
10
24.8365471375518
20
-4.75647343307267
30
0
41
1
10
24.4108677232868
20
-4.46092112603756
30
0
41
1
10
23.559508894757
20
-3.85600531035831
30
0
41
1
10
23.1338294804921
20
-3.54664279920922
30
0
41
1
10
22.2824706519622
20
-2.91718358508265
30
0
41
1
10
21.8567912376973
20
-2.59708792029787
30
0
41
1
10
21.0054324091675
20
-1.94934617260412
30
0
41
1
10
20.5797529949026
20
-1.62170115994536
30
0
41
1
10
19.7283941663727
20
-0.96211959244431
30
0
41
1
10
19.3027147521078
20
-0.630184126815834
30
0
41
1
10
18.451355923578
20
0.0346767831629222
30
0
41
1
10
18.025676509313
20
0.36760113034174
30
0
41
1
10
17.5999970950481
20
0.699364762296341
30
0
0
SPLINE
5
F8
100
AcDbEntity
8
1
62
256
6
ByLayer
370
18
48
1
60
0
100
AcDbSpline
70
4
71
3
72
68
73
64
40
0
40
0
40
0
40
0
40
0.0312499999999999
40
0.0312499999999999
40
0.0624999999999999
40
0.0624999999999999
40
0.09375
40
0.09375
40
0.125
40
0.125
40
0.15625
40
0.15625
40
0.1875
40
0.1875
40
0.21875
40
0.25
40
0.25
40
0.28125
40
0.28125
40
0.3125
40
0.3125
40
0.34375
40
0.34375
40
0.375
40
0.375
40
0.40625
40
0.40625
40
0.4375
40
0.4375
40
0.46875
40
0.46875
40
0.5
40
0.5
40
0.53125
40
0.53125
40
0.5625
40
0.5625
40
0.59375
40
0.59375
40
0.625
40
0.625
40
0.65625
40
0.65625
40
0.6875
40
0.6875
40
0.71875
40
0.75
40
0.75
40
0.78125
40
0.78125
40
0.8125
40
0.8125
40
0.84375
40
0.84375
40
0.875
40
0.875
40
0.90625
40
0.90625
40
0.9375
40
0.9375
40
0.96875
40
0.96875
40
1
40
1
40
1
40
1
41
1
10
58.4652208644776
20
-9.96072460494221
30
0
41
1
10
58.0395414502128
20
-9.93127761795773
30
0
41
1
10
57.613862035948
20
-9.88529101053453
30
0
41
1
10
56.7625032074182
20
-9.76069564902417
30
0
41
1
10
56.3368237931533
20
-9.68208710069919
30
0
41
1
10
55.4854649646237
20
-9.49302961961703
30
0
41
1
10
55.0597855503587
20
-9.38258099969727
30
0
41
1
10
54.208426721829
20
-9.13094183592898
30
0
41
1
10
53.7827473075641
20
-8.98975170853214
30
0
41
1
10
52.9313884790345
20
-8.67803376342218
30
0
41
1
10
52.5057090647696
20
-8.50750646247573
30
0
41
1
10
51.6543502362398
20
-8.1388102061791
30
0
41
1
10
51.228670821975
20
-7.94064186224222
30
0
41
1
10
50.3773119934452
20
-7.51863449896894
30
0
41
1
10
49.5259531649154
20
-7.07095707372648
30
0
41
1
10
48.6745943363858
20
-6.57639324425239
30
0
41
1
10
47.823235507856
20
-6.06084453887087
30
0
41
1
10
47.3975560935912
20
-5.79257860055498
30
0
41
1
10
46.5461972650613
20
-5.23773006752987
30
0
41
1
10
46.1205178507966
20
-4.95114838983736
30
0
41
1
10
45.2691590222668
20
-4.36251878202779
30
0
41
1
10
44.8434796080019
20
-4.06047182542056
30
0
41
1
10
43.9921207794721
20
-3.44391590008877
30
0
41
1
10
43.5664413652072
20
-3.12940794889195
30
0
41
1
10
42.7150825366775
20
-2.49105822933251
30
0
41
1
10
42.2894031224126
20
-2.16721751337832
30
0
41
1
10
41.4380442938828
20
-1.51342329338564
30
0
41
1
10
41.012364879618
20
-1.18347086888227
30
0
41
1
10
40.1610060510882
20
-0.520735062824372
30
0
41
1
10
39.7353266368233
20
-0.187952775611848
30
0
41
1
10
38.8839678082935
20
0.477132765357823
30
0
41
1
10
38.4582883940286
20
0.809434921172624
30
0
41
1
10
37.6069295654989
20
1.47025497348446
30
0
41
1
10
37.181250151234
20
1.79877177883725
30
0
41
1
10
36.3298913227042
20
2.44875354442473
30
0
41
1
10
35.9042119084392
20
2.77021743091649
30
0
41
1
10
35.0528530799095
20
3.40289591220642
30
0
41
1
10
34.6271736656446
20
3.71410946228832
30
0
41
1
10
33.7758148371148
20
4.32319176772972
30
0
41
1
10
33.3501354228499
20
4.62105951718962
30
0
41
1
10
32.4987765943201
20
5.2004874509644
30
0
41
1
10
32.0730971800552
20
5.48204667842759
30
0
41
1
10
31.2217383515255
20
6.02605699943982
30
0
41
1
10
30.7960589372605
20
6.28850719419287
30
0
41
1
10
29.9447001087307
20
6.79168893969529
30
0
41
1
10
29.0933412802008
20
7.27315037449142
30
0
41
1
10
28.241982451671
20
7.70638478962215
30
0
41
1
10
27.3906236231413
20
8.11335066059007
30
0
41
1
10
26.9649442088764
20
8.30369903362543
30
0
41
1
10
26.1135853803465
20
8.65623461329776
30
0
41
1
10
25.6879059660816
20
8.8184212381951
30
0
41
1
10
24.8365471375517
20
9.11302004803684
30
0
41
1
10
24.4108677232869
20
9.24543174545332
30
0
41
1
10
23.559508894757
20
9.47916357216235
30
0
41
1
10
23.1338294804922
20
9.58048331261381
30
0
41
1
10
22.2824706519623
20
9.75102335088235
30
0
41
1
10
21.8567912376974
20
9.82024336465605
30
0
41
1
10
21.0054324091675
20
9.92589533798429
30
0
41
1
10
20.5797529949026
20
9.96232712745524
30
0
41
1
10
19.7283941663727
20
10.0020401714836
30
0
41
1
10
19.3027147521078
20
10.0053213621764
30
0
41
1
10
18.451355923578
20
9.97870046360487
30
0
41
1
10
18.025676509313
20
9.94879841740942
30
0
41
1
10
17.5999970950481
20
9.90245338277617
30
0
0
SPLINE
5
F9
100
AcDbEntity
8
1
62
256
6
ByLayer
370
18
48
1
60
0
100
AcDbSpline
70
4
71
3
72
36
73
32
40
0
40
0
40
0
40
0
40
0.0370813657113462
40
0.0744130014961739
40
0.111991758027187
40
0.149814343074763
40
0.187877322254882
40
0.226177119944287
40
0.318379896533321
40
0.413652147204299
40
0.511919954698597
40
0.613097460125035
40
0.631421862498454
40
0.649979112679047
40
0.668768260423225
40
0.687788316729359
40
0.70703825319087
40
0.726517001362638
40
0.746223452142458
40
0.766156455169408
40
0.786314818240947
40
0.806697306750659
40
0.827302643148416
40
0.848129506424943
40
0.869176531622672
40
0.890442309374857
40
0.911925385474727
40
0.933624260476914
40
0.955537389332897
40
0.977663181124082
40
1
40
1
40
1
40
1
41
1
10
16.5782432999035
20
-8.03109655692128
30
0
41
1
10
16.5611810119979
20
-8.05149938831755
30
0
41
1
10
16.5269412791538
20
-8.0924427541859
30
0
41
1
10
16.4749452410712
20
-8.15318858617209
30
0
41
1
10
16.4222637559609
20
-8.21368710860284
30
0
41
1
10
16.3688631036831
20
-8.27385594233095
30
0
41
1
10
16.3147532153274
20
-8.33369291316285
30
0
41
1
10
16.2343206284377
20
-8.42095708974318
30
0
41
1
10
16.125359076719
20
-8.53540260721331
30
0
41
1
10
15.9853724466392
20
-8.67583755040576
30
0
41
1
10
15.8388601379478
20
-8.81598761020607
30
0
41
1
10
15.7290314919397
20
-8.91596450429472
30
0
41
1
10
15.6588187392939
20
-8.97797907266209
30
0
41
1
10
15.6304328182604
20
-9.00281563440817
30
0
41
1
10
15.6016188414872
20
-9.02778838384063
30
0
41
1
10
15.5723767099602
20
-9.05288969449416
30
0
41
1
10
15.5427065175616
20
-9.07811183674573
30
0
41
1
10
15.5126083069259
20
-9.10344696300922
30
0
41
1
10
15.4820821361221
20
-9.12888711497232
30
0
41
1
10
15.4511280605399
20
-9.15442422519124
30
0
41
1
10
15.4197461378187
20
-9.18005012028212
30
0
41
1
10
15.3879364268564
20
-9.20575652496873
30
0
41
1
10
15.3556989870703
20
-9.23153506253811
30
0
41
1
10
15.3230338827718
20
-9.25737727059095
30
0
41
1
10
15.2899411665166
20
-9.28327455993863
30
0
41
1
10
15.2564209426285
20
-9.30921839037322
30
0
41
1
10
15.2224731267283
20
-9.33519962570188
30
0
41
1
10
15.1880983572757
20
-9.36121100021157
30
0
41
1
10
15.1532945427549
20
-9.38723779905521
30
0
41
1
10
15.1180699379726
20
-9.41329317996002
30
0
41
1
10
15.0943974897992
20
-9.430539284801
30
0
41
1
10
15.0825050889873
20
-9.43920326368951
30
0
0
SPLINE
5
FA
100
AcDbEntity
8
1
62
256
6
ByLayer
370
18
48
1
60
0
100
AcDbSpline
70
4
71
5
72
15
73
9
40
0
40
0
40
0
40
0
40
0
40
0
40
0.193789382136181
40
0.471092795297198
40
0.887047915038725
40
1
40
1
40
1
40
1
40
1
40
1
41
1
10
17.5999999081772
20
-9.9024291990518
30
0
41
1
10
17.502428558313
20
-9.89180624491155
30
0
41
1
10
17.2652372352293
20
-9.864233738942
30
0
41
1
10
16.8186159523163
20
-9.80432613368166
30
0
41
1
10
16.3151242295569
20
-9.71991404789412
30
0
41
1
10
15.8116325067975
20
-9.61670616957068
30
0
41
1
10
15.4057121339024
20
-9.52146162985466
30
0
41
1
10
15.1394117342268
20
-9.45385658421185
30
0
41
1
10
15.0825412943804
20
-9.43918608523077
30
0
0
SPLINE
5
FB
100
AcDbEntity
8
1
62
256
6
ByLayer
370
18
48
1
60
0
100
AcDbSpline
70
4
71
3
72
50
73
46
40
0
40
0
40
0
40
0
40
0.062499999999997
40
0.062499999999997
40
0.124999999999994
40
0.124999999999994
40
0.156249999999992
40
0.156249999999992
40
0.171874999999992
40
0.171874999999992
40
0.187499999999991
40
0.187499999999991
40
0.249999999999988
40
0.249999999999988
40
0.312499999999986
40
0.312499999999986
40
0.328124999999985
40
0.328124999999985
40
0.343749999999984
40
0.343749999999984
40
0.374999999999984
40
0.374999999999984
40
0.437499999999984
40
0.437499999999984
40
0.453124999999984
40
0.453124999999984
40
0.468749999999984
40
0.468749999999984
40
0.499999999999984
40
0.499999999999984
40
0.562499999999984
40
0.562499999999984
40
0.624999999999984
40
0.624999999999984
40
0.656249999999985
40
0.656249999999985
40
0.687499999999987
40
0.687499999999987
40
0.749999999999989
40
0.749999999999989
40
0.812499999999992
40
0.812499999999992
40
0.874999999999995
40
0.874999999999995
40
1
40
1
40
1
40
1
41
1
10
2.22691525048015
20
-9.14543362893352
30
0
41
1
10
2.19674391649042
20
-9.09246087002026
30
0
41
1
10
2.17389081758699
20
-9.03702381369513
30
0
41
1
10
2.14471953931908
20
-8.92114545519894
30
0
41
1
10
2.13839031036667
20
-8.86069874255293
30
0
41
1
10
2.14313769042042
20
-8.76614512317187
30
0
41
1
10
2.14709899478638
20
-8.73397954786253
30
0
41
1
10
2.15690055839752
20
-8.68473974172204
30
0
41
1
10
2.16081148847172
20
-8.66816119711723
30
0
41
1
10
2.16997575490464
20
-8.6346697813326
30
0
41
1
10
2.17521605257048
20
-8.6178155024117
30
0
41
1
10
2.2045361111206
20
-8.53359683335324
30
0
41
1
10
2.23810639282135
20
-8.46584301449582
30
0
41
1
10
2.32512692909202
20
-8.33020814428065
30
0
41
1
10
2.37857684632999
20
-8.26232615482598
30
0
41
1
10
2.45777160426803
20
-8.17778111800686
30
0
41
1
10
2.47423037962483
20
-8.16088749876437
30
0
41
1
10
2.50838940147591
20
-8.12714086057258
30
0
41
1
10
2.52598555678031
20
-8.1103910060726
30
0
41
1
10
2.58021647132128
20
-8.06056173703865
30
0
41
1
10
2.61831501520839
20
-8.02788002188149
30
0
41
1
10
2.73805498856893
20
-7.93144168481456
30
0
41
1
10
2.82512460237527
20
-7.86929028087548
30
0
41
1
10
2.94201164585044
20
-7.79428077762245
30
0
41
1
10
2.96579285574393
20
-7.77941299014154
30
0
41
1
10
3.01414262014089
20
-7.7499462247529
30
0
41
1
10
3.03869924052518
20
-7.73535584145276
30
0
41
1
10
3.11306665031643
20
-7.69224309559826
30
0
41
1
10
3.16371872821074
20
-7.66428914098378
30
0
41
1
10
3.318608660292
20
-7.58265222841152
30
0
41
1
10
3.42576783984259
20
-7.53118800596238
30
0
41
1
10
3.6467334403244
20
-7.43363105514214
30
0
41
1
10
3.76054495434443
20
-7.38754077969276
30
0
41
1
10
3.93564944342751
20
-7.32215581560024
30
0
41
1
10
3.99475100618869
20
-7.30098702354283
30
0
41
1
10
4.11434232473957
20
-7.25986636742653
30
0
41
1
10
4.17490713843489
20
-7.23989327169528
30
0
41
1
10
4.35728360830629
20
-7.18215209840153
30
0
41
1
10
4.48015186860684
20
-7.14641807697637
30
0
41
1
10
4.72811638359403
20
-7.07991873704526
30
0
41
1
10
4.85321393907432
20
-7.04915547246949
30
0
41
1
10
5.10539373897834
20
-6.99219984353786
30
0
41
1
10
5.23247675881692
20
-6.96600871619807
30
0
41
1
10
5.61643154721969
20
-6.89384432032747
30
0
41
1
10
5.87599422405302
20
-6.85425672851454
30
0
41
1
10
6.13866717692832
20
-6.82238040311091
30
0
0
SPLINE
5
FC
100
AcDbEntity
8
1
62
256
6
ByLayer
370
18
48
1
60
0
100
AcDbSpline
70
4
71
3
72
28
73
24
40
0
40
0
40
0
40
0
40
0.062500000000003
40
0.062500000000003
40
0.125000000000006
40
0.125000000000006
40
0.187500000000009
40
0.187500000000009
40
0.218750000000011
40
0.218750000000011
40
0.250000000000012
40
0.250000000000012
40
0.37500000000001
40
0.37500000000001
40
0.500000000000008
40
0.500000000000008
40
0.625000000000006
40
0.625000000000006
40
0.687500000000005
40
0.687500000000005
40
0.750000000000004
40
0.750000000000004
40
1
40
1
40
1
40
1
41
1
10
6.13866717692835
20
-6.82238040311091
30
0
41
1
10
6.2438348416089
20
-6.80961792161213
30
0
41
1
10
6.34912980474596
20
-6.80050663530824
30
0
41
1
10
6.55993497619934
20
-6.78851932069281
30
0
41
1
10
6.66544545534668
20
-6.78565024833358
30
0
41
1
10
6.87665744885075
20
-6.78546299055111
30
0
41
1
10
6.98235909914948
20
-6.78814833522722
30
0
41
1
10
7.14104302768445
20
-6.79598389371657
30
0
41
1
10
7.19395963450745
20
-6.79923169619701
30
0
41
1
10
7.29983532991395
20
-6.80695264096863
30
0
41
1
10
7.35280868958
20
-6.81142941821659
30
0
41
1
10
7.61613700594279
20
-6.83659836439648
30
0
41
1
10
7.82325661409709
20
-6.86566637773188
30
0
41
1
10
8.23149039454466
20
-6.93837571866106
30
0
41
1
10
8.43259230108765
20
-6.98204668566009
30
0
41
1
10
8.82935240030466
20
-7.08180304924196
30
0
41
1
10
9.02500513032561
20
-7.13790200675516
30
0
41
1
10
9.31465108525401
20
-7.23006220024209
30
0
41
1
10
9.40998202157212
20
-7.26193658897679
30
0
41
1
10
9.59805493259779
20
-7.32761626270678
30
0
41
1
10
9.69084737662348
20
-7.36143792387153
30
0
41
1
10
10.1489272993194
20
-7.53481465678709
30
0
41
1
10
10.4966434911324
20
-7.6870921135731
30
0
41
1
10
10.8290318047748
20
-7.84569814166693
30
0
0
SPLINE
5
FD
100
AcDbEntity
8
1
62
256
6
ByLayer
370
18
48
1
60
0
100
AcDbSpline
70
4
71
3
72
10
73
6
40
0
40
0
40
0
40
0
40
0.500000000000002
40
0.500000000000002
40
1
40
1
40
1
40
1
41
1
10
10.8292444556451
20
-7.84568531268937
30
0
41
1
10
11.5381272636987
20
-8.18908940384932
30
0
41
1
10
12.2470100717522
20
-8.49630769316846
30
0
41
1
10
13.6647756878592
20
-9.02992642683549
30
0
41
1
10
14.3736584959127
20
-9.25632010208258
30
0
41
1
10
15.0825413039662
20
-9.43918600603632
30
0
0
SPLINE
5
FE
100
AcDbEntity
8
1
62
256
6
ByLayer
370
18
48
1
60
0
100
AcDbSpline
70
4
71
3
72
21
73
17
40
0
40
0
40
0
40
0
40
0.125
40
0.125
40
0.25
40
0.25
40
0.375
40
0.375
40
0.5
40
0.5
40
0.750000000000001
40
0.750000000000001
40
0.812499999999999
40
0.812499999999999
40
0.874999999999998
40
1
40
1
40
1
40
1
41
1
10
15.0825935410964
20
2.63543235958485
30
0
41
1
10
15.1000734699888
20
2.75064477215076
30
0
41
1
10
15.1220209761967
20
2.86386300271019
30
0
41
1
10
15.1717937162385
20
3.08722911322329
30
0
41
1
10
15.1996464874794
20
3.19736881392271
30
0
41
1
10
15.259429548265
20
3.41511580696428
30
0
41
1
10
15.291372057422
20
3.52271945731627
30
0
41
1
10
15.3581383989356
20
3.73574645579993
30
0
41
1
10
15.3929683706189
20
3.8411679705884
30
0
41
1
10
15.5005212420579
20
4.15452215370865
30
0
41
1
10
15.5762429714201
20
4.35956638625507
30
0
41
1
10
15.6732054146002
20
4.61176491840814
30
0
41
1
10
15.6927249067967
20
4.66201210873732
30
0
41
1
10
15.7318909743084
20
4.76193477502503
30
0
41
1
10
15.7908530128293
20
4.91101676255596
30
0
41
1
10
15.8502531477637
20
5.05776464992596
30
0
41
1
10
15.8899038530571
20
5.15460604204838
30
0
0
SPLINE
5
FF
100
AcDbEntity
8
1
62
256
6
ByLayer
370
18
48
1
60
0
100
AcDbSpline
70
4
71
3
72
25
73
21
40
0
40
0
40
0
40
0
40
0.2074957723871
40
0.2074957723871
40
0.414991544774199
40
0.414991544774199
40
0.51873943096775
40
0.51873943096775
40
0.570613374064527
40
0.596550345612914
40
0.596550345612914
40
0.622487317161301
40
0.622487317161301
40
0.726235203354845
40
0.726235203354845
40
0.829983089548389
40
0.829983089548389
40
0.933730975741933
40
0.933730975741933
40
1
40
1
40
1
40
1
41
1
10
8.75342065762493
20
8.90790012928548
30
0
41
1
10
8.38072751830879
20
9.04066260035313
30
0
41
1
10
8.01306727823487
20
9.16465022761997
30
0
41
1
10
7.28643203915851
20
9.39146843255699
30
0
41
1
10
6.92744259243952
20
9.49432087910938
30
0
41
1
10
6.39529867331288
20
9.63011676941792
30
0
41
1
10
6.21898438705611
20
9.67230043690807
30
0
41
1
10
5.9562109380617
20
9.73057807989616
30
0
41
1
10
5.82525011322929
20
9.75846669773341
30
0
41
1
10
5.69496093864348
20
9.78440051351359
30
0
41
1
10
5.60825555889355
20
9.80124564572722
30
0
41
1
10
5.56496928823134
20
9.80944793239451
30
0
41
1
10
5.3493878540678
20
9.84924304850566
30
0
41
1
10
5.1792918222169
20
9.87725978217387
30
0
41
1
10
4.84437127956582
20
9.92518888610621
30
0
41
1
10
4.67954351936032
20
9.94510375879599
30
0
41
1
10
4.35598452848828
20
9.97620752965051
30
0
41
1
10
4.1972475165868
20
9.9874004845714
30
0
41
1
10
3.94313696144883
20
9.99787547759098
30
0
41
1
10
3.84558424930776
20
10.0000026096385
30
0
41
1
10
3.74977819300023
20
10.0000036692159
30
0
0
SPLINE
5
100
100
AcDbEntity
8
1
62
256
6
ByLayer
370
18
48
1
60
0
100
AcDbSpline
70
4
71
3
72
36
73
32
40
0
40
0
40
0
40
0
40
0.0370813657113477
40
0.0744130014961766
40
0.111991758027192
40
0.149814343074762
40
0.187877322254881
40
0.226177119944284
40
0.318379896533319
40
0.413652147204296
40
0.511919954698595
40
0.613097460125033
40
0.631421862498452
40
0.649979112679045
40
0.668768260423224
40
0.687788316729357
40
0.707038253190869
40
0.726517001362637
40
0.746223452142457
40
0.766156455169407
40
0.786314818240946
40
0.806697306750658
40
0.827302643148415
40
0.848129506424942
40
0.869176531622672
40
0.890442309374856
40
0.911925385474726
40
0.933624260476914
40
0.955537389332896
40
0.977663181124082
40
1
40
1
40
1
40
1
41
1
10
16.5782432999036
20
4.63569692439248
30
0
41
1
10
16.5611810119979
20
4.61203340233305
30
0
41
1
10
16.5269412791538
20
4.56454664803925
30
0
41
1
10
16.4749452410713
20
4.49270396235465
30
0
41
1
10
16.4222637559609
20
4.42011766735743
30
0
41
1
10
16.3688631036831
20
4.34676942016796
30
0
41
1
10
16.3147532153275
20
4.2726761598386
30
0
41
1
10
16.2343206284377
20
4.16289464935014
30
0
41
1
10
16.125359076719
20
4.01494677652957
30
0
41
1
10
15.9853724466393
20
3.82611623290799
30
0
41
1
10
15.8388601379478
20
3.62975457867586
30
0
41
1
10
15.7290314919397
20
3.48351750878126
30
0
41
1
10
15.658818739294
20
3.39041420873613
30
0
41
1
10
15.6304328182604
20
3.3528230857973
30
0
41
1
10
15.6016188414872
20
3.31471270558652
30
0
41
1
10
15.5723767099602
20
3.27608350326946
30
0
41
1
10
15.5427065175616
20
3.2369360113303
30
0
41
1
10
15.512608306926
20
3.19727094246826
30
0
41
1
10
15.4820821361222
20
3.15708917442416
30
0
41
1
10
15.4511280605399
20
3.1163917615865
30
0
41
1
10
15.4197461378188
20
3.07517993922613
30
0
41
1
10
15.3879364268564
20
3.03345512992757
30
0
41
1
10
15.3556989870703
20
2.99121894859553
30
0
41
1
10
15.3230338827719
20
2.94847321080095
30
0
41
1
10
15.2899411665166
20
2.90521992878163
30
0
41
1
10
15.2564209426286
20
2.86146135385022
30
0
41
1
10
15.2224731267283
20
2.81719984263143
30
0
41
1
10
15.1880983572758
20
2.77243839050317
30
0
41
1
10
15.1532945427549
20
2.72717863692242
30
0
41
1
10
15.1180699379727
20
2.68142844441303
30
0
41
1
10
15.0943974897993
20
2.65073652590101
30
0
41
1
10
15.0825050889874
20
2.63531773212188
30
0
0
SPLINE
5
101
100
AcDbEntity
8
1
62
256
6
ByLayer
370
18
48
1
60
0
100
AcDbSpline
70
4
71
5
72
15
73
9
40
0
40
0
40
0
40
0
40
0
40
0
40
0.193789382136197
40
0.471092795297214
40
0.88704791503874
40
1
40
1
40
1
40
1
40
1
40
1
41
1
10
17.5999999081773
20
0.699366759281702
30
0
41
1
10
17.5024285583131
20
0.775411196158501
30
0
41
1
10
17.2652372352293
20
0.960148118099454
30
0
41
1
10
16.8186159523164
20
1.30733223486456
30
0
41
1
10
16.315124229557
20
1.69677963334783
30
0
41
1
10
15.8116325067977
20
2.08291895947576
30
0
41
1
10
15.4057121339025
20
2.39142706744158
30
0
41
1
10
15.1394117342268
20
2.59243373836801
30
0
41
1
10
15.0825412943804
20
2.63529518189301
30
0
0
SPLINE
5
102
100
AcDbEntity
8
1
62
256
6
ByLayer
370
18
48
1
60
0
100
AcDbSpline
70
4
71
3
72
10
73
6
40
0
40
0
40
0
40
0
40
0.5
40
0.5
40
1
40
1
40
1
40
1
41
1
10
10.8292444556452
20
5.63802985693675
30
0
41
1
10
11.5381272636987
20
5.18060828529994
30
0
41
1
10
12.2470100717522
20
4.6971919741263
30
0
41
1
10
13.6647756878592
20
3.69166026246881
30
0
41
1
10
14.3736584959128
20
3.16955761743205
30
0
41
1
10
15.0825413039663
20
2.63529517275984
30
0
0
SPLINE
5
103
100
AcDbEntity
8
1
62
256
6
ByLayer
370
18
48
1
60
0
100
AcDbSpline
70
4
71
3
72
16
73
12
40
0
40
0
40
0
40
0
40
0.249999999999998
40
0.249999999999998
40
0.499999999999997
40
0.499999999999997
40
0.624999999999997
40
0.624999999999997
40
0.749999999999997
40
0.749999999999997
40
1
40
1
40
1
40
1
41
1
10
15.8899038530567
20
5.15460604204867
30
0
41
1
10
15.29662129416
20
5.55180517175833
30
0
41
1
10
14.705523350175
20
5.93093599125439
30
0
41
1
10
13.5233943813107
20
6.64893701231313
30
0
41
1
10
12.9323709397533
20
6.98781483057158
30
0
41
1
10
12.042673611338
20
7.46256372355299
30
0
41
1
10
11.7455801405001
20
7.61521499055158
30
0
41
1
10
11.149782506625
20
7.90870148628321
30
0
41
1
10
10.8510327448359
20
8.04955759232831
30
0
41
1
10
9.9517810557121
20
8.45327703030904
30
0
41
1
10
9.35338982773686
20
8.69501608293578
30
0
41
1
10
8.75386949004979
20
8.90786578007717
30
0
0
SPLINE
5
104
100
AcDbEntity
8
1
62
256
6
ByLayer
370
18
48
1
60
0
100
AcDbSpline
70
4
71
3
72
8
73
4
40
0
40
0
40
0
40
0
40
1
40
1
40
1
40
1
41
1
10
15.8899038530572
20
5.15460604204836
30
0
41
1
10
16.1112365803583
20
4.97459170524786
30
0
41
1
10
16.341443913272
20
4.80273192792225
30
0
41
1
10
16.5785559892214
20
4.63570179166234
30
0
0
SPLINE
5
105
100
AcDbEntity
8
1
62
256
6
ByLayer
370
18
48
1
60
0
100
AcDbSpline
70
4
71
2
72
6
73
3
40
0
40
0
40
0
40
1
40
1
40
1
41
1
10
59.3159088732314
20
-1.74329760520271
30
0
41
1
10
59.4248606076731
20
-0.898921360589185
30
0
41
1
10
59.5338053714374
20
-0.0545994097652738
30
0
0
SPLINE
5
106
100
AcDbEntity
8
1
62
256
6
ByLayer
370
18
48
1
60
0
100
AcDbSpline
70
4
71
2
72
6
73
3
40
0
40
0
40
0
40
1
40
1
40
1
41
1
10
59.5408470433867
20
-2.64503951826E-05
30
0
41
1
10
59.5439381937845
20
0.0239299658371408
30
0
41
1
10
59.5470293385704
20
0.0478863383596035
30
0
0
SPLINE
5
107
100
AcDbEntity
8
1
62
256
6
ByLayer
370
18
48
1
60
0
100
AcDbSpline
70
4
71
3
72
16
73
12
40
0
40
0
40
0
40
0
40
0.149540671861748
40
0.258890999324506
40
0.328248770747331
40
0.381977051490205
40
0.439191190729941
40
0.516988377305844
40
0.630254645278957
40
0.791270043531556
40
1
40
1
40
1
40
1
41
1
10
20.9707386072773
20
-9.92378485764556
30
0
41
1
10
21.1960769693106
20
-9.90206785390359
30
0
41
1
10
21.5859489666141
20
-9.86460885793483
30
0
41
1
10
22.0805332596521
20
-9.81731899157234
30
0
41
1
10
22.4295693760106
20
-9.78409584755855
30
0
41
1
10
22.7001517132975
20
-9.75835618653213
30
0
41
1
10
22.9847262588955
20
-9.73147542308519
30
0
41
1
10
23.3585696122759
20
-9.69647079548272
30
0
41
1
10
23.8892100195734
20
-9.64710062898982
30
0
41
1
10
24.6170714410066
20
-9.58029443487322
30
0
41
1
10
25.1741268857234
20
-9.53027817852285
30
0
41
1
10
25.4885590403532
20
-9.50238451700147
30
0
0
SPLINE
5
108
100
AcDbEntity
8
1
62
256
6
ByLayer
370
18
48
1
60
0
100
AcDbSpline
70
4
71
2
72
6
73
3
40
0
40
0
40
0
40
1
40
1
40
1
41
1
10
59.5470293385705
20
-0.0478863383600299
30
0
41
1
10
59.4314730271366
20
0.847675091376544
30
0
41
1
10
59.3159088732306
20
1.7432976052082
30
0
0
SPLINE
5
109
100
AcDbEntity
8
1
62
256
6
ByLayer
370
18
48
1
60
0
100
AcDbSpline
70
4
71
3
72
17
73
13
40
0
40
0
40
0
40
0
40
0.138828116513261
40
0.245868278871343
40
0.321132816726361
40
0.368388678757694
40
0.412243214933849
40
0.45717290636319
40
0.527928683335746
40
0.63501057721439
40
0.792369024951941
40
1
40
1
40
1
40
1
41
1
10
40.1828761463442
20
-9.9237506807267
30
0
41
1
10
40.3919100065754
20
-9.90359784251325
30
0
41
1
10
40.7621425113825
20
-9.86800953528655
30
0
41
1
10
41.2457536420375
20
-9.82177759821019
30
0
41
1
10
41.5915207264988
20
-9.78883978453212
30
0
41
1
10
41.8417714767647
20
-9.76509197852511
30
0
41
1
10
42.046446351855
20
-9.74571996576074
30
0
41
1
10
42.2865810789393
20
-9.7230698454743
30
0
41
1
10
42.622028297318
20
-9.69161888811249
30
0
41
1
10
43.1268108535549
20
-9.64488587860103
30
0
41
1
10
43.8376506163299
20
-9.57941255484803
30
0
41
1
10
44.3872857090755
20
-9.53017873806479
30
0
41
1
10
44.6999573647659
20
-9.50252067698668
30
0
0
SPLINE
5
10A
100
AcDbEntity
8
1
62
256
6
ByLayer
370
18
48
1
60
0
100
AcDbSpline
70
4
71
3
72
17
73
13
40
0
40
0
40
0
40
0
40
0.147413487080777
40
0.260337111064025
40
0.338731665102212
40
0.386490429458703
40
0.429510224797144
40
0.472589904092923
40
0.538699267267815
40
0.641013898032635
40
0.794759871420803
40
1
40
1
40
1
40
1
41
1
10
25.4885590403529
20
9.50238451700133
30
0
41
1
10
25.2663769636991
20
9.52206210174711
30
0
41
1
10
24.8740259374128
20
9.55713319526603
30
0
41
1
10
24.3637280312462
20
9.60355262978695
30
0
41
1
10
24.003437423122
20
9.63663379548979
30
0
41
1
10
23.7492951224369
20
9.6601631018207
30
0
41
1
10
23.5480890301187
20
9.67886185086948
30
0
41
1
10
23.3190520051588
20
9.70023082533555
30
0
41
1
10
23.0005079587388
20
9.73009978790569
30
0
41
1
10
22.5153228624323
20
9.77593661975712
30
0
41
1
10
21.820556048986
20
9.84207158438286
30
0
41
1
10
21.2798698254298
20
9.89396486213761
30
0
41
1
10
20.9707386072774
20
9.92378485764542
30
0
0
SPLINE
5
10B
100
AcDbEntity
8
1
62
256
6
ByLayer
370
18
48
1
60
0
100
AcDbSpline
70
4
71
3
72
17
73
13
40
0
40
0
40
0
40
0
40
0.136736144765782
40
0.242504277198199
40
0.317351570773497
40
0.364946604097019
40
0.409311045562819
40
0.455098871377171
40
0.527906556029464
40
0.636186147338403
40
0.793555739598059
40
1
40
1
40
1
40
1
41
1
10
44.6999573647659
20
9.50252067698639
30
0
41
1
10
44.4937850089144
20
9.52071226224422
30
0
41
1
10
44.1282242277763
20
9.55330512021908
30
0
41
1
10
43.6503640457796
20
9.59675758326642
30
0
41
1
10
43.3064498082798
20
9.62837178122302
30
0
41
1
10
43.0577808292524
20
9.65124608957137
30
0
41
1
10
42.8509989703478
20
9.67029636655502
30
0
41
1
10
42.6053561817102
20
9.69307792129999
30
0
41
1
10
42.2636025167027
20
9.72515987307699
30
0
41
1
10
41.7535571920612
20
9.77338894859142
30
0
41
1
10
41.0421393248745
20
9.8411741989319
30
0
41
1
10
40.4939382551379
20
9.89377132079139
30
0
41
1
10
40.1828761463442
20
9.92375068072641
30
0
0
LINE
5
77
100
AcDbEntity
8
80
62
256
6
ByLayer
370
18
48
1
60
0
100
AcDbLine
10
0
20
0
30
0
11
-5
21
0
31
0
39
0
210
0
220
0
230
1
0
LINE
5
78
100
AcDbEntity
8
4
62
256
6
ByLayer
370
18
48
0.05
60
0
100
AcDbLine
10
0
20
0
30
0
11
59.6
21
0
31
0
39
0
210
0
220
0
230
1
0
LINE
5
7A
100
AcDbEntity
8
81
62
256
6
ByLayer
370
18
48
1
60
0
100
AcDbLine
10
59.6
20
0
30
0
11
64.6
21
0
31
0
39
0
210
0
220
0
230
1
0
LINE
5
7B
100
AcDbEntity
8
SK4
62
256
6
ByLayer
370
18
48
0.05
60
0
100
AcDbLine
10
-50
20
0
30
0
11
59.6
21
0
31
0
39
0
210
0
220
0
230
1
0
LINE
5
7D
100
AcDbEntity
8
1
62
256
6
ByLayer
370
18
48
1
60
0
100
AcDbLine
10
0
20
10
30
0
11
0
21
0
31
0
39
0
210
0
220
0
230
1
0
LINE
5
7E
100
AcDbEntity
8
1
62
256
6
ByLayer
370
18
48
1
60
0
100
AcDbLine
10
0
20
0
30
0
11
0
21
-10
31
0
39
0
210
0
220
0
230
1
0
LINE
5
7F
100
AcDbEntity
8
1
62
256
6
ByLayer
370
18
48
1
60
0
100
AcDbLine
10
59.533808
20
0.054577
30
0
11
59.547037
21
0.04816
31
0
39
0
210
0
220
0
230
1
0
LINE
5
80
100
AcDbEntity
8
1
62
256
6
ByLayer
370
18
48
1
60
0
100
AcDbLine
10
59.316247
20
-1.740461
30
0
11
59.150937
21
-1.627076
31
0
39
0
210
0
220
0
230
1
0
LINE
5
81
100
AcDbEntity
8
1
62
256
6
ByLayer
370
18
48
1
60
0
100
AcDbLine
10
59.147851
20
-1.569789
30
0
11
59.275623
21
-0.161487
31
0
39
0
210
0
220
0
230
1
0
LINE
5
82
100
AcDbEntity
8
1
62
256
6
ByLayer
370
18
48
1
60
0
100
AcDbLine
10
59.184541
20
2.250876
30
0
11
59.547037
21
8.979398
31
0
39
0
210
0
220
0
230
1
0
LINE
5
83
100
AcDbEntity
8
1
62
256
6
ByLayer
370
13
48
1
60
0
100
AcDbLine
10
55.142993
20
6.153804
30
0
11
55.54578
21
5.456121
31
0
39
0
210
0
220
0
230
1
0
LINE
5
84
100
AcDbEntity
8
1
62
256
6
ByLayer
370
13
48
1
60
0
100
AcDbLine
10
58.748227
20
-0.090959
30
0
11
59.028206
21
-0.57592
31
0
39
0
210
0
220
0
230
1
0
LINE
5
85
100
AcDbEntity
8
1
62
256
6
ByLayer
370
18
48
1
60
0
100
AcDbLine
10
59.070501
20
-0.134097
30
0
11
59.547037
21
-8.979398
31
0
39
0
210
0
220
0
230
1
0
LINE
5
86
100
AcDbEntity
8
1
62
256
6
ByLayer
370
18
48
1
60
0
100
AcDbLine
10
59.028206
20
-0.57592
30
0
11
59.004964
21
-0.125331
31
0
39
0
210
0
220
0
230
1
0
LINE
5
87
100
AcDbEntity
8
1
62
256
6
ByLayer
370
18
48
1
60
0
100
AcDbLine
10
59.316247
20
-8.601962
30
0
11
59.022003
21
-3.018823
31
0
39
0
210
0
220
0
230
1
0
LINE
5
88
100
AcDbEntity
8
1
62
256
6
ByLayer
370
18
48
1
60
0
100
AcDbLine
10
58.39657
20
-5.127496
30
0
11
59.022003
21
-3.018823
31
0
39
0
210
0
220
0
230
1
0
LINE
5
89
100
AcDbEntity
8
1
62
256
6
ByLayer
370
18
48
1
60
0
100
AcDbLine
10
59.022003
20
-3.018823
30
0
11
59.023561
21
-2.989716
31
0
39
0
210
0
220
0
230
1
0
LINE
5
8A
100
AcDbEntity
8
1
62
256
6
ByLayer
370
13
48
1
60
0
100
AcDbLine
10
58.405471
20
-1.908863
30
0
11
54.069602
21
-0.947265
31
0
39
0
210
0
220
0
230
1
0
LINE
5
8B
100
AcDbEntity
8
1
62
256
6
ByLayer
370
18
48
1
60
0
100
AcDbLine
10
59.305283
20
-0.165421
30
0
11
59.547037
21
-0.04816
31
0
39
0
210
0
220
0
230
1
0
LINE
5
8C
100
AcDbEntity
8
1
62
256
6
ByLayer
370
13
48
1
60
0
100
AcDbLine
10
55.16393
20
0.664803
30
0
11
58.305807
21
-0.031995
31
0
39
0
210
0
220
0
230
1
0
LINE
5
8D
100
AcDbEntity
8
1
62
256
6
ByLayer
370
18
48
1
60
0
100
AcDbLine
10
59.305283
20
-0.165421
30
0
11
58.305807
21
-0.031995
31
0
39
0
210
0
220
0
230
1
0
LINE
5
8E
100
AcDbEntity
8
SK1
62
256
6
ByLayer
370
18
48
1
60
0
100
AcDbLine
10
0
20
10
30
0
11
0
21
0
31
0
39
0
210
0
220
0
230
1
0
LINE
5
90
100
AcDbEntity
8
SK1
62
256
6
ByLayer
370
18
48
1
60
0
100
AcDbLine
10
0
20
0
30
0
11
0
21
-10
31
0
39
0
210
0
220
0
230
1
0
LINE
5
91
100
AcDbEntity
8
SK1
62
256
6
ByLayer
370
18
48
1
60
0
100
AcDbLine
10
-30.5
20
8.2
30
0
11
-32.3
21
10
31
0
39
0
210
0
220
0
230
1
0
LINE
5
92
100
AcDbEntity
8
SK1
62
256
6
ByLayer
370
18
48
1
60
0
100
AcDbLine
10
-17.7
20
10
30
0
11
-19.5
21
8.2
31
0
39
0
210
0
220
0
230
1
0
LINE
5
93
100
AcDbEntity
8
SK1
62
256
6
ByLayer
370
18
48
1
60
0
100
AcDbLine
10
-30.5
20
8.2
30
0
11
-19.5
21
8.2
31
0
39
0
210
0
220
0
230
1
0
LINE
5
94
100
AcDbEntity
8
SK1
62
256
6
ByLayer
370
18
48
1
60
0
100
AcDbLine
10
-49
20
10
30
0
11
-49
21
-10
31
0
39
0
210
0
220
0
230
1
0
LINE
5
95
100
AcDbEntity
8
SK1
62
256
6
ByLayer
370
18
48
1
60
0
100
AcDbLine
10
-50
20
-9
30
0
11
-50
21
9
31
0
39
0
210
0
220
0
230
1
0
LINE
5
96
100
AcDbEntity
8
1
62
256
6
ByLayer
370
18
48
1
60
0
100
AcDbLine
10
3.749992
20
10
30
0
11
0
21
10
31
0
39
0
210
0
220
0
230
1
0
LINE
5
97
100
AcDbEntity
8
1
62
256
6
ByLayer
370
18
48
1
60
0
100
AcDbLine
10
0
20
-10
30
0
11
3.749992
21
-10
31
0
39
0
210
0
220
0
230
1
0
LINE
5
98
100
AcDbEntity
8
SK1
62
256
6
ByLayer
370
18
48
1
60
0
100
AcDbLine
10
0
20
10
30
0
11
-17.7
21
10
31
0
39
0
210
0
220
0
230
1
0
LINE
5
99
100
AcDbEntity
8
SK1
62
256
6
ByLayer
370
18
48
1
60
0
100
AcDbLine
10
-32.3
20
10
30
0
11
-49
21
10
31
0
39
0
210
0
220
0
230
1
0
LINE
5
9A
100
AcDbEntity
8
SK1
62
256
6
ByLayer
370
18
48
1
60
0
100
AcDbLine
10
-49
20
-10
30
0
11
0
21
-10
31
0
39
0
210
0
220
0
230
1
0
LINE
5
9B
100
AcDbEntity
8
SK1
62
256
6
ByLayer
370
18
48
1
60
0
100
AcDbLine
10
-50
20
-9
30
0
11
-49
21
-10
31
0
39
0
210
0
220
0
230
1
0
LINE
5
9C
100
AcDbEntity
8
SK1
62
256
6
ByLayer
370
18
48
1
60
0
100
AcDbLine
10
-49
20
10
30
0
11
-50
21
9
31
0
39
0
210
0
220
0
230
1
0
LINE
5
9D
100
AcDbEntity
8
SK2
62
256
6
ByLayer
370
18
48
1
60
0
100
AcDbLine
10
-57.25
20
10
30
0
11
-57.25
21
-28.930932
31
0
39
0
210
0
220
0
230
1
0
LINE
5
9F
100
AcDbEntity
8
SK2
62
256
6
ByLayer
370
18
48
1
60
0
100
AcDbLine
10
-50.5875
20
10
30
0
11
-59.25
21
10
31
0
39
0
210
0
220
0
230
1
0
LINE
5
A0
100
AcDbEntity
8
SK2
62
256
6
ByLayer
370
18
48
1
60
0
100
AcDbLine
10
-50.5875
20
-10
30
0
11
-59.25
21
-10
31
0
39
0
210
0
220
0
230
1
0
LINE
5
A1
100
AcDbEntity
8
1
62
256
6
ByLayer
370
18
48
1
60
1
100
AcDbLine
10
-57.25
20
10
30
0
11
-56.789216
21
6.500002
31
0
39
0
210
0
220
0
230
1
0
LINE
5
A2
100
AcDbEntity
8
1
62
256
6
ByLayer
370
18
48
1
60
1
100
AcDbLine
10
-56.789216
20
6.500002
30
0
11
-57.710784
21
6.499998
31
0
39
0
210
0
220
0
230
1
0
LINE
5
A3
100
AcDbEntity
8
1
62
256
6
ByLayer
370
18
48
1
60
1
100
AcDbLine
10
-57.710784
20
6.499998
30
0
11
-57.25
21
10
31
0
39
0
210
0
220
0
230
1
0
LINE
5
A4
100
AcDbEntity
8
1
62
256
6
ByLayer
370
18
48
1
60
1
100
AcDbLine
10
-57.25
20
-10
30
0
11
-57.710784
21
-6.500002
31
0
39
0
210
0
220
0
230
1
0
LINE
5
A5
100
AcDbEntity
8
1
62
256
6
ByLayer
370
18
48
1
60
1
100
AcDbLine
10
-57.710784
20
-6.500002
30
0
11
-56.789216
21
-6.499998
31
0
39
0
210
0
220
0
230
1
0
LINE
5
A6
100
AcDbEntity
8
1
62
256
6
ByLayer
370
18
48
1
60
1
100
AcDbLine
10
-56.789216
20
-6.499998
30
0
11
-57.25
21
-10
31
0
39
0
210
0
220
0
230
1
0
LINE
5
A7
100
AcDbEntity
8
2
62
256
6
ByLayer
370
18
48
1
60
0
100
AcDbLine
10
71.6
20
-10.0001
30
0
11
71.6
21
28.931032
31
0
39
0
210
0
220
0
230
1
0
LINE
5
A9
100
AcDbEntity
8
2
62
256
6
ByLayer
370
18
48
1
60
0
100
AcDbLine
10
61.1875
20
10.0001
30
0
11
73.6
21
10.0001
31
0
39
0
210
0
220
0
230
1
0
LINE
5
AA
100
AcDbEntity
8
2
62
256
6
ByLayer
370
18
48
1
60
0
100
AcDbLine
10
61.1875
20
-10.0001
30
0
11
73.6
21
-10.0001
31
0
39
0
210
0
220
0
230
1
0
LINE
5
AB
100
AcDbEntity
8
1
62
256
6
ByLayer
370
18
48
1
60
1
100
AcDbLine
10
71.6
20
10.0001
30
0
11
72.060784
21
6.500102
31
0
39
0
210
0
220
0
230
1
0
LINE
5
AC
100
AcDbEntity
8
1
62
256
6
ByLayer
370
18
48
1
60
1
100
AcDbLine
10
72.060784
20
6.500102
30
0
11
71.139216
21
6.500098
31
0
39
0
210
0
220
0
230
1
0
LINE
5
AD
100
AcDbEntity
8
1
62
256
6
ByLayer
370
18
48
1
60
1
100
AcDbLine
10
71.139216
20
6.500098
30
0
11
71.6
21
10.0001
31
0
39
0
210
0
220
0
230
1
0
LINE
5
AE
100
AcDbEntity
8
1
62
256
6
ByLayer
370
18
48
1
60
1
100
AcDbLine
10
71.6
20
-10.0001
30
0
11
71.139216
21
-6.500102
31
0
39
0
210
0
220
0
230
1
0
LINE
5
AF
100
AcDbEntity
8
1
62
256
6
ByLayer
370
18
48
1
60
1
100
AcDbLine
10
71.139216
20
-6.500102
30
0
11
72.060784
21
-6.500098
31
0
39
0
210
0
220
0
230
1
0
LINE
5
B0
100
AcDbEntity
8
1
62
256
6
ByLayer
370
18
48
1
60
1
100
AcDbLine
10
72.060784
20
-6.500098
30
0
11
71.6
21
-10.0001
31
0
39
0
210
0
220
0
230
1
0
LINE
5
B1
100
AcDbEntity
8
SK2
62
256
6
ByLayer
370
18
48
1
60
0
100
AcDbLine
10
59.6
20
-41.431155
30
0
11
-50
21
-41.431155
31
0
39
0
210
0
220
0
230
1
0
LINE
5
B2
100
AcDbEntity
8
SK2
62
256
6
ByLayer
370
18
48
1
60
0
100
AcDbLine
10
-50
20
-10.5875
30
0
11
-50
21
-43.431155
31
0
39
0
210
0
220
0
230
1
0
LINE
5
B3
100
AcDbEntity
8
SK2
62
256
6
ByLayer
370
18
48
1
60
0
100
AcDbLine
10
59.6
20
-11.5876
30
0
11
59.6
21
-43.431155
31
0
39
0
210
0
220
0
230
1
0
LINE
5
B4
100
AcDbEntity
8
1
62
256
6
ByLayer
370
18
48
1
60
1
100
AcDbLine
10
-50
20
-41.431155
30
0
11
-46.500002
21
-40.970371
31
0
39
0
210
0
220
0
230
1
0
LINE
5
B5
100
AcDbEntity
8
1
62
256
6
ByLayer
370
18
48
1
60
1
100
AcDbLine
10
-46.500002
20
-40.970371
30
0
11
-46.499998
21
-41.891939
31
0
39
0
210
0
220
0
230
1
0
LINE
5
B6
100
AcDbEntity
8
1
62
256
6
ByLayer
370
18
48
1
60
1
100
AcDbLine
10
-46.499998
20
-41.891939
30
0
11
-50
21
-41.431155
31
0
39
0
210
0
220
0
230
1
0
LINE
5
B7
100
AcDbEntity
8
1
62
256
6
ByLayer
370
18
48
1
60
1
100
AcDbLine
10
59.6
20
-41.431155
30
0
11
56.100002
21
-41.891939
31
0
39
0
210
0
220
0
230
1
0
LINE
5
B8
100
AcDbEntity
8
1
62
256
6
ByLayer
370
18
48
1
60
1
100
AcDbLine
10
56.100002
20
-41.891939
30
0
11
56.099998
21
-40.970371
31
0
39
0
210
0
220
0
230
1
0
LINE
5
B9
100
AcDbEntity
8
1
62
256
6
ByLayer
370
18
48
1
60
1
100
AcDbLine
10
56.099998
20
-40.970371
30
0
11
59.6
21
-41.431155
31
0
39
0
210
0
220
0
230
1
0
LINE
5
110
100
AcDbEntity
8
1
62
256
6
ByLayer
370
18
48
1
60
1
100
AcDbLine
10
-57.25
20
10
30
0
11
-56.789216
21
6.500002
31
0
39
0
210
0
220
0
230
1
0
LINE
5
111
100
AcDbEntity
8
1
62
256
6
ByLayer
370
18
48
1
60
1
100
AcDbLine
10
-56.789216
20
6.500002
30
0
11
-57.710784
21
6.499998
31
0
39
0
210
0
220
0
230
1
0
LINE
5
112
100
AcDbEntity
8
1
62
256
6
ByLayer
370
18
48
1
60
1
100
AcDbLine
10
-57.710784
20
6.499998
30
0
11
-57.25
21
10
31
0
39
0
210
0
220
0
230
1
0
LINE
5
114
100
AcDbEntity
8
1
62
256
6
ByLayer
370
18
48
1
60
1
100
AcDbLine
10
-57.25
20
-10
30
0
11
-57.710784
21
-6.500002
31
0
39
0
210
0
220
0
230
1
0
LINE
5
115
100
AcDbEntity
8
1
62
256
6
ByLayer
370
18
48
1
60
1
100
AcDbLine
10
-57.710784
20
-6.500002
30
0
11
-56.789216
21
-6.499998
31
0
39
0
210
0
220
0
230
1
0
LINE
5
116
100
AcDbEntity
8
1
62
256
6
ByLayer
370
18
48
1
60
1
100
AcDbLine
10
-56.789216
20
-6.499998
30
0
11
-57.25
21
-10
31
0
39
0
210
0
220
0
230
1
0
LINE
5
11A
100
AcDbEntity
8
1
62
256
6
ByLayer
370
18
48
1
60
1
100
AcDbLine
10
71.6
20
10.0001
30
0
11
72.060784
21
6.500102
31
0
39
0
210
0
220
0
230
1
0
LINE
5
11B
100
AcDbEntity
8
1
62
256
6
ByLayer
370
18
48
1
60
1
100
AcDbLine
10
72.060784
20
6.500102
30
0
11
71.139216
21
6.500098
31
0
39
0
210
0
220
0
230
1
0
LINE
5
11C
100
AcDbEntity
8
1
62
256
6
ByLayer
370
18
48
1
60
1
100
AcDbLine
10
71.139216
20
6.500098
30
0
11
71.6
21
10.0001
31
0
39
0
210
0
220
0
230
1
0
LINE
5
11E
100
AcDbEntity
8
1
62
256
6
ByLayer
370
18
48
1
60
1
100
AcDbLine
10
71.6
20
-10.0001
30
0
11
71.139216
21
-6.500102
31
0
39
0
210
0
220
0
230
1
0
LINE
5
11F
100
AcDbEntity
8
1
62
256
6
ByLayer
370
18
48
1
60
1
100
AcDbLine
10
71.139216
20
-6.500102
30
0
11
72.060784
21
-6.500098
31
0
39
0
210
0
220
0
230
1
0
LINE
5
120
100
AcDbEntity
8
1
62
256
6
ByLayer
370
18
48
1
60
1
100
AcDbLine
10
72.060784
20
-6.500098
30
0
11
71.6
21
-10.0001
31
0
39
0
210
0
220
0
230
1
0
LINE
5
123
100
AcDbEntity
8
1
62
256
6
ByLayer
370
18
48
1
60
1
100
AcDbLine
10
-50
20
-41.431155
30
0
11
-46.500002
21
-40.970371
31
0
39
0
210
0
220
0
230
1
0
LINE
5
124
100
AcDbEntity
8
1
62
256
6
ByLayer
370
18
48
1
60
1
100
AcDbLine
10
-46.500002
20
-40.970371
30
0
11
-46.499998
21
-41.891939
31
0
39
0
210
0
220
0
230
1
0
LINE
5
125
100
AcDbEntity
8
1
62
256
6
ByLayer
370
18
48
1
60
1
100
AcDbLine
10
-46.499998
20
-41.891939
30
0
11
-50
21
-41.431155
31
0
39
0
210
0
220
0
230
1
0
LINE
5
127
100
AcDbEntity
8
1
62
256
6
ByLayer
370
18
48
1
60
1
100
AcDbLine
10
59.6
20
-41.431155
30
0
11
56.100002
21
-41.891939
31
0
39
0
210
0
220
0
230
1
0
LINE
5
128
100
AcDbEntity
8
1
62
256
6
ByLayer
370
18
48
1
60
1
100
AcDbLine
10
56.100002
20
-41.891939
30
0
11
56.099998
21
-40.970371
31
0
39
0
210
0
220
0
230
1
0
LINE
5
129
100
AcDbEntity
8
1
62
256
6
ByLayer
370
18
48
1
60
1
100
AcDbLine
10
56.099998
20
-40.970371
30
0
11
59.6
21
-41.431155
31
0
39
0
210
0
220
0
230
1
0
MTEXT
5
10C
100
AcDbEntity
8
SK2
62
256
6
ByLayer
370
18
48
1
60
0
100
AcDbMText
10
-58.814634
20
-26.996089
30
0
210
0
220
0
230
1
1
%%c
40
3.5
41
0
44
1.084337
50
90
71
7
72
5
7
iso_b_vert
0
MTEXT
5
10F
100
AcDbEntity
8
SK2
62
256
6
ByLayer
370
18
48
1
60
0
100
AcDbMText
10
-58.814634
20
-20.023432
30
0
210
0
220
0
230
1
1
\W0.6740;20
40
3.5
41
0
44
1.084337
50
90
71
7
72
5
7
iso_b_vert
0
MTEXT
5
118
100
AcDbEntity
8
2
62
256
6
ByLayer
370
18
48
1
60
0
100
AcDbMText
10
70.035366
20
17.934944
30
0
210
0
220
0
230
1
1
%%c
40
3.5
41
0
44
1.084337
50
90
71
7
72
5
7
iso_b_vert
0
MTEXT
5
119
100
AcDbEntity
8
2
62
256
6
ByLayer
370
18
48
1
60
0
100
AcDbMText
10
70.035366
20
24.9076
30
0
210
0
220
0
230
1
1
\W0.6740;20
40
3.5
41
0
44
1.084337
50
90
71
7
72
5
7
iso_b_vert
0
MTEXT
5
122
100
AcDbEntity
8
SK2
62
256
6
ByLayer
370
18
48
1
60
0
100
AcDbMText
10
0.008001
20
-40.398521
30
0
210
0
220
0
230
1
1
\W0.6864;109.6
40
3.5
41
0
44
1.084337
50
0
71
7
72
5
7
iso_b_vert
0
MTEXT
5
12B
100
AcDbEntity
8
SK6
62
256
6
ByLayer
370
18
48
1
60
0
100
AcDbMText
10
-19.514162
20
-62.114886
30
0
210
0
220
0
230
1
1
\W0.7444;2S342-2000-100CMB   M2CM
40
3
41
0
44
1.084337
50
0
71
7
72
5
7
iso_b_vert
0
HATCH
5
113
100
AcDbEntity
8
SK2
62
256
6
ByLayer
370
13
48
1
60
0
100
AcDbHatch
10
0
20
0
30
0
210
0
220
0
230
1
2
ANSI31
70
0
71
0
91
1
92
5
93
3
72
1
10
-57.25
20
9.99999999999994
11
-56.7892162584472
21
6.50000169255313
72
1
10
-56.7892162584472
20
6.50000169255313
11
-57.7107837415528
21
6.49999830744676
72
1
10
-57.7107837415528
20
6.49999830744676
11
-57.25
21
9.99999999999994
97
0
75
0
76
1
52
0
41
0.0062
77
0
78
1
53
45
43
0
44
0
45
-0.0139193969876572
46
0.0139193969876572
79
0
47
0
98
1
10
0
20
0
0
HATCH
5
117
100
AcDbEntity
8
SK2
62
256
6
ByLayer
370
13
48
1
60
0
100
AcDbHatch
10
0
20
0
30
0
210
0
220
0
230
1
2
ANSI31
70
0
71
0
91
1
92
5
93
3
72
1
10
-57.25
20
-10.0000000000001
11
-57.7107837415528
21
-6.50000169255324
72
1
10
-57.7107837415528
20
-6.50000169255324
11
-56.7892162584472
21
-6.49999830744687
72
1
10
-56.7892162584472
20
-6.49999830744687
11
-57.25
21
-10.0000000000001
97
0
75
0
76
1
52
0
41
0.0062
77
0
78
1
53
45
43
0
44
0
45
-0.0139193969876572
46
0.0139193969876572
79
0
47
0
98
1
10
0
20
0
0
HATCH
5
11D
100
AcDbEntity
8
2
62
256
6
ByLayer
370
13
48
1
60
0
100
AcDbHatch
10
0
20
0
30
0
210
0
220
0
230
1
2
ANSI31
70
0
71
0
91
1
92
5
93
3
72
1
10
71.6
20
10.0000999999998
11
72.0607837415528
21
6.50010169255299
72
1
10
72.0607837415528
20
6.50010169255299
11
71.1392162584472
21
6.50009830744662
72
1
10
71.1392162584472
20
6.50009830744662
11
71.6
21
10.0000999999998
97
0
75
0
76
1
52
0
41
0.0062
77
0
78
1
53
45
43
0
44
0
45
-0.0139193969876572
46
0.0139193969876572
79
0
47
0
98
1
10
0
20
0
0
HATCH
5
121
100
AcDbEntity
8
2
62
256
6
ByLayer
370
13
48
1
60
0
100
AcDbHatch
10
0
20
0
30
0
210
0
220
0
230
1
2
ANSI31
70
0
71
0
91
1
92
5
93
3
72
1
10
71.6
20
-10.0001000000002
11
71.1392162584472
21
-6.50010169255339
72
1
10
71.1392162584472
20
-6.50010169255339
11
72.0607837415528
21
-6.50009830744702
72
1
10
72.0607837415528
20
-6.50009830744702
11
71.6
21
-10.0001000000002
97
0
75
0
76
1
52
0
41
0.0062
77
0
78
1
53
45
43
0
44
0
45
-0.0139193969876572
46
0.0139193969876572
79
0
47
0
98
1
10
0
20
0
0
HATCH
5
126
100
AcDbEntity
8
SK2
62
256
6
ByLayer
370
13
48
1
60
0
100
AcDbHatch
10
0
20
0
30
0
210
0
220
0
230
1
2
ANSI31
70
0
71
0
91
1
92
5
93
3
72
1
10
-50
20
-41.4311548464824
11
-46.5000016925532
21
-40.9703711049296
72
1
10
-46.5000016925532
20
-40.9703711049296
11
-46.4999983074468
21
-41.8919385880352
72
1
10
-46.4999983074468
20
-41.8919385880352
11
-50
21
-41.4311548464824
97
0
75
0
76
1
52
0
41
0.0062
77
0
78
1
53
45
43
0
44
0
45
-0.0139193969876572
46
0.0139193969876572
79
0
47
0
98
1
10
0
20
0
0
HATCH
5
12A
100
AcDbEntity
8
SK2
62
256
6
ByLayer
370
13
48
1
60
0
100
AcDbHatch
10
0
20
0
30
0
210
0
220
0
230
1
2
ANSI31
70
0
71
0
91
1
92
5
93
3
72
1
10
59.6
20
-41.4311548464824
11
56.1000016925532
21
-41.8919385880352
72
1
10
56.1000016925532
20
-41.8919385880352
11
56.0999983074468
21
-40.9703711049296
72
1
10
56.0999983074468
20
-40.9703711049296
11
59.6
21
-41.4311548464824
97
0
75
0
76
1
52
0
41
0.0062
77
0
78
1
53
45
43
0
44
0
45
-0.0139193969876572
46
0.0139193969876572
79
0
47
0
98
1
10
0
20
0
0
DIMENSION
5
12E
100
AcDbEntity
8
2
62
256
6
ByLayer
370
18
48
1
60
0
100
AcDbDimension
2
_U0
10
17.6
20
-25.431155
30
0
11
38.6
21
-25.431155
31
0
70
32
71
1
72
1
41
1
210
0
220
0
230
1
3
Standard
100
AcDbAlignedDimension
13
59.6
23
-10.0001
33
0
14
17.6
24
-10.0001
34
0
50
0
100
AcDbRotatedDimension
1001
ACAD
1000
DSTYLE
1002
{
1070
   371
1070
    13
1070
   372
1070
    13
1070
   170
1070
     0
1070
   144
1040
1.0
1070
   277
1070
     2
1070
   284
1070
     8
1070
   278
1070
    46
1070
   146
1040
1.0
1070
   345
1005
16
1070
   347
1005
16
1070
   346
1005
16
1070
   344
1005
0
1070
   343
1005
0
1070
   172
1070
     1
1070
    76
1070
     0
1070
    75
1070
     0
1070
   282
1070
     0
1070
   281
1070
     0
1070
    71
1070
     0
1070
    74
1070
     0
1070
   279
1070
     0
1070
   173
1070
     1
1070
   340
1005
10D
1070
   271
1070
     2
1070
   272
1070
     2
1070
    77
1070
     1
1070
    73
1070
     1
1070
   171
1070
     3
1070
   274
1070
     4
1070
   177
1070
     2
1070
   176
1070
     2
1070
   178
1070
     2
1070
    78
1070
     8
1070
    48
1040
-0.1
1070
    41
1040
3.5
1070
   147
1040
1.75
1070
    42
1040
1.5875
1070
    44
1040
2.0
1070
   140
1040
3.5
1002
}
1001
ACAD_DSTYLE_DIM_LINETYPE
1070
   380
1005
16
1001
ACAD_DSTYLE_DIM_EXT1_LINETYPE
1070
   381
1005
16
1001
ACAD_DSTYLE_DIM_EXT2_LINETYPE
1070
   382
1005
16
0
ENDSEC
0
SECTION
2
OBJECTS
0
DICTIONARY
5
1b7
330
0
100
AcDbDictionary
280
0
281
1
3
ACAD_GROUP
350
1b8
3
ACAD_MLINESTYLE
350
1b9
0
DICTIONARY
5
1b8
330
0
100
AcDbDictionary
280
0
281
1
0
DICTIONARY
5
1b9
330
0
100
AcDbDictionary
280
0
281
1
3
Standard
350
18
0
MLINESTYLE
5
18
330
1b9
100
AcDbMlineStyle
2
Standard
70
0
3

62
256
51
90
52
90
71
2
49
-0.5
62
256
6
ByLayer
49
0.5
62
256
6
ByLayer
0
RASTERVARIABLES
5
1a5
330

100
AcDbRasterVariables
90
0
70
1
71
1
72
1
0
ENDSEC
0
EOF
