0
SECTION
2
HEADER
9
$ACADVER
1
AC1015
9
$DWGCODEPAGE
3
ANSI_1252
9
$HANDSEED
5
1c9
9
$ANGBASE
50
0
9
$ANGDIR
70
0
9
$ATTMODE
70
1
9
$AUNITS
70
0
9
$AUPREC
70
0
9
$CECOLOR
62
256
9
$CELTSCALE
40
1
9
$CELTYPE
6
ByLayer
9
$CELWEIGHT
370
18
9
$CLAYER
8
0
9
$CMLJUST
70
0
9
$CMLSCALE
40
1
9
$CMLSTYLE
2
Standard
9
$DIMSTYLE
2
Standard
9
$TEXTSIZE
40
0.2
9
$TEXTSTYLE
7
Standard
9
$LUNITS
70
2
9
$LUPREC
70
4
9
$EXTNAMES
290
1
9
$INSUNITS
70
4
9
$LTSCALE
40
1
9
$LWDISPLAY
290
1
9
$PDMODE
70
0
9
$PDSIZE
40
0
9
$PLINEGEN
70
0
0
ENDSEC
0
SECTION
2
CLASSES
0
CLASS
1
RASTERVARIABLES
2
AcDbRasterVariables
3
ISM
90
0
280
0
281
0
0
ENDSEC
0
SECTION
2
TABLES
0
TABLE
2
VPORT
5
1bf
100
AcDbSymbolTable
0
VPORT
5
1
100
AcDbSymbolTableRecord
100
AcDbViewportTableRecord
2
*Active
70
0
10
0
20
0
11
1
21
1
12
-1
22
1
13
0
23
0
14
0.5
24
0.5
15
10
25
10
16
0
26
0
36
1
17
0
27
0
37
0
0
ENDTAB
0
TABLE
2
LTYPE
5
1c0
100
AcDbSymbolTable
0
LTYPE
5
14
100
AcDbSymbolTableRecord
100
AcDbLinetypeTableRecord
70
0
2
ByBlock
3

72
65
73
0
40
0
0
LTYPE
5
15
100
AcDbSymbolTableRecord
100
AcDbLinetypeTableRecord
70
0
2
ByLayer
3

72
65
73
0
40
0
0
LTYPE
5
16
100
AcDbSymbolTableRecord
100
AcDbLinetypeTableRecord
70
0
2
Continuous
3
Solid line
72
65
73
0
40
0
0
LTYPE
5
6E
100
AcDbSymbolTableRecord
100
AcDbLinetypeTableRecord
70
0
2
CENTER
3
____ _ ____ _ ____ _ ____
72
65
73
4
40
47.5
49
22
74
0
49
-8.5
74
0
49
8.5
74
0
49
-8.5
74
0
0
LTYPE
5
6F
100
AcDbSymbolTableRecord
100
AcDbLinetypeTableRecord
70
0
2
DASHED
3
__ __ __ __ __ __ __ __ __
72
65
73
2
40
25.72
49
12.86
74
0
49
-12.86
74
0
0
ENDTAB
0
TABLE
2
LAYER
5
1c1
100
AcDbSymbolTable
0
LAYER
5
10
100
AcDbSymbolTableRecord
100
AcDbLayerTableRecord
2
0
70
0
62
7
6
Continuous
290
1
370
-3
390
0
0
LAYER
5
71
100
AcDbSymbolTableRecord
100
AcDbLayerTableRecord
2
81
70
0
62
-3
6
Continuous
290
1
370
-3
390
0
0
LAYER
5
73
100
AcDbSymbolTableRecord
100
AcDbLayerTableRecord
2
80
70
0
62
-6
6
Continuous
290
1
370
-3
390
0
0
LAYER
5
75
100
AcDbSymbolTableRecord
100
AcDbLayerTableRecord
2
1
70
0
62
4
6
Continuous
290
1
370
-3
390
0
0
LAYER
5
79
100
AcDbSymbolTableRecord
100
AcDbLayerTableRecord
2
4
70
0
62
-2
6
CENTER
290
1
370
-3
390
0
0
LAYER
5
A9
100
AcDbSymbolTableRecord
100
AcDbLayerTableRecord
2
2
70
0
62
7
6
Continuous
290
1
370
-3
390
0
0
LAYER
5
136
100
AcDbSymbolTableRecord
100
AcDbLayerTableRecord
2
Defpoints
70
0
62
7
6
Continuous
290
0
370
-3
390
0
0
LAYER
5
1ab
100
AcDbSymbolTableRecord
100
AcDbLayerTableRecord
2
SK4
70
0
62
2
6
CENTER
290
1
370
-3
390
0
0
LAYER
5
1ac
100
AcDbSymbolTableRecord
100
AcDbLayerTableRecord
2
SK1
70
0
62
4
6
Continuous
290
1
370
-3
390
0
0
LAYER
5
1ad
100
AcDbSymbolTableRecord
100
AcDbLayerTableRecord
2
SK2
70
0
62
7
6
Continuous
290
1
370
-3
390
0
0
LAYER
5
1ae
100
AcDbSymbolTableRecord
100
AcDbLayerTableRecord
2
SK6
70
0
62
5
6
Continuous
290
1
370
-3
390
0
0
ENDTAB
0
TABLE
2
STYLE
5
1c2
100
AcDbSymbolTable
0
STYLE
5
11
100
AcDbSymbolTableRecord
100
AcDbTextStyleTableRecord
2
Standard
3
txt
70
0
71
0
40
0
41
1
42
0
50
0
0
STYLE
5
112
100
AcDbSymbolTableRecord
100
AcDbTextStyleTableRecord
2
iso_b_vert
3
simplex.shx
70
0
71
0
40
0
41
1
42
0
50
0
0
STYLE
5
113
100
AcDbSymbolTableRecord
100
AcDbTextStyleTableRecord
2
DWGDirectTextStyle
3
simplex
70
0
71
0
40
0
41
1
42
0
50
0
0
ENDTAB
0
TABLE
2
DIMSTYLE
5
1c3
100
AcDbSymbolTable
100
AcDbDimStyleTable
0
DIMSTYLE
105
27
100
AcDbSymbolTableRecord
100
AcDbDimStyleTableRecord
2
Standard
70
0
3
<>
41
0.18
42
0.0625
44
0.18
140
0.18
147
0.09
73
0
74
0
77
1
271
2
275
0
278
52
280
0
340
11
0
ENDTAB
0
TABLE
2
VIEW
5
1c4
100
AcDbSymbolTable
0
ENDTAB
0
TABLE
2
UCS
5
1c5
100
AcDbSymbolTable
0
ENDTAB
0
TABLE
2
APPID
5
1c6
100
AcDbSymbolTable
0
APPID
5
12
100
AcDbSymbolTableRecord
100
AcDbRegAppTableRecord
2
ACAD
70
0
0
APPID
5
132
100
AcDbSymbolTableRecord
100
AcDbRegAppTableRecord
2
ACAD_DSTYLE_DIMBREAK
70
0
0
APPID
5
16A
100
AcDbSymbolTableRecord
100
AcDbRegAppTableRecord
2
ACAD_DSTYLE_DIM_LINETYPE
70
0
0
APPID
5
16B
100
AcDbSymbolTableRecord
100
AcDbRegAppTableRecord
2
ACAD_DSTYLE_DIM_EXT1_LINETYPE
70
0
0
APPID
5
16C
100
AcDbSymbolTableRecord
100
AcDbRegAppTableRecord
2
ACAD_DSTYLE_DIM_EXT2_LINETYPE
70
0
0
APPID
5
1A7
100
AcDbSymbolTableRecord
100
AcDbRegAppTableRecord
2
ACAD_MLEADERVER
70
0
0
ENDTAB
0
TABLE
2
BLOCK_RECORD
5
1c7
100
AcDbSymbolTable
0
BLOCK_RECORD
5
1F
100
AcDbSymbolTableRecord
100
AcDbBlockTableRecord
2
*Model_Space
340
0
70
0
0
BLOCK_RECORD
5
1B
100
AcDbSymbolTableRecord
100
AcDbBlockTableRecord
2
*Paper_Space
340
0
70
0
0
BLOCK_RECORD
5
23
100
AcDbSymbolTableRecord
100
AcDbBlockTableRecord
2
*Paper_Space0
340
0
70
0
0
BLOCK_RECORD
5
137
100
AcDbSymbolTableRecord
100
AcDbBlockTableRecord
2
*D1
340
0
70
0
0
BLOCK_RECORD
5
143
100
AcDbSymbolTableRecord
100
AcDbBlockTableRecord
2
_U0
340
0
70
0
0
ENDTAB
0
ENDSEC
0
SECTION
2
BLOCKS
0
BLOCK
5
20
100
AcDbEntity
8
0
100
AcDbBlockBegin
2
*Model_Space
70
0
10
0
20
0
30
0
3
*Model_Space
0
ENDBLK
5
21
100
AcDbEntity
8
0
100
AcDbBlockEnd
0
BLOCK
5
1C
100
AcDbEntity
8
0
100
AcDbBlockBegin
2
*Paper_Space
70
0
10
0
20
0
30
0
3
*Paper_Space
0
ENDBLK
5
1D
100
AcDbEntity
8
0
100
AcDbBlockEnd
0
BLOCK
5
24
100
AcDbEntity
8
0
100
AcDbBlockBegin
2
*Paper_Space0
70
0
10
0
20
0
30
0
3
*Paper_Space0
0
ENDBLK
5
25
100
AcDbEntity
8
0
100
AcDbBlockEnd
0
BLOCK
5
138
100
AcDbEntity
8
0
100
AcDbBlockBegin
2
*D1
70
1
10
0
20
0
30
0
3
*D1
0
LINE
5
13A
100
AcDbEntity
8
0
62
256
6
ByLayer
370
-2
48
1
60
0
100
AcDbLine
10
49
20
-9.5876
30
0
11
49
21
-24.732446
31
0
39
0
210
0
220
0
230
1
0
LINE
5
13B
100
AcDbEntity
8
0
62
256
6
ByLayer
370
-2
48
1
60
0
100
AcDbLine
10
15
20
-9.5876
30
0
11
15
21
-24.732446
31
0
39
0
210
0
220
0
230
1
0
LINE
5
13C
100
AcDbEntity
8
0
62
256
6
ByLayer
370
-2
48
1
60
0
100
AcDbLine
10
45.5
20
-22.732446
30
0
11
18.5
21
-22.732446
31
0
39
0
210
0
220
0
230
1
0
SOLID
5
13D
100
AcDbEntity
8
0
62
256
6
ByLayer
370
-1
48
1
60
0
100
AcDbTrace
10
45.5
20
-23.315779
30
0
11
45.5
21
-22.149113
31
0
12
49
22
-22.732446
32
0
13
49
23
-22.732446
33
0
39
0
210
0
220
0
230
1
0
SOLID
5
13E
100
AcDbEntity
8
0
62
256
6
ByLayer
370
-1
48
1
60
0
100
AcDbTrace
10
18.5
20
-22.149113
30
0
11
18.5
21
-23.315779
31
0
12
15
22
-22.732446
32
0
13
15
23
-22.732446
33
0
39
0
210
0
220
0
230
1
0
MTEXT
5
13F
100
AcDbEntity
8
0
62
256
6
ByLayer
370
18
48
1
60
0
100
AcDbMText
10
32
20
-15.732446
30
0
210
0
220
0
230
1
1
\A1;34
40
3.5
41
0
44
1
50
0
71
5
72
5
7
iso_b_vert
0
POINT
5
140
100
AcDbEntity
8
Defpoints
62
0
6
ByLayer
370
-1
48
1
60
0
100
AcDbPoint
10
49
20
-8.0001
30
0
39
0
210
0
220
0
230
1
50
360
0
POINT
5
141
100
AcDbEntity
8
Defpoints
62
0
6
ByLayer
370
-1
48
1
60
0
100
AcDbPoint
10
15
20
-8.0001
30
0
39
0
210
0
220
0
230
1
50
360
0
POINT
5
142
100
AcDbEntity
8
Defpoints
62
0
6
ByLayer
370
-1
48
1
60
0
100
AcDbPoint
10
15
20
-22.732446
30
0
39
0
210
0
220
0
230
1
50
360
0
ENDBLK
5
139
100
AcDbEntity
8
0
100
AcDbBlockEnd
0
BLOCK
5
14A
100
AcDbEntity
8
0
100
AcDbBlockBegin
2
_U0
70
0
10
0
20
0
30
0
3
_U0
0
MTEXT
5
144
100
AcDbEntity
8
2
62
256
6
ByLayer
370
18
48
1
60
0
100
AcDbMText
10
29.910767
20
-21.699813
30
0
210
0
220
0
230
1
1
\W0.7167;34
40
3.5
41
0
44
1.084337
50
0
71
7
72
5
7
iso_b_vert
0
LINE
5
145
100
AcDbEntity
8
2
62
256
6
ByLayer
370
13
48
1
60
0
100
AcDbLine
10
49
20
-9.5876
30
0
11
49
21
-24.732446
31
0
39
0
210
0
220
0
230
1
0
LINE
5
146
100
AcDbEntity
8
2
62
256
6
ByLayer
370
13
48
1
60
0
100
AcDbLine
10
15
20
-9.5876
30
0
11
15
21
-24.732446
31
0
39
0
210
0
220
0
230
1
0
LINE
5
147
100
AcDbEntity
8
2
62
256
6
ByLayer
370
13
48
1
60
0
100
AcDbLine
10
49
20
-22.732446
30
0
11
15
21
-22.732446
31
0
39
0
210
0
220
0
230
1
0
SOLID
5
148
100
AcDbEntity
8
2
62
256
6
ByLayer
370
18
48
1
60
0
100
AcDbTrace
10
49
20
-22.732446
30
0
11
45.500002
21
-23.19323
31
0
12
45.499998
22
-22.271662
32
0
13
45.499998
23
-22.271662
33
0
39
0
210
0
220
0
230
1
0
SOLID
5
149
100
AcDbEntity
8
2
62
256
6
ByLayer
370
18
48
1
60
0
100
AcDbTrace
10
15
20
-22.732446
30
0
11
18.499998
21
-22.271662
31
0
12
18.500002
22
-23.19323
32
0
13
18.500002
23
-23.19323
33
0
39
0
210
0
220
0
230
1
0
ENDBLK
5
14B
100
AcDbEntity
8
0
100
AcDbBlockEnd
0
ENDSEC
0
SECTION
2
ENTITIES
0
ELLIPSE
5
BB
100
AcDbEntity
8
1
62
256
6
ByLayer
370
18
48
1
60
0
100
AcDbEllipse
10
48.446824
20
-0.512484
30
0
11
0.097728067822967
21
-1.92714349707115
31
0
210
0
220
0
230
1
40
0.053806
41
-0.0553273528545645
42
1.58440701140535
0
ELLIPSE
5
BC
100
AcDbEntity
8
1
62
256
6
ByLayer
370
18
48
1
60
0
100
AcDbEllipse
10
48.164934
20
-0.99789
30
0
11
0.318957769417498
21
-0.92714258372215
31
0
210
0
220
0
230
1
40
0.475371
41
2.88763163755318
42
-2.17707612177226
0
ELLIPSE
5
BD
100
AcDbEntity
8
1
62
256
6
ByLayer
370
18
48
1
60
0
100
AcDbEllipse
10
73.803966
20
-44.658361
30
0
11
29.3542337470655
21
-49.6453676508916
31
0
210
0
220
0
230
1
40
0.008602
41
-2.62868065058169
42
-2.59272044271434
0
ELLIPSE
5
BE
100
AcDbEntity
8
1
62
256
6
ByLayer
370
13
48
1
60
0
100
AcDbEllipse
10
6.313943
20
-12.944441
30
0
11
53.7899677823632
21
-49.4582544487383
31
0
210
0
220
0
230
1
40
0.18697
41
1.62243075164214
42
1.74743229471692
0
POINT
5
70
100
AcDbEntity
8
81
62
256
6
ByLayer
370
18
48
1
60
0
100
AcDbPoint
10
49
20
0
30
0
39
0
210
0
220
0
230
1
50
360
0
POINT
5
72
100
AcDbEntity
8
80
62
256
6
ByLayer
370
18
48
1
60
0
100
AcDbPoint
10
0
20
0
30
0
39
0
210
0
220
0
230
1
50
360
0
POINT
5
74
100
AcDbEntity
8
1
62
256
6
ByLayer
370
18
48
1
60
1
100
AcDbPoint
10
49
20
-8.0001
30
0
39
0
210
0
220
0
230
1
50
360
0
POINT
5
76
100
AcDbEntity
8
1
62
256
6
ByLayer
370
18
48
1
60
1
100
AcDbPoint
10
15
20
-8.0001
30
0
39
0
210
0
220
0
230
1
50
360
0
SPLINE
5
BF
100
AcDbEntity
8
1
62
256
6
ByLayer
370
18
48
1
60
0
100
AcDbSpline
70
4
71
3
72
28
73
24
40
0
40
0
40
0
40
0
40
0.172327818482472
40
0.172327818482472
40
0.44821854565501
40
0.44821854565501
40
0.586163909241268
40
0.586163909241268
40
0.65513659103439
40
0.65513659103439
40
0.724109272827511
40
0.724109272827511
40
0.793081954620632
40
0.793081954620632
40
0.862054636413753
40
0.862054636413753
40
0.896540977310315
40
0.896540977310315
40
0.931027318206876
40
0.931027318206876
40
0.965513659103438
40
0.965513659103438
40
1
40
1
40
1
40
1
41
1
10
48.6631234192182
20
-1.70515719890997
30
0
41
1
10
48.6714841094503
20
-1.6760024159484
30
0
41
1
10
48.6797904045839
20
-1.64694372487125
30
0
41
1
10
48.7012161585877
20
-1.57167865065509
30
0
41
1
10
48.7142344277263
20
-1.52565102465167
30
0
41
1
10
48.7332974223423
20
-1.45742998943234
30
0
41
1
10
48.7395732628606
20
-1.43482830299257
30
0
41
1
10
48.748805071785
20
-1.4012472011261
30
0
41
1
10
48.7518516433932
20
-1.39010773024126
30
0
41
1
10
48.7578636931818
20
-1.36797204439762
30
0
41
1
10
48.7608243163278
20
-1.35699353778477
30
0
41
1
10
48.7665646735579
20
-1.33549372914564
30
0
41
1
10
48.7693538369459
20
-1.32493860957246
30
0
41
1
10
48.7746842253664
20
-1.3044420338683
30
0
41
1
10
48.7772009381835
20
-1.29459672972635
30
0
41
1
10
48.780636485401
20
-1.28075024824682
30
0
41
1
10
48.7817243951383
20
-1.27629019448594
30
0
41
1
10
48.7837507557375
20
-1.26777572357074
30
0
41
1
10
48.7846923402106
20
-1.26370599799952
30
0
41
1
10
48.7863319237247
20
-1.25630484518592
30
0
41
1
10
48.7870357799924
20
-1.25295015840635
30
0
41
1
10
48.7881478391141
20
-1.24712285684848
30
0
41
1
10
48.7885500784325
20
-1.24467156770592
30
0
41
1
10
48.7887579926166
20
-1.24285283076824
30
0
0
SPLINE
5
C0
100
AcDbEntity
8
1
62
256
6
ByLayer
370
18
48
1
60
0
100
AcDbSpline
70
4
71
1
72
4
73
2
40
0
40
0
40
1
40
1
41
1
10
48.7887579926178
20
-1.24285283075852
30
0
41
1
10
48.7874630155927
20
-1.24259062688563
30
0
0
SPLINE
5
C1
100
AcDbEntity
8
1
62
256
6
ByLayer
370
18
48
1
60
0
100
AcDbSpline
70
4
71
1
72
4
73
2
40
0
40
0
40
1
40
1
41
1
10
48.7874630155927
20
-1.24259062688563
30
0
41
1
10
48.7838520740108
20
-1.2418594920089
30
0
0
SPLINE
5
C2
100
AcDbEntity
8
1
62
256
6
ByLayer
370
18
48
1
60
0
100
AcDbSpline
70
4
71
1
72
4
73
2
40
0
40
0
40
1
40
1
41
1
10
48.7874630155927
20
-1.24259062688563
30
0
41
1
10
48.9220765984086
20
-0.195926585969715
30
0
0
SPLINE
5
C3
100
AcDbEntity
8
1
62
256
6
ByLayer
370
18
48
1
60
0
100
AcDbSpline
70
4
71
1
72
4
73
2
40
0
40
0
40
1
40
1
41
1
10
48.9472731627553
20
-1.51682317835E-05
30
0
41
1
10
48.9723916515361
20
0.195289186789722
30
0
0
SPLINE
5
C4
100
AcDbEntity
8
1
62
256
6
ByLayer
370
18
48
1
60
0
100
AcDbSpline
70
4
71
5
72
33
73
27
40
0
40
0
40
0
40
0
40
0
40
0
40
0.0005815358945265
40
0.037081567541875
40
0.110247507783139
40
0.147125804561784
40
0.184457171107369
40
0.221232368039833
40
0.29487955223171
40
0.368798817150364
40
0.403092931394976
40
0.433383146247192
40
0.469355885720905
40
0.506373841774506
40
0.580721394728225
40
0.654035146233644
40
0.68378952693409
40
0.718557756214113
40
0.75578672231315
40
0.830622157628315
40
0.905739508927716
40
0.943548026829394
40
0.981133849699613
40
1
40
1
40
1
40
1
40
1
40
1
41
1
10
48.9737182125226
20
7.49208015536607
30
0
41
1
10
48.9737184405056
20
7.49215772024297
30
0
41
1
10
48.9737320155456
20
7.49710357112079
30
0
41
1
10
48.9735899575231
20
7.51179586226002
30
0
41
1
10
48.9726788403913
20
7.53133834238918
30
0
41
1
10
48.9703373814216
20
7.55571127582252
30
0
41
1
10
48.9657229395032
20
7.58476462050817
30
0
41
1
10
48.958255900892
20
7.61827340034199
30
0
41
1
10
48.9487736139371
20
7.65110027670988
30
0
41
1
10
48.9370959323667
20
7.682585365828
30
0
41
1
10
48.9235675473497
20
7.71229958150289
30
0
41
1
10
48.9078958607966
20
7.74109759924786
30
0
41
1
10
48.8931128823451
20
7.76484448221387
30
0
41
1
10
48.8773000917233
20
7.78781658299914
30
0
41
1
10
48.8571331746064
20
7.81368427913671
30
0
41
1
10
48.8352587425053
20
7.83787044194
30
0
41
1
10
48.811747615205
20
7.86043396584651
30
0
41
1
10
48.7864793191581
20
7.88144825066465
30
0
41
1
10
48.7600930997983
20
7.90090892901543
30
0
41
1
10
48.7325903734477
20
7.91879981239759
30
0
41
1
10
48.7030523476562
20
7.93507202583834
30
0
41
1
10
48.6719647128934
20
7.94932967156609
30
0
41
1
10
48.6418362297723
20
7.96049857835021
30
0
41
1
10
48.6206027029454
20
7.96704452413601
30
0
41
1
10
48.6087169646221
20
7.97030842070899
30
0
41
1
10
48.6015762130075
20
7.97212746202086
30
0
41
1
10
48.5991873246184
20
7.97272024753303
30
0
0
SPLINE
5
C5
100
AcDbEntity
8
1
62
256
6
ByLayer
370
13
48
1
60
0
100
AcDbSpline
70
4
71
1
72
4
73
2
40
0
40
0
40
1
40
1
41
1
10
48.7874630155927
20
-7.2009373889193
30
0
41
1
10
48.9723916515361
20
-7.46740488143087
30
0
0
SPLINE
5
C6
100
AcDbEntity
8
1
62
256
6
ByLayer
370
18
48
1
60
0
100
AcDbSpline
70
4
71
5
72
33
73
27
40
0
40
0
40
0
40
0
40
0
40
0
40
0.0005815358938258
40
0.0370815675407094
40
0.110247507781042
40
0.147125804559217
40
0.184457171104326
40
0.221232368036323
40
0.294879552227261
40
0.368798817144973
40
0.403092931389149
40
0.433383146240979
40
0.469355885714234
40
0.506373841767364
40
0.580721394720136
40
0.654035146224621
40
0.683789526924688
40
0.718557756204269
40
0.755786722302831
40
0.830622157617044
40
0.905739508915488
40
0.943548026816684
40
0.981133849686424
40
1
40
1
40
1
40
1
40
1
40
1
41
1
10
48.9737182125225
20
-7.49208015536692
30
0
41
1
10
48.9737184405055
20
-7.49215772024374
30
0
41
1
10
48.9737320155456
20
-7.49710357112147
30
0
41
1
10
48.973589957523
20
-7.51179586226058
30
0
41
1
10
48.9726788403913
20
-7.53133834238966
30
0
41
1
10
48.9703373814215
20
-7.55571127582292
30
0
41
1
10
48.9657229395032
20
-7.58476462050857
30
0
41
1
10
48.958255900892
20
-7.61827340034239
30
0
41
1
10
48.9487736139371
20
-7.65110027671025
30
0
41
1
10
48.9370959323667
20
-7.6825853658284
30
0
41
1
10
48.9235675473496
20
-7.71229958150326
30
0
41
1
10
48.9078958607966
20
-7.74109759924823
30
0
41
1
10
48.893112882345
20
-7.76484448221427
30
0
41
1
10
48.8773000917232
20
-7.78781658299954
30
0
41
1
10
48.8571331746064
20
-7.81368427913708
30
0
41
1
10
48.8352587425053
20
-7.8378704419404
30
0
41
1
10
48.8117476152049
20
-7.86043396584691
30
0
41
1
10
48.7864793191581
20
-7.88144825066505
30
0
41
1
10
48.7600930997983
20
-7.90090892901583
30
0
41
1
10
48.7325903734477
20
-7.91879981239799
30
0
41
1
10
48.7030523476561
20
-7.93507202583871
30
0
41
1
10
48.6719647128933
20
-7.94932967156649
30
0
41
1
10
48.6418362297705
20
-7.96049857835121
30
0
41
1
10
48.620602702942
20
-7.96704452413746
30
0
41
1
10
48.608716964617
20
-7.97030842071075
30
0
41
1
10
48.6015762130007
20
-7.972127462023
30
0
41
1
10
48.5991873246098
20
-7.97272024753553
30
0
0
SPLINE
5
C7
100
AcDbEntity
8
1
62
256
6
ByLayer
370
18
48
1
60
0
100
AcDbSpline
70
4
71
3
72
28
73
24
40
0
40
0
40
0
40
0
40
0.249999999999994
40
0.249999999999994
40
0.37499999999999
40
0.37499999999999
40
0.499999999999986
40
0.499999999999986
40
0.624999999999982
40
0.624999999999982
40
0.749999999999978
40
0.749999999999978
40
0.812499999999984
40
0.812499999999984
40
0.87499999999999
40
0.87499999999999
40
0.906249999999992
40
0.906249999999992
40
0.937499999999995
40
0.937499999999995
40
0.968749999999997
40
0.968749999999997
40
1
40
1
40
1
40
1
41
1
10
48.6479941480047
20
-7.39957121625648
30
0
41
1
10
48.6615196602412
20
-7.39587630247439
30
0
41
1
10
48.6749623287733
20
-7.3911443130593
30
0
41
1
10
48.694867911016
20
-7.38171116245241
30
0
41
1
10
48.7014599042289
20
-7.37817286255543
30
0
41
1
10
48.7145309966639
20
-7.37006686701974
30
0
41
1
10
48.7210125452908
20
-7.36550046923614
30
0
41
1
10
48.7337799186753
20
-7.35497971585451
30
0
41
1
10
48.7400772061854
20
-7.34902623407118
30
0
41
1
10
48.752362782528
20
-7.33505093993875
30
0
41
1
10
48.7583314650519
20
-7.3270853638227
30
0
41
1
10
48.7668292204116
20
-7.31257981525863
30
0
41
1
10
48.7695894689573
20
-7.3073022226979
30
0
41
1
10
48.7748635159255
20
-7.29551835261887
30
0
41
1
10
48.7773598170385
20
-7.28906469114435
30
0
41
1
10
48.7807757928624
20
-7.27807301035176
30
0
41
1
10
48.7818609337934
20
-7.2741747563627
30
0
41
1
10
48.7838508798263
20
-7.26594953625218
30
0
41
1
10
48.7847602560045
20
-7.26161108549215
30
0
41
1
10
48.7863625403261
20
-7.25236304963593
30
0
41
1
10
48.7870559584492
20
-7.24745481008139
30
0
41
1
10
48.7881577395741
20
-7.23688623485918
30
0
41
1
10
48.7885515945824
20
-7.23133309543474
30
0
41
1
10
48.7887579926178
20
-7.22556715287115
30
0
0
SPLINE
5
C8
100
AcDbEntity
8
1
62
256
6
ByLayer
370
18
48
1
60
0
100
AcDbSpline
70
4
71
1
72
4
73
2
40
0
40
0
40
1
40
1
41
1
10
48.7887579926177
20
-7.22556715287089
30
0
41
1
10
48.7874630155927
20
-7.20093738891933
30
0
0
SPLINE
5
C9
100
AcDbEntity
8
1
62
256
6
ByLayer
370
18
48
1
60
0
100
AcDbSpline
70
4
71
1
72
4
73
2
40
0
40
0
40
1
40
1
41
1
10
48.7874630155927
20
-7.20093738891933
30
0
41
1
10
48.7838520740107
20
-7.1322592293109
30
0
0
SPLINE
5
CA
100
AcDbEntity
8
1
62
256
6
ByLayer
370
18
48
1
60
0
100
AcDbSpline
70
4
71
3
72
57
73
53
40
0
40
0
40
0
40
0
40
0.0490139112041393
40
0.0490139112041393
40
0.119639120769871
40
0.119639120769871
40
0.137295423161304
40
0.137295423161304
40
0.154951725552736
40
0.154951725552736
40
0.190264330335602
40
0.190264330335602
40
0.260889539901334
40
0.260889539901334
40
0.2962021446842
40
0.2962021446842
40
0.313858447075633
40
0.313858447075633
40
0.331514749467065
40
0.331514749467065
40
0.402139959032796
40
0.402139959032796
40
0.437452563815661
40
0.455108866207094
40
0.455108866207094
40
0.472765168598527
40
0.472765168598527
40
0.543390378164259
40
0.543390378164259
40
0.614015587729991
40
0.614015587729991
40
0.631671890121424
40
0.631671890121424
40
0.649328192512856
40
0.649328192512856
40
0.684640797295723
40
0.684640797295723
40
0.755266006861455
40
0.755266006861455
40
0.790578611644321
40
0.790578611644321
40
0.808234914035755
40
0.808234914035755
40
0.825891216427189
40
0.896516425992924
40
0.896516425992924
40
0.93182903077579
40
0.949485333167224
40
0.949485333167224
40
0.967141635558657
40
0.967141635558657
40
1
40
1
40
1
40
1
41
1
10
13.2496601322675
20
4.64264725392357
30
0
41
1
10
13.6561206771668
20
4.61935725154407
30
0
41
1
10
14.0619726115287
20
4.58513107238912
30
0
41
1
10
15.0523483025915
20
4.47549845581796
30
0
41
1
10
15.6367477423398
20
4.3885877996853
30
0
41
1
10
16.3687947135589
20
4.2533877377964
30
0
41
1
10
16.5152815525234
20
4.22502067354702
30
0
41
1
10
16.8084566166635
20
4.16566619464814
30
0
41
1
10
16.9551240002036
20
4.134681483268
30
0
41
1
10
17.3946428546288
20
4.0380495860021
30
0
41
1
10
17.6872922453005
20
3.96866842504338
30
0
41
1
10
18.5647066090877
20
3.7463599784985
30
0
41
1
10
19.1489375503924
20
3.579257212339
30
0
41
1
10
20.0264273029099
20
3.30328768145554
30
0
41
1
10
20.3191144029467
20
3.20708110284559
30
0
41
1
10
20.7587088428023
20
3.05685056870337
30
0
41
1
10
20.9054006038725
20
3.00576316391965
30
0
41
1
10
21.1985216233513
20
2.90186324336861
30
0
41
1
10
21.344984615787
20
2.84904012396203
30
0
41
1
10
22.0769281549985
20
2.58077551609648
30
0
41
1
10
22.6612953358185
20
2.35288076196102
30
0
41
1
10
23.5382780799952
20
1.99534089143094
30
0
41
1
10
23.9768771523538
20
1.8126483326385
30
0
41
1
10
24.4160531011472
20
1.62488648490955
30
0
41
1
10
24.7090116717346
20
1.49867794879319
30
0
41
1
10
24.8556248456876
20
1.43503622406646
30
0
41
1
10
25.5887178231885
20
1.11470582298614
30
0
41
1
10
26.1735262834358
20
0.852426323336431
30
0
41
1
10
27.342771931903
20
0.322295102485839
30
0
41
1
10
27.927207053446
20
0.0544388781289058
30
0
41
1
10
28.659361767797
20
-0.279816573368862
30
0
41
1
10
28.8058733179573
20
-0.346639168118912
30
0
41
1
10
29.0991041605188
20
-0.480124741754537
30
0
41
1
10
29.2457240806831
20
-0.546742305289598
30
0
41
1
10
29.6851699418594
20
-0.74584235003465
30
0
41
1
10
29.9777833418344
20
-0.877663440742793
30
0
41
1
10
30.855127465573
20
-1.26920282295512
30
0
41
1
10
31.4393618197021
20
-1.52499406395572
30
0
41
1
10
32.3169321075659
20
-1.89617129669014
30
0
41
1
10
32.6096586401907
20
-2.01781309470451
30
0
41
1
10
33.0493312598408
20
-2.19657273846127
30
0
41
1
10
33.196024311696
20
-2.25555670353097
30
0
41
1
10
33.489093016686
20
-2.37197492134007
30
0
41
1
10
34.2212928598356
20
-2.65928188672166
30
0
41
1
10
34.9517157781331
20
-2.92683116045254
30
0
41
1
10
35.8287304795277
20
-3.22511489631509
30
0
41
1
10
36.2673643599503
20
-3.36856651828427
30
0
41
1
10
36.7066035048886
20
-3.50279654444341
30
0
41
1
10
36.999610543462
20
-3.59015928248735
30
0
41
1
10
37.1462737636389
20
-3.63279795628651
30
0
41
1
10
37.5656693792785
20
-3.75149281118667
30
0
41
1
10
37.8381247748429
20
-3.82468545494041
30
0
41
1
10
38.1103795702347
20
-3.89370016134308
30
0
0
SPLINE
5
CB
100
AcDbEntity
8
1
62
256
6
ByLayer
370
18
48
1
60
0
100
AcDbSpline
70
4
71
3
72
26
73
22
40
0
40
0
40
0
40
0
40
0.124999999999987
40
0.124999999999987
40
0.249999999999974
40
0.249999999999974
40
0.374999999999961
40
0.374999999999961
40
0.437499999999961
40
0.437499999999961
40
0.499999999999961
40
0.499999999999961
40
0.624999999999962
40
0.624999999999962
40
0.749999999999963
40
0.749999999999963
40
0.812499999999972
40
0.812499999999972
40
0.874999999999981
40
0.874999999999981
40
1
40
1
40
1
40
1
41
1
10
47.6210018460231
20
-0.594190803933969
30
0
41
1
10
47.6215014604078
20
-0.632814940260914
30
0
41
1
10
47.625505700939
20
-0.671243682955208
30
0
41
1
10
47.6387879496892
20
-0.747972500091805
30
0
41
1
10
47.6480846298881
20
-0.786269752959328
30
0
41
1
10
47.6709951179897
20
-0.862964966081506
30
0
41
1
10
47.6846165387085
20
-0.90136036561583
30
0
41
1
10
47.7078301399938
20
-0.959238761753767
30
0
41
1
10
47.7160502333194
20
-0.97861388235134
30
0
41
1
10
47.7332178072469
20
-1.0171886525074
30
0
41
1
10
47.7421763191575
20
-1.03641928558884
30
0
41
1
10
47.7700643861998
20
-1.09402972576706
30
0
41
1
10
47.7900039647824
20
-1.13232083520637
30
0
41
1
10
47.8320795906461
20
-1.2092581124742
30
0
41
1
10
47.8542172000588
20
-1.24789374454858
30
0
41
1
10
47.8887467507165
20
-1.30680641199092
30
0
41
1
10
47.9004938079138
20
-1.32663446539033
30
0
41
1
10
47.923991658145
20
-1.366150772802
30
0
41
1
10
47.9357822665537
20
-1.38590819451926
30
0
41
1
10
47.9710934875602
20
-1.44530375507361
30
0
41
1
10
47.9945293127736
20
-1.48507763284971
30
0
41
1
10
48.0174942401136
20
-1.52530705702972
30
0
0
SPLINE
5
CC
100
AcDbEntity
8
1
62
256
6
ByLayer
370
18
48
1
60
0
100
AcDbSpline
70
4
71
3
72
59
73
55
40
0
40
0
40
0
40
0
40
0.0624999999999771
40
0.0624999999999771
40
0.0937499999999669
40
0.0937499999999669
40
0.109374999999962
40
0.109374999999962
40
0.124999999999957
40
0.124999999999957
40
0.187499999999939
40
0.187499999999939
40
0.21874999999993
40
0.21874999999993
40
0.234374999999925
40
0.234374999999925
40
0.249999999999921
40
0.249999999999921
40
0.312499999999901
40
0.312499999999901
40
0.320312499999899
40
0.320312499999899
40
0.328124999999898
40
0.343749999999894
40
0.343749999999894
40
0.374999999999891
40
0.374999999999891
40
0.390624999999892
40
0.390624999999892
40
0.406249999999893
40
0.406249999999893
40
0.43749999999989
40
0.43749999999989
40
0.499999999999884
40
0.499999999999884
40
0.515624999999885
40
0.515624999999885
40
0.531249999999887
40
0.531249999999887
40
0.562499999999897
40
0.562499999999897
40
0.624999999999911
40
0.624999999999911
40
0.687499999999925
40
0.687499999999925
40
0.749999999999938
40
0.749999999999938
40
0.812499999999952
40
0.812499999999952
40
0.843749999999958
40
0.843749999999958
40
0.874999999999965
40
0.874999999999965
40
1
40
1
40
1
40
1
41
1
10
48.3897056268145
20
7.98579482842601
30
0
41
1
10
48.4373456896809
20
7.88780115338307
30
0
41
1
10
48.4820404292831
20
7.78855738347289
30
0
41
1
10
48.5419707076627
20
7.63667322684904
30
0
41
1
10
48.5607534817877
20
7.58553840685963
30
0
41
1
10
48.5866888261907
20
7.50788594726706
30
0
41
1
10
48.5949598543364
20
7.48184301903345
30
0
41
1
10
48.6106654152666
20
7.42940212562698
30
0
41
1
10
48.6180961339314
20
7.40300986419879
30
0
41
1
10
48.6527055541975
20
7.27092300173069
30
0
41
1
10
48.6725234641398
20
7.16422811268669
30
0
41
1
10
48.6858390676781
20
7.00204741936071
30
0
41
1
10
48.6875203526669
20
6.94762792327549
30
0
41
1
10
48.6851175123678
20
6.86535699018737
30
0
41
1
10
48.6834943987374
20
6.83782621886499
30
0
41
1
10
48.6784530390544
20
6.78253077348398
30
0
41
1
10
48.6750538307901
20
6.75501736136681
30
0
41
1
10
48.6536773532875
20
6.61883276565186
30
0
41
1
10
48.6224473953337
20
6.51360631350761
30
0
41
1
10
48.5711834168255
20
6.39947493252319
30
0
41
1
10
48.5652647138047
20
6.3868563562535
30
0
41
1
10
48.5530738588208
20
6.36191598994006
30
0
41
1
10
48.534226728022
20
6.32488090717106
30
0
41
1
10
48.5137528677631
20
6.28893485813717
30
0
41
1
10
48.4707738789001
20
6.21840261726041
30
0
41
1
10
48.4394162430552
20
6.17319200268358
30
0
41
1
10
48.3888071059646
20
6.10776785693213
30
0
41
1
10
48.3713440315576
20
6.08635704175421
30
0
41
1
10
48.3352735390621
20
6.04430150613129
30
0
41
1
10
48.3167047136241
20
6.0237098942296
30
0
41
1
10
48.2599088889511
20
5.9636158084372
30
0
41
1
10
48.2204340920676
20
5.92560083591491
30
0
41
1
10
48.0978534973292
20
5.81683917599719
30
0
41
1
10
48.0106224573085
20
5.75133638826597
30
0
41
1
10
47.8964377725324
20
5.67599921735822
30
0
41
1
10
47.8733411454157
20
5.66126189450125
30
0
41
1
10
47.8266631495167
20
5.63240343967908
30
0
41
1
10
47.8030791205172
20
5.61828237065291
30
0
41
1
10
47.7320702633506
20
5.57701929039501
30
0
41
1
10
47.6842456341757
20
5.55088332619707
30
0
41
1
10
47.539556362598
20
5.47591271509512
30
0
41
1
10
47.4414885392988
20
5.43048083739444
30
0
41
1
10
47.2430098200226
20
5.34624362964874
30
0
41
1
10
47.142592373835
20
5.30745682454494
30
0
41
1
10
46.9399583434779
20
5.23497143617942
30
0
41
1
10
46.8377386493579
20
5.20128164830669
30
0
41
1
10
46.6318733392815
20
5.13793478528575
30
0
41
1
10
46.5282259742819
20
5.10828265668309
30
0
41
1
10
46.371886595141
20
5.06626023097033
30
0
41
1
10
46.3196282391501
20
5.0526634860299
30
0
41
1
10
46.2148488216845
20
5.02621296516645
30
0
41
1
10
46.1623348379983
20
5.01336153841027
30
0
41
1
10
45.8997075102953
20
4.9509187081328
30
0
41
1
10
45.6889757227398
20
4.90657004115531
30
0
41
1
10
45.4778015204841
20
4.86615834616262
30
0
0
SPLINE
5
CD
100
AcDbEntity
8
1
62
256
6
ByLayer
370
18
48
1
60
0
100
AcDbSpline
70
4
71
3
72
18
73
14
40
0
40
0
40
0
40
0
40
0.129678081963616
40
0.129678081963616
40
0.21671027376722
40
0.21671027376722
40
0.303742465570824
40
0.303742465570824
40
0.651871232785412
40
0.651871232785412
40
0.825935616392706
40
0.825935616392706
40
1
40
1
40
1
40
1
41
1
10
45.0380783278932
20
4.7568477521238
30
0
41
1
10
45.056042146406
20
4.76186414150948
30
0
41
1
10
45.0742754775844
20
4.76695567835222
30
0
41
1
10
45.105219720693
20
4.77554588193561
30
0
41
1
10
45.1177769613019
20
4.77901806548931
30
0
41
1
10
45.1428929799688
20
4.7859172457388
30
0
41
1
10
45.1554840202577
20
4.78935322934669
30
0
41
1
10
45.2186123288736
20
4.80642346255866
30
0
41
1
10
45.2696665622981
20
4.8197277524682
30
0
41
1
10
45.3472547706776
20
4.8383812990121
30
0
41
1
10
45.3733273476068
20
4.84439121771086
30
0
41
1
10
45.4256656842357
20
4.85580636832134
30
0
41
1
10
45.451762707058
20
4.86117538624188
30
0
41
1
10
45.4778015204711
20
4.8661583461602
30
0
0
SPLINE
5
CE
100
AcDbEntity
8
1
62
256
6
ByLayer
370
18
48
1
60
0
100
AcDbSpline
70
4
71
3
72
8
73
4
40
0
40
0
40
0
40
0
40
1
40
1
40
1
40
1
41
1
10
48.3898470699965
20
7.98590517097699
30
0
41
1
10
48.4596292163162
20
7.98153718522542
30
0
41
1
10
48.529409293597
20
7.97714209538549
30
0
41
1
10
48.5991873246142
20
7.97272024753408
30
0
0
SPLINE
5
CF
100
AcDbEntity
8
1
62
256
6
ByLayer
370
18
48
1
60
0
100
AcDbSpline
70
4
71
3
72
18
73
14
40
0
40
0
40
0
40
0
40
0.166334000665797
40
0.166334000665797
40
0.332668001331595
40
0.332668001331595
40
0.499002001997392
40
0.499002001997392
40
0.665336002663189
40
0.665336002663189
40
0.831670003328987
40
0.998004003994784
40
1
40
1
40
1
40
1
41
1
10
48.3897553387095
20
7.98579714183708
30
0
41
1
10
48.0419453787643
20
7.9696119876929
30
0
41
1
10
47.6941354188192
20
7.93959411288205
30
0
41
1
10
46.9985154989289
20
7.85220414637132
30
0
41
1
10
46.6507055389837
20
7.79483221178148
30
0
41
1
10
45.9550856190934
20
7.65332926270202
30
0
41
1
10
45.6072756591483
20
7.56919850245231
30
0
41
1
10
44.9116557392579
20
7.37505066829937
30
0
41
1
10
44.5638457793129
20
7.26503394255931
30
0
41
1
10
43.8682258594224
20
7.02025551521609
30
0
41
1
10
43.1726059395323
20
6.75073298947802
30
0
41
1
10
42.4728123252207
20
6.43262006486898
30
0
41
1
10
42.1208286708544
20
6.26149991016834
30
0
41
1
10
42.1166549764332
20
6.259469268278
30
0
0
SPLINE
5
D0
100
AcDbEntity
8
1
62
256
6
ByLayer
370
18
48
1
60
0
100
AcDbSpline
70
4
71
3
72
12
73
8
40
0
40
0
40
0
40
0
40
0.326372408988268
40
0.326372408988268
40
0.663186204494134
40
0.663186204494134
40
1
40
1
40
1
40
1
41
1
10
18.0979420050762
20
-7.93890024853911
30
0
41
1
10
17.7609143179325
20
-7.97138248339272
30
0
41
1
10
17.4238866307889
20
-7.99095456202977
30
0
41
1
10
16.7390489837001
20
-8.00429382935297
30
0
41
1
10
16.3912390237549
20
-7.99721540745736
30
0
41
1
10
15.6956191038646
20
-7.95542582119589
30
0
41
1
10
15.3478091439195
20
-7.92071473287396
30
0
41
1
10
14.9999991839743
20
-7.87236728763784
30
0
0
SPLINE
5
D1
100
AcDbEntity
8
1
62
256
6
ByLayer
370
18
48
1
60
0
100
AcDbSpline
70
4
71
3
72
16
73
12
40
0
40
0
40
0
40
0
40
0.222562258102759
40
0.222562258102759
40
0.445124516205517
40
0.445124516205517
40
0.667686774308275
40
0.667686774308275
40
0.890249032411034
40
0.890249032411034
40
1
40
1
40
1
40
1
41
1
10
2.60602215707297
20
-7.17945501339517
30
0
41
1
10
2.97072084120612
20
-7.03395084515813
30
0
41
1
10
3.33852965072339
20
-6.89037661093317
30
0
41
1
10
4.08157085679443
20
-6.60831986463597
30
0
41
1
10
4.45680617314054
20
-6.46983231621863
30
0
41
1
10
5.21601289515084
20
-6.19996558960614
30
0
41
1
10
5.59998930253022
20
-6.06858459027515
30
0
41
1
10
6.37797968847266
20
-5.81585639022978
30
0
41
1
10
6.77200061260498
20
-5.6945129073747
30
0
41
1
10
7.36864544461608
20
-5.52367056455898
30
0
41
1
10
7.56705289059539
20
-5.46893394287571
30
0
41
1
10
7.76685806756905
20
-5.41615164806277
30
0
0
SPLINE
5
D2
100
AcDbEntity
8
1
62
256
6
ByLayer
370
18
48
1
60
0
100
AcDbSpline
70
4
71
3
72
8
73
4
40
0
40
0
40
0
40
0
40
1
40
1
40
1
40
1
41
1
10
13.6184203065094
20
-6.35971349039775
30
0
41
1
10
13.8001889635901
20
-6.32145272145524
30
0
41
1
10
13.9879982349311
20
-6.28782500809942
30
0
41
1
10
14.180727092965
20
-6.26008315598725
30
0
0
SPLINE
5
D3
100
AcDbEntity
8
1
62
256
6
ByLayer
370
18
48
1
60
0
100
AcDbSpline
70
4
71
3
72
46
73
42
40
0
40
0
40
0
40
0
40
0.0061438331355115
40
0.0061438331355115
40
0.0513191134475348
40
0.0513191134475348
40
0.0964943937595577
40
0.0964943937595577
40
0.186844954383604
40
0.186844954383604
40
0.27719551500765
40
0.27719551500765
40
0.322370795319673
40
0.322370795319673
40
0.367546075631697
40
0.367546075631697
40
0.457896636255743
40
0.457896636255743
40
0.480484276411753
40
0.480484276411753
40
0.503071916567763
40
0.503071916567763
40
0.548247196879784
40
0.548247196879784
40
0.593422477191805
40
0.593422477191805
40
0.638597757503826
40
0.638597757503826
40
0.72894831812787
40
0.72894831812787
40
0.774123598439891
40
0.774123598439891
40
0.819298878751912
40
0.819298878751912
40
0.909649439375954
40
0.909649439375954
40
0.954824719687975
40
0.954824719687975
40
0.977412359843988
40
0.977412359843988
40
1
40
1
40
1
40
1
41
1
10
25.9989215745994
20
-6.5677963353755
30
0
41
1
10
25.9745025172435
20
-6.57718828463194
30
0
41
1
10
25.9500803767949
20
-6.58652519235477
30
0
41
1
10
25.7460581004652
20
-6.66405348000674
30
0
41
1
10
25.5669384995792
20
-6.72905834133718
30
0
41
1
10
25.2094312771755
20
-6.85265916746079
30
0
41
1
10
25.0310429426958
20
-6.91126084871863
30
0
41
1
10
24.4967684007303
20
-7.07726111762403
30
0
41
1
10
24.1417599399662
20
-7.174879234131
30
0
41
1
10
23.4326670782835
20
-7.34378751424617
30
0
41
1
10
23.0785698472647
20
-7.41514291306629
30
0
41
1
10
22.5471177824067
20
-7.50205282409772
30
0
41
1
10
22.3699180026092
20
-7.52765426397207
30
0
41
1
10
22.0152348592737
20
-7.57212991620784
30
0
41
1
10
21.8377434293005
20
-7.59105996704395
30
0
41
1
10
21.3046179849454
20
-7.637480485189
30
0
41
1
10
20.9483367877577
20
-7.65448488996597
30
0
41
1
10
20.5009375481992
20
-7.65857655844684
30
0
41
1
10
20.4113566469709
20
-7.65852694650442
30
0
41
1
10
20.2319715428072
20
-7.65665935808948
30
0
41
1
10
20.1420997272442
20
-7.65483864599571
30
0
41
1
10
19.8729857990397
20
-7.64671363589409
30
0
41
1
10
19.6940498216442
20
-7.63773123646911
30
0
41
1
10
19.3369049152593
20
-7.61284931915569
30
0
41
1
10
19.1586907403813
20
-7.59696691821568
30
0
41
1
10
18.8027665560981
20
-7.55856756515666
30
0
41
1
10
18.6250743688263
20
-7.53599054443958
30
0
41
1
10
18.0926114668528
20
-7.45800303134891
30
0
41
1
10
17.7384154100235
20
-7.39246996611524
30
0
41
1
10
17.2071974152709
20
-7.27462618512968
30
0
41
1
10
17.0301374612662
20
-7.23209226721497
30
0
41
1
10
16.6758838234918
20
-7.14054194195717
30
0
41
1
10
16.4987019800729
20
-7.09145566428657
30
0
41
1
10
15.9667063702555
20
-6.93446659080362
30
0
41
1
10
15.6113826303665
20
-6.81729059575042
30
0
41
1
10
15.0764632030395
20
-6.62252260889449
30
0
41
1
10
14.8978392133531
20
-6.55436944942227
30
0
41
1
10
14.6292861250437
20
-6.44727504214194
30
0
41
1
10
14.5396638761978
20
-6.41078478212211
30
0
41
1
10
14.3601828262027
20
-6.33629905427506
30
0
41
1
10
14.2703388180751
20
-6.29830395299629
30
0
41
1
10
14.1805649660702
20
-6.25963277769347
30
0
0
SPLINE
5
D4
100
AcDbEntity
8
1
62
256
6
ByLayer
370
18
48
1
60
0
100
AcDbSpline
70
4
71
3
72
18
73
14
40
0
40
0
40
0
40
0
40
0.25
40
0.25
40
0.5
40
0.5
40
0.625
40
0.625
40
0.75
40
0.75
40
0.875
40
0.875
40
1
40
1
40
1
40
1
41
1
10
48.0943353848785
20
3.13242412328216
30
0
41
1
10
48.1226317731685
20
3.0720832536885
30
0
41
1
10
48.1501717388626
20
3.01446660113197
30
0
41
1
10
48.2034430158217
20
2.90574707183086
30
0
41
1
10
48.2291848780989
20
2.85460619615932
30
0
41
1
10
48.2659676206094
20
2.78448571677248
30
0
41
1
10
48.2779113984197
20
2.76224015129313
30
0
41
1
10
48.3009869928181
20
2.72057610503293
30
0
41
1
10
48.3121053466554
20
2.70121241795201
30
0
41
1
10
48.333449923225
20
2.66560810730906
30
0
41
1
10
48.3436916474049
20
2.64931321817466
30
0
41
1
10
48.363327088608
20
2.6196920397
30
0
41
1
10
48.3727226686617
20
2.60635922849099
30
0
41
1
10
48.3816609658616
20
2.59462721719825
30
0
0
SPLINE
5
D5
100
AcDbEntity
8
1
62
256
6
ByLayer
370
18
48
1
60
0
100
AcDbSpline
70
4
71
3
72
9
73
5
40
0
40
0
40
0
40
0
40
0.17626122722879
40
1
40
1
40
1
40
1
41
1
10
9.35022299916514
20
-5.9833940258406
30
0
41
1
10
9.27788659564985
20
-6.04885973603612
30
0
41
1
10
8.86858141850908
20
-6.43007507182074
30
0
41
1
10
8.46248572881441
20
-6.86156346694094
30
0
41
1
10
8.1145130737911
20
-7.19925843377169
30
0
0
SPLINE
5
D6
100
AcDbEntity
8
1
62
256
6
ByLayer
370
18
48
1
60
0
100
AcDbSpline
70
4
71
3
72
17
73
13
40
0
40
0
40
0
40
0
40
0.245443159345202
40
0.245443159345202
40
0.622721579672595
40
0.622721579672595
40
0.811360789836291
40
0.811360789836291
40
0.858520592377218
40
0.858520592377218
40
0.905680394918146
40
1
40
1
40
1
40
1
41
1
10
45.7616362200181
20
4.34256510123484
30
0
41
1
10
45.9466918447571
20
4.27876836920771
30
0
41
1
10
46.1332168378899
20
4.20626402645607
30
0
41
1
10
46.6101822552673
20
4.00022457806799
30
0
41
1
10
46.9026187727587
20
3.85486044232931
30
0
41
1
10
47.3464443421457
20
3.60617164828534
30
0
41
1
10
47.4952467301301
20
3.51817579554782
30
0
41
1
10
47.6823125142167
20
3.40188273547281
30
0
41
1
10
47.7197754721912
20
3.37831114378869
30
0
41
1
10
47.7946733627334
20
3.33062787797471
30
0
41
1
10
47.9070281297118
20
3.25826205810199
30
0
41
1
10
48.0194063887552
20
3.18340543446593
30
0
41
1
10
48.0943353848784
20
3.13242412328216
30
0
0
SPLINE
5
D7
100
AcDbEntity
8
1
62
256
6
ByLayer
370
18
48
1
60
0
100
AcDbSpline
70
4
71
1
72
4
73
2
40
0
40
0
40
1
40
1
41
1
10
48.7887579926178
20
1.24285283075813
30
0
41
1
10
48.7874630155926
20
1.24259062688523
30
0
0
SPLINE
5
D8
100
AcDbEntity
8
1
62
256
6
ByLayer
370
18
48
1
60
0
100
AcDbSpline
70
4
71
3
72
28
73
24
40
0
40
0
40
0
40
0
40
0.25000000000001
40
0.25000000000001
40
0.500000000000021
40
0.500000000000021
40
0.625000000000035
40
0.625000000000035
40
0.687500000000034
40
0.687500000000034
40
0.750000000000033
40
0.750000000000033
40
0.812500000000031
40
0.812500000000031
40
0.87500000000003
40
0.87500000000003
40
0.906250000000023
40
0.906250000000023
40
0.937500000000015
40
0.937500000000015
40
0.968750000000008
40
0.968750000000008
40
1
40
1
40
1
40
1
41
1
10
48.6479941480081
20
1.75781880878321
30
0
41
1
10
48.6614757286404
20
1.7109727179602
30
0
41
1
10
48.6748398878617
20
1.66433405841278
30
0
41
1
10
48.7012161585877
20
1.57167865065478
30
0
41
1
10
48.7142344277262
20
1.52565102465127
30
0
41
1
10
48.7332974223423
20
1.45742998943197
30
0
41
1
10
48.7395732628607
20
1.43482830299223
30
0
41
1
10
48.7488050717851
20
1.40124720112578
30
0
41
1
10
48.7518516433933
20
1.39010773024086
30
0
41
1
10
48.7578636931818
20
1.36797204439725
30
0
41
1
10
48.7608243163278
20
1.35699353778435
30
0
41
1
10
48.7665646735578
20
1.33549372914521
30
0
41
1
10
48.7693538369459
20
1.32493860957214
30
0
41
1
10
48.7746842253664
20
1.30444203386801
30
0
41
1
10
48.7772009381836
20
1.2945967297259
30
0
41
1
10
48.7806364854011
20
1.28075024824636
30
0
41
1
10
48.7817243951383
20
1.27629019448528
30
0
41
1
10
48.7837507557375
20
1.26777572357005
30
0
41
1
10
48.7846923402107
20
1.2637059979989
30
0
41
1
10
48.7863319237248
20
1.2563048451853
30
0
41
1
10
48.7870357799925
20
1.25295015840595
30
0
41
1
10
48.7881478391141
20
1.24712285684845
30
0
41
1
10
48.7885500784326
20
1.24467156770541
30
0
41
1
10
48.7887579926166
20
1.24285283076782
30
0
0
SPLINE
5
D9
100
AcDbEntity
8
1
62
256
6
ByLayer
370
18
48
1
60
0
100
AcDbSpline
70
4
71
3
72
10
73
6
40
0
40
0
40
0
40
0
40
0.330123472771899
40
0.330123472771899
40
1
40
1
40
1
40
1
41
1
10
10.1753557825872
20
-6.35650009232032
30
0
41
1
10
9.9483711750745
20
-6.46417771750905
30
0
41
1
10
9.72164793577343
20
-6.5670466899671
30
0
41
1
10
9.03508071782721
20
-6.86372544984872
30
0
41
1
10
8.57546103673531
20
-7.04218434318347
30
0
41
1
10
8.11455095207668
20
-7.19922167413401
30
0
0
SPLINE
5
DA
100
AcDbEntity
8
1
62
256
6
ByLayer
370
18
48
1
60
0
100
AcDbSpline
70
4
71
3
72
58
73
54
40
0
40
0
40
0
40
0
40
0.125
40
0.125
40
0.250000000000001
40
0.250000000000001
40
0.3125
40
0.3125
40
0.328124999999999
40
0.328124999999999
40
0.343749999999999
40
0.343749999999999
40
0.374999999999999
40
0.374999999999999
40
0.4375
40
0.4375
40
0.500000000000001
40
0.500000000000001
40
0.562500000000002
40
0.562500000000002
40
0.625000000000002
40
0.625000000000002
40
0.656250000000002
40
0.656250000000002
40
0.687500000000002
40
0.687500000000002
40
0.750000000000001
40
0.750000000000001
40
0.765625000000001
40
0.765625000000001
40
0.781250000000001
40
0.781250000000001
40
0.812500000000001
40
0.812500000000001
40
0.84375
40
0.84375
40
0.875
40
0.875
40
0.890625
40
0.890625
40
0.8984375
40
0.8984375
40
0.906249999999999
40
0.906249999999999
40
0.937499999999999
40
0.937499999999999
40
0.953124999999999
40
0.953124999999999
40
0.960937499999999
40
0.960937499999999
40
0.968749999999999
40
0.968749999999999
40
1
40
1
40
1
40
1
41
1
10
8.11437776517141
20
-7.19919875143444
30
0
41
1
10
7.8058304402374
20
-7.30462977116639
30
0
41
1
10
7.5009023151195
20
-7.40206597432211
30
0
41
1
10
6.89701155453966
20
-7.57809275746268
30
0
41
1
10
6.59803800827444
20
-7.65670283096856
30
0
41
1
10
6.15380978144623
20
-7.75842164185465
30
0
41
1
10
6.00644747885923
20
-7.78962747159986
30
0
41
1
10
5.82319151109741
20
-7.82500870424948
30
0
41
1
10
5.78658790943237
20
-7.83190349443211
30
0
41
1
10
5.71347830017677
20
-7.84532319848219
30
0
41
1
10
5.67696325127793
20
-7.85184952703628
30
0
41
1
10
5.56776752193329
20
-7.87082912159804
30
0
41
1
10
5.4953749945083
20
-7.88269471561142
30
0
41
1
10
5.27946341277578
20
-7.91587070205878
30
0
41
1
10
5.13720395150796
20
-7.93476398100572
30
0
41
1
10
4.8564628234665
20
-7.96571875441185
30
0
41
1
10
4.71797848357713
20
-7.97778249993428
30
0
41
1
10
4.44543460910029
20
-7.9945537624728
30
0
41
1
10
4.31137024524787
20
-7.99926500574534
30
0
41
1
10
4.04865641518765
20
-8.00057684719792
30
0
41
1
10
3.91999752931491
20
-7.99718430616875
30
0
41
1
10
3.73222163028285
20
-7.98516117609898
30
0
41
1
10
3.67049962618188
20
-7.97999379030466
30
0
41
1
10
3.54909543970106
20
-7.96714024872352
30
0
41
1
10
3.48967514319219
20
-7.95948160628711
30
0
41
1
10
3.31578715174663
20
-7.93254786308239
30
0
41
1
10
3.20562179037177
20
-7.90935009391183
30
0
41
1
10
3.07768651478497
20
-7.8725181680488
30
0
41
1
10
3.05259358592736
20
-7.86475728324925
30
0
41
1
10
3.00348655133684
20
-7.84840146584386
30
0
41
1
10
2.97944248501574
20
-7.83979429080276
30
0
41
1
10
2.90938740418511
20
-7.81276383933397
30
0
41
1
10
2.86540822215693
20
-7.79312866105062
30
0
41
1
10
2.78378463024811
20
-7.75035090455418
30
0
41
1
10
2.74613636810827
20
-7.72720946088194
30
0
41
1
10
2.6783457756348
20
-7.67705141897679
30
0
41
1
10
2.64819673300474
20
-7.65003676308984
30
0
41
1
10
2.60981213583565
20
-7.60623068265639
30
0
41
1
10
2.59816113381976
20
-7.5910800743338
30
0
41
1
10
2.58259982379985
20
-7.56746958924154
30
0
41
1
10
2.57772517686715
20
-7.55943839875343
30
0
41
1
10
2.56869321093887
20
-7.54314316693225
30
0
41
1
10
2.56453693798974
20
-7.53488391243758
30
0
41
1
10
2.54560835122584
20
-7.49302700372075
30
0
41
1
10
2.53637781118419
20
-7.45774865802241
30
0
41
1
10
2.53262607636884
20
-7.40208099009118
30
0
41
1
10
2.53306106205795
20
-7.38306650297707
30
0
41
1
10
2.53643031425861
20
-7.35384684331976
30
0
41
1
10
2.53800647282318
20
-7.34399061705764
30
0
41
1
10
2.54210004693326
20
-7.32404357981338
30
0
41
1
10
2.54462235769387
20
-7.313936570614
30
0
41
1
10
2.55962613169646
20
-7.26299458130609
30
0
41
1
10
2.57909278106681
20
-7.22148816707332
30
0
41
1
10
2.60602215709673
20
-7.17945501338505
30
0
0
SPLINE
5
DB
100
AcDbEntity
8
1
62
256
6
ByLayer
370
18
48
1
60
0
100
AcDbSpline
70
4
71
3
72
20
73
16
40
0
40
0
40
0
40
0
40
0.125
40
0.125
40
0.25
40
0.25
40
0.375
40
0.375
40
0.5
40
0.5
40
0.75
40
0.75
40
0.875
40
0.875
40
1
40
1
40
1
40
1
41
1
10
12.9860830520348
20
-7.44238302167116
30
0
41
1
10
13.0000914031072
20
-7.40725853596982
30
0
41
1
10
13.0172632968332
20
-7.37092222076095
30
0
41
1
10
13.0560146022562
20
-7.29579315189983
30
0
41
1
10
13.0776071139035
20
-7.25700071392015
30
0
41
1
10
13.1239748924209
20
-7.17693186507327
30
0
41
1
10
13.1487566684804
20
-7.1356555986755
30
0
41
1
10
13.2006502111019
20
-7.05058924065767
30
0
41
1
10
13.2277655271446
20
-7.00679922582978
30
0
41
1
10
13.3116761505553
20
-6.871605692077
30
0
41
1
10
13.3709899733381
20
-6.77638299276765
30
0
41
1
10
13.4625231321509
20
-6.6256298290929
30
0
41
1
10
13.4934508257989
20
-6.57409609897112
30
0
41
1
10
13.5556775332566
20
-6.46871172766586
30
0
41
1
10
13.5870016410282
20
-6.41482100277122
30
0
41
1
10
13.6184203065094
20
-6.35971349039775
30
0
0
SPLINE
5
DC
100
AcDbEntity
8
1
62
256
6
ByLayer
370
18
48
1
60
0
100
AcDbSpline
70
4
71
3
72
18
73
14
40
0
40
0
40
0
40
0
40
0.250000000000001
40
0.250000000000001
40
0.500000000000002
40
0.500000000000002
40
0.562500000000003
40
0.562500000000003
40
0.625000000000003
40
0.625000000000003
40
0.750000000000002
40
0.750000000000002
40
1
40
1
40
1
40
1
41
1
10
13.6184203065091
20
-6.35971349039758
30
0
41
1
10
13.161226015529
20
-6.14301624513408
30
0
41
1
10
12.7050870736804
20
-5.90781674811342
30
0
41
1
10
11.7918352780039
20
-5.40316716145776
30
0
41
1
10
11.3347275706393
20
-5.13371271152334
30
0
41
1
10
10.7607823707796
20
-4.77702997700308
30
0
41
1
10
10.6458649679279
20
-4.70469969711189
30
0
41
1
10
10.4157228064564
20
-4.55808862240349
30
0
41
1
10
10.3004389941841
20
-4.48376838069001
30
0
41
1
10
9.95498462470317
20
-4.2585521527306
30
0
41
1
10
9.72495361332693
20
-4.10524084699651
30
0
41
1
10
9.03508071782721
20
-3.63649644714371
30
0
41
1
10
8.57546103673533
20
-3.31225720532876
30
0
41
1
10
8.11455095207671
20
-2.97803506142731
30
0
0
SPLINE
5
DD
100
AcDbEntity
8
1
62
256
6
ByLayer
370
18
48
1
60
0
100
AcDbSpline
70
4
71
3
72
27
73
23
40
0
40
0
40
0
40
0
40
0.0625000000000029
40
0.0625000000000029
40
0.125000000000006
40
0.125000000000006
40
0.250000000000017
40
0.250000000000017
40
0.281250000000019
40
0.281250000000019
40
0.312500000000022
40
0.375000000000022
40
0.375000000000022
40
0.500000000000024
40
0.500000000000024
40
0.625000000000025
40
0.625000000000025
40
0.687500000000023
40
0.687500000000023
40
0.750000000000021
40
0.750000000000021
40
1
40
1
40
1
40
1
41
1
10
5.96537708931189
20
5.64695558728209
30
0
41
1
10
6.04955069462892
20
5.65457447434625
30
0
41
1
10
6.13362988573084
20
5.65952414101429
30
0
41
1
10
6.30162853936716
20
5.66494199998428
30
0
41
1
10
6.38554780641732
20
5.66540410669217
30
0
41
1
10
6.63709319042559
20
5.66083426813532
30
0
41
1
10
6.8045085925099
20
5.64990212139332
30
0
41
1
10
7.0134762085454
20
5.62763996285443
30
0
41
1
10
7.05529177104904
20
5.62274794909527
30
0
41
1
10
7.13872696813431
20
5.61213002200901
30
0
41
1
10
7.2632838240045
20
5.5949921946553
30
0
41
1
10
7.3861358117249
20
5.57435834882435
30
0
41
1
10
7.62973468246662
20
5.52867767660396
30
0
41
1
10
7.78933580279389
20
5.4923601437529
30
0
41
1
10
8.10352822187448
20
5.4086268442363
30
0
41
1
10
8.25811439241681
20
5.36120063913302
30
0
41
1
10
8.48649611156063
20
5.2817811387477
30
0
41
1
10
8.56203911808353
20
5.25392462465447
30
0
41
1
10
8.7119892941009
20
5.19542254436405
30
0
41
1
10
8.78648948747502
20
5.16473104868803
30
0
41
1
10
9.1534797196087
20
5.00544963523978
30
0
41
1
10
9.43153263270895
20
4.85873419041596
30
0
41
1
10
9.69683294247983
20
4.69337231743791
30
0
0
SPLINE
5
DE
100
AcDbEntity
8
1
62
256
6
ByLayer
370
18
48
1
60
0
100
AcDbSpline
70
4
71
3
72
8
73
4
40
0
40
0
40
0
40
0
40
1
40
1
40
1
40
1
41
1
10
48.3898470699965
20
-7.98590517097739
30
0
41
1
10
48.4596292163161
20
-7.98153718522579
30
0
41
1
10
48.5294092935968
20
-7.97714209538589
30
0
41
1
10
48.599187324614
20
-7.97272024753448
30
0
0
SPLINE
5
DF
100
AcDbEntity
8
1
62
256
6
ByLayer
370
18
48
1
60
0
100
AcDbSpline
70
4
71
3
72
24
73
20
40
0
40
0
40
0
40
0
40
0.0624999999999986
40
0.0624999999999986
40
0.124999999999997
40
0.124999999999997
40
0.249999999999996
40
0.249999999999996
40
0.312499999999996
40
0.312499999999996
40
0.374999999999995
40
0.374999999999995
40
0.499999999999996
40
0.499999999999996
40
0.749999999999998
40
0.749999999999998
40
0.874999999999999
40
0.874999999999999
40
1
40
1
40
1
40
1
41
1
10
48.5991873246113
20
-7.97272024753264
30
0
41
1
10
48.5900784558609
20
-7.96649813657677
30
0
41
1
10
48.5821849273354
20
-7.95978225352582
30
0
41
1
10
48.5700001126043
20
-7.94543124350929
30
0
41
1
10
48.5657089760966
20
-7.93778955661284
30
0
41
1
10
48.5577375380261
20
-7.9135172626591
30
0
41
1
10
48.5587142163151
20
-7.89556298732299
30
0
41
1
10
48.5633889008796
20
-7.86656214900739
30
0
41
1
10
48.5655147868173
20
-7.85654709063775
30
0
41
1
10
48.5703550013163
20
-7.83587179135961
30
0
41
1
10
48.5730738988604
20
-7.82521111926451
30
0
41
1
10
48.5816441645624
20
-7.79230415987499
30
0
41
1
10
48.5878835496128
20
-7.769125901297
30
0
41
1
10
48.606305248083
20
-7.696204244456
30
0
41
1
10
48.6182025966104
20
-7.64303662264675
30
0
41
1
10
48.6325247396234
20
-7.55663025925583
30
0
41
1
10
48.6367272859454
20
-7.52670108489522
30
0
41
1
10
48.6435988808444
20
-7.46472235176986
30
0
41
1
10
48.6462692209806
20
-7.43267217704602
30
0
41
1
10
48.6479941480085
20
-7.3995712162573
30
0
0
SPLINE
5
E0
100
AcDbEntity
8
1
62
256
6
ByLayer
370
18
48
1
60
0
100
AcDbSpline
70
4
71
3
72
8
73
4
40
0
40
0
40
0
40
0
40
1
40
1
40
1
40
1
41
1
10
48.647994148009
20
-7.39957121625477
30
0
41
1
10
48.5585928512952
20
-7.28489389783545
30
0
41
1
10
48.4698083105059
20
-7.15428727505017
30
0
41
1
10
48.3816609658616
20
-7.00722342675465
30
0
0
SPLINE
5
E1
100
AcDbEntity
8
1
62
256
6
ByLayer
370
18
48
1
60
0
100
AcDbSpline
70
4
71
3
72
24
73
20
40
0
40
0
40
0
40
0
40
0.062499999999999
40
0.062499999999999
40
0.124999999999998
40
0.124999999999998
40
0.249999999999996
40
0.249999999999996
40
0.312499999999995
40
0.312499999999995
40
0.374999999999995
40
0.374999999999995
40
0.499999999999996
40
0.499999999999996
40
0.749999999999998
40
0.749999999999998
40
0.874999999999999
40
0.874999999999999
40
1
40
1
40
1
40
1
41
1
10
48.5991873246168
20
-0.120685096491457
30
0
41
1
10
48.5900784558658
20
-0.0808688623644684
30
0
41
1
10
48.5821849273394
20
-0.0406474748460823
30
0
41
1
10
48.5700001126069
20
0.0395422254879065
30
0
41
1
10
48.5657089760985
20
0.0795583065443566
30
0
41
1
10
48.5577375380263
20
0.199378872424404
30
0
41
1
10
48.5587142163147
20
0.278959641351236
30
0
41
1
10
48.5633889008788
20
0.39798050007289
30
0
41
1
10
48.5655147868165
20
0.437595197828841
30
0
41
1
10
48.5703550013154
20
0.516715327981899
30
0
41
1
10
48.5730738988597
20
0.556220687905693
30
0
41
1
10
48.5816441645617
20
0.674580066556842
30
0
41
1
10
48.5878835496122
20
0.753306268877623
30
0
41
1
10
48.6063052480827
20
0.988421644698263
30
0
41
1
10
48.6182025966104
20
1.14391545973609
30
0
41
1
10
48.6325247396236
20
1.37554132352861
30
0
41
1
10
48.6367272859457
20
1.45251625489416
30
0
41
1
10
48.6435988808445
20
1.60571692521452
30
0
41
1
10
48.6462692209808
20
1.68194803086311
30
0
41
1
10
48.6479941480087
20
1.75781880878338
30
0
0
SPLINE
5
E2
100
AcDbEntity
8
1
62
256
6
ByLayer
370
18
48
1
60
0
100
AcDbSpline
70
4
71
3
72
8
73
4
40
0
40
0
40
0
40
0
40
1
40
1
40
1
40
1
41
1
10
48.6479941480082
20
1.75781880878336
30
0
41
1
10
48.5584577292861
20
2.04238848822274
30
0
41
1
10
48.4696740361401
20
2.32136892220285
30
0
41
1
10
48.3816609658616
20
2.59462721719825
30
0
0
SPLINE
5
E3
100
AcDbEntity
8
1
62
256
6
ByLayer
370
18
48
1
60
0
100
AcDbSpline
70
4
71
3
72
38
73
34
40
0
40
0
40
0
40
0
40
0.0942107501541097
40
0.0942107501541097
40
0.188421500308219
40
0.188421500308219
40
0.282632250462329
40
0.282632250462329
40
0.376843000616439
40
0.376843000616439
40
0.423948375693495
40
0.423948375693495
40
0.447501063232024
40
0.447501063232024
40
0.471053750770554
40
0.471053750770554
40
0.565264500924675
40
0.565264500924675
40
0.659475251078797
40
0.659475251078797
40
0.706580626155858
40
0.706580626155858
40
0.753686001232919
40
0.753686001232919
40
0.84789675138704
40
0.84789675138704
40
0.942107501541161
40
0.942107501541161
40
0.965660189079691
40
0.965660189079691
40
0.989212876618221
40
0.989212876618221
40
1
40
1
40
1
40
1
41
1
10
48.3816609658616
20
2.59462721719825
30
0
41
1
10
48.0243961842419
20
2.84604765845046
30
0
41
1
10
47.6685983273886
20
3.09168121418241
30
0
41
1
10
46.9584960370833
20
3.56992966386338
30
0
41
1
10
46.6041913807627
20
3.80255957887596
30
0
41
1
10
45.8958212228749
20
4.25318810123963
30
0
41
1
10
45.5417399364241
20
4.47119331004052
30
0
41
1
10
44.8323675106134
20
4.89112080691967
30
0
41
1
10
44.4771021509902
20
5.09299919928344
30
0
41
1
10
43.9422820677959
20
5.38240027418891
30
0
41
1
10
43.7636849426494
20
5.47664093849869
30
0
41
1
10
43.4951672735926
20
5.61451792951891
30
0
41
1
10
43.4055579537848
20
5.65989514599917
30
0
41
1
10
43.2261103419038
20
5.74945433160241
30
0
41
1
10
43.1362560415211
20
5.79364264252899
30
0
41
1
10
42.6879322174263
20
6.01076349785293
30
0
41
1
10
42.3310641705205
20
6.17284463077931
30
0
41
1
10
41.6194377140999
20
6.47326323122434
30
0
41
1
10
41.2647017257341
20
6.61156281981681
30
0
41
1
10
40.7332253784634
20
6.80040256894083
30
0
41
1
10
40.5561622525496
20
6.86027147683788
30
0
41
1
10
40.2020276777146
20
6.97387800887901
30
0
41
1
10
40.0249561309553
20
7.02762009938502
30
0
41
1
10
39.4934979058233
20
7.17946834351616
30
0
41
1
10
39.138871647887
20
7.26820586740251
30
0
41
1
10
38.4276843316242
20
7.4194080552283
30
0
41
1
10
38.0711285840133
20
7.48185065178433
30
0
41
1
10
37.6233216539034
20
7.54248106001231
30
0
41
1
10
37.5336528520313
20
7.5537491607752
30
0
41
1
10
37.3540731123027
20
7.57461617290815
30
0
41
1
10
37.2643551230933
20
7.58419448468442
30
0
41
1
10
37.1337192669256
20
7.59689934640156
30
0
41
1
10
37.092703880256
20
7.60070962247502
30
0
41
1
10
37.0517088595213
20
7.60433861725147
30
0
0
SPLINE
5
E4
100
AcDbEntity
8
1
62
256
6
ByLayer
370
18
48
1
60
0
100
AcDbSpline
70
4
71
3
72
32
73
28
40
0
40
0
40
0
40
0
40
0.124999999999908
40
0.124999999999908
40
0.187499999999873
40
0.187499999999873
40
0.218749999999856
40
0.218749999999856
40
0.249999999999838
40
0.249999999999838
40
0.374999999999796
40
0.374999999999796
40
0.437499999999791
40
0.437499999999791
40
0.499999999999786
40
0.499999999999786
40
0.624999999999812
40
0.624999999999812
40
0.687499999999843
40
0.687499999999843
40
0.749999999999874
40
0.749999999999874
40
0.874999999999937
40
0.874999999999937
40
0.937499999999969
40
0.937499999999969
40
1
40
1
40
1
40
1
41
1
10
41.717261361653
20
1.08976769476166
30
0
41
1
10
41.6990455113201
20
1.13064564563007
30
0
41
1
10
41.6765978660318
20
1.16884938701236
30
0
41
1
10
41.6371994342877
20
1.22245903897615
30
0
41
1
10
41.6231033911762
20
1.23970717471579
30
0
41
1
10
41.6005282549563
20
1.2646454094473
30
0
41
1
10
41.5927426706718
20
1.27282333453348
30
0
41
1
10
41.5768133089459
20
1.28874536913691
30
0
41
1
10
41.5686753501668
20
1.29648641338429
30
0
41
1
10
41.5271515775077
20
1.33412956260065
30
0
41
1
10
41.4912848281754
20
1.3608690799889
30
0
41
1
10
41.4338574502137
20
1.39632664801175
30
0
41
1
10
41.4140196097979
20
1.40740692252811
30
0
41
1
10
41.3736427678687
20
1.42778061652544
30
0
41
1
10
41.3531144583887
20
1.43708094849396
30
0
41
1
10
41.2905666937964
20
1.46248261691693
30
0
41
1
10
41.2475931648493
20
1.47610526077327
30
0
41
1
10
41.1812756381622
20
1.4918034578065
30
0
41
1
10
41.1588445540244
20
1.49623558550732
30
0
41
1
10
41.1140532649789
20
1.50340205477889
30
0
41
1
10
41.0916065815005
20
1.50615930704686
30
0
41
1
10
41.0241131926008
20
1.51200804448345
30
0
41
1
10
40.9789149458839
20
1.51270384431223
30
0
41
1
10
40.9107823475787
20
1.5086977518921
30
0
41
1
10
40.8879431324263
20
1.50650186411784
30
0
41
1
10
40.8426376212586
20
1.50035648177737
30
0
41
1
10
40.8201476669167
20
1.49641183766386
30
0
41
1
10
40.7978307357248
20
1.49154808954242
30
0
0
SPLINE
5
E5
100
AcDbEntity
8
1
62
256
6
ByLayer
370
18
48
1
60
0
100
AcDbSpline
70
4
71
3
72
34
73
30
40
0
40
0
40
0
40
0
40
0.0625000000000083
40
0.0625000000000083
40
0.125000000000016
40
0.125000000000016
40
0.187500000000025
40
0.187500000000025
40
0.250000000000033
40
0.250000000000033
40
0.37500000000005
40
0.37500000000005
40
0.437500000000059
40
0.437500000000059
40
0.500000000000067
40
0.500000000000067
40
0.625000000000058
40
0.625000000000058
40
0.656250000000055
40
0.656250000000055
40
0.687500000000053
40
0.687500000000053
40
0.750000000000049
40
0.750000000000049
40
0.87500000000004
40
0.87500000000004
40
0.93750000000002
40
0.93750000000002
40
1
40
1
40
1
40
1
41
1
10
44.4390959668181
20
-0.138401418971398
30
0
41
1
10
44.4497398424064
20
-0.112083514287207
30
0
41
1
10
44.461703452063
20
-0.0866072942556571
30
0
41
1
10
44.4878568875261
20
-0.0371049429864172
30
0
41
1
10
44.5020469504826
20
-0.0130790909036591
30
0
41
1
10
44.5324712002557
20
0.0336241556468622
30
0
41
1
10
44.5487108578252
20
0.0562986394495795
30
0
41
1
10
44.5832622006989
20
0.100284425380579
30
0
41
1
10
44.601652550108
20
0.121664160684503
30
0
41
1
10
44.6588691103672
20
0.182503856881794
30
0
41
1
10
44.699986025627
20
0.219086877785401
30
0
41
1
10
44.7660178818718
20
0.268237283062461
30
0
41
1
10
44.7887871905956
20
0.283676407781456
30
0
41
1
10
44.8357253844459
20
0.312530107216446
30
0
41
1
10
44.8596151107585
20
0.325776487777404
30
0
41
1
10
44.932532107943
20
0.362127676115165
30
0
41
1
10
44.9827962448275
20
0.381865035213508
30
0
41
1
10
45.047810285404
20
0.401059113648046
30
0
41
1
10
45.0609229921925
20
0.404622514421646
30
0
41
1
10
45.0873736451997
20
0.411196456821472
30
0
41
1
10
45.100702398386
20
0.414203107867962
30
0
41
1
10
45.1406840012479
20
0.422328334655759
30
0
41
1
10
45.1674458278126
20
0.426582871773178
30
0
41
1
10
45.24808408849
20
0.436038677772416
30
0
41
1
10
45.3023128829018
20
0.43794464626913
30
0
41
1
10
45.3844891401797
20
0.434638582864295
30
0
41
1
10
45.4120843912655
20
0.432495539019755
30
0
41
1
10
45.4670841178387
20
0.426250453182689
30
0
41
1
10
45.4945242806988
20
0.422151953982649
30
0
41
1
10
45.5219176462205
20
0.41712744242102
30
0
0
SPLINE
5
E6
100
AcDbEntity
8
1
62
256
6
ByLayer
370
18
48
1
60
0
100
AcDbSpline
70
4
71
5
72
44
73
38
40
0
40
0
40
0
40
0
40
0
40
0
40
0.0727580725703152
40
0.0956972254999197
40
0.130105954894326
40
0.153045107823931
40
0.187453837218338
40
0.210392990147942
40
0.244801719542349
40
0.279210448936756
40
0.30214960186636
40
0.336558331260767
40
0.359497484190371
40
0.393906213584778
40
0.416845366514382
40
0.451254095908789
40
0.485662825303196
40
0.5086019782328
40
0.531541131162405
40
0.565949860556812
40
0.600358589951218
40
0.623297742880823
40
0.65770647227523
40
0.692115201669636
40
0.715054354599236
40
0.737993507528845
40
0.772402236923252
40
0.806810966317659
40
0.829750119247263
40
0.86415884864167
40
0.887098001571274
40
0.921506730965681
40
0.944445883895286
40
0.978854613289692
40
1
40
1
40
1
40
1
40
1
40
1
41
1
10
13.2314253123378
20
4.65206113794909
30
0
41
1
10
13.5857009972315
20
4.64340491461428
30
0
41
1
10
14.0516726607007
20
4.6228637689446
30
0
41
1
10
14.6851882920334
20
4.5786151689729
30
0
41
1
10
15.4303999019416
20
4.50074154490218
30
0
41
1
10
16.3431554797132
20
4.36913314601725
30
0
41
1
10
17.0133313511668
20
4.25298718823547
30
0
41
1
10
17.7393552119082
20
4.10664495267923
30
0
41
1
10
18.4653790726496
20
3.94042009303675
30
0
41
1
10
19.191402933391
20
3.75323028262912
30
0
41
1
10
19.9174267941324
20
3.54789999291393
30
0
41
1
10
20.6434506548738
20
3.32374426943412
30
0
41
1
10
21.3694745156151
20
3.08358511316519
30
0
41
1
10
22.0396503870687
20
2.84808899836423
30
0
41
1
10
22.7656742478101
20
2.57927059192824
30
0
41
1
10
23.4916981085515
20
2.29792068972691
30
0
41
1
10
24.2177219692929
20
2.00431951421462
30
0
41
1
10
24.8878978407465
20
1.7243607620907
30
0
41
1
10
25.6139217014879
20
1.41289230016756
30
0
41
1
10
26.3399455622292
20
1.09459787092453
30
0
41
1
10
27.0101214336829
20
0.795758298489062
30
0
41
1
10
27.7361452944242
20
0.468169292049169
30
0
41
1
10
28.5180171444534
20
0.112750147092925
30
0
41
1
10
29.2440410051948
20
-0.217926282205695
30
0
41
1
10
29.9142168766484
20
-0.522193784024438
30
0
41
1
10
30.6402407373898
20
-0.849130781796134
30
0
41
1
10
31.3662645981311
20
-1.17196545766731
30
0
41
1
10
32.0364404695848
20
-1.46488582028576
30
0
41
1
10
32.7624643303261
20
-1.77513598379969
30
0
41
1
10
33.4884881910675
20
-2.07591067111448
30
0
41
1
10
34.2145120518089
20
-2.36658107233242
30
0
41
1
10
34.8846879232625
20
-2.62440126009986
30
0
41
1
10
35.6107117840038
20
-2.89095742164213
30
0
41
1
10
36.2721533977534
20
-3.12113410165773
30
0
41
1
10
36.8218990329273
20
-3.30114393319758
30
0
41
1
10
37.2041007002378
20
-3.42046931395558
30
0
41
1
10
37.4746063889727
20
-3.5018854308922
30
0
41
1
10
37.5775681098443
20
-3.53242813700427
30
0
0
SPLINE
5
E7
100
AcDbEntity
8
1
62
256
6
ByLayer
370
18
48
1
60
0
100
AcDbSpline
70
4
71
5
72
15
73
9
40
0
40
0
40
0
40
0
40
0
40
0
40
0.13734584383236
40
0.553301641900221
40
0.830605507278796
40
1
40
1
40
1
40
1
40
1
40
1
41
1
10
14.9999999245389
20
7.87236120720331
30
0
41
1
10
14.9446780183361
20
7.86467115644462
30
0
41
1
10
14.7218121442698
20
7.83253440256985
30
0
41
1
10
14.387250291628
20
7.77730472190592
30
0
41
1
10
13.9844575702821
20
7.69827345195009
30
0
41
1
10
13.5816648489361
20
7.60435320355927
30
0
41
1
10
13.2341940337929
20
7.5124543771278
30
0
41
1
10
13.0542671865131
20
7.46198240338279
30
0
41
1
10
12.9860363178089
20
7.44242962691067
30
0
0
SPLINE
5
E8
100
AcDbEntity
8
1
62
256
6
ByLayer
370
18
48
1
60
0
100
AcDbSpline
70
4
71
3
72
10
73
6
40
0
40
0
40
0
40
0
40
0.414980074776821
40
0.414980074776821
40
1
40
1
40
1
40
1
41
1
10
10.1750509633375
20
6.36827939013321
30
0
41
1
10
10.5638852686727
20
6.55214112188386
30
0
41
1
10
10.952719574008
20
6.72223517140213
30
0
41
1
10
11.8897146949047
20
7.09619864162835
30
0
41
1
10
12.4378755104663
20
7.28534427490976
30
0
41
1
10
12.9860363260278
20
7.44242956495785
30
0
0
SPLINE
5
E9
100
AcDbEntity
8
1
62
256
6
ByLayer
370
18
48
1
60
0
100
AcDbSpline
70
4
71
3
72
99
73
95
40
0
40
0
40
0
40
0
40
0.0312500000000048
40
0.0312500000000048
40
0.0625000000000096
40
0.0625000000000096
40
0.0781250000000121
40
0.0781250000000121
40
0.0937500000000145
40
0.0937500000000145
40
0.125000000000019
40
0.125000000000019
40
0.132812500000016
40
0.132812500000016
40
0.140625000000013
40
0.140625000000013
40
0.156250000000014
40
0.156250000000014
40
0.187500000000017
40
0.187500000000017
40
0.203125000000021
40
0.203125000000021
40
0.218750000000024
40
0.218750000000024
40
0.250000000000033
40
0.250000000000033
40
0.265625000000037
40
0.265625000000037
40
0.281250000000042
40
0.281250000000042
40
0.312500000000051
40
0.312500000000051
40
0.328125000000055
40
0.328125000000055
40
0.34375000000006
40
0.34375000000006
40
0.37500000000007
40
0.37500000000007
40
0.390625000000071
40
0.390625000000071
40
0.406250000000072
40
0.406250000000072
40
0.437500000000066
40
0.437500000000066
40
0.453125000000063
40
0.453125000000063
40
0.46875000000006
40
0.46875000000006
40
0.500000000000064
40
0.531250000000068
40
0.531250000000068
40
0.54687500000007
40
0.54687500000007
40
0.562500000000073
40
0.562500000000073
40
0.593750000000077
40
0.593750000000077
40
0.609375000000079
40
0.609375000000079
40
0.625000000000081
40
0.625000000000081
40
0.656250000000085
40
0.656250000000085
40
0.687500000000089
40
0.687500000000089
40
0.703125000000086
40
0.703125000000086
40
0.718750000000082
40
0.718750000000082
40
0.750000000000075
40
0.750000000000075
40
0.765625000000071
40
0.765625000000071
40
0.781250000000068
40
0.781250000000068
40
0.812500000000052
40
0.812500000000052
40
0.828125000000047
40
0.828125000000047
40
0.843750000000043
40
0.843750000000043
40
0.875000000000035
40
0.875000000000035
40
0.906250000000027
40
0.906250000000027
40
0.921875000000022
40
0.921875000000022
40
0.937500000000017
40
0.937500000000017
40
0.968750000000007
40
0.968750000000007
40
0.984375000000004
40
0.984375000000004
40
1
40
1
40
1
40
1
41
1
10
40.7978307357248
20
1.49154808954239
30
0
41
1
10
40.7645167114414
20
1.48429834589223
30
0
41
1
10
40.7320763036922
20
1.47509340343973
30
0
41
1
10
40.6690293049722
20
1.45262115184613
30
0
41
1
10
40.6384212185977
20
1.43935711130643
30
0
41
1
10
40.5940507203942
20
1.41606798425423
30
0
41
1
10
40.5795084785202
20
1.40772114324534
30
0
41
1
10
40.5515262269538
20
1.39016566825598
30
0
41
1
10
40.5380139955075
20
1.38092193207157
30
0
41
1
10
40.4989345751866
20
1.35177368364111
30
0
41
1
10
40.4748153511369
20
1.33046198864739
30
0
41
1
10
40.4472778507107
20
1.30127612717286
30
0
41
1
10
40.441901662371
20
1.29531086409131
30
0
41
1
10
40.431419988531
20
1.28311582758371
30
0
41
1
10
40.4263019714644
20
1.27686888433237
30
0
41
1
10
40.4115228057116
20
1.25792085284877
30
0
41
1
10
40.4023972209413
20
1.24497452042454
30
0
41
1
10
40.3771505386281
20
1.20520659370854
30
0
41
1
10
40.36314765795
20
1.17746196879801
30
0
41
1
10
40.3463989247509
20
1.13394478458864
30
0
41
1
10
40.3415095011015
20
1.11904073743645
30
0
41
1
10
40.3333187120188
20
1.08906690540596
30
0
41
1
10
40.3300037134421
20
1.0739907129082
30
0
41
1
10
40.3222910410468
20
1.02849226348849
30
0
41
1
10
40.320112437386
20
0.997801887528681
30
0
41
1
10
40.3211213126134
20
0.951188541303566
30
0
41
1
10
40.3221798533323
20
0.935587867189412
30
0
41
1
10
40.3256435934852
20
0.904704344580978
30
0
41
1
10
40.3280491795134
20
0.889357245029288
30
0
41
1
10
40.3371937007108
20
0.843572993826513
30
0
41
1
10
40.3458487832131
20
0.8133910405667
30
0
41
1
10
40.3625323205906
20
0.76856153407013
30
0
41
1
10
40.3686759521712
20
0.753799366124582
30
0
41
1
10
40.3820020063925
20
0.724781445748476
30
0
41
1
10
40.3891948289868
20
0.710497880495296
30
0
41
1
10
40.4123059490483
20
0.668291382499859
30
0
41
1
10
40.4297482388953
20
0.641008570530147
30
0
41
1
10
40.4589091161135
20
0.601320551617164
30
0
41
1
10
40.4691512207303
20
0.588280067010857
30
0
41
1
10
40.4903522348035
20
0.562958733972437
30
0
41
1
10
40.5013414554778
20
0.550633489695116
30
0
41
1
10
40.5354431942428
20
0.514634864125867
30
0
41
1
10
40.5596839512344
20
0.491933184475869
30
0
41
1
10
40.5982904567164
20
0.459815752117095
30
0
41
1
10
40.6115350062801
20
0.449433830885312
30
0
41
1
10
40.6387912186613
20
0.429332633681895
30
0
41
1
10
40.6527798312479
20
0.419635391306883
30
0
41
1
10
40.6953088109848
20
0.391945440807689
30
0
41
1
10
40.7538764918149
20
0.358473595135507
30
0
41
1
10
40.8161394231143
20
0.331861582881658
30
0
41
1
10
40.864294252716
20
0.314618299897006
30
0
41
1
10
40.8806136888549
20
0.30932233820073
30
0
41
1
10
40.9132571223594
20
0.299814597804129
30
0
41
1
10
40.9296399819056
20
0.295579779066742
30
0
41
1
10
40.9789738551479
20
0.284423059852259
30
0
41
1
10
41.012109234065
20
0.279041659072249
30
0
41
1
10
41.0622052290796
20
0.274146166228093
30
0
41
1
10
41.0789696061986
20
0.273045536087636
30
0
41
1
10
41.1126367655161
20
0.271945304473604
30
0
41
1
10
41.1296030864327
20
0.271950360480588
30
0
41
1
10
41.17999527156
20
0.273662177824548
30
0
41
1
10
41.213055307491
20
0.277035313008184
30
0
41
1
10
41.2781432630119
20
0.288232524771814
30
0
41
1
10
41.3101713730134
20
0.296055356459419
30
0
41
1
10
41.3574183128806
20
0.311316966570956
30
0
41
1
10
41.3730966473428
20
0.317022650607726
30
0
41
1
10
41.4037178638101
20
0.329478436185354
30
0
41
1
10
41.4186924450987
20
0.336233062113393
30
0
41
1
10
41.4626238781472
20
0.358061215252775
30
0
41
1
10
41.4905943822898
20
0.374690301821232
30
0
41
1
10
41.5305323461064
20
0.402838334626722
30
0
41
1
10
41.5435072799232
20
0.412757172707842
30
0
41
1
10
41.5687550055907
20
0.433710680636949
30
0
41
1
10
41.5810380552813
20
0.444765261652378
30
0
41
1
10
41.6161326907067
20
0.479021063670132
30
0
41
1
10
41.6374396818837
20
0.503492285502489
30
0
41
1
10
41.6662390413092
20
0.54265425038048
30
0
41
1
10
41.6753094924124
20
0.556119194349321
30
0
41
1
10
41.6923550915873
20
0.583894452785614
30
0
41
1
10
41.7003455064463
20
0.598235061808964
30
0
41
1
10
41.722484582202
20
0.642392524200545
30
0
41
1
10
41.7345043207021
20
0.672697122728096
30
0
41
1
10
41.7531254614348
20
0.734968482685673
30
0
41
1
10
41.759727996376
20
0.766935145249789
30
0
41
1
10
41.7652891213044
20
0.816170571207493
30
0
41
1
10
41.7663971526348
20
0.832698200903877
30
0
41
1
10
41.7671140020454
20
0.865528923538619
30
0
41
1
10
41.7667310211298
20
0.88189923176418
30
0
41
1
10
41.7633870415038
20
0.930866350077935
30
0
41
1
10
41.7582433713278
20
0.96332010205353
30
0
41
1
10
41.7460449866594
20
1.01166736797785
30
0
41
1
10
41.741245250642
20
1.02764406970414
30
0
41
1
10
41.7302850821807
20
1.05905216504686
30
0
41
1
10
41.7241144233886
20
1.07452525152166
30
0
41
1
10
41.717261361653
20
1.08976769476169
30
0
0
SPLINE
5
EA
100
AcDbEntity
8
1
62
256
6
ByLayer
370
18
48
1
60
0
100
AcDbSpline
70
4
71
5
72
28
73
22
40
0
40
0
40
0
40
0
40
0
40
0
40
0.0057060724285652
40
0.0575248055831957
40
0.10934353873785
40
0.187071638469813
40
0.264799738201777
40
0.316618471356419
40
0.394346571088383
40
0.446165304243025
40
0.523893403974989
40
0.575712137129631
40
0.653440236861594
40
0.731168336593558
40
0.7829870697482
40
0.860715169480164
40
0.912533902634806
40
0.99026200236677
40
1
40
1
40
1
40
1
40
1
40
1
41
1
10
30.0202632639139
20
4.5728607787394
30
0
41
1
10
30.0325627800335
20
4.57179097924856
30
0
41
1
10
30.1565582747286
20
4.56092283220451
30
0
41
1
10
30.3922497479994
20
4.53867194312625
30
0
41
1
10
30.7954851891336
20
4.49544513857865
30
0
41
1
10
31.3662645981311
20
4.42187465271414
30
0
41
1
10
32.0364404695848
20
4.31572140223261
30
0
41
1
10
32.7624643303262
20
4.17986288222218
30
0
41
1
10
33.4884881910675
20
4.02181118455493
30
0
41
1
10
34.214512051809
20
3.8443669498088
30
0
41
1
10
34.8846879232625
20
3.66338200194105
30
0
41
1
10
35.6107117840039
20
3.4496636139969
30
0
41
1
10
36.3367356447454
20
3.21922096447551
30
0
41
1
10
37.0627595054867
20
2.97163755213648
30
0
41
1
10
37.7887833662281
20
2.70969133091754
30
0
41
1
10
38.5148072269695
20
2.43338165008902
30
0
41
1
10
39.2408310877109
20
2.14538327860257
30
0
41
1
10
39.8203013658953
20
1.90718752533735
30
0
41
1
10
40.2880756655042
20
1.71006958841628
30
0
41
1
10
40.5883059972497
20
1.58178954563016
30
0
41
1
10
40.7768403504196
20
1.50059561336351
30
0
41
1
10
40.7978307357261
20
1.49154808954185
30
0
0
SPLINE
5
EB
100
AcDbEntity
8
1
62
256
6
ByLayer
370
18
48
1
60
0
100
AcDbSpline
70
4
71
3
72
92
73
88
40
0
40
0
40
0
40
0
40
0.0400320259227773
40
0.0400320259227773
40
0.0800640518455546
40
0.0800640518455546
40
0.120096077768332
40
0.120096077768332
40
0.160128103691109
40
0.160128103691109
40
0.180144116652498
40
0.180144116652498
40
0.190152123133192
40
0.190152123133192
40
0.200160129613885
40
0.200160129613885
40
0.24019215553666
40
0.24019215553666
40
0.280224181459434
40
0.280224181459434
40
0.300240194420821
40
0.300240194420821
40
0.320256207382209
40
0.320256207382209
40
0.360288233304983
40
0.360288233304983
40
0.400320259227757
40
0.400320259227757
40
0.41032826570845
40
0.41032826570845
40
0.420336272189143
40
0.420336272189143
40
0.44035228515053
40
0.44035228515053
40
0.460368298111918
40
0.460368298111918
40
0.480384311073305
40
0.480384311073305
40
0.52041633699608
40
0.52041633699608
40
0.540432349957468
40
0.540432349957468
40
0.560448362918856
40
0.560448362918856
40
0.580464375880243
40
0.580464375880243
40
0.600480388841631
40
0.600480388841631
40
0.620496401803019
40
0.620496401803019
40
0.630504408283712
40
0.630504408283712
40
0.640512414764405
40
0.640512414764405
40
0.660528427725791
40
0.660528427725791
40
0.680544440687176
40
0.680544440687176
40
0.700560453648562
40
0.700560453648562
40
0.720576466609948
40
0.720576466609948
40
0.730584473090641
40
0.730584473090641
40
0.740592479571334
40
0.740592479571334
40
0.76060849253272
40
0.76060849253272
40
0.780624505494107
40
0.780624505494107
40
0.800640518455494
40
0.800640518455494
40
0.82065653141688
40
0.82065653141688
40
0.840672544378267
40
0.840672544378267
40
0.860688557339654
40
0.860688557339654
40
0.88070457030104
40
0.88070457030104
40
0.920736596223814
40
0.920736596223814
40
0.960768622146589
40
0.960768622146589
40
0.980784635107976
40
0.980784635107976
40
1
40
1
40
1
40
1
41
1
10
48.3816609658616
20
-7.00722342675465
30
0
41
1
10
48.0243961842419
20
-6.89927294138218
30
0
41
1
10
47.6685983273886
20
-6.7789875331554
30
0
41
1
10
46.9584960370833
20
-6.51520821490374
30
0
41
1
10
46.6041913807627
20
-6.3717373121425
30
0
41
1
10
45.8958212228749
20
-6.06232974803697
30
0
41
1
10
45.5417399364242
20
-5.89644262745682
30
0
41
1
10
44.8323675106134
20
-5.54367549588116
30
0
41
1
10
44.4771021509903
20
-5.35666509023065
30
0
41
1
10
43.9422820677959
20
-5.06093131011994
30
0
41
1
10
43.7636849426494
20
-4.95984015912762
30
0
41
1
10
43.4951672735927
20
-4.8045603946303
30
0
41
1
10
43.4055579537847
20
-4.75219105022103
30
0
41
1
10
43.2261103419038
20
-4.64624174357562
30
0
41
1
10
43.1362560415211
20
-4.59265103527878
30
0
41
1
10
42.6879322174263
20
-4.32265163533211
30
0
41
1
10
42.3310641705205
20
-4.09935816514343
30
0
41
1
10
41.6194377140998
20
-3.64017734595183
30
0
41
1
10
41.2647017257341
20
-3.40424146033604
30
0
41
1
10
40.7332253784633
20
-3.04199821995877
30
0
41
1
10
40.5561622525495
20
-2.91988344938363
30
0
41
1
10
40.2020276777145
20
-2.67322744073394
30
0
41
1
10
40.0249561309552
20
-2.54868812532905
30
0
41
1
10
39.4934979058233
20
-2.17170341482944
30
0
41
1
10
39.1388716478869
20
-1.91588901472829
30
0
41
1
10
38.4276843316242
20
-1.396697616354
30
0
41
1
10
38.0711285840133
20
-1.13330391257748
30
0
41
1
10
37.6233216539034
20
-0.800284413200728
30
0
41
1
10
37.5336528520313
20
-0.733499572280977
30
0
41
1
10
37.3540731123027
20
-0.599627371890648
30
0
41
1
10
37.2643551230933
20
-0.532684623289043
30
0
41
1
10
36.995557006343
20
-0.33199360164366
30
0
41
1
10
36.8167605668601
20
-0.198329438834179
30
0
41
1
10
36.4598505033863
20
0.0685537392437254
30
0
41
1
10
36.2817389273064
20
0.201774206000891
30
0
41
1
10
35.9260656317824
20
0.467565261869197
30
0
41
1
10
35.7484867005109
20
0.600123331677111
30
0
41
1
10
35.2161648623292
20
0.99639255677269
30
0
41
1
10
34.8618897991102
20
1.25874394430474
30
0
41
1
10
34.3305987332896
20
1.64826979078538
30
0
41
1
10
34.1535121084948
20
1.77743589810137
30
0
41
1
10
33.7991061282813
20
2.03416958694635
30
0
41
1
10
33.6217985540887
20
2.16174288696817
30
0
41
1
10
33.2668385035125
20
2.41508443248153
30
0
41
1
10
33.0891855659017
20
2.54085271232623
30
0
41
1
10
32.733377169996
20
2.79033669531009
30
0
41
1
10
32.5552231934466
20
2.91404684734044
30
0
41
1
10
32.1981807083181
20
3.15919317758474
30
0
41
1
10
32.0192986597579
20
3.28063194868827
30
0
41
1
10
31.7503193308181
20
3.46089210578279
30
0
41
1
10
31.6604912075213
20
3.52070094072388
30
0
41
1
10
31.480910861322
20
3.63944077438396
30
0
41
1
10
31.3911801068896
20
3.69835820494788
30
0
41
1
10
31.1221385602078
20
3.87370729261548
30
0
41
1
10
30.9429897765876
20
3.98871743363827
30
0
41
1
10
30.5848173213813
20
4.21491894197362
30
0
41
1
10
30.4057928563111
20
4.32612066935167
30
0
41
1
10
30.0477611936304
20
4.54445042563367
30
0
41
1
10
29.8687505687583
20
4.65158245910368
30
0
41
1
10
29.5105820766456
20
4.86153135136064
30
0
41
1
10
29.3314316093554
20
4.9643243864538
30
0
41
1
10
29.062423002556
20
5.11520432931886
30
0
41
1
10
28.9727046236169
20
5.16495262217296
30
0
41
1
10
28.7931536942381
20
5.26332410947771
30
0
41
1
10
28.7033104549003
20
5.31195140745569
30
0
41
1
10
28.4340533582607
20
5.45583132658908
30
0
41
1
10
28.2547586611836
20
5.5491707905633
30
0
41
1
10
27.8964330213433
20
5.73048612636015
30
0
41
1
10
27.7174117617228
20
5.81843290064973
30
0
41
1
10
27.3594066839036
20
5.98892161315885
30
0
41
1
10
27.1804051146203
20
6.07152408499422
30
0
41
1
10
26.822296496064
20
6.23112038701177
30
0
41
1
10
26.6431896971725
20
6.30810693789346
30
0
41
1
10
26.2846847885931
20
6.4563202447838
30
0
41
1
10
26.1052522838378
20
6.52756000256676
30
0
41
1
10
25.7460581004653
20
6.66405348000652
30
0
41
1
10
25.5669384995793
20
6.72905834133695
30
0
41
1
10
25.2094312771756
20
6.85265916746053
30
0
41
1
10
25.0310429426959
20
6.9112608487184
30
0
41
1
10
24.4967684007304
20
7.07726111762381
30
0
41
1
10
24.1417599399664
20
7.1748792341308
30
0
41
1
10
23.4326670782836
20
7.34378751424595
30
0
41
1
10
23.0785698472648
20
7.41514291306606
30
0
41
1
10
22.5471177824068
20
7.50205282409752
30
0
41
1
10
22.3699180026093
20
7.52765426397187
30
0
41
1
10
22.0223285890414
20
7.57124039477387
30
0
41
1
10
21.8519426378356
20
7.58954025615415
30
0
41
1
10
21.6813591291749
20
7.60466005264811
30
0
0
SPLINE
5
EC
100
AcDbEntity
8
1
62
256
6
ByLayer
370
18
48
1
60
0
100
AcDbSpline
70
4
71
3
72
18
73
14
40
0
40
0
40
0
40
0
40
0.250000000000001
40
0.250000000000001
40
0.500000000000003
40
0.500000000000003
40
0.625000000000002
40
0.625000000000002
40
0.750000000000001
40
0.750000000000001
40
0.875000000000001
40
0.875000000000001
40
1
40
1
40
1
40
1
41
1
10
48.0279236294504
20
-4.22885430011291
30
0
41
1
10
48.062822126626
20
-4.45595632800448
30
0
41
1
10
48.0969576604765
20
-4.68400830587163
30
0
41
1
10
48.1628249602686
20
-5.14218586372141
30
0
41
1
10
48.1946281215666
20
-5.37233449519044
30
0
41
1
10
48.2400692767343
20
-5.71967959401204
30
0
41
1
10
48.2548426905104
20
-5.83588968719195
30
0
41
1
10
48.2833944835825
20
-6.06885302237436
30
0
41
1
10
48.2971632080127
20
-6.1855420381352
30
0
41
1
10
48.3234083785581
20
-6.41944839434214
30
0
41
1
10
48.3359067144712
20
-6.53665678553918
30
0
41
1
10
48.3597035790883
20
-6.77156408747442
30
0
41
1
10
48.3710058913133
20
-6.88926145138828
30
0
41
1
10
48.3816609658616
20
-7.00722342675462
30
0
0
SPLINE
5
ED
100
AcDbEntity
8
1
62
256
6
ByLayer
370
18
48
1
60
0
100
AcDbSpline
70
4
71
3
72
19
73
15
40
0
40
0
40
0
40
0
40
0.249999999999994
40
0.249999999999994
40
0.499999999999987
40
0.499999999999987
40
0.562499999999987
40
0.562499999999987
40
0.593749999999987
40
0.593749999999987
40
0.624999999999987
40
0.749999999999993
40
0.749999999999993
40
1
40
1
40
1
40
1
41
1
10
44.5671180486316
20
-0.848616767920589
30
0
41
1
10
44.8277327699483
20
-1.17067848613047
30
0
41
1
10
45.0960862438742
20
-1.48361907402855
30
0
41
1
10
45.6486222393881
20
-2.09084365053352
30
0
41
1
10
45.932800917668
20
-2.38513216898102
30
0
41
1
10
46.2980223966826
20
-2.74120871411898
30
0
41
1
10
46.3715670042386
20
-2.81183434042535
30
0
41
1
10
46.482637118413
20
-2.91688503200035
30
0
41
1
10
46.5197542011112
20
-2.95172355843758
30
0
41
1
10
46.5940408999311
20
-3.0209219099462
30
0
41
1
10
46.779989109343
20
-3.19281557870824
30
0
41
1
10
46.9670815016491
20
-3.35926071654208
30
0
41
1
10
47.4182092880534
20
-3.74870018686596
30
0
41
1
10
47.7217656743887
20
-3.99497150130304
30
0
41
1
10
48.0279236294503
20
-4.2288543001124
30
0
0
SPLINE
5
EE
100
AcDbEntity
8
1
62
256
6
ByLayer
370
18
48
1
60
0
100
AcDbSpline
70
4
71
3
72
22
73
18
40
0
40
0
40
0
40
0
40
0.250000000000057
40
0.250000000000057
40
0.312500000000059
40
0.312500000000059
40
0.375000000000061
40
0.375000000000061
40
0.500000000000047
40
0.500000000000047
40
0.625000000000032
40
0.625000000000032
40
0.687500000000025
40
0.687500000000025
40
0.750000000000018
40
0.750000000000018
40
1
40
1
40
1
40
1
41
1
10
44.5671180486316
20
-0.848616767920618
30
0
41
1
10
44.5270065624945
20
-0.79904790979927
30
0
41
1
10
44.4921523052303
20
-0.746317644454763
30
0
41
1
10
44.4567502315913
20
-0.675507195434676
30
0
41
1
10
44.4500826366006
20
-0.661097544729017
30
0
41
1
10
44.4376349991021
20
-0.631746430023441
30
0
41
1
10
44.4318574799219
20
-0.61679628190268
30
0
41
1
10
44.416188142316
20
-0.571808374398273
30
0
41
1
10
44.4078547451249
20
-0.541410646639406
30
0
41
1
10
44.3955886353467
20
-0.479769939454684
30
0
41
1
10
44.3916543508468
20
-0.448527262093677
30
0
41
1
10
44.389287277734
20
-0.400984343772308
30
0
41
1
10
44.3890914573534
20
-0.384949635619734
30
0
41
1
10
44.3899240611252
20
-0.353015909960249
30
0
41
1
10
44.3909444539297
20
-0.33717346480222
30
0
41
1
10
44.3989652632759
20
-0.258562175045768
30
0
41
1
10
44.4146143692007
20
-0.197573903312616
30
0
41
1
10
44.4390959668182
20
-0.138401418971398
30
0
0
SPLINE
5
EF
100
AcDbEntity
8
1
62
256
6
ByLayer
370
18
48
1
60
0
100
AcDbSpline
70
4
71
5
72
16
73
10
40
0
40
0
40
0
40
0
40
0
40
0
40
0.136605353988078
40
0.444382996952593
40
0.64956809226227
40
0.854753187571947
40
1
40
1
40
1
40
1
40
1
40
1
41
1
10
41.717261361653
20
1.08976769476166
30
0
41
1
10
41.7916247976001
20
1.05687247663892
30
0
41
1
10
42.0335322014106
20
0.949629222113174
30
0
41
1
10
42.3871355837967
20
0.791813072551292
30
0
41
1
10
42.8524349447584
20
0.582467353233369
30
0
41
1
10
43.3968018657915
20
0.335763679704456
30
0
41
1
10
43.8668053508774
20
0.121982830742581
30
0
41
1
10
44.1692648680999
20
-0.0156629341042276
30
0
41
1
10
44.3600284067468
20
-0.102443129636981
30
0
41
1
10
44.4390959668182
20
-0.138401418971426
30
0
0
SPLINE
5
F0
100
AcDbEntity
8
1
62
256
6
ByLayer
370
18
48
1
60
0
100
AcDbSpline
70
4
71
3
72
108
73
104
40
0
40
0
40
0
40
0
40
0.0052211560534159
40
0.0104013328203137
40
0.0155405214314334
40
0.020638713535733
40
0.0256959012958026
40
0.0307120773833751
40
0.0356872349748145
40
0.0406213677467346
40
0.0455144698715531
40
0.0503665360131852
40
0.0551775613228531
40
0.0599475414348612
40
0.0646764724625938
40
0.06936435099458
40
0.0740111740907086
40
0.078616939278549
40
0.0831816445498993
40
0.087705288357517
40
0.0921878696118832
40
0.0966293876783648
40
0.101029842374548
40
0.105389233967734
40
0.109707563172772
40
0.113984831150102
40
0.118221039504148
40
0.122416190282014
40
0.126570285972463
40
0.130683329505294
40
0.134755324251084
40
0.138786274021331
40
0.142776183068956
40
0.146725056089395
40
0.150632898222053
40
0.154499715052265
40
0.158325512613815
40
0.16211029739211
40
0.165854076327753
40
0.169556856821
40
0.173218646736728
40
0.176839454410131
40
0.180419288653342
40
0.183958158762667
40
0.187456074526855
40
0.190913046236216
40
0.194329084692715
40
0.197704201221212
40
0.201038407681719
40
0.204331716482974
40
0.207584140597181
40
0.210795693576294
40
0.213966389569601
40
0.217096243343044
40
0.220185270300132
40
0.223233486504808
40
0.226240908706171
40
0.229207554365392
40
0.232133441684933
40
0.235018589640169
40
0.23786301801373
40
0.240666747432795
40
0.243429799409429
40
0.246152196384337
40
0.248833961774365
40
0.251475120024006
40
0.254075696661216
40
0.256635718358111
40
0.27369146391233
40
0.290741175528963
40
0.307787993096118
40
0.324835070326304
40
0.341885573561857
40
0.358942680503316
40
0.376009578866543
40
0.393089464974791
40
0.410185542292169
40
0.427301019905566
40
0.444439110962111
40
0.461603031069198
40
0.478795996664931
40
0.496021223365905
40
0.513281924300151
40
0.533036161848971
40
0.55325365451595
40
0.573938530912227
40
0.595094627465595
40
0.616725514080173
40
0.638834517547852
40
0.661424742901087
40
0.684499092884782
40
0.708060285712913
40
0.732110871262116
40
0.756653245843356
40
0.78168966567976
40
0.80722225920879
40
0.833253038315548
40
0.859783908594608
40
0.886816678729327
40
0.914353069068708
40
0.942394719474715
40
0.970943196506319
40
1
40
1
40
1
40
1
41
1
10
12.7726691757349
20
-0.348098472805049
30
0
41
1
10
12.7706976781246
20
-0.337267585457994
30
0
41
1
10
12.7667701565967
20
-0.315690819147335
30
0
41
1
10
12.7608693285125
20
-0.283479395957528
30
0
41
1
10
12.754989205082
20
-0.251543985867528
30
0
41
1
10
12.7491263823504
20
-0.219887595731166
30
0
41
1
10
12.7432803108187
20
-0.188510942494133
30
0
41
1
10
12.7374497714728
20
-0.157415236796823
30
0
41
1
10
12.7316338068566
20
-0.126601448621983
30
0
41
1
10
12.7258314726811
20
-0.0960705043126495
30
0
41
1
10
12.7200419016659
20
-0.0658232370325038
30
0
41
1
10
12.7142642847376
20
-0.0358604024834221
30
0
41
1
10
12.7084978741055
20
-0.0061826773448956
30
0
41
1
10
12.7027419805537
20
0.0232093377229319
30
0
41
1
10
12.6969959722705
20
0.0523151162936415
30
0
41
1
10
12.6912592732776
20
0.0811342040784382
30
0
41
1
10
12.6855313619757
20
0.109666216925206
30
0
41
1
10
12.6798117696677
20
0.137910838806704
30
0
41
1
10
12.6741000790988
20
0.165867819827184
30
0
41
1
10
12.6683959230031
20
0.193536974240771
30
0
41
1
10
12.6626989826618
20
0.220918178485192
30
0
41
1
10
12.6570089864709
20
0.248011369229971
30
0
41
1
10
12.651325708519
20
0.274816541441311
30
0
41
1
10
12.6456489671787
20
0.301333746463598
30
0
41
1
10
12.6399786237085
20
0.327563090118588
30
0
41
1
10
12.634314580868
20
0.353504730822749
30
0
41
1
10
12.6286567815462
20
0.379158877723739
30
0
41
1
10
12.6230052074023
20
0.404525788856461
30
0
41
1
10
12.6173598775221
20
0.429605769319124
30
0
41
1
10
12.6117208470872
20
0.454399169470037
30
0
41
1
10
12.6060882060598
20
0.478906383145699
30
0
41
1
10
12.600462077882
20
0.503127845900252
30
0
41
1
10
12.5948426181909
20
0.527064033267379
30
0
41
1
10
12.5892300135487
20
0.550715459044454
30
0
41
1
10
12.583624480189
20
0.574082673599605
30
0
41
1
10
12.5780262627799
20
0.597166262201824
30
0
41
1
10
12.5724356332028
20
0.619966843374868
30
0
41
1
10
12.5668528893471
20
0.642485067274379
30
0
41
1
10
12.5612783539241
20
0.6647216140897
30
0
41
1
10
12.5557123732948
20
0.68667719246929
30
0
41
1
10
12.5501553163174
20
0.708352537970939
30
0
41
1
10
12.544607573211
20
0.729748411536349
30
0
41
1
10
12.5390695544362
20
0.75086559799044
30
0
41
1
10
12.5335416895949
20
0.771704904565695
30
0
41
1
10
12.5280244263453
20
0.792267159451313
30
0
41
1
10
12.522518229337
20
0.812553210367099
30
0
41
1
10
12.5170235791628
20
0.832563923163008
30
0
41
1
10
12.5115409713276
20
0.852300180443137
30
0
41
1
10
12.5060709152364
20
0.871762880215414
30
0
41
1
10
12.5006139331998
20
0.890952934565775
30
0
41
1
10
12.495170559457
20
0.90987126835816
30
0
41
1
10
12.4897413392168
20
0.928518817958746
30
0
41
1
10
12.4843268277171
20
0.946896529985935
30
0
41
1
10
12.4789275893013
20
0.965005360084575
30
0
41
1
10
12.473544196514
20
0.98284627172572
30
0
41
1
10
12.4681772292112
20
1.00042023503025
30
0
41
1
10
12.462827273697
20
1.01772822561892
30
0
41
1
10
12.4574949218519
20
1.03477122348195
30
0
41
1
10
12.4521807703665
20
1.05155021189006
30
0
41
1
10
12.4468854196785
20
1.06806617626745
30
0
41
1
10
12.4416094740727
20
1.08432010331774
30
0
41
1
10
12.4363535376149
20
1.10031297933662
30
0
41
1
10
12.4311182253787
20
1.11604579160712
30
0
41
1
10
12.4259041189212
20
1.13151951864935
30
0
41
1
10
12.420711925329
20
1.14673516126271
30
0
41
1
10
12.4155418935398
20
1.1616936248289
30
0
41
1
10
12.4103959399712
20
1.17639614427787
30
0
41
1
10
12.3955677365452
20
1.21818604521715
30
0
41
1
10
12.3702855632904
20
1.28672845745444
30
0
41
1
10
12.3331846259628
20
1.38133075432424
30
0
41
1
10
12.2942478509371
20
1.47489432825958
30
0
41
1
10
12.2535003819727
20
1.56744481123701
30
0
41
1
10
12.2109589424342
20
1.65900956354821
30
0
41
1
10
12.1666454715213
20
1.74961913408086
30
0
41
1
10
12.1205831177307
20
1.83930644507475
30
0
41
1
10
12.0727969728561
20
1.92810660360516
30
0
41
1
10
12.0233135555447
20
2.01605656398547
30
0
41
1
10
11.9721606253997
20
2.10319484396047
30
0
41
1
10
11.919366997487
20
2.189561260592
30
0
41
1
10
11.8649620955701
20
2.27519661973741
30
0
41
1
10
11.8089766240654
20
2.36014265833708
30
0
41
1
10
11.7514390874457
20
2.44444110558723
30
0
41
1
10
11.689588624791
20
2.53210362379954
30
0
41
1
10
11.6226971643088
20
2.6237110832034
30
0
41
1
10
11.5500720964214
20
2.71984132772434
30
0
41
1
10
11.4741225842124
20
2.81726290647444
30
0
41
1
10
11.3948690437701
20
2.91599872719493
30
0
41
1
10
11.3123351938409
20
3.01607285168382
30
0
41
1
10
11.2265440805991
20
3.1175093705001
30
0
41
1
10
11.1375190708479
20
3.22033260115808
30
0
41
1
10
11.0452834744681
20
3.32456692480488
30
0
41
1
10
10.9498605528366
20
3.43023672837327
30
0
41
1
10
10.8512734257877
20
3.5373663222903
30
0
41
1
10
10.749545014746
20
3.64597987153195
30
0
41
1
10
10.6446979728642
20
3.75610132208018
30
0
41
1
10
10.5367546575872
20
3.86775435601294
30
0
41
1
10
10.4257369686746
20
3.9809622567891
30
0
41
1
10
10.3116667207641
20
4.09574813659077
30
0
41
1
10
10.1945639828481
20
4.21213379051514
30
0
41
1
10
10.0744532399803
20
4.33014383811479
30
0
41
1
10
9.95133955920051
20
4.44978959367239
30
0
41
1
10
9.8252998159308
20
4.57113069876806
30
0
41
1
10
9.73994312022296
20
4.65235126264665
30
0
41
1
10
9.69688816568691
20
4.69331990202738
30
0
0
SPLINE
5
F1
100
AcDbEntity
8
1
62
256
6
ByLayer
370
18
48
1
60
0
100
AcDbSpline
70
4
71
5
72
21
73
15
40
0
40
0
40
0
40
0
40
0
40
0
40
0.277475314955895
40
0.346844143694868
40
0.450897386803329
40
0.520266215542302
40
0.624319458650763
40
0.693688287389737
40
0.797741530498197
40
0.901794773606658
40
0.971163602345631
40
1
40
1
40
1
40
1
40
1
40
1
41
1
10
12.7688841652941
20
-0.36473291874708
30
0
41
1
10
13.2156680795964
20
-0.56738678110824
30
0
41
1
10
13.7741479724745
20
-0.819619146345758
30
0
41
1
10
14.5001718332159
20
-1.14412527804632
30
0
41
1
10
15.3378916725328
20
-1.51042679723898
30
0
41
1
10
16.3431554797132
20
-1.93349150692316
30
0
41
1
10
17.0133313511668
20
-2.20697910707045
30
0
41
1
10
17.7393552119082
20
-2.49252090176148
30
0
41
1
10
18.4653790726496
20
-2.76608759252971
30
0
41
1
10
19.191402933391
20
-3.02499071831267
30
0
41
1
10
19.796314483155
20
-3.22852297174345
30
0
41
1
10
20.2895300543436
20
-3.38497976136384
30
0
41
1
10
20.6152016576687
20
-3.48393509752256
30
0
41
1
10
20.7733292931304
20
-3.53093233460183
30
0
41
1
10
20.8197609500165
20
-3.54464121662798
30
0
0
SPLINE
5
F2
100
AcDbEntity
8
1
62
256
6
ByLayer
370
18
48
1
60
0
100
AcDbSpline
70
4
71
5
72
46
73
40
40
0
40
0
40
0
40
0
40
0
40
0
40
0.064321400390163
40
0.0865807142301681
40
0.119969684990176
40
0.142228998830181
40
0.175617969590189
40
0.197877283430194
40
0.231266254190201
40
0.264655224950209
40
0.286914538790214
40
0.320303509550222
40
0.342562823390227
40
0.375951794150235
40
0.39821110799024
40
0.431600078750247
40
0.464989049510255
40
0.48724836335026
40
0.509507677190265
40
0.542896647950273
40
0.576285618710281
40
0.598544932550286
40
0.631933903310293
40
0.665322874070301
40
0.687582187910301
40
0.709841501750311
40
0.743230472510319
40
0.776619443270327
40
0.798878757110332
40
0.832267727870339
40
0.854527041710345
40
0.887916012470352
40
0.910175326310357
40
0.943564297070365
40
0.976953267830373
40
0.999212581670378
40
1
40
1
40
1
40
1
40
1
40
1
41
1
10
13.3889979808038
20
4.55765141786387
30
0
41
1
10
13.7117591320042
20
4.52721960711898
30
0
41
1
10
14.1462162617803
20
4.47863707024777
30
0
41
1
10
14.7482173594197
20
4.39726593440696
30
0
41
1
10
15.4619144356347
20
4.27819156716865
30
0
41
1
10
16.3431554797132
20
4.09938604694293
30
0
41
1
10
17.0133313511668
20
3.9450850279631
30
0
41
1
10
17.7393552119082
20
3.75890601499842
30
0
41
1
10
18.4653790726496
20
3.55451505999227
30
0
41
1
10
19.191402933391
20
3.33120491139275
30
0
41
1
10
19.9174267941324
20
3.09179405774765
30
0
41
1
10
20.6434506548738
20
2.83598617289502
30
0
41
1
10
21.3694745156151
20
2.56653931768327
30
0
41
1
10
22.0396503870687
20
2.30630826001067
30
0
41
1
10
22.7656742478101
20
2.01331794049244
30
0
41
1
10
23.4916981085515
20
1.71052525672886
30
0
41
1
10
24.2177219692929
20
1.39860020831634
30
0
41
1
10
24.8878978407465
20
1.10442953187064
30
0
41
1
10
25.6139217014879
20
0.780567280376061
30
0
41
1
10
26.3399455622292
20
0.452933951111959
30
0
41
1
10
27.0101214336829
20
0.148332365981304
30
0
41
1
10
27.7361452944242
20
-0.182369618769485
30
0
41
1
10
28.5180171444534
20
-0.537417865750967
30
0
41
1
10
29.2440410051948
20
-0.864294383191833
30
0
41
1
10
29.9142168766484
20
-1.16217049936077
30
0
41
1
10
30.6402407373898
20
-1.47909526523816
30
0
41
1
10
31.3662645981311
20
-1.78887422389107
30
0
41
1
10
32.0364404695847
20
-2.06698483364937
30
0
41
1
10
32.7624643303261
20
-2.35828097459526
30
0
41
1
10
33.4884881910675
20
-2.63700540371301
30
0
41
1
10
34.2145120518089
20
-2.9029200367267
30
0
41
1
10
34.8846879232625
20
-3.1354904809661
30
0
41
1
10
35.6107117840038
20
-3.37223016027383
30
0
41
1
10
36.3367356447453
20
-3.59273124063458
30
0
41
1
10
37.0627595054866
20
-3.79416812182305
30
0
41
1
10
37.6251906190315
20
-3.93600962275829
30
0
41
1
10
38.0759257540008
20
-4.04004357607391
30
0
41
1
10
38.3591169211067
20
-4.101501436425
30
0
41
1
10
38.4747641203492
20
-4.12594128874633
30
0
41
1
10
38.4787153410161
20
-4.12677553653191
30
0
0
SPLINE
5
F3
100
AcDbEntity
8
1
62
256
6
ByLayer
370
18
48
1
60
0
100
AcDbSpline
70
4
71
3
72
104
73
100
40
0
40
0
40
0
40
0
40
0.0050703191131857
40
0.0050703191131857
40
0.043336845301142
40
0.043336845301142
40
0.0624701083951206
40
0.0624701083951206
40
0.0816033714890992
40
0.0816033714890992
40
0.119869897677056
40
0.119869897677056
40
0.158136423865014
40
0.158136423865014
40
0.167703055412002
40
0.167703055412002
40
0.177269686958991
40
0.177269686958991
40
0.196402950052969
40
0.196402950052969
40
0.215536213146946
40
0.215536213146946
40
0.234669476240924
40
0.234669476240924
40
0.272936002428879
40
0.272936002428879
40
0.292069265522857
40
0.292069265522857
40
0.311202528616834
40
0.311202528616834
40
0.330335791710811
40
0.330335791710811
40
0.349469054804788
40
0.349469054804788
40
0.368602317898765
40
0.368602317898765
40
0.378168949445754
40
0.378168949445754
40
0.387735580992742
40
0.387735580992742
40
0.40686884408672
40
0.40686884408672
40
0.426002107180697
40
0.426002107180697
40
0.445135370274674
40
0.445135370274674
40
0.464268633368651
40
0.464268633368651
40
0.473835264915639
40
0.473835264915639
40
0.483401896462627
40
0.483401896462627
40
0.502535159556605
40
0.502535159556605
40
0.521668422650582
40
0.521668422650582
40
0.540801685744559
40
0.540801685744559
40
0.559934948838536
40
0.559934948838536
40
0.579068211932514
40
0.579068211932514
40
0.598201475026491
40
0.598201475026491
40
0.617334738120468
40
0.617334738120468
40
0.655601264308422
40
0.655601264308422
40
0.693867790496377
40
0.693867790496377
40
0.713001053590353
40
0.713001053590353
40
0.73213431668433
40
0.73213431668433
40
0.770400842872283
40
0.770400842872283
40
0.779967474419271
40
0.779967474419271
40
0.78953410596626
40
0.78953410596626
40
0.808667369060236
40
0.808667369060236
40
0.827800632154212
40
0.827800632154212
40
0.846933895248188
40
0.846933895248188
40
0.885200421436141
40
0.885200421436141
40
0.904333684530117
40
0.904333684530117
40
0.923466947624093
40
0.923466947624093
40
0.961733473812046
40
0.961733473812046
40
0.980866736906022
40
0.980866736906022
40
0.990433368453011
40
0.990433368453011
40
1
40
1
40
1
40
1
41
1
10
42.1167440916926
20
-6.26272100292007
30
0
41
1
10
42.0695600481786
20
-6.28304000672881
30
0
41
1
10
42.022396235898
20
-6.30315118147755
30
0
41
1
10
41.6194377140998
20
-6.47326323122468
30
0
41
1
10
41.2647017257341
20
-6.61156281981718
30
0
41
1
10
40.7332253784633
20
-6.80040256894117
30
0
41
1
10
40.5561622525495
20
-6.86027147683825
30
0
41
1
10
40.2020276777144
20
-6.97387800887935
30
0
41
1
10
40.0249561309552
20
-7.02762009938539
30
0
41
1
10
39.4934979058232
20
-7.1794683435165
30
0
41
1
10
39.1388716478869
20
-7.26820586740283
30
0
41
1
10
38.4276843316242
20
-7.41940805522864
30
0
41
1
10
38.0711285840132
20
-7.48185065178467
30
0
41
1
10
37.6233216539032
20
-7.54248106001262
30
0
41
1
10
37.5336528520311
20
-7.55374916077548
30
0
41
1
10
37.3540731123026
20
-7.57461617290846
30
0
41
1
10
37.2643551230932
20
-7.58419448468473
30
0
41
1
10
36.9955570063429
20
-7.61033618117841
30
0
41
1
10
36.8167605668601
20
-7.62431844835831
30
0
41
1
10
36.4598505033862
20
-7.64529291494864
30
0
41
1
10
36.2817389273063
20
-7.652278309857
30
0
41
1
10
35.9260656317824
20
-7.65913932792611
30
0
41
1
10
35.7484867005107
20
-7.65907051317899
30
0
41
1
10
35.2161648623291
20
-7.64885126291327
30
0
41
1
10
34.8618897991101
20
-7.62855157993681
30
0
41
1
10
34.3305987332895
20
-7.5769279887613
30
0
41
1
10
34.1535121084948
20
-7.55621379467215
30
0
41
1
10
33.7991061282812
20
-7.50827387866443
30
0
41
1
10
33.6217985540886
20
-7.48099563895252
30
0
41
1
10
33.2668385035124
20
-7.41965485041521
30
0
41
1
10
33.0891855659017
20
-7.38559566983204
30
0
41
1
10
32.7333771699958
20
-7.31052659527714
30
0
41
1
10
32.5552231934464
20
-7.26947823289476
30
0
41
1
10
32.198180708318
20
-7.18091226519084
30
0
41
1
10
32.0192986597578
20
-7.13336310472462
30
0
41
1
10
31.750319330818
20
-7.05693865548614
30
0
41
1
10
31.6604912075212
20
-7.03059842224314
30
0
41
1
10
31.4809108613219
20
-6.97629830852753
30
0
41
1
10
31.3911801068894
20
-6.94834621915851
30
0
41
1
10
31.1221385602078
20
-6.86208012235124
30
0
41
1
10
30.9429897765876
20
-6.80130333539009
30
0
41
1
10
30.5848173213811
20
-6.67384878654059
30
0
41
1
10
30.405792856311
20
-6.60718808057564
30
0
41
1
10
30.0477611936304
20
-6.46783969916854
30
0
41
1
10
29.8687505687582
20
-6.39516581194451
30
0
41
1
10
29.5105820766455
20
-6.2438154991527
30
0
41
1
10
29.3314316093553
20
-6.16508699667602
30
0
41
1
10
29.0624230025559
20
-6.04278240941983
30
0
41
1
10
28.9727046236168
20
-6.00132581467847
30
0
41
1
10
28.793153694238
20
-5.91702231689234
30
0
41
1
10
28.7033104549002
20
-5.87416660879529
30
0
41
1
10
28.4340533582606
20
-5.74370172449156
30
0
41
1
10
28.2547586611835
20
-5.65413303907135
30
0
41
1
10
27.8964330213432
20
-5.4699036796921
30
0
41
1
10
27.7174117617227
20
-5.37520125859464
30
0
41
1
10
27.3594066839036
20
-5.18105605857852
30
0
41
1
10
27.1804051146202
20
-5.08169603297873
30
0
41
1
10
26.8222964960639
20
-4.87830388848883
30
0
41
1
10
26.6431896971724
20
-4.77426504302014
30
0
41
1
10
26.284684788593
20
-4.56170251404788
30
0
41
1
10
26.1052522838377
20
-4.45315668683679
30
0
41
1
10
25.7460581004652
20
-4.23182558033304
30
0
41
1
10
25.5669384995792
20
-4.11943101685509
30
0
41
1
10
25.2094312771755
20
-3.891519711352
30
0
41
1
10
25.0310429426958
20
-3.77600583803149
30
0
41
1
10
24.4967684007303
20
-3.42500789299396
30
0
41
1
10
24.1417599399663
20
-3.18509321076903
30
0
41
1
10
23.4326670782834
20
-2.6953455953001
30
0
41
1
10
23.0785698472648
20
-2.44555195183162
30
0
41
1
10
22.5471177824067
20
-2.06469413655722
30
0
41
1
10
22.3699180026092
20
-1.93670611839386
30
0
41
1
10
22.0152348592737
20
-1.67892129632762
30
0
41
1
10
21.8377434293006
20
-1.54915405264092
30
0
41
1
10
21.3046179849454
20
-1.1573629613537
30
0
41
1
10
20.9483367877577
20
-0.892806052994956
30
0
41
1
10
20.5009375481992
20
-0.559343567159942
30
0
41
1
10
20.411356646971
20
-0.492507693917418
30
0
41
1
10
20.2319715428073
20
-0.35856814119083
30
0
41
1
10
20.1420997272443
20
-0.291414059415331
30
0
41
1
10
19.8729857990398
20
-0.0902352975465135
30
0
41
1
10
19.6940498216443
20
0.0436584269082516
30
0
41
1
10
19.3369049152593
20
0.310737087704069
30
0
41
1
10
19.1586907403813
20
0.44391888266037
30
0
41
1
10
18.8027665560982
20
0.709328266068468
30
0
41
1
10
18.6250743688264
20
0.841566044483699
30
0
41
1
10
18.0926114668528
20
1.23656886547658
30
0
41
1
10
17.7384154100235
20
1.49760170430238
30
0
41
1
10
17.2071974152709
20
1.88433874785869
30
0
41
1
10
17.0301374612662
20
2.0124502861637
30
0
41
1
10
16.6758838234918
20
2.26685145095797
30
0
41
1
10
16.4987019800729
20
2.39314030402642
30
0
41
1
10
15.9667063702556
20
2.7689180201555
30
0
41
1
10
15.6113826303665
20
3.01534803521622
30
0
41
1
10
15.0764632030395
20
3.37746221309374
30
0
41
1
10
14.8978392133532
20
3.49690269811808
30
0
41
1
10
14.6292861250437
20
3.67396227895785
30
0
41
1
10
14.5396638761979
20
3.73263422676871
30
0
41
1
10
14.3601828262027
20
3.84926321404757
30
0
41
1
10
14.2703388180751
20
3.90720987228511
30
0
41
1
10
14.1805649660702
20
3.96465666646662
30
0
0
SPLINE
5
F4
100
AcDbEntity
8
1
62
256
6
ByLayer
370
18
48
1
60
0
100
AcDbSpline
70
4
71
3
72
14
73
10
40
0
40
0
40
0
40
0
40
0.128334919936293
40
0.256669839872585
40
0.385004759808878
40
0.513339679745171
40
0.641674599681463
40
0.770009519617756
40
1
40
1
40
1
40
1
41
1
10
12.7688841652941
20
-0.36473291874708
30
0
41
1
10
12.5666043939101
20
-0.54536621186017
30
0
41
1
10
12.131285968302
20
-0.871975068481021
30
0
41
1
10
11.5001003688925
20
-1.36786673732647
30
0
41
1
10
10.8798778128074
20
-1.83303587553411
30
0
41
1
10
10.2782066577663
20
-2.25326015130668
30
0
41
1
10
9.69868090668879
20
-2.6101741659798
30
0
41
1
10
8.98366318604224
20
-2.94304763284745
30
0
41
1
10
8.46248572881441
20
-3.02468185449627
30
0
41
1
10
8.1145130737911
20
-2.97802998355923
30
0
0
SPLINE
5
F5
100
AcDbEntity
8
1
62
256
6
ByLayer
370
18
48
1
60
0
100
AcDbSpline
70
4
71
3
72
90
73
86
40
0
40
0
40
0
40
0
40
0.0624999999999972
40
0.0624999999999972
40
0.124999999999994
40
0.124999999999994
40
0.187499999999992
40
0.187499999999992
40
0.218749999999991
40
0.218749999999991
40
0.23437499999999
40
0.23437499999999
40
0.24999999999999
40
0.24999999999999
40
0.312499999999986
40
0.312499999999986
40
0.374999999999982
40
0.374999999999982
40
0.40624999999998
40
0.40624999999998
40
0.437499999999978
40
0.437499999999978
40
0.453124999999977
40
0.453124999999977
40
0.468749999999976
40
0.468749999999976
40
0.499999999999975
40
0.499999999999975
40
0.531249999999974
40
0.531249999999974
40
0.539062499999974
40
0.539062499999974
40
0.546874999999974
40
0.546874999999974
40
0.562499999999974
40
0.562499999999974
40
0.593749999999973
40
0.593749999999973
40
0.624999999999972
40
0.624999999999972
40
0.656249999999972
40
0.656249999999972
40
0.671874999999971
40
0.671874999999971
40
0.675781249999971
40
0.675781249999971
40
0.679687499999971
40
0.68749999999997
40
0.68749999999997
40
0.71874999999997
40
0.71874999999997
40
0.72265624999997
40
0.72265624999997
40
0.72656249999997
40
0.72656249999997
40
0.73437499999997
40
0.73437499999997
40
0.749999999999971
40
0.749999999999971
40
0.765624999999972
40
0.765624999999972
40
0.773437499999973
40
0.773437499999973
40
0.781249999999974
40
0.781249999999974
40
0.812499999999978
40
0.812499999999978
40
0.828124999999981
40
0.828124999999981
40
0.835937499999981
40
0.835937499999981
40
0.843749999999982
40
0.843749999999982
40
0.874999999999986
40
0.874999999999986
40
0.90624999999999
40
0.90624999999999
40
0.937499999999995
40
0.937499999999995
40
0.953124999999997
40
0.960937499999997
40
0.960937499999997
40
0.968749999999997
40
0.968749999999997
40
1
40
1
40
1
40
1
41
1
10
8.11437776395431
20
-2.97808384646916
30
0
41
1
10
7.89281478655425
20
-2.81695655867259
30
0
41
1
10
7.67315589607895
20
-2.65169036905161
30
0
41
1
10
7.23713095651243
20
-2.3132002617478
30
0
41
1
10
7.02076311347642
20
-2.13997999246001
30
0
41
1
10
6.59103696663351
20
-1.78560702702359
30
0
41
1
10
6.37767599132778
20
-1.6044597153853
30
0
41
1
10
6.0599037245841
20
-1.32648478557385
30
0
41
1
10
5.95436040604849
20
-1.23278030386612
30
0
41
1
10
5.79664574442779
20
-1.09057276112847
30
0
41
1
10
5.74417445369301
20
-1.04289477237535
30
0
41
1
10
5.63944002805846
20
-0.946969729978377
30
0
41
1
10
5.58715800570747
20
-0.898704602618352
30
0
41
1
10
5.32699047292729
20
-0.656557000385106
30
0
41
1
10
5.12228671032312
20
-0.459772667021412
30
0
41
1
10
4.72095183298927
20
-0.0589616541763576
30
0
41
1
10
4.5243024099864
20
0.14504822255654
30
0
41
1
10
4.23708458649139
20
0.458058278084252
30
0
41
1
10
4.14264786755712
20
0.563569900517393
30
0
41
1
10
3.9568330649775
20
0.777360019042987
30
0
41
1
10
3.86545274814969
20
0.885636460437155
30
0
41
1
10
3.73114263704829
20
1.05055522701522
30
0
41
1
10
3.68683419570112
20
1.10594691271692
30
0
41
1
10
3.59924168802655
20
1.21766088753895
30
0
41
1
10
3.55590949745098
20
1.27404777180732
30
0
41
1
10
3.42805700504573
20
1.44419996207967
30
0
41
1
10
3.34567505357748
20
1.55892472347182
30
0
41
1
10
3.1878692704334
20
1.79163870784674
30
0
41
1
10
3.11243575254954
20
1.90962259919058
30
0
41
1
10
3.02362195504517
20
2.0597600121622
30
0
41
1
10
3.0061349579361
20
2.08992138915732
30
0
41
1
10
2.97174944437774
20
2.15053214533594
30
0
41
1
10
2.95483577814315
20
2.18101010252863
30
0
41
1
10
2.90519874763263
20
2.2726120091269
30
0
41
1
10
2.87355284282654
20
2.33394121923323
30
0
41
1
10
2.78343997521637
20
2.51884758724793
30
0
41
1
10
2.72974821469296
20
2.64332974789656
30
0
41
1
10
2.63868389243237
20
2.89569666326116
30
0
41
1
10
2.60125886053541
20
3.02358800681907
30
0
41
1
10
2.54837240841312
20
3.28424995593548
30
0
41
1
10
2.53371700083469
20
3.41338746378239
30
0
41
1
10
2.53294346351737
20
3.60538473926562
30
0
41
1
10
2.53623319048484
20
3.66909911902914
30
0
41
1
10
2.54527465901489
20
3.74839640335864
30
0
41
1
10
2.54733390372948
20
3.7642647587536
30
0
41
1
10
2.55193753580551
20
3.795817475348
30
0
41
1
10
2.55956577256853
20
3.84285843570874
30
0
41
1
10
2.56935953068586
20
3.88904285778219
30
0
41
1
10
2.60681121540122
20
4.04111963145658
30
0
41
1
10
2.65212230151624
20
4.15680331699068
30
0
41
1
10
2.72052540082785
20
4.28058957722274
30
0
41
1
10
2.72836829177012
20
4.29425513180118
30
0
41
1
10
2.74454058673973
20
4.3214102748598
30
0
41
1
10
2.75288149317495
20
4.33491682622642
30
0
41
1
10
2.77848343438936
20
4.37494085220064
30
0
41
1
10
2.79635644716558
20
4.40102362002426
30
0
41
1
10
2.85227799677654
20
4.4775753070561
30
0
41
1
10
2.89262553424237
20
4.52635066822467
30
0
41
1
10
2.97894882601651
20
4.61984912118345
30
0
41
1
10
3.02492543221334
20
4.66457143437722
30
0
41
1
10
3.09781125336266
20
4.7288971465747
30
0
41
1
10
3.12281690052012
20
4.74992176277442
30
0
41
1
10
3.17369580378329
20
4.79077952290768
30
0
41
1
10
3.19958973885846
20
4.81063591359904
30
0
41
1
10
3.331180943421
20
4.9072721637892
30
0
41
1
10
3.44318456064488
20
4.97619801974969
30
0
41
1
10
3.61920649300046
20
5.07000472792899
30
0
41
1
10
3.67922813366354
20
5.09966009850842
30
0
41
1
10
3.77110323079663
20
5.14198160825242
30
0
41
1
10
3.80203581363122
20
5.1557278904844
30
0
41
1
10
3.86449100694392
20
5.18253510280627
30
0
41
1
10
3.89604716521512
20
5.19560933831582
30
0
41
1
10
4.05485454667823
20
5.25919270609981
30
0
41
1
10
4.18430029621456
20
5.30406428762529
30
0
41
1
10
4.44705945223547
20
5.38450234443465
30
0
41
1
10
4.5803795447533
20
5.42004932592903
30
0
41
1
10
4.85030955052932
20
5.48349598782917
30
0
41
1
10
4.98692272234243
20
5.51138622488469
30
0
41
1
10
5.19401937303286
20
5.54831616717999
30
0
41
1
10
5.29811376926975
20
5.56554944105113
30
0
41
1
10
5.40298584532957
20
5.58105306773149
30
0
41
1
10
5.47306954612918
20
5.59101532336459
30
0
41
1
10
5.5082209346416
20
5.59581296123412
30
0
41
1
10
5.68395994009734
20
5.61883858987727
30
0
41
1
10
5.82463249556597
20
5.63421623555058
30
0
41
1
10
5.96537708931186
20
5.64695558728209
30
0
0
SPLINE
5
F6
100
AcDbEntity
8
1
62
256
6
ByLayer
370
18
48
1
60
0
100
AcDbSpline
70
4
71
5
72
30
73
24
40
0
40
0
40
0
40
0
40
0
40
0
40
0.0371723732723679
40
0.0793165385500075
40
0.120832832247614
40
0.203974688279731
40
0.28742370196985
40
0.326139049210363
40
0.360334310170558
40
0.40094469275643
40
0.442735042334401
40
0.526667559400003
40
0.609432996255772
40
0.643023342766184
40
0.682273928447234
40
0.724302491705896
40
0.808785789436111
40
0.893587348053441
40
0.93627017953793
40
0.978701605915112
40
1
40
1
40
1
40
1
40
1
40
1
41
1
10
48.9681474040378
20
-0.19343391365561
30
0
41
1
10
48.9674922765625
20
-0.193266288783406
30
0
41
1
10
48.9659919332899
20
-0.1928897418926
30
0
41
1
10
48.963374182746
20
-0.192254997555381
30
0
41
1
10
48.9581110010127
20
-0.191028851616437
30
0
41
1
10
48.9487736139371
20
-0.18895275801313
30
0
41
1
10
48.9370959323667
20
-0.186451514060423
30
0
41
1
10
48.9235675473497
20
-0.183625840836925
30
0
41
1
10
48.9078958607966
20
-0.18041236644828
30
0
41
1
10
48.893112882345
20
-0.177417509408002
30
0
41
1
10
48.8773000917232
20
-0.17423988365681
30
0
41
1
10
48.8571331746064
20
-0.170223797537545
30
0
41
1
10
48.8352587425053
20
-0.165908890665207
30
0
41
1
10
48.8117476152049
20
-0.161307672218953
30
0
41
1
10
48.786479319158
20
-0.156397014506268
30
0
41
1
10
48.7600930997983
20
-0.151295535818377
30
0
41
1
10
48.7325903734477
20
-0.146003671204454
30
0
41
1
10
48.7030523476561
20
-0.140351516809488
30
0
41
1
10
48.6719647128933
20
-0.134433376615618
30
0
41
1
10
48.6418362297722
20
-0.128726028839679
30
0
41
1
10
48.6206027029453
20
-0.124717796103255
30
0
41
1
10
48.608716964622
20
-0.122478397853683
30
0
41
1
10
48.6015762130074
20
-0.121134515200651
30
0
41
1
10
48.5991873246183
20
-0.120685096480344
30
0
0
SPLINE
5
F7
100
AcDbEntity
8
1
62
256
6
ByLayer
370
18
48
1
60
0
100
AcDbSpline
70
4
71
3
72
8
73
4
40
0
40
0
40
0
40
0
40
1
40
1
40
1
40
1
41
1
10
48.3898470699965
20
-0.0817148204368152
30
0
41
1
10
48.4596292163161
20
-0.094705010809605
30
0
41
1
10
48.5294092935968
20
-0.10769509603648
30
0
41
1
10
48.599187324614
20
-0.120685096479548
30
0
0
SPLINE
5
F8
100
AcDbEntity
8
1
62
256
6
ByLayer
370
18
48
1
60
0
100
AcDbSpline
70
4
71
3
72
58
73
54
40
0
40
0
40
0
40
0
40
0.0625000000000108
40
0.0625000000000108
40
0.0937500000000162
40
0.0937500000000162
40
0.109375000000018
40
0.109375000000018
40
0.125000000000019
40
0.125000000000019
40
0.187500000000023
40
0.187500000000023
40
0.218750000000026
40
0.218750000000026
40
0.234375000000027
40
0.234375000000027
40
0.242187500000027
40
0.242187500000027
40
0.250000000000028
40
0.312500000000034
40
0.312500000000034
40
0.328125000000035
40
0.328125000000035
40
0.343750000000036
40
0.375000000000039
40
0.375000000000039
40
0.39062500000004
40
0.39062500000004
40
0.406250000000042
40
0.406250000000042
40
0.437500000000044
40
0.437500000000044
40
0.500000000000049
40
0.500000000000049
40
0.515625000000046
40
0.515625000000046
40
0.531250000000042
40
0.531250000000042
40
0.562500000000035
40
0.562500000000035
40
0.625000000000028
40
0.625000000000028
40
0.687500000000021
40
0.687500000000021
40
0.750000000000014
40
0.750000000000014
40
0.812500000000006
40
0.812500000000006
40
0.843750000000007
40
0.843750000000007
40
0.875000000000007
40
0.875000000000007
40
1
40
1
40
1
40
1
41
1
10
48.3897056268144
20
-0.0816897493230897
30
0
41
1
10
48.4369309432203
20
-0.0914835776976304
30
0
41
1
10
48.4812610557855
20
-0.100753464853483
30
0
41
1
10
48.5407935315325
20
-0.113398266206559
30
0
41
1
10
48.5594688693281
20
-0.117401680036266
30
0
41
1
10
48.5852944437483
20
-0.123010944048275
30
0
41
1
10
48.5935374852089
20
-0.124814557680168
30
0
41
1
10
48.6092071458928
20
-0.128274038089074
30
0
41
1
10
48.6166345229871
20
-0.129930149741142
30
0
41
1
10
48.6512846291951
20
-0.137750754094611
30
0
41
1
10
48.6713126327889
20
-0.142591125456875
30
0
41
1
10
48.68536733053
20
-0.146908419287058
30
0
41
1
10
48.6873672111079
20
-0.147853205314419
30
0
41
1
10
48.6855785705619
20
-0.148388828646887
30
0
41
1
10
48.684182978121
20
-0.148420204103871
30
0
41
1
10
48.6807816888001
20
-0.148226482787976
30
0
41
1
10
48.6794275173115
20
-0.148121453485146
30
0
41
1
10
48.6762933292268
20
-0.147830631949688
30
0
41
1
10
48.6602635725779
20
-0.146159303453174
30
0
41
1
10
48.6266866538956
20
-0.141184002118706
30
0
41
1
10
48.5717643171938
20
-0.132339209445576
30
0
41
1
10
48.55989519075
20
-0.130403639709755
30
0
41
1
10
48.5347952236617
20
-0.126267685214344
30
0
41
1
10
48.4949863273293
20
-0.119647910104703
30
0
41
1
10
48.4491208349468
20
-0.111861549242718
30
0
41
1
10
48.3996985127048
20
-0.103390092825379
30
0
41
1
10
48.3826328579918
20
-0.100452333673417
30
0
41
1
10
48.3473730741367
20
-0.0943594552914249
30
0
41
1
10
48.3291507305157
20
-0.0911993185071651
30
0
41
1
10
48.2733972290615
20
-0.0814993568743603
30
0
41
1
10
48.2346178681418
20
-0.0747122222662995
30
0
41
1
10
48.1141201685038
20
-0.0535229723115265
30
0
41
1
10
48.0282728652854
20
-0.038299111264763
30
0
41
1
10
47.9158068082423
20
-0.0182429541592057
30
0
41
1
10
47.8930533873711
20
-0.0141799359022343
30
0
41
1
10
47.8470607419274
20
-0.005957214831426
30
0
41
1
10
47.823786829214
20
-0.0017912909288782
30
0
41
1
10
47.7536134724572
20
0.010782965695455
30
0
41
1
10
47.7063409106174
20
0.0192715148582749
30
0
41
1
10
47.5632956734001
20
0.0450018163802781
30
0
41
1
10
47.466308474653
20
0.0625054139302677
30
0
41
1
10
47.2699730746246
20
0.0980216294201171
30
0
41
1
10
47.1706181445337
20
0.116035698057772
30
0
41
1
10
46.9700974130888
20
0.152454250160304
30
0
41
1
10
46.8689284330177
20
0.170859418940751
30
0
41
1
10
46.6651563990512
20
0.207978935677204
30
0
41
1
10
46.5625516638066
20
0.226693646121362
30
0
41
1
10
46.4077714748248
20
0.25495394481004
30
0
41
1
10
46.3560319442573
20
0.264405550189849
30
0
41
1
10
46.2522887395729
20
0.283365708978664
30
0
41
1
10
46.200262139438
20
0.292878459711858
30
0
41
1
10
45.9400190898419
20
0.340481953510448
30
0
41
1
10
45.7311904207135
20
0.378742473834848
30
0
41
1
10
45.5219176462338
20
0.417127442417126
30
0
0
SPLINE
5
F9
100
AcDbEntity
8
1
62
256
6
ByLayer
370
18
48
1
60
0
100
AcDbSpline
70
4
71
3
72
44
73
40
40
0
40
0
40
0
40
0
40
0.0466004939262828
40
0.0466004939262828
40
0.0932009878525656
40
0.0932009878525656
40
0.139801481778848
40
0.139801481778848
40
0.186401975705131
40
0.186401975705131
40
0.233002469631414
40
0.233002469631414
40
0.279602963557697
40
0.32620345748398
40
0.372803951410263
40
0.419404445336545
40
0.466004939262828
40
0.512605433189111
40
0.512605433189111
40
0.559205927115394
40
0.559205927115394
40
0.605806421041677
40
0.605806421041677
40
0.65240691496796
40
0.65240691496796
40
0.699007408894242
40
0.699007408894242
40
0.745607902820525
40
0.745607902820525
40
0.792208396746808
40
0.792208396746808
40
0.838808890673091
40
0.838808890673091
40
0.885409384599374
40
0.885409384599374
40
0.932009878525656
40
0.932009878525656
40
0.978610372451939
40
1
40
1
40
1
40
1
41
1
10
48.3897553387094
20
-0.0817285864843598
30
0
41
1
10
48.0419453787643
20
0.189996141675266
30
0
41
1
10
47.6941354188191
20
0.461861955834195
30
0
41
1
10
46.9985154989288
20
1.00305708190913
30
0
41
1
10
46.6507055389837
20
1.27238542164628
30
0
41
1
10
45.9550856190934
20
1.80571128899598
30
0
41
1
10
45.6072756591482
20
2.06970785837928
30
0
41
1
10
44.9116557392579
20
2.58963118203076
30
0
41
1
10
44.5638457793128
20
2.84555700222165
30
0
41
1
10
43.8682258594225
20
3.34668354930616
30
0
41
1
10
43.5204158994773
20
3.59188337572687
30
0
41
1
10
42.824795979587
20
4.06901393089805
30
0
41
1
10
42.1291760596967
20
4.53287367199263
30
0
41
1
10
41.0857461798612
20
5.18163536821217
30
0
41
1
10
40.0423163000258
20
5.7766373495754
30
0
41
1
10
38.9988864201903
20
6.31170643705121
30
0
41
1
10
37.9554565403547
20
6.78129125712448
30
0
41
1
10
37.2598366204645
20
7.04744381662184
30
0
41
1
10
36.5642167005742
20
7.28876356818608
30
0
41
1
10
36.2164067406291
20
7.39700686354632
30
0
41
1
10
35.5207868207387
20
7.58753804233893
30
0
41
1
10
35.1729768607935
20
7.66982558455322
30
0
41
1
10
34.4773569409032
20
7.80759141859858
30
0
41
1
10
34.1295469809581
20
7.8630694657451
30
0
41
1
10
33.4339270610678
20
7.94664062542512
30
0
41
1
10
33.0861171011226
20
7.97473358995234
30
0
41
1
10
32.3904971812323
20
8.00324301698902
30
0
41
1
10
32.0426872212871
20
8.00365942996368
30
0
41
1
10
31.3470673013969
20
7.97681133694868
30
0
41
1
10
30.9992573414517
20
7.94954687616126
30
0
41
1
10
30.3036374215614
20
7.86761980901025
30
0
41
1
10
29.9558274616162
20
7.81295734726754
30
0
41
1
10
29.2602075417259
20
7.67680129919316
30
0
41
1
10
28.9123975817807
20
7.59530795945662
30
0
41
1
10
28.2167776618904
20
7.40633555714416
30
0
41
1
10
27.8689677019453
20
7.29885683496778
30
0
41
1
10
27.1733477820549
20
7.05902867407693
30
0
41
1
10
26.6658930442562
20
6.86593146886534
30
0
41
1
10
26.1584383064574
20
6.64782510186839
30
0
41
1
10
25.9987935286037
20
6.5768120122402
30
0
0
SPLINE
5
FA
100
AcDbEntity
8
1
62
256
6
ByLayer
370
18
48
1
60
0
100
AcDbSpline
70
4
71
3
72
61
73
57
40
0
40
0
40
0
40
0
40
0.03125
40
0.03125
40
0.0625
40
0.0625
40
0.09375
40
0.09375
40
0.125
40
0.125
40
0.15625
40
0.1875
40
0.21875
40
0.25
40
0.28125
40
0.3125
40
0.3125
40
0.34375
40
0.34375
40
0.375
40
0.375
40
0.40625
40
0.40625
40
0.4375
40
0.4375
40
0.46875
40
0.46875
40
0.5
40
0.5
40
0.53125
40
0.53125
40
0.5625
40
0.5625
40
0.59375
40
0.59375
40
0.625
40
0.625
40
0.65625
40
0.6875
40
0.71875
40
0.75
40
0.78125
40
0.78125
40
0.8125
40
0.8125
40
0.84375
40
0.84375
40
0.875
40
0.875
40
0.90625
40
0.90625
40
0.9375
40
0.9375
40
0.96875
40
0.96875
40
1
40
1
40
1
40
1
41
1
10
48.3897553387094
20
-7.98579714183748
30
0
41
1
10
48.0419453787644
20
-7.9696119876933
30
0
41
1
10
47.6941354188191
20
-7.93959411288245
30
0
41
1
10
46.9985154989288
20
-7.85220414637169
30
0
41
1
10
46.6507055389837
20
-7.79483221178185
30
0
41
1
10
45.9550856190933
20
-7.65332926270238
30
0
41
1
10
45.6072756591482
20
-7.56919850245268
30
0
41
1
10
44.9116557392579
20
-7.37505066829974
30
0
41
1
10
44.5638457793129
20
-7.26503394255968
30
0
41
1
10
43.8682258594225
20
-7.02025551521646
30
0
41
1
10
43.1726059395321
20
-6.75073298947837
30
0
41
1
10
42.1291760596967
20
-6.27640952623057
30
0
41
1
10
41.0857461798613
20
-5.73696795795439
30
0
41
1
10
40.0423163000258
20
-5.13800501365938
30
0
41
1
10
38.9988864201904
20
-4.48573496444808
30
0
41
1
10
38.3032665003001
20
-4.01986148147364
30
0
41
1
10
37.6076465804097
20
-3.5408914362464
30
0
41
1
10
37.2598366204645
20
-3.29485858784744
30
0
41
1
10
36.5642167005742
20
-2.79224808257791
30
0
41
1
10
36.216406740629
20
-2.53567132698683
30
0
41
1
10
35.5207868207388
20
-2.01463497013125
30
0
41
1
10
35.1729768607935
20
-1.7501763049859
30
0
41
1
10
34.4773569409033
20
-1.21611987646955
30
0
41
1
10
34.1295469809581
20
-0.946523073166645
30
0
41
1
10
33.4339270610679
20
-0.404987436827412
30
0
41
1
10
33.0861171011227
20
-0.13304957651016
30
0
41
1
10
32.3904971812323
20
0.410346807030919
30
0
41
1
10
32.0426872212871
20
0.681804354294286
30
0
41
1
10
31.3470673013969
20
1.22142371876561
30
0
41
1
10
30.9992573414517
20
1.48958456621347
30
0
41
1
10
30.3036374215614
20
2.01982833147071
30
0
41
1
10
29.9558274616163
20
2.28191029643978
30
0
41
1
10
29.260207541726
20
2.79727715409123
30
0
41
1
10
28.9123975817808
20
3.05056112153312
30
0
41
1
10
28.2167776618904
20
3.54570411285121
30
0
41
1
10
27.8689677019453
20
3.78756224751692
30
0
41
1
10
27.173347782055
20
4.25734423629271
30
0
41
1
10
26.4777278621646
20
4.71319025657542
30
0
41
1
10
25.4342979823292
20
5.34806056115062
30
0
41
1
10
24.3908681024938
20
5.92744448104912
30
0
41
1
10
23.3474382226582
20
6.44533087449307
30
0
41
1
10
22.6518183027679
20
6.74600824389165
30
0
41
1
10
21.9561983828776
20
7.02283557651751
30
0
41
1
10
21.6083884229325
20
7.14932401696322
30
0
41
1
10
20.9127685030421
20
7.37713902812376
30
0
41
1
10
20.564958543097
20
7.47846518917018
30
0
41
1
10
19.8693386232066
20
7.65490428426889
30
0
41
1
10
19.5215286632615
20
7.73001689891177
30
0
41
1
10
18.8259087433711
20
7.85324951037924
30
0
41
1
10
18.478098783426
20
7.90136928323236
30
0
41
1
10
17.7824788635356
20
7.97011686069055
30
0
41
1
10
17.4346689035905
20
7.99074454492578
30
0
41
1
10
16.7390489837002
20
8.00429382935283
30
0
41
1
10
16.391239023755
20
7.99721540745722
30
0
41
1
10
15.6956191038647
20
7.95542582119577
30
0
41
1
10
15.3478091439195
20
7.92071473287382
30
0
41
1
10
14.9999991839743
20
7.8723672876377
30
0
0
SPLINE
5
FB
100
AcDbEntity
8
1
62
256
6
ByLayer
370
18
48
1
60
0
100
AcDbSpline
70
4
71
3
72
37
73
33
40
0
40
0
40
0
40
0
40
0.0394123679208718
40
0.0394123679208718
40
0.0959175227490559
40
0.0959175227490559
40
0.15242267757724
40
0.15242267757724
40
0.208927832405424
40
0.208927832405424
40
0.265432987233608
40
0.265432987233608
40
0.321938142061792
40
0.321938142061792
40
0.378443296889976
40
0.43494845171816
40
0.491453606546344
40
0.547958761374528
40
0.604463916202712
40
0.660969071030896
40
0.660969071030896
40
0.71747422585908
40
0.71747422585908
40
0.773979380687264
40
0.773979380687264
40
0.830484535515448
40
0.830484535515448
40
0.886989690343632
40
0.886989690343632
40
0.943494845171816
40
0.943494845171816
40
1
40
1
40
1
40
1
41
1
10
33.4660998965243
20
-7.93901250848415
30
0
41
1
10
33.2235023114088
20
-7.96237056352956
30
0
41
1
10
32.9809047262932
20
-7.97904563513387
30
0
41
1
10
32.3904971812323
20
-8.00324301698927
30
0
41
1
10
32.0426872212871
20
-8.00365942996393
30
0
41
1
10
31.3470673013969
20
-7.97681133694894
30
0
41
1
10
30.9992573414517
20
-7.94954687616152
30
0
41
1
10
30.3036374215613
20
-7.86761980901051
30
0
41
1
10
29.9558274616162
20
-7.8129573472678
30
0
41
1
10
29.2602075417258
20
-7.67680129919339
30
0
41
1
10
28.9123975817808
20
-7.59530795945685
30
0
41
1
10
28.2167776618904
20
-7.40633555714439
30
0
41
1
10
27.8689677019452
20
-7.29885683496801
30
0
41
1
10
27.173347782055
20
-7.05902867407715
30
0
41
1
10
26.4777278621646
20
-6.7943306578502
30
0
41
1
10
25.4342979823291
20
-6.3267916401004
30
0
41
1
10
24.3908681024937
20
-5.79361179896131
30
0
41
1
10
23.3474382226582
20
-5.20032290114807
30
0
41
1
10
22.3040083428226
20
-4.55308034607836
30
0
41
1
10
21.6083884229324
20
-4.09009272008021
30
0
41
1
10
20.912768503042
20
-3.61376065708615
30
0
41
1
10
20.5649585430969
20
-3.36892286080948
30
0
41
1
10
19.8693386232066
20
-2.86844218946766
30
0
41
1
10
19.5215286632614
20
-2.61280021254734
30
0
41
1
10
18.8259087433711
20
-2.09336344555061
30
0
41
1
10
18.478098783426
20
-1.82956958763896
30
0
41
1
10
17.7824788635356
20
-1.29656590763668
30
0
41
1
10
17.4346689035904
20
-1.02735704354009
30
0
41
1
10
16.7390489837002
20
-0.486316392421827
30
0
41
1
10
16.391239023755
20
-0.214485577606894
30
0
41
1
10
15.6956191038647
20
0.328978719178934
30
0
41
1
10
15.3478091439195
20
0.600611225325963
30
0
41
1
10
14.9999991839743
20
0.87073596120743
30
0
0
SPLINE
5
FC
100
AcDbEntity
8
1
62
256
6
ByLayer
370
18
48
1
60
0
100
AcDbSpline
70
4
71
1
72
4
73
2
40
0
40
0
40
1
40
1
41
1
10
48.9723916515362
20
7.46740488143166
30
0
41
1
10
48.9737182125226
20
7.49208015536604
30
0
0
SPLINE
5
FD
100
AcDbEntity
8
1
62
256
6
ByLayer
370
18
48
1
60
0
100
AcDbSpline
70
4
71
1
72
4
73
2
40
0
40
0
40
1
40
1
41
1
10
48.972391651536
20
-7.46740488143089
30
0
41
1
10
48.9737182125225
20
-7.49208015536692
30
0
0
SPLINE
5
FE
100
AcDbEntity
8
1
62
256
6
ByLayer
370
18
48
1
60
0
100
AcDbSpline
70
4
71
3
72
52
73
48
40
0
40
0
40
0
40
0
40
0.0442646682449099
40
0.0888831404168154
40
0.133850022920015
40
0.179159633951965
40
0.224806006127538
40
0.241144354195558
40
0.257646187283213
40
0.274311117751527
40
0.291138737761425
40
0.30812861897082
40
0.325280312232747
40
0.342593347295333
40
0.360067232504061
40
0.377701454507075
40
0.395495477964013
40
0.41344874525909
40
0.431560676219013
40
0.449830667836361
40
0.468258093999466
40
0.48684230581576
40
0.505582632432467
40
0.52447837921904
40
0.543528827163122
40
0.562733232614899
40
0.582090827041412
40
0.601600816791633
40
0.621262382873002
40
0.641074680740165
40
0.661036840096739
40
0.68114796471074
40
0.701407132244568
40
0.721813394100204
40
0.742365775280475
40
0.763063274267051
40
0.783904862916039
40
0.804889486371889
40
0.826016062723339
40
0.847283480933646
40
0.868690602259614
40
0.890236261536114
40
0.911919267193387
40
0.933738401282159
40
0.95569241951719
40
0.977780051339824
40
1
40
1
40
1
40
1
41
1
10
14.1805139829232
20
-6.25969658859535
30
0
41
1
10
14.1642395211904
20
-6.27994291141289
30
0
41
1
10
14.1315605172633
20
-6.32059738427503
30
0
41
1
10
14.0818222246008
20
-6.38084853534801
30
0
41
1
10
14.0313088240472
20
-6.44084475711847
30
0
41
1
10
13.9799814140079
20
-6.50048813652768
30
0
41
1
10
13.9391362532137
20
-6.54693943847764
30
0
41
1
10
13.9090896968082
20
-6.58060029979049
30
0
41
1
10
13.8900793143524
20
-6.60172475991266
30
0
41
1
10
13.8708235871373
20
-6.62294936167987
30
0
41
1
10
13.8513222567854
20
-6.64427057746238
30
0
41
1
10
13.8315754163038
20
-6.66568489804445
30
0
41
1
10
13.8115830640296
20
-6.68718873506907
30
0
41
1
10
13.7913452249421
20
-6.70877844796777
30
0
41
1
10
13.7708619177213
20
-6.73045033712907
30
0
41
1
10
13.7501331637387
20
-6.75220064632956
30
0
41
1
10
13.7291589846518
20
-6.77402556273702
30
0
41
1
10
13.7079394031004
20
-6.79592121766038
30
0
41
1
10
13.6864744425498
20
-6.81788368720254
30
0
41
1
10
13.6647641274096
20
-6.83990899298891
30
0
41
1
10
13.6428084826853
20
-6.86199310338165
30
0
41
1
10
13.6206075338742
20
-6.88413193448437
30
0
41
1
10
13.5981613104623
20
-6.90632134723202
30
0
41
1
10
13.5754698417383
20
-6.92855715302986
30
0
41
1
10
13.5525331579537
20
-6.95083511379059
30
0
41
1
10
13.5293512903731
20
-6.97315094321661
30
0
41
1
10
13.5059242713261
20
-6.99550030816889
30
0
41
1
10
13.4822521342203
20
-7.01787883017215
30
0
41
1
10
13.4583349135651
20
-7.04028208700936
30
0
41
1
10
13.4341726449924
20
-7.06270561441985
30
0
41
1
10
13.4097653652764
20
-7.08514490789952
30
0
41
1
10
13.3851131123537
20
-7.10759542460656
30
0
41
1
10
13.3602159253426
20
-7.13005258536947
30
0
41
1
10
13.3350738445612
20
-7.15251177681546
30
0
41
1
10
13.3096869115461
20
-7.174968353558
30
0
41
1
10
13.2840551690651
20
-7.1974176406803
30
0
41
1
10
13.2581786611489
20
-7.21985493562664
30
0
41
1
10
13.2320574331625
20
-7.24227551275678
30
0
41
1
10
13.2056915329969
20
-7.26467461730991
30
0
41
1
10
13.1790810071907
20
-7.28704751416041
30
0
41
1
10
13.1522258904649
20
-7.30938941531952
30
0
41
1
10
13.1251262619631
20
-7.33169560736968
30
0
41
1
10
13.0977820374906
20
-7.35396093503553
30
0
41
1
10
13.0701937475364
20
-7.37618176524779
30
0
41
1
10
13.0423596066708
20
-7.39834859009255
30
0
41
1
10
13.0142865514298
20
-7.42047389432466
30
0
41
1
10
12.9954505066212
20
-7.43510603272429
30
0
41
1
10
12.9860043589407
20
-7.44244395008482
30
0
0
SPLINE
5
FF
100
AcDbEntity
8
1
62
256
6
ByLayer
370
18
48
1
60
0
100
AcDbSpline
70
4
71
5
72
15
73
9
40
0
40
0
40
0
40
0
40
0
40
0
40
0.137345843832355
40
0.553301641900226
40
0.830605507278807
40
1
40
1
40
1
40
1
40
1
40
1
41
1
10
14.9999999245388
20
-7.87236120720343
30
0
41
1
10
14.944678018336
20
-7.86467115644476
30
0
41
1
10
14.7218121442698
20
-7.83253440256996
30
0
41
1
10
14.387250291628
20
-7.77730472190604
30
0
41
1
10
13.984457570282
20
-7.6982734519502
30
0
41
1
10
13.581664848936
20
-7.60435320355938
30
0
41
1
10
13.2341940337928
20
-7.51245437712791
30
0
41
1
10
13.054267186513
20
-7.4619824033829
30
0
41
1
10
12.9860363178088
20
-7.44242962691078
30
0
0
SPLINE
5
100
100
AcDbEntity
8
1
62
256
6
ByLayer
370
18
48
1
60
0
100
AcDbSpline
70
4
71
3
72
49
73
45
40
0
40
0
40
0
40
0
40
0.0625000000000027
40
0.0625000000000027
40
0.125000000000005
40
0.125000000000005
40
0.156250000000007
40
0.156250000000007
40
0.187500000000008
40
0.187500000000008
40
0.250000000000012
40
0.250000000000012
40
0.265625000000012
40
0.265625000000012
40
0.281250000000013
40
0.281250000000013
40
0.312500000000014
40
0.312500000000014
40
0.375000000000016
40
0.375000000000016
40
0.390625000000017
40
0.390625000000017
40
0.406250000000018
40
0.406250000000018
40
0.437500000000021
40
0.437500000000021
40
0.500000000000025
40
0.500000000000025
40
0.56250000000003
40
0.56250000000003
40
0.59375000000003
40
0.59375000000003
40
0.625000000000031
40
0.625000000000031
40
0.687500000000028
40
0.687500000000028
40
0.750000000000026
40
0.750000000000026
40
0.875000000000017
40
0.875000000000017
40
0.906250000000013
40
0.906250000000013
40
0.937500000000009
40
1
40
1
40
1
40
1
41
1
10
2.60602215709423
20
-7.1794550133817
30
0
41
1
10
2.57986865810307
20
-7.13185881145287
30
0
41
1
10
2.56014707813935
20
-7.08213693891054
30
0
41
1
10
2.53553146877738
20
-6.97827423237834
30
0
41
1
10
2.53062727409403
20
-6.92413417020913
30
0
41
1
10
2.5363744614703
20
-6.83943202454549
30
0
41
1
10
2.5404803999206
20
-6.81061534910717
30
0
41
1
10
2.55350252449745
20
-6.75177791010452
30
0
41
1
10
2.56231561881097
20
-6.72223542871086
30
0
41
1
10
2.59567188903551
20
-6.63334848618899
30
0
41
1
10
2.62712414788959
20
-6.57374175102379
30
0
41
1
10
2.67811646445864
20
-6.49915274860743
30
0
41
1
10
2.68889943601579
20
-6.48423094892098
30
0
41
1
10
2.71164110441413
20
-6.45438841312276
30
0
41
1
10
2.72363058373978
20
-6.43943252163302
30
0
41
1
10
2.76107521434918
20
-6.39492730103152
30
0
41
1
10
2.78801917715367
20
-6.36570421911452
30
0
41
1
10
2.87440505809246
20
-6.27938538519641
30
0
41
1
10
2.93938457761851
20
-6.22363900543377
30
0
41
1
10
3.02884619435855
20
-6.15625079340231
30
0
41
1
10
3.04715169560896
20
-6.14288796977186
30
0
41
1
10
3.08456899404143
20
-6.11639342479361
30
0
41
1
10
3.10365253120645
20
-6.10328311269308
30
0
41
1
10
3.1616625130286
20
-6.06456789904493
30
0
41
1
10
3.20146829873656
20
-6.03949129004965
30
0
41
1
10
3.32395401418341
20
-5.96631778307162
30
0
41
1
10
3.40968767557331
20
-5.92027053743962
30
0
41
1
10
3.58801466571771
20
-5.83308423629754
30
0
41
1
10
3.68061431632893
20
-5.79194792810674
30
0
41
1
10
3.8240009432148
20
-5.73364623307202
30
0
41
1
10
3.87258339325081
20
-5.71477101311572
30
0
41
1
10
3.97030072595845
20
-5.67842742369777
30
0
41
1
10
4.01954151016952
20
-5.66091432800874
30
0
41
1
10
4.16831395366483
20
-5.61022170738846
30
0
41
1
10
4.26889166802056
20
-5.57888346620072
30
0
41
1
10
4.47244962501892
20
-5.52059481330801
30
0
41
1
10
4.57543148720103
20
-5.49364654006641
30
0
41
1
10
4.88756966345127
20
-5.41882594144062
30
0
41
1
10
5.09989567714109
20
-5.37694715444709
30
0
41
1
10
5.36971680931336
20
-5.3334015873134
30
0
41
1
10
5.42382815239066
20
-5.32514830991366
30
0
41
1
10
5.53200243734938
20
-5.30956653000385
30
0
41
1
10
5.69434292754471
20
-5.28755720518359
30
0
41
1
10
5.8569084852852
20
-5.26946471350831
30
0
41
1
10
5.96537708931319
20
-5.25902002840962
30
0
0
SPLINE
5
101
100
AcDbEntity
8
1
62
256
6
ByLayer
370
18
48
1
60
0
100
AcDbSpline
70
4
71
3
72
27
73
23
40
0
40
0
40
0
40
0
40
0.0625000000000026
40
0.0625000000000026
40
0.125000000000005
40
0.125000000000005
40
0.250000000000016
40
0.250000000000016
40
0.281250000000016
40
0.281250000000016
40
0.312500000000016
40
0.375000000000016
40
0.375000000000016
40
0.500000000000011
40
0.500000000000011
40
0.625000000000006
40
0.625000000000006
40
0.687500000000006
40
0.687500000000006
40
0.750000000000006
40
0.750000000000006
40
1
40
1
40
1
40
1
41
1
10
5.96537708931317
20
-5.25902002840962
30
0
41
1
10
6.04953861703055
20
-5.25091592619211
30
0
41
1
10
6.13360575746856
20
-5.24562416434193
30
0
41
1
10
6.30158035206188
20
-5.23983072755317
30
0
41
1
10
6.38548761085437
20
-5.2393343499771
30
0
41
1
10
6.63699702446522
20
-5.24421880425771
30
0
41
1
10
6.80438851814867
20
-5.25592985891672
30
0
41
1
10
7.01332632549861
20
-5.27948901243585
30
0
41
1
10
7.05513562573861
20
-5.28465574818529
30
0
41
1
10
7.13855987692224
20
-5.29583867101201
30
0
41
1
10
7.26310044784276
20
-5.31384468360784
30
0
41
1
10
7.38593653480319
20
-5.33534179605147
30
0
41
1
10
7.62950408412468
20
-5.38254867638341
30
0
41
1
10
7.78908496180046
20
-5.41962149997417
30
0
41
1
10
8.10323807735023
20
-5.5031855114423
30
0
41
1
10
8.25780518861245
20
-5.54968727827725
30
0
41
1
10
8.48615916982575
20
-5.62547324157072
30
0
41
1
10
8.56169307240202
20
-5.65174282546755
30
0
41
1
10
8.71162531940726
20
-5.70613945107655
30
0
41
1
10
8.78611568388945
20
-5.73430616303369
30
0
41
1
10
9.15311462106263
20
-5.87831436352224
30
0
41
1
10
9.43130720921633
20
-6.00427548714637
30
0
41
1
10
9.69683294248199
20
-6.13542522460259
30
0
0
SPLINE
5
102
100
AcDbEntity
8
1
62
256
6
ByLayer
370
18
48
1
60
0
100
AcDbSpline
70
4
71
3
72
10
73
6
40
0
40
0
40
0
40
0
40
0.5
40
0.5
40
1
40
1
40
1
40
1
41
1
10
9.69707143265865
20
-6.13540864753512
30
0
41
1
10
10.2452322482202
20
-6.41024479489033
30
0
41
1
10
10.7933930637817
20
-6.65864647885255
30
0
41
1
10
11.8897146949047
20
-7.09619864162846
30
0
41
1
10
12.4378755104662
20
-7.28534427490987
30
0
41
1
10
12.9860363260277
20
-7.44242956495796
30
0
0
SPLINE
5
103
100
AcDbEntity
8
1
62
256
6
ByLayer
370
18
48
1
60
0
100
AcDbSpline
70
4
71
3
72
20
73
16
40
0
40
0
40
0
40
0
40
0.125
40
0.125
40
0.25
40
0.25
40
0.375
40
0.375
40
0.5
40
0.5
40
0.75
40
0.75
40
0.875
40
0.875
40
1
40
1
40
1
40
1
41
1
10
12.9860830520348
20
2.40813691955171
30
0
41
1
10
13.0000914031073
20
2.49945348788052
30
0
41
1
10
13.0172632968332
20
2.58925536062938
30
0
41
1
10
13.0560146022562
20
2.76640034129798
30
0
41
1
10
13.0776071139036
20
2.85373959674351
30
0
41
1
10
13.123974892421
20
3.02632042263133
30
0
41
1
10
13.1487566684805
20
3.11156007321262
30
0
41
1
10
13.2006502111019
20
3.28018825258346
30
0
41
1
10
13.2277655271446
20
3.36357573356537
30
0
41
1
10
13.3116761505554
20
3.61122132110683
30
0
41
1
10
13.3709899733381
20
3.77297860652303
30
0
41
1
10
13.4625231321509
20
4.01124031617513
30
0
41
1
10
13.4934508257989
20
4.08986179666692
30
0
41
1
10
13.5556775332566
20
4.24516782529241
30
0
41
1
10
13.5870016410282
20
4.3219162038431
30
0
41
1
10
13.6184203065094
20
4.39779743984846
30
0
0
SPLINE
5
104
100
AcDbEntity
8
1
62
256
6
ByLayer
370
18
48
1
60
0
100
AcDbSpline
70
4
71
3
72
26
73
22
40
0
40
0
40
0
40
0
40
0.220318881905343
40
0.220318881905343
40
0.440637763810686
40
0.440637763810686
40
0.550797204763359
40
0.550797204763359
40
0.578337065001526
40
0.578337065001526
40
0.605876925239693
40
0.605876925239693
40
0.660956645716027
40
0.660956645716027
40
0.771116086668692
40
0.771116086668692
40
0.881275527621356
40
0.881275527621356
40
0.991434968574021
40
0.991434968574021
40
1
40
1
40
1
40
1
41
1
10
8.11437776517138
20
7.19919875143441
30
0
41
1
10
7.80583044023743
20
7.30462977116633
30
0
41
1
10
7.50090231511956
20
7.40206597432206
30
0
41
1
10
6.89701155453983
20
7.5780927574626
30
0
41
1
10
6.59803800827467
20
7.65670283096847
30
0
41
1
10
6.15380978144648
20
7.75842164185454
30
0
41
1
10
6.00644747885951
20
7.78962747159977
30
0
41
1
10
5.82319151109772
20
7.8250087042494
30
0
41
1
10
5.78658790943268
20
7.831903494432
30
0
41
1
10
5.71347830017712
20
7.84532319848208
30
0
41
1
10
5.67696325127829
20
7.85184952703616
30
0
41
1
10
5.56776752193363
20
7.87082912159795
30
0
41
1
10
5.49537499450867
20
7.88269471561131
30
0
41
1
10
5.27946341277618
20
7.91587070205867
30
0
41
1
10
5.13720395150833
20
7.93476398100563
30
0
41
1
10
4.85646282346693
20
7.96571875441177
30
0
41
1
10
4.71797848357761
20
7.97778249993422
30
0
41
1
10
4.4454346091008
20
7.99455376247272
30
0
41
1
10
4.31137024524838
20
7.99926500574529
30
0
41
1
10
4.16980016922616
20
7.99997192511125
30
0
41
1
10
4.15960331850266
20
7.99999844977569
30
0
41
1
10
4.14942314322215
20
8.00000023047397
30
0
0
SPLINE
5
105
100
AcDbEntity
8
1
62
256
6
ByLayer
370
18
48
1
60
0
100
AcDbSpline
70
4
71
3
72
52
73
48
40
0
40
0
40
0
40
0
40
0.0442646682449122
40
0.0888831404168218
40
0.133850022920018
40
0.179159633951971
40
0.224806006127544
40
0.241144354195565
40
0.257646187283219
40
0.274311117751534
40
0.29113873776143
40
0.308128618970825
40
0.325280312232753
40
0.342593347295339
40
0.360067232504066
40
0.37770145450708
40
0.395495477964018
40
0.413448745259094
40
0.431560676219018
40
0.449830667836366
40
0.46825809399947
40
0.486842305815764
40
0.505582632432471
40
0.524478379219043
40
0.543528827163126
40
0.562733232614902
40
0.582090827041415
40
0.601600816791636
40
0.621262382873005
40
0.641074680740168
40
0.661036840096742
40
0.681147964710742
40
0.701407132244571
40
0.721813394100207
40
0.742365775280477
40
0.763063274267052
40
0.783904862916041
40
0.80488948637189
40
0.82601606272334
40
0.847283480933647
40
0.868690602259614
40
0.890236261536114
40
0.911919267193388
40
0.93373840128216
40
0.95569241951719
40
0.977780051339823
40
1
40
1
40
1
40
1
41
1
10
14.1805139829232
20
3.96458817060224
30
0
41
1
10
14.1642395211904
20
3.94274157553551
30
0
41
1
10
14.1315605172634
20
3.89887376732781
30
0
41
1
10
14.0818222246008
20
3.8323502192068
30
0
41
1
10
14.0313088240472
20
3.7649756873476
30
0
41
1
10
13.9799814140079
20
3.69672750464864
30
0
41
1
10
13.9391362532138
20
3.64258233457696
30
0
41
1
10
13.9090896968082
20
3.60284535683687
30
0
41
1
10
13.8900793143524
20
3.57774019772924
30
0
41
1
10
13.8708235871373
20
3.55234423543021
30
0
41
1
10
13.8513222567854
20
3.52665695117003
30
0
41
1
10
13.8315754163038
20
3.50067768382948
30
0
41
1
10
13.8115830640296
20
3.47440588314359
30
0
41
1
10
13.7913452249421
20
3.44784104360079
30
0
41
1
10
13.7708619177214
20
3.42098272517748
30
0
41
1
10
13.7501331637388
20
3.39383055048793
30
0
41
1
10
13.7291589846519
20
3.36638420836326
30
0
41
1
10
13.7079394031005
20
3.33864345569427
30
0
41
1
10
13.6864744425499
20
3.31060811977687
30
0
41
1
10
13.6647641274097
20
3.28227810046167
30
0
41
1
10
13.6428084826853
20
3.25365337232088
30
0
41
1
10
13.6206075338743
20
3.22473398517633
30
0
41
1
10
13.5981613104623
20
3.19552006062
30
0
41
1
10
13.5754698417384
20
3.16601180204225
30
0
41
1
10
13.5525331579537
20
3.13620949734039
30
0
41
1
10
13.5293512903731
20
3.10611352162843
30
0
41
1
10
13.5059242713261
20
3.07572433954672
30
0
41
1
10
13.4822521342203
20
3.04504250762122
30
0
41
1
10
13.4583349135651
20
3.01406867659344
30
0
41
1
10
13.4341726449925
20
2.98280359373868
30
0
41
1
10
13.4097653652764
20
2.9512481051633
30
0
41
1
10
13.3851131123537
20
2.91940315807909
30
0
41
1
10
13.3602159253427
20
2.88726980304904
30
0
41
1
10
13.3350738445613
20
2.85484919620993
30
0
41
1
10
13.3096869115461
20
2.82214260143016
30
0
41
1
10
13.2840551690652
20
2.78915139254389
30
0
41
1
10
13.258178661149
20
2.75587705510838
30
0
41
1
10
13.2320574331625
20
2.72232118990038
30
0
41
1
10
13.2056915329969
20
2.68848551126692
30
0
41
1
10
13.1790810071907
20
2.6543718809549
30
0
41
1
10
13.1522258904649
20
2.61998227266775
30
0
41
1
10
13.1251262619631
20
2.5853187948313
30
0
41
1
10
13.0977820374906
20
2.55038356868908
30
0
41
1
10
13.0701937475365
20
2.51517919936322
30
0
41
1
10
13.0423596066709
20
2.47970700387768
30
0
41
1
10
13.0142865514299
20
2.44397369094247
30
0
41
1
10
12.9954505066213
20
2.42003970120305
30
0
41
1
10
12.9860043589407
20
2.40803696899678
30
0
0
SPLINE
5
106
100
AcDbEntity
8
1
62
256
6
ByLayer
370
18
48
1
60
0
100
AcDbSpline
70
4
71
5
72
15
73
9
40
0
40
0
40
0
40
0
40
0
40
0
40
0.137345843832354
40
0.553301641900222
40
0.830605507278801
40
1
40
1
40
1
40
1
40
1
40
1
41
1
10
14.9999999245388
20
0.870736321460356
30
0
41
1
10
14.944678018336
20
0.913701751295235
30
0
41
1
10
14.7218121442698
20
1.08666121821741
30
0
41
1
10
14.387250291628
20
1.345466873855
30
0
41
1
10
13.9844575702821
20
1.65507684855095
30
0
41
1
10
13.5816648489361
20
1.96147674145925
30
0
41
1
10
13.2341940337929
20
2.22277299276658
30
0
41
1
10
13.0542671865131
20
2.35718035343831
30
0
41
1
10
12.9860363178089
20
2.40801592241428
30
0
0
SPLINE
5
107
100
AcDbEntity
8
1
62
256
6
ByLayer
370
18
48
1
60
0
100
AcDbSpline
70
4
71
3
72
10
73
6
40
0
40
0
40
0
40
0
40
0.5
40
0.5
40
1
40
1
40
1
40
1
41
1
10
9.69707143265867
20
4.69339323654521
30
0
41
1
10
10.2452322482202
20
4.34657016739325
30
0
41
1
10
10.7933930637817
20
3.97953174025685
30
0
41
1
10
11.8897146949047
20
3.21445462706515
30
0
41
1
10
12.4378755104663
20
2.81642441361305
30
0
41
1
10
12.9860363260278
20
2.40801591367014
30
0
0
SPLINE
5
108
100
AcDbEntity
8
1
62
256
6
ByLayer
370
18
48
1
60
0
100
AcDbSpline
70
4
71
3
72
18
73
14
40
0
40
0
40
0
40
0
40
0.250000000000004
40
0.250000000000004
40
0.500000000000008
40
0.500000000000008
40
0.562500000000007
40
0.562500000000007
40
0.625000000000006
40
0.625000000000006
40
0.750000000000004
40
0.750000000000004
40
1
40
1
40
1
40
1
41
1
10
13.6184203065091
20
4.39779743984866
30
0
41
1
10
13.1612260155291
20
4.69618243494907
30
0
41
1
10
12.7050870736805
20
4.98073567008311
30
0
41
1
10
11.7918352780039
20
5.51911614958053
30
0
41
1
10
11.3347275706394
20
5.77294870210076
30
0
41
1
10
10.7607823707796
20
6.06892775467384
30
0
41
1
10
10.645864967928
20
6.12705697481172
30
0
41
1
10
10.4157228064564
20
6.24112497626325
30
0
41
1
10
10.3004389941842
20
6.29709046309455
30
0
41
1
10
9.95498462470323
20
6.46117601863696
30
0
41
1
10
9.72495361332696
20
6.56561824379088
30
0
41
1
10
9.03508071782727
20
6.86372544984863
30
0
41
1
10
8.57546103673539
20
7.04218434318341
30
0
41
1
10
8.11455095207674
20
7.19922167413392
30
0
0
SPLINE
5
109
100
AcDbEntity
8
1
62
256
6
ByLayer
370
18
48
1
60
0
100
AcDbSpline
70
4
71
3
72
8
73
4
40
0
40
0
40
0
40
0
40
1
40
1
40
1
40
1
41
1
10
13.6184203065094
20
4.39779743984843
30
0
41
1
10
13.8001889635901
20
4.24777173143775
30
0
41
1
10
13.9879982349311
20
4.10397032670477
30
0
41
1
10
14.1807270929651
20
3.9646079701138
30
0
0
SPLINE
5
10A
100
AcDbEntity
8
1
62
256
6
ByLayer
370
18
48
1
60
0
100
AcDbSpline
70
4
71
1
72
4
73
2
40
0
40
0
40
1
40
1
41
1
10
48.972391651536
20
-0.195289186790092
30
0
41
1
10
48.9737182125226
20
-0.195272558408306
30
0
0
SPLINE
5
10B
100
AcDbEntity
8
1
62
256
6
ByLayer
370
18
48
1
60
0
100
AcDbSpline
70
4
71
3
72
14
73
10
40
0
40
0
40
0
40
0
40
0.183199492328054
40
0.332974887026144
40
0.497864100215936
40
0.617507826645856
40
0.708664788712713
40
0.82499147487777
40
1
40
1
40
1
40
1
41
1
10
18.0964422615159
20
-7.93908163774822
30
0
41
1
10
18.3153582941132
20
-7.91779096936864
30
0
41
1
10
18.7140441887948
20
-7.87930904964196
30
0
41
1
10
19.3128100611603
20
-7.82256304559562
30
0
41
1
10
19.8360169085423
20
-7.77316181052623
30
0
41
1
10
20.2885181300636
20
-7.73094402319026
30
0
41
1
10
20.6825847929222
20
-7.6944681280126
30
0
41
1
10
21.1434686646021
20
-7.65247345549398
30
0
41
1
10
21.4936567815589
20
-7.62120167066266
30
0
41
1
10
21.7038117209698
20
-7.60267270052231
30
0
0
SPLINE
5
10C
100
AcDbEntity
8
1
62
256
6
ByLayer
370
18
48
1
60
0
100
AcDbSpline
70
4
71
2
72
6
73
3
40
0
40
0
40
0
40
1
40
1
40
1
41
1
10
48.9681411593256
20
-0.193432315982079
30
0
41
1
10
48.8720664606351
20
0.553579465871962
30
0
41
1
10
48.7759917619446
20
1.30059124772603
30
0
0
SPLINE
5
10D
100
AcDbEntity
8
1
62
256
6
ByLayer
370
18
48
1
60
0
100
AcDbSpline
70
4
71
3
72
15
73
11
40
0
40
0
40
0
40
0
40
0.172134546008593
40
0.286337760144668
40
0.356535950960001
40
0.429864573885271
40
0.511431923302406
40
0.62797596491768
40
0.790822588387951
40
1
40
1
40
1
40
1
41
1
10
33.4659932647396
20
-7.93904022204862
30
0
41
1
10
33.6730628485403
20
-7.91906658687907
30
0
41
1
10
34.0173353564558
20
-7.8859870004901
30
0
41
1
10
34.4459585790197
20
-7.8450954524011
30
0
41
1
10
34.7552555274527
20
-7.81568096351612
30
0
41
1
10
35.0261869768931
20
-7.79004450384303
30
0
41
1
10
35.3526226223706
20
-7.75933566635425
30
0
41
1
10
35.7869868509981
20
-7.71878558992537
30
0
41
1
10
36.3748218866852
20
-7.66494925778986
30
0
41
1
10
36.8223451437203
20
-7.62472121688808
30
0
41
1
10
37.0739451073405
20
-7.60237312840064
30
0
0
SPLINE
5
10E
100
AcDbEntity
8
1
62
256
6
ByLayer
370
18
48
1
60
0
100
AcDbSpline
70
4
71
3
72
14
73
10
40
0
40
0
40
0
40
0
40
0.175008525122319
40
0.291335211287357
40
0.382492173354152
40
0.502135899784045
40
0.667025112973838
40
0.816800507671958
40
1
40
1
40
1
40
1
41
1
10
21.7038117209706
20
7.60267270052208
30
0
41
1
10
21.4936567815595
20
7.62120167066243
30
0
41
1
10
21.1434686646026
20
7.65247345549375
30
0
41
1
10
20.6825847929225
20
7.6944681280124
30
0
41
1
10
20.2885181300639
20
7.73094402319006
30
0
41
1
10
19.8360169085427
20
7.77316181052603
30
0
41
1
10
19.3128100611606
20
7.82256304559544
30
0
41
1
10
18.7140441887949
20
7.87930904964176
30
0
41
1
10
18.3153582941133
20
7.9177909693685
30
0
41
1
10
18.0964422615159
20
7.93908163774805
30
0
0
SPLINE
5
10F
100
AcDbEntity
8
1
62
256
6
ByLayer
370
18
48
1
60
0
100
AcDbSpline
70
4
71
3
72
17
73
13
40
0
40
0
40
0
40
0
40
0.151728574909391
40
0.267642181951032
40
0.347742135944934
40
0.396053875245583
40
0.438811226941713
40
0.480828196558077
40
0.543942204382093
40
0.643538786667264
40
0.795567684471905
40
1
40
1
40
1
40
1
41
1
10
37.0739451073409
20
7.6023731284003
30
0
41
1
10
36.8913053362398
20
7.61856554957001
30
0
41
1
10
36.5691553752531
20
7.64737924486943
30
0
41
1
10
36.1507760618135
20
7.68547053398927
30
0
41
1
10
35.856673281987
20
7.71243589351567
30
0
41
1
10
35.6514114903573
20
7.73147792932775
30
0
41
1
10
35.491721626592
20
7.74636749348704
30
0
41
1
10
35.3140350170325
20
7.76300733544059
30
0
41
1
10
35.0677862502417
20
7.7861833360781
30
0
41
1
10
34.689238071817
20
7.82199121628494
30
0
41
1
10
34.1406733462785
20
7.8741451966329
30
0
41
1
10
33.711902161498
20
7.91531024052014
30
0
41
1
10
33.4659932647396
20
7.93904022204836
30
0
0
SPLINE
5
110
100
AcDbEntity
8
1
62
256
6
ByLayer
370
18
48
1
60
0
100
AcDbSpline
70
4
71
3
72
8
73
4
40
0
40
0
40
0
40
0
40
1
40
1
40
1
40
1
41
1
10
5.18347664200928
20
-5.37008936050469
30
0
41
1
10
5.17256503444452
20
-5.37217735255308
30
0
41
1
10
5.16165365418021
20
-5.37427051205245
30
0
41
1
10
5.15074249590359
20
-5.37636878436541
30
0
0
LINE
5
77
100
AcDbEntity
8
80
62
256
6
ByLayer
370
18
48
1
60
0
100
AcDbLine
10
0
20
0
30
0
11
-5
21
0
31
0
39
0
210
0
220
0
230
1
0
LINE
5
78
100
AcDbEntity
8
4
62
256
6
ByLayer
370
18
48
0.05
60
0
100
AcDbLine
10
0
20
0
30
0
11
49
21
0
31
0
39
0
210
0
220
0
230
1
0
LINE
5
7A
100
AcDbEntity
8
81
62
256
6
ByLayer
370
18
48
1
60
0
100
AcDbLine
10
49
20
0
30
0
11
54
21
0
31
0
39
0
210
0
220
0
230
1
0
LINE
5
7B
100
AcDbEntity
8
SK4
62
256
6
ByLayer
370
18
48
0.05
60
0
100
AcDbLine
10
-48
20
0
30
0
11
49
21
0
31
0
39
0
210
0
220
0
230
1
0
LINE
5
7D
100
AcDbEntity
8
1
62
256
6
ByLayer
370
18
48
1
60
0
100
AcDbLine
10
0
20
8
30
0
11
0
21
0
31
0
39
0
210
0
220
0
230
1
0
LINE
5
7E
100
AcDbEntity
8
1
62
256
6
ByLayer
370
18
48
1
60
0
100
AcDbLine
10
0
20
0
30
0
11
0
21
-8
31
0
39
0
210
0
220
0
230
1
0
LINE
5
7F
100
AcDbEntity
8
1
62
256
6
ByLayer
370
18
48
1
60
0
100
AcDbLine
10
48.922076
20
0.19592
30
0
11
48.972392
21
0.195289
31
0
39
0
210
0
220
0
230
1
0
LINE
5
80
100
AcDbEntity
8
1
62
256
6
ByLayer
370
18
48
1
60
0
100
AcDbLine
10
48.783852
20
-1.241859
30
0
11
48.63412
21
-1.211542
31
0
39
0
210
0
220
0
230
1
0
LINE
5
81
100
AcDbEntity
8
1
62
256
6
ByLayer
370
18
48
1
60
0
100
AcDbLine
10
48.635352
20
-1.198152
30
0
11
48.727935
21
-0.191808
31
0
39
0
210
0
220
0
230
1
0
LINE
5
82
100
AcDbEntity
8
1
62
256
6
ByLayer
370
18
48
1
60
0
100
AcDbLine
10
48.66265
20
1.70592
30
0
11
48.972392
21
7.467405
31
0
39
0
210
0
220
0
230
1
0
LINE
5
83
100
AcDbEntity
8
1
62
256
6
ByLayer
370
13
48
1
60
0
100
AcDbLine
10
45.477802
20
4.866158
30
0
11
45.790554
21
4.321668
31
0
39
0
210
0
220
0
230
1
0
LINE
5
84
100
AcDbEntity
8
1
62
256
6
ByLayer
370
13
48
1
60
0
100
AcDbLine
10
48.345698
20
-0.126748
30
0
11
48.549177
21
-0.480997
31
0
39
0
210
0
220
0
230
1
0
LINE
5
85
100
AcDbEntity
8
1
62
256
6
ByLayer
370
18
48
1
60
0
100
AcDbLine
10
48.579901
20
-0.166707
30
0
11
48.972392
21
-7.467405
31
0
39
0
210
0
220
0
230
1
0
LINE
5
86
100
AcDbEntity
8
1
62
256
6
ByLayer
370
18
48
1
60
0
100
AcDbLine
10
48.549177
20
-0.480997
30
0
11
48.53259
21
-0.158587
31
0
39
0
210
0
220
0
230
1
0
LINE
5
87
100
AcDbEntity
8
1
62
256
6
ByLayer
370
18
48
1
60
0
100
AcDbLine
10
48.783852
20
-7.132259
30
0
11
48.537829
21
-2.453038
31
0
39
0
210
0
220
0
230
1
0
LINE
5
88
100
AcDbEntity
8
1
62
256
6
ByLayer
370
18
48
1
60
0
100
AcDbLine
10
48.027924
20
-4.228854
30
0
11
48.537829
21
-2.453038
31
0
39
0
210
0
220
0
230
1
0
LINE
5
89
100
AcDbEntity
8
1
62
256
6
ByLayer
370
18
48
1
60
0
100
AcDbLine
10
48.537829
20
-2.453038
30
0
11
48.538668
21
-2.436969
31
0
39
0
210
0
220
0
230
1
0
LINE
5
8A
100
AcDbEntity
8
1
62
256
6
ByLayer
370
13
48
1
60
0
100
AcDbLine
10
48.017494
20
-1.525307
30
0
11
44.567118
21
-0.848617
31
0
39
0
210
0
220
0
230
1
0
LINE
5
8B
100
AcDbEntity
8
1
62
256
6
ByLayer
370
18
48
1
60
0
100
AcDbLine
10
45.521918
20
0.417127
30
0
11
47.966938
21
-0.062392
31
0
39
0
210
0
220
0
230
1
0
LINE
5
8C
100
AcDbEntity
8
1
62
256
6
ByLayer
370
18
48
1
60
0
100
AcDbLine
10
48.763789
20
-0.197904
30
0
11
47.966938
21
-0.062392
31
0
39
0
210
0
220
0
230
1
0
LINE
5
8D
100
AcDbEntity
8
1
62
256
6
ByLayer
370
18
48
1
60
0
100
AcDbLine
10
48.763789
20
-0.197904
30
0
11
48.941939
21
-0.195671
31
0
39
0
210
0
220
0
230
1
0
LINE
5
8E
100
AcDbEntity
8
SK1
62
256
6
ByLayer
370
18
48
1
60
0
100
AcDbLine
10
-48
20
-7.2
30
0
11
-48
21
7.2
31
0
39
0
210
0
220
0
230
1
0
LINE
5
90
100
AcDbEntity
8
SK1
62
256
6
ByLayer
370
18
48
1
60
0
100
AcDbLine
10
0
20
8
30
0
11
0
21
0
31
0
39
0
210
0
220
0
230
1
0
LINE
5
91
100
AcDbEntity
8
SK1
62
256
6
ByLayer
370
18
48
1
60
0
100
AcDbLine
10
0
20
0
30
0
11
0
21
-8
31
0
39
0
210
0
220
0
230
1
0
LINE
5
92
100
AcDbEntity
8
SK1
62
256
6
ByLayer
370
18
48
1
60
0
100
AcDbLine
10
-47.2
20
8
30
0
11
-47.2
21
-8
31
0
39
0
210
0
220
0
230
1
0
LINE
5
93
100
AcDbEntity
8
SK1
62
256
6
ByLayer
370
18
48
1
60
0
100
AcDbLine
10
-29
20
6.2
30
0
11
-30.8
21
8
31
0
39
0
210
0
220
0
230
1
0
LINE
5
94
100
AcDbEntity
8
SK1
62
256
6
ByLayer
370
18
48
1
60
0
100
AcDbLine
10
-19
20
6.2
30
0
11
-17.2
21
8
31
0
39
0
210
0
220
0
230
1
0
LINE
5
95
100
AcDbEntity
8
SK1
62
256
6
ByLayer
370
18
48
1
60
0
100
AcDbLine
10
-29
20
6.2
30
0
11
-19
21
6.2
31
0
39
0
210
0
220
0
230
1
0
LINE
5
96
100
AcDbEntity
8
1
62
256
6
ByLayer
370
18
48
1
60
0
100
AcDbLine
10
4.150555
20
8
30
0
11
0
21
8
31
0
39
0
210
0
220
0
230
1
0
LINE
5
97
100
AcDbEntity
8
1
62
256
6
ByLayer
370
18
48
1
60
0
100
AcDbLine
10
0
20
-8
30
0
11
4.150555
21
-8
31
0
39
0
210
0
220
0
230
1
0
LINE
5
98
100
AcDbEntity
8
1
62
256
6
ByLayer
370
18
48
1
60
0
100
AcDbLine
10
48.775992
20
-1.300591
30
0
11
48.776487
21
-1.296739
31
0
39
0
210
0
220
0
230
1
0
LINE
5
99
100
AcDbEntity
8
SK1
62
256
6
ByLayer
370
18
48
1
60
0
100
AcDbLine
10
-48
20
-7.2
30
0
11
-47.2
21
-8
31
0
39
0
210
0
220
0
230
1
0
LINE
5
9A
100
AcDbEntity
8
SK1
62
256
6
ByLayer
370
18
48
1
60
0
100
AcDbLine
10
-47.2
20
8
30
0
11
-48
21
7.2
31
0
39
0
210
0
220
0
230
1
0
LINE
5
9B
100
AcDbEntity
8
SK1
62
256
6
ByLayer
370
18
48
1
60
0
100
AcDbLine
10
0
20
8
30
0
11
-17.2
21
8
31
0
39
0
210
0
220
0
230
1
0
LINE
5
9C
100
AcDbEntity
8
SK1
62
256
6
ByLayer
370
18
48
1
60
0
100
AcDbLine
10
-30.8
20
8
30
0
11
-47.2
21
8
31
0
39
0
210
0
220
0
230
1
0
LINE
5
9D
100
AcDbEntity
8
SK1
62
256
6
ByLayer
370
18
48
1
60
0
100
AcDbLine
10
-47.2
20
-8
30
0
11
0
21
-8
31
0
39
0
210
0
220
0
230
1
0
LINE
5
9E
100
AcDbEntity
8
SK2
62
256
6
ByLayer
370
18
48
1
60
0
100
AcDbLine
10
-55.45
20
8
30
0
11
-55.45
21
-26.056066
31
0
39
0
210
0
220
0
230
1
0
LINE
5
A0
100
AcDbEntity
8
SK2
62
256
6
ByLayer
370
18
48
1
60
0
100
AcDbLine
10
-48.7875
20
8
30
0
11
-57.45
21
8
31
0
39
0
210
0
220
0
230
1
0
LINE
5
A1
100
AcDbEntity
8
SK2
62
256
6
ByLayer
370
18
48
1
60
0
100
AcDbLine
10
-48.7875
20
-8
30
0
11
-57.45
21
-8
31
0
39
0
210
0
220
0
230
1
0
LINE
5
A2
100
AcDbEntity
8
1
62
256
6
ByLayer
370
18
48
1
60
1
100
AcDbLine
10
-55.45
20
8
30
0
11
-54.989216
21
4.500002
31
0
39
0
210
0
220
0
230
1
0
LINE
5
A3
100
AcDbEntity
8
1
62
256
6
ByLayer
370
18
48
1
60
1
100
AcDbLine
10
-54.989216
20
4.500002
30
0
11
-55.910784
21
4.499998
31
0
39
0
210
0
220
0
230
1
0
LINE
5
A4
100
AcDbEntity
8
1
62
256
6
ByLayer
370
18
48
1
60
1
100
AcDbLine
10
-55.910784
20
4.499998
30
0
11
-55.45
21
8
31
0
39
0
210
0
220
0
230
1
0
LINE
5
A5
100
AcDbEntity
8
1
62
256
6
ByLayer
370
18
48
1
60
1
100
AcDbLine
10
-55.45
20
-8
30
0
11
-55.910784
21
-4.500002
31
0
39
0
210
0
220
0
230
1
0
LINE
5
A6
100
AcDbEntity
8
1
62
256
6
ByLayer
370
18
48
1
60
1
100
AcDbLine
10
-55.910784
20
-4.500002
30
0
11
-54.989216
21
-4.499998
31
0
39
0
210
0
220
0
230
1
0
LINE
5
A7
100
AcDbEntity
8
1
62
256
6
ByLayer
370
18
48
1
60
1
100
AcDbLine
10
-54.989216
20
-4.499998
30
0
11
-55.45
21
-8
31
0
39
0
210
0
220
0
230
1
0
LINE
5
A8
100
AcDbEntity
8
2
62
256
6
ByLayer
370
18
48
1
60
0
100
AcDbLine
10
61
20
-8.0001
30
0
11
61
21
26.056166
31
0
39
0
210
0
220
0
230
1
0
LINE
5
AA
100
AcDbEntity
8
2
62
256
6
ByLayer
370
18
48
1
60
0
100
AcDbLine
10
50.5875
20
8.0001
30
0
11
63
21
8.0001
31
0
39
0
210
0
220
0
230
1
0
LINE
5
AB
100
AcDbEntity
8
2
62
256
6
ByLayer
370
18
48
1
60
0
100
AcDbLine
10
50.5875
20
-8.0001
30
0
11
63
21
-8.0001
31
0
39
0
210
0
220
0
230
1
0
LINE
5
AC
100
AcDbEntity
8
1
62
256
6
ByLayer
370
18
48
1
60
1
100
AcDbLine
10
61
20
8.0001
30
0
11
61.460784
21
4.500102
31
0
39
0
210
0
220
0
230
1
0
LINE
5
AD
100
AcDbEntity
8
1
62
256
6
ByLayer
370
18
48
1
60
1
100
AcDbLine
10
61.460784
20
4.500102
30
0
11
60.539216
21
4.500098
31
0
39
0
210
0
220
0
230
1
0
LINE
5
AE
100
AcDbEntity
8
1
62
256
6
ByLayer
370
18
48
1
60
1
100
AcDbLine
10
60.539216
20
4.500098
30
0
11
61
21
8.0001
31
0
39
0
210
0
220
0
230
1
0
LINE
5
AF
100
AcDbEntity
8
1
62
256
6
ByLayer
370
18
48
1
60
1
100
AcDbLine
10
61
20
-8.0001
30
0
11
60.539216
21
-4.500102
31
0
39
0
210
0
220
0
230
1
0
LINE
5
B0
100
AcDbEntity
8
1
62
256
6
ByLayer
370
18
48
1
60
1
100
AcDbLine
10
60.539216
20
-4.500102
30
0
11
61.460784
21
-4.500098
31
0
39
0
210
0
220
0
230
1
0
LINE
5
B1
100
AcDbEntity
8
1
62
256
6
ByLayer
370
18
48
1
60
1
100
AcDbLine
10
61.460784
20
-4.500098
30
0
11
61
21
-8.0001
31
0
39
0
210
0
220
0
230
1
0
LINE
5
B2
100
AcDbEntity
8
SK2
62
256
6
ByLayer
370
18
48
1
60
0
100
AcDbLine
10
49
20
-38.732446
30
0
11
-48
21
-38.732446
31
0
39
0
210
0
220
0
230
1
0
LINE
5
B3
100
AcDbEntity
8
SK2
62
256
6
ByLayer
370
18
48
1
60
0
100
AcDbLine
10
-48
20
-8.7875
30
0
11
-48
21
-40.732446
31
0
39
0
210
0
220
0
230
1
0
LINE
5
B4
100
AcDbEntity
8
SK2
62
256
6
ByLayer
370
18
48
1
60
0
100
AcDbLine
10
49
20
-9.5876
30
0
11
49
21
-40.732446
31
0
39
0
210
0
220
0
230
1
0
LINE
5
B5
100
AcDbEntity
8
1
62
256
6
ByLayer
370
18
48
1
60
1
100
AcDbLine
10
-48
20
-38.732446
30
0
11
-44.500002
21
-38.271662
31
0
39
0
210
0
220
0
230
1
0
LINE
5
B6
100
AcDbEntity
8
1
62
256
6
ByLayer
370
18
48
1
60
1
100
AcDbLine
10
-44.500002
20
-38.271662
30
0
11
-44.499998
21
-39.19323
31
0
39
0
210
0
220
0
230
1
0
LINE
5
B7
100
AcDbEntity
8
1
62
256
6
ByLayer
370
18
48
1
60
1
100
AcDbLine
10
-44.499998
20
-39.19323
30
0
11
-48
21
-38.732446
31
0
39
0
210
0
220
0
230
1
0
LINE
5
B8
100
AcDbEntity
8
1
62
256
6
ByLayer
370
18
48
1
60
1
100
AcDbLine
10
49
20
-38.732446
30
0
11
45.500002
21
-39.19323
31
0
39
0
210
0
220
0
230
1
0
LINE
5
B9
100
AcDbEntity
8
1
62
256
6
ByLayer
370
18
48
1
60
1
100
AcDbLine
10
45.500002
20
-39.19323
30
0
11
45.499998
21
-38.271662
31
0
39
0
210
0
220
0
230
1
0
LINE
5
BA
100
AcDbEntity
8
1
62
256
6
ByLayer
370
18
48
1
60
1
100
AcDbLine
10
45.499998
20
-38.271662
30
0
11
49
21
-38.732446
31
0
39
0
210
0
220
0
230
1
0
LINE
5
115
100
AcDbEntity
8
1
62
256
6
ByLayer
370
18
48
1
60
1
100
AcDbLine
10
-55.45
20
8
30
0
11
-54.989216
21
4.500002
31
0
39
0
210
0
220
0
230
1
0
LINE
5
116
100
AcDbEntity
8
1
62
256
6
ByLayer
370
18
48
1
60
1
100
AcDbLine
10
-54.989216
20
4.500002
30
0
11
-55.910784
21
4.499998
31
0
39
0
210
0
220
0
230
1
0
LINE
5
117
100
AcDbEntity
8
1
62
256
6
ByLayer
370
18
48
1
60
1
100
AcDbLine
10
-55.910784
20
4.499998
30
0
11
-55.45
21
8
31
0
39
0
210
0
220
0
230
1
0
LINE
5
119
100
AcDbEntity
8
1
62
256
6
ByLayer
370
18
48
1
60
1
100
AcDbLine
10
-55.45
20
-8
30
0
11
-55.910784
21
-4.500002
31
0
39
0
210
0
220
0
230
1
0
LINE
5
11A
100
AcDbEntity
8
1
62
256
6
ByLayer
370
18
48
1
60
1
100
AcDbLine
10
-55.910784
20
-4.500002
30
0
11
-54.989216
21
-4.499998
31
0
39
0
210
0
220
0
230
1
0
LINE
5
11B
100
AcDbEntity
8
1
62
256
6
ByLayer
370
18
48
1
60
1
100
AcDbLine
10
-54.989216
20
-4.499998
30
0
11
-55.45
21
-8
31
0
39
0
210
0
220
0
230
1
0
LINE
5
11F
100
AcDbEntity
8
1
62
256
6
ByLayer
370
18
48
1
60
1
100
AcDbLine
10
61
20
8.0001
30
0
11
61.460784
21
4.500102
31
0
39
0
210
0
220
0
230
1
0
LINE
5
120
100
AcDbEntity
8
1
62
256
6
ByLayer
370
18
48
1
60
1
100
AcDbLine
10
61.460784
20
4.500102
30
0
11
60.539216
21
4.500098
31
0
39
0
210
0
220
0
230
1
0
LINE
5
121
100
AcDbEntity
8
1
62
256
6
ByLayer
370
18
48
1
60
1
100
AcDbLine
10
60.539216
20
4.500098
30
0
11
61
21
8.0001
31
0
39
0
210
0
220
0
230
1
0
LINE
5
123
100
AcDbEntity
8
1
62
256
6
ByLayer
370
18
48
1
60
1
100
AcDbLine
10
61
20
-8.0001
30
0
11
60.539216
21
-4.500102
31
0
39
0
210
0
220
0
230
1
0
LINE
5
124
100
AcDbEntity
8
1
62
256
6
ByLayer
370
18
48
1
60
1
100
AcDbLine
10
60.539216
20
-4.500102
30
0
11
61.460784
21
-4.500098
31
0
39
0
210
0
220
0
230
1
0
LINE
5
125
100
AcDbEntity
8
1
62
256
6
ByLayer
370
18
48
1
60
1
100
AcDbLine
10
61.460784
20
-4.500098
30
0
11
61
21
-8.0001
31
0
39
0
210
0
220
0
230
1
0
LINE
5
128
100
AcDbEntity
8
1
62
256
6
ByLayer
370
18
48
1
60
1
100
AcDbLine
10
-48
20
-38.732446
30
0
11
-44.500002
21
-38.271662
31
0
39
0
210
0
220
0
230
1
0
LINE
5
129
100
AcDbEntity
8
1
62
256
6
ByLayer
370
18
48
1
60
1
100
AcDbLine
10
-44.500002
20
-38.271662
30
0
11
-44.499998
21
-39.19323
31
0
39
0
210
0
220
0
230
1
0
LINE
5
12A
100
AcDbEntity
8
1
62
256
6
ByLayer
370
18
48
1
60
1
100
AcDbLine
10
-44.499998
20
-39.19323
30
0
11
-48
21
-38.732446
31
0
39
0
210
0
220
0
230
1
0
LINE
5
12C
100
AcDbEntity
8
1
62
256
6
ByLayer
370
18
48
1
60
1
100
AcDbLine
10
49
20
-38.732446
30
0
11
45.500002
21
-39.19323
31
0
39
0
210
0
220
0
230
1
0
LINE
5
12D
100
AcDbEntity
8
1
62
256
6
ByLayer
370
18
48
1
60
1
100
AcDbLine
10
45.500002
20
-39.19323
30
0
11
45.499998
21
-38.271662
31
0
39
0
210
0
220
0
230
1
0
LINE
5
12E
100
AcDbEntity
8
1
62
256
6
ByLayer
370
18
48
1
60
1
100
AcDbLine
10
45.499998
20
-38.271662
30
0
11
49
21
-38.732446
31
0
39
0
210
0
220
0
230
1
0
MTEXT
5
111
100
AcDbEntity
8
SK2
62
256
6
ByLayer
370
18
48
1
60
0
100
AcDbMText
10
-57.014634
20
-24.121222
30
0
210
0
220
0
230
1
1
%%c
40
3.5
41
0
44
1.084337
50
90
71
7
72
5
7
iso_b_vert
0
MTEXT
5
114
100
AcDbEntity
8
SK2
62
256
6
ByLayer
370
18
48
1
60
0
100
AcDbMText
10
-57.014634
20
-17.148566
30
0
210
0
220
0
230
1
1
\W0.5321;16
40
3.5
41
0
44
1.084337
50
90
71
7
72
5
7
iso_b_vert
0
MTEXT
5
11D
100
AcDbEntity
8
2
62
256
6
ByLayer
370
18
48
1
60
0
100
AcDbMText
10
59.435366
20
15.934944
30
0
210
0
220
0
230
1
1
%%c
40
3.5
41
0
44
1.084337
50
90
71
7
72
5
7
iso_b_vert
0
MTEXT
5
11E
100
AcDbEntity
8
2
62
256
6
ByLayer
370
18
48
1
60
0
100
AcDbMText
10
59.435366
20
22.9076
30
0
210
0
220
0
230
1
1
\W0.5321;16
40
3.5
41
0
44
1.084337
50
90
71
7
72
5
7
iso_b_vert
0
MTEXT
5
127
100
AcDbEntity
8
SK2
62
256
6
ByLayer
370
18
48
1
60
0
100
AcDbMText
10
-1.404966
20
-37.699813
30
0
210
0
220
0
230
1
1
\W0.6740;97
40
3.5
41
0
44
1.084337
50
0
71
7
72
5
7
iso_b_vert
0
MTEXT
5
130
100
AcDbEntity
8
SK6
62
256
6
ByLayer
370
18
48
1
60
0
100
AcDbMText
10
-24.287166
20
-62.114886
30
0
210
0
220
0
230
1
1
\W0.7444;2S342-1600-050CMB   M2CM
40
3
41
0
44
1.084337
50
0
71
7
72
5
7
iso_b_vert
0
HATCH
5
118
100
AcDbEntity
8
SK2
62
256
6
ByLayer
370
13
48
1
60
0
100
AcDbHatch
10
0
20
0
30
0
210
0
220
0
230
1
2
ANSI31
70
0
71
0
91
1
92
5
93
3
72
1
10
-55.4500000000001
20
7.99999999999994
11
-54.9892162584473
21
4.50000169255313
72
1
10
-54.9892162584473
20
4.50000169255313
11
-55.9107837415528
21
4.49999830744676
72
1
10
-55.9107837415528
20
4.49999830744676
11
-55.4500000000001
21
7.99999999999994
97
0
75
0
76
1
52
0
41
0.0062
77
0
78
1
53
45
43
0
44
0
45
-0.0139193969876572
46
0.0139193969876572
79
0
47
0
98
1
10
0
20
0
0
HATCH
5
11C
100
AcDbEntity
8
SK2
62
256
6
ByLayer
370
13
48
1
60
0
100
AcDbHatch
10
0
20
0
30
0
210
0
220
0
230
1
2
ANSI31
70
0
71
0
91
1
92
5
93
3
72
1
10
-55.4500000000001
20
-8.00000000000006
11
-55.9107837415528
21
-4.50000169255324
72
1
10
-55.9107837415528
20
-4.50000169255324
11
-54.9892162584473
21
-4.49999830744687
72
1
10
-54.9892162584473
20
-4.49999830744687
11
-55.4500000000001
21
-8.00000000000006
97
0
75
0
76
1
52
0
41
0.0062
77
0
78
1
53
45
43
0
44
0
45
-0.0139193969876572
46
0.0139193969876572
79
0
47
0
98
1
10
0
20
0
0
HATCH
5
122
100
AcDbEntity
8
2
62
256
6
ByLayer
370
13
48
1
60
0
100
AcDbHatch
10
0
20
0
30
0
210
0
220
0
230
1
2
ANSI31
70
0
71
0
91
1
92
5
93
3
72
1
10
61
20
8.0000999999998
11
61.4607837415528
21
4.50010169255299
72
1
10
61.4607837415528
20
4.50010169255299
11
60.5392162584472
21
4.50009830744662
72
1
10
60.5392162584472
20
4.50009830744662
11
61
21
8.0000999999998
97
0
75
0
76
1
52
0
41
0.0062
77
0
78
1
53
45
43
0
44
0
45
-0.0139193969876572
46
0.0139193969876572
79
0
47
0
98
1
10
0
20
0
0
HATCH
5
126
100
AcDbEntity
8
2
62
256
6
ByLayer
370
13
48
1
60
0
100
AcDbHatch
10
0
20
0
30
0
210
0
220
0
230
1
2
ANSI31
70
0
71
0
91
1
92
5
93
3
72
1
10
61
20
-8.0001000000002
11
60.5392162584472
21
-4.50010169255339
72
1
10
60.5392162584472
20
-4.50010169255339
11
61.4607837415528
21
-4.50009830744702
72
1
10
61.4607837415528
20
-4.50009830744702
11
61
21
-8.0001000000002
97
0
75
0
76
1
52
0
41
0.0062
77
0
78
1
53
45
43
0
44
0
45
-0.0139193969876572
46
0.0139193969876572
79
0
47
0
98
1
10
0
20
0
0
HATCH
5
12B
100
AcDbEntity
8
SK2
62
256
6
ByLayer
370
13
48
1
60
0
100
AcDbHatch
10
0
20
0
30
0
210
0
220
0
230
1
2
ANSI31
70
0
71
0
91
1
92
5
93
3
72
1
10
-48
20
-38.7324460532349
11
-44.5000016925532
21
-38.2716623116821
72
1
10
-44.5000016925532
20
-38.2716623116821
11
-44.4999983074468
21
-39.1932297947877
72
1
10
-44.4999983074468
20
-39.1932297947877
11
-48
21
-38.7324460532349
97
0
75
0
76
1
52
0
41
0.0062
77
0
78
1
53
45
43
0
44
0
45
-0.0139193969876572
46
0.0139193969876572
79
0
47
0
98
1
10
0
20
0
0
HATCH
5
12F
100
AcDbEntity
8
SK2
62
256
6
ByLayer
370
13
48
1
60
0
100
AcDbHatch
10
0
20
0
30
0
210
0
220
0
230
1
2
ANSI31
70
0
71
0
91
1
92
5
93
3
72
1
10
49
20
-38.7324460532349
11
45.5000016925532
21
-39.1932297947877
72
1
10
45.5000016925532
20
-39.1932297947877
11
45.4999983074468
21
-38.2716623116821
72
1
10
45.4999983074468
20
-38.2716623116821
11
49
21
-38.7324460532349
97
0
75
0
76
1
52
0
41
0.0062
77
0
78
1
53
45
43
0
44
0
45
-0.0139193969876572
46
0.0139193969876572
79
0
47
0
98
1
10
0
20
0
0
DIMENSION
5
133
100
AcDbEntity
8
2
62
256
6
ByLayer
370
18
48
1
60
0
100
AcDbDimension
2
_U0
10
15
20
-22.732446
30
0
11
32
21
-22.732446
31
0
70
32
71
1
72
1
41
1
210
0
220
0
230
1
3
Standard
100
AcDbAlignedDimension
13
49
23
-8.0001
33
0
14
15
24
-8.0001
34
0
50
0
100
AcDbRotatedDimension
1001
ACAD
1000
DSTYLE
1002
{
1070
   371
1070
    13
1070
   372
1070
    13
1070
   170
1070
     0
1070
   144
1040
1.0
1070
   277
1070
     2
1070
   284
1070
     8
1070
   278
1070
    46
1070
   146
1040
1.0
1070
   345
1005
16
1070
   347
1005
16
1070
   346
1005
16
1070
   344
1005
0
1070
   343
1005
0
1070
   172
1070
     1
1070
    76
1070
     0
1070
    75
1070
     0
1070
   282
1070
     0
1070
   281
1070
     0
1070
    71
1070
     0
1070
    74
1070
     0
1070
   279
1070
     0
1070
   173
1070
     1
1070
   340
1005
112
1070
   271
1070
     2
1070
   272
1070
     2
1070
    77
1070
     1
1070
    73
1070
     1
1070
   171
1070
     3
1070
   274
1070
     4
1070
   177
1070
     2
1070
   176
1070
     2
1070
   178
1070
     2
1070
    78
1070
     8
1070
    48
1040
-0.1
1070
    41
1040
3.5
1070
   147
1040
1.75
1070
    42
1040
1.5875
1070
    44
1040
2.0
1070
   140
1040
3.5
1002
}
1001
ACAD_DSTYLE_DIM_LINETYPE
1070
   380
1005
16
1001
ACAD_DSTYLE_DIM_EXT1_LINETYPE
1070
   381
1005
16
1001
ACAD_DSTYLE_DIM_EXT2_LINETYPE
1070
   382
1005
16
0
ENDSEC
0
SECTION
2
OBJECTS
0
DICTIONARY
5
1bc
330
0
100
AcDbDictionary
280
0
281
1
3
ACAD_GROUP
350
1bd
3
ACAD_MLINESTYLE
350
1be
0
DICTIONARY
5
1bd
330
0
100
AcDbDictionary
280
0
281
1
0
DICTIONARY
5
1be
330
0
100
AcDbDictionary
280
0
281
1
3
Standard
350
18
0
MLINESTYLE
5
18
330
1be
100
AcDbMlineStyle
2
Standard
70
0
3

62
256
51
90
52
90
71
2
49
-0.5
62
256
6
ByLayer
49
0.5
62
256
6
ByLayer
0
RASTERVARIABLES
5
1aa
330

100
AcDbRasterVariables
90
0
70
1
71
1
72
1
0
ENDSEC
0
EOF
