0
SECTION
2
HEADER
9
$ACADVER
1
AC1015
9
$DWGCODEPAGE
3
ANSI_1252
9
$HANDSEED
5
1c5
9
$ANGBASE
50
0
9
$ANGDIR
70
0
9
$ATTMODE
70
1
9
$AUNITS
70
0
9
$AUPREC
70
0
9
$CECOLOR
62
256
9
$CELTSCALE
40
1
9
$CELTYPE
6
ByLayer
9
$CELWEIGHT
370
18
9
$CLAYER
8
0
9
$CMLJUST
70
0
9
$CMLSCALE
40
1
9
$CMLSTYLE
2
Standard
9
$DIMSTYLE
2
Standard
9
$TEXTSIZE
40
0.2
9
$TEXTSTYLE
7
Standard
9
$LUNITS
70
2
9
$LUPREC
70
4
9
$EXTNAMES
290
1
9
$INSUNITS
70
4
9
$LTSCALE
40
1
9
$LWDISPLAY
290
1
9
$PDMODE
70
0
9
$PDSIZE
40
0
9
$PLINEGEN
70
0
0
ENDSEC
0
SECTION
2
CLASSES
0
CLASS
1
RASTERVARIABLES
2
AcDbRasterVariables
3
ISM
90
0
280
0
281
0
0
ENDSEC
0
SECTION
2
TABLES
0
TABLE
2
VPORT
5
1bb
100
AcDbSymbolTable
0
VPORT
5
1
100
AcDbSymbolTableRecord
100
AcDbViewportTableRecord
2
*Active
70
0
10
0
20
0
11
1
21
1
12
-1
22
1
13
0
23
0
14
0.5
24
0.5
15
10
25
10
16
0
26
0
36
1
17
0
27
0
37
0
0
ENDTAB
0
TABLE
2
LTYPE
5
1bc
100
AcDbSymbolTable
0
LTYPE
5
14
100
AcDbSymbolTableRecord
100
AcDbLinetypeTableRecord
70
0
2
ByBlock
3

72
65
73
0
40
0
0
LTYPE
5
15
100
AcDbSymbolTableRecord
100
AcDbLinetypeTableRecord
70
0
2
ByLayer
3

72
65
73
0
40
0
0
LTYPE
5
16
100
AcDbSymbolTableRecord
100
AcDbLinetypeTableRecord
70
0
2
Continuous
3
Solid line
72
65
73
0
40
0
0
LTYPE
5
6E
100
AcDbSymbolTableRecord
100
AcDbLinetypeTableRecord
70
0
2
CENTER
3
____ _ ____ _ ____ _ ____
72
65
73
4
40
47.5
49
22
74
0
49
-8.5
74
0
49
8.5
74
0
49
-8.5
74
0
0
LTYPE
5
6F
100
AcDbSymbolTableRecord
100
AcDbLinetypeTableRecord
70
0
2
DASHED
3
__ __ __ __ __ __ __ __ __
72
65
73
2
40
25.72
49
12.86
74
0
49
-12.86
74
0
0
ENDTAB
0
TABLE
2
LAYER
5
1bd
100
AcDbSymbolTable
0
LAYER
5
10
100
AcDbSymbolTableRecord
100
AcDbLayerTableRecord
2
0
70
0
62
7
6
Continuous
290
1
370
-3
390
0
0
LAYER
5
71
100
AcDbSymbolTableRecord
100
AcDbLayerTableRecord
2
81
70
0
62
-3
6
Continuous
290
1
370
-3
390
0
0
LAYER
5
73
100
AcDbSymbolTableRecord
100
AcDbLayerTableRecord
2
80
70
0
62
-6
6
Continuous
290
1
370
-3
390
0
0
LAYER
5
75
100
AcDbSymbolTableRecord
100
AcDbLayerTableRecord
2
1
70
0
62
4
6
Continuous
290
1
370
-3
390
0
0
LAYER
5
79
100
AcDbSymbolTableRecord
100
AcDbLayerTableRecord
2
4
70
0
62
-2
6
CENTER
290
1
370
-3
390
0
0
LAYER
5
B3
100
AcDbSymbolTableRecord
100
AcDbLayerTableRecord
2
2
70
0
62
7
6
Continuous
290
1
370
-3
390
0
0
LAYER
5
132
100
AcDbSymbolTableRecord
100
AcDbLayerTableRecord
2
Defpoints
70
0
62
7
6
Continuous
290
0
370
-3
390
0
0
LAYER
5
1a7
100
AcDbSymbolTableRecord
100
AcDbLayerTableRecord
2
SK4
70
0
62
2
6
CENTER
290
1
370
-3
390
0
0
LAYER
5
1a8
100
AcDbSymbolTableRecord
100
AcDbLayerTableRecord
2
SK1
70
0
62
4
6
Continuous
290
1
370
-3
390
0
0
LAYER
5
1a9
100
AcDbSymbolTableRecord
100
AcDbLayerTableRecord
2
SK2
70
0
62
7
6
Continuous
290
1
370
-3
390
0
0
LAYER
5
1aa
100
AcDbSymbolTableRecord
100
AcDbLayerTableRecord
2
SK6
70
0
62
5
6
Continuous
290
1
370
-3
390
0
0
ENDTAB
0
TABLE
2
STYLE
5
1be
100
AcDbSymbolTable
0
STYLE
5
11
100
AcDbSymbolTableRecord
100
AcDbTextStyleTableRecord
2
Standard
3
txt
70
0
71
0
40
0
41
1
42
0
50
0
0
STYLE
5
10E
100
AcDbSymbolTableRecord
100
AcDbTextStyleTableRecord
2
iso_b_vert
3
simplex.shx
70
0
71
0
40
0
41
1
42
0
50
0
0
STYLE
5
10F
100
AcDbSymbolTableRecord
100
AcDbTextStyleTableRecord
2
DWGDirectTextStyle
3
simplex
70
0
71
0
40
0
41
1
42
0
50
0
0
ENDTAB
0
TABLE
2
DIMSTYLE
5
1bf
100
AcDbSymbolTable
100
AcDbDimStyleTable
0
DIMSTYLE
105
27
100
AcDbSymbolTableRecord
100
AcDbDimStyleTableRecord
2
Standard
70
0
3
<>
41
0.18
42
0.0625
44
0.18
140
0.18
147
0.09
73
0
74
0
77
1
271
2
275
0
278
52
280
0
340
11
0
ENDTAB
0
TABLE
2
VIEW
5
1c0
100
AcDbSymbolTable
0
ENDTAB
0
TABLE
2
UCS
5
1c1
100
AcDbSymbolTable
0
ENDTAB
0
TABLE
2
APPID
5
1c2
100
AcDbSymbolTable
0
APPID
5
12
100
AcDbSymbolTableRecord
100
AcDbRegAppTableRecord
2
ACAD
70
0
0
APPID
5
12E
100
AcDbSymbolTableRecord
100
AcDbRegAppTableRecord
2
ACAD_DSTYLE_DIMBREAK
70
0
0
APPID
5
166
100
AcDbSymbolTableRecord
100
AcDbRegAppTableRecord
2
ACAD_DSTYLE_DIM_LINETYPE
70
0
0
APPID
5
167
100
AcDbSymbolTableRecord
100
AcDbRegAppTableRecord
2
ACAD_DSTYLE_DIM_EXT1_LINETYPE
70
0
0
APPID
5
168
100
AcDbSymbolTableRecord
100
AcDbRegAppTableRecord
2
ACAD_DSTYLE_DIM_EXT2_LINETYPE
70
0
0
APPID
5
1A3
100
AcDbSymbolTableRecord
100
AcDbRegAppTableRecord
2
ACAD_MLEADERVER
70
0
0
ENDTAB
0
TABLE
2
BLOCK_RECORD
5
1c3
100
AcDbSymbolTable
0
BLOCK_RECORD
5
1F
100
AcDbSymbolTableRecord
100
AcDbBlockTableRecord
2
*Model_Space
340
0
70
0
0
BLOCK_RECORD
5
1B
100
AcDbSymbolTableRecord
100
AcDbBlockTableRecord
2
*Paper_Space
340
0
70
0
0
BLOCK_RECORD
5
23
100
AcDbSymbolTableRecord
100
AcDbBlockTableRecord
2
*Paper_Space0
340
0
70
0
0
BLOCK_RECORD
5
133
100
AcDbSymbolTableRecord
100
AcDbBlockTableRecord
2
*D1
340
0
70
0
0
BLOCK_RECORD
5
13F
100
AcDbSymbolTableRecord
100
AcDbBlockTableRecord
2
_U0
340
0
70
0
0
ENDTAB
0
ENDSEC
0
SECTION
2
BLOCKS
0
BLOCK
5
20
100
AcDbEntity
8
0
100
AcDbBlockBegin
2
*Model_Space
70
0
10
0
20
0
30
0
3
*Model_Space
0
ENDBLK
5
21
100
AcDbEntity
8
0
100
AcDbBlockEnd
0
BLOCK
5
1C
100
AcDbEntity
8
0
100
AcDbBlockBegin
2
*Paper_Space
70
0
10
0
20
0
30
0
3
*Paper_Space
0
ENDBLK
5
1D
100
AcDbEntity
8
0
100
AcDbBlockEnd
0
BLOCK
5
24
100
AcDbEntity
8
0
100
AcDbBlockBegin
2
*Paper_Space0
70
0
10
0
20
0
30
0
3
*Paper_Space0
0
ENDBLK
5
25
100
AcDbEntity
8
0
100
AcDbBlockEnd
0
BLOCK
5
134
100
AcDbEntity
8
0
100
AcDbBlockBegin
2
*D1
70
1
10
0
20
0
30
0
3
*D1
0
LINE
5
136
100
AcDbEntity
8
0
62
256
6
ByLayer
370
-2
48
1
60
0
100
AcDbLine
10
58
20
-11.1126
30
0
11
58
21
-26.262559
31
0
39
0
210
0
220
0
230
1
0
LINE
5
137
100
AcDbEntity
8
0
62
256
6
ByLayer
370
-2
48
1
60
0
100
AcDbLine
10
16.72
20
-11.1126
30
0
11
16.72
21
-26.262559
31
0
39
0
210
0
220
0
230
1
0
LINE
5
138
100
AcDbEntity
8
0
62
256
6
ByLayer
370
-2
48
1
60
0
100
AcDbLine
10
54.5
20
-24.262559
30
0
11
20.22
21
-24.262559
31
0
39
0
210
0
220
0
230
1
0
SOLID
5
139
100
AcDbEntity
8
0
62
256
6
ByLayer
370
-1
48
1
60
0
100
AcDbTrace
10
54.5
20
-24.845892
30
0
11
54.5
21
-23.679226
31
0
12
58
22
-24.262559
32
0
13
58
23
-24.262559
33
0
39
0
210
0
220
0
230
1
0
SOLID
5
13A
100
AcDbEntity
8
0
62
256
6
ByLayer
370
-1
48
1
60
0
100
AcDbTrace
10
20.22
20
-23.679226
30
0
11
20.22
21
-24.845892
31
0
12
16.72
22
-24.262559
32
0
13
16.72
23
-24.262559
33
0
39
0
210
0
220
0
230
1
0
MTEXT
5
13B
100
AcDbEntity
8
0
62
256
6
ByLayer
370
18
48
1
60
0
100
AcDbMText
10
37.36
20
-17.262559
30
0
210
0
220
0
230
1
1
\A1;41.28
40
3.5
41
0
44
1
50
0
71
5
72
5
7
iso_b_vert
0
POINT
5
13C
100
AcDbEntity
8
Defpoints
62
0
6
ByLayer
370
-1
48
1
60
0
100
AcDbPoint
10
58
20
-9.5251
30
0
39
0
210
0
220
0
230
1
50
360
0
POINT
5
13D
100
AcDbEntity
8
Defpoints
62
0
6
ByLayer
370
-1
48
1
60
0
100
AcDbPoint
10
16.72
20
-9.5251
30
0
39
0
210
0
220
0
230
1
50
360
0
POINT
5
13E
100
AcDbEntity
8
Defpoints
62
0
6
ByLayer
370
-1
48
1
60
0
100
AcDbPoint
10
16.72
20
-24.262559
30
0
39
0
210
0
220
0
230
1
50
360
0
ENDBLK
5
135
100
AcDbEntity
8
0
100
AcDbBlockEnd
0
BLOCK
5
146
100
AcDbEntity
8
0
100
AcDbBlockBegin
2
_U0
70
0
10
0
20
0
30
0
3
_U0
0
MTEXT
5
140
100
AcDbEntity
8
2
62
256
6
ByLayer
370
18
48
1
60
0
100
AcDbMText
10
32.383734
20
-23.229925
30
0
210
0
220
0
230
1
1
\W0.7091;41.28
40
3.5
41
0
44
1.084337
50
0
71
7
72
5
7
iso_b_vert
0
LINE
5
141
100
AcDbEntity
8
2
62
256
6
ByLayer
370
13
48
1
60
0
100
AcDbLine
10
58
20
-11.1126
30
0
11
58
21
-26.262559
31
0
39
0
210
0
220
0
230
1
0
LINE
5
142
100
AcDbEntity
8
2
62
256
6
ByLayer
370
13
48
1
60
0
100
AcDbLine
10
16.72
20
-11.1126
30
0
11
16.72
21
-26.262559
31
0
39
0
210
0
220
0
230
1
0
LINE
5
143
100
AcDbEntity
8
2
62
256
6
ByLayer
370
13
48
1
60
0
100
AcDbLine
10
58
20
-24.262559
30
0
11
16.72
21
-24.262559
31
0
39
0
210
0
220
0
230
1
0
SOLID
5
144
100
AcDbEntity
8
2
62
256
6
ByLayer
370
18
48
1
60
0
100
AcDbTrace
10
58
20
-24.262559
30
0
11
54.500002
21
-24.723343
31
0
12
54.499998
22
-23.801775
32
0
13
54.499998
23
-23.801775
33
0
39
0
210
0
220
0
230
1
0
SOLID
5
145
100
AcDbEntity
8
2
62
256
6
ByLayer
370
18
48
1
60
0
100
AcDbTrace
10
16.72
20
-24.262559
30
0
11
20.219998
21
-23.801775
31
0
12
20.220002
22
-24.723343
32
0
13
20.220002
23
-24.723343
33
0
39
0
210
0
220
0
230
1
0
ENDBLK
5
147
100
AcDbEntity
8
0
100
AcDbBlockEnd
0
ENDSEC
0
SECTION
2
ENTITIES
0
ELLIPSE
5
C5
100
AcDbEntity
8
1
62
256
6
ByLayer
370
18
48
1
60
0
100
AcDbEllipse
10
57.328793
20
-0.586877
30
0
11
0.116255158887833
21
-2.29490878481456
31
0
210
0
220
0
230
1
40
0.053839
41
1.17450758558979
42
1.5852354793442
0
ELLIPSE
5
C6
100
AcDbEntity
8
1
62
256
6
ByLayer
370
18
48
1
60
0
100
AcDbEllipse
10
57.274375
20
-1.293179
30
0
11
0.114799043204554
21
-1.08802536488095
31
0
210
0
220
0
230
1
40
0.180084
41
0.857975860591771
42
1.3914452583286
0
ELLIPSE
5
C7
100
AcDbEntity
8
1
62
256
6
ByLayer
370
18
48
1
60
0
100
AcDbEllipse
10
57.328793
20
-0.586877
30
0
11
0.116255158723416
21
-2.2949087825125
31
0
210
0
220
0
230
1
40
0.053839
41
0.0521896639295012
42
0.910743417390809
0
ELLIPSE
5
C8
100
AcDbEntity
8
1
62
256
6
ByLayer
370
18
48
1
60
0
100
AcDbEllipse
10
57.001388
20
-1.240144
30
0
11
0.380734034424326
21
-1.10319772391134
31
0
210
0
220
0
230
1
40
0.475024
41
2.88577247974837
42
-2.23761457798189
0
ELLIPSE
5
C9
100
AcDbEntity
8
1
62
256
6
ByLayer
370
18
48
1
60
0
100
AcDbEllipse
10
89.257226
20
-56.191959
30
0
11
34.9498043740645
21
-59.13014811535
31
0
210
0
220
0
230
1
40
0.008612
41
-2.74026501802422
42
-2.69938714744087
0
ELLIPSE
5
CA
100
AcDbEntity
8
1
62
256
6
ByLayer
370
13
48
1
60
0
100
AcDbEllipse
10
16.618455
20
-78.654773
30
0
11
16.0489440886652
21
-72.3186429946159
31
0
210
0
220
0
230
1
40
0.737325
41
3.03955540705246
42
3.05562418061547
0
ELLIPSE
5
CB
100
AcDbEntity
8
1
62
256
6
ByLayer
370
13
48
1
60
0
100
AcDbEllipse
10
16.618455
20
6.495066
30
0
11
55.4914867794502
21
-49.0739200181716
31
0
210
0
220
0
230
1
40
0.094565
41
-1.69374870503771
42
-1.544791360821
0
POINT
5
70
100
AcDbEntity
8
81
62
256
6
ByLayer
370
18
48
1
60
0
100
AcDbPoint
10
58
20
0
30
0
39
0
210
0
220
0
230
1
50
360
0
POINT
5
72
100
AcDbEntity
8
80
62
256
6
ByLayer
370
18
48
1
60
0
100
AcDbPoint
10
0
20
0
30
0
39
0
210
0
220
0
230
1
50
360
0
POINT
5
74
100
AcDbEntity
8
1
62
256
6
ByLayer
370
18
48
1
60
1
100
AcDbPoint
10
58
20
-9.5251
30
0
39
0
210
0
220
0
230
1
50
360
0
POINT
5
76
100
AcDbEntity
8
1
62
256
6
ByLayer
370
18
48
1
60
1
100
AcDbPoint
10
16.72
20
-9.5251
30
0
39
0
210
0
220
0
230
1
50
360
0
SPLINE
5
CC
100
AcDbEntity
8
1
62
256
6
ByLayer
370
18
48
1
60
0
100
AcDbSpline
70
4
71
3
72
20
73
16
40
0
40
0
40
0
40
0
40
0.124999999999995
40
0.124999999999995
40
0.249999999999989
40
0.249999999999989
40
0.499999999999995
40
0.499999999999995
40
0.562499999999996
40
0.562499999999996
40
0.624999999999997
40
0.624999999999997
40
0.749999999999998
40
0.749999999999998
40
1
40
1
40
1
40
1
41
1
10
57.4976793731693
20
-1.9890753721892
30
0
41
1
10
57.48551042384
20
-1.96856649951846
30
0
41
1
10
57.4748813570776
20
-1.94762673540842
30
0
41
1
10
57.456949315754
20
-1.90480327457127
30
0
41
1
10
57.4496467742439
20
-1.88291605767242
30
0
41
1
10
57.4328875919444
20
-1.81574138877346
30
0
41
1
10
57.4290995967292
20
-1.77131296650035
30
0
41
1
10
57.4309360464717
20
-1.71558139869288
30
0
41
1
10
57.4316360840068
20
-1.70444592541651
30
0
41
1
10
57.4336176986407
20
-1.68236193662793
30
0
41
1
10
57.4349000045404
20
-1.67138518578869
30
0
41
1
10
57.4395255103817
20
-1.63860582150215
30
0
41
1
10
57.4436426493827
20
-1.6169522080875
30
0
41
1
10
57.4585347621315
20
-1.552315236178
30
0
41
1
10
57.4718127457442
20
-1.50964206253255
30
0
41
1
10
57.4876467786201
20
-1.46693138680595
30
0
0
SPLINE
5
CD
100
AcDbEntity
8
1
62
256
6
ByLayer
370
18
48
1
60
0
100
AcDbSpline
70
4
71
3
72
51
73
47
40
0
40
0
40
0
40
0
40
0.0073306622701323
40
0.0073306622701323
40
0.0808208963600795
40
0.0808208963600795
40
0.0991934548825666
40
0.0991934548825666
40
0.108379734143811
40
0.108379734143811
40
0.117566013405055
40
0.154311130450033
40
0.154311130450033
40
0.227801364539989
40
0.227801364539989
40
0.301291598629946
40
0.301291598629946
40
0.374781832719902
40
0.374781832719902
40
0.411526949764881
40
0.411526949764881
40
0.429899508287369
40
0.429899508287369
40
0.439085787548613
40
0.439085787548613
40
0.448272066809857
40
0.521762300899803
40
0.521762300899803
40
0.595252534989749
40
0.595252534989749
40
0.668742769079695
40
0.668742769079695
40
0.742233003169642
40
0.742233003169642
40
0.760605561692129
40
0.769791840953373
40
0.769791840953373
40
0.778978120214616
40
0.778978120214616
40
0.815723237259587
40
0.815723237259587
40
0.88921347134953
40
0.88921347134953
40
0.962703705439472
40
0.962703705439472
40
1
40
1
40
1
40
1
41
1
10
15.3542813244726
20
5.55823609338475
30
0
41
1
10
15.4273521243245
20
5.55422313434781
30
0
41
1
10
15.5004180005646
20
5.5499108259921
30
0
41
1
10
16.3059411004731
20
5.4990730359641
30
0
41
1
10
17.0381096488289
20
5.42281485899849
30
0
41
1
10
17.9555357651644
20
5.29100749359984
30
0
41
1
10
18.1391318615693
20
5.26282330478344
30
0
41
1
10
18.4147411421092
20
5.21783741138862
30
0
41
1
10
18.5066283338412
20
5.20239314589247
30
0
41
1
10
18.6901992533707
20
5.17065705878949
30
0
41
1
10
19.148787711306
20
5.08917073609828
30
0
41
1
10
19.6057836234356
20
4.99708496480909
30
0
41
1
10
20.7002789649897
20
4.75676636920673
30
0
41
1
10
21.4268853204915
20
4.57079350944002
30
0
41
1
10
22.8779607434852
20
4.15309166301387
30
0
41
1
10
23.6024268983558
20
3.9213592205881
30
0
41
1
10
25.0531454701502
20
3.41826533232643
30
0
41
1
10
25.7793949711799
20
3.14689840215487
30
0
41
1
10
26.8730814378789
20
2.71509625544908
30
0
41
1
10
27.2383628815245
20
2.56704134239132
30
0
41
1
10
27.7877440848362
20
2.33944661888771
30
0
41
1
10
27.9711143956712
20
2.26266334643745
30
0
41
1
10
28.2465829543994
20
2.14619800861598
30
0
41
1
10
28.3385055318132
20
2.10714785662194
30
0
41
1
10
28.522132948883
20
2.02878805348101
30
0
41
1
10
29.3478311657529
20
1.67485031831461
30
0
41
1
10
30.1682433839176
20
1.30981115688354
30
0
41
1
10
31.6224355898703
20
0.65236639005397
30
0
41
1
10
32.3473696178603
20
0.319394380056366
30
0
41
1
10
33.796852593084
20
-0.346219775471298
30
0
41
1
10
34.5213986284761
20
-0.678868447850334
30
0
41
1
10
35.9740302041856
20
-1.33505148429421
30
0
41
1
10
36.7021128589892
20
-1.65859225888371
30
0
41
1
10
37.6169302961085
20
-2.05172962852672
30
0
41
1
10
37.8917295523521
20
-2.16882320161943
30
0
41
1
10
38.1671319115144
20
-2.284484397352
30
0
41
1
10
38.3508755965736
20
-2.36125549832488
30
0
41
1
10
38.4427361898122
20
-2.39943834630319
30
0
41
1
10
38.9015618632053
20
-2.5891188866222
30
0
41
1
10
39.2675351676818
20
-2.73709730255351
30
0
41
1
10
40.3629590168169
20
-3.16841379312555
30
0
41
1
10
41.0899164458066
20
-3.43911363371137
30
0
41
1
10
42.5411650131544
20
-3.94032460078253
30
0
41
1
10
43.2654532534931
20
-4.17084149780717
30
0
41
1
10
44.358261886777
20
-4.48358282655974
30
0
41
1
10
44.7263165594788
20
-4.58292893096831
30
0
41
1
10
45.0947900975695
20
-4.6759754956604
30
0
0
SPLINE
5
CE
100
AcDbEntity
8
1
62
256
6
ByLayer
370
18
48
1
60
0
100
AcDbSpline
70
4
71
3
72
26
73
22
40
0
40
0
40
0
40
0
40
0.125000000000004
40
0.125000000000004
40
0.250000000000007
40
0.250000000000007
40
0.375000000000011
40
0.375000000000011
40
0.500000000000015
40
0.500000000000015
40
0.625000000000018
40
0.625000000000018
40
0.750000000000022
40
0.750000000000022
40
0.812500000000016
40
0.812500000000016
40
0.875000000000011
40
0.875000000000011
40
0.937500000000005
40
0.937500000000005
40
1
40
1
40
1
40
1
41
1
10
56.3541167397532
20
-0.699945028677348
30
0
41
1
10
56.3528685261949
20
-0.748934113993954
30
0
41
1
10
56.3569482643214
20
-0.79772164432103
30
0
41
1
10
56.3728851120015
20
-0.895169600637729
30
0
41
1
10
56.3847791001343
20
-0.943826433362574
30
0
41
1
10
56.4148732547216
20
-1.04124886918706
30
0
41
1
10
56.4331012446166
20
-1.09004358321604
30
0
41
1
10
56.4749142024065
20
-1.18791144716022
30
0
41
1
10
56.4981821985307
20
-1.23625188369021
30
0
41
1
10
56.5485056272235
20
-1.33236107345988
30
0
41
1
10
56.57556910294
20
-1.38011958815275
30
0
41
1
10
56.6327827370769
20
-1.47584986967573
30
0
41
1
10
56.662940152248
20
-1.52379742370428
30
0
41
1
10
56.7099619411799
20
-1.59694963105548
30
0
41
1
10
56.7259327350111
20
-1.6215453852887
30
0
41
1
10
56.7583599394628
20
-1.67150188561069
30
0
41
1
10
56.7748876806626
20
-1.69697395671446
30
0
41
1
10
56.8074773448084
20
-1.74792796439462
30
0
41
1
10
56.8236098664258
20
-1.77352113521624
30
0
41
1
10
56.8551747360642
20
-1.8251825370952
30
0
41
1
10
56.8706019617057
20
-1.85125392599005
30
0
41
1
10
56.8855052018519
20
-1.87767776349821
30
0
0
SPLINE
5
CF
100
AcDbEntity
8
1
62
256
6
ByLayer
370
18
48
1
60
0
100
AcDbSpline
70
4
71
3
72
36
73
32
40
0
40
0
40
0
40
0
40
0.0379873572426974
40
0.0762379578241777
40
0.114748437672615
40
0.153515266360174
40
0.192534747846878
40
0.231803017448061
40
0.323242870857027
40
0.417791824876158
40
0.515376070003973
40
0.615909657801443
40
0.634114100581182
40
0.652548211451083
40
0.671211049176819
40
0.690101634262979
40
0.709218948316572
40
0.728561933423472
40
0.748129491539677
40
0.767920483899191
40
0.787933730440209
40
0.808168009251564
40
0.82862205604112
40
0.849294563628123
40
0.870184181461214
40
0.891289515164131
40
0.912609126110903
40
0.934141531032523
40
0.955885201656946
40
0.97783856438442
40
1
40
1
40
1
40
1
41
1
10
15.7563687707573
20
-7.07718402929308
30
0
41
1
10
15.7396218620594
20
-7.0994580260581
30
0
41
1
10
15.7060119925746
20
-7.14416037308104
30
0
41
1
10
15.6549511020573
20
-7.21060732603061
30
0
41
1
10
15.6031959478758
20
-7.27688235476847
30
0
41
1
10
15.5507121541465
20
-7.34290388928869
30
0
41
1
10
15.4975097423593
20
-7.40866696303212
30
0
41
1
10
15.4198139941121
20
-7.50300694457152
30
0
41
1
10
15.3155052244351
20
-7.62597308747445
30
0
41
1
10
15.1822052165467
20
-7.77677941209438
30
0
41
1
10
15.0426027244074
20
-7.92816538888408
30
0
41
1
10
14.9379234260425
20
-8.03681167682612
30
0
41
1
10
14.8709889590636
20
-8.10445940027938
30
0
41
1
10
14.8439342443646
20
-8.1315767568434
30
0
41
1
10
14.8164740590342
20
-8.15887185674674
30
0
41
1
10
14.7886083051789
20
-8.18633750802769
30
0
41
1
10
14.7603370725412
20
-8.21396641432509
30
0
41
1
10
14.7316604007342
20
-8.24175114892819
30
0
41
1
10
14.7025783441639
20
-8.26968416399336
30
0
41
1
10
14.6730909543858
20
-8.29775779050826
30
0
41
1
10
14.6431982848974
20
-8.32596424083403
30
0
41
1
10
14.6129003901593
20
-8.35429561173515
30
0
41
1
10
14.5821973248931
20
-8.38274388419148
30
0
41
1
10
14.5510891482406
20
-8.41130093725801
30
0
41
1
10
14.5195759078952
20
-8.43995850965607
30
0
41
1
10
14.4876577006169
20
-8.46870836077872
30
0
41
1
10
14.4553344431445
20
-8.4975416771351
30
0
41
1
10
14.4226067404753
20
-8.52645133911855
30
0
41
1
10
14.3894725972432
20
-8.5554233539396
30
0
41
1
10
14.3559398717873
20
-8.58446931885194
30
0
41
1
10
14.3334050954152
20
-8.60373508036022
30
0
41
1
10
14.3220845632029
20
-8.61341339578468
30
0
0
SPLINE
5
D0
100
AcDbEntity
8
1
62
256
6
ByLayer
370
18
48
1
60
0
100
AcDbSpline
70
4
71
3
72
8
73
4
40
0
40
0
40
0
40
0
40
1
40
1
40
1
40
1
41
1
10
57.3837347964924
20
9.51294302411782
30
0
41
1
10
57.51559108054
20
9.50447265616091
30
0
41
1
10
57.647441050755
20
9.49592078531876
30
0
41
1
10
57.7792848805746
20
9.48728969717513
30
0
0
SPLINE
5
D1
100
AcDbEntity
8
1
62
256
6
ByLayer
370
18
48
1
60
0
100
AcDbSpline
70
4
71
3
72
16
73
12
40
0
40
0
40
0
40
0
40
0.205916245032417
40
0.205916245032417
40
0.404437183774313
40
0.404437183774313
40
0.503697653145261
40
0.503697653145261
40
0.60295812251621
40
0.60295812251621
40
1
40
1
40
1
40
1
41
1
10
53.2815026808162
20
5.68578488517949
30
0
41
1
10
53.3151979098759
20
5.69490876492682
30
0
41
1
10
53.3494257860579
20
5.70415884826954
30
0
41
1
10
53.4177464336224
20
5.72233357948286
30
0
41
1
10
53.4518032014475
20
5.73125863439742
30
0
41
1
10
53.5037343889898
20
5.74448134222447
30
0
41
1
10
53.5211659712619
20
5.74885570630309
30
0
41
1
10
53.5559466697089
20
5.75742853374609
30
0
41
1
10
53.5733408961551
20
5.76163856660963
30
0
41
1
10
53.6603461595062
20
5.78224678193772
30
0
41
1
10
53.7300612608537
20
5.79731759774398
30
0
41
1
10
53.8000590189893
20
5.81022927836554
30
0
0
SPLINE
5
D2
100
AcDbEntity
8
1
62
256
6
ByLayer
370
18
48
1
60
0
100
AcDbSpline
70
4
71
3
72
57
73
53
40
0
40
0
40
0
40
0
40
0.0625000000000124
40
0.0625000000000124
40
0.0937500000000201
40
0.0937500000000201
40
0.109375000000024
40
0.109375000000024
40
0.125000000000028
40
0.125000000000028
40
0.187500000000046
40
0.187500000000046
40
0.218750000000055
40
0.218750000000055
40
0.234375000000059
40
0.234375000000059
40
0.250000000000064
40
0.250000000000064
40
0.281250000000073
40
0.281250000000073
40
0.296875000000077
40
0.296875000000077
40
0.312500000000082
40
0.312500000000082
40
0.343750000000088
40
0.343750000000088
40
0.375000000000094
40
0.375000000000094
40
0.390625000000095
40
0.390625000000095
40
0.406250000000096
40
0.437500000000098
40
0.437500000000098
40
0.500000000000103
40
0.500000000000103
40
0.515625000000101
40
0.515625000000101
40
0.531250000000099
40
0.531250000000099
40
0.56250000000009
40
0.56250000000009
40
0.625000000000078
40
0.625000000000078
40
0.687500000000066
40
0.687500000000066
40
0.750000000000054
40
0.750000000000054
40
0.812500000000042
40
0.812500000000042
40
0.87500000000003
40
0.87500000000003
40
1
40
1
40
1
40
1
41
1
10
57.3836101079218
20
9.51282894388706
30
0
41
1
10
57.4388685035126
20
9.39391800374321
30
0
41
1
10
57.4909380704101
20
9.2737072664068
30
0
41
1
10
57.5605097035936
20
9.08991314296094
30
0
41
1
10
57.5822670266103
20
9.0280642403512
30
0
41
1
10
57.6121420475966
20
8.93416549118911
30
0
41
1
10
57.6216390074073
20
8.90267784500605
30
0
41
1
10
57.6395907202453
20
8.83927773914837
30
0
41
1
10
57.6480346211927
20
8.80739494932305
30
0
41
1
10
57.6870837812603
20
8.64786957881731
30
0
41
1
10
57.7084809815968
20
8.51915617054456
30
0
41
1
10
57.719798657311
20
8.32377834424878
30
0
41
1
10
57.7200772723005
20
8.25826434874261
30
0
41
1
10
57.7142342809672
20
8.15929798966485
30
0
41
1
10
57.7112373855154
20
8.12615909895661
30
0
41
1
10
57.7029807912155
20
8.05976865538008
30
0
41
1
10
57.6977690183382
20
8.02689237637213
30
0
41
1
10
57.6788700416186
20
7.92922426247202
30
0
41
1
10
57.6619154261446
20
7.86539425563416
30
0
41
1
10
57.6299777816656
20
7.77156433473041
30
0
41
1
10
57.618248623512
20
7.74060657861
30
0
41
1
10
57.5926386187342
20
7.67932445896565
30
0
41
1
10
57.5787447778581
20
7.64897401877266
30
0
41
1
10
57.533946953907
20
7.55902565957956
30
0
41
1
10
57.5004789214289
20
7.50159819076751
30
0
41
1
10
57.4273228938478
20
7.39112507827033
30
0
41
1
10
57.3876337416124
20
7.338080249759
30
0
41
1
10
57.3240411276269
20
7.26137240151357
30
0
41
1
10
57.302144659045
20
7.23625266485377
30
0
41
1
10
57.2571715436073
20
7.18702812908305
30
0
41
1
10
57.1882705026736
20
7.1150893614622
30
0
41
1
10
57.1153462226614
20
7.04844851493462
30
0
41
1
10
56.9648501940104
20
6.92128674704048
30
0
41
1
10
56.8583549284833
20
6.84462993741371
30
0
41
1
10
56.7194232412421
20
6.75646313727398
30
0
41
1
10
56.6913438411046
20
6.73921569092892
30
0
41
1
10
56.6346370652934
20
6.70544238874868
30
0
41
1
10
56.6060056591008
20
6.6889160209044
30
0
41
1
10
56.5198339209582
20
6.64061555572567
30
0
41
1
10
56.4618496101751
20
6.61001453008197
30
0
41
1
10
56.286544084964
20
6.52224358701568
30
0
41
1
10
56.1678864638351
20
6.46905755185827
30
0
41
1
10
55.927963581919
20
6.37045896051654
30
0
41
1
10
55.8066908840964
20
6.3250685744344
30
0
41
1
10
55.5621372823249
20
6.24027434571289
30
0
41
1
10
55.4388529105139
20
6.20088084091003
30
0
41
1
10
55.1906871924545
20
6.12685447649906
30
0
41
1
10
55.065804029101
20
6.09222703375494
30
0
41
1
10
54.8147358816518
20
6.02685292839448
30
0
41
1
10
54.6885031214594
20
5.99610129636653
30
0
41
1
10
54.3084785489469
20
5.90873407658694
30
0
41
1
10
54.0544907029312
20
5.85716136205738
30
0
41
1
10
53.8000590189893
20
5.81022927836554
30
0
0
SPLINE
5
D3
100
AcDbEntity
8
1
62
256
6
ByLayer
370
18
48
1
60
0
100
AcDbSpline
70
4
71
3
72
18
73
14
40
0
40
0
40
0
40
0
40
0.168123731828014
40
0.168123731828014
40
0.336247463656028
40
0.336247463656028
40
0.504371195484043
40
0.504371195484043
40
0.672494927312057
40
0.672494927312057
40
0.840618659140071
40
0.840618659140071
40
1
40
1
40
1
40
1
41
1
10
57.3836536462686
20
9.5128306628805
30
0
41
1
10
56.9600738853191
20
9.49610735619265
30
0
41
1
10
56.5364941243697
20
9.46214343402758
30
0
41
1
10
55.6893346024708
20
9.36010275185052
30
0
41
1
10
55.2657548415214
20
9.29202618931905
30
0
41
1
10
54.4185953196227
20
9.12249902335145
30
0
41
1
10
53.9950155586732
20
9.02104875179955
30
0
41
1
10
53.1478560367744
20
8.78587522136638
30
0
41
1
10
52.7242762758248
20
8.65215242398236
30
0
41
1
10
51.8771167539261
20
8.35388520438252
30
0
41
1
10
51.4535369929766
20
8.18934136808585
30
0
41
1
10
50.6284035100915
20
7.84052914699151
30
0
41
1
10
50.2268497881559
20
7.6577319893793
30
0
41
1
10
49.8252960662203
20
7.46278263507011
30
0
0
SPLINE
5
D4
100
AcDbEntity
8
1
62
256
6
ByLayer
370
18
48
1
60
0
100
AcDbSpline
70
4
71
3
72
14
73
10
40
0
40
0
40
0
40
0
40
0.150743031533241
40
0.150743031533241
40
0.433828687688827
40
0.433828687688827
40
0.716914343844414
40
0.716914343844414
40
1
40
1
40
1
40
1
41
1
10
21.208882751013
20
-9.45210904889038
30
0
41
1
10
20.983326648564
20
-9.47387181677743
30
0
41
1
10
20.7577705461151
20
-9.49078365983507
30
0
41
1
10
20.1086346827167
20
-9.52540037580317
30
0
41
1
10
19.6850549217673
20
-9.53076624581823
30
0
41
1
10
18.8378953998682
20
-9.50699471606265
30
0
41
1
10
18.4143156389187
20
-9.47785736169018
30
0
41
1
10
17.5671561170198
20
-9.38539551631939
30
0
41
1
10
17.1435763560703
20
-9.32207120485489
30
0
41
1
10
16.7199965951208
20
-9.24199693105007
30
0
0
SPLINE
5
D5
100
AcDbEntity
8
1
62
256
6
ByLayer
370
18
48
1
60
0
100
AcDbSpline
70
4
71
5
72
15
73
9
40
0
40
0
40
0
40
0
40
0
40
0
40
0.238379463960557
40
0.654334828631901
40
0.931638405079464
40
1
40
1
40
1
40
1
40
1
40
1
41
1
10
16.719999908245
20
-9.2419690920695
30
0
41
1
10
16.605678937713
20
-9.22035759693421
30
0
41
1
10
16.2918759304437
20
-9.1582472160564
30
0
41
1
10
15.8450848986828
20
-9.05895978818478
30
0
41
1
10
15.3655093151464
20
-8.93599241322249
30
0
41
1
10
14.88593373161
20
-8.79579487757599
30
0
41
1
10
14.5206791186055
20
-8.67923098801018
30
0
41
1
10
14.3549065423384
20
-8.62433301824223
30
0
41
1
10
14.322121990563
20
-8.61339808330936
30
0
0
SPLINE
5
D6
100
AcDbEntity
8
1
62
256
6
ByLayer
370
18
48
1
60
0
100
AcDbSpline
70
4
71
3
72
18
73
14
40
0
40
0
40
0
40
0
40
0.181842969144157
40
0.181842969144157
40
0.363685938288313
40
0.363685938288313
40
0.545528907432469
40
0.545528907432469
40
0.727371876576626
40
0.727371876576626
40
0.909214845720782
40
0.909214845720782
40
1
40
1
40
1
40
1
41
1
10
1.76878946499767
20
-8.16712483046825
30
0
41
1
10
2.16379089066999
20
-8.02038096022611
30
0
41
1
10
2.56254904401445
20
-7.87581226775762
30
0
41
1
10
3.36858597654239
20
-7.59216276163824
30
0
41
1
10
3.77586710078987
20
-7.45307891534893
30
0
41
1
10
4.60000473417659
20
-7.18220266029493
30
0
41
1
10
5.01686463548651
20
-7.05040951542853
30
0
41
1
10
5.86117336953993
20
-6.79665366145929
30
0
41
1
10
6.28862644394604
20
-6.67469352395386
30
0
41
1
10
7.15497834270428
20
-6.44385420948464
30
0
41
1
10
7.59388184285797
20
-6.33498145258773
30
0
41
1
10
8.26091125120058
20
-6.18442985235325
30
0
41
1
10
8.48452994267652
20
-6.13640608916057
30
0
41
1
10
8.70965416740339
20
-6.09074961008884
30
0
0
SPLINE
5
D7
100
AcDbEntity
8
1
62
256
6
ByLayer
370
18
48
1
60
0
100
AcDbSpline
70
4
71
3
72
18
73
14
40
0
40
0
40
0
40
0
40
0.125
40
0.125
40
0.25
40
0.25
40
0.5
40
0.5
40
0.749999999999999
40
0.749999999999999
40
0.875
40
0.875
40
1
40
1
40
1
40
1
41
1
10
56.8832304387153
20
3.81093929074922
30
0
41
1
10
56.8993811238107
20
3.77667416930768
30
0
41
1
10
56.9153192517495
20
3.74317255696354
30
0
41
1
10
56.9467071246852
20
3.67792361250841
30
0
41
1
10
56.9621694516708
20
3.64613108567005
30
0
41
1
10
57.0079102177447
20
3.55307472053934
30
0
41
1
10
57.0375511961934
20
3.49410065222909
30
0
41
1
10
57.0952224711645
20
3.38193811380796
30
0
41
1
10
57.1232484751727
20
3.32874921127828
30
0
41
1
10
57.1638198243223
20
3.25412602147284
30
0
41
1
10
57.1771007655524
20
3.23010893225592
30
0
41
1
10
57.2030937908629
20
3.18408299703137
30
0
41
1
10
57.2158077350074
20
3.16206758441689
30
0
41
1
10
57.2281522324459
20
3.14135643393391
30
0
0
SPLINE
5
D8
100
AcDbEntity
8
1
62
256
6
ByLayer
370
18
48
1
60
0
100
AcDbSpline
70
4
71
3
72
9
73
5
40
0
40
0
40
0
40
0
40
0.507421230842512
40
1
40
1
40
1
40
1
41
1
10
10.2459033791909
20
-6.79767187813027
30
0
41
1
10
9.78786048584388
20
-7.12145438515213
30
0
41
1
10
8.90842530168939
20
-7.87010307102457
30
0
41
1
10
8.04015352947752
20
-8.68768032717372
30
0
41
1
10
7.60661483981502
20
-9.0693253122781
30
0
0
SPLINE
5
D9
100
AcDbEntity
8
1
62
256
6
ByLayer
370
18
48
1
60
0
100
AcDbSpline
70
4
71
3
72
17
73
13
40
0
40
0
40
0
40
0
40
0.299811761564902
40
0.299811761564902
40
0.649905880782451
40
0.649905880782451
40
0.824952940391225
40
0.824952940391225
40
0.868714705293419
40
0.868714705293419
40
0.912476470195613
40
1
40
1
40
1
40
1
41
1
10
54.0731655797494
20
5.23352146355947
30
0
41
1
10
54.344845195194
20
5.14694032511676
30
0
41
1
10
54.6193756335089
20
5.04350219207015
30
0
41
1
10
55.220612714295
20
4.78300833989297
30
0
41
1
10
55.5483339167625
20
4.61995349939943
30
0
41
1
10
56.0457142904191
20
4.34108413388415
30
0
41
1
10
56.212478564436
20
4.24238721603436
30
0
41
1
10
56.4221082759808
20
4.11207199215315
30
0
41
1
10
56.4640959700364
20
4.0856602077381
30
0
41
1
10
56.547995667764
20
4.03227557004007
30
0
41
1
10
56.6738038519726
20
3.95131258342025
30
0
41
1
10
56.7994906844706
20
3.86775010281954
30
0
41
1
10
56.8832304387154
20
3.81093929074922
30
0
0
SPLINE
5
DA
100
AcDbEntity
8
1
62
256
6
ByLayer
370
18
48
1
60
0
100
AcDbSpline
70
4
71
3
72
8
73
4
40
0
40
0
40
0
40
0
40
1
40
1
40
1
40
1
41
1
10
15.0876607764629
20
-7.1835101048724
30
0
41
1
10
15.3034624150089
20
-7.14017146385169
30
0
41
1
10
15.5270048899797
20
-7.10420238640242
30
0
41
1
10
15.7566277458053
20
-7.07763333331459
30
0
0
SPLINE
5
DB
100
AcDbEntity
8
1
62
256
6
ByLayer
370
18
48
1
60
0
100
AcDbSpline
70
4
71
3
72
54
73
50
40
0
40
0
40
0
40
0
40
0.0072005292491517
40
0.0072005292491517
40
0.0181104135431158
40
0.0181104135431158
40
0.0399301821310446
40
0.0399301821310446
40
0.0835697193069021
40
0.0835697193069021
40
0.12720925648276
40
0.12720925648276
40
0.214488330834475
40
0.214488330834475
40
0.258127868010334
40
0.258127868010334
40
0.301767405186192
40
0.301767405186192
40
0.38904647953791
40
0.38904647953791
40
0.432686016713769
40
0.432686016713769
40
0.476325553889627
40
0.476325553889627
40
0.487235438183593
40
0.487235438183593
40
0.498145322477558
40
0.51996509106549
40
0.563604628241353
40
0.563604628241353
40
0.650883702593081
40
0.650883702593081
40
0.694523239768946
40
0.694523239768946
40
0.738162776944811
40
0.738162776944811
40
0.781802314120676
40
0.781802314120676
40
0.82544185129654
40
0.82544185129654
40
0.869081388472405
40
0.869081388472405
40
0.91272092564827
40
0.91272092564827
40
0.934540694236202
40
0.934540694236202
40
0.956360462824135
40
0.956360462824135
40
1
40
1
40
1
40
1
41
1
10
30.6128469140736
20
-7.83276385363425
30
0
41
1
10
30.5769282567454
20
-7.84649944082699
30
0
41
1
10
30.5409947107774
20
-7.86013823599183
30
0
41
1
10
30.4505776611894
20
-7.89419674939901
30
0
41
1
10
30.3960495145402
20
-7.91449919298646
30
0
41
1
10
30.2325867386652
20
-7.9746428783028
30
0
41
1
10
30.1237607046814
20
-8.01372528763619
30
0
41
1
10
29.7976789602386
20
-8.127940274145
30
0
41
1
10
29.5808169591019
20
-8.20004476513262
30
0
41
1
10
29.147873031686
20
-8.33625438320325
30
0
41
1
10
28.9317869931043
20
-8.40037553006206
30
0
41
1
10
28.2844834749447
20
-8.58039371608535
30
0
41
1
10
27.8541597854908
20
-8.68407335728088
30
0
41
1
10
27.2090557326269
20
-8.81526296708478
30
0
41
1
10
26.9940945782666
20
-8.85491539730907
30
0
41
1
10
26.5641655954384
20
-8.92575482170943
30
0
41
1
10
26.3491862744682
20
-8.95697709955451
30
0
41
1
10
25.7038090764987
20
-9.03824156544326
30
0
41
1
10
25.272969467628
20
-9.07598092363037
30
0
41
1
10
24.6246735424968
20
-9.10657888612451
30
0
41
1
10
24.4082278241692
20
-9.112462626911
30
0
41
1
10
23.974387671407
20
-9.11571653193084
30
0
41
1
10
23.7569896061018
20
-9.11313973587144
30
0
41
1
10
23.4845280830662
20
-9.10436118350779
30
0
41
1
10
23.4300027347656
20
-9.1023275381375
30
0
41
1
10
23.3210750507865
20
-9.09771419143092
30
0
41
1
10
23.1577935828682
20
-9.08997287367578
30
0
41
1
10
22.7775290086649
20
-9.06620074779005
30
0
41
1
10
22.4526801638014
20
-9.03617566584501
30
0
41
1
10
21.8040745498149
20
-8.96354663593451
30
0
41
1
10
21.3731060163053
20
-8.89845134712363
30
0
41
1
10
20.7276804897932
20
-8.77579893563015
30
0
41
1
10
20.5126719985937
20
-8.7308840714467
30
0
41
1
10
20.0827068096464
20
-8.63314090333813
30
0
41
1
10
19.8677568819578
20
-8.5802883173811
30
0
41
1
10
19.4377538527965
20
-8.46651686540656
30
0
41
1
10
19.2227160362136
20
-8.40551962354502
30
0
41
1
10
18.792318526544
20
-8.2754899674764
30
0
41
1
10
18.5769310433899
20
-8.20660986636173
30
0
41
1
10
18.1455734266839
20
-8.06120077154276
30
0
41
1
10
17.9296087761535
20
-7.98464421052833
30
0
41
1
10
17.4969212991855
20
-7.82366195381425
30
0
41
1
10
17.2802058873697
20
-7.73916839636706
30
0
41
1
10
16.954378709875
20
-7.60661323767204
30
0
41
1
10
16.8456415573015
20
-7.56148203808559
30
0
41
1
10
16.6278812399842
20
-7.46935850622739
30
0
41
1
10
16.5188101505114
20
-7.42233780996287
30
0
41
1
10
16.1918832241916
20
-7.27877257425143
30
0
41
1
10
15.9741122912538
20
-7.17963988775134
30
0
41
1
10
15.7564331971936
20
-7.07709791279265
30
0
0
SPLINE
5
DC
100
AcDbEntity
8
1
62
256
6
ByLayer
370
18
48
1
60
0
100
AcDbSpline
70
4
71
3
72
16
73
12
40
0
40
0
40
0
40
0
40
0.0971673025473859
40
0.0971673025473859
40
0.153594346138172
40
0.153594346138172
40
0.210021389728959
40
0.322875476910534
40
0.548583651273688
40
0.548583651273688
40
1
40
1
40
1
40
1
41
1
10
11.7603220690744
20
-7.57528924053807
30
0
41
1
10
11.6259510823442
20
-7.63892846118875
30
0
41
1
10
11.4914302592813
20
-7.70125823268364
30
0
41
1
10
11.2785094300722
20
-7.79766807965075
30
0
41
1
10
11.2002013735406
20
-7.83264604924633
30
0
41
1
10
11.043571950419
20
-7.90163327451253
30
0
41
1
10
10.808750012501
20
-8.00359942043116
30
0
41
1
10
10.2615703734278
20
-8.23086582708186
30
0
41
1
10
9.79342680613354
20
-8.40721878860285
30
0
41
1
10
8.85724889082374
20
-8.73478300213165
30
0
41
1
10
8.23328217533015
20
-8.91966595606371
30
0
41
1
10
7.60666075553672
20
-9.06928489247738
30
0
0
SPLINE
5
DD
100
AcDbEntity
8
1
62
256
6
ByLayer
370
18
48
1
60
0
100
AcDbSpline
70
4
71
3
72
54
73
50
40
0
40
0
40
0
40
0
40
0.125
40
0.125
40
0.249999999999999
40
0.249999999999999
40
0.3125
40
0.3125
40
0.34375
40
0.34375
40
0.375
40
0.375
40
0.437500000000002
40
0.437500000000002
40
0.500000000000004
40
0.500000000000004
40
0.562500000000006
40
0.562500000000006
40
0.625000000000008
40
0.625000000000008
40
0.656250000000009
40
0.656250000000009
40
0.671875000000009
40
0.671875000000009
40
0.687500000000009
40
0.687500000000009
40
0.750000000000006
40
0.750000000000006
40
0.781250000000005
40
0.781250000000005
40
0.796875000000004
40
0.796875000000004
40
0.812500000000004
40
0.812500000000004
40
0.843750000000003
40
0.843750000000003
40
0.875000000000003
40
0.875000000000003
40
0.906250000000002
40
0.906250000000002
40
0.937500000000001
40
0.937500000000001
40
0.968750000000001
40
0.968750000000001
40
0.984375
40
0.984375
40
0.9921875
40
0.9921875
40
1
40
1
40
1
40
1
41
1
10
7.60643771928261
20
-9.06924672302563
30
0
41
1
10
7.2689183878712
20
-9.15011827342394
30
0
41
1
10
6.9355073709005
20
-9.2221513168775
30
0
41
1
10
6.27626458078316
20
-9.34555878303539
30
0
41
1
10
5.95041966355421
20
-9.39695542975605
30
0
41
1
10
5.4675553014691
20
-9.4560543049889
30
0
41
1
10
5.3075927959913
20
-9.47274972561667
30
0
41
1
10
5.06926609060744
20
-9.49288935854037
30
0
41
1
10
4.99001910646294
20
-9.49878834471488
30
0
41
1
10
4.83268543794813
20
-9.50883920553488
30
0
41
1
10
4.75455518233187
20
-9.51299637697858
30
0
41
1
10
4.52184658590733
20
-9.522783111222
30
0
41
1
10
4.3689432630504
20
-9.52573263161921
30
0
41
1
10
4.06814577237219
20
-9.52395966276754
30
0
41
1
10
3.92024850328716
20
-9.5192397865834
30
0
41
1
10
3.63026141431473
20
-9.50142768456516
30
0
41
1
10
3.48816611083038
20
-9.48833981905989
30
0
41
1
10
3.21096895937629
20
-9.45280907542289
30
0
41
1
10
3.07585665089698
20
-9.43037418468921
30
0
41
1
10
2.87978347772528
20
-9.3886247730847
30
0
41
1
10
2.81553064641929
20
-9.37335453173566
30
0
41
1
10
2.7210486840566
20
-9.34823010182811
30
0
41
1
10
2.6898440168155
20
-9.3394766358864
30
0
41
1
10
2.62827170965548
20
-9.3212386301351
30
0
41
1
10
2.59790946036097
20
-9.31175672540829
30
0
41
1
10
2.4483447508363
20
-9.26246786630813
30
0
41
1
10
2.33580200923367
20
-9.21706291039797
30
0
41
1
10
2.18093722065748
20
-9.1383241734726
30
0
41
1
10
2.13165528852477
20
-9.11029860846443
30
0
41
1
10
2.06184639992372
20
-9.06528648632298
30
0
41
1
10
2.0392726660487
20
-9.04978767611919
30
0
41
1
10
1.99587068273249
20
-9.01793301697404
30
0
41
1
10
1.97500884671209
20
-9.00155631411843
30
0
41
1
10
1.91510549350832
20
-8.9510303304892
30
0
41
1
10
1.87873732503147
20
-8.91548771873425
30
0
41
1
10
1.81419696004491
20
-8.84037715892808
30
0
41
1
10
1.78602054481664
20
-8.80081032837813
30
0
41
1
10
1.73924983718004
20
-8.71725039201942
30
0
41
1
10
1.72064836879733
20
-8.67325915521002
30
0
41
1
10
1.69490844654564
20
-8.58031200675106
30
0
41
1
10
1.68803433137057
20
-8.53223073640802
30
0
41
1
10
1.68733170558622
20
-8.43296882693917
30
0
41
1
10
1.69349815699604
20
-8.38177959399695
30
0
41
1
10
1.71350317016422
20
-8.30270486364643
30
0
41
1
10
1.72196636727912
20
-8.27596479317901
30
0
41
1
10
1.73750016079387
20
-8.23528777215665
30
0
41
1
10
1.74314955566493
20
-8.22164495225715
30
0
41
1
10
1.75531016608403
20
-8.19439606954379
30
0
41
1
10
1.76183122727571
20
-8.18076317372467
30
0
41
1
10
1.76878946501151
20
-8.16712483046265
30
0
0
SPLINE
5
DE
100
AcDbEntity
8
1
62
256
6
ByLayer
370
18
48
1
60
0
100
AcDbSpline
70
4
71
3
72
48
73
44
40
0
40
0
40
0
40
0
40
0.0624999999999995
40
0.0624999999999995
40
0.124999999999999
40
0.124999999999999
40
0.156249999999998
40
0.156249999999998
40
0.171874999999998
40
0.171874999999998
40
0.187499999999998
40
0.187499999999998
40
0.249999999999996
40
0.312499999999995
40
0.312499999999995
40
0.328124999999995
40
0.328124999999995
40
0.343749999999995
40
0.374999999999995
40
0.374999999999995
40
0.437499999999995
40
0.437499999999995
40
0.453124999999993
40
0.453124999999993
40
0.468749999999992
40
0.499999999999993
40
0.499999999999993
40
0.562499999999996
40
0.562499999999996
40
0.625
40
0.625
40
0.65625
40
0.65625
40
0.671875
40
0.671875
40
0.6875
40
0.75
40
0.75
40
0.8125
40
0.8125
40
0.875
40
0.875
40
1
40
1
40
1
40
1
41
1
10
1.76878946501043
20
-8.16712483046041
30
0
41
1
10
1.74165699817516
20
-8.10594098431949
30
0
41
1
10
1.72080432297278
20
-8.04268224945881
30
0
41
1
10
1.6932242939632
20
-7.91188361375913
30
0
41
1
10
1.68649101578362
20
-7.84434416087404
30
0
41
1
10
1.68851036532075
20
-7.73968844492831
30
0
41
1
10
1.69120760574455
20
-7.70424501863943
30
0
41
1
10
1.6985282726356
20
-7.65022102765315
30
0
41
1
10
1.70151466848566
20
-7.63206985376488
30
0
41
1
10
1.70862454421129
20
-7.59547710095964
30
0
41
1
10
1.71274723051764
20
-7.57705558964528
30
0
41
1
10
1.73605676521416
20
-7.48509773565394
30
0
41
1
10
1.79083323051319
20
-7.3375952541206
30
0
41
1
10
1.88063846295293
20
-7.19027913499431
30
0
41
1
10
1.94786798138966
20
-7.09856284392922
30
0
41
1
10
1.96181318936075
20
-7.08031569344556
30
0
41
1
10
1.99059576657464
20
-7.04411836361737
30
0
41
1
10
2.03514526656511
20
-6.99021731536345
30
0
41
1
10
2.0836978943062
20
-6.9374961160363
30
0
41
1
10
2.18585466801486
20
-6.83361854921927
30
0
41
1
10
2.26068334002164
20
-6.76645175051871
30
0
41
1
10
2.36186903673203
20
-6.6850963960282
30
0
41
1
10
2.38251103190362
20
-6.66893930457218
30
0
41
1
10
2.42444955731142
20
-6.63695954500349
30
0
41
1
10
2.48818389207847
20
-6.5896075450776
30
0
41
1
10
2.55428162908478
20
-6.54404492793626
30
0
41
1
10
2.68936734744244
20
-6.45516336716858
30
0
41
1
10
2.78326742214517
20
-6.39889449214928
30
0
41
1
10
2.97768895129599
20
-6.29175293999697
30
0
41
1
10
3.07821455932034
20
-6.2408825294593
30
0
41
1
10
3.23340169885486
20
-6.16832404555586
30
0
41
1
10
3.285865811718
20
-6.14476351972732
30
0
41
1
10
3.36560787940485
20
-6.11033189769245
30
0
41
1
10
3.39236269849246
20
-6.09900695548171
30
0
41
1
10
3.44600444620338
20
-6.07674011340777
30
0
41
1
10
3.58057083765453
20
-6.02197544857447
30
0
41
1
10
3.71734483778175
20
-5.97156070513407
30
0
41
1
10
3.93863760948517
20
-5.89587537408582
30
0
41
1
10
4.05051251434372
20
-5.86052392020514
30
0
41
1
10
4.27644761770031
20
-5.79437082916027
30
0
41
1
10
4.39050862271066
20
-5.76357045990059
30
0
41
1
10
4.73566601930068
20
-5.67750965515796
30
0
41
1
10
4.96972068232225
20
-5.62856407804239
30
0
41
1
10
5.20717556602111
20
-5.58716629772019
30
0
0
SPLINE
5
DF
100
AcDbEntity
8
1
62
256
6
ByLayer
370
18
48
1
60
0
100
AcDbSpline
70
4
71
3
72
30
73
26
40
0
40
0
40
0
40
0
40
0.0625000000000031
40
0.0625000000000031
40
0.125000000000006
40
0.125000000000006
40
0.187500000000009
40
0.187500000000009
40
0.218750000000009
40
0.218750000000009
40
0.250000000000008
40
0.250000000000008
40
0.375000000000011
40
0.375000000000011
40
0.500000000000013
40
0.500000000000013
40
0.562500000000014
40
0.562500000000014
40
0.593750000000013
40
0.593750000000013
40
0.625000000000012
40
0.625000000000012
40
0.750000000000007
40
0.750000000000007
40
1
40
1
40
1
40
1
41
1
10
5.20717556602105
20
-5.58716629772019
30
0
41
1
10
5.31734190107281
20
-5.56795994716492
30
0
41
1
10
5.42789631331297
20
-5.55362906577989
30
0
41
1
10
5.64964287014058
20
-5.5330687246711
30
0
41
1
10
5.76083615955091
20
-5.52685243969847
30
0
41
1
10
5.9837796361457
20
-5.52152851602199
30
0
41
1
10
6.0955303577193
20
-5.52242707959357
30
0
41
1
10
6.26353596617088
20
-5.5286154363219
30
0
41
1
10
6.31961012365838
20
-5.53148771141585
30
0
41
1
10
6.43184499406354
20
-5.53878575760433
30
0
41
1
10
6.48772553038697
20
-5.54319283395964
30
0
41
1
10
6.76601341920079
20
-5.56878113737278
30
0
41
1
10
6.98510903515052
20
-5.60052662311315
30
0
41
1
10
7.41737188674156
20
-5.68237000747752
30
0
41
1
10
7.63052469819434
20
-5.73251211865133
30
0
41
1
10
7.94623462552337
20
-5.81955160553591
30
0
41
1
10
8.05079849332319
20
-5.85054359962797
30
0
41
1
10
8.2066717733768
20
-5.89979872078575
30
0
41
1
10
8.25853060178821
20
-5.91670010576806
30
0
41
1
10
8.36156365972485
20
-5.95127045296124
30
0
41
1
10
8.4127311962699
20
-5.96893550203637
30
0
41
1
10
8.6668822934183
20
-6.05904881432954
30
0
41
1
10
8.86482007931767
20
-6.13684406653226
30
0
41
1
10
9.44432618495134
20
-6.38356095130021
30
0
41
1
10
9.81159727504013
20
-6.56578974874736
30
0
41
1
10
10.1636440356594
20
-6.7570580969743
30
0
0
SPLINE
5
E0
100
AcDbEntity
8
1
62
256
6
ByLayer
370
18
48
1
60
0
100
AcDbSpline
70
4
71
3
72
10
73
6
40
0
40
0
40
0
40
0
40
0.5
40
0.5
40
1
40
1
40
1
40
1
41
1
10
10.1639340448234
20
-6.75704622455373
30
0
41
1
10
10.8569653706755
20
-7.13866666124466
30
0
41
1
10
11.5499966965274
20
-7.48745014428962
30
0
41
1
10
12.9360593482314
20
-8.10924362030718
30
0
41
1
10
13.6290906740835
20
-8.38224486003071
30
0
41
1
10
14.3221219999355
20
-8.61339800802094
30
0
0
SPLINE
5
E1
100
AcDbEntity
8
1
62
256
6
ByLayer
370
18
48
1
60
0
100
AcDbSpline
70
4
71
3
72
21
73
17
40
0
40
0
40
0
40
0
40
0.125000000000004
40
0.125000000000004
40
0.250000000000008
40
0.250000000000008
40
0.375000000000012
40
0.375000000000012
40
0.500000000000016
40
0.500000000000016
40
0.750000000000017
40
0.750000000000017
40
0.812500000000014
40
0.812500000000014
40
0.875000000000011
40
1
40
1
40
1
40
1
41
1
10
14.3221721935843
20
-8.61333870073366
30
0
41
1
10
14.3388338478848
20
-8.5647246192849
30
0
41
1
10
14.3596322124743
20
-8.5148550446778
30
0
41
1
10
14.4067496619466
20
-8.41247358137011
30
0
41
1
10
14.4330919964919
20
-8.35996297491579
30
0
41
1
10
14.4896436148638
20
-8.25221430504402
30
0
41
1
10
14.5198635046531
20
-8.19697680242686
30
0
41
1
10
14.5830587996918
20
-8.08370510644266
30
0
41
1
10
14.6160396394498
20
-8.02567119400666
30
0
41
1
10
14.7179353638782
20
-7.8472775183547
30
0
41
1
10
14.7897437093187
20
-7.72262890211752
30
0
41
1
10
14.8817839943948
20
-7.55932480179987
30
0
41
1
10
14.9003163376241
20
-7.52627977651858
30
0
41
1
10
14.9375087013011
20
-7.45954660039146
30
0
41
1
10
14.9935111725212
20
-7.35844443568351
30
0
41
1
10
15.049963739732
20
-7.25430844900157
30
0
41
1
10
15.087660776463
20
-7.1835101048724
30
0
0
SPLINE
5
E2
100
AcDbEntity
8
1
62
256
6
ByLayer
370
18
48
1
60
0
100
AcDbSpline
70
4
71
3
72
18
73
14
40
0
40
0
40
0
40
0
40
0.250000000000001
40
0.250000000000001
40
0.500000000000002
40
0.500000000000002
40
0.531250000000001
40
0.531250000000001
40
0.562499999999999
40
0.624999999999999
40
0.749999999999999
40
0.749999999999999
40
1
40
1
40
1
40
1
41
1
10
15.0876607764625
20
-7.1835101048722
30
0
41
1
10
14.4661184945549
20
-6.86462771614862
30
0
41
1
10
13.8462610049856
20
-6.51863304873939
30
0
41
1
10
12.6044505367243
20
-5.77760301680254
30
0
41
1
10
11.9825095376233
20
-5.38255685202154
30
0
41
1
10
11.2785094300722
20
-4.91317815359554
30
0
41
1
10
11.2002013735407
20
-4.86066091172481
30
0
41
1
10
11.0435719504191
20
-4.75502183737831
30
0
41
1
10
10.808750012501
20
-4.59575285352039
30
0
41
1
10
10.2615703734278
20
-4.21859811987159
30
0
41
1
10
9.79342680613362
20
-3.88633930989053
30
0
41
1
10
8.8572488908238
20
-3.21110989170606
30
0
41
1
10
8.23328217533017
20
-2.74667781445646
30
0
41
1
10
7.60666075553672
20
-2.27122915656764
30
0
0
SPLINE
5
E3
100
AcDbEntity
8
1
62
256
6
ByLayer
370
18
48
1
60
0
100
AcDbSpline
70
4
71
3
72
30
73
26
40
0
40
0
40
0
40
0
40
0.062499999999991
40
0.062499999999991
40
0.124999999999982
40
0.124999999999982
40
0.187499999999973
40
0.187499999999973
40
0.21874999999997
40
0.21874999999997
40
0.249999999999968
40
0.249999999999968
40
0.374999999999965
40
0.374999999999965
40
0.499999999999963
40
0.499999999999963
40
0.562499999999962
40
0.562499999999962
40
0.593749999999963
40
0.593749999999963
40
0.624999999999964
40
0.624999999999964
40
0.749999999999976
40
0.749999999999976
40
1
40
1
40
1
40
1
41
1
10
5.2071755660227
20
7.30568801701671
30
0
41
1
10
5.3173419010744
20
7.32090445209747
30
0
41
1
10
5.42789631331456
20
7.33215802148612
30
0
41
1
10
5.64964287014212
20
7.34827064399209
30
0
41
1
10
5.76083615955238
20
7.35311641812459
30
0
41
1
10
5.98377963614715
20
7.3572688317102
30
0
41
1
10
6.09553035772072
20
7.35656934170132
30
0
41
1
10
6.26353596617227
20
7.35173987767576
30
0
41
1
10
6.31961012365971
20
7.34949725306649
30
0
41
1
10
6.43184499406485
20
7.34378961635568
30
0
41
1
10
6.48772553038825
20
7.34033918425791
30
0
41
1
10
6.76601341920195
20
7.32026153181346
30
0
41
1
10
6.9851090351516
20
7.29525252754396
30
0
41
1
10
7.41737188674253
20
7.22952860356901
30
0
41
1
10
7.63052469819522
20
7.18877491748833
30
0
41
1
10
7.94623462552414
20
7.11622259682363
30
0
41
1
10
8.05079849332395
20
7.09012571541962
30
0
41
1
10
8.20667177337751
20
7.04809820430671
30
0
41
1
10
8.25853060178892
20
7.03358957957261
30
0
41
1
10
8.36156365972553
20
7.00371229569365
30
0
41
1
10
8.41273119627053
20
6.98834728470953
30
0
41
1
10
8.66688229341881
20
6.9094137143986
30
0
41
1
10
8.86482007931812
20
6.83953468925779
30
0
41
1
10
9.44432618495156
20
6.6101656377181
30
0
41
1
10
9.81159727504024
20
6.43094276523655
30
0
41
1
10
10.1636440356595
20
6.22555316720769
30
0
0
SPLINE
5
E4
100
AcDbEntity
8
1
62
256
6
ByLayer
370
18
48
1
60
0
100
AcDbSpline
70
4
71
3
72
13
73
9
40
0
40
0
40
0
40
0
40
0.127906872193253
40
0.255813744386505
40
0.383720616579758
40
0.511627488773011
40
0.767441233159516
40
1
40
1
40
1
40
1
41
1
10
13.4159484556631
20
-0.0436461094365086
30
0
41
1
10
13.1617070322334
20
-0.237700028514666
30
0
41
1
10
12.6269200879322
20
-0.583198991391981
30
0
41
1
10
11.8482737419585
20
-1.08505666858201
30
0
41
1
10
11.082625219432
20
-1.53169730649557
30
0
41
1
10
10.0867609577539
20
-2.03490987148143
30
0
41
1
10
8.93830558168395
20
-2.4136264501889
30
0
41
1
10
8.04015352947755
20
-2.38173110477089
30
0
41
1
10
7.60661483981502
20
-2.27121745250958
30
0
0
SPLINE
5
E5
100
AcDbEntity
8
1
62
256
6
ByLayer
370
18
48
1
60
0
100
AcDbSpline
70
4
71
3
72
83
73
79
40
0
40
0
40
0
40
0
40
0.0625000000000016
40
0.0625000000000016
40
0.125000000000003
40
0.125000000000003
40
0.187500000000005
40
0.187500000000005
40
0.203125000000004
40
0.203125000000004
40
0.218750000000004
40
0.218750000000004
40
0.250000000000004
40
0.250000000000004
40
0.312500000000005
40
0.312500000000005
40
0.375000000000005
40
0.375000000000005
40
0.406250000000005
40
0.406250000000005
40
0.437500000000006
40
0.437500000000006
40
0.453125000000005
40
0.453125000000005
40
0.468750000000005
40
0.468750000000005
40
0.500000000000004
40
0.500000000000004
40
0.531250000000004
40
0.531250000000004
40
0.546875000000004
40
0.546875000000004
40
0.562500000000003
40
0.562500000000003
40
0.593750000000002
40
0.593750000000002
40
0.625000000000001
40
0.625000000000001
40
0.632812500000001
40
0.632812500000001
40
0.640625000000001
40
0.65625
40
0.671874999999998
40
0.671874999999998
40
0.679687499999998
40
0.683593749999998
40
0.683593749999998
40
0.687499999999998
40
0.687499999999998
40
0.718749999999994
40
0.718749999999994
40
0.734374999999992
40
0.734374999999992
40
0.742187499999991
40
0.742187499999991
40
0.749999999999991
40
0.749999999999991
40
0.78124999999999
40
0.78124999999999
40
0.79687499999999
40
0.79687499999999
40
0.812499999999991
40
0.812499999999991
40
0.843749999999992
40
0.843749999999992
40
0.874999999999994
40
0.874999999999994
40
0.882812499999995
40
0.882812499999995
40
0.890624999999995
40
0.890624999999995
40
0.906249999999996
40
0.906249999999996
40
0.937499999999997
40
0.937499999999997
40
0.968749999999999
40
0.968749999999999
40
1
40
1
40
1
40
1
41
1
10
7.60643772004087
20
-2.27135044670322
30
0
41
1
10
7.36539039547441
20
-2.08782454955031
30
0
41
1
10
7.12636064908284
20
-1.90021477983925
30
0
41
1
10
6.65206457704963
20
-1.51690499087638
30
0
41
1
10
6.41679622285474
20
-1.32120880051178
30
0
41
1
10
5.9499630382013
20
-0.921490452276743
30
0
41
1
10
5.71839496493351
20
-0.717474388406259
30
0
41
1
10
5.43139387172823
20
-0.456814477579286
30
0
41
1
10
5.3741174676943
20
-0.404399085624021
30
0
41
1
10
5.25981975907249
20
-0.298984152971229
30
0
41
1
10
5.20281943774179
20
-0.246003297894532
30
0
41
1
10
5.03268623133698
20
-0.0866013604874354
30
0
41
1
10
4.92027016370488
20
0.0204155250975759
30
0
41
1
10
4.58621465238812
20
0.343850630518233
30
0
41
1
10
4.36773882012241
20
0.562628586042138
30
0
41
1
10
3.94075999988129
20
1.00772927779678
30
0
41
1
10
3.73223628574647
20
1.23403477042615
30
0
41
1
10
3.4289236822361
20
1.58080255374287
30
0
41
1
10
3.32940902951773
20
1.69761911661152
30
0
41
1
10
3.13407732237616
20
1.93413875302989
30
0
41
1
10
3.03825782606825
20
2.05383977602889
30
0
41
1
10
2.89782922228682
20
2.23599660234646
30
0
41
1
10
2.85152153722387
20
2.29721992958278
30
0
41
1
10
2.76046167594782
20
2.42017069568584
30
0
41
1
10
2.71569389997993
20
2.48191529268331
30
0
41
1
10
2.58386887179481
20
2.66804659792544
30
0
41
1
10
2.4992758666024
20
2.79332418451091
30
0
41
1
10
2.33797681100165
20
3.0468722811122
30
0
41
1
10
2.26126188366939
20
3.17513854319395
30
0
41
1
10
2.15348960195104
20
3.37043401664519
30
0
41
1
10
2.11876606188335
20
3.43607327461643
30
0
41
1
10
2.05257470033257
20
3.56742487103648
30
0
41
1
10
2.02103981925535
20
3.63325293272422
30
0
41
1
10
1.9315640547494
20
3.83128803622802
30
0
41
1
10
1.87871349241394
20
3.96403778335954
30
0
41
1
10
1.78974766679468
20
4.23165126082245
30
0
41
1
10
1.75360147161163
20
4.3665080752053
30
0
41
1
10
1.72180521655858
20
4.53702174232879
30
0
41
1
10
1.71611226648
20
4.57129423655391
30
0
41
1
10
1.70624702849736
20
4.63950632956366
30
0
41
1
10
1.69370070298052
20
4.74144049935845
30
0
41
1
10
1.68439610046019
20
4.90941293771809
30
0
41
1
10
1.69019655506986
20
5.04174567459839
30
0
41
1
10
1.69989800427399
20
5.14022689716566
30
0
41
1
10
1.70608751500566
20
5.18927540154294
30
0
41
1
10
1.71436761836668
20
5.23803526282228
30
0
41
1
10
1.7203622285225
20
5.27047762453191
30
0
41
1
10
1.72360205884797
20
5.28668999577351
30
0
41
1
10
1.75479447920171
20
5.43165008841487
30
0
41
1
10
1.79694442382353
20
5.55397165605615
30
0
41
1
10
1.88125778460576
20
5.72846375983551
30
0
41
1
10
1.91288163843114
20
5.78512708706688
30
0
41
1
10
1.96557004573583
20
5.86795258060405
30
0
41
1
10
1.98400857653797
20
5.89519936947778
30
0
41
1
10
2.02263622021218
20
5.94898165338194
30
0
41
1
10
2.04274570416033
20
5.97540138292686
30
0
41
1
10
2.14661946152745
20
6.10460667191836
30
0
41
1
10
2.24079812616364
20
6.19944566015178
30
0
41
1
10
2.39632677254832
20
6.33125139807487
30
0
41
1
10
2.45059169341977
20
6.37345981136195
30
0
41
1
10
2.56346439042909
20
6.45456453799252
30
0
41
1
10
2.62150717709227
20
6.49306340926537
30
0
41
1
10
2.79992511675326
20
6.60319474459877
30
0
41
1
10
2.92456479928845
20
6.66949907692566
30
0
41
1
10
3.18323469928291
20
6.79088374048075
30
0
41
1
10
3.31727695276669
20
6.84594599054816
30
0
41
1
10
3.48989302582174
20
6.9089833410159
30
0
41
1
10
3.52467063675178
20
6.92129947136112
30
0
41
1
10
3.59471862517086
20
6.94537362072765
30
0
41
1
10
3.62993987399648
20
6.95711412736244
30
0
41
1
10
3.73587102545986
20
6.99139617536093
30
0
41
1
10
3.80696993322576
20
7.01304212627301
30
0
41
1
10
4.02157663211776
20
7.07473549384036
30
0
41
1
10
4.16638895345105
20
7.11155526081899
30
0
41
1
10
4.45900221784271
20
7.17808624466767
30
0
41
1
10
4.60680545361865
20
7.20779035739753
30
0
41
1
10
4.90506211842396
20
7.26111950796127
30
0
41
1
10
5.05551684492511
20
7.28474055531771
30
0
41
1
10
5.2071755660227
20
7.30568801701668
30
0
0
SPLINE
5
E6
100
AcDbEntity
8
1
62
256
6
ByLayer
370
18
48
1
60
0
100
AcDbSpline
70
4
71
3
72
16
73
12
40
0
40
0
40
0
40
0
40
0.249999999999999
40
0.249999999999999
40
0.374999999999999
40
0.374999999999999
40
0.437499999999998
40
0.437499999999998
40
0.499999999999998
40
0.499999999999998
40
1
40
1
40
1
40
1
41
1
10
57.687552118028
20
-8.96386026093256
30
0
41
1
10
57.6764124808772
20
-9.02565682497865
30
0
41
1
10
57.6699162985748
20
-9.0831384421451
30
0
41
1
10
57.6672689059811
20
-9.16276606619618
30
0
41
1
10
57.667569866427
20
-9.18820890600082
30
0
41
1
10
57.6698187420513
20
-9.22470289290337
30
0
41
1
10
57.6708680823306
20
-9.23658191403297
30
0
41
1
10
57.6735584141411
20
-9.25970993299643
30
0
41
1
10
57.675199874454
20
-9.2709678807893
30
0
41
1
10
57.6926215631861
20
-9.36955355626495
30
0
41
1
10
57.7268870483684
20
-9.43778666468512
30
0
41
1
10
57.7792848805745
20
-9.48728969717556
30
0
0
SPLINE
5
E7
100
AcDbEntity
8
1
62
256
6
ByLayer
370
18
48
1
60
0
100
AcDbSpline
70
4
71
3
72
10
73
6
40
0
40
0
40
0
40
0
40
0.5
40
0.5
40
1
40
1
40
1
40
1
41
1
10
57.6875521180279
20
-8.96386026093256
30
0
41
1
10
57.6101998956194
20
-8.87592985114171
30
0
41
1
10
57.5332376104041
20
-8.7780920049853
30
0
41
1
10
57.3800994239754
20
-8.56243604508109
30
0
41
1
10
57.3039234711383
20
-8.44461924297809
30
0
41
1
10
57.2281522324458
20
-8.31651955505683
30
0
0
SPLINE
5
E8
100
AcDbEntity
8
1
62
256
6
ByLayer
370
18
48
1
60
0
100
AcDbSpline
70
4
71
3
72
8
73
4
40
0
40
0
40
0
40
0
40
1
40
1
40
1
40
1
41
1
10
57.3837347964923
20
-9.51294302411824
30
0
41
1
10
57.5155910805399
20
-9.50447265616134
30
0
41
1
10
57.6474410507549
20
-9.49592078531919
30
0
41
1
10
57.7792848805745
20
-9.48728969717556
30
0
0
SPLINE
5
E9
100
AcDbEntity
8
1
62
256
6
ByLayer
370
18
48
1
60
0
100
AcDbSpline
70
4
71
3
72
8
73
4
40
0
40
0
40
0
40
0
40
1
40
1
40
1
40
1
41
1
10
57.687552118028
20
-1.69182246059569
30
0
41
1
10
57.656802825634
20
-1.7904250414993
30
0
41
1
10
57.6261279349598
20
-1.88848043348113
30
0
41
1
10
57.5955275060306
20
-1.98598819508732
30
0
0
SPLINE
5
EA
100
AcDbEntity
8
1
62
256
6
ByLayer
370
18
48
1
60
0
100
AcDbSpline
70
4
71
3
72
10
73
6
40
0
40
0
40
0
40
0
40
0.5
40
0.5
40
1
40
1
40
1
40
1
41
1
10
57.687552118028
20
1.69182246059526
30
0
41
1
10
57.6100369453205
20
1.94038740284489
30
0
41
1
10
57.5329945820771
20
2.18547505853582
30
0
41
1
10
57.3798573976799
20
2.66868165287002
30
0
41
1
10
57.3037625354657
20
2.90680089349411
30
0
41
1
10
57.2281522324459
20
3.14135643393391
30
0
0
SPLINE
5
EB
100
AcDbEntity
8
1
62
256
6
ByLayer
370
18
48
1
60
0
100
AcDbSpline
70
4
71
3
72
37
73
33
40
0
40
0
40
0
40
0
40
0.0966136915425871
40
0.0966136915425871
40
0.193227383085174
40
0.193227383085174
40
0.289841074627761
40
0.289841074627761
40
0.386454766170349
40
0.386454766170349
40
0.434761611941643
40
0.434761611941643
40
0.45891503482729
40
0.45891503482729
40
0.483068457712938
40
0.483068457712938
40
0.579682149255527
40
0.579682149255527
40
0.676295840798116
40
0.676295840798116
40
0.772909532340705
40
0.772909532340705
40
0.869523223883294
40
0.869523223883294
40
0.917830069654588
40
0.917830069654588
40
0.966136915425883
40
0.966136915425883
40
0.978213626868706
40
0.978213626868706
40
0.990290338311529
40
1
40
1
40
1
40
1
41
1
10
57.2281522324459
20
3.14135643393391
30
0
41
1
10
56.7945236627944
20
3.44571308577244
30
0
41
1
10
56.3626689888844
20
3.74283430992153
30
0
41
1
10
55.5007266190413
20
4.32077895369167
30
0
41
1
10
55.0706576690095
20
4.60160329735717
30
0
41
1
10
54.2107143921113
20
5.14492061315607
30
0
41
1
10
53.7807939606962
20
5.40745893752123
30
0
41
1
10
52.9193511804201
20
5.91230108964496
30
0
41
1
10
52.4878623341265
20
6.15452938796906
30
0
41
1
10
51.8380691721106
20
6.5011656413806
30
0
41
1
10
51.6210448005242
20
6.61393201944134
30
0
41
1
10
51.294706812115
20
6.77868016666739
30
0
41
1
10
51.1857488902179
20
6.83288439122478
30
0
41
1
10
50.9677306476233
20
6.93968905567772
30
0
41
1
10
50.8588685176421
20
6.99219308137981
30
0
41
1
10
50.3152155038497
20
7.25020109628065
30
0
41
1
10
49.8823698415222
20
7.44222523570926
30
0
41
1
10
49.0191591560174
20
7.79647502238177
30
0
41
1
10
48.5888579096652
20
7.95851197043339
30
0
41
1
10
47.7287463436093
20
8.25248151567487
30
0
41
1
10
47.2989499810571
20
8.38444309877542
30
0
41
1
10
46.4383388364334
20
8.61693865876845
30
0
41
1
10
46.0075256400558
20
8.7174863794281
30
0
41
1
10
45.3593040944122
20
8.84332529426473
30
0
41
1
10
45.1429022060798
20
8.88104545361989
30
0
41
1
10
44.7091421641916
20
8.94829728717767
30
0
41
1
10
44.491780635838
20
8.97787576235925
30
0
41
1
10
44.2193510780426
20
9.00961978227002
30
0
41
1
10
44.1648212305509
20
9.01570706695631
30
0
41
1
10
44.0558789373647
20
9.02733160856494
30
0
41
1
10
43.9576764782388
20
9.03732593377708
30
0
41
1
10
43.8595848774558
20
9.04643078027607
30
0
41
1
10
43.8158892411438
20
9.05031125039685
30
0
0
SPLINE
5
EC
100
AcDbEntity
8
1
62
256
6
ByLayer
370
18
48
1
60
0
100
AcDbSpline
70
4
71
3
72
49
73
45
40
0
40
0
40
0
40
0
40
0.0624999999999929
40
0.0624999999999929
40
0.124999999999986
40
0.124999999999986
40
0.156249999999982
40
0.156249999999982
40
0.187499999999978
40
0.187499999999978
40
0.249999999999971
40
0.249999999999971
40
0.28124999999996
40
0.28124999999996
40
0.312499999999949
40
0.312499999999949
40
0.374999999999945
40
0.374999999999945
40
0.406249999999933
40
0.406249999999933
40
0.437499999999921
40
0.437499999999921
40
0.499999999999897
40
0.562499999999874
40
0.562499999999874
40
0.593749999999862
40
0.593749999999862
40
0.62499999999985
40
0.62499999999985
40
0.68749999999985
40
0.68749999999985
40
0.749999999999851
40
0.749999999999851
40
0.781249999999864
40
0.781249999999864
40
0.812499999999876
40
0.812499999999876
40
0.874999999999902
40
0.874999999999902
40
0.906249999999926
40
0.906249999999926
40
0.937499999999951
40
0.937499999999951
40
1
40
1
40
1
40
1
41
1
10
49.3164935895928
20
1.04897105419758
30
0
41
1
10
49.3148439240208
20
1.08274797718593
30
0
41
1
10
49.3104330031983
20
1.11605320177466
30
0
41
1
10
49.296386012347
20
1.18173350780927
30
0
41
1
10
49.2867470367617
20
1.21410791638303
30
0
41
1
10
49.2682965680683
20
1.26190815444562
30
0
41
1
10
49.2614644729253
20
1.27772707482211
30
0
41
1
10
49.2467030635083
20
1.30856305556941
30
0
41
1
10
49.2387494075632
20
1.32364982990265
30
0
41
1
10
49.2132198415799
20
1.36793215973404
30
0
41
1
10
49.1939813053122
20
1.39615254429
30
0
41
1
10
49.1618710173458
20
1.43653178789887
30
0
41
1
10
49.1505809206817
20
1.44971079427006
30
0
41
1
10
49.1271337841281
20
1.47516721684914
30
0
41
1
10
49.1150018017999
20
1.48742571242264
30
0
41
1
10
49.0774400221133
20
1.52285393756813
30
0
41
1
10
49.0508491241515
20
1.54468124899341
30
0
41
1
10
49.0087777775972
20
1.57488255809707
30
0
41
1
10
48.9943885871906
20
1.58452511662705
30
0
41
1
10
48.9648885968983
20
1.60297132448997
30
0
41
1
10
48.9497982646808
20
1.61175774866331
30
0
41
1
10
48.9040218406368
20
1.6365841104496
30
0
41
1
10
48.841295013819
20
1.66583699545814
30
0
41
1
10
48.7754074022666
20
1.68793723904804
30
0
41
1
10
48.724820655261
20
1.70188984101753
30
0
41
1
10
48.7077711602796
20
1.70609635138115
30
0
41
1
10
48.6736618824371
20
1.71355534740468
30
0
41
1
10
48.6565550019347
20
1.716821532647
30
0
41
1
10
48.6050801369849
20
1.72526612340178
30
0
41
1
10
48.570558745695
20
1.72909723218055
30
0
41
1
10
48.501100006957
20
1.733190597955
30
0
41
1
10
48.4661628781281
20
1.73345431435985
30
0
41
1
10
48.4134190493952
20
1.7310219846706
30
0
41
1
10
48.3958794777466
20
1.72974055652804
30
0
41
1
10
48.3610774366158
20
1.72624694418286
30
0
41
1
10
48.3437849730437
20
1.72403350459445
30
0
41
1
10
48.2922419131203
20
1.71597322530152
30
0
41
1
10
48.2583234281247
20
1.70871646020186
30
0
41
1
10
48.2081825226772
20
1.69476507477745
30
0
41
1
10
48.1915922198275
20
1.68960127498013
30
0
41
1
10
48.1586779802924
20
1.67817300270454
30
0
41
1
10
48.142413482939
20
1.67192499291269
30
0
41
1
10
48.094701366754
20
1.65170049458482
30
0
41
1
10
48.0641439345113
20
1.63619175306496
30
0
41
1
10
48.0349761784423
20
1.6184358735679
30
0
0
SPLINE
5
ED
100
AcDbEntity
8
1
62
256
6
ByLayer
370
18
48
1
60
0
100
AcDbSpline
70
4
71
3
72
37
73
33
40
0
40
0
40
0
40
0
40
0.0625000000000084
40
0.0625000000000084
40
0.125000000000017
40
0.125000000000017
40
0.156250000000016
40
0.156250000000016
40
0.187500000000016
40
0.187500000000016
40
0.250000000000026
40
0.250000000000026
40
0.312500000000037
40
0.312500000000037
40
0.343750000000042
40
0.343750000000042
40
0.375000000000047
40
0.375000000000047
40
0.500000000000051
40
0.500000000000051
40
0.562500000000054
40
0.562500000000054
40
0.625000000000056
40
0.625000000000056
40
0.750000000000082
40
0.750000000000082
40
0.781250000000072
40
0.781250000000072
40
0.812500000000061
40
0.875000000000041
40
0.875000000000041
40
1
40
1
40
1
40
1
41
1
10
52.4961797569133
20
-0.400295131260464
30
0
41
1
10
52.5032859436813
20
-0.363063240047182
30
0
41
1
10
52.5127971836929
20
-0.326747107532952
30
0
41
1
10
52.5358845804281
20
-0.255663732156677
30
0
41
1
10
52.5494609522664
20
-0.220896575140557
30
0
41
1
10
52.5726029468356
20
-0.169804743605567
30
0
41
1
10
52.580784206357
20
-0.152952268315659
30
0
41
1
10
52.5980783930215
20
-0.119602521668867
30
0
41
1
10
52.607210457714
20
-0.103072985062511
30
0
41
1
10
52.6358877242139
20
-0.0542398626178624
30
0
41
1
10
52.6565174548614
20
-0.0229984268154055
30
0
41
1
10
52.7006281806305
20
0.0370049845468259
30
0
41
1
10
52.7241079151622
20
0.0657675360449161
30
0
41
1
10
52.7614146037431
20
0.107095572469177
30
0
41
1
10
52.7741989865196
20
0.120568171836226
30
0
41
1
10
52.8004683075548
20
0.146904753845689
30
0
41
1
10
52.8139909828799
20
0.159802050118969
30
0
41
1
10
52.8828512265737
20
0.222276692679799
30
0
41
1
10
52.9417263077402
20
0.265813985299104
30
0
41
1
10
53.0355502440298
20
0.322027932413818
30
0
41
1
10
53.0677663888392
20
0.339242179656537
30
0
41
1
10
53.1340866203702
20
0.370535635374864
30
0
41
1
10
53.1677057853263
20
0.384387724414466
30
0
41
1
10
53.2699506559914
20
0.420831771348759
30
0
41
1
10
53.3399556569703
20
0.438339954688843
30
0
41
1
10
53.4299393083494
20
0.452092495919999
30
0
41
1
10
53.4481018816793
20
0.454437936428519
30
0
41
1
10
53.4844595363257
20
0.458288875720115
30
0
41
1
10
53.5389966363674
20
0.4628066122186
30
0
41
1
10
53.5935603440018
20
0.463693269310539
30
0
41
1
10
53.7027817033822
20
0.460919110958088
30
0
41
1
10
53.7757225698447
20
0.453026327507246
30
0
41
1
10
53.8489229076939
20
0.439571295174346
30
0
0
SPLINE
5
EE
100
AcDbEntity
8
1
62
256
6
ByLayer
370
18
48
1
60
0
100
AcDbSpline
70
4
71
3
72
84
73
80
40
0
40
0
40
0
40
0
40
0.0312500000000082
40
0.0312500000000082
40
0.0625000000000164
40
0.0625000000000164
40
0.0781250000000206
40
0.0781250000000206
40
0.0937500000000247
40
0.0937500000000247
40
0.125000000000032
40
0.125000000000032
40
0.140625000000038
40
0.140625000000038
40
0.156250000000044
40
0.156250000000044
40
0.187500000000057
40
0.187500000000057
40
0.218750000000069
40
0.218750000000069
40
0.250000000000081
40
0.250000000000081
40
0.265625000000085
40
0.265625000000085
40
0.28125000000009
40
0.28125000000009
40
0.312500000000099
40
0.312500000000099
40
0.343750000000108
40
0.343750000000108
40
0.359375000000112
40
0.359375000000112
40
0.375000000000117
40
0.375000000000117
40
0.437500000000152
40
0.437500000000152
40
0.453125000000163
40
0.453125000000163
40
0.468750000000175
40
0.468750000000175
40
0.500000000000186
40
0.531250000000197
40
0.531250000000197
40
0.546875000000197
40
0.546875000000197
40
0.562500000000196
40
0.562500000000196
40
0.625000000000219
40
0.625000000000219
40
0.640625000000222
40
0.640625000000222
40
0.656250000000224
40
0.656250000000224
40
0.687500000000215
40
0.687500000000215
40
0.718750000000206
40
0.718750000000206
40
0.734375000000202
40
0.734375000000202
40
0.750000000000197
40
0.750000000000197
40
0.781250000000176
40
0.781250000000176
40
0.796875000000166
40
0.796875000000166
40
0.812500000000155
40
0.812500000000155
40
0.843750000000134
40
0.875000000000113
40
0.875000000000113
40
0.890625000000099
40
0.890625000000099
40
0.906250000000085
40
0.906250000000085
40
0.937500000000057
40
0.937500000000057
40
0.968750000000028
40
0.968750000000028
40
1
40
1
40
1
40
1
41
1
10
48.0349761784423
20
1.6184358735679
30
0
41
1
10
48.0089664936584
20
1.60256927197639
30
0
41
1
10
47.9845579107043
20
1.58521880506098
30
0
41
1
10
47.9389911099649
20
1.54750529271132
30
0
41
1
10
47.917831885257
20
1.52714325969944
30
0
41
1
10
47.8886899607378
20
1.49418289414061
30
0
41
1
10
47.879408732436
20
1.48277852234219
30
0
41
1
10
47.8620591379733
20
1.45955956739857
30
0
41
1
10
47.85394481874
20
1.44769620986204
30
0
41
1
10
47.8312540544655
20
1.41135220804193
30
0
41
1
10
47.8183229256833
20
1.38612114539831
30
0
41
1
10
47.8022293348691
20
1.34673933773115
30
0
41
1
10
47.7974004251968
20
1.33329830726365
30
0
41
1
10
47.7889595724555
20
1.30618779508273
30
0
41
1
10
47.7853501825345
20
1.29254776018942
30
0
41
1
10
47.7762771147303
20
1.25137551151363
30
0
41
1
10
47.7725607982286
20
1.22359232245964
30
0
41
1
10
47.7695866015534
20
1.1673375674545
30
0
41
1
10
47.770368714589
20
1.13871117155458
30
0
41
1
10
47.7761783654214
20
1.08226330029575
30
0
41
1
10
47.7811752449691
20
1.05428156507756
30
0
41
1
10
47.7916156481612
20
1.01261866529279
30
0
41
1
10
47.7955885571474
20
0.99878292536701
30
0
41
1
10
47.8045090788501
20
0.97120922882587
30
0
41
1
10
47.8094728790469
20
0.957435713358535
30
0
41
1
10
47.8256328729709
20
0.916720471731765
30
0
41
1
10
47.8381183162609
20
0.890265346530782
30
0
41
1
10
47.8662933044345
20
0.838617769441527
30
0
41
1
10
47.8819839635721
20
0.81342583038915
30
0
41
1
10
47.9078915259123
20
0.776558738836002
30
0
41
1
10
47.9169521584763
20
0.764389545334922
30
0
41
1
10
47.9356907143582
20
0.740589959889775
30
0
41
1
10
47.9453730145701
20
0.728948445356139
30
0
41
1
10
47.9953053573911
20
0.671993796399306
30
0
41
1
10
48.040048446946
20
0.630378133529632
30
0
41
1
10
48.1020019273934
20
0.583327231290923
30
0
41
1
10
48.1146920137932
20
0.574177730390915
30
0
41
1
10
48.1403780517133
20
0.556604451915405
30
0
41
1
10
48.1534111079135
20
0.548151736983527
30
0
41
1
10
48.1930731473934
20
0.523783712313815
30
0
41
1
10
48.2474529232839
20
0.493926267665472
30
0
41
1
10
48.3048474371776
20
0.469386468066318
30
0
41
1
10
48.3490807374968
20
0.453083357461907
30
0
41
1
10
48.3640288513785
20
0.448002232701185
30
0
41
1
10
48.3939380303366
20
0.43868398911934
30
0
41
1
10
48.4089471965652
20
0.434428150567442
30
0
41
1
10
48.4842669602594
20
0.415152957938375
30
0
41
1
10
48.545386841066
20
0.406058975982688
30
0
41
1
10
48.6230039894934
20
0.403245264552453
30
0
41
1
10
48.6386151924674
20
0.403119568068831
30
0
41
1
10
48.6695332796737
20
0.403754696659291
30
0
41
1
10
48.6848913793721
20
0.404511999519343
30
0
41
1
10
48.7306687703907
20
0.408094645095275
30
0
41
1
10
48.7607922744586
20
0.412225972114271
30
0
41
1
10
48.8202542479148
20
0.424041942795157
30
0
41
1
10
48.8495929614569
20
0.431725412481342
30
0
41
1
10
48.8929866811911
20
0.446089967334188
30
0
41
1
10
48.9073320299375
20
0.45135228225675
30
0
41
1
10
48.9353836238684
20
0.462679242126313
30
0
41
1
10
48.9491446498824
20
0.468761049260564
30
0
41
1
10
48.9896413895105
20
0.488253871901918
30
0
41
1
10
49.0155942798752
20
0.502907129945669
30
0
41
1
10
49.0529262218374
20
0.527434140119112
30
0
41
1
10
49.0651031169073
20
0.536035580116817
30
0
41
1
10
49.0889064291953
20
0.554116647285468
30
0
41
1
10
49.1005649470489
20
0.563624666489915
30
0
41
1
10
49.1344570030868
20
0.593330723058926
30
0
41
1
10
49.176257435488
20
0.635599545191809
30
0
41
1
10
49.2113770465936
20
0.683089820803758
30
0
41
1
10
49.2351024355677
20
0.720732282353481
30
0
41
1
10
49.2425735903373
20
0.733618356359784
30
0
41
1
10
49.2566019655777
20
0.760093813497889
30
0
41
1
10
49.2630916326827
20
0.77356041558528
30
0
41
1
10
49.2809019047325
20
0.814410408294123
30
0
41
1
10
49.2906212008756
20
0.84233552208778
30
0
41
1
10
49.3057364199182
20
0.899537364897753
30
0
41
1
10
49.3111356076273
20
0.928837387968571
30
0
41
1
10
49.3173383858508
20
0.988733614757251
30
0
41
1
10
49.3180897689747
20
1.01880202645461
30
0
41
1
10
49.3164935895928
20
1.04897105419758
30
0
0
SPLINE
5
EF
100
AcDbEntity
8
1
62
256
6
ByLayer
370
18
48
1
60
0
100
AcDbSpline
70
4
71
5
72
26
73
20
40
0
40
0
40
0
40
0
40
0
40
0
40
0.0684263803429111
40
0.147987417830892
40
0.201028109489545
40
0.280589146977526
40
0.333629838636179
40
0.41319087612416
40
0.466231567782813
40
0.545792605270794
40
0.625353642758774
40
0.678394334417428
40
0.757955371905408
40
0.810996063564062
40
0.890557101052042
40
0.943597792710696
40
1
40
1
40
1
40
1
40
1
40
1
41
1
10
35.4985611796126
20
5.41084718709971
30
0
41
1
10
35.6701254797819
20
5.39153869476363
30
0
41
1
10
36.0411718166885
20
5.34688293256642
30
0
41
1
10
36.5452061780868
20
5.27776209298855
30
0
41
1
10
37.2487225762223
20
5.1654814475738
30
0
41
1
10
38.0852269988495
20
5.00641824393577
30
0
41
1
10
38.9496491580447
20
4.81789825575976
30
0
41
1
10
39.7475773049941
20
4.62234407660466
30
0
41
1
10
40.6119994641893
20
4.38821297399497
30
0
41
1
10
41.4764216233845
20
4.13281677844546
30
0
41
1
10
42.3408437825797
20
3.85542090396717
30
0
41
1
10
43.2052659417749
20
3.55939063257938
30
0
41
1
10
44.0696881009701
20
3.24448626748455
30
0
41
1
10
44.9341102601654
20
2.91398385568993
30
0
41
1
10
45.7320384071148
20
2.59582992679225
30
0
41
1
10
46.5383948250584
20
2.26269552389536
30
0
41
1
10
47.1452692062646
20
2.00498524090691
30
0
41
1
10
47.6191555629793
20
1.80012168949571
30
0
41
1
10
47.8935598829566
20
1.68040497263797
30
0
41
1
10
48.0349761784423
20
1.61843587356788
30
0
0
SPLINE
5
F0
100
AcDbEntity
8
1
62
256
6
ByLayer
370
18
48
1
60
0
100
AcDbSpline
70
4
71
3
72
91
73
87
40
0
40
0
40
0
40
0
40
0.0408505077537726
40
0.0408505077537726
40
0.0817010155075453
40
0.0817010155075453
40
0.122551523261318
40
0.122551523261318
40
0.163402031015091
40
0.163402031015091
40
0.183827284891977
40
0.183827284891977
40
0.19403991183042
40
0.19403991183042
40
0.204252538768862
40
0.204252538768862
40
0.245103046522633
40
0.245103046522633
40
0.285953554276404
40
0.285953554276404
40
0.326804062030175
40
0.326804062030175
40
0.367654569783946
40
0.367654569783946
40
0.388079823660832
40
0.388079823660832
40
0.408505077537718
40
0.408505077537718
40
0.413611391006939
40
0.413611391006939
40
0.41871770447616
40
0.428930331414601
40
0.428930331414601
40
0.449355585291484
40
0.449355585291484
40
0.490206093045249
40
0.490206093045249
40
0.510631346922131
40
0.510631346922131
40
0.531056600799014
40
0.531056600799014
40
0.551481854675896
40
0.551481854675896
40
0.571907108552778
40
0.571907108552778
40
0.612757616306542
40
0.612757616306542
40
0.622970243244983
40
0.622970243244983
40
0.633182870183424
40
0.633182870183424
40
0.653608124060306
40
0.653608124060306
40
0.674033377937189
40
0.674033377937189
40
0.694458631814071
40
0.694458631814071
40
0.735309139567836
40
0.735309139567836
40
0.755734393444719
40
0.755734393444719
40
0.776159647321602
40
0.776159647321602
40
0.796584901198484
40
0.796584901198484
40
0.817010155075367
40
0.817010155075367
40
0.83743540895225
40
0.83743540895225
40
0.842541722421471
40
0.842541722421471
40
0.847648035890692
40
0.847648035890692
40
0.857860662829133
40
0.857860662829133
40
0.878285916706015
40
0.878285916706015
40
0.898711170582897
40
0.898711170582897
40
0.939561678336661
40
0.939561678336661
40
0.959986932213542
40
0.959986932213542
40
0.980412186090423
40
0.980412186090423
40
1
40
1
40
1
40
1
41
1
10
57.2281522324458
20
-8.31651955505683
30
0
41
1
10
56.7945236627943
20
-8.18367371559452
30
0
41
1
10
56.3626689888843
20
-8.03567092774793
30
0
41
1
10
55.5007266190413
20
-7.71109673472776
30
0
41
1
10
55.0706576690095
20
-7.53447982896324
30
0
41
1
10
54.2107143921113
20
-7.15359530188187
30
0
41
1
10
53.7807939606961
20
-6.94951015914728
30
0
41
1
10
52.91935118042
20
-6.51536087932305
30
0
41
1
10
52.4878623341264
20
-6.2851010543522
30
0
41
1
10
51.8380691721106
20
-5.92135589129347
30
0
41
1
10
51.621044800524
20
-5.79705616355642
30
0
41
1
10
51.2947068121149
20
-5.60608818169382
30
0
41
1
10
51.1857488902178
20
-5.54165218893544
30
0
41
1
10
50.9677306476232
20
-5.41139858265583
30
0
41
1
10
50.858868517642
20
-5.34570020949297
30
0
41
1
10
50.3152155038496
20
-5.01445764811237
30
0
41
1
10
49.8823698415221
20
-4.7407248028843
30
0
41
1
10
49.0191591560173
20
-4.17786884783825
30
0
41
1
10
48.5888579096651
20
-3.88857664298473
30
0
41
1
10
47.7287463436091
20
-3.29744721735338
30
0
41
1
10
47.298949981057
20
-2.99560057070261
30
0
41
1
10
46.4383388364333
20
-2.38109237802536
30
0
41
1
10
46.0075256400557
20
-2.06843386209138
30
0
41
1
10
45.3593040944121
20
-1.59262573821405
30
0
41
1
10
45.1429022060797
20
-1.43285350726046
30
0
41
1
10
44.7091421641914
20
-1.11152088791803
30
0
41
1
10
44.4917806358378
20
-0.949983894384076
30
0
41
1
10
44.2193510780425
20
-0.747095101556994
30
0
41
1
10
44.1648212305508
20
-0.706463058503346
30
0
41
1
10
44.0558789373646
20
-0.625248240474434
30
0
41
1
10
43.8925709712302
20
-0.503447375772367
30
0
41
1
10
43.7295695812667
20
-0.381726103945425
30
0
41
1
10
43.4039482199142
20
-0.138433222052612
30
0
41
1
10
43.1873921749297
20
0.0235740150767469
30
0
41
1
10
42.5387448520393
20
0.508426171993449
30
0
41
1
10
42.1076651750369
20
0.830111183827597
30
0
41
1
10
41.4621797529792
20
1.30888315123227
30
0
41
1
10
41.2472113667398
20
1.46784517810173
30
0
41
1
10
40.8172893641697
20
1.78413819455707
30
0
41
1
10
40.6023465311012
20
1.94147805387181
30
0
41
1
10
40.172342400104
20
2.25429665662517
30
0
41
1
10
39.9572809128735
20
2.40977543470734
30
0
41
1
10
39.5268636668975
20
2.71858959177942
30
0
41
1
10
39.3115094229334
20
2.87192115615949
30
0
41
1
10
38.6645179126448
20
3.32822368146125
30
0
41
1
10
38.232034794933
20
3.62755193731431
30
0
41
1
10
37.6890184357187
20
3.99405462100455
30
0
41
1
10
37.5802932096452
20
4.06697000038093
30
0
41
1
10
37.3625583378622
20
4.2119962999684
30
0
41
1
10
37.2534709605096
20
4.28415810936397
30
0
41
1
10
36.9267933862524
20
4.49869646381509
30
0
41
1
10
36.7095387448009
20
4.63929518819143
30
0
41
1
10
36.2759534174433
20
4.91537458793354
30
0
41
1
10
36.059618464607
20
5.05085835832324
30
0
41
1
10
35.6276812260698
20
5.31645251593702
30
0
41
1
10
35.4120538638738
20
5.4465853184474
30
0
41
1
10
34.7657000364717
20
5.82894174136371
30
0
41
1
10
34.3356557974775
20
6.07296468093148
30
0
41
1
10
33.6908006890027
20
6.42103115619634
30
0
41
1
10
33.4758537019316
20
6.53410509747278
30
0
41
1
10
33.0457064207379
20
6.7542859948249
30
0
41
1
10
32.8305294851803
20
6.86134551411118
30
0
41
1
10
32.3997866111251
20
7.06909286321087
30
0
41
1
10
32.1842206634956
20
7.16977824427431
30
0
41
1
10
31.7524758689189
20
7.36451720424259
30
0
41
1
10
31.5362774995639
20
7.45863734014372
30
0
41
1
10
31.1030035134954
20
7.64021334151971
30
0
41
1
10
30.8859422041976
20
7.72760995777418
30
0
41
1
10
30.6139465214127
20
7.83242151923068
30
0
41
1
10
30.5595138317366
20
7.85316240861883
30
0
41
1
10
30.4505776611895
20
7.89419674939879
30
0
41
1
10
30.3960495145403
20
7.91449919298623
30
0
41
1
10
30.2325867386653
20
7.97464287830257
30
0
41
1
10
30.1237607046814
20
8.01372528763596
30
0
41
1
10
29.7976789602387
20
8.12794027414478
30
0
41
1
10
29.580816959102
20
8.20004476513242
30
0
41
1
10
29.1478730316861
20
8.33625438320306
30
0
41
1
10
28.9317869931044
20
8.40037553006187
30
0
41
1
10
28.2844834749447
20
8.58039371608515
30
0
41
1
10
27.8541597854909
20
8.68407335728068
30
0
41
1
10
27.209055732627
20
8.81526296708458
30
0
41
1
10
26.9940945782667
20
8.85491539730887
30
0
41
1
10
26.5641655954385
20
8.92575482170923
30
0
41
1
10
26.3491862744682
20
8.95697709955431
30
0
41
1
10
25.9277550122042
20
9.01004278973437
30
0
41
1
10
25.7213142565459
20
9.0322411381708
30
0
41
1
10
25.5146534365974
20
9.05056066316362
30
0
0
SPLINE
5
F1
100
AcDbEntity
8
1
62
256
6
ByLayer
370
18
48
1
60
0
100
AcDbSpline
70
4
71
3
72
20
73
16
40
0
40
0
40
0
40
0
40
0.125
40
0.125
40
0.249999999999999
40
0.249999999999999
40
0.499999999999999
40
0.499999999999999
40
0.624999999999999
40
0.624999999999999
40
0.749999999999999
40
0.749999999999999
40
0.874999999999999
40
0.874999999999999
40
1
40
1
40
1
40
1
41
1
10
56.8132761115773
20
-5.13744635177116
30
0
41
1
10
56.8328228512569
20
-5.26792048868867
30
0
41
1
10
56.8522135410759
20
-5.39860198410847
30
0
41
1
10
56.8904819455689
20
-5.66044035792908
30
0
41
1
10
56.9093477064005
20
-5.79160267203227
30
0
41
1
10
56.9649098099341
20
-6.18602717516839
30
0
41
1
10
57.0006720568764
20
-6.45013537404654
30
0
41
1
10
57.0526404296226
20
-6.84781471652408
30
0
41
1
10
57.0696825964089
20
-6.98063944646526
30
0
41
1
10
57.1031900301678
20
-7.24676608675222
30
0
41
1
10
57.1196476994475
20
-7.38000071416445
30
0
41
1
10
57.1519080122506
20
-7.64684899814915
30
0
41
1
10
57.1677131579247
20
-7.78046120685786
30
0
41
1
10
57.1985638146204
20
-8.04812518513518
30
0
41
1
10
57.2136130314733
20
-8.18217481033284
30
0
41
1
10
57.2281522324459
20
-8.31651955505683
30
0
0
SPLINE
5
F2
100
AcDbEntity
8
1
62
256
6
ByLayer
370
18
48
1
60
0
100
AcDbSpline
70
4
71
3
72
19
73
15
40
0
40
0
40
0
40
0
40
0.250000000000007
40
0.250000000000007
40
0.500000000000015
40
0.500000000000015
40
0.562500000000019
40
0.562500000000019
40
0.593750000000019
40
0.593750000000019
40
0.625000000000018
40
0.750000000000012
40
0.750000000000012
40
1
40
1
40
1
40
1
41
1
10
52.6767890648759
20
-1.06001670663
30
0
41
1
10
52.9858562705708
20
-1.45097686094158
30
0
41
1
10
53.3049544569772
20
-1.83004737717658
30
0
41
1
10
53.9632249880925
20
-2.5643946766335
30
0
41
1
10
54.3024232294634
20
-2.91964076475716
30
0
41
1
10
54.7389673740864
20
-3.34882729892567
30
0
41
1
10
54.826904221651
20
-3.43392022048431
30
0
41
1
10
54.9597534963403
20
-3.56044068350568
30
0
41
1
10
55.0042179171462
20
-3.60244981169711
30
0
41
1
10
55.0932183294354
20
-3.68586805786077
30
0
41
1
10
55.3160204599635
20
-3.89303132335019
30
0
41
1
10
55.5403092029629
20
-4.09336954745456
30
0
41
1
10
56.0813270921809
20
-4.56167123530105
30
0
41
1
10
56.445640199452
20
-4.85718629602266
30
0
41
1
10
56.8132761115772
20
-5.13744635177076
30
0
0
SPLINE
5
F3
100
AcDbEntity
8
1
62
256
6
ByLayer
370
18
48
1
60
0
100
AcDbSpline
70
4
71
3
72
20
73
16
40
0
40
0
40
0
40
0
40
0.250000000000007
40
0.250000000000007
40
0.375000000000025
40
0.375000000000025
40
0.437500000000022
40
0.437500000000022
40
0.50000000000002
40
0.50000000000002
40
0.75000000000001
40
0.75000000000001
40
0.875000000000005
40
0.875000000000005
40
1
40
1
40
1
40
1
41
1
10
52.676789064876
20
-1.06001670663002
30
0
41
1
10
52.6400432533016
20
-1.01353442737585
30
0
41
1
10
52.6073768911866
20
-0.964668251401434
30
0
41
1
10
52.5656359731375
20
-0.887129645149514
30
0
41
1
10
52.5529378800582
20
-0.860573526863533
30
0
41
1
10
52.5359315464755
20
-0.819547879444173
30
0
41
1
10
52.5305986900584
20
-0.805652056334964
30
0
41
1
10
52.520774426592
20
-0.777791196221386
30
0
41
1
10
52.5162652561335
20
-0.763786759141198
30
0
41
1
10
52.495757614288
20
-0.693389532558825
30
0
41
1
10
52.4858325238839
20
-0.635879477256566
30
0
41
1
10
52.4815664326492
20
-0.547644066735899
30
0
41
1
10
52.4819503905517
20
-0.517790702770697
30
0
41
1
10
52.4863689255524
20
-0.458762817159823
30
0
41
1
10
52.4903824272348
20
-0.429437049248037
30
0
41
1
10
52.4961797569113
20
-0.400295131259526
30
0
0
SPLINE
5
F4
100
AcDbEntity
8
1
62
256
6
ByLayer
370
18
48
1
60
0
100
AcDbSpline
70
4
71
5
72
16
73
10
40
0
40
0
40
0
40
0
40
0
40
0
40
0.0019566329716112
40
0.211077938492873
40
0.524759896774765
40
0.733881202296027
40
1
40
1
40
1
40
1
40
1
40
1
41
1
10
49.3164935895929
20
1.04897105419758
30
0
41
1
10
49.3177378853517
20
1.04841147779797
30
0
41
1
10
49.4519702056022
20
0.988043939465399
30
0
41
1
10
49.78568456259
20
0.83756964983175
30
0
41
1
10
50.2523869440693
20
0.625889106412757
30
0
41
1
10
50.8883241775333
20
0.335712130768229
30
0
41
1
10
51.5230171152385
20
0.0449442261144384
30
0
41
1
10
52.024722028452
20
-0.184812190260942
30
0
41
1
10
52.3269449049282
20
-0.323007006366481
30
0
41
1
10
52.4961797569128
20
-0.400295131260236
30
0
0
SPLINE
5
F5
100
AcDbEntity
8
1
62
256
6
ByLayer
370
18
48
1
60
0
100
AcDbSpline
70
4
71
5
72
48
73
42
40
0
40
0
40
0
40
0
40
0
40
0
40
0.0175710371790145
40
0.0395750612407345
40
0.0725810973333144
40
0.0945851213950343
40
0.127591157487614
40
0.149595181549334
40
0.182601217641914
40
0.215607253734494
40
0.237611277796214
40
0.270617313888794
40
0.292621337950514
40
0.325627374043094
40
0.347631398104814
40
0.380637434197393
40
0.413643470289973
40
0.435647494351693
40
0.468653530444273
40
0.490657554505993
40
0.523663590598573
40
0.545667614660293
40
0.578673650752873
40
0.611679686845453
40
0.633683710907173
40
0.655687734968893
40
0.688693771061472
40
0.721699807154052
40
0.743703831215772
40
0.776709867308352
40
0.798713891370072
40
0.831719927462652
40
0.853723951524372
40
0.886729987616952
40
0.919736023709532
40
0.941740047771252
40
0.974746083863832
40
0.996750107925552
40
1
40
1
40
1
40
1
40
1
40
1
41
1
10
15.5447293582721
20
5.40545263833516
30
0
41
1
10
15.6509252757165
20
5.39331714681819
30
0
41
1
10
15.8901092176526
20
5.36482980158996
30
0
41
1
10
16.328775196326
20
5.30783177261526
30
0
41
1
10
16.900429199491
20
5.2223009482492
30
0
41
1
10
17.6715652393933
20
5.08753601309286
30
0
41
1
10
18.4694933863428
20
4.92535881342988
30
0
41
1
10
19.333915545538
20
4.72591312856852
30
0
41
1
10
20.1983377047332
20
4.50357890876629
30
0
41
1
10
21.0627598639284
20
4.25727903534329
30
0
41
1
10
21.9271820231236
20
3.99040246493678
30
0
41
1
10
22.7916041823188
20
3.70235742177735
30
0
41
1
10
23.656026341514
20
3.39649545556674
30
0
41
1
10
24.4539544884635
20
3.09893969317221
30
0
41
1
10
25.3183766476586
20
2.76169463050709
30
0
41
1
10
26.1827988068539
20
2.4110195318099
30
0
41
1
10
27.0472209660491
20
2.04748259152709
30
0
41
1
10
27.9116431252443
20
1.67404955829488
30
0
41
1
10
28.7760652844395
20
1.29177169978331
30
0
41
1
10
29.6404874436347
20
0.903347120477491
30
0
41
1
10
30.4384155905841
20
0.540682811153317
30
0
41
1
10
31.3028377497793
20
0.145281311972866
30
0
41
1
10
32.1672599089746
20
-0.250920121031697
30
0
41
1
10
33.0316820681698
20
-0.645842163545126
30
0
41
1
10
33.8296102151192
20
-1.00750415950705
30
0
41
1
10
34.6940323743145
20
-1.39424320508314
30
0
41
1
10
35.5584545335096
20
-1.77424638084256
30
0
41
1
10
36.356382680459
20
-2.1172767689001
30
0
41
1
10
37.2208048396542
20
-2.47865959371069
30
0
41
1
10
38.0852269988494
20
-2.82682143302307
30
0
41
1
10
38.9496491580447
20
-3.16123919336431
30
0
41
1
10
39.7475773049941
20
-3.45590657453022
30
0
41
1
10
40.6119994641893
20
-3.75835318602805
30
0
41
1
10
41.4764216233845
20
-4.04271141597499
30
0
41
1
10
42.3408437825797
20
-4.30562266146185
30
0
41
1
10
43.2052659417749
20
-4.54772355082955
30
0
41
1
10
44.0696881009701
20
-4.76562477665379
30
0
41
1
10
44.7542699364883
20
-4.91991460458382
30
0
41
1
10
45.2393697352691
20
-5.01945073143497
30
0
41
1
10
45.5914815095583
20
-5.08641803270822
30
0
41
1
10
45.7441112471101
20
-5.11444476822197
30
0
41
1
10
45.7637529601704
20
-5.11803488477381
30
0
0
SPLINE
5
F6
100
AcDbEntity
8
1
62
256
6
ByLayer
370
18
48
1
60
0
100
AcDbSpline
70
4
71
5
72
15
73
9
40
0
40
0
40
0
40
0
40
0
40
0
40
0.23837946396054
40
0.654334828631898
40
0.931638405079469
40
1
40
1
40
1
40
1
40
1
40
1
41
1
10
16.719999908245
20
9.24196909206935
30
0
41
1
10
16.605678937713
20
9.22035759693409
30
0
41
1
10
16.2918759304437
20
9.15824721605628
30
0
41
1
10
15.8450848986828
20
9.05895978818467
30
0
41
1
10
15.3655093151464
20
8.93599241322241
30
0
41
1
10
14.88593373161
20
8.7957948775759
30
0
41
1
10
14.5206791186056
20
8.67923098801009
30
0
41
1
10
14.3549065423386
20
8.62433301824214
30
0
41
1
10
14.3221219905631
20
8.61339808330928
30
0
0
SPLINE
5
F7
100
AcDbEntity
8
1
62
256
6
ByLayer
370
18
48
1
60
0
100
AcDbSpline
70
4
71
3
72
10
73
6
40
0
40
0
40
0
40
0
40
0.188435115466472
40
0.188435115466472
40
1
40
1
40
1
40
1
41
1
10
11.760288661433
20
7.57572367170596
30
0
41
1
10
11.9212017817485
20
7.65193177958045
30
0
41
1
10
12.082114902064
20
7.72616058661046
30
0
41
1
10
12.9360593482316
20
8.1092436203071
30
0
41
1
10
13.6290906740836
20
8.38224486003062
30
0
41
1
10
14.3221219999356
20
8.61339800802088
30
0
0
SPLINE
5
F8
100
AcDbEntity
8
1
62
256
6
ByLayer
370
18
48
1
60
0
100
AcDbSpline
70
4
71
5
72
46
73
40
40
0
40
0
40
0
40
0
40
0
40
0
40
0.0244763521375252
40
0.0469896494914268
40
0.0807595955222794
40
0.103272892876181
40
0.137042838907034
40
0.159556136260935
40
0.193326082291788
40
0.22709602832264
40
0.249609325676542
40
0.283379271707395
40
0.305892569061296
40
0.339662515092149
40
0.36217581244605
40
0.395945758476903
40
0.429715704507755
40
0.452229001861657
40
0.48599894789251
40
0.508512245246411
40
0.542282191277264
40
0.564795488631166
40
0.598565434662018
40
0.632335380692871
40
0.654848678046772
40
0.677361975400674
40
0.711131921431527
40
0.744901867462379
40
0.767415164816281
40
0.801185110847133
40
0.823698408201035
40
0.857468354231888
40
0.879981651585789
40
0.913751597616642
40
0.947521543647494
40
0.970034841001396
40
1
40
1
40
1
40
1
40
1
40
1
41
1
10
15.3527891380667
20
5.55592780152256
30
0
41
1
10
15.4973730995523
20
5.54952465391719
30
0
41
1
10
15.7749450855294
20
5.53535668622223
30
0
41
1
10
16.2519991082439
20
5.50483126893317
30
0
41
1
10
16.86204115545
20
5.45228959175631
30
0
41
1
10
17.6715652393933
20
5.35992301283835
30
0
41
1
10
18.4694933863428
20
5.24494634957634
30
0
41
1
10
19.333915545538
20
5.09507782450998
30
0
41
1
10
20.1983377047332
20
4.92054894679217
30
0
41
1
10
21.0627598639284
20
4.71984487469089
30
0
41
1
10
21.9271820231236
20
4.49632838719239
30
0
41
1
10
22.7916041823188
20
4.24894901265301
30
0
41
1
10
23.656026341514
20
3.98110176552643
30
0
41
1
10
24.4539544884635
20
3.71603726202261
30
0
41
1
10
25.3183766476586
20
3.41100081186374
30
0
41
1
10
26.1827988068539
20
3.08940435506179
30
0
41
1
10
27.0472209660491
20
2.75134460935453
30
0
41
1
10
27.9116431252443
20
2.39998679603531
30
0
41
1
10
28.7760652844395
20
2.03592351520515
30
0
41
1
10
29.6404874436347
20
1.66211359281496
30
0
41
1
10
30.4384155905841
20
1.3095582112787
30
0
41
1
10
31.3028377497793
20
0.921390472867415
30
0
41
1
10
32.1672599089746
20
0.52867384301527
30
0
41
1
10
33.0316820681698
20
0.133093758462195
30
0
41
1
10
33.8296102151192
20
-0.232650887735701
30
0
41
1
10
34.6940323743145
20
-0.627553850816582
30
0
41
1
10
35.5584545335096
20
-1.01942497481326
30
0
41
1
10
36.356382680459
20
-1.37678346768823
30
0
41
1
10
37.2208048396542
20
-1.75726743045561
30
0
41
1
10
38.0852269988494
20
-2.12836126745262
30
0
41
1
10
38.9496491580447
20
-2.48908000700473
30
0
41
1
10
39.7475773049941
20
-2.81102972809822
30
0
41
1
10
40.6119994641893
20
-3.14614065981982
30
0
41
1
10
41.4764216233845
20
-3.46612996578514
30
0
41
1
10
42.3408437825797
20
-3.76774152734157
30
0
41
1
10
43.1827907306552
20
-4.04377397080594
30
0
41
1
10
43.8917496542391
20
-4.25906194507826
30
0
41
1
10
44.4012265410857
20
-4.40435882192
30
0
41
1
10
44.7112213911949
20
-4.48916313398638
30
0
41
1
10
44.8882282168125
20
-4.53639099560399
30
0
0
SPLINE
5
F9
100
AcDbEntity
8
1
62
256
6
ByLayer
370
18
48
1
60
0
100
AcDbSpline
70
4
71
3
72
92
73
88
40
0
40
0
40
0
40
0
40
0.0042699049829655
40
0.0084735493707468
40
0.0126109274269678
40
0.0166820339570942
40
0.0206868642879056
40
0.0246254142470934
40
0.0284976801432601
40
0.0323036587461761
40
0.0360433472673263
40
0.0397167433407719
40
0.0433238450043806
40
0.0468646506813681
40
0.0503391591622419
40
0.0537473695870203
40
0.0570892814279641
40
0.0603648944726106
40
0.0635742088072315
40
0.0667172248007734
40
0.0697939430891425
40
0.0728043645600827
40
0.0757484903383446
40
0.0786263217715381
40
0.0814378604164128
40
0.0841831080256727
40
0.0868620665353923
40
0.0894747380530862
40
0.0920211248463386
40
0.0945012293322339
40
0.0969150540674772
40
0.0992626017393442
40
0.101543875157597
40
0.103758877247319
40
0.10590761104293
40
0.107990079683481
40
0.110006286409299
40
0.111956234560438
40
0.11383992757693
40
0.115657369001445
40
0.117408562484553
40
0.119093511793376
40
0.120712220824126
40
0.122264693619645
40
0.123750934393036
40
0.125170947559071
40
0.126524737775543
40
0.127812309997419
40
0.140609923427916
40
0.153169969115135
40
0.165492960058934
40
0.177579458123551
40
0.189430075959234
40
0.201045479178087
40
0.21242638881413
40
0.223573584100568
40
0.234487905600533
40
0.245170258731244
40
0.255621617725966
40
0.307171785407686
40
0.358365321322497
40
0.409336997334217
40
0.4602251247129
40
0.511170601969503
40
0.527970449940197
40
0.545152066530626
40
0.562719903669789
40
0.580678105972845
40
0.599030536155795
40
0.617780798431438
40
0.636932260019214
40
0.656488070901462
40
0.67645118195551
40
0.696824361586185
40
0.717610210977667
40
0.738811178076383
40
0.760429570409594
40
0.782467566837413
40
0.804927228328307
40
0.827810507841587
40
0.851119259393384
40
0.874855246376813
40
0.899020149200546
40
0.923615572305059
40
0.948643050610469
40
0.974104055445105
40
1
40
1
40
1
40
1
41
1
10
13.4222360016275
20
-0.026738317216541
30
0
41
1
10
13.4214362619061
20
-0.0161296950516885
30
0
41
1
10
13.4198491928635
20
0.0049229241583646
30
0
41
1
10
13.4174940394295
20
0.0362791198195964
30
0
41
1
10
13.4151792440234
20
0.0671563212019066
30
0
41
1
10
13.41290399496
20
0.0975541539125686
30
0
41
1
10
13.4106668530426
20
0.127470083587241
30
0
41
1
10
13.4084666684222
20
0.156902320161066
30
0
41
1
10
13.4063023360631
20
0.18584905176138
30
0
41
1
10
13.4041728550068
20
0.214308638591063
30
0
41
1
10
13.4020773082729
20
0.242279555915985
30
0
41
1
10
13.4000148635604
20
0.269760402692839
30
0
41
1
10
13.397984768578
20
0.296749893130908
30
0
41
1
10
13.3959863478422
20
0.323246852793091
30
0
41
1
10
13.3940189991582
20
0.349250213598339
30
0
41
1
10
13.3920821902542
20
0.374759009200204
30
0
41
1
10
13.3901754554436
20
0.399772370359329
30
0
41
1
10
13.388298392353
20
0.424289520411918
30
0
41
1
10
13.386450658706
20
0.448309770810511
30
0
41
1
10
13.3846319691666
20
0.471832516744684
30
0
41
1
10
13.3828420922439
20
0.494857232842549
30
0
41
1
10
13.3810808472551
20
0.517383468953767
30
0
41
1
10
13.3793481013544
20
0.539410846016466
30
0
41
1
10
13.3776437666211
20
0.56093905200845
30
0
41
1
10
13.3759677972122
20
0.581967837984138
30
0
41
1
10
13.3743201865797
20
0.602497014198377
30
0
41
1
10
13.3727009647514
20
0.622526446317579
30
0
41
1
10
13.3711101956761
20
0.642056051719379
30
0
41
1
10
13.3695479746362
20
0.661085795881661
30
0
41
1
10
13.3680144257237
20
0.679615688860878
30
0
41
1
10
13.3665096993849
20
0.697645781861013
30
0
41
1
10
13.3650339700299
20
0.71517616389346
30
0
41
1
10
13.3635874337101
20
0.732206958527684
30
0
41
1
10
13.3621703058625
20
0.748738320734134
30
0
41
1
10
13.3607828191234
20
0.764770433818654
30
0
41
1
10
13.3594252212068
20
0.780303506449116
30
0
41
1
10
13.3580977728603
20
0.795337769775415
30
0
41
1
10
13.3568007458651
20
0.809873474639488
30
0
41
1
10
13.35553442119
20
0.823910888886587
30
0
41
1
10
13.3542990869254
20
0.837450294741927
30
0
41
1
10
13.353095037315
20
0.850491986378074
30
0
41
1
10
13.3519225682448
20
0.863036267233269
30
0
41
1
10
13.3507819855463
20
0.875083448631699
30
0
41
1
10
13.3496735686096
20
0.886633844254106
30
0
41
1
10
13.3485976910403
20
0.897687779585368
30
0
41
1
10
13.3475543925808
20
0.90824554942688
30
0
41
1
10
13.3465448644686
20
0.91830755690475
30
0
41
1
10
13.3426335685413
20
0.956543117185447
30
0
41
1
10
13.3355425631665
20
1.02243059223653
30
0
41
1
10
13.324702485338
20
1.11531359372796
30
0
41
1
10
13.313202366526
20
1.20612559816001
30
0
41
1
10
13.3010463153488
20
1.29485655208566
30
0
41
1
10
13.2882318095164
20
1.38150071169244
30
0
41
1
10
13.2747618697203
20
1.46605667596919
30
0
41
1
10
13.2606416177848
20
1.54852690367613
30
0
41
1
10
13.2458785759719
20
1.6289174610832
30
0
41
1
10
13.230483207632
20
1.70723741413408
30
0
41
1
10
13.2144650519381
20
1.78349944001948
30
0
41
1
10
13.1759400789771
20
1.95554007861347
30
0
41
1
10
13.1050801948764
20
2.21917089056856
30
0
41
1
10
12.984469632707
20
2.56620294118645
30
0
41
1
10
12.8410192728948
20
2.90068977700304
30
0
41
1
10
12.6758341383062
20
3.22379469143519
30
0
41
1
10
12.5318927484148
20
3.46671056927235
30
0
41
1
10
12.4220494697674
20
3.63706196469701
30
0
41
1
10
12.3534071623181
20
3.73943953115622
30
0
41
1
10
12.2813606865705
20
3.84311379170273
30
0
41
1
10
12.2059289085459
20
3.94810658702886
30
0
41
1
10
12.1271385423866
20
4.05444102139589
30
0
41
1
10
12.0450143922578
20
4.16214066659788
30
0
41
1
10
11.9595819666772
20
4.2712296788149
30
0
41
1
10
11.8708666715085
20
4.38173266632694
30
0
41
1
10
11.7788939546089
20
4.49367462983474
30
0
41
1
10
11.6836891917255
20
4.60708088633808
30
0
41
1
10
11.5852776483746
20
4.72197700115913
30
0
41
1
10
11.4836844252097
20
4.83838872141956
30
0
41
1
10
11.3789344116242
20
4.9563419122837
30
0
41
1
10
11.2710522433361
20
5.07586249750548
30
0
41
1
10
11.1600622545646
20
5.19697639634819
30
0
41
1
10
11.0459884673011
20
5.31970948764297
30
0
41
1
10
10.9288544520616
20
5.44408748251985
30
0
41
1
10
10.8086836955476
20
5.57013616014902
30
0
41
1
10
10.6854980373023
20
5.69788022356948
30
0
41
1
10
10.5593235219274
20
5.82734745777682
30
0
41
1
10
10.4301678444763
20
5.9585525795359
30
0
41
1
10
10.2981066311672
20
6.09155889765651
30
0
41
1
10
10.2087624022475
20
6.1805920475733
30
0
41
1
10
10.163711961637
20
6.2254856314251
30
0
0
SPLINE
5
FA
100
AcDbEntity
8
1
62
256
6
ByLayer
370
18
48
1
60
0
100
AcDbSpline
70
4
71
5
72
23
73
17
40
0
40
0
40
0
40
0
40
0
40
0
40
0.231642911033612
40
0.289553638792016
40
0.37641973042962
40
0.434330458188023
40
0.521196549825628
40
0.579107277584031
40
0.665973369221636
40
0.75283946085924
40
0.810750188617643
40
0.897616280255248
40
0.955527008013651
40
1
40
1
40
1
40
1
40
1
40
1
41
1
10
13.4159484556631
20
-0.0436461094365086
30
0
41
1
10
13.9479005536293
20
-0.287203740267984
30
0
41
1
10
14.6128406760872
20
-0.59152097104672
30
0
41
1
10
15.4772628352824
20
-0.984960039921503
30
0
41
1
10
16.4746730189692
20
-1.43199238066126
30
0
41
1
10
17.6715652393933
20
-1.95241376982915
30
0
41
1
10
18.4694933863428
20
-2.29073746845881
30
0
41
1
10
19.333915545538
20
-2.64609631283557
30
0
41
1
10
20.1983377047332
20
-2.98875513371985
30
0
41
1
10
21.0627598639284
20
-3.31557642265835
30
0
41
1
10
21.9271820231236
20
-3.62637254365393
30
0
41
1
10
22.7916041823188
20
-3.91785565939472
30
0
41
1
10
23.558673488374
20
-4.15964991838214
30
0
41
1
10
24.1262607576919
20
-4.3272514490518
30
0
41
1
10
24.5608600025181
20
-4.44861534697097
30
0
41
1
10
24.795977210607
20
-4.51218361861689
30
0
41
1
10
24.8981063942044
20
-4.53939792950499
30
0
0
SPLINE
5
FB
100
AcDbEntity
8
1
62
256
6
ByLayer
370
18
48
1
60
0
100
AcDbSpline
70
4
71
3
72
16
73
12
40
0
40
0
40
0
40
0
40
0.249999999999999
40
0.249999999999999
40
0.374999999999998
40
0.374999999999998
40
0.437499999999998
40
0.437499999999998
40
0.499999999999997
40
0.499999999999997
40
1
40
1
40
1
40
1
41
1
10
57.687552118028
20
1.69182246059526
30
0
41
1
10
57.6764124808772
20
1.53393404317711
30
0
41
1
10
57.6699162985747
20
1.37436812250453
30
0
41
1
10
57.667268905981
20
1.13245540893399
30
0
41
1
10
57.667569866427
20
1.05139031152547
30
0
41
1
10
57.6698187420512
20
0.929143320671358
30
0
41
1
10
57.6708680823306
20
0.888308487933813
30
0
41
1
10
57.6735584141411
20
0.806677586755399
30
0
41
1
10
57.6751998744541
20
0.765851809766701
30
0
41
1
10
57.6926215631861
20
0.398327510221606
30
0
41
1
10
57.7268870483685
20
0.0709847428151136
30
0
41
1
10
57.7792848805746
20
-0.25698996989459
30
0
0
SPLINE
5
FC
100
AcDbEntity
8
1
62
256
6
ByLayer
370
18
48
1
60
0
100
AcDbSpline
70
4
71
3
72
8
73
4
40
0
40
0
40
0
40
0
40
1
40
1
40
1
40
1
41
1
10
57.3837347964923
20
-0.183404789259896
30
0
41
1
10
57.5155910805399
20
-0.20793363393193
30
0
41
1
10
57.6474410507549
20
-0.232462016857596
30
0
41
1
10
57.7792848805745
20
-0.25698996989459
30
0
0
SPLINE
5
FD
100
AcDbEntity
8
1
62
256
6
ByLayer
370
18
48
1
60
0
100
AcDbSpline
70
4
71
3
72
59
73
55
40
0
40
0
40
0
40
0
40
0.0625000000000101
40
0.0625000000000101
40
0.0937500000000152
40
0.0937500000000152
40
0.109375000000019
40
0.109375000000019
40
0.125000000000022
40
0.125000000000022
40
0.187500000000033
40
0.187500000000033
40
0.218750000000039
40
0.218750000000039
40
0.234375000000042
40
0.234375000000042
40
0.250000000000046
40
0.250000000000046
40
0.31250000000006
40
0.31250000000006
40
0.320312500000061
40
0.320312500000061
40
0.328125000000063
40
0.343750000000063
40
0.343750000000063
40
0.375000000000062
40
0.375000000000062
40
0.390625000000062
40
0.390625000000062
40
0.406250000000061
40
0.406250000000061
40
0.43750000000006
40
0.43750000000006
40
0.500000000000054
40
0.500000000000054
40
0.515625000000051
40
0.515625000000051
40
0.531250000000048
40
0.531250000000048
40
0.562500000000047
40
0.562500000000047
40
0.625000000000041
40
0.625000000000041
40
0.687500000000034
40
0.687500000000034
40
0.750000000000027
40
0.750000000000027
40
0.81250000000002
40
0.81250000000002
40
0.875000000000014
40
0.875000000000014
40
0.937500000000007
40
0.937500000000007
40
1
40
1
40
1
40
1
41
1
10
57.3836101079217
20
-0.183382661148727
30
0
41
1
10
57.4384262678714
20
-0.194589707392311
30
0
41
1
10
57.4901033263436
20
-0.20522586497944
30
0
41
1
10
57.5592550624089
20
-0.219659020228761
30
0
41
1
10
57.5809009265669
20
-0.22421460537555
30
0
41
1
10
57.6106684926996
20
-0.2305567273539
30
0
41
1
10
57.6201396361996
20
-0.232588678634414
30
0
41
1
10
57.6380632530854
20
-0.236467322064186
30
0
41
1
10
57.6465108192067
20
-0.238313034214315
30
0
41
1
10
57.6856405973803
20
-0.2469659914251
30
0
41
1
10
57.7073094286499
20
-0.252110891037319
30
0
41
1
10
57.7195330211436
20
-0.256087043565088
30
0
41
1
10
57.7201989341297
20
-0.256783604871174
30
0
41
1
10
57.7150965730172
20
-0.256702889932114
30
0
41
1
10
57.7123775216073
20
-0.256488135227556
30
0
41
1
10
57.7047185885087
20
-0.255648926364529
30
0
41
1
10
57.6998088708839
20
-0.255027371544713
30
0
41
1
10
57.6699438303403
20
-0.250916991281656
30
0
41
1
10
57.6288594682629
20
-0.244395537124888
30
0
41
1
10
57.5636622693565
20
-0.233490075420065
30
0
41
1
10
57.5561634502195
20
-0.232230277458228
30
0
41
1
10
57.540756183329
20
-0.229631586516518
30
0
41
1
10
57.5169954853574
20
-0.225608999282628
30
0
41
1
10
57.4913570216375
20
-0.221226488815262
30
0
41
1
10
57.4377511214288
20
-0.212015058944672
30
0
41
1
10
57.3989133260187
20
-0.205279807777117
30
0
41
1
10
57.3366099248289
20
-0.194401272902127
30
0
41
1
10
57.3151673944807
20
-0.190645764853912
30
0
41
1
10
57.2710136738851
20
-0.182891576694629
30
0
41
1
10
57.2483889073675
20
-0.178907983679835
30
0
41
1
10
57.1792670814923
20
-0.166709335484995
30
0
41
1
10
57.131400210746
20
-0.158224987712202
30
0
41
1
10
56.9831518771822
20
-0.131855973942976
30
0
41
1
10
56.8781543244733
20
-0.113061571401687
30
0
41
1
10
56.7410859099647
20
-0.0884212752945928
30
0
41
1
10
56.7133787637233
20
-0.0834353804740431
30
0
41
1
10
56.6574156293548
20
-0.0733554253654347
30
0
41
1
10
56.629119755119
20
-0.0682541628729041
30
0
41
1
10
56.5438582667705
20
-0.05287011778276
30
0
41
1
10
56.4864763232292
20
-0.0424995338244116
30
0
41
1
10
56.3129663509635
20
-0.0110989061478506
30
0
41
1
10
56.1954900984934
20
0.0102166425377561
30
0
41
1
10
55.9579121699442
20
0.0534037095573296
30
0
41
1
10
55.8378028561387
20
0.0752768452852024
30
0
41
1
10
55.5955645664555
20
0.119450808031843
30
0
41
1
10
55.4734320482205
20
0.141752385193598
30
0
41
1
10
55.2275621925114
20
0.186695382118131
30
0
41
1
10
55.1038230059138
20
0.20933719345831
30
0
41
1
10
54.8550372118428
20
0.254897680535834
30
0
41
1
10
54.7299890038102
20
0.27781669521363
30
0
41
1
10
54.4788084892454
20
0.323884297374008
30
0
41
1
10
54.3529892751254
20
0.346975432014062
30
0
41
1
10
54.1011469057534
20
0.393220371198481
30
0
41
1
10
53.9750915520667
20
0.416380101809494
30
0
41
1
10
53.8489229077039
20
0.439571295172527
30
0
0
SPLINE
5
FE
100
AcDbEntity
8
1
62
256
6
ByLayer
370
18
48
1
60
0
100
AcDbSpline
70
4
71
3
72
50
73
46
40
0
40
0
40
0
40
0
40
0.0474676036680979
40
0.0474676036680979
40
0.0949352073361958
40
0.0949352073361958
40
0.142402811004294
40
0.142402811004294
40
0.189870414672392
40
0.189870414672392
40
0.23733801834049
40
0.23733801834049
40
0.284805622008588
40
0.284805622008588
40
0.332273225676685
40
0.332273225676685
40
0.379740829344783
40
0.379740829344783
40
0.427208433012881
40
0.427208433012881
40
0.474676036680979
40
0.474676036680979
40
0.522143640349077
40
0.522143640349077
40
0.569611244017175
40
0.569611244017175
40
0.617078847685273
40
0.617078847685273
40
0.664546451353371
40
0.664546451353371
40
0.712014055021469
40
0.712014055021469
40
0.759481658689567
40
0.759481658689567
40
0.806949262357665
40
0.806949262357665
40
0.854416866025763
40
0.854416866025763
40
0.90188446969386
40
0.90188446969386
40
0.949352073361958
40
0.949352073361958
40
0.996819677030056
40
0.996819677030056
40
1
40
1
40
1
40
1
41
1
10
57.3836536462686
20
-0.183416670720931
30
0
41
1
10
56.9600738853192
20
0.147458684403546
30
0
41
1
10
56.5364941243697
20
0.478665835044779
30
0
41
1
10
55.6893346024708
20
1.13815124266421
30
0
41
1
10
55.2657548415214
20
1.46642820258904
30
0
41
1
10
54.4185953196226
20
2.11648993225583
30
0
41
1
10
53.9950155586732
20
2.43827342355385
30
0
41
1
10
53.1478560367744
20
3.07185538827585
30
0
41
1
10
52.7242762758249
20
3.38365261551317
30
0
41
1
10
51.877116753926
20
3.99387760587592
30
0
41
1
10
51.4535369929766
20
4.29230416909166
30
0
41
1
10
50.6063774710778
20
4.87254850234282
30
0
41
1
10
50.1827977101284
20
5.15436513241369
30
0
41
1
10
49.3356381882294
20
5.69833055053653
30
0
41
1
10
48.91205842728
20
5.96047826824901
30
0
41
1
10
48.0648989053812
20
6.46226030070545
30
0
41
1
10
47.6413191444317
20
6.70189362545889
30
0
41
1
10
46.7941596225328
20
7.1560456764181
30
0
41
1
10
46.3705798615834
20
7.37056350971321
30
0
41
1
10
45.5234203396845
20
7.77215598443217
30
0
41
1
10
45.099840578735
20
7.95922983848865
30
0
41
1
10
44.2526810568362
20
8.30390364913521
30
0
41
1
10
43.8291012958867
20
8.4615029301838
30
0
41
1
10
42.9819417739879
20
8.74551680827281
30
0
41
1
10
42.5583620130384
20
8.87193085070896
30
0
41
1
10
41.7112024911396
20
9.09220196367428
30
0
41
1
10
41.2876227301901
20
9.18605860014171
30
0
41
1
10
40.4404632082912
20
9.34019600662555
30
0
41
1
10
40.0168834473418
20
9.4004764690697
30
0
41
1
10
39.1697239254429
20
9.48680707193213
30
0
41
1
10
38.7461441644934
20
9.51285704108801
30
0
41
1
10
37.8989846425945
20
9.53044375658553
30
0
41
1
10
37.4754048816451
20
9.52198046623894
30
0
41
1
10
36.6282453597461
20
9.47063238455317
30
0
41
1
10
36.2046655987967
20
9.42774769618316
30
0
41
1
10
35.3575060768977
20
9.30802216266855
30
0
41
1
10
34.9339263159484
20
9.2311815576644
30
0
41
1
10
34.0867667940494
20
9.0443781222551
30
0
41
1
10
33.6631870330999
20
8.93441565862855
30
0
41
1
10
32.816027511201
20
8.68256196293459
30
0
41
1
10
32.3924477502516
20
8.54067122377506
30
0
41
1
10
31.5452882283526
20
8.22650099689369
30
0
41
1
10
31.1217084674032
20
8.054222126925
30
0
41
1
10
30.6697489202574
20
7.85518577963117
30
0
41
1
10
30.6413691340611
20
7.8426237315104
30
0
41
1
10
30.6129893478648
20
7.82999800386114
30
0
0
SPLINE
5
FF
100
AcDbEntity
8
1
62
256
6
ByLayer
370
18
48
1
60
0
100
AcDbSpline
70
4
71
3
72
70
73
66
40
0
40
0
40
0
40
0
40
0.03125
40
0.03125
40
0.0625
40
0.0625
40
0.09375
40
0.09375
40
0.125
40
0.125
40
0.15625
40
0.15625
40
0.1875
40
0.1875
40
0.21875
40
0.21875
40
0.25
40
0.25
40
0.28125
40
0.28125
40
0.3125
40
0.3125
40
0.34375
40
0.34375
40
0.375
40
0.375
40
0.40625
40
0.40625
40
0.4375
40
0.4375
40
0.46875
40
0.46875
40
0.5
40
0.5
40
0.53125
40
0.53125
40
0.5625
40
0.5625
40
0.59375
40
0.59375
40
0.625
40
0.625
40
0.65625
40
0.65625
40
0.6875
40
0.6875
40
0.71875
40
0.71875
40
0.75
40
0.75
40
0.78125
40
0.78125
40
0.8125
40
0.8125
40
0.84375
40
0.84375
40
0.875
40
0.875
40
0.90625
40
0.90625
40
0.9375
40
0.9375
40
0.96875
40
0.96875
40
1
40
1
40
1
40
1
41
1
10
57.3836536462686
20
-9.5128306628809
30
0
41
1
10
56.9600738853192
20
-9.49610735619305
30
0
41
1
10
56.5364941243698
20
-9.46214343402801
30
0
41
1
10
55.6893346024709
20
-9.36010275185095
30
0
41
1
10
55.2657548415215
20
-9.29202618931947
30
0
41
1
10
54.4185953196227
20
-9.12249902335188
30
0
41
1
10
53.9950155586733
20
-9.02104875179995
30
0
41
1
10
53.1478560367744
20
-8.78587522136678
30
0
41
1
10
52.724276275825
20
-8.65215242398278
30
0
41
1
10
51.877116753926
20
-8.35388520438292
30
0
41
1
10
51.4535369929767
20
-8.18934136808628
30
0
41
1
10
50.6063774710778
20
-7.83121798491979
30
0
41
1
10
50.1827977101284
20
-7.63763914303217
30
0
41
1
10
49.3356381882295
20
-7.22354683168231
30
0
41
1
10
48.9120584272801
20
-7.00303417558425
30
0
41
1
10
48.0648989053812
20
-6.53746768576411
30
0
41
1
10
47.6413191444316
20
-6.29241476379988
30
0
41
1
10
46.7941596225329
20
-5.78042756819079
30
0
41
1
10
46.3705798615834
20
-5.51349430108672
30
0
41
1
10
45.5234203396846
20
-4.96064374968205
30
0
41
1
10
45.099840578735
20
-4.67472755439337
30
0
41
1
10
44.2526810568362
20
-4.0870145493254
30
0
41
1
10
43.8291012958868
20
-3.78521889620055
30
0
41
1
10
42.9819417739879
20
-3.1690227526253
30
0
41
1
10
42.5583620130385
20
-2.85462347509204
30
0
41
1
10
41.7112024911396
20
-2.21663268077199
30
0
41
1
10
41.2876227301901
20
-1.89304241832878
30
0
41
1
10
40.4404632082912
20
-1.24018203088374
30
0
41
1
10
40.0168834473417
20
-0.910913188569424
30
0
41
1
10
39.1697239254429
20
-0.250269668127174
30
0
41
1
10
38.7461441644934
20
0.0811037110282484
30
0
41
1
10
37.8989846425945
20
0.742359420146812
30
0
41
1
10
37.475404881645
20
1.07224044948791
30
0
41
1
10
36.6282453597461
20
1.72693075653766
30
0
41
1
10
36.2046655987967
20
2.05173874744571
30
0
41
1
10
35.3575060768977
20
2.69275732488586
30
0
41
1
10
34.9339263159483
20
3.00896665214887
30
0
41
1
10
34.0867667940494
20
3.62935557160705
30
0
41
1
10
33.6631870330999
20
3.9335339437325
30
0
41
1
10
32.816027511201
20
4.52655919864534
30
0
41
1
10
32.3924477502516
20
4.81540491474615
30
0
41
1
10
31.5452882283526
20
5.37462951578556
30
0
41
1
10
31.1217084674031
20
5.64500730130405
30
0
41
1
10
30.2745489455042
20
6.16436114728569
30
0
41
1
10
29.8509691845547
20
6.41333618706952
30
0
41
1
10
29.0038096626558
20
6.88718195196819
30
0
41
1
10
28.5802299017063
20
7.11205174744867
30
0
41
1
10
27.7330703798073
20
7.53524607095335
30
0
41
1
10
27.3094906188578
20
7.73356976988845
30
0
41
1
10
26.4623310969591
20
8.1015190887081
30
0
41
1
10
26.0387513360094
20
8.27114398326938
30
0
41
1
10
25.1915918141105
20
8.57985438600255
30
0
41
1
10
24.7680120531609
20
8.71893928335413
30
0
41
1
10
23.9208525312621
20
8.96505986445703
30
0
41
1
10
23.4972727703126
20
9.07209506336861
30
0
41
1
10
22.6501132484136
20
9.25295430207896
30
0
41
1
10
22.2265334874641
20
9.32677798466221
30
0
41
1
10
21.3793739655652
20
9.44041273210982
30
0
41
1
10
20.9557942046157
20
9.4802235766108
30
0
41
1
10
20.1086346827167
20
9.52540037580303
30
0
41
1
10
19.6850549217673
20
9.53076624581809
30
0
41
1
10
18.8378953998682
20
9.50699471606251
30
0
41
1
10
18.4143156389187
20
9.47785736169004
30
0
41
1
10
17.5671561170197
20
9.38539551631925
30
0
41
1
10
17.1435763560702
20
9.32207120485478
30
0
41
1
10
16.7199965951208
20
9.24199693104995
30
0
0
SPLINE
5
100
100
AcDbEntity
8
1
62
256
6
ByLayer
370
18
48
1
60
0
100
AcDbSpline
70
4
71
3
72
42
73
38
40
0
40
0
40
0
40
0
40
0.0519741340852576
40
0.0519741340852576
40
0.107740361492007
40
0.107740361492007
40
0.163506588898757
40
0.163506588898757
40
0.219272816305506
40
0.219272816305506
40
0.275039043712256
40
0.275039043712256
40
0.330805271119005
40
0.330805271119005
40
0.386571498525755
40
0.386571498525755
40
0.442337725932504
40
0.442337725932504
40
0.498103953339254
40
0.498103953339254
40
0.553870180746004
40
0.553870180746004
40
0.609636408152753
40
0.609636408152753
40
0.665402635559503
40
0.665402635559503
40
0.721168862966252
40
0.721168862966252
40
0.776935090373002
40
0.776935090373002
40
0.832701317779751
40
0.832701317779751
40
0.888467545186501
40
0.888467545186501
40
0.94423377259325
40
0.94423377259325
40
1
40
1
40
1
40
1
41
1
10
39.5068936462671
20
-9.4522100014002
30
0
41
1
10
39.112117232026
20
-9.49027006411791
30
0
41
1
10
38.7173408177849
20
-9.51345498781598
30
0
41
1
10
37.8989846425945
20
-9.53044375658578
30
0
41
1
10
37.475404881645
20
-9.5219804662392
30
0
41
1
10
36.6282453597461
20
-9.47063238455343
30
0
41
1
10
36.2046655987967
20
-9.42774769618345
30
0
41
1
10
35.3575060768977
20
-9.30802216266881
30
0
41
1
10
34.9339263159483
20
-9.23118155766466
30
0
41
1
10
34.0867667940493
20
-9.04437812225532
30
0
41
1
10
33.6631870330998
20
-8.93441565862878
30
0
41
1
10
32.816027511201
20
-8.68256196293481
30
0
41
1
10
32.3924477502515
20
-8.54067122377526
30
0
41
1
10
31.5452882283525
20
-8.22650099689389
30
0
41
1
10
31.1217084674031
20
-8.05422212692523
30
0
41
1
10
30.2745489455041
20
-7.6811455144744
30
0
41
1
10
29.8509691845547
20
-7.48034850630725
30
0
41
1
10
29.0038096626557
20
-7.0524150525026
30
0
41
1
10
28.5802299017062
20
-6.82527945018495
30
0
41
1
10
27.7330703798073
20
-6.3471341423776
30
0
41
1
10
27.3094906188578
20
-6.09612537959069
30
0
41
1
10
26.4623310969589
20
-5.5729582318497
30
0
41
1
10
26.0387513360094
20
-5.30080087439984
30
0
41
1
10
25.1915918141105
20
-4.73829058793137
30
0
41
1
10
24.768012053161
20
-4.44793876241289
30
0
41
1
10
23.9208525312621
20
-3.85219108824438
30
0
41
1
10
23.4972727703125
20
-3.54679641076046
30
0
41
1
10
22.6501132484136
20
-2.92427787883074
30
0
41
1
10
22.2265334874641
20
-2.60715524815285
30
0
41
1
10
21.3793739655651
20
-1.96462297112871
30
0
41
1
10
20.9557942046157
20
-1.63921458869038
30
0
41
1
10
20.1086346827167
20
-0.983642920661538
30
0
41
1
10
19.6850549217673
20
-0.653480924754291
30
0
41
1
10
18.8378953998682
20
0.008014243261016
30
0
41
1
10
18.4143156389188
20
0.339346114841788
30
0
41
1
10
17.5671561170198
20
0.999584594507297
30
0
41
1
10
17.1435763560703
20
1.32848990465555
30
0
41
1
10
16.7199965951208
20
1.6543975259215
30
0
0
SPLINE
5
101
100
AcDbEntity
8
1
62
256
6
ByLayer
370
18
48
1
60
0
100
AcDbSpline
70
4
71
3
72
21
73
17
40
0
40
0
40
0
40
0
40
0.125000000000003
40
0.125000000000003
40
0.250000000000007
40
0.250000000000007
40
0.37500000000001
40
0.37500000000001
40
0.500000000000014
40
0.500000000000014
40
0.750000000000017
40
0.750000000000017
40
0.812500000000013
40
0.812500000000013
40
0.87500000000001
40
1
40
1
40
1
40
1
41
1
10
14.3221721935844
20
3.45570891160449
30
0
41
1
10
14.3388338478849
20
3.56182097513525
30
0
41
1
10
14.3596322124744
20
3.66591504447624
30
0
41
1
10
14.4067496619466
20
3.8708879799585
30
0
41
1
10
14.4330919964919
20
3.97176000708004
30
0
41
1
10
14.4896436148639
20
4.17077859904802
30
0
41
1
10
14.5198635046531
20
4.26892203105987
30
0
41
1
10
14.5830587996919
20
4.46280608146171
30
0
41
1
10
14.6160396394498
20
4.55854509111452
30
0
41
1
10
14.7179353638782
20
4.84248784063152
30
0
41
1
10
14.7897437093188
20
5.02743832053321
30
0
41
1
10
14.8817839943949
20
5.25384152783846
30
0
41
1
10
14.9003163376242
20
5.29889304139184
30
0
41
1
10
14.9375087013012
20
5.38837020954949
30
0
41
1
10
14.9935111725212
20
5.52170010699595
30
0
41
1
10
15.049963739732
20
5.6524392447397
30
0
41
1
10
15.087660776463
20
5.73848997728393
30
0
0
SPLINE
5
102
100
AcDbEntity
8
1
62
256
6
ByLayer
370
18
48
1
60
0
100
AcDbSpline
70
4
71
3
72
18
73
14
40
0
40
0
40
0
40
0
40
0.291513323791102
40
0.291513323791102
40
0.583026647582205
40
0.583026647582205
40
0.728783309477757
40
0.728783309477757
40
0.801661640425534
40
0.801661640425534
40
0.87453997137331
40
0.87453997137331
40
1
40
1
40
1
40
1
41
1
10
7.6064377192827
20
9.06924672302557
30
0
41
1
10
7.26891838787128
20
9.15011827342389
30
0
41
1
10
6.93550737090064
20
9.22215131687747
30
0
41
1
10
6.27626458078336
20
9.34555878303533
30
0
41
1
10
5.95041966355441
20
9.39695542975599
30
0
41
1
10
5.46755530146939
20
9.45605430498887
30
0
41
1
10
5.30759279599161
20
9.47274972561661
30
0
41
1
10
5.06926609060775
20
9.49288935854031
30
0
41
1
10
4.99001910646328
20
9.49878834471482
30
0
41
1
10
4.83268543794844
20
9.50883920553483
30
0
41
1
10
4.75455518233221
20
9.51299637697852
30
0
41
1
10
4.54344971987408
20
9.52187457524946
30
0
41
1
10
4.41157022880233
20
9.52484186867062
30
0
41
1
10
4.2815186194708
20
9.5249940339545
30
0
0
SPLINE
5
103
100
AcDbEntity
8
1
62
256
6
ByLayer
370
18
48
1
60
0
100
AcDbSpline
70
4
71
3
72
36
73
32
40
0
40
0
40
0
40
0
40
0.0379873572426984
40
0.0762379578241767
40
0.114748437672618
40
0.153515266360178
40
0.192534747846881
40
0.231803017448071
40
0.323242870857035
40
0.417791824876165
40
0.515376070003979
40
0.615909657801447
40
0.634114100581186
40
0.652548211451087
40
0.671211049176823
40
0.690101634262982
40
0.709218948316576
40
0.728561933423474
40
0.74812949153968
40
0.767920483899193
40
0.787933730440211
40
0.808168009251566
40
0.828622056041122
40
0.849294563628124
40
0.870184181461215
40
0.891289515164132
40
0.912609126110904
40
0.934141531032524
40
0.955885201656946
40
0.97783856438442
40
1
40
1
40
1
40
1
41
1
10
15.7563687707574
20
5.23622486864178
30
0
41
1
10
15.7396218620594
20
5.21504655227753
30
0
41
1
10
15.7060119925746
20
5.17254315886032
30
0
41
1
10
15.6549511020574
20
5.10809383581815
30
0
41
1
10
15.6031959478759
20
5.04286329156693
30
0
41
1
10
15.5507121541466
20
4.97682368914377
30
0
41
1
10
15.4975097423593
20
4.90999191372251
30
0
41
1
10
15.4198139941122
20
4.81257010714415
30
0
41
1
10
15.3155052244352
20
4.68214632340059
30
0
41
1
10
15.1822052165468
20
4.51600092010176
30
0
41
1
10
15.0426027244075
20
4.34253301366797
30
0
41
1
10
14.9379234260425
20
4.21287027655322
30
0
41
1
10
14.8709889590637
20
4.13013796742763
30
0
41
1
10
14.8439342443647
20
4.09672120085582
30
0
41
1
10
14.8164740590342
20
4.06282525025185
30
0
41
1
10
14.7886083051789
20
4.02844977983511
30
0
41
1
10
14.7603370725412
20
3.99359453345352
30
0
41
1
10
14.7316604007342
20
3.95825941411007
30
0
41
1
10
14.7025783441639
20
3.9224444696099
30
0
41
1
10
14.6730909543858
20
3.88614990387808
30
0
41
1
10
14.6431982848975
20
3.84937608122098
30
0
41
1
10
14.6129003901594
20
3.8121235328212
30
0
41
1
10
14.5821973248932
20
3.77439296150248
30
0
41
1
10
14.5510891482407
20
3.73618525121739
30
0
41
1
10
14.5195759078952
20
3.69750145907173
30
0
41
1
10
14.4876577006169
20
3.6583428733133
30
0
41
1
10
14.4553344431445
20
3.61871082120447
30
0
41
1
10
14.4226067404753
20
3.57860742438402
30
0
41
1
10
14.3894725972433
20
3.53803276482282
30
0
41
1
10
14.3559398717873
20
3.4969956439711
30
0
41
1
10
14.3334050954153
20
3.46944306010875
30
0
41
1
10
14.322084563203
20
3.45560179059731
30
0
0
SPLINE
5
104
100
AcDbEntity
8
1
62
256
6
ByLayer
370
18
48
1
60
0
100
AcDbSpline
70
4
71
3
72
18
73
14
40
0
40
0
40
0
40
0
40
0.249999999999995
40
0.249999999999995
40
0.499999999999991
40
0.499999999999991
40
0.531249999999992
40
0.531249999999992
40
0.562499999999993
40
0.624999999999993
40
0.749999999999995
40
0.749999999999995
40
1
40
1
40
1
40
1
41
1
10
15.0876607764626
20
5.73848997728419
30
0
41
1
10
14.466118494555
20
6.12607055537023
30
0
41
1
10
13.8462610049856
20
6.49024743186709
30
0
41
1
10
12.6044505367244
20
7.16665582741842
30
0
41
1
10
11.9825095376234
20
7.47889916030192
30
0
41
1
10
11.2785094300723
20
7.79766807965069
30
0
41
1
10
11.2002013735407
20
7.83264604924628
30
0
41
1
10
11.0435719504191
20
7.90163327451245
30
0
41
1
10
10.8087500125011
20
8.0035994204311
30
0
41
1
10
10.2615703734278
20
8.2308658270818
30
0
41
1
10
9.79342680613365
20
8.40721878860279
30
0
41
1
10
8.85724889082385
20
8.73478300213159
30
0
41
1
10
8.23328217533023
20
8.91966595606365
30
0
41
1
10
7.60666075553678
20
9.06928489247736
30
0
0
SPLINE
5
105
100
AcDbEntity
8
1
62
256
6
ByLayer
370
18
48
1
60
0
100
AcDbSpline
70
4
71
3
72
8
73
4
40
0
40
0
40
0
40
0
40
1
40
1
40
1
40
1
41
1
10
15.087660776463
20
5.73848997728393
30
0
41
1
10
15.303462415009
20
5.56402796449538
30
0
41
1
10
15.5270048899797
20
5.39752323800653
30
0
41
1
10
15.7566277458053
20
5.23625561430185
30
0
0
SPLINE
5
106
100
AcDbEntity
8
1
62
256
6
ByLayer
370
18
48
1
60
0
100
AcDbSpline
70
4
71
3
72
107
73
103
40
0
40
0
40
0
40
0
40
0.010993178773199
40
0.010993178773199
40
0.0490319026665328
40
0.0490319026665328
40
0.0870706265598667
40
0.0870706265598667
40
0.125109350453201
40
0.125109350453201
40
0.144128712399868
40
0.144128712399868
40
0.163148074346535
40
0.163148074346535
40
0.167902914833202
40
0.167902914833202
40
0.172657755319868
40
0.182167436293202
40
0.182167436293202
40
0.20118679823987
40
0.20118679823987
40
0.239225522133206
40
0.239225522133206
40
0.258244884079875
40
0.258244884079875
40
0.277264246026543
40
0.277264246026543
40
0.296283607973212
40
0.296283607973212
40
0.31530296991988
40
0.31530296991988
40
0.353341693813217
40
0.353341693813217
40
0.362851374786551
40
0.362851374786551
40
0.372361055759886
40
0.372361055759886
40
0.391380417706555
40
0.391380417706555
40
0.410399779653224
40
0.410399779653224
40
0.429419141599893
40
0.429419141599893
40
0.467457865493233
40
0.467457865493233
40
0.486477227439903
40
0.486477227439903
40
0.505496589386572
40
0.505496589386572
40
0.524515951333242
40
0.524515951333242
40
0.543535313279911
40
0.543535313279911
40
0.562554675226581
40
0.562554675226581
40
0.567309515713249
40
0.567309515713249
40
0.572064356199916
40
0.572064356199916
40
0.581574037173251
40
0.581574037173251
40
0.600593399119921
40
0.600593399119921
40
0.619612761066591
40
0.619612761066591
40
0.657651484959931
40
0.657651484959931
40
0.676670846906601
40
0.676670846906601
40
0.69569020885327
40
0.69569020885327
40
0.733728932746609
40
0.733728932746609
40
0.752748294693278
40
0.752748294693278
40
0.771767656639948
40
0.771767656639948
40
0.776522497126616
40
0.776522497126616
40
0.781277337613283
40
0.790787018586619
40
0.80980638053329
40
0.80980638053329
40
0.847845104426632
40
0.847845104426632
40
0.866864466373304
40
0.866864466373304
40
0.885883828319975
40
0.885883828319975
40
0.904903190266646
40
0.904903190266646
40
0.923922552213317
40
0.923922552213317
40
0.942941914159988
40
0.942941914159988
40
0.961961276106659
40
0.961961276106659
40
0.971470957079994
40
0.971470957079994
40
0.98098063805333
40
0.98098063805333
40
1
40
1
40
1
40
1
41
1
10
49.825296874547
20
-7.46206230727805
30
0
41
1
10
49.7003356972593
20
-7.5157276593566
30
0
41
1
10
49.575498301766
20
-7.56816109276042
30
0
41
1
10
49.0191591560173
20
-7.79647502238217
30
0
41
1
10
48.5888579096651
20
-7.95851197043376
30
0
41
1
10
47.7287463436091
20
-8.25248151567524
30
0
41
1
10
47.298949981057
20
-8.38444309877576
30
0
41
1
10
46.4383388364333
20
-8.61693865876882
30
0
41
1
10
46.0075256400556
20
-8.71748637942846
30
0
41
1
10
45.3593040944121
20
-8.8433252942651
30
0
41
1
10
45.1429022060797
20
-8.88104545362023
30
0
41
1
10
44.7091421641914
20
-8.94829728717801
30
0
41
1
10
44.4917806358379
20
-8.97787576235959
30
0
41
1
10
44.2193510780425
20
-9.00961978227036
30
0
41
1
10
44.1648212305508
20
-9.01570706695665
30
0
41
1
10
44.0558789373645
20
-9.02733160856528
30
0
41
1
10
43.8925709712302
20
-9.04395189422621
30
0
41
1
10
43.7295695812667
20
-9.05811234717504
30
0
41
1
10
43.4039482199142
20
-9.08312271480011
30
0
41
1
10
43.1873921749296
20
-9.09532931408884
30
0
41
1
10
42.5387448520392
20
-9.11928929317082
30
0
41
1
10
42.1076651750368
20
-9.11849260787599
30
0
41
1
10
41.4621797529791
20
-9.09109682171643
30
0
41
1
10
41.2472113667398
20
-9.07755504336765
30
0
41
1
10
40.8172893641696
20
-9.04231301630841
30
0
41
1
10
40.6023465311011
20
-9.02058390494045
30
0
41
1
10
40.172342400104
20
-8.96872850799059
30
0
41
1
10
39.9572809128735
20
-8.93860366962355
30
0
41
1
10
39.5268636668975
20
-8.8697471415208
30
0
41
1
10
39.3115094229334
20
-8.83098639307298
30
0
41
1
10
38.6645179126447
20
-8.70272195306927
30
0
41
1
10
38.2320347949329
20
-8.60092146719404
30
0
41
1
10
37.6890184357186
20
-8.45209660238018
30
0
41
1
10
37.5802932096452
20
-8.42125064593967
30
0
41
1
10
37.3625583378622
20
-8.35750113682346
30
0
41
1
10
37.2534709605095
20
-8.32458253411096
30
0
41
1
10
36.9267933862523
20
-8.22314015670813
30
0
41
1
10
36.7095387448008
20
-8.15180554978147
30
0
41
1
10
36.2759534174432
20
-8.00169864151309
30
0
41
1
10
36.059618464607
20
-7.92293805382874
30
0
41
1
10
35.6276812260698
20
-7.7580700573358
30
0
41
1
10
35.4120538638738
20
-7.67203614577679
30
0
41
1
10
34.7657000364716
20
-7.40404473724897
30
0
41
1
10
34.3356557974774
20
-7.21172308478478
30
0
41
1
10
33.6908006890025
20
-6.90303009187556
30
0
41
1
10
33.4758537019315
20
-6.79687451710012
30
0
41
1
10
33.0457064207378
20
-6.5784810754877
30
0
41
1
10
32.8305294851803
20
-6.46614548238759
30
0
41
1
10
32.3997866111251
20
-6.2352101025258
30
0
41
1
10
32.1842206634955
20
-6.11660763517924
30
0
41
1
10
31.7524758689189
20
-5.87328756736301
30
0
41
1
10
31.5362774995639
20
-5.7486812974212
30
0
41
1
10
31.1030035134954
20
-5.49383224971075
30
0
41
1
10
30.8859422041975
20
-5.36349634210077
30
0
41
1
10
30.6139465214127
20
-5.19699218008944
30
0
41
1
10
30.5595138317366
20
-5.16351264683277
30
0
41
1
10
30.4505776611895
20
-5.09619828900352
30
0
41
1
10
30.3960495145402
20
-5.06234802931533
30
0
41
1
10
30.2325867386653
20
-4.96041326339915
30
0
41
1
10
30.1237607046814
20
-4.8919356978264
30
0
41
1
10
29.7976789602386
20
-4.68501334164114
30
0
41
1
10
29.5808169591019
20
-4.54508386067008
30
0
41
1
10
29.147873031686
20
-4.26166436642947
30
0
41
1
10
28.9317869931044
20
-4.11818503032583
30
0
41
1
10
28.2844834749447
20
-3.68259882366394
30
0
41
1
10
27.8541597854908
20
-3.38546789521936
30
0
41
1
10
27.2090557326269
20
-2.93171149601471
30
0
41
1
10
26.9940945782666
20
-2.77909523813995
30
0
41
1
10
26.5641655954384
20
-2.47125218028273
30
0
41
1
10
26.3491862744682
20
-2.31605228365962
30
0
41
1
10
25.7038090764987
20
-1.84722529217183
30
0
41
1
10
25.272969467628
20
-1.53040517257477
30
0
41
1
10
24.6246735424968
20
-1.04995768905357
30
0
41
1
10
24.4082278241692
20
-0.888955693460645
30
0
41
1
10
23.974387671407
20
-0.56563647376268
30
0
41
1
10
23.7569896061018
20
-0.403340713910268
30
0
41
1
10
23.4845280830662
20
-0.199744064394395
30
0
41
1
10
23.4300027347656
20
-0.158990748508842
30
0
41
1
10
23.3210750507865
20
-0.0775659123511616
30
0
41
1
10
23.1577935828682
20
0.0445043273201406
30
0
41
1
10
22.7775290086649
20
0.328812530483447
30
0
41
1
10
22.4526801638013
20
0.571430819885535
30
0
41
1
10
21.8040745498149
20
1.05479221287209
30
0
41
1
10
21.3731060163053
20
1.37452921645419
30
0
41
1
10
20.7276804897932
20
1.84877049035561
30
0
41
1
10
20.5126719985937
20
2.00594030766967
30
0
41
1
10
20.0827068096464
20
2.31819184412825
30
0
41
1
10
19.8677568819577
20
2.47327661013878
30
0
41
1
10
19.4377538527965
20
2.78109467653181
30
0
41
1
10
19.2227160362136
20
2.93382842033901
30
0
41
1
10
18.7923185265441
20
3.23664019092618
30
0
41
1
10
18.5769310433899
20
3.38672009317747
30
0
41
1
10
18.1455734266839
20
3.68395680886385
30
0
41
1
10
17.9296087761535
20
3.83111393104056
30
0
41
1
10
17.4969212991855
20
4.12219390425113
30
0
41
1
10
17.2802058873697
20
4.26610881674523
30
0
41
1
10
16.954378709875
20
4.47931409377412
30
0
41
1
10
16.8456415573015
20
4.54994082969782
30
0
41
1
10
16.6278812399842
20
4.69027678490806
30
0
41
1
10
16.5188101505114
20
4.76001561448962
30
0
41
1
10
16.1918832241916
20
4.96731633795454
30
0
41
1
10
15.9741122912538
20
5.10309532765601
30
0
41
1
10
15.7564331971936
20
5.23630637782122
30
0
0
SPLINE
5
107
100
AcDbEntity
8
1
62
256
6
ByLayer
370
18
48
1
60
0
100
AcDbSpline
70
4
71
5
72
15
73
9
40
0
40
0
40
0
40
0
40
0
40
0
40
0.238379463960548
40
0.654334828631906
40
0.931638405079477
40
1
40
1
40
1
40
1
40
1
40
1
41
1
10
16.7199999082449
20
1.65439689640473
30
0
41
1
10
16.605678937713
20
1.74235663914882
30
0
41
1
10
16.2918759304437
20
1.98330079386301
30
0
41
1
10
15.8450848986828
20
2.3242321765841
30
0
41
1
10
15.3655093151464
20
2.68621276943702
30
0
41
1
10
14.88593373161
20
3.04284691722489
30
0
41
1
10
14.5206791186056
20
3.3108605807592
30
0
41
1
10
14.3549065423386
20
3.43171044425222
30
0
41
1
10
14.3221219905631
20
3.4555794736163
30
0
0
SPLINE
5
108
100
AcDbEntity
8
1
62
256
6
ByLayer
370
18
48
1
60
0
100
AcDbSpline
70
4
71
3
72
10
73
6
40
0
40
0
40
0
40
0
40
0.5
40
0.5
40
1
40
1
40
1
40
1
41
1
10
10.1639340448235
20
6.22556591614227
30
0
41
1
10
10.8569653706755
20
5.81577198218088
30
0
41
1
10
11.5499966965275
20
5.37573462718893
30
0
41
1
10
12.9360593482315
20
4.44791505952463
30
0
41
1
10
13.6290906740836
20
3.96014590815975
30
0
41
1
10
14.3221219999356
20
3.45557945664976
30
0
0
SPLINE
5
109
100
AcDbEntity
8
1
62
256
6
ByLayer
370
18
48
1
60
0
100
AcDbSpline
70
4
71
3
72
15
73
11
40
0
40
0
40
0
40
0
40
0.145270854245779
40
0.263537464047046
40
0.372612889307115
40
0.497935187598901
40
0.619749896172477
40
0.717241300671087
40
0.834701633119953
40
1
40
1
40
1
40
1
41
1
10
21.2058448749547
20
-9.45239602293313
30
0
41
1
10
21.4129269506363
20
-9.43222733661122
30
0
41
1
10
21.7900112199867
20
-9.39577872625313
30
0
41
1
10
22.3324230788174
20
-9.34400119011843
30
0
41
1
10
22.8385175746621
20
-9.29638216874338
30
0
41
1
10
23.3558067090235
20
-9.24754476148988
30
0
41
1
10
23.8548240329313
20
-9.2009584491322
30
0
41
1
10
24.3423834694528
20
-9.15585782922724
30
0
41
1
10
24.8937762695387
20
-9.10576769596702
30
0
41
1
10
25.3017353529859
20
-9.06934866998017
30
0
41
1
10
25.5398128543519
20
-9.04834029891424
30
0
0
SPLINE
5
10A
100
AcDbEntity
8
1
62
256
6
ByLayer
370
18
48
1
60
0
100
AcDbSpline
70
4
71
3
72
15
73
11
40
0
40
0
40
0
40
0
40
0.165298366880026
40
0.282758699328892
40
0.380250103827522
40
0.502064812401102
40
0.627387110692885
40
0.736462535952943
40
0.854729145754211
40
1
40
1
40
1
40
1
41
1
10
25.5398128543518
20
9.04834029891407
30
0
41
1
10
25.3017353529857
20
9.06934866998
30
0
41
1
10
24.8937762695387
20
9.10576769596685
30
0
41
1
10
24.3423834694528
20
9.15585782922707
30
0
41
1
10
23.8548240329313
20
9.20095844913206
30
0
41
1
10
23.3558067090235
20
9.24754476148971
30
0
41
1
10
22.8385175746621
20
9.29638216874324
30
0
41
1
10
22.3324230788174
20
9.34400119011826
30
0
41
1
10
21.7900112199868
20
9.39577872625298
30
0
41
1
10
21.4129269506363
20
9.43222733661105
30
0
41
1
10
21.2058448749547
20
9.45239602293299
30
0
0
SPLINE
5
10B
100
AcDbEntity
8
1
62
256
6
ByLayer
370
18
48
1
60
0
100
AcDbSpline
70
4
71
3
72
15
73
11
40
0
40
0
40
0
40
0
40
0.155896826440727
40
0.27304415138476
40
0.374526526592908
40
0.49741848402825
40
0.621396094431366
40
0.725590530958098
40
0.84438901715505
40
1
40
1
40
1
40
1
41
1
10
39.5051123888895
20
-9.45238661380208
30
0
41
1
10
39.7295784703516
20
-9.43069959884735
30
0
41
1
10
40.1231990375432
20
-9.39283459400278
30
0
41
1
10
40.6659594919027
20
-9.34092255798143
30
0
41
1
10
41.1588641031052
20
-9.29423305648493
30
0
41
1
10
41.6633440217605
20
-9.24680967921813
30
0
41
1
10
42.171691897261
20
-9.19941724362423
30
0
41
1
10
42.6727699243868
20
-9.15286839507894
30
0
41
1
10
43.2219069357743
20
-9.10293475637832
30
0
41
1
10
43.6162582171119
20
-9.06783126004956
30
0
41
1
10
43.8392699261506
20
-9.04824353856935
30
0
0
SPLINE
5
10C
100
AcDbEntity
8
1
62
256
6
ByLayer
370
18
48
1
60
0
100
AcDbSpline
70
4
71
3
72
15
73
11
40
0
40
0
40
0
40
0
40
0.155610982844989
40
0.274409469041923
40
0.378603905568635
40
0.502581515971736
40
0.625473473407088
40
0.72695584861524
40
0.844103173559265
40
1
40
1
40
1
40
1
41
1
10
43.839269926151
20
9.04824353856901
30
0
41
1
10
43.6162582171124
20
9.06783126004922
30
0
41
1
10
43.2219069357745
20
9.10293475637798
30
0
41
1
10
42.672769924387
20
9.15286839507863
30
0
41
1
10
42.1716918972612
20
9.19941724362388
30
0
41
1
10
41.6633440217608
20
9.24680967921785
30
0
41
1
10
41.1588641031053
20
9.29423305648459
30
0
41
1
10
40.6659594919028
20
9.34092255798112
30
0
41
1
10
40.1231990375432
20
9.39283459400249
30
0
41
1
10
39.7295784703517
20
9.43069959884707
30
0
41
1
10
39.5051123888894
20
9.45238661380179
30
0
0
LINE
5
77
100
AcDbEntity
8
80
62
256
6
ByLayer
370
18
48
1
60
0
100
AcDbLine
10
0
20
0
30
0
11
-5
21
0
31
0
39
0
210
0
220
0
230
1
0
LINE
5
78
100
AcDbEntity
8
4
62
256
6
ByLayer
370
18
48
0.05
60
0
100
AcDbLine
10
0
20
0
30
0
11
58
21
0
31
0
39
0
210
0
220
0
230
1
0
LINE
5
7A
100
AcDbEntity
8
81
62
256
6
ByLayer
370
18
48
1
60
0
100
AcDbLine
10
58
20
0
30
0
11
63
21
0
31
0
39
0
210
0
220
0
230
1
0
LINE
5
7B
100
AcDbEntity
8
SK4
62
256
6
ByLayer
370
18
48
0.05
60
0
100
AcDbLine
10
-51.6
20
0
30
0
11
58
21
0
31
0
39
0
210
0
220
0
230
1
0
LINE
5
7D
100
AcDbEntity
8
1
62
256
6
ByLayer
370
18
48
1
60
0
100
AcDbLine
10
0
20
9.525
30
0
11
0
21
0
31
0
39
0
210
0
220
0
230
1
0
LINE
5
7E
100
AcDbEntity
8
1
62
256
6
ByLayer
370
18
48
1
60
0
100
AcDbLine
10
0
20
0
30
0
11
0
21
-9.525
31
0
39
0
210
0
220
0
230
1
0
LINE
5
7F
100
AcDbEntity
8
1
62
256
6
ByLayer
370
18
48
1
60
0
100
AcDbLine
10
57.767331
20
-1.419498
30
0
11
57.687552
21
-1.691822
31
0
39
0
210
0
220
0
230
1
0
LINE
5
80
100
AcDbEntity
8
1
62
256
6
ByLayer
370
18
48
1
60
0
100
AcDbLine
10
57.911806
20
0.295904
30
0
11
57.988115
21
0.29753
31
0
39
0
210
0
220
0
230
1
0
LINE
5
81
100
AcDbEntity
8
1
62
256
6
ByLayer
370
18
48
1
60
0
100
AcDbLine
10
57.988115
20
0.29753
30
0
11
57.949854
21
-2.6E-05
31
0
39
0
210
0
220
0
230
1
0
LINE
5
82
100
AcDbEntity
8
1
62
256
6
ByLayer
370
18
48
1
60
0
100
AcDbLine
10
57.911807
20
-0.295918
30
0
11
57.767331
21
-1.419498
31
0
39
0
210
0
220
0
230
1
0
LINE
5
83
100
AcDbEntity
8
1
62
256
6
ByLayer
370
18
48
1
60
0
100
AcDbLine
10
57.767331
20
-1.419498
30
0
11
57.56512
21
-1.385558
31
0
39
0
210
0
220
0
230
1
0
LINE
5
84
100
AcDbEntity
8
1
62
256
6
ByLayer
370
18
48
1
60
0
100
AcDbLine
10
57.563874
20
-1.389992
30
0
11
57.56512
21
-1.385558
31
0
39
0
210
0
220
0
230
1
0
LINE
5
85
100
AcDbEntity
8
1
62
256
6
ByLayer
370
18
48
1
60
0
100
AcDbLine
10
57.56512
20
-1.385558
30
0
11
57.666688
21
-0.282691
31
0
39
0
210
0
220
0
230
1
0
LINE
5
86
100
AcDbEntity
8
1
62
256
6
ByLayer
370
18
48
1
60
0
100
AcDbLine
10
57.779285
20
9.48729
30
0
11
57.988115
21
9.282144
31
0
39
0
210
0
220
0
230
1
0
LINE
5
87
100
AcDbEntity
8
1
62
256
6
ByLayer
370
18
48
1
60
0
100
AcDbLine
10
57.5958
20
1.983794
30
0
11
57.988115
21
9.282144
31
0
39
0
210
0
220
0
230
1
0
LINE
5
88
100
AcDbEntity
8
1
62
256
6
ByLayer
370
13
48
1
60
0
100
AcDbLine
10
53.800059
20
5.810229
30
0
11
54.153083
21
5.195419
31
0
39
0
210
0
220
0
230
1
0
LINE
5
89
100
AcDbEntity
8
1
62
256
6
ByLayer
370
13
48
1
60
0
100
AcDbLine
10
57.258088
20
-0.212114
30
0
11
57.450657
21
-0.547483
31
0
39
0
210
0
220
0
230
1
0
LINE
5
8A
100
AcDbEntity
8
1
62
256
6
ByLayer
370
18
48
1
60
0
100
AcDbLine
10
57.50284
20
-0.254425
30
0
11
57.988115
21
-9.282144
31
0
39
0
210
0
220
0
230
1
0
LINE
5
8B
100
AcDbEntity
8
1
62
256
6
ByLayer
370
18
48
1
60
0
100
AcDbLine
10
57.450657
20
-0.547483
30
0
11
57.434978
21
-0.242662
31
0
39
0
210
0
220
0
230
1
0
LINE
5
8C
100
AcDbEntity
8
1
62
256
6
ByLayer
370
18
48
1
60
0
100
AcDbLine
10
57.779285
20
-9.48729
30
0
11
57.988115
21
-9.282144
31
0
39
0
210
0
220
0
230
1
0
LINE
5
8D
100
AcDbEntity
8
1
62
256
6
ByLayer
370
18
48
1
60
0
100
AcDbLine
10
57.988115
20
-9.282144
30
0
11
57.767331
21
-8.967094
31
0
39
0
210
0
220
0
230
1
0
LINE
5
8E
100
AcDbEntity
8
1
62
256
6
ByLayer
370
18
48
1
60
0
100
AcDbLine
10
57.767331
20
-8.967094
30
0
11
57.687552
21
-8.96386
31
0
39
0
210
0
220
0
230
1
0
LINE
5
8F
100
AcDbEntity
8
1
62
256
6
ByLayer
370
18
48
1
60
0
100
AcDbLine
10
57.767331
20
-8.967094
30
0
11
57.449298
21
-2.917406
31
0
39
0
210
0
220
0
230
1
0
LINE
5
90
100
AcDbEntity
8
1
62
256
6
ByLayer
370
18
48
1
60
0
100
AcDbLine
10
56.813276
20
-5.137446
30
0
11
57.449298
21
-2.917406
31
0
39
0
210
0
220
0
230
1
0
LINE
5
91
100
AcDbEntity
8
1
62
256
6
ByLayer
370
18
48
1
60
0
100
AcDbLine
10
57.449298
20
-2.917406
30
0
11
57.451335
21
-2.878334
31
0
39
0
210
0
220
0
230
1
0
LINE
5
92
100
AcDbEntity
8
1
62
256
6
ByLayer
370
13
48
1
60
0
100
AcDbLine
10
56.885505
20
-1.877678
30
0
11
52.676789
21
-1.060017
31
0
39
0
210
0
220
0
230
1
0
LINE
5
93
100
AcDbEntity
8
1
62
256
6
ByLayer
370
18
48
1
60
0
100
AcDbLine
10
57.988115
20
-0.29753
30
0
11
57.767331
21
1.419498
31
0
39
0
210
0
220
0
230
1
0
LINE
5
94
100
AcDbEntity
8
1
62
256
6
ByLayer
370
18
48
1
60
0
100
AcDbLine
10
57.767331
20
1.419498
30
0
11
57.687552
21
1.691822
31
0
39
0
210
0
220
0
230
1
0
LINE
5
95
100
AcDbEntity
8
1
62
256
6
ByLayer
370
18
48
1
60
0
100
AcDbLine
10
57.779285
20
-0.25699
30
0
11
57.988115
21
-0.29753
31
0
39
0
210
0
220
0
230
1
0
LINE
5
96
100
AcDbEntity
8
1
62
256
6
ByLayer
370
18
48
1
60
0
100
AcDbLine
10
53.848923
20
0.439571
30
0
11
56.765648
21
-0.127084
31
0
39
0
210
0
220
0
230
1
0
LINE
5
97
100
AcDbEntity
8
1
62
256
6
ByLayer
370
18
48
1
60
0
100
AcDbLine
10
57.719596
20
-0.291807
30
0
11
56.765648
21
-0.127084
31
0
39
0
210
0
220
0
230
1
0
LINE
5
98
100
AcDbEntity
8
1
62
256
6
ByLayer
370
18
48
1
60
0
100
AcDbLine
10
57.719596
20
-0.291807
30
0
11
57.988115
21
-0.29753
31
0
39
0
210
0
220
0
230
1
0
LINE
5
99
100
AcDbEntity
8
SK1
62
256
6
ByLayer
370
18
48
1
60
0
100
AcDbLine
10
0
20
9.525
30
0
11
0
21
0
31
0
39
0
210
0
220
0
230
1
0
LINE
5
9B
100
AcDbEntity
8
SK1
62
256
6
ByLayer
370
18
48
1
60
0
100
AcDbLine
10
0
20
0
30
0
11
0
21
-9.525
31
0
39
0
210
0
220
0
230
1
0
LINE
5
9C
100
AcDbEntity
8
SK1
62
256
6
ByLayer
370
18
48
1
60
0
100
AcDbLine
10
-31.58
20
7.62
30
0
11
-33.485
21
9.525
31
0
39
0
210
0
220
0
230
1
0
LINE
5
9D
100
AcDbEntity
8
SK1
62
256
6
ByLayer
370
18
48
1
60
0
100
AcDbLine
10
-20.02
20
7.62
30
0
11
-18.115
21
9.525
31
0
39
0
210
0
220
0
230
1
0
LINE
5
9E
100
AcDbEntity
8
SK1
62
256
6
ByLayer
370
18
48
1
60
0
100
AcDbLine
10
-31.58
20
7.62
30
0
11
-20.02
21
7.62
31
0
39
0
210
0
220
0
230
1
0
LINE
5
9F
100
AcDbEntity
8
SK1
62
256
6
ByLayer
370
18
48
1
60
0
100
AcDbLine
10
-50.6
20
9.525
30
0
11
-50.6
21
-9.525
31
0
39
0
210
0
220
0
230
1
0
LINE
5
A0
100
AcDbEntity
8
SK1
62
256
6
ByLayer
370
18
48
1
60
0
100
AcDbLine
10
-51.6
20
-8.525
30
0
11
-51.6
21
8.525
31
0
39
0
210
0
220
0
230
1
0
LINE
5
A1
100
AcDbEntity
8
1
62
256
6
ByLayer
370
18
48
1
60
0
100
AcDbLine
10
4.293096
20
9.525
30
0
11
0
21
9.525
31
0
39
0
210
0
220
0
230
1
0
LINE
5
A2
100
AcDbEntity
8
1
62
256
6
ByLayer
370
18
48
1
60
0
100
AcDbLine
10
0
20
-9.525
30
0
11
4.293096
21
-9.525
31
0
39
0
210
0
220
0
230
1
0
LINE
5
A3
100
AcDbEntity
8
SK1
62
256
6
ByLayer
370
18
48
1
60
0
100
AcDbLine
10
0
20
9.525
30
0
11
-18.115
21
9.525
31
0
39
0
210
0
220
0
230
1
0
LINE
5
A4
100
AcDbEntity
8
SK1
62
256
6
ByLayer
370
18
48
1
60
0
100
AcDbLine
10
-33.485
20
9.525
30
0
11
-50.6
21
9.525
31
0
39
0
210
0
220
0
230
1
0
LINE
5
A5
100
AcDbEntity
8
SK1
62
256
6
ByLayer
370
18
48
1
60
0
100
AcDbLine
10
-50.6
20
-9.525
30
0
11
0
21
-9.525
31
0
39
0
210
0
220
0
230
1
0
LINE
5
A6
100
AcDbEntity
8
SK1
62
256
6
ByLayer
370
18
48
1
60
0
100
AcDbLine
10
-51.6
20
-8.525
30
0
11
-50.6
21
-9.525
31
0
39
0
210
0
220
0
230
1
0
LINE
5
A7
100
AcDbEntity
8
SK1
62
256
6
ByLayer
370
18
48
1
60
0
100
AcDbLine
10
-50.6
20
9.525
30
0
11
-51.6
21
8.525
31
0
39
0
210
0
220
0
230
1
0
LINE
5
A8
100
AcDbEntity
8
SK2
62
256
6
ByLayer
370
18
48
1
60
0
100
AcDbLine
10
-58.85
20
9.525
30
0
11
-58.85
21
-34.229998
31
0
39
0
210
0
220
0
230
1
0
LINE
5
AA
100
AcDbEntity
8
SK2
62
256
6
ByLayer
370
18
48
1
60
0
100
AcDbLine
10
-52.1875
20
9.525
30
0
11
-60.85
21
9.525
31
0
39
0
210
0
220
0
230
1
0
LINE
5
AB
100
AcDbEntity
8
SK2
62
256
6
ByLayer
370
18
48
1
60
0
100
AcDbLine
10
-52.1875
20
-9.525
30
0
11
-60.85
21
-9.525
31
0
39
0
210
0
220
0
230
1
0
LINE
5
AC
100
AcDbEntity
8
1
62
256
6
ByLayer
370
18
48
1
60
1
100
AcDbLine
10
-58.85
20
9.525
30
0
11
-58.389216
21
6.025002
31
0
39
0
210
0
220
0
230
1
0
LINE
5
AD
100
AcDbEntity
8
1
62
256
6
ByLayer
370
18
48
1
60
1
100
AcDbLine
10
-58.389216
20
6.025002
30
0
11
-59.310784
21
6.024998
31
0
39
0
210
0
220
0
230
1
0
LINE
5
AE
100
AcDbEntity
8
1
62
256
6
ByLayer
370
18
48
1
60
1
100
AcDbLine
10
-59.310784
20
6.024998
30
0
11
-58.85
21
9.525
31
0
39
0
210
0
220
0
230
1
0
LINE
5
AF
100
AcDbEntity
8
1
62
256
6
ByLayer
370
18
48
1
60
1
100
AcDbLine
10
-58.85
20
-9.525
30
0
11
-59.310784
21
-6.025002
31
0
39
0
210
0
220
0
230
1
0
LINE
5
B0
100
AcDbEntity
8
1
62
256
6
ByLayer
370
18
48
1
60
1
100
AcDbLine
10
-59.310784
20
-6.025002
30
0
11
-58.389216
21
-6.024998
31
0
39
0
210
0
220
0
230
1
0
LINE
5
B1
100
AcDbEntity
8
1
62
256
6
ByLayer
370
18
48
1
60
1
100
AcDbLine
10
-58.389216
20
-6.024998
30
0
11
-58.85
21
-9.525
31
0
39
0
210
0
220
0
230
1
0
LINE
5
B2
100
AcDbEntity
8
2
62
256
6
ByLayer
370
18
48
1
60
0
100
AcDbLine
10
70
20
-9.5251
30
0
11
70
21
34.230098
31
0
39
0
210
0
220
0
230
1
0
LINE
5
B4
100
AcDbEntity
8
2
62
256
6
ByLayer
370
18
48
1
60
0
100
AcDbLine
10
59.5875
20
9.5251
30
0
11
72
21
9.5251
31
0
39
0
210
0
220
0
230
1
0
LINE
5
B5
100
AcDbEntity
8
2
62
256
6
ByLayer
370
18
48
1
60
0
100
AcDbLine
10
59.5875
20
-9.5251
30
0
11
72
21
-9.5251
31
0
39
0
210
0
220
0
230
1
0
LINE
5
B6
100
AcDbEntity
8
1
62
256
6
ByLayer
370
18
48
1
60
1
100
AcDbLine
10
70
20
9.5251
30
0
11
70.460784
21
6.025102
31
0
39
0
210
0
220
0
230
1
0
LINE
5
B7
100
AcDbEntity
8
1
62
256
6
ByLayer
370
18
48
1
60
1
100
AcDbLine
10
70.460784
20
6.025102
30
0
11
69.539216
21
6.025098
31
0
39
0
210
0
220
0
230
1
0
LINE
5
B8
100
AcDbEntity
8
1
62
256
6
ByLayer
370
18
48
1
60
1
100
AcDbLine
10
69.539216
20
6.025098
30
0
11
70
21
9.5251
31
0
39
0
210
0
220
0
230
1
0
LINE
5
B9
100
AcDbEntity
8
1
62
256
6
ByLayer
370
18
48
1
60
1
100
AcDbLine
10
70
20
-9.5251
30
0
11
69.539216
21
-6.025102
31
0
39
0
210
0
220
0
230
1
0
LINE
5
BA
100
AcDbEntity
8
1
62
256
6
ByLayer
370
18
48
1
60
1
100
AcDbLine
10
69.539216
20
-6.025102
30
0
11
70.460784
21
-6.025098
31
0
39
0
210
0
220
0
230
1
0
LINE
5
BB
100
AcDbEntity
8
1
62
256
6
ByLayer
370
18
48
1
60
1
100
AcDbLine
10
70.460784
20
-6.025098
30
0
11
70
21
-9.5251
31
0
39
0
210
0
220
0
230
1
0
LINE
5
BC
100
AcDbEntity
8
SK2
62
256
6
ByLayer
370
18
48
1
60
0
100
AcDbLine
10
58
20
-40.262559
30
0
11
-51.6
21
-40.262559
31
0
39
0
210
0
220
0
230
1
0
LINE
5
BD
100
AcDbEntity
8
SK2
62
256
6
ByLayer
370
18
48
1
60
0
100
AcDbLine
10
-51.6
20
-10.1125
30
0
11
-51.6
21
-42.262559
31
0
39
0
210
0
220
0
230
1
0
LINE
5
BE
100
AcDbEntity
8
SK2
62
256
6
ByLayer
370
18
48
1
60
0
100
AcDbLine
10
58
20
-11.1126
30
0
11
58
21
-42.262559
31
0
39
0
210
0
220
0
230
1
0
LINE
5
BF
100
AcDbEntity
8
1
62
256
6
ByLayer
370
18
48
1
60
1
100
AcDbLine
10
-51.6
20
-40.262559
30
0
11
-48.100002
21
-39.801775
31
0
39
0
210
0
220
0
230
1
0
LINE
5
C0
100
AcDbEntity
8
1
62
256
6
ByLayer
370
18
48
1
60
1
100
AcDbLine
10
-48.100002
20
-39.801775
30
0
11
-48.099998
21
-40.723343
31
0
39
0
210
0
220
0
230
1
0
LINE
5
C1
100
AcDbEntity
8
1
62
256
6
ByLayer
370
18
48
1
60
1
100
AcDbLine
10
-48.099998
20
-40.723343
30
0
11
-51.6
21
-40.262559
31
0
39
0
210
0
220
0
230
1
0
LINE
5
C2
100
AcDbEntity
8
1
62
256
6
ByLayer
370
18
48
1
60
1
100
AcDbLine
10
58
20
-40.262559
30
0
11
54.500002
21
-40.723343
31
0
39
0
210
0
220
0
230
1
0
LINE
5
C3
100
AcDbEntity
8
1
62
256
6
ByLayer
370
18
48
1
60
1
100
AcDbLine
10
54.500002
20
-40.723343
30
0
11
54.499998
21
-39.801775
31
0
39
0
210
0
220
0
230
1
0
LINE
5
C4
100
AcDbEntity
8
1
62
256
6
ByLayer
370
18
48
1
60
1
100
AcDbLine
10
54.499998
20
-39.801775
30
0
11
58
21
-40.262559
31
0
39
0
210
0
220
0
230
1
0
LINE
5
111
100
AcDbEntity
8
1
62
256
6
ByLayer
370
18
48
1
60
1
100
AcDbLine
10
-58.85
20
9.525
30
0
11
-58.389216
21
6.025002
31
0
39
0
210
0
220
0
230
1
0
LINE
5
112
100
AcDbEntity
8
1
62
256
6
ByLayer
370
18
48
1
60
1
100
AcDbLine
10
-58.389216
20
6.025002
30
0
11
-59.310784
21
6.024998
31
0
39
0
210
0
220
0
230
1
0
LINE
5
113
100
AcDbEntity
8
1
62
256
6
ByLayer
370
18
48
1
60
1
100
AcDbLine
10
-59.310784
20
6.024998
30
0
11
-58.85
21
9.525
31
0
39
0
210
0
220
0
230
1
0
LINE
5
115
100
AcDbEntity
8
1
62
256
6
ByLayer
370
18
48
1
60
1
100
AcDbLine
10
-58.85
20
-9.525
30
0
11
-59.310784
21
-6.025002
31
0
39
0
210
0
220
0
230
1
0
LINE
5
116
100
AcDbEntity
8
1
62
256
6
ByLayer
370
18
48
1
60
1
100
AcDbLine
10
-59.310784
20
-6.025002
30
0
11
-58.389216
21
-6.024998
31
0
39
0
210
0
220
0
230
1
0
LINE
5
117
100
AcDbEntity
8
1
62
256
6
ByLayer
370
18
48
1
60
1
100
AcDbLine
10
-58.389216
20
-6.024998
30
0
11
-58.85
21
-9.525
31
0
39
0
210
0
220
0
230
1
0
LINE
5
11B
100
AcDbEntity
8
1
62
256
6
ByLayer
370
18
48
1
60
1
100
AcDbLine
10
70
20
9.5251
30
0
11
70.460784
21
6.025102
31
0
39
0
210
0
220
0
230
1
0
LINE
5
11C
100
AcDbEntity
8
1
62
256
6
ByLayer
370
18
48
1
60
1
100
AcDbLine
10
70.460784
20
6.025102
30
0
11
69.539216
21
6.025098
31
0
39
0
210
0
220
0
230
1
0
LINE
5
11D
100
AcDbEntity
8
1
62
256
6
ByLayer
370
18
48
1
60
1
100
AcDbLine
10
69.539216
20
6.025098
30
0
11
70
21
9.5251
31
0
39
0
210
0
220
0
230
1
0
LINE
5
11F
100
AcDbEntity
8
1
62
256
6
ByLayer
370
18
48
1
60
1
100
AcDbLine
10
70
20
-9.5251
30
0
11
69.539216
21
-6.025102
31
0
39
0
210
0
220
0
230
1
0
LINE
5
120
100
AcDbEntity
8
1
62
256
6
ByLayer
370
18
48
1
60
1
100
AcDbLine
10
69.539216
20
-6.025102
30
0
11
70.460784
21
-6.025098
31
0
39
0
210
0
220
0
230
1
0
LINE
5
121
100
AcDbEntity
8
1
62
256
6
ByLayer
370
18
48
1
60
1
100
AcDbLine
10
70.460784
20
-6.025098
30
0
11
70
21
-9.5251
31
0
39
0
210
0
220
0
230
1
0
LINE
5
124
100
AcDbEntity
8
1
62
256
6
ByLayer
370
18
48
1
60
1
100
AcDbLine
10
-51.6
20
-40.262559
30
0
11
-48.100002
21
-39.801775
31
0
39
0
210
0
220
0
230
1
0
LINE
5
125
100
AcDbEntity
8
1
62
256
6
ByLayer
370
18
48
1
60
1
100
AcDbLine
10
-48.100002
20
-39.801775
30
0
11
-48.099998
21
-40.723343
31
0
39
0
210
0
220
0
230
1
0
LINE
5
126
100
AcDbEntity
8
1
62
256
6
ByLayer
370
18
48
1
60
1
100
AcDbLine
10
-48.099998
20
-40.723343
30
0
11
-51.6
21
-40.262559
31
0
39
0
210
0
220
0
230
1
0
LINE
5
128
100
AcDbEntity
8
1
62
256
6
ByLayer
370
18
48
1
60
1
100
AcDbLine
10
58
20
-40.262559
30
0
11
54.500002
21
-40.723343
31
0
39
0
210
0
220
0
230
1
0
LINE
5
129
100
AcDbEntity
8
1
62
256
6
ByLayer
370
18
48
1
60
1
100
AcDbLine
10
54.500002
20
-40.723343
30
0
11
54.499998
21
-39.801775
31
0
39
0
210
0
220
0
230
1
0
LINE
5
12A
100
AcDbEntity
8
1
62
256
6
ByLayer
370
18
48
1
60
1
100
AcDbLine
10
54.499998
20
-39.801775
30
0
11
58
21
-40.262559
31
0
39
0
210
0
220
0
230
1
0
MTEXT
5
10D
100
AcDbEntity
8
SK2
62
256
6
ByLayer
370
18
48
1
60
0
100
AcDbMText
10
-60.414634
20
-32.295154
30
0
210
0
220
0
230
1
1
%%c
40
3.5
41
0
44
1.084337
50
90
71
7
72
5
7
iso_b_vert
0
MTEXT
5
110
100
AcDbEntity
8
SK2
62
256
6
ByLayer
370
18
48
1
60
0
100
AcDbMText
10
-60.414634
20
-25.322498
30
0
210
0
220
0
230
1
1
\W0.6864;19.05
40
3.5
41
0
44
1.084337
50
90
71
7
72
5
7
iso_b_vert
0
MTEXT
5
119
100
AcDbEntity
8
2
62
256
6
ByLayer
370
18
48
1
60
0
100
AcDbMText
10
68.435366
20
17.459944
30
0
210
0
220
0
230
1
1
%%c
40
3.5
41
0
44
1.084337
50
90
71
7
72
5
7
iso_b_vert
0
MTEXT
5
11A
100
AcDbEntity
8
2
62
256
6
ByLayer
370
18
48
1
60
0
100
AcDbMText
10
68.435366
20
24.4326
30
0
210
0
220
0
230
1
1
\W0.6864;19.05
40
3.5
41
0
44
1.084337
50
90
71
7
72
5
7
iso_b_vert
0
MTEXT
5
123
100
AcDbEntity
8
SK2
62
256
6
ByLayer
370
18
48
1
60
0
100
AcDbMText
10
-1.591999
20
-39.229925
30
0
210
0
220
0
230
1
1
\W0.6864;109.6
40
3.5
41
0
44
1.084337
50
0
71
7
72
5
7
iso_b_vert
0
MTEXT
5
12C
100
AcDbEntity
8
SK6
62
256
6
ByLayer
370
18
48
1
60
0
100
AcDbMText
10
-20.469576
20
-62.114886
30
0
210
0
220
0
230
1
1
\W0.7206;2P342-1905-CMB      M2CM
40
3
41
0
44
1.084337
50
0
71
7
72
5
7
iso_b_vert
0
HATCH
5
114
100
AcDbEntity
8
SK2
62
256
6
ByLayer
370
13
48
1
60
0
100
AcDbHatch
10
0
20
0
30
0
210
0
220
0
230
1
2
ANSI31
70
0
71
0
91
1
92
5
93
3
72
1
10
-58.8500000000001
20
9.52499999999995
11
-58.3892162584473
21
6.02500169255313
72
1
10
-58.3892162584473
20
6.02500169255313
11
-59.3107837415528
21
6.02499830744677
72
1
10
-59.3107837415528
20
6.02499830744677
11
-58.8500000000001
21
9.52499999999995
97
0
75
0
76
1
52
0
41
0.0062
77
0
78
1
53
45
43
0
44
0
45
-0.0139193969876572
46
0.0139193969876572
79
0
47
0
98
1
10
0
20
0
0
HATCH
5
118
100
AcDbEntity
8
SK2
62
256
6
ByLayer
370
13
48
1
60
0
100
AcDbHatch
10
0
20
0
30
0
210
0
220
0
230
1
2
ANSI31
70
0
71
0
91
1
92
5
93
3
72
1
10
-58.8500000000001
20
-9.52500000000003
11
-59.3107837415528
21
-6.02500169255322
72
1
10
-59.3107837415528
20
-6.02500169255322
11
-58.3892162584473
21
-6.02499830744685
72
1
10
-58.3892162584473
20
-6.02499830744685
11
-58.8500000000001
21
-9.52500000000003
97
0
75
0
76
1
52
0
41
0.0062
77
0
78
1
53
45
43
0
44
0
45
-0.0139193969876572
46
0.0139193969876572
79
0
47
0
98
1
10
0
20
0
0
HATCH
5
11E
100
AcDbEntity
8
2
62
256
6
ByLayer
370
13
48
1
60
0
100
AcDbHatch
10
0
20
0
30
0
210
0
220
0
230
1
2
ANSI31
70
0
71
0
91
1
92
5
93
3
72
1
10
70
20
9.52509999999981
11
70.4607837415528
21
6.02510169255299
72
1
10
70.4607837415528
20
6.02510169255299
11
69.5392162584472
21
6.02509830744663
72
1
10
69.5392162584472
20
6.02509830744663
11
70
21
9.52509999999981
97
0
75
0
76
1
52
0
41
0.0062
77
0
78
1
53
45
43
0
44
0
45
-0.0139193969876572
46
0.0139193969876572
79
0
47
0
98
1
10
0
20
0
0
HATCH
5
122
100
AcDbEntity
8
2
62
256
6
ByLayer
370
13
48
1
60
0
100
AcDbHatch
10
0
20
0
30
0
210
0
220
0
230
1
2
ANSI31
70
0
71
0
91
1
92
5
93
3
72
1
10
70
20
-9.52510000000021
11
69.5392162584472
21
-6.02510169255339
72
1
10
69.5392162584472
20
-6.02510169255339
11
70.4607837415528
21
-6.02509830744702
72
1
10
70.4607837415528
20
-6.02509830744702
11
70
21
-9.52510000000021
97
0
75
0
76
1
52
0
41
0.0062
77
0
78
1
53
45
43
0
44
0
45
-0.0139193969876572
46
0.0139193969876572
79
0
47
0
98
1
10
0
20
0
0
HATCH
5
127
100
AcDbEntity
8
SK2
62
256
6
ByLayer
370
13
48
1
60
0
100
AcDbHatch
10
0
20
0
30
0
210
0
220
0
230
1
2
ANSI31
70
0
71
0
91
1
92
5
93
3
72
1
10
-51.6
20
-40.2625589808152
11
-48.1000016925532
21
-39.8017752392624
72
1
10
-48.1000016925532
20
-39.8017752392624
11
-48.0999983074468
21
-40.7233427223679
72
1
10
-48.0999983074468
20
-40.7233427223679
11
-51.6
21
-40.2625589808152
97
0
75
0
76
1
52
0
41
0.0062
77
0
78
1
53
45
43
0
44
0
45
-0.0139193969876572
46
0.0139193969876572
79
0
47
0
98
1
10
0
20
0
0
HATCH
5
12B
100
AcDbEntity
8
SK2
62
256
6
ByLayer
370
13
48
1
60
0
100
AcDbHatch
10
0
20
0
30
0
210
0
220
0
230
1
2
ANSI31
70
0
71
0
91
1
92
5
93
3
72
1
10
58
20
-40.2625589808152
11
54.5000016925532
21
-40.7233427223679
72
1
10
54.5000016925532
20
-40.7233427223679
11
54.4999983074468
21
-39.8017752392624
72
1
10
54.4999983074468
20
-39.8017752392624
11
58
21
-40.2625589808152
97
0
75
0
76
1
52
0
41
0.0062
77
0
78
1
53
45
43
0
44
0
45
-0.0139193969876572
46
0.0139193969876572
79
0
47
0
98
1
10
0
20
0
0
DIMENSION
5
12F
100
AcDbEntity
8
2
62
256
6
ByLayer
370
18
48
1
60
0
100
AcDbDimension
2
_U0
10
16.72
20
-24.262559
30
0
11
37.36
21
-24.262559
31
0
70
32
71
1
72
1
41
1
210
0
220
0
230
1
3
Standard
100
AcDbAlignedDimension
13
58
23
-9.5251
33
0
14
16.72
24
-9.5251
34
0
50
0
100
AcDbRotatedDimension
1001
ACAD
1000
DSTYLE
1002
{
1070
   371
1070
    13
1070
   372
1070
    13
1070
   170
1070
     0
1070
   144
1040
1.0
1070
   277
1070
     2
1070
   284
1070
     8
1070
   278
1070
    46
1070
   146
1040
1.0
1070
   345
1005
16
1070
   347
1005
16
1070
   346
1005
16
1070
   344
1005
0
1070
   343
1005
0
1070
   172
1070
     1
1070
    76
1070
     0
1070
    75
1070
     0
1070
   282
1070
     0
1070
   281
1070
     0
1070
    71
1070
     0
1070
    74
1070
     0
1070
   279
1070
     0
1070
   173
1070
     1
1070
   340
1005
10E
1070
   271
1070
     2
1070
   272
1070
     2
1070
    77
1070
     1
1070
    73
1070
     1
1070
   171
1070
     3
1070
   274
1070
     4
1070
   177
1070
     2
1070
   176
1070
     2
1070
   178
1070
     2
1070
    78
1070
     8
1070
    48
1040
-0.1
1070
    41
1040
3.5
1070
   147
1040
1.75
1070
    42
1040
1.5875
1070
    44
1040
2.0
1070
   140
1040
3.5
1002
}
1001
ACAD_DSTYLE_DIM_LINETYPE
1070
   380
1005
16
1001
ACAD_DSTYLE_DIM_EXT1_LINETYPE
1070
   381
1005
16
1001
ACAD_DSTYLE_DIM_EXT2_LINETYPE
1070
   382
1005
16
0
ENDSEC
0
SECTION
2
OBJECTS
0
DICTIONARY
5
1b8
330
0
100
AcDbDictionary
280
0
281
1
3
ACAD_GROUP
350
1b9
3
ACAD_MLINESTYLE
350
1ba
0
DICTIONARY
5
1b9
330
0
100
AcDbDictionary
280
0
281
1
0
DICTIONARY
5
1ba
330
0
100
AcDbDictionary
280
0
281
1
3
Standard
350
18
0
MLINESTYLE
5
18
330
1ba
100
AcDbMlineStyle
2
Standard
70
0
3

62
256
51
90
52
90
71
2
49
-0.5
62
256
6
ByLayer
49
0.5
62
256
6
ByLayer
0
RASTERVARIABLES
5
1a6
330

100
AcDbRasterVariables
90
0
70
1
71
1
72
1
0
ENDSEC
0
EOF
