0
SECTION
2
HEADER
9
$ACADVER
1
AC1015
9
$DWGCODEPAGE
3
ANSI_1252
9
$HANDSEED
5
1cb
9
$ANGBASE
50
0
9
$ANGDIR
70
0
9
$ATTMODE
70
1
9
$AUNITS
70
0
9
$AUPREC
70
0
9
$CECOLOR
62
256
9
$CELTSCALE
40
1
9
$CELTYPE
6
ByLayer
9
$CELWEIGHT
370
18
9
$CLAYER
8
0
9
$CMLJUST
70
0
9
$CMLSCALE
40
1
9
$CMLSTYLE
2
Standard
9
$DIMSTYLE
2
Standard
9
$TEXTSIZE
40
0.2
9
$TEXTSTYLE
7
Standard
9
$LUNITS
70
2
9
$LUPREC
70
4
9
$EXTNAMES
290
1
9
$INSUNITS
70
4
9
$LTSCALE
40
1
9
$LWDISPLAY
290
1
9
$PDMODE
70
0
9
$PDSIZE
40
0
9
$PLINEGEN
70
0
0
ENDSEC
0
SECTION
2
CLASSES
0
CLASS
1
RASTERVARIABLES
2
AcDbRasterVariables
3
ISM
90
0
280
0
281
0
0
ENDSEC
0
SECTION
2
TABLES
0
TABLE
2
VPORT
5
1c1
100
AcDbSymbolTable
0
VPORT
5
1
100
AcDbSymbolTableRecord
100
AcDbViewportTableRecord
2
*Active
70
0
10
0
20
0
11
1
21
1
12
-1
22
1
13
0
23
0
14
0.5
24
0.5
15
10
25
10
16
0
26
0
36
1
17
0
27
0
37
0
0
ENDTAB
0
TABLE
2
LTYPE
5
1c2
100
AcDbSymbolTable
0
LTYPE
5
14
100
AcDbSymbolTableRecord
100
AcDbLinetypeTableRecord
70
0
2
ByBlock
3

72
65
73
0
40
0
0
LTYPE
5
15
100
AcDbSymbolTableRecord
100
AcDbLinetypeTableRecord
70
0
2
ByLayer
3

72
65
73
0
40
0
0
LTYPE
5
16
100
AcDbSymbolTableRecord
100
AcDbLinetypeTableRecord
70
0
2
Continuous
3
Solid line
72
65
73
0
40
0
0
LTYPE
5
6E
100
AcDbSymbolTableRecord
100
AcDbLinetypeTableRecord
70
0
2
CENTER
3
____ _ ____ _ ____ _ ____
72
65
73
4
40
47.5
49
22
74
0
49
-8.5
74
0
49
8.5
74
0
49
-8.5
74
0
0
LTYPE
5
6F
100
AcDbSymbolTableRecord
100
AcDbLinetypeTableRecord
70
0
2
DASHED
3
__ __ __ __ __ __ __ __ __
72
65
73
2
40
25.72
49
12.86
74
0
49
-12.86
74
0
0
ENDTAB
0
TABLE
2
LAYER
5
1c3
100
AcDbSymbolTable
0
LAYER
5
10
100
AcDbSymbolTableRecord
100
AcDbLayerTableRecord
2
0
70
0
62
7
6
Continuous
290
1
370
-3
390
0
0
LAYER
5
71
100
AcDbSymbolTableRecord
100
AcDbLayerTableRecord
2
81
70
0
62
-3
6
Continuous
290
1
370
-3
390
0
0
LAYER
5
73
100
AcDbSymbolTableRecord
100
AcDbLayerTableRecord
2
80
70
0
62
-6
6
Continuous
290
1
370
-3
390
0
0
LAYER
5
75
100
AcDbSymbolTableRecord
100
AcDbLayerTableRecord
2
1
70
0
62
4
6
Continuous
290
1
370
-3
390
0
0
LAYER
5
79
100
AcDbSymbolTableRecord
100
AcDbLayerTableRecord
2
4
70
0
62
-2
6
CENTER
290
1
370
-3
390
0
0
LAYER
5
B3
100
AcDbSymbolTableRecord
100
AcDbLayerTableRecord
2
2
70
0
62
7
6
Continuous
290
1
370
-3
390
0
0
LAYER
5
137
100
AcDbSymbolTableRecord
100
AcDbLayerTableRecord
2
Defpoints
70
0
62
7
6
Continuous
290
0
370
-3
390
0
0
LAYER
5
1ad
100
AcDbSymbolTableRecord
100
AcDbLayerTableRecord
2
SK4
70
0
62
2
6
CENTER
290
1
370
-3
390
0
0
LAYER
5
1ae
100
AcDbSymbolTableRecord
100
AcDbLayerTableRecord
2
SK1
70
0
62
4
6
Continuous
290
1
370
-3
390
0
0
LAYER
5
1af
100
AcDbSymbolTableRecord
100
AcDbLayerTableRecord
2
SK2
70
0
62
7
6
Continuous
290
1
370
-3
390
0
0
LAYER
5
1b0
100
AcDbSymbolTableRecord
100
AcDbLayerTableRecord
2
SK6
70
0
62
5
6
Continuous
290
1
370
-3
390
0
0
ENDTAB
0
TABLE
2
STYLE
5
1c4
100
AcDbSymbolTable
0
STYLE
5
11
100
AcDbSymbolTableRecord
100
AcDbTextStyleTableRecord
2
Standard
3
txt
70
0
71
0
40
0
41
1
42
0
50
0
0
STYLE
5
113
100
AcDbSymbolTableRecord
100
AcDbTextStyleTableRecord
2
iso_b_vert
3
simplex.shx
70
0
71
0
40
0
41
1
42
0
50
0
0
STYLE
5
114
100
AcDbSymbolTableRecord
100
AcDbTextStyleTableRecord
2
DWGDirectTextStyle
3
simplex
70
0
71
0
40
0
41
1
42
0
50
0
0
ENDTAB
0
TABLE
2
DIMSTYLE
5
1c5
100
AcDbSymbolTable
100
AcDbDimStyleTable
0
DIMSTYLE
105
27
100
AcDbSymbolTableRecord
100
AcDbDimStyleTableRecord
2
Standard
70
0
3
<>
41
0.18
42
0.0625
44
0.18
140
0.18
147
0.09
73
0
74
0
77
1
271
2
275
0
278
52
280
0
340
11
0
ENDTAB
0
TABLE
2
VIEW
5
1c6
100
AcDbSymbolTable
0
ENDTAB
0
TABLE
2
UCS
5
1c7
100
AcDbSymbolTable
0
ENDTAB
0
TABLE
2
APPID
5
1c8
100
AcDbSymbolTable
0
APPID
5
12
100
AcDbSymbolTableRecord
100
AcDbRegAppTableRecord
2
ACAD
70
0
0
APPID
5
133
100
AcDbSymbolTableRecord
100
AcDbRegAppTableRecord
2
ACAD_DSTYLE_DIMBREAK
70
0
0
APPID
5
16C
100
AcDbSymbolTableRecord
100
AcDbRegAppTableRecord
2
ACAD_DSTYLE_DIM_LINETYPE
70
0
0
APPID
5
16D
100
AcDbSymbolTableRecord
100
AcDbRegAppTableRecord
2
ACAD_DSTYLE_DIM_EXT1_LINETYPE
70
0
0
APPID
5
16E
100
AcDbSymbolTableRecord
100
AcDbRegAppTableRecord
2
ACAD_DSTYLE_DIM_EXT2_LINETYPE
70
0
0
APPID
5
1A9
100
AcDbSymbolTableRecord
100
AcDbRegAppTableRecord
2
ACAD_MLEADERVER
70
0
0
ENDTAB
0
TABLE
2
BLOCK_RECORD
5
1c9
100
AcDbSymbolTable
0
BLOCK_RECORD
5
1F
100
AcDbSymbolTableRecord
100
AcDbBlockTableRecord
2
*Model_Space
340
0
70
0
0
BLOCK_RECORD
5
1B
100
AcDbSymbolTableRecord
100
AcDbBlockTableRecord
2
*Paper_Space
340
0
70
0
0
BLOCK_RECORD
5
23
100
AcDbSymbolTableRecord
100
AcDbBlockTableRecord
2
*Paper_Space0
340
0
70
0
0
BLOCK_RECORD
5
138
100
AcDbSymbolTableRecord
100
AcDbBlockTableRecord
2
*D1
340
0
70
0
0
BLOCK_RECORD
5
145
100
AcDbSymbolTableRecord
100
AcDbBlockTableRecord
2
_U0
340
0
70
0
0
ENDTAB
0
ENDSEC
0
SECTION
2
BLOCKS
0
BLOCK
5
20
100
AcDbEntity
8
0
100
AcDbBlockBegin
2
*Model_Space
70
0
10
0
20
0
30
0
3
*Model_Space
0
ENDBLK
5
21
100
AcDbEntity
8
0
100
AcDbBlockEnd
0
BLOCK
5
1C
100
AcDbEntity
8
0
100
AcDbBlockBegin
2
*Paper_Space
70
0
10
0
20
0
30
0
3
*Paper_Space
0
ENDBLK
5
1D
100
AcDbEntity
8
0
100
AcDbBlockEnd
0
BLOCK
5
24
100
AcDbEntity
8
0
100
AcDbBlockBegin
2
*Paper_Space0
70
0
10
0
20
0
30
0
3
*Paper_Space0
0
ENDBLK
5
25
100
AcDbEntity
8
0
100
AcDbBlockEnd
0
BLOCK
5
139
100
AcDbEntity
8
0
100
AcDbBlockBegin
2
*D1
70
1
10
0
20
0
30
0
3
*D1
0
LINE
5
13B
100
AcDbEntity
8
0
62
256
6
ByLayer
370
-2
48
1
60
0
100
AcDbLine
10
27.5
20
-4.7626
30
0
11
27.5
21
-19.708629
31
0
39
0
210
0
220
0
230
1
0
LINE
5
13C
100
AcDbEntity
8
0
62
256
6
ByLayer
370
-2
48
1
60
0
100
AcDbLine
10
11.62
20
-4.7626
30
0
11
11.62
21
-19.708629
31
0
39
0
210
0
220
0
230
1
0
LINE
5
13D
100
AcDbEntity
8
0
62
256
6
ByLayer
370
-2
48
1
60
0
100
AcDbLine
10
31
20
-17.708629
30
0
11
34.5
21
-17.708629
31
0
39
0
210
0
220
0
230
1
0
LINE
5
13E
100
AcDbEntity
8
0
62
256
6
ByLayer
370
-2
48
1
60
0
100
AcDbLine
10
8.12
20
-17.708629
30
0
11
4.62
21
-17.708629
31
0
39
0
210
0
220
0
230
1
0
SOLID
5
13F
100
AcDbEntity
8
0
62
256
6
ByLayer
370
-1
48
1
60
0
100
AcDbTrace
10
31
20
-17.125296
30
0
11
31
21
-18.291963
31
0
12
27.5
22
-17.708629
32
0
13
27.5
23
-17.708629
33
0
39
0
210
0
220
0
230
1
0
SOLID
5
140
100
AcDbEntity
8
0
62
256
6
ByLayer
370
-1
48
1
60
0
100
AcDbTrace
10
8.12
20
-18.291963
30
0
11
8.12
21
-17.125296
31
0
12
11.62
22
-17.708629
32
0
13
11.62
23
-17.708629
33
0
39
0
210
0
220
0
230
1
0
MTEXT
5
141
100
AcDbEntity
8
0
62
256
6
ByLayer
370
18
48
1
60
0
100
AcDbMText
10
19.56
20
-10.708629
30
0
210
0
220
0
230
1
1
\A1;15.88
40
3.5
41
0
44
1
50
0
71
5
72
5
7
iso_b_vert
0
POINT
5
142
100
AcDbEntity
8
Defpoints
62
0
6
ByLayer
370
-1
48
1
60
0
100
AcDbPoint
10
27.5
20
-3.1751
30
0
39
0
210
0
220
0
230
1
50
360
0
POINT
5
143
100
AcDbEntity
8
Defpoints
62
0
6
ByLayer
370
-1
48
1
60
0
100
AcDbPoint
10
11.62
20
-3.1751
30
0
39
0
210
0
220
0
230
1
50
360
0
POINT
5
144
100
AcDbEntity
8
Defpoints
62
0
6
ByLayer
370
-1
48
1
60
0
100
AcDbPoint
10
11.62
20
-17.708629
30
0
39
0
210
0
220
0
230
1
50
360
0
ENDBLK
5
13A
100
AcDbEntity
8
0
100
AcDbBlockEnd
0
BLOCK
5
14C
100
AcDbEntity
8
0
100
AcDbBlockBegin
2
_U0
70
0
10
0
20
0
30
0
3
_U0
0
MTEXT
5
146
100
AcDbEntity
8
2
62
256
6
ByLayer
370
18
48
1
60
0
100
AcDbMText
10
14.768001
20
-16.675996
30
0
210
0
220
0
230
1
1
\W0.6864;15.88
40
3.5
41
0
44
1.084337
50
0
71
7
72
5
7
iso_b_vert
0
LINE
5
147
100
AcDbEntity
8
2
62
256
6
ByLayer
370
13
48
1
60
0
100
AcDbLine
10
27.5
20
-4.7626
30
0
11
27.5
21
-19.708629
31
0
39
0
210
0
220
0
230
1
0
LINE
5
148
100
AcDbEntity
8
2
62
256
6
ByLayer
370
13
48
1
60
0
100
AcDbLine
10
11.62
20
-4.7626
30
0
11
11.62
21
-19.708629
31
0
39
0
210
0
220
0
230
1
0
LINE
5
149
100
AcDbEntity
8
2
62
256
6
ByLayer
370
13
48
1
60
0
100
AcDbLine
10
27.5
20
-17.708629
30
0
11
11.62
21
-17.708629
31
0
39
0
210
0
220
0
230
1
0
SOLID
5
14A
100
AcDbEntity
8
2
62
256
6
ByLayer
370
18
48
1
60
0
100
AcDbTrace
10
27.5
20
-17.708629
30
0
11
24.000002
21
-18.169413
31
0
12
23.999998
22
-17.247846
32
0
13
23.999998
23
-17.247846
33
0
39
0
210
0
220
0
230
1
0
SOLID
5
14B
100
AcDbEntity
8
2
62
256
6
ByLayer
370
18
48
1
60
0
100
AcDbTrace
10
11.62
20
-17.708629
30
0
11
15.119998
21
-17.247846
31
0
12
15.120002
22
-18.169413
32
0
13
15.120002
23
-18.169413
33
0
39
0
210
0
220
0
230
1
0
ENDBLK
5
14D
100
AcDbEntity
8
0
100
AcDbBlockEnd
0
ENDSEC
0
SECTION
2
ENTITIES
0
ELLIPSE
5
C5
100
AcDbEntity
8
1
62
256
6
ByLayer
370
18
48
1
60
0
100
AcDbEllipse
10
27.276264
20
-0.193987
30
0
11
0.0388189367343961
21
-0.764702525934888
31
0
210
0
220
0
230
1
40
0.053775
41
1.17287425920944
42
1.58360215348552
0
ELLIPSE
5
C6
100
AcDbEntity
8
1
62
256
6
ByLayer
370
18
48
1
60
0
100
AcDbEllipse
10
27.258125
20
-0.428432
30
0
11
0.0386290079279117
21
-0.363117617213018
31
0
210
0
220
0
230
1
40
0.179275
41
0.85241402009008
42
1.38588341792764
0
ELLIPSE
5
C7
100
AcDbEntity
8
1
62
256
6
ByLayer
370
18
48
1
60
0
100
AcDbEllipse
10
27.276264
20
-0.193987
30
0
11
0.0388189367471355
21
-0.76470252611416
31
0
210
0
220
0
230
1
40
0.053775
41
0.0505563375434049
42
0.909110091036061
0
ELLIPSE
5
C8
100
AcDbEntity
8
1
62
256
6
ByLayer
370
18
48
1
60
0
100
AcDbEllipse
10
27.167129
20
-0.410423
30
0
11
0.126270443749545
21
-0.368179926147805
31
0
210
0
220
0
230
1
40
0.475707
41
2.88943657509905
42
-2.2339504826344
0
ELLIPSE
5
C9
100
AcDbEntity
8
1
62
256
6
ByLayer
370
18
48
1
60
0
100
AcDbEllipse
10
37.91906
20
-18.716567
30
0
11
11.6499266909544
21
-19.6960004481424
31
0
210
0
220
0
230
1
40
0.008593
41
-2.74030682834995
42
-2.69942892882031
0
ELLIPSE
5
CA
100
AcDbEntity
8
1
62
256
6
ByLayer
370
13
48
1
60
0
100
AcDbEllipse
10
6.840972
20
-61.831855
30
0
11
35.9401759508747
21
-61.5419365594837
31
0
210
0
220
0
230
1
40
0.6667
41
2.36929070160668
42
2.40601143316368
0
ELLIPSE
5
CB
100
AcDbEntity
8
1
62
256
6
ByLayer
370
13
48
1
60
0
100
AcDbEllipse
10
6.840972
20
34.40787
30
0
11
52.1608079060018
21
-48.5629109657208
31
0
210
0
220
0
230
1
40
0.328444
41
-1.25782311525501
42
-1.20197277653364
0
POINT
5
70
100
AcDbEntity
8
81
62
256
6
ByLayer
370
18
48
1
60
0
100
AcDbPoint
10
27.5
20
0
30
0
39
0
210
0
220
0
230
1
50
360
0
POINT
5
72
100
AcDbEntity
8
80
62
256
6
ByLayer
370
18
48
1
60
0
100
AcDbPoint
10
0
20
0
30
0
39
0
210
0
220
0
230
1
50
360
0
POINT
5
74
100
AcDbEntity
8
1
62
256
6
ByLayer
370
18
48
1
60
1
100
AcDbPoint
10
27.5
20
-3.1751
30
0
39
0
210
0
220
0
230
1
50
360
0
POINT
5
76
100
AcDbEntity
8
1
62
256
6
ByLayer
370
18
48
1
60
1
100
AcDbPoint
10
11.62
20
-3.1751
30
0
39
0
210
0
220
0
230
1
50
360
0
SPLINE
5
CC
100
AcDbEntity
8
1
62
256
6
ByLayer
370
18
48
1
60
0
100
AcDbSpline
70
4
71
3
72
14
73
10
40
0
40
0
40
0
40
0
40
0.25
40
0.25
40
0.5
40
0.5
40
0.75
40
0.75
40
1
40
1
40
1
40
1
41
1
10
27.3325597910564
20
-0.662209974998689
30
0
41
1
10
27.3244471581702
20
-0.648546121715327
30
0
41
1
10
27.3184110561146
20
-0.634309353524117
30
0
41
1
10
27.3109625306481
20
-0.604489234199946
30
0
41
1
10
27.3096998655764
20
-0.589700678380524
30
0
41
1
10
27.3106793054391
20
-0.560021101624471
30
0
41
1
10
27.3128928705999
20
-0.545495304583937
30
0
41
1
10
27.3195115873771
20
-0.516810243859084
30
0
41
1
10
27.3239375819147
20
-0.502606049423491
30
0
41
1
10
27.3292155928734
20
-0.488387498439437
30
0
0
SPLINE
5
CD
100
AcDbEntity
8
1
62
256
6
ByLayer
370
18
48
1
60
0
100
AcDbSpline
70
4
71
5
72
46
73
40
40
0
40
0
40
0
40
0
40
0
40
0
40
0.0321477487890046
40
0.0547802638775855
40
0.088729036510457
40
0.111361551599038
40
0.145310324231909
40
0.16794283932049
40
0.201891611953362
40
0.235840384586233
40
0.258472899674814
40
0.292421672307686
40
0.315054187396267
40
0.349002960029138
40
0.371635475117719
40
0.40558424775059
40
0.439533020383462
40
0.462165535472043
40
0.484798050560624
40
0.518746823193495
40
0.552695595826367
40
0.575328110914948
40
0.609276883547819
40
0.643225656180691
40
0.665858171269271
40
0.688490686357852
40
0.722439458990724
40
0.756388231623595
40
0.779020746712176
40
0.812969519345048
40
0.835602034433629
40
0.8695508070665
40
0.892183322155081
40
0.926132094787953
40
0.960080867420824
40
0.982713382509405
40
1
40
1
40
1
40
1
40
1
40
1
41
1
10
13.2656177009757
20
1.85178173106325
30
0
41
1
10
13.3285841246744
20
1.84994423931113
30
0
41
1
10
13.4358798898702
20
1.84586618218114
30
0
41
1
10
13.6096696673119
20
1.83665156978898
30
0
41
1
10
13.8277887862507
20
1.81980624171146
30
0
41
1
10
14.1124019174353
20
1.78928248374774
30
0
41
1
10
14.3783779664184
20
1.75276842906223
30
0
41
1
10
14.6665186861501
20
1.70475271165708
30
0
41
1
10
14.9546594058819
20
1.6484864588036
30
0
41
1
10
15.2428001256136
20
1.58345127178273
30
0
41
1
10
15.5309408453454
20
1.51076279337028
30
0
41
1
10
15.8190815650771
20
1.4300560737174
30
0
41
1
10
16.1072222848088
20
1.34245991203235
30
0
41
1
10
16.373198333792
20
1.25559318917479
30
0
41
1
10
16.6613390535237
20
1.15544437332127
30
0
41
1
10
16.9494797732554
20
1.04968679776144
30
0
41
1
10
17.2376204929872
20
0.938335971393627
30
0
41
1
10
17.5035965419703
20
0.831364202102293
30
0
41
1
10
17.7917372617021
20
0.71151934899811
30
0
41
1
10
18.0798779814338
20
0.588237002570139
30
0
41
1
10
18.3458540304169
20
0.471757028774533
30
0
41
1
10
18.6339947501486
20
0.343290248555832
30
0
41
1
10
18.944300140629
20
0.202995756945484
30
0
41
1
10
19.2324408603607
20
0.0716256208020241
30
0
41
1
10
19.4984169093439
20
-0.0499586784356438
30
0
41
1
10
19.7865576290756
20
-0.181368338060793
30
0
41
1
10
20.0746983488073
20
-0.311901770710563
30
0
41
1
10
20.3406743977905
20
-0.431062401136103
30
0
41
1
10
20.6288151175222
20
-0.558069631189028
30
0
41
1
10
20.9169558372539
20
-0.68209391882408
30
0
41
1
10
21.2050965569857
20
-0.802791950788986
30
0
41
1
10
21.4710726059688
20
-0.910651822880908
30
0
41
1
10
21.7592133257006
20
-1.02307124532993
30
0
41
1
10
22.0473540454323
20
-1.13057422589171
30
0
41
1
10
22.335494765164
20
-1.23208322446024
30
0
41
1
10
22.5910000326497
20
-1.31681454463438
30
0
41
1
10
22.8021759586382
20
-1.38235848212352
30
0
41
1
10
22.9468578723809
20
-1.42504095209529
30
0
41
1
10
23.0250457738779
20
-1.44744027753353
30
0
41
1
10
23.0589043338776
20
-1.45701367394975
30
0
0
SPLINE
5
CE
100
AcDbEntity
8
1
62
256
6
ByLayer
370
18
48
1
60
0
100
AcDbSpline
70
4
71
3
72
24
73
20
40
0
40
0
40
0
40
0
40
0.125000000000005
40
0.125000000000005
40
0.250000000000011
40
0.250000000000011
40
0.375000000000016
40
0.375000000000016
40
0.500000000000021
40
0.500000000000021
40
0.625000000000027
40
0.625000000000027
40
0.750000000000032
40
0.750000000000032
40
0.812500000000013
40
0.812500000000013
40
0.874999999999993
40
0.874999999999993
40
1
40
1
40
1
40
1
41
1
10
26.9513722465844
20
-0.231105573292041
30
0
41
1
10
26.9509561753983
20
-0.247479103479549
30
0
41
1
10
26.9523160881071
20
-0.263783683212324
30
0
41
1
10
26.9576283706672
20
-0.296347602976851
30
0
41
1
10
26.9615930333781
20
-0.312605736907472
30
0
41
1
10
26.9716244182405
20
-0.345155559866669
30
0
41
1
10
26.9777004148722
20
-0.361456976099504
30
0
41
1
10
26.9916380674688
20
-0.394149648348247
30
0
41
1
10
26.9993940661769
20
-0.410296151149481
30
0
41
1
10
27.0161685424078
20
-0.442394379397001
30
0
41
1
10
27.02518970098
20
-0.458342706925748
30
0
41
1
10
27.044260912359
20
-0.490305212321601
30
0
41
1
10
27.0543133840827
20
-0.506311372361637
30
0
41
1
10
27.0699873137266
20
-0.530724945539276
30
0
41
1
10
27.0753109116704
20
-0.538932355629129
30
0
41
1
10
27.0861199798209
20
-0.55559941378138
30
0
41
1
10
27.0916292268875
20
-0.564096177756284
30
0
41
1
10
27.1079240589604
20
-0.589585175095294
30
0
41
1
10
27.1185662405198
20
-0.606727024437447
30
0
41
1
10
27.1285017339506
20
-0.624328356420335
30
0
0
SPLINE
5
CF
100
AcDbEntity
8
1
62
256
6
ByLayer
370
18
48
1
60
0
100
AcDbSpline
70
4
71
3
72
8
73
4
40
0
40
0
40
0
40
0
40
1
40
1
40
1
40
1
41
1
10
27.276323940049
20
3.16999629011849
30
0
41
1
10
27.3208414285695
20
3.16722401324733
30
0
41
1
10
27.365356205961
20
3.16441641459454
30
0
41
1
10
27.409867839822
20
3.16156785733017
30
0
0
SPLINE
5
D0
100
AcDbEntity
8
1
62
256
6
ByLayer
370
18
48
1
60
0
100
AcDbSpline
70
4
71
3
72
14
73
10
40
0
40
0
40
0
40
0
40
0.25
40
0.25
40
0.5
40
0.5
40
0.75
40
0.75
40
1
40
1
40
1
40
1
41
1
10
27.1194034157143
20
1.30702424916333
30
0
41
1
10
27.1305934921917
20
1.28326180664325
30
0
41
1
10
27.1417497877374
20
1.25962172694841
30
0
41
1
10
27.1638402996755
20
1.21314599275937
30
0
41
1
10
27.1747984880584
20
1.1902235058316
30
0
41
1
10
27.1966392226373
20
1.1446525265423
30
0
41
1
10
27.2075239935426
20
1.12199593819901
30
0
41
1
10
27.2292372021867
20
1.07688595076726
30
0
41
1
10
27.2400448958167
20
1.05450759942465
30
0
41
1
10
27.2507887732228
20
1.03235972221333
30
0
0
SPLINE
5
D1
100
AcDbEntity
8
1
62
256
6
ByLayer
370
18
48
1
60
0
100
AcDbSpline
70
4
71
3
72
8
73
4
40
0
40
0
40
0
40
0
40
1
40
1
40
1
40
1
41
1
10
11.0566756636932
20
-2.91666729426774
30
0
41
1
10
11.1350515042482
20
-2.86042981997943
30
0
41
1
10
11.2145698674541
20
-2.80563983581118
30
0
41
1
10
11.2952530220107
20
-2.75227933785098
30
0
0
SPLINE
5
D2
100
AcDbEntity
8
1
62
256
6
ByLayer
370
18
48
1
60
0
100
AcDbSpline
70
4
71
3
72
16
73
12
40
0
40
0
40
0
40
0
40
0.322922947612589
40
0.322922947612589
40
0.407557579161015
40
0.407557579161015
40
0.492192210709441
40
0.492192210709441
40
0.661461473806294
40
0.661461473806294
40
1
40
1
40
1
40
1
41
1
10
26.1006013678032
20
1.78661971374848
30
0
41
1
10
26.205573877058
20
1.76132219538764
30
0
41
1
10
26.312526405093
20
1.72724935248246
30
0
41
1
10
26.4500077745376
20
1.6731765761796
30
0
41
1
10
26.4786928983266
20
1.66134788875792
30
0
41
1
10
26.5363328005502
20
1.63649542068907
30
0
41
1
10
26.5653087080141
20
1.62346019769947
30
0
41
1
10
26.6525111032827
20
1.58259909172696
30
0
41
1
10
26.710715167996
20
1.5531598897129
30
0
41
1
10
26.8855289699655
20
1.45843119402628
30
0
41
1
10
27.0023404902751
20
1.38672503864072
30
0
41
1
10
27.1194034157147
20
1.3070242491635
30
0
0
SPLINE
5
D3
100
AcDbEntity
8
1
62
256
6
ByLayer
370
18
48
1
60
0
100
AcDbSpline
70
4
71
3
72
34
73
30
40
0
40
0
40
0
40
0
40
0.055445647198209
40
0.111464153325949
40
0.168044844467905
40
0.225176209541345
40
0.253422302385598
40
0.282185965773834
40
0.311465002066575
40
0.34125701685563
40
0.37155941408089
40
0.402369391216832
40
0.433683934554762
40
0.465499814605588
40
0.49781358164853
40
0.530621561450074
40
0.563919851177799
40
0.597704315533197
40
0.631970583127489
40
0.666714043124497
40
0.70192984217414
40
0.737612881660375
40
0.773757823626902
40
0.810359132557162
40
0.847411036346605
40
0.884907501930892
40
0.922842233886334
40
0.961208673742816
40
1
40
1
40
1
40
1
41
1
10
11.2951492470843
20
-1.10023989173135
30
0
41
1
10
11.2870405468566
20
-1.1142159942622
30
0
41
1
10
11.2707393681144
20
-1.14231259902954
30
0
41
1
10
11.2458372915219
20
-1.18434810884671
30
0
41
1
10
11.2204447997721
20
-1.2265561766707
30
0
41
1
10
11.1989873608686
20
-1.26162413530105
30
0
41
1
10
11.1816023156963
20
-1.28967713556543
30
0
41
1
10
11.1683907999734
20
-1.31081039420423
30
0
41
1
10
11.154875358341
20
-1.33224650749347
30
0
41
1
10
11.1410556237206
20
-1.35397990536518
30
0
41
1
10
11.1269316716165
20
-1.37600496267541
30
0
41
1
10
11.1125034527594
20
-1.39831567604961
30
0
41
1
10
11.0977709490497
20
-1.42090574477675
30
0
41
1
10
11.082734130596
20
-1.44376854114063
30
0
41
1
10
11.0673929674322
20
-1.46689711173693
30
0
41
1
10
11.0517474262276
20
-1.49028417092157
30
0
41
1
10
11.0357974711219
20
-1.51392209708783
30
0
41
1
10
11.0195430634723
20
-1.53780292893524
30
0
41
1
10
11.0029841617979
20
-1.56191836231846
30
0
41
1
10
10.9861207221257
20
-1.58625974841928
30
0
41
1
10
10.9689526965677
20
-1.61081808976351
30
0
41
1
10
10.9514800374231
20
-1.63558404959551
30
0
41
1
10
10.9337026678875
20
-1.66054793105241
30
0
41
1
10
10.915620581274
20
-1.68569982528513
30
0
41
1
10
10.8972335703207
20
-1.71102918820077
30
0
41
1
10
10.8785421406793
20
-1.7365263543501
30
0
41
1
10
10.8595440549321
20
-1.76217672413679
30
0
41
1
10
10.8402474768284
20
-1.7879828513621
30
0
41
1
10
10.8272340769004
20
-1.80515453579702
30
0
41
1
10
10.8206915463458
20
-1.81378765786431
30
0
0
SPLINE
5
D4
100
AcDbEntity
8
1
62
256
6
ByLayer
370
18
48
1
60
0
100
AcDbSpline
70
4
71
3
72
14
73
10
40
0
40
0
40
0
40
0
40
0.10188982922979
40
0.242740699305888
40
0.383591569381985
40
0.524442439458083
40
0.66529330953418
40
0.806144179610278
40
1
40
1
40
1
40
1
41
1
10
10.6634863426457
20
-1.70058197815831
30
0
41
1
10
10.5722513609732
20
-1.73255579412398
30
0
41
1
10
10.3507506470052
20
-1.81448663533195
30
0
41
1
10
10.0075468711437
20
-1.98005018990236
30
0
41
1
10
9.6337489351981
20
-2.19129927189721
30
0
41
1
10
9.26571668737884
20
-2.41575170634391
30
0
41
1
10
8.90242295281197
20
-2.63412505312718
30
0
41
1
10
8.4978051111498
20
-2.84893475218073
30
0
41
1
10
8.21617564895763
20
-2.95525985460117
30
0
41
1
10
8.05442566715743
20
-3.00121860818231
30
0
0
SPLINE
5
D5
100
AcDbEntity
8
1
62
256
6
ByLayer
370
18
48
1
60
0
100
AcDbSpline
70
4
71
3
72
50
73
46
40
0
40
0
40
0
40
0
40
0.0625000000000592
40
0.0625000000000592
40
0.0937500000000888
40
0.0937500000000888
40
0.125000000000118
40
0.125000000000118
40
0.187500000000178
40
0.187500000000178
40
0.218750000000207
40
0.218750000000207
40
0.234375000000222
40
0.234375000000222
40
0.250000000000236
40
0.250000000000236
40
0.312500000000296
40
0.312500000000296
40
0.343750000000323
40
0.343750000000323
40
0.37500000000035
40
0.37500000000035
40
0.390625000000359
40
0.390625000000359
40
0.406250000000368
40
0.437500000000385
40
0.468750000000403
40
0.468750000000403
40
0.484375000000404
40
0.484375000000404
40
0.500000000000405
40
0.500000000000405
40
0.562500000000378
40
0.562500000000378
40
0.625000000000352
40
0.625000000000352
40
0.65625000000033
40
0.65625000000033
40
0.687500000000308
40
0.687500000000308
40
0.750000000000246
40
0.750000000000246
40
0.875000000000123
40
0.875000000000123
40
1
40
1
40
1
40
1
41
1
10
27.2754727504048
20
3.17015490763828
30
0
41
1
10
27.2994179059861
20
3.13098393622011
30
0
41
1
10
27.322325816794
20
3.09121096904806
30
0
41
1
10
27.3542431241962
20
3.0301327461153
30
0
41
1
10
27.3644714194944
20
3.009534914352
30
0
41
1
10
27.3838991818674
20
2.96774213986572
30
0
41
1
10
27.3930959187201
20
2.94654315791962
30
0
41
1
10
27.4185000979174
20
2.88250009281623
30
0
41
1
10
27.4326632183076
20
2.83903528473925
30
0
41
1
10
27.4476803637889
20
2.77211010209047
30
0
41
1
10
27.4516374337103
20
2.74951073752351
30
0
41
1
10
27.4556189351304
20
2.71506948044961
30
0
41
1
10
27.4566193990066
20
2.70349841021175
30
0
41
1
10
27.4578881564044
20
2.68015311250329
30
0
41
1
10
27.4581523485038
20
2.66836049707626
30
0
41
1
10
27.4574649062384
20
2.60988189457817
30
0
41
1
10
27.4505313554128
20
2.5638247694003
30
0
41
1
10
27.4292473806143
20
2.49622546749572
30
0
41
1
10
27.4205282417757
20
2.47451833804129
30
0
41
1
10
27.4001523492415
20
2.43259771670148
30
0
41
1
10
27.3885000276002
20
2.41238197132702
30
0
41
1
10
27.3688189555166
20
2.38317826542726
30
0
41
1
10
27.3618677343985
20
2.37360145166872
30
0
41
1
10
27.3474567958811
20
2.35507623678569
30
0
41
1
10
27.3250298333807
20
2.32814747551799
30
0
41
1
10
27.2839512050446
20
2.28718800613205
30
0
41
1
10
27.2477863301321
20
2.25792000403891
30
0
41
1
10
27.2196228115197
20
2.23707109377705
30
0
41
1
10
27.210068214626
20
2.23031207888988
30
0
41
1
10
27.1908037003065
20
2.21723706802177
30
0
41
1
10
27.1810732826685
20
2.2109057269401
30
0
41
1
10
27.1319831456414
20
2.1801690461333
30
0
41
1
10
27.0913318257885
20
2.15847642723006
30
0
41
1
10
27.0081845288499
20
2.11896548354523
30
0
41
1
10
26.965679079602
20
2.10116705294331
30
0
41
1
10
26.9009190746669
20
2.0765735313899
30
0
41
1
10
26.8791447116296
20
2.06872534771796
30
0
41
1
10
26.8355456467359
20
2.05372176537193
30
0
41
1
10
26.8136914464667
20
2.0465546887747
30
0
41
1
10
26.747988942216
20
2.02591004554233
30
0
41
1
10
26.7040019402795
20
2.01328168462382
30
0
41
1
10
26.5716211885884
20
1.97796657921253
30
0
41
1
10
26.4828146490411
20
1.95780722203435
30
0
41
1
10
26.304489349771
20
1.92184921685217
30
0
41
1
10
26.2149650153768
20
1.9060847008781
30
0
41
1
10
26.125178877806
20
1.89192312673819
30
0
0
SPLINE
5
D6
100
AcDbEntity
8
1
62
256
6
ByLayer
370
18
48
1
60
0
100
AcDbSpline
70
4
71
3
72
15
73
11
40
0
40
0
40
0
40
0
40
0.19455253366043
40
0.19455253366043
40
0.38910506732086
40
0.38910506732086
40
0.58365760098129
40
0.77821013464172
40
0.972762668302149
40
1
40
1
40
1
40
1
41
1
10
27.2757763619921
20
3.17016799835466
30
0
41
1
10
27.1126953944798
20
3.16314124469048
30
0
41
1
10
26.9496144269675
20
3.14844732702542
30
0
41
1
10
26.6234524919429
20
3.10393767445464
30
0
41
1
10
26.4603715244306
20
3.07412209685128
30
0
41
1
10
26.134209589406
20
2.999800646751
30
0
41
1
10
25.8080476543814
20
2.91078942234879
30
0
41
1
10
25.3188047518444
20
2.73513496930926
30
0
41
1
10
24.9698115006597
20
2.58159071381863
30
0
41
1
10
24.7838992169873
20
2.49189487456951
30
0
41
1
10
24.7610679008273
20
2.48076210791686
30
0
0
SPLINE
5
D7
100
AcDbEntity
8
1
62
256
6
ByLayer
370
18
48
1
60
0
100
AcDbSpline
70
4
71
3
72
19
73
15
40
0
40
0
40
0
40
0
40
0.0518117539642155
40
0.0518117539642155
40
0.187267217683613
40
0.187267217683613
40
0.322722681403011
40
0.322722681403011
40
0.458178145122409
40
0.458178145122409
40
0.593633608841807
40
0.729089072561204
40
0.864544536280602
40
1
40
1
40
1
40
1
41
1
10
15.2318393499763
20
-3.15110621764117
30
0
41
1
10
15.1694608328387
20
-3.15707196008267
30
0
41
1
10
15.1070823157011
20
-3.16192459059911
30
0
41
1
10
14.881622831051
20
-3.17541515047674
30
0
41
1
10
14.7185418635385
20
-3.17751692244332
30
0
41
1
10
14.3923799285136
20
-3.16637743890377
30
0
41
1
10
14.2292989610011
20
-3.15313622442258
30
0
41
1
10
13.9031370259762
20
-3.11150235271228
30
0
41
1
10
13.7400560584636
20
-3.08310984187594
30
0
41
1
10
13.4138941234386
20
-3.01158429821859
30
0
41
1
10
13.0877321884136
20
-2.92531873468718
30
0
41
1
10
12.5984892858762
20
-2.75357244906758
30
0
41
1
10
12.1092463833386
20
-2.54196473982327
30
0
41
1
10
11.7830844483136
20
-2.37636067990695
30
0
41
1
10
11.620003480801
20
-2.28802493897629
30
0
0
SPLINE
5
D8
100
AcDbEntity
8
1
62
256
6
ByLayer
370
18
48
1
60
0
100
AcDbSpline
70
4
71
5
72
15
73
9
40
0
40
0
40
0
40
0
40
0
40
0
40
0.337725275328559
40
0.615039712797926
40
0.892354150267293
40
1
40
1
40
1
40
1
40
1
40
1
41
1
10
11.6199999582396
20
-2.2880440941743
30
0
41
1
10
11.5660138073601
20
-2.25880143613418
30
0
41
1
10
11.4676983149835
20
-2.20462771837086
30
0
41
1
10
11.3250534811097
20
-2.12365066031799
30
0
41
1
10
11.1652012141245
20
-2.02919887898048
30
0
41
1
10
11.0053489471393
20
-1.93086593988841
30
0
41
1
10
10.8994828310336
20
-1.86413288204119
30
0
41
1
10
10.8379460564251
20
-1.82481782782767
30
0
41
1
10
10.8207386233138
20
-1.81378357008728
30
0
0
SPLINE
5
D9
100
AcDbEntity
8
1
62
256
6
ByLayer
370
18
48
1
60
0
100
AcDbSpline
70
4
71
3
72
14
73
10
40
0
40
0
40
0
40
0
40
0.301433778710828
40
0.301433778710828
40
0.476075334033122
40
0.476075334033122
40
0.650716889355414
40
0.650716889355414
40
1
40
1
40
1
40
1
41
1
10
25.9597040441216
20
1.86032942056272
30
0
41
1
10
25.975702954116
20
1.86350333760623
30
0
41
1
10
25.991988548207
20
1.86683494786641
30
0
41
1
10
26.0182094776102
20
1.87215806228122
30
0
41
1
10
26.027970796112
20
1.87413034029822
30
0
41
1
10
26.0474316339207
20
1.87799393839043
30
0
41
1
10
26.0571543467679
20
1.87989009073203
30
0
41
1
10
26.0863122843567
20
1.88540749402102
30
0
41
1
10
26.1057376510483
20
1.88885674721072
30
0
41
1
10
26.125178877806
20
1.89192312673822
30
0
0
SPLINE
5
DA
100
AcDbEntity
8
1
62
256
6
ByLayer
370
18
48
1
60
0
100
AcDbSpline
70
4
71
3
72
22
73
18
40
0
40
0
40
0
40
0
40
0.125
40
0.125
40
0.25
40
0.25
40
0.375
40
0.375
40
0.5
40
0.5
40
0.625
40
0.625
40
0.75
40
0.75
40
0.875
40
0.875
40
1
40
1
40
1
40
1
41
1
10
6.22424445114501
20
-1.36099393598425
30
0
41
1
10
6.38615369934149
20
-1.37159767531355
30
0
41
1
10
6.54907396896442
20
-1.3807904570082
30
0
41
1
10
6.87726593536854
20
-1.39649943623374
30
0
41
1
10
7.04253857481712
20
-1.40301325708472
30
0
41
1
10
7.37576649034546
20
-1.41378793631031
30
0
41
1
10
7.54372308306097
20
-1.41804704833675
30
0
41
1
10
7.88261682290704
20
-1.42508332294216
30
0
41
1
10
8.05355555610242
20
-1.42786003372959
30
0
41
1
10
8.39863413735716
20
-1.43308548083718
30
0
41
1
10
8.57277562221867
20
-1.43553562804758
30
0
41
1
10
8.92435361086496
20
-1.44163250041723
30
0
41
1
10
9.10179150318862
20
-1.44528275996626
30
0
41
1
10
9.45988295798281
20
-1.45560143912854
30
0
41
1
10
9.64053734286128
20
-1.46227535114517
30
0
41
1
10
10.0047747876312
20
-1.48062347092719
30
0
41
1
10
10.1883578227176
20
-1.49230454559819
30
0
41
1
10
10.3731513702309
20
-1.50746308984276
30
0
0
SPLINE
5
DB
100
AcDbEntity
8
1
62
256
6
ByLayer
370
18
48
1
60
0
100
AcDbSpline
70
4
71
3
72
17
73
13
40
0
40
0
40
0
40
0
40
0.249999999999997
40
0.249999999999997
40
0.499999999999994
40
0.499999999999994
40
0.562499999999994
40
0.562499999999994
40
0.624999999999994
40
0.749999999999995
40
0.749999999999995
40
1
40
1
40
1
40
1
41
1
10
11.0566756636918
20
-2.91666729426396
30
0
41
1
10
10.8073391735166
20
-2.99363521084851
30
0
41
1
10
10.559169976513
20
-3.05379490959456
30
0
41
1
10
10.0620062896925
20
-3.13954293346893
30
0
41
1
10
9.81302172767471
20
-3.16513507851494
30
0
41
1
10
9.4992641362889
20
-3.17454258521821
30
0
41
1
10
9.43634760181118
20
-3.17529297083237
30
0
41
1
10
9.3103712015357
20
-3.17450194315177
30
0
41
1
10
9.12167261930585
20
-3.16988441650059
30
0
41
1
10
8.93353708712078
20
-3.15506160104533
30
0
41
1
10
8.55740366406931
20
-3.11198409896272
30
0
41
1
10
8.30683630094074
20
-3.06537527721608
30
0
41
1
10
8.05481817800245
20
-3.00110705239754
30
0
0
SPLINE
5
DC
100
AcDbEntity
8
1
62
256
6
ByLayer
370
18
48
1
60
0
100
AcDbSpline
70
4
71
3
72
44
73
40
40
0
40
0
40
0
40
0
40
0.125000000000012
40
0.125000000000012
40
0.250000000000023
40
0.250000000000023
40
0.312500000000029
40
0.312500000000029
40
0.375000000000035
40
0.375000000000035
40
0.500000000000042
40
0.500000000000042
40
0.562500000000043
40
0.562500000000043
40
0.625000000000044
40
0.625000000000044
40
0.656250000000043
40
0.656250000000043
40
0.687500000000042
40
0.687500000000042
40
0.750000000000036
40
0.750000000000036
40
0.781250000000031
40
0.781250000000031
40
0.812500000000027
40
0.812500000000027
40
0.875000000000017
40
0.875000000000017
40
0.890625000000015
40
0.890625000000015
40
0.906250000000014
40
0.906250000000014
40
0.937500000000009
40
0.937500000000009
40
0.953125000000007
40
0.953125000000007
40
0.968750000000005
40
0.968750000000005
40
1
40
1
40
1
40
1
41
1
10
8.05406396074437
20
-3.00084118232698
30
0
41
1
10
7.94763015572241
20
-2.97359161059583
30
0
41
1
10
7.84232631195187
20
-2.94281817016992
30
0
41
1
10
7.63405680425785
20
-2.87353591746594
30
0
41
1
10
7.53108709638801
20
-2.83503548379983
30
0
41
1
10
7.37863739298203
20
-2.77069170577735
30
0
41
1
10
7.328094435607
20
-2.74810920757057
30
0
41
1
10
7.22826050272198
20
-2.70078722611291
30
0
41
1
10
7.17893163322177
20
-2.67603558826258
30
0
41
1
10
7.03290528900621
20
-2.59825117202018
30
0
41
1
10
6.9381266224519
20
-2.54173581880832
30
0
41
1
10
6.80116431339258
20
-2.44831390098165
30
0
41
1
10
6.75638622388414
20
-2.41572230978397
30
0
41
1
10
6.66897074706384
20
-2.34717427115004
30
0
41
1
10
6.62632974640667
20
-2.31122189621126
30
0
41
1
10
6.56441136751525
20
-2.25425663265213
30
0
41
1
10
6.54415308870256
20
-2.23479312020112
30
0
41
1
10
6.50464144812685
20
-2.19496975659635
30
0
41
1
10
6.48536650318852
20
-2.17459062562301
30
0
41
1
10
6.42917342902638
20
-2.11191061538148
30
0
41
1
10
6.3938623724122
20
-2.06808500302947
30
0
41
1
10
6.34522024230284
20
-1.99847886218208
30
0
41
1
10
6.32976988273191
20
-1.97467129059956
30
0
41
1
10
6.30085919480129
20
-1.9260784327505
30
0
41
1
10
6.28736421823993
20
-1.90124597302471
30
0
41
1
10
6.25019976229788
20
-1.82495709067777
30
0
41
1
10
6.22977898420521
20
-1.77173842948466
30
0
41
1
10
6.21195457160999
20
-1.70132935933938
30
0
41
1
10
6.20877345675996
20
-1.68700763048582
30
0
41
1
10
6.20332597583626
20
-1.65822022605525
30
0
41
1
10
6.20105449785382
20
-1.64374644083341
30
0
41
1
10
6.19566973813866
20
-1.60008192951526
30
0
41
1
10
6.19398259929997
20
-1.57064823374696
30
0
41
1
10
6.19465312349331
20
-1.52599699132179
30
0
41
1
10
6.19541099453056
20
-1.51102974982834
30
0
41
1
10
6.19806499051626
20
-1.4809252348723
30
0
41
1
10
6.19997144260185
20
-1.46573046811758
30
0
41
1
10
6.20743695129462
20
-1.42033813710663
30
0
41
1
10
6.21469977005304
20
-1.39046045632767
30
0
41
1
10
6.22424445116533
20
-1.36099393598496
30
0
0
SPLINE
5
DD
100
AcDbEntity
8
1
62
256
6
ByLayer
370
18
48
1
60
0
100
AcDbSpline
70
4
71
3
72
47
73
43
40
0
40
0
40
0
40
0
40
0.062500000000013
40
0.062500000000013
40
0.0781250000000163
40
0.0781250000000163
40
0.0937500000000196
40
0.125000000000026
40
0.156250000000032
40
0.171875000000035
40
0.171875000000035
40
0.187500000000038
40
0.187500000000038
40
0.250000000000047
40
0.250000000000047
40
0.281250000000049
40
0.281250000000049
40
0.29687500000005
40
0.29687500000005
40
0.312500000000051
40
0.312500000000051
40
0.375000000000045
40
0.375000000000045
40
0.406250000000042
40
0.406250000000042
40
0.437500000000039
40
0.437500000000039
40
0.500000000000033
40
0.500000000000033
40
0.562500000000026
40
0.562500000000026
40
0.62500000000002
40
0.62500000000002
40
0.656250000000017
40
0.656250000000017
40
0.687500000000014
40
0.687500000000014
40
0.750000000000007
40
0.750000000000007
40
0.875000000000004
40
0.875000000000004
40
1
40
1
40
1
40
1
41
1
10
6.22424445116238
20
-1.36099393597556
30
0
41
1
10
6.21281567714726
20
-1.31974162025568
30
0
41
1
10
6.20422105295938
20
-1.27740951126461
30
0
41
1
10
6.19797611474658
20
-1.22286055035826
30
0
41
1
10
6.19695344335707
20
-1.21185110571446
30
0
41
1
10
6.1954029904617
20
-1.18985785759935
30
0
41
1
10
6.19381068685533
20
-1.15684507530193
30
0
41
1
10
6.19491927181133
20
-1.10171859363447
30
0
41
1
10
6.20133642415817
20
-1.04647908197049
30
0
41
1
10
6.20772861371327
20
-1.01329812033347
30
0
41
1
10
6.21257451845344
20
-0.991170881049356
30
0
41
1
10
6.21529889039786
20
-0.980072913144284
30
0
41
1
10
6.23027620014676
20
-0.925115222703937
30
0
41
1
10
6.24660046775619
20
-0.882657825282536
30
0
41
1
10
6.27722031504737
20
-0.821172277207779
30
0
41
1
10
6.28845061455601
20
-0.801044261079682
30
0
41
1
10
6.30679606640268
20
-0.771398681438427
30
0
41
1
10
6.31317740774358
20
-0.761584707686893
30
0
41
1
10
6.32635228679197
20
-0.742258506898764
30
0
41
1
10
6.33313438486326
20
-0.732760290299268
30
0
41
1
10
6.36796702003124
20
-0.686052734312455
30
0
41
1
10
6.39876741755569
20
-0.651180697584181
30
0
41
1
10
6.44861213593003
20
-0.602008411393626
30
0
41
1
10
6.46583770575799
20
-0.58614292945083
30
0
41
1
10
6.50141625011671
20
-0.555387567611973
30
0
41
1
10
6.51982925709927
20
-0.540453315775153
30
0
41
1
10
6.57614956246749
20
-0.49738938444068
30
0
41
1
10
6.61504906028267
20
-0.471017504090042
30
0
41
1
10
6.69501419050377
20
-0.422038673779554
30
0
41
1
10
6.73608322893205
20
-0.399437452862998
30
0
41
1
10
6.82003818088899
20
-0.357410024930857
30
0
41
1
10
6.86292582176918
20
-0.337986726104958
30
0
41
1
10
6.92843700957829
20
-0.310923935050141
30
0
41
1
10
6.95050590095804
20
-0.302237163842904
30
0
41
1
10
6.99477247154812
20
-0.285604439021
30
0
41
1
10
7.01698377357076
20
-0.277651402210069
30
0
41
1
10
7.08383305264533
20
-0.25479632440954
30
0
41
1
10
7.12868565736773
20
-0.240894892399126
30
0
41
1
10
7.26398708151015
20
-0.202664007150901
30
0
41
1
10
7.35517344549982
20
-0.181780098545317
30
0
41
1
10
7.53912518634181
20
-0.147412649763794
30
0
41
1
10
7.63189416843852
20
-0.133945680852492
30
0
41
1
10
7.72534214399181
20
-0.123667983830956
30
0
0
SPLINE
5
DE
100
AcDbEntity
8
1
62
256
6
ByLayer
370
18
48
1
60
0
100
AcDbSpline
70
4
71
3
72
10
73
6
40
0
40
0
40
0
40
0
40
0.5
40
0.5
40
1
40
1
40
1
40
1
41
1
10
9.13360217075009
20
-0.608641605441079
30
0
41
1
10
9.41479158032476
20
-0.824256477940366
30
0
41
1
10
9.6959809898994
20
-1.03547804160314
30
0
41
1
10
10.2583598090487
20
-1.4400915418411
30
0
41
1
10
10.5395492186234
20
-1.63347098321776
30
0
41
1
10
10.820738628198
20
-1.81378354771661
30
0
0
SPLINE
5
DF
100
AcDbEntity
8
1
62
256
6
ByLayer
370
18
48
1
60
0
100
AcDbSpline
70
4
71
3
72
24
73
20
40
0
40
0
40
0
40
0
40
0.124999999999995
40
0.124999999999995
40
0.187499999999999
40
0.187499999999999
40
0.250000000000004
40
0.250000000000004
40
0.374999999999999
40
0.374999999999999
40
0.499999999999994
40
0.499999999999994
40
0.624999999999989
40
0.624999999999989
40
0.687499999999993
40
0.687499999999993
40
0.749999999999997
40
0.749999999999997
40
1
40
1
40
1
40
1
41
1
10
7.7253421440046
20
3.15623570429713
30
0
41
1
10
7.78882173408181
20
3.15699420566224
30
0
41
1
10
7.85233622190611
20
3.1571209232111
30
0
41
1
10
7.94764613471904
20
3.15665115750968
30
0
41
1
10
7.97942261339188
20
3.15637968269905
30
0
41
1
10
8.04298739704049
20
3.15561369508788
30
0
41
1
10
8.07483876220942
20
3.15511724911627
30
0
41
1
10
8.16934386930058
20
3.15330260536612
30
0
41
1
10
8.23128299553028
20
3.15166079607243
30
0
41
1
10
8.35336420683004
20
3.14739779471995
30
0
41
1
10
8.41350253694685
20
3.1447749805703
30
0
41
1
10
8.5321515630512
20
3.13832432970204
30
0
41
1
10
8.59066066423637
20
3.13449598509129
30
0
41
1
10
8.67727483111742
20
3.12762407442656
30
0
41
1
10
8.70595548039853
20
3.12514329520008
30
0
41
1
10
8.76247346440823
20
3.11980918249867
30
0
41
1
10
8.79037267302132
20
3.1169512327663
30
0
41
1
10
8.92815298062914
20
3.10162732875284
30
0
41
1
10
9.03291806722862
20
3.0860705358115
30
0
41
1
10
9.13296692784303
20
3.06609426871287
30
0
0
SPLINE
5
E0
100
AcDbEntity
8
1
62
256
6
ByLayer
370
18
48
1
60
0
100
AcDbSpline
70
4
71
3
72
24
73
20
40
0
40
0
40
0
40
0
40
0.125000000000011
40
0.125000000000011
40
0.187500000000017
40
0.187500000000017
40
0.250000000000023
40
0.250000000000023
40
0.375000000000021
40
0.375000000000021
40
0.500000000000019
40
0.500000000000019
40
0.625000000000018
40
0.625000000000018
40
0.687500000000017
40
0.687500000000017
40
0.750000000000016
40
0.750000000000016
40
1
40
1
40
1
40
1
41
1
10
7.72534214398715
20
-0.123667983831297
30
0
41
1
10
7.7888217340651
20
-0.116686302419026
30
0
41
1
10
7.85233622189008
20
-0.115434092438903
30
0
41
1
10
7.94764613470409
20
-0.119825623212534
30
0
41
1
10
7.97942261337732
20
-0.122358022479091
30
0
41
1
10
8.04298739702665
20
-0.129364073449494
30
0
41
1
10
8.07483876219601
20
-0.133853669002292
30
0
41
1
10
8.16934386928847
20
-0.149837703638667
30
0
41
1
10
8.23128299551897
20
-0.163848593464479
30
0
41
1
10
8.3533642068204
20
-0.197516820006484
30
0
41
1
10
8.41350253693798
20
-0.217185986109257
30
0
41
1
10
8.53215156304378
20
-0.261615228942901
30
0
41
1
10
8.59066066422972
20
-0.286380343081873
30
0
41
1
10
8.67727483111184
20
-0.3271030197009
30
0
41
1
10
8.7059554803933
20
-0.341278855976469
30
0
41
1
10
8.76247346440374
20
-0.370540505828956
30
0
41
1
10
8.7903726730172
20
-0.38565450006547
30
0
41
1
10
8.92815298062672
20
-0.463505077139814
30
0
41
1
10
9.03291806722751
20
-0.533040650152657
30
0
41
1
10
9.13296692784306
20
-0.608545502440677
30
0
0
SPLINE
5
E1
100
AcDbEntity
8
1
62
256
6
ByLayer
370
18
48
1
60
0
100
AcDbSpline
70
4
71
3
72
8
73
4
40
0
40
0
40
0
40
0
40
1
40
1
40
1
40
1
41
1
10
27.3824843458782
20
-0.617407210676305
30
0
41
1
10
27.376853801559
20
-0.635400818599294
30
0
41
1
10
27.3712303969516
20
-0.65334015272208
30
0
41
1
10
27.365614157598
20
-0.67122501888278
30
0
0
SPLINE
5
E2
100
AcDbEntity
8
1
62
256
6
ByLayer
370
18
48
1
60
0
100
AcDbSpline
70
4
71
3
72
8
73
4
40
0
40
0
40
0
40
0
40
1
40
1
40
1
40
1
41
1
10
27.3824843458782
20
0.617407210676106
30
0
41
1
10
27.3381387882703
20
0.759122919049787
30
0
41
1
10
27.2942361046345
20
0.897472041453057
30
0
41
1
10
27.2507887732228
20
1.03235972221341
30
0
0
SPLINE
5
E3
100
AcDbEntity
8
1
62
256
6
ByLayer
370
18
48
1
60
0
100
AcDbSpline
70
4
71
3
72
34
73
30
40
0
40
0
40
0
40
0
40
0.110901639048958
40
0.110901639048958
40
0.221803278097915
40
0.221803278097915
40
0.332704917146873
40
0.332704917146873
40
0.38815573667135
40
0.38815573667135
40
0.41588114643359
40
0.41588114643359
40
0.443606556195831
40
0.443606556195831
40
0.554508195244791
40
0.554508195244791
40
0.665409834293752
40
0.665409834293752
40
0.776311473342713
40
0.776311473342713
40
0.887213112391673
40
0.887213112391673
40
0.914938522153912
40
0.914938522153912
40
0.942663931916151
40
0.942663931916151
40
0.998114751440631
40
0.998114751440631
40
1
40
1
40
1
40
1
41
1
10
27.2507887732228
20
1.03235972221324
30
0
41
1
10
27.0835745874097
20
1.1498738459587
30
0
41
1
10
26.9173790642305
20
1.26427828425508
30
0
41
1
10
26.5857681332897
20
1.48572716109112
30
0
41
1
10
26.4203602320425
20
1.59277218113869
30
0
41
1
10
26.0892566725935
20
1.79852936346347
30
0
41
1
10
25.9235545318785
20
1.89725969018298
30
0
41
1
10
25.674115838485
20
2.03837646296302
30
0
41
1
10
25.5908223643022
20
2.08425151872771
30
0
41
1
10
25.4655788940055
20
2.15121331041684
30
0
41
1
10
25.4237806250562
20
2.17322516817043
30
0
41
1
10
25.3400698054691
20
2.2166106142175
30
0
41
1
10
25.2981225863081
20
2.23800151195857
30
0
41
1
10
25.0884817237149
20
2.34309674222467
30
0
41
1
10
24.9217817895816
20
2.42087434357271
30
0
41
1
10
24.5894077236081
20
2.56348844877147
30
0
41
1
10
24.4237412572251
20
2.62831844669947
30
0
41
1
10
24.0925544344391
20
2.74455130993945
30
0
41
1
10
23.9270329177332
20
2.79595846950988
30
0
41
1
10
23.5952419915605
20
2.88484692699575
30
0
41
1
10
23.4289760402148
20
2.92233196453006
30
0
41
1
10
23.2201322001688
20
2.95998736022364
30
0
41
1
10
23.1783127298444
20
2.96705752358437
30
0
41
1
10
23.0945571932425
20
2.98026463100425
30
0
41
1
10
23.0525807987338
20
2.98640660763635
30
0
41
1
10
22.9268972459597
20
3.00335980789066
30
0
41
1
10
22.8433597086302
20
3.01271446390544
30
0
41
1
10
22.7571779671526
20
3.02039938292509
30
0
41
1
10
22.7543444715754
20
3.02064984841385
30
0
41
1
10
22.7515111919301
20
3.02089809469229
30
0
0
SPLINE
5
E4
100
AcDbEntity
8
1
62
256
6
ByLayer
370
18
48
1
60
0
100
AcDbSpline
70
4
71
3
72
12
73
8
40
0
40
0
40
0
40
0
40
0.307958664701725
40
0.307958664701725
40
0.653979332350864
40
0.653979332350864
40
1
40
1
40
1
40
1
41
1
10
12.0194464027701
20
-2.47885357149363
30
0
41
1
10
11.9455229410023
20
-2.51090658619208
30
0
41
1
10
11.8714746368596
20
-2.54179073925789
30
0
41
1
10
11.7138721554527
20
-2.60482603137794
30
0
41
1
10
11.6302594380024
20
-2.63666918850717
30
0
41
1
10
11.4625895206206
20
-2.69707699960219
30
0
41
1
10
11.3788675785743
20
-2.7255085547439
30
0
41
1
10
11.2951870937331
20
-2.75216062188341
30
0
0
SPLINE
5
E5
100
AcDbEntity
8
1
62
256
6
ByLayer
370
18
48
1
60
0
100
AcDbSpline
70
4
71
3
72
14
73
10
40
0
40
0
40
0
40
0
40
0.250000000000002
40
0.250000000000002
40
0.375000000000002
40
0.375000000000002
40
0.500000000000003
40
0.500000000000003
40
1
40
1
40
1
40
1
41
1
10
27.3824843458782
20
-2.96875393850837
30
0
41
1
10
27.3776787347688
20
-2.99166738801139
30
0
41
1
10
27.3746262873327
20
-3.0129836525195
30
0
41
1
10
27.3727399796316
20
-3.04250522495443
30
0
41
1
10
27.3725622331017
20
-3.05193985042072
30
0
41
1
10
27.3731075494503
20
-3.06985514552844
30
0
41
1
10
27.3738287545079
20
-3.07835401693515
30
0
41
1
10
27.3796450075007
20
-3.11858774127168
30
0
41
1
10
27.3913496326574
20
-3.14356228332932
30
0
41
1
10
27.4098678398219
20
-3.16156785733034
30
0
0
SPLINE
5
E6
100
AcDbEntity
8
1
62
256
6
ByLayer
370
18
48
1
60
0
100
AcDbSpline
70
4
71
3
72
8
73
4
40
0
40
0
40
0
40
0
40
1
40
1
40
1
40
1
41
1
10
27.3824843458782
20
-2.96875393850834
30
0
41
1
10
27.3382236817825
20
-2.91618466135677
30
0
41
1
10
27.2943203766624
20
-2.85394238230816
30
0
41
1
10
27.2507887732227
20
-2.78163887265635
30
0
0
SPLINE
5
E7
100
AcDbEntity
8
1
62
256
6
ByLayer
370
18
48
1
60
0
100
AcDbSpline
70
4
71
3
72
8
73
4
40
0
40
0
40
0
40
0
40
1
40
1
40
1
40
1
41
1
10
27.2763239400489
20
-3.16999629011869
30
0
41
1
10
27.3208414285694
20
-3.16722401324753
30
0
41
1
10
27.3653562059609
20
-3.16441641459474
30
0
41
1
10
27.4098678398219
20
-3.16156785733034
30
0
0
SPLINE
5
E8
100
AcDbEntity
8
1
62
256
6
ByLayer
370
18
48
1
60
0
100
AcDbSpline
70
4
71
3
72
29
73
25
40
0
40
0
40
0
40
0
40
0.12500000000001
40
0.12500000000001
40
0.187500000000024
40
0.187500000000024
40
0.250000000000039
40
0.250000000000039
40
0.375000000000043
40
0.375000000000043
40
0.437500000000046
40
0.437500000000046
40
0.500000000000048
40
0.56250000000005
40
0.56250000000005
40
0.625000000000052
40
0.625000000000052
40
0.750000000000024
40
0.750000000000024
40
0.812500000000009
40
0.812500000000009
40
0.874999999999995
40
0.874999999999995
40
1
40
1
40
1
40
1
41
1
10
24.6913738808355
20
0.42756013841273
30
0
41
1
10
24.6827929884846
20
0.450483031545502
30
0
41
1
10
24.6716408758335
20
0.472122554357867
30
0
41
1
10
24.6513401284873
20
0.502700622781248
30
0
41
1
10
24.6439712870437
20
0.512575792739625
30
0
41
1
10
24.6280164140806
20
0.531663750894694
30
0
41
1
10
24.6195274644295
20
0.540754922365721
30
0
41
1
10
24.5928151781223
20
0.566515754546231
30
0
41
1
10
24.5732746066853
20
0.581780396305817
30
0
41
1
10
24.5415340332645
20
0.601955888234329
30
0
41
1
10
24.530616574764
20
0.608175788163805
30
0
41
1
10
24.5083827311422
20
0.619538203974003
30
0
41
1
10
24.4856778996189
20
0.629869523756469
30
0
41
1
10
24.4620733675633
20
0.638244345119233
30
0
41
1
10
24.4380241187234
20
0.645663778320738
30
0
41
1
10
24.4257447945863
20
0.648898981901141
30
0
41
1
10
24.3888500348544
20
0.657045423374029
30
0
41
1
10
24.3639992667034
20
0.660483769040667
30
0
41
1
10
24.326329098828
20
0.662723483863232
30
0
41
1
10
24.3137060556936
20
0.6629793069892
30
0
41
1
10
24.2883156802019
20
0.662457410181531
30
0
41
1
10
24.2755797019348
20
0.661674472331839
30
0
41
1
10
24.2378929531008
20
0.657743478776581
30
0
41
1
10
24.2132254586119
20
0.653045520916805
30
0
41
1
10
24.1891250448019
20
0.645881078374657
30
0
0
SPLINE
5
E9
100
AcDbEntity
8
1
62
256
6
ByLayer
370
18
48
1
60
0
100
AcDbSpline
70
4
71
3
72
26
73
22
40
0
40
0
40
0
40
0
40
0.125000000000033
40
0.125000000000033
40
0.250000000000066
40
0.250000000000066
40
0.312500000000083
40
0.312500000000083
40
0.375000000000099
40
0.375000000000099
40
0.500000000000132
40
0.500000000000132
40
0.56250000000013
40
0.56250000000013
40
0.625000000000128
40
0.625000000000128
40
0.750000000000085
40
0.750000000000085
40
0.875000000000043
40
0.875000000000043
40
1
40
1
40
1
40
1
41
1
10
25.7097138602274
20
-0.0315118414612243
30
0
41
1
10
25.7223894863482
20
-0.0140461353408909
30
0
41
1
10
25.7362879869475
20
0.0022075419390717
30
0
41
1
10
25.7660557081971
20
0.0327606843569583
30
0
41
1
10
25.7819436529542
20
0.0470416341524356
30
0
41
1
10
25.8073744081456
20
0.0668781098092666
30
0
41
1
10
25.8161064658669
20
0.0732093488880423
30
0
41
1
10
25.833821279377
20
0.0851200891515589
30
0
41
1
10
25.8428389724327
20
0.0907280087816105
30
0
41
1
10
25.8703766909121
20
0.106521862142671
30
0
41
1
10
25.8893788701037
20
0.115682554527069
30
0
41
1
10
25.9189100576883
20
0.127327467730936
30
0
41
1
10
25.9289596639916
20
0.130866911491893
30
0
41
1
10
25.9491240597783
20
0.137139756219227
30
0
41
1
10
25.9592642288664
20
0.139885913233456
30
0
41
1
10
25.989867326356
20
0.146988279652561
30
0
41
1
10
26.0105120369299
20
0.150211932010194
30
0
41
1
10
26.0523482183481
20
0.153722840567212
30
0
41
1
10
26.0736321655385
20
0.153991175007633
30
0
41
1
10
26.1158753345009
20
0.151685689038459
30
0
41
1
10
26.1369314210706
20
0.149132179744043
30
0
41
1
10
26.1579517140059
20
0.145274996246798
30
0
0
SPLINE
5
EA
100
AcDbEntity
8
1
62
256
6
ByLayer
370
18
48
1
60
0
100
AcDbSpline
70
4
71
5
72
46
73
40
40
0
40
0
40
0
40
0
40
0
40
0
40
0.0333806518294455
40
0.0556700739274679
40
0.0891042070745017
40
0.111393629172524
40
0.144827762319558
40
0.16711718441758
40
0.200551317564614
40
0.233985450711648
40
0.25627487280967
40
0.289709005956704
40
0.311998428054726
40
0.34543256120176
40
0.367721983299783
40
0.401156116446816
40
0.43459024959385
40
0.456879671691872
40
0.479169093789895
40
0.512603226936929
40
0.546037360083962
40
0.568326782181985
40
0.601760915329018
40
0.635195048476052
40
0.657484470574075
40
0.679773892672097
40
0.713208025819131
40
0.746642158966164
40
0.768931581064187
40
0.80236571421122
40
0.824655136309243
40
0.858089269456277
40
0.880378691554299
40
0.913812824701333
40
0.947246957848367
40
0.969536379946389
40
1
40
1
40
1
40
1
40
1
40
1
41
1
10
13.3167129054689
20
1.81812306008396
30
0
41
1
10
13.3831005537372
20
1.81275315644581
30
0
41
1
10
13.4938175435026
20
1.80278607860563
30
0
41
1
10
13.6710285455139
20
1.78414625835416
30
0
41
1
10
13.8925688890223
20
1.75552198308355
30
0
41
1
10
14.1806032447765
20
1.7098407072809
30
0
41
1
10
14.4465792937597
20
1.66001975738283
30
0
41
1
10
14.7347200134914
20
1.59803992343896
30
0
41
1
10
15.0228607332231
20
1.52832181625894
30
0
41
1
10
15.3110014529549
20
1.45047157654813
30
0
41
1
10
15.5991421726866
20
1.36561077589767
30
0
41
1
10
15.8872828924183
20
1.27350473481909
30
0
41
1
10
16.1754236121501
20
1.17526845873201
30
0
41
1
10
16.4413996611332
20
1.07932350408538
30
0
41
1
10
16.729540380865
20
0.970194027553134
30
0
41
1
10
17.0176811005967
20
0.856348839428904
30
0
41
1
10
17.3058218203284
20
0.737936831187
30
0
41
1
10
17.5717978693115
20
0.625341129694277
30
0
41
1
10
17.8599385890433
20
0.500401981883982
30
0
41
1
10
18.148079308775
20
0.373045291279283
30
0
41
1
10
18.4140553577582
20
0.25376259753736
30
0
41
1
10
18.7021960774899
20
0.123313169295273
30
0
41
1
10
19.0125014679703
20
-0.0178573138335878
30
0
41
1
10
19.300642187702
20
-0.148867210179333
30
0
41
1
10
19.5666182366851
20
-0.269135250430878
30
0
41
1
10
19.8547589564168
20
-0.398060849544834
30
0
41
1
10
20.1428996761486
20
-0.525063336508424
30
0
41
1
10
20.4088757251317
20
-0.640011993695083
30
0
41
1
10
20.6970164448635
20
-0.761446337214295
30
0
41
1
10
20.9851571645952
20
-0.87881775829851
30
0
41
1
10
21.2732978843269
20
-0.991914085853068
30
0
41
1
10
21.5392739333101
20
-1.09191158889234
30
0
41
1
10
21.8274146530418
20
-1.19493978387698
30
0
41
1
10
22.1155553727735
20
-1.29221861460192
30
0
41
1
10
22.4036960925053
20
-1.38264297094153
30
0
41
1
10
22.6859290372951
20
-1.46466764006078
30
0
41
1
10
22.9238326405877
20
-1.5275218893924
30
0
41
1
10
23.0952422316346
20
-1.56937730685834
30
0
41
1
10
23.2001578104357
20
-1.59367575253509
30
0
41
1
10
23.2607440477396
20
-1.60726096703721
30
0
0
SPLINE
5
EB
100
AcDbEntity
8
1
62
256
6
ByLayer
370
18
48
1
60
0
100
AcDbSpline
70
4
71
3
72
8
73
4
40
0
40
0
40
0
40
0
40
1
40
1
40
1
40
1
41
1
10
11.0566756636927
20
-1.0479505573893
30
0
41
1
10
11.1350515042479
20
-1.06627681985978
30
0
41
1
10
11.2145698674539
20
-1.08383158436345
30
0
41
1
10
11.2952530220107
20
-1.10042114819532
30
0
0
SPLINE
5
EC
100
AcDbEntity
8
1
62
256
6
ByLayer
370
18
48
1
60
0
100
AcDbSpline
70
4
71
3
72
54
73
50
40
0
40
0
40
0
40
0
40
0.0148476215995714
40
0.0148476215995714
40
0.0852156486281734
40
0.0852156486281734
40
0.120399662142475
40
0.120399662142475
40
0.155583675656777
40
0.155583675656777
40
0.225951702685381
40
0.225951702685381
40
0.261135716199683
40
0.261135716199683
40
0.296319729713985
40
0.296319729713985
40
0.331503743228286
40
0.331503743228286
40
0.366687756742588
40
0.366687756742588
40
0.40187177025689
40
0.40187177025689
40
0.437055783771192
40
0.437055783771192
40
0.507423810799796
40
0.507423810799796
40
0.542607824314098
40
0.542607824314098
40
0.5777918378284
40
0.5777918378284
40
0.612975851342701
40
0.612975851342701
40
0.630567858099853
40
0.630567858099853
40
0.648159864857004
40
0.648159864857004
40
0.718527891885603
40
0.718527891885603
40
0.788895918914203
40
0.788895918914203
40
0.824079932428504
40
0.824079932428504
40
0.859263945942804
40
0.859263945942804
40
0.929631972971402
40
0.929631972971402
40
0.964815986485701
40
0.964815986485701
40
1
40
1
40
1
40
1
41
1
10
18.3788958038752
20
-2.6049878853778
30
0
41
1
10
18.3435522661889
20
-2.6186633059761
30
0
41
1
10
18.3082495724001
20
-2.63203214115222
30
0
41
1
10
18.1058592278528
20
-2.70697223982091
30
0
41
1
10
17.9396087220055
20
-2.76188237564875
30
0
41
1
10
17.6910796747558
20
-2.8330096877543
30
0
41
1
10
17.6083667002078
20
-2.85485633677572
30
0
41
1
10
17.442948241177
20
-2.89514962839223
30
0
41
1
10
17.3602423124301
20
-2.91360981440772
30
0
41
1
10
17.1120968019615
20
-2.96359686536277
30
0
41
1
10
16.946642779146
20
-2.98970288545294
30
0
41
1
10
16.6978535872256
20
-3.01728324989546
30
0
41
1
10
16.6148286561823
20
-3.02450546457158
30
0
41
1
10
16.4484135530351
20
-3.03517358410386
30
0
41
1
10
16.3650113952867
20
-3.03868368152638
30
0
41
1
10
16.1977062516016
20
-3.04208244484008
30
0
41
1
10
16.1136866738951
20
-3.04191236919095
30
0
41
1
10
15.9464042040452
20
-3.03765413539503
30
0
41
1
10
15.8630029085207
20
-3.03358948608965
30
0
41
1
10
15.6965865073991
20
-3.02157830996893
30
0
41
1
10
15.6135739145091
20
-3.01362464747299
30
0
41
1
10
15.4478324585178
20
-2.99382506241332
30
0
41
1
10
15.3650915565714
20
-2.98200927909855
30
0
41
1
10
15.116939319743
20
-2.94139576707911
30
0
41
1
10
14.9516404758623
20
-2.90735824229779
30
0
41
1
10
14.7035009070798
20
-2.84523774608962
30
0
41
1
10
14.6207541718837
20
-2.82268054736832
30
0
41
1
10
14.4550679791773
20
-2.77392547079668
30
0
41
1
10
14.3721317527654
20
-2.74770738802465
30
0
41
1
10
14.2059096950244
20
-2.69187278288101
30
0
41
1
10
14.1226194486295
20
-2.66228937623188
30
0
41
1
10
13.9973486441806
20
-2.61537341256056
30
0
41
1
10
13.9555362660183
20
-2.59930776148846
30
0
41
1
10
13.8717892293187
20
-2.56630467971738
30
0
41
1
10
13.8298238543279
20
-2.54935432218764
30
0
41
1
10
13.6204967857847
20
-2.46274560041351
30
0
41
1
10
13.4541138669044
20
-2.3871980811447
30
0
41
1
10
13.1223812295131
20
-2.2250582744677
30
0
41
1
10
12.9570091156199
20
-2.13853382535115
30
0
41
1
10
12.7090007942075
20
-2.00142516843016
30
0
41
1
10
12.6263487515819
20
-1.95447637104871
30
0
41
1
10
12.4610097107758
20
-1.85805405594795
30
0
41
1
10
12.3783177254452
20
-1.80859447277552
30
0
41
1
10
12.1299681780271
20
-1.65676057233861
30
0
41
1
10
11.9640347208822
20
-1.55094025128932
30
0
41
1
10
11.7138721554527
20
-1.38616781616233
30
0
41
1
10
11.6302594380024
20
-1.33022392814624
30
0
41
1
10
11.4625895206206
20
-1.21633278753444
30
0
41
1
10
11.3788675785743
20
-1.1585977049015
30
0
41
1
10
11.2951870937331
20
-1.10017434775241
30
0
0
SPLINE
5
ED
100
AcDbEntity
8
1
62
256
6
ByLayer
370
18
48
1
60
0
100
AcDbSpline
70
4
71
3
72
77
73
73
40
0
40
0
40
0
40
0
40
0.0625000000000167
40
0.0625000000000167
40
0.125000000000033
40
0.125000000000033
40
0.156250000000042
40
0.156250000000042
40
0.171875000000048
40
0.171875000000048
40
0.187500000000055
40
0.187500000000055
40
0.218750000000068
40
0.218750000000068
40
0.234375000000074
40
0.234375000000074
40
0.25000000000008
40
0.25000000000008
40
0.281250000000093
40
0.281250000000093
40
0.2968750000001
40
0.2968750000001
40
0.312500000000108
40
0.312500000000108
40
0.375000000000139
40
0.375000000000139
40
0.390625000000143
40
0.390625000000143
40
0.406250000000147
40
0.437500000000155
40
0.437500000000155
40
0.468750000000163
40
0.468750000000163
40
0.500000000000171
40
0.531250000000179
40
0.531250000000179
40
0.546875000000183
40
0.546875000000183
40
0.562500000000187
40
0.562500000000187
40
0.62500000000019
40
0.62500000000019
40
0.640625000000185
40
0.640625000000185
40
0.656250000000179
40
0.656250000000179
40
0.687500000000168
40
0.687500000000168
40
0.703125000000157
40
0.703125000000157
40
0.718750000000145
40
0.718750000000145
40
0.750000000000122
40
0.781250000000098
40
0.781250000000098
40
0.796875000000091
40
0.796875000000091
40
0.812500000000084
40
0.812500000000084
40
0.843750000000071
40
0.843750000000071
40
0.875000000000057
40
0.875000000000057
40
0.906250000000043
40
0.906250000000043
40
0.921875000000036
40
0.921875000000036
40
0.937500000000028
40
0.937500000000028
40
0.968750000000014
40
0.968750000000014
40
1
40
1
40
1
40
1
41
1
10
24.1891250448015
20
0.645881078374799
30
0
41
1
10
24.1580579838526
20
0.636649023126353
30
0
41
1
10
24.1292937037748
20
0.623703859936967
30
0
41
1
10
24.0773588088312
20
0.58923922514586
30
0
41
1
10
24.0556887150632
20
0.56869916264705
30
0
41
1
10
24.0300522087587
20
0.532680740917556
30
0
41
1
10
24.0229340629343
20
0.520170485034669
30
0
41
1
10
24.0142453129191
20
0.500675700586299
30
0
41
1
10
24.0116820315588
20
0.494055255114006
30
0
41
1
10
24.0072132095035
20
0.480567426976506
30
0
41
1
10
24.0053015246653
20
0.473668725587032
30
0
41
1
10
24.0006121381322
20
0.45286035584229
30
0
41
1
10
23.9988608559229
20
0.438859368055518
30
0
41
1
10
23.9981036448351
20
0.417647818436336
30
0
41
1
10
23.9981645869009
20
0.410542154857978
30
0
41
1
10
23.9988994572252
20
0.396256074844047
30
0
41
1
10
23.9995775634163
20
0.389058086330522
30
0
41
1
10
24.002475866239
20
0.367643691294972
30
0
41
1
10
24.0055531733604
20
0.353518028484388
30
0
41
1
10
24.011748127799
20
0.332509606859532
30
0
41
1
10
24.014077674951
20
0.325537070870098
30
0
41
1
10
24.0192577846557
20
0.311647555691678
30
0
41
1
10
24.0221185813893
20
0.30470880528955
30
0
41
1
10
24.0375912896118
20
0.270437583804238
30
0
41
1
10
24.0535388142114
20
0.244475715214321
30
0
41
1
10
24.0776623094829
20
0.213660023652636
30
0
41
1
10
24.0827182195588
20
0.207561969579274
30
0
41
1
10
24.0931484886746
20
0.195669119401146
30
0
41
1
10
24.109285705592
20
0.178261442368068
30
0
41
1
10
24.1268602978691
20
0.162114597599469
30
0
41
1
10
24.1515733024313
20
0.141712924800771
30
0
41
1
10
24.1645855264231
20
0.132065151793171
30
0
41
1
10
24.1919028185562
20
0.1140182711938
30
0
41
1
10
24.2199822155026
20
0.0975670431798221
30
0
41
1
10
24.2495714772425
20
0.0842800979991694
30
0
41
1
10
24.2723552816626
20
0.0755567205823979
30
0
41
1
10
24.2800488461751
20
0.0728565742708724
30
0
41
1
10
24.2956424571662
20
0.0678898009929583
30
0
41
1
10
24.3035526389406
20
0.0656228137938797
30
0
41
1
10
24.3430146644194
20
0.0555741875191984
30
0
41
1
10
24.3747754306451
20
0.0514179514959494
30
0
41
1
10
24.414805666463
20
0.0514300598347575
30
0
41
1
10
24.4228618737865
20
0.051700327713462
30
0
41
1
10
24.438798878487
20
0.0527805135829453
30
0
41
1
10
24.446685174884
20
0.0535876753824311
30
0
41
1
10
24.4701038677518
20
0.0568030527106487
30
0
41
1
10
24.4853973292523
20
0.0600013387434615
30
0
41
1
10
24.5078618085939
20
0.0664192416091964
30
0
41
1
10
24.5152703734777
20
0.0688295478747705
30
0
41
1
10
24.5299247375591
20
0.0742109754432931
30
0
41
1
10
24.5372011154647
20
0.0771971771039546
30
0
41
1
10
24.5584747717468
20
0.086895570611432
30
0
41
1
10
24.5854321615649
20
0.101791456774294
30
0
41
1
10
24.609623366198
20
0.120576456583592
30
0
41
1
10
24.6266703910348
20
0.136205539821077
30
0
41
1
10
24.6321725189092
20
0.141681774626136
30
0
41
1
10
24.6426024013861
20
0.152957063941045
30
0
41
1
10
24.6475570058474
20
0.158779099212808
30
0
41
1
10
24.6616456437946
20
0.176790958312239
30
0
41
1
10
24.6700095396737
20
0.189523449498353
30
0
41
1
10
24.6845934470477
20
0.216471190048623
30
0
41
1
10
24.6908214064152
20
0.230779890709897
30
0
41
1
10
24.7005751349542
20
0.259855360536733
30
0
41
1
10
24.7041771627672
20
0.274732415391952
30
0
41
1
10
24.7076376969997
20
0.297537045385866
30
0
41
1
10
24.7084660951583
20
0.30522042158043
30
0
41
1
10
24.709450440278
20
0.320751454091749
30
0
41
1
10
24.7096008722679
20
0.328561141844034
30
0
41
1
10
24.7090405917353
20
0.351801773747866
30
0
41
1
10
24.7073324707866
20
0.367168848684543
30
0
41
1
10
24.7013127010949
20
0.397624021920677
30
0
41
1
10
24.6969667848069
20
0.412788596067457
30
0
41
1
10
24.6913738808355
20
0.42756013841273
30
0
0
SPLINE
5
EE
100
AcDbEntity
8
1
62
256
6
ByLayer
370
18
48
1
60
0
100
AcDbSpline
70
4
71
5
72
27
73
21
40
0
40
0
40
0
40
0
40
0
40
0
40
0.0230739017248846
40
0.102048091215704
40
0.181022280706524
40
0.233671740367071
40
0.31264592985789
40
0.365295389518437
40
0.444269579009257
40
0.496919038669804
40
0.575893228160623
40
0.654867417651443
40
0.70751687731199
40
0.786491066802809
40
0.839140526463356
40
0.918114715954176
40
0.970764175614722
40
1
40
1
40
1
40
1
40
1
40
1
41
1
10
19.9792678323059
20
1.81849221021511
30
0
41
1
10
19.9986953986252
20
1.8169305635077
30
0
41
1
10
20.0846169771904
20
1.80979416646491
30
0
41
1
10
20.2370325680014
20
1.79533500788938
30
0
41
1
10
20.4337775003095
20
1.77257674932599
30
0
41
1
10
20.6970164448635
20
1.73516537155186
30
0
41
1
10
20.9851571645952
20
1.68499991271958
30
0
41
1
10
21.273297884327
20
1.62670568064425
30
0
41
1
10
21.5392739333101
20
1.56562556251075
30
0
41
1
10
21.8274146530418
20
1.49190738466754
30
0
41
1
10
22.1155553727735
20
1.41096094226242
30
0
41
1
10
22.4036960925053
20
1.3225045717848
30
0
41
1
10
22.691836812237
20
1.2276561429945
30
0
41
1
10
22.9799775319688
20
1.1262969290419
30
0
41
1
10
23.2681182517005
20
1.01952101241005
30
0
41
1
10
23.5340943006836
20
0.916386152821389
30
0
41
1
10
23.7803567373999
20
0.817134987992915
30
0
41
1
10
23.9601251618704
20
0.742711395781726
30
0
41
1
10
24.0955642448437
20
0.685651405381918
30
0
41
1
10
24.1645093155712
20
0.656366430354041
30
0
41
1
10
24.1891250448015
20
0.645881078374799
30
0
0
SPLINE
5
EF
100
AcDbEntity
8
1
62
256
6
ByLayer
370
18
48
1
60
0
100
AcDbSpline
70
4
71
3
72
64
73
60
40
0
40
0
40
0
40
0
40
0.0470256269393734
40
0.0470256269393734
40
0.0940512538787468
40
0.0940512538787468
40
0.14107688081812
40
0.14107688081812
40
0.164589694287806
40
0.164589694287806
40
0.176346101022649
40
0.176346101022649
40
0.188102507757491
40
0.188102507757491
40
0.235128134696861
40
0.235128134696861
40
0.282153761636231
40
0.282153761636231
40
0.3291793885756
40
0.3291793885756
40
0.37620501551497
40
0.37620501551497
40
0.387961422249812
40
0.387961422249812
40
0.399717828984654
40
0.399717828984654
40
0.423230642454338
40
0.423230642454338
40
0.470256269393709
40
0.470256269393709
40
0.564307523272451
40
0.564307523272451
40
0.611333150211822
40
0.611333150211822
40
0.658358777151193
40
0.658358777151193
40
0.705384404090564
40
0.705384404090564
40
0.752410031029935
40
0.752410031029935
40
0.775922844499621
40
0.775922844499621
40
0.799435657969306
40
0.799435657969306
40
0.822948471438991
40
0.822948471438991
40
0.834704878173835
40
0.834704878173835
40
0.846461284908678
40
0.846461284908678
40
0.893486911848052
40
0.893486911848052
40
0.916999725317738
40
0.916999725317738
40
0.940512538787425
40
0.940512538787425
40
0.9875381657268
40
0.9875381657268
40
1
40
1
40
1
40
1
41
1
10
27.2507887732228
20
-2.78163887265643
30
0
41
1
10
27.0835745874097
20
-2.73201226222727
30
0
41
1
10
26.9173790642304
20
-2.67501753183038
30
0
41
1
10
26.5857681332897
20
-2.54775736486212
30
0
41
1
10
26.4203602320426
20
-2.47747363405242
30
0
41
1
10
26.0892566725935
20
-2.32487414557204
30
0
41
1
10
25.9235545318786
20
-2.24260278724896
30
0
41
1
10
25.674115838485
20
-2.11076618822276
30
0
41
1
10
25.5908223643021
20
-2.065413718603
30
0
41
1
10
25.4655788940055
20
-1.99532433082089
30
0
41
1
10
25.4237806250562
20
-1.97161708470386
30
0
41
1
10
25.3400698054691
20
-1.92351672780634
30
0
41
1
10
25.2981225863081
20
-1.89910312250743
30
0
41
1
10
25.0884817237149
20
-1.77556997517985
30
0
41
1
10
24.9217817895816
20
-1.67248478620138
30
0
41
1
10
24.5894077236082
20
-1.45915889159977
30
0
41
1
10
24.4237412572251
20
-1.3489037837065
30
0
41
1
10
24.0925544344391
20
-1.12235695215864
30
0
41
1
10
23.9270329177332
20
-1.00606884200317
30
0
41
1
10
23.5952419915606
20
-0.768591035001492
30
0
41
1
10
23.4289760402148
20
-0.647397731896348
30
0
41
1
10
23.2201322001687
20
-0.493449301588328
30
0
41
1
10
23.1783127298444
20
-0.462536598208232
30
0
41
1
10
23.0945571932425
20
-0.400483181991973
30
0
41
1
10
23.0525807987338
20
-0.369312507295262
30
0
41
1
10
22.9268972459597
20
-0.275817461156009
30
0
41
1
10
22.8433597086302
20
-0.213454725085285
30
0
41
1
10
22.5933156254193
20
-0.026508674439043
30
0
41
1
10
22.4273745241334
20
0.0979295634571997
30
0
41
1
10
21.9304533497551
20
0.468878680560238
30
0
41
1
10
21.6003850441062
20
0.713045935827324
30
0
41
1
10
21.1018577145641
20
1.0675465902263
30
0
41
1
10
20.9351147052026
20
1.18375550287246
30
0
41
1
10
20.599564972835
20
1.41096553628444
30
0
41
1
10
20.4328236263996
20
1.52055731755601
30
0
41
1
10
20.1005863688507
20
1.7307411994353
30
0
41
1
10
19.9350819765774
20
1.83132541595427
30
0
41
1
10
19.6041730478585
20
2.02288736692202
30
0
41
1
10
19.4387214760251
20
2.11397304750659
30
0
41
1
10
19.1902020597551
20
2.24255818704196
30
0
41
1
10
19.1072997062588
20
2.28407981913952
30
0
41
1
10
18.941273934092
20
2.36425200614218
30
0
41
1
10
18.8581577787043
20
2.40288128430044
30
0
41
1
10
18.6915517663614
20
2.47716393188091
30
0
41
1
10
18.6080467756288
20
2.51285734737857
30
0
41
1
10
18.4823775097213
20
2.5642565775421
30
0
41
1
10
18.4403926313963
20
2.58103611268075
30
0
41
1
10
18.3566040657141
20
2.61371055851876
30
0
41
1
10
18.3147675895314
20
2.62961868191306
30
0
41
1
10
18.1058592278528
20
2.70697223982077
30
0
41
1
10
17.9396087220055
20
2.76188237564864
30
0
41
1
10
17.6910796747558
20
2.83300968775418
30
0
41
1
10
17.6083667002078
20
2.85485633677561
30
0
41
1
10
17.442948241177
20
2.89514962839212
30
0
41
1
10
17.3602423124302
20
2.91360981440758
30
0
41
1
10
17.1120968019616
20
2.96359686536266
30
0
41
1
10
16.946642779146
20
2.98970288545283
30
0
41
1
10
16.7368304084919
20
3.01296234299807
30
0
41
1
10
16.6928507571397
20
3.01728116572699
30
0
41
1
10
16.6488313488276
20
3.02105863287585
30
0
0
SPLINE
5
F0
100
AcDbEntity
8
1
62
256
6
ByLayer
370
18
48
1
60
0
100
AcDbSpline
70
4
71
3
72
14
73
10
40
0
40
0
40
0
40
0
40
0.25
40
0.25
40
0.5
40
0.5
40
0.75
40
0.75
40
1
40
1
40
1
40
1
41
1
10
27.0982806964091
20
-1.72865987431319
30
0
41
1
10
27.1112518186799
20
-1.81614012069784
30
0
41
1
10
27.1242281446261
20
-1.90361514413203
30
0
41
1
10
27.1499955719543
20
-2.07875553929588
30
0
41
1
10
27.1627409164795
20
-2.1664680075063
30
0
41
1
10
27.1880804627959
20
-2.34204834831945
30
0
41
1
10
27.2006862616312
20
-2.4299048311259
30
0
41
1
10
27.2258349723037
20
-2.60567707495403
30
0
41
1
10
27.2383567793444
20
-2.69361430120134
30
0
41
1
10
27.2507887732227
20
-2.78163887265615
30
0
0
SPLINE
5
F1
100
AcDbEntity
8
1
62
256
6
ByLayer
370
18
48
1
60
0
100
AcDbSpline
70
4
71
3
72
17
73
13
40
0
40
0
40
0
40
0
40
0.249999999999995
40
0.249999999999995
40
0.374999999999993
40
0.437499999999995
40
0.437499999999995
40
0.499999999999997
40
0.499999999999997
40
0.749999999999998
40
0.749999999999998
40
1
40
1
40
1
40
1
41
1
10
25.714046900168
20
-0.344394084962062
30
0
41
1
10
25.8154426595475
20
-0.47724571909626
30
0
41
1
10
25.9210008503279
20
-0.606298035410106
30
0
41
1
10
26.0856492488943
20
-0.794115953253566
30
0
41
1
10
26.1695474882201
20
-0.886588184981917
30
0
41
1
10
26.2557986107888
20
-0.976912789428866
30
0
41
1
10
26.3138208788245
20
-1.03665316798992
30
0
41
1
10
26.3431233756332
20
-1.06631491559705
30
0
41
1
10
26.4900072325684
20
-1.21251181327915
30
0
41
1
10
26.6093482104168
20
-1.32339944590694
30
0
41
1
10
26.8513717308669
20
-1.53411467481075
30
0
41
1
10
26.9740533965143
20
-1.6339451736637
30
0
41
1
10
27.0982806964091
20
-1.72865987431317
30
0
0
SPLINE
5
F2
100
AcDbEntity
8
1
62
256
6
ByLayer
370
18
48
1
60
0
100
AcDbSpline
70
4
71
3
72
22
73
18
40
0
40
0
40
0
40
0
40
0.250000000000007
40
0.250000000000007
40
0.375000000000011
40
0.375000000000011
40
0.500000000000015
40
0.500000000000015
40
0.562500000000017
40
0.562500000000017
40
0.625000000000019
40
0.625000000000019
40
0.750000000000012
40
0.750000000000012
40
0.875000000000006
40
0.875000000000006
40
1
40
1
40
1
40
1
41
1
10
25.714046900168
20
-0.344394084962062
30
0
41
1
10
25.6967740215613
20
-0.321762663656529
30
0
41
1
10
25.6825409030257
20
-0.297450665913573
30
0
41
1
10
25.6672472319399
20
-0.257625834209762
30
0
41
1
10
25.6632899266005
20
-0.244056646378539
30
0
41
1
10
25.6578419371198
20
-0.216615341031258
30
0
41
1
10
25.6563312796234
20
-0.202694978426194
30
0
41
1
10
25.6560064729762
20
-0.181489775575045
30
0
41
1
10
25.6562274047674
20
-0.174368394881697
30
0
41
1
10
25.6573062075714
20
-0.16032639572586
30
0
41
1
10
25.6581623296175
20
-0.153366177652174
30
0
41
1
10
25.6616444622604
20
-0.132659148848347
30
0
41
1
10
25.6651806060781
20
-0.119085247709478
30
0
41
1
10
25.6745827095907
20
-0.0923713533424007
30
0
41
1
10
25.680359332467
20
-0.0794971865280445
30
0
41
1
10
25.6937057323489
20
-0.054795995952162
30
0
41
1
10
25.7012905890822
20
-0.0429317379651195
30
0
41
1
10
25.7097138602273
20
-0.0315118414612243
30
0
0
SPLINE
5
F3
100
AcDbEntity
8
1
62
256
6
ByLayer
370
18
48
1
60
0
100
AcDbSpline
70
4
71
5
72
16
73
10
40
0
40
0
40
0
40
0
40
0
40
0
40
0.0388992292102106
40
0.256554149935516
40
0.474209070660822
40
0.800691451748781
40
1
40
1
40
1
40
1
40
1
40
1
41
1
10
24.6913738808355
20
0.42756013841273
30
0
41
1
10
24.69929640889
20
0.42405596267335
30
0
41
1
10
24.7515482784416
20
0.4009312896072
30
0
41
1
10
24.8481294894905
20
0.358027063386231
30
0
41
1
10
25.0112047127851
20
0.285127461728109
30
0
41
1
10
25.2148727086634
20
0.193298929124353
30
0
41
1
10
25.4106181764874
20
0.104477128573848
30
0
41
1
10
25.5620343028141
20
0.0356307474656603
30
0
41
1
10
25.6691210876436
20
-0.0130591658199251
30
0
41
1
10
25.7097138602274
20
-0.0315118414612243
30
0
0
SPLINE
5
F4
100
AcDbEntity
8
1
62
256
6
ByLayer
370
18
48
1
60
0
100
AcDbSpline
70
4
71
3
72
77
73
73
40
0
40
0
40
0
40
0
40
0.0079101436506827
40
0.0157257534320299
40
0.0234468197192898
40
0.0310733345792024
40
0.0386052917613175
40
0.0460426866897438
40
0.0533855164559689
40
0.0606337798125428
40
0.0677874771681344
40
0.0748466105841791
40
0.0818111837730332
40
0.0886812020983421
40
0.0954566725775508
40
0.102137603886667
40
0.108724006368234
40
0.115215892042048
40
0.121613274619378
40
0.127916169520915
40
0.134124593898794
40
0.140238566663197
40
0.14625810851378
40
0.152183241976602
40
0.158013991447051
40
0.16375038323911
40
0.169392445641848
40
0.174940208983833
40
0.180393705706146
40
0.185752970444621
40
0.19101804012297
40
0.196188954057009
40
0.201265754071934
40
0.206248484633589
40
0.211137192995274
40
0.215931929362105
40
0.220632747074688
40
0.225239702814283
40
0.22975285683237
40
0.234172273207132
40
0.23849802013039
40
0.242730170229075
40
0.246868800925169
40
0.250913994839785
40
0.254865840247013
40
0.258724431584578
40
0.262489870029366
40
0.266162264147184
40
0.285607401016581
40
0.305204536680473
40
0.324959425920646
40
0.34487769368075
40
0.364964835604532
40
0.385226218842729
40
0.405667083105126
40
0.426292541933354
40
0.447107584173116
40
0.468117075623018
40
0.489325760841044
40
0.510738265088722
40
0.532359096395658
40
0.566098705282619
40
0.601564473800775
40
0.63876857166578
40
0.677721488759092
40
0.71843232823091
40
0.760909042753241
40
0.805158626227842
40
0.85118727034884
40
0.899000493246226
40
0.948603245802607
40
1
40
1
40
1
40
1
41
1
10
10.7683367787102
20
0.920246796851501
30
0
41
1
10
10.7660842904154
20
0.926234337607809
30
0
41
1
10
10.7616062332401
20
0.93813786221574
30
0
41
1
10
10.7549056380334
20
0.956039215243067
30
0
41
1
10
10.7482647477673
20
0.973828954335175
30
0
41
1
10
10.7416796329119
20
0.991510665115868
30
0
41
1
10
10.7351484008705
20
1.00907405813427
30
0
41
1
10
10.7286688711202
20
1.02651280926321
30
0
41
1
10
10.7222391785388
20
1.04381986403774
30
0
41
1
10
10.7158576064676
20
1.06098866942088
30
0
41
1
10
10.7095226223172
20
1.07801284636904
30
0
41
1
10
10.7032328599186
20
1.0948862719512
30
0
41
1
10
10.6969871158859
20
1.11160305346013
30
0
41
1
10
10.6907843423238
20
1.12815753057839
30
0
41
1
10
10.6846236405357
20
1.14454426987257
30
0
41
1
10
10.6785042545251
20
1.16075806102867
30
0
41
1
10
10.6724255646143
20
1.17679391237999
30
0
41
1
10
10.6663870811103
20
1.19264704639693
30
0
41
1
10
10.6603884380456
20
1.20831289498474
30
0
41
1
10
10.6544293869951
20
1.2237870946538
30
0
41
1
10
10.6485097909783
20
1.23906548156606
30
0
41
1
10
10.6426296184524
20
1.25414408647848
30
0
41
1
10
10.6367889374018
20
1.26901912959761
30
0
41
1
10
10.6309879095291
20
1.28368701536061
30
0
41
1
10
10.6252267845523
20
1.29814432715742
30
0
41
1
10
10.6195058946122
20
1.31238782200725
30
0
41
1
10
10.613825648794
20
1.32641442520296
30
0
41
1
10
10.6081865277657
20
1.34022122493516
30
0
41
1
10
10.6025890785364
20
1.35380546690811
30
0
41
1
10
10.5970339093377
20
1.36716454895901
30
0
41
1
10
10.5915216846278
20
1.38029601568991
30
0
41
1
10
10.586053120223
20
1.39319755312405
30
0
41
1
10
10.5806289785562
20
1.40586698339448
30
0
41
1
10
10.5752500640628
20
1.41830225947478
30
0
41
1
10
10.5699172186975
20
1.43050145996028
30
0
41
1
10
10.564631317577
20
1.44246278390571
30
0
41
1
10
10.5593932647617
20
1.45418454573419
30
0
41
1
10
10.5542039891352
20
1.46566517019838
30
0
41
1
10
10.5490644405302
20
1.47690318749315
30
0
41
1
10
10.5439755855536
20
1.487897228191
30
0
41
1
10
10.538938405102
20
1.49864601921729
30
0
41
1
10
10.5339538863509
20
1.50914837649094
30
0
41
1
10
10.5290230352953
20
1.51940321005679
30
0
41
1
10
10.5241468156954
20
1.52940948460426
30
0
41
1
10
10.5193263540236
20
1.53916634138
30
0
41
1
10
10.5145621863574
20
1.5486726389758
30
0
41
1
10
10.509856955747
20
1.55792858725081
30
0
41
1
10
10.4985075599301
20
1.57989229103418
30
0
41
1
10
10.4799495654745
20
1.61460517968112
30
0
41
1
10
10.4533462070275
20
1.66198289561501
30
0
41
1
10
10.4254660794186
20
1.70927883628215
30
0
41
1
10
10.3963312295914
20
1.75647262701691
30
0
41
1
10
10.3659545362516
20
1.80354197485048
30
0
41
1
10
10.3343534053384
20
1.85047012296892
30
0
41
1
10
10.3015457167261
20
1.89724345650595
30
0
41
1
10
10.2675505966552
20
1.94385177306202
30
0
41
1
10
10.2323879315824
20
1.99028786866631
30
0
41
1
10
10.1960781242104
20
2.03654718810415
30
0
41
1
10
10.1586422530925
20
2.0826279522218
30
0
41
1
10
10.1201004379923
20
2.12852932783207
30
0
41
1
10
10.0732044668615
20
2.18265025082525
30
0
41
1
10
10.0165162149602
20
2.24555859817335
30
0
41
1
10
9.94862990876237
20
2.31780562575341
30
0
41
1
10
9.87608069577598
20
2.39220144443846
30
0
41
1
10
9.79890300099021
20
2.46875921638275
30
0
41
1
10
9.71713274216626
20
2.54749827607054
30
0
41
1
10
9.63080520927201
20
2.6284407755393
30
0
41
1
10
9.53995423831645
20
2.7116105071544
30
0
41
1
10
9.44461638523984
20
2.79703909932641
30
0
41
1
10
9.34481259663201
20
2.88473854075511
30
0
41
1
10
9.2406197586769
20
2.97480815846313
30
0
41
1
10
9.16939868176851
20
3.03520239205798
30
0
41
1
10
9.13315561186465
20
3.06593588451534
30
0
0
SPLINE
5
F5
100
AcDbEntity
8
1
62
256
6
ByLayer
370
18
48
1
60
0
100
AcDbSpline
70
4
71
5
72
29
73
23
40
0
40
0
40
0
40
0
40
0
40
0
40
0.161455135756779
40
0.201818919695974
40
0.262364595604766
40
0.322910271513558
40
0.363274055452753
40
0.403637839391948
40
0.46418351530074
40
0.524729191209532
40
0.565092975148727
40
0.625638651057519
40
0.666002434996714
40
0.726548110905506
40
0.766911894844701
40
0.827457570753493
40
0.888003246662286
40
0.92836703060148
40
0.988912706510273
40
1
40
1
40
1
40
1
40
1
40
1
41
1
10
10.7672439494929
20
0.915320143707049
30
0
41
1
10
10.9445613154817
20
0.845291712707535
30
0
41
1
10
11.1662080229676
20
0.755033325095098
30
0
41
1
10
11.4543487426993
20
0.633836869384822
30
0
41
1
10
11.8089834746769
20
0.479694102987651
30
0
41
1
10
12.2079475481516
20
0.301643570424176
30
0
41
1
10
12.4739235971347
20
0.181597430396352
30
0
41
1
10
12.7620643168664
20
0.0507346590793532
30
0
41
1
10
13.0502050365982
20
-0.0803732217001141
30
0
41
1
10
13.3161810855813
20
-0.20109734102229
30
0
41
1
10
13.6043218053131
20
-0.330909840268134
30
0
41
1
10
13.8924625250448
20
-0.458946138613044
30
0
41
1
10
14.1806032447765
20
-0.584733341256964
30
0
41
1
10
14.4465792937596
20
-0.698264832500257
30
0
41
1
10
14.7347200134914
20
-0.817853150155514
30
0
41
1
10
15.0228607332231
20
-0.933518568792465
30
0
41
1
10
15.3110014529549
20
-1.04423841678567
30
0
41
1
10
15.5991421726866
20
-1.1499111496673
30
0
41
1
10
15.8551301203955
20
-1.23835058643189
30
0
41
1
10
16.0446240558587
20
-1.30040946608418
30
0
41
1
10
16.1676239790761
20
-1.33917964309762
30
0
41
1
10
16.2462945607963
20
-1.36333949614107
30
0
41
1
10
16.2584711302707
20
-1.36706359683575
30
0
0
SPLINE
5
F6
100
AcDbEntity
8
1
62
256
6
ByLayer
370
18
48
1
60
0
100
AcDbSpline
70
4
71
5
72
45
73
39
40
0
40
0
40
0
40
0
40
0
40
0
40
0.0111400670597134
40
0.0348332342018849
40
0.070372984915142
40
0.0940661520573134
40
0.129605902770571
40
0.153299069912742
40
0.188838820625999
40
0.224378571339256
40
0.248071738481428
40
0.283611489194685
40
0.307304656336856
40
0.342844407050113
40
0.366537574192285
40
0.402077324905542
40
0.437617075618799
40
0.46131024276097
40
0.485003409903142
40
0.520543160616399
40
0.556082911329656
40
0.579776078471828
40
0.615315829185085
40
0.650855579898342
40
0.674548747040513
40
0.698241914182685
40
0.733781664895942
40
0.769321415609199
40
0.79301458275137
40
0.828554333464628
40
0.852247500606799
40
0.887787251320056
40
0.911480418462228
40
0.947020169175485
40
0.982559919888742
40
1
40
1
40
1
40
1
40
1
40
1
41
1
10
13.5444371694158
20
1.83921964846445
30
0
41
1
10
13.5652799648946
20
1.83831817816323
30
0
41
1
10
13.6304521018707
20
1.83531032163697
30
0
41
1
10
13.7621182510926
20
1.82804000578733
30
0
41
1
10
13.9381137418117
20
1.81510799685773
30
0
41
1
10
14.1806032447765
20
1.79141857921431
30
0
41
1
10
14.4465792937597
20
1.75743674229233
30
0
41
1
10
14.7347200134914
20
1.7121410270297
30
0
41
1
10
15.0228607332231
20
1.65855974332618
30
0
41
1
10
15.3110014529549
20
1.59615635595435
30
0
41
1
10
15.5991421726866
20
1.52603826973734
30
0
41
1
10
15.8872828924183
20
1.44782041709067
30
0
41
1
10
16.1754236121501
20
1.36262667728289
30
0
41
1
10
16.4413996611332
20
1.27788815919507
30
0
41
1
10
16.729540380865
20
1.17993660871977
30
0
41
1
10
17.0176811005967
20
1.0762584771218
30
0
41
1
10
17.3058218203284
20
0.966846158101362
30
0
41
1
10
17.5717978693115
20
0.86153658185799
30
0
41
1
10
17.8599385890433
20
0.743345785112211
30
0
41
1
10
18.148079308775
20
0.621563735118571
30
0
41
1
10
18.4140553577582
20
0.506320650034951
30
0
41
1
10
18.7021960774899
20
0.379026776326128
30
0
41
1
10
19.0125014679703
20
0.23979073053826
30
0
41
1
10
19.300642187702
20
0.109208016447297
30
0
41
1
10
19.5666182366851
20
-0.0118171057231677
30
0
41
1
10
19.8547589564168
20
-0.142805548778512
30
0
41
1
10
20.1428996761486
20
-0.273104069461823
30
0
41
1
10
20.4088757251317
20
-0.39222084666676
30
0
41
1
10
20.6970164448635
20
-0.519368301849539
30
0
41
1
10
20.9851571645952
20
-0.643738453957553
30
0
41
1
10
21.2732978843269
20
-0.764967581650495
30
0
41
1
10
21.5392739333101
20
-0.873486552003499
30
0
41
1
10
21.8274146530418
20
-0.986799387262522
30
0
41
1
10
22.1155553727735
20
-1.09537129475606
30
0
41
1
10
22.3919967182198
20
-1.19396388725565
30
0
41
1
10
22.6019440514203
20
-1.26484471324863
30
0
41
1
10
22.7675620431236
20
-1.31808066005317
30
0
41
1
10
22.866686022581
20
-1.3489446605725
30
0
41
1
10
22.8993159897927
20
-1.35899505678103
30
0
0
SPLINE
5
F7
100
AcDbEntity
8
1
62
256
6
ByLayer
370
18
48
1
60
0
100
AcDbSpline
70
4
71
3
72
14
73
10
40
0
40
0
40
0
40
0
40
0.249999999999999
40
0.249999999999999
40
0.374999999999998
40
0.374999999999998
40
0.499999999999998
40
0.499999999999998
40
1
40
1
40
1
40
1
41
1
10
27.3824843458782
20
0.617407210676049
30
0
41
1
10
27.3776787347688
20
0.561761004807892
30
0
41
1
10
27.3746262873327
20
0.505384450023257
30
0
41
1
10
27.3727399796316
20
0.419698008517599
30
0
41
1
10
27.3725622331016
20
0.390932429901881
30
0
41
1
10
27.3731075494503
20
0.333440563435289
30
0
41
1
10
27.3738287545079
20
0.304663703052711
30
0
41
1
10
27.3796450075007
20
0.160627006719949
30
0
41
1
10
27.3913496326574
20
0.0449114427536301
30
0
41
1
10
27.4098678398219
20
-0.0712739152867812
30
0
0
SPLINE
5
F8
100
AcDbEntity
8
1
62
256
6
ByLayer
370
18
48
1
60
0
100
AcDbSpline
70
4
71
3
72
8
73
4
40
0
40
0
40
0
40
0
40
1
40
1
40
1
40
1
41
1
10
27.2763239400489
20
-0.0463950351838491
30
0
41
1
10
27.3208414285694
20
-0.0546880628133408
30
0
41
1
10
27.365356205961
20
-0.0629810266814843
30
0
41
1
10
27.4098678398219
20
-0.0712739152867812
30
0
0
SPLINE
5
F9
100
AcDbEntity
8
1
62
256
6
ByLayer
370
18
48
1
60
0
100
AcDbSpline
70
4
71
3
72
49
73
45
40
0
40
0
40
0
40
0
40
0.0624999999999926
40
0.0624999999999926
40
0.0937499999999886
40
0.0937499999999886
40
0.124999999999985
40
0.124999999999985
40
0.187499999999977
40
0.187499999999977
40
0.218749999999974
40
0.218749999999974
40
0.234374999999972
40
0.234374999999972
40
0.24999999999997
40
0.24999999999997
40
0.312499999999965
40
0.312499999999965
40
0.328124999999962
40
0.328124999999962
40
0.34374999999996
40
0.34374999999996
40
0.374999999999962
40
0.374999999999962
40
0.406249999999965
40
0.406249999999965
40
0.437499999999967
40
0.46874999999997
40
0.46874999999997
40
0.499999999999972
40
0.499999999999972
40
0.562499999999992
40
0.562499999999992
40
0.625000000000013
40
0.625000000000013
40
0.656250000000023
40
0.656250000000023
40
0.687500000000033
40
0.687500000000033
40
0.750000000000036
40
0.750000000000036
40
0.875000000000022
40
0.875000000000022
40
1
40
1
40
1
40
1
41
1
10
27.2754727504047
20
-0.0462351590286971
30
0
41
1
10
27.2990535969718
20
-0.0510886772889023
30
0
41
1
10
27.3216278832458
20
-0.0557627180097313
30
0
41
1
10
27.3531335751224
20
-0.0623537327418831
30
0
41
1
10
27.363239675921
20
-0.0644801640552544
30
0
41
1
10
27.3824642697337
20
-0.068556928522554
30
0
41
1
10
27.391586542201
20
-0.0705081840332866
30
0
41
1
10
27.4168572646306
20
-0.0759784387854268
30
0
41
1
10
27.4310430365211
20
-0.0791407220122835
30
0
41
1
10
27.4463948957677
20
-0.082805062485761
30
0
41
1
10
27.4505142708136
20
-0.0838448209092064
30
0
41
1
10
27.4548421492471
20
-0.0850674159015057
30
0
41
1
10
27.4559753231549
20
-0.0854186060069253
30
0
41
1
10
27.457550027947
20
-0.0859950596886563
30
0
41
1
10
27.4579905055199
20
-0.0862207521732614
30
0
41
1
10
27.458262058766
20
-0.0869875875609125
30
0
41
1
10
27.4523612172774
20
-0.0864568042846372
30
0
41
1
10
27.4362318030336
20
-0.0841562033953096
30
0
41
1
10
27.4325708071875
20
-0.0836144098510943
30
0
41
1
10
27.4245130130825
20
-0.0823883304415176
30
0
41
1
10
27.4201032865971
20
-0.081702237481835
30
0
41
1
10
27.4057868977414
20
-0.0794354028057853
30
0
41
1
10
27.3948133311378
20
-0.0776500003663045
30
0
41
1
10
27.3700251476889
20
-0.0735342061823303
30
0
41
1
10
27.3561237605221
20
-0.0711884663773787
30
0
41
1
10
27.3264880999704
20
-0.066127182924987
30
0
41
1
10
27.2948702562507
20
-0.0606720936673639
30
0
41
1
10
27.2599264068016
20
-0.0545562176647252
30
0
41
1
10
27.2235840039919
20
-0.0481624872027453
30
0
41
1
10
27.2046960209037
20
-0.0448234702007539
30
0
41
1
10
27.147202949396
20
-0.0346222275004777
30
0
41
1
10
27.1074623611406
20
-0.0275226595249194
30
0
41
1
10
27.0261018521999
20
-0.0129258741520175
30
0
41
1
10
26.9844719531953
20
-0.0054265454345739
30
0
41
1
10
26.9210092558763
20
0.0060378150700444
30
0
41
1
10
26.8996553896277
20
0.0099006641708286
30
0
41
1
10
26.8567905469981
20
0.0176638435233656
30
0
41
1
10
26.8353021888915
20
0.0215600625199386
30
0
41
1
10
26.7706942642901
20
0.0332860795808756
30
0
41
1
10
26.7274330547256
20
0.0411529219905731
30
0
41
1
10
26.5972227591015
20
0.0648650367274968
30
0
41
1
10
26.509854365078
20
0.080819971949353
30
0
41
1
10
26.3343993312791
20
0.112917687402074
30
0
41
1
10
26.2463068163843
20
0.129062004170891
30
0
41
1
10
26.157951714017
20
0.145274996244751
30
0
0
SPLINE
5
FA
100
AcDbEntity
8
1
62
256
6
ByLayer
370
18
48
1
60
0
100
AcDbSpline
70
4
71
3
72
14
73
10
40
0
40
0
40
0
40
0
40
0.135568962202697
40
0.271137924405393
40
0.40670688660809
40
0.542275848810786
40
0.677844811013483
40
0.813413773216179
40
1
40
1
40
1
40
1
41
1
10
10.7672439494929
20
0.915320143707049
30
0
41
1
10
10.6434664395261
20
0.859284696635257
30
0
41
1
10
10.3856095370259
20
0.775535537742599
30
0
41
1
10
10.0075468711437
20
0.689631441918891
30
0
41
1
10
9.63374893519813
20
0.661177564076439
30
0
41
1
10
9.26571668737887
20
0.692901044183913
30
0
41
1
10
8.90242295281197
20
0.790692437214688
30
0
41
1
10
8.49780511115276
20
0.966476257061004
30
0
41
1
10
8.21617564896349
20
1.13670510608833
30
0
41
1
10
8.05442566716613
20
1.24341188579532
30
0
0
SPLINE
5
FB
100
AcDbEntity
8
1
62
256
6
ByLayer
370
18
48
1
60
0
100
AcDbSpline
70
4
71
3
72
35
73
31
40
0
40
0
40
0
40
0
40
0.0549918888336761
40
0.0549918888336761
40
0.109983777667352
40
0.109983777667352
40
0.164975666501028
40
0.164975666501028
40
0.219967555334704
40
0.27495944416838
40
0.329951333002057
40
0.384943221835733
40
0.439935110669409
40
0.494926999503085
40
0.549918888336761
40
0.604910777170437
40
0.604910777170437
40
0.659902666004113
40
0.659902666004113
40
0.714894554837789
40
0.714894554837789
40
0.769886443671466
40
0.769886443671466
40
0.824878332505142
40
0.824878332505142
40
0.879870221338818
40
0.879870221338818
40
0.934862110172494
40
0.98985399900617
40
1
40
1
40
1
40
1
41
1
10
27.2757763619921
20
-0.0464723412401327
30
0
41
1
10
27.1126953944798
20
0.0809268919502699
30
0
41
1
10
26.9496144269675
20
0.208438047496486
30
0
41
1
10
26.6234524919429
20
0.461840093318045
30
0
41
1
10
26.4603715244307
20
0.587730097136529
30
0
41
1
10
26.1342095894059
20
0.836067403128055
30
0
41
1
10
25.9711286218937
20
0.958513836462174
30
0
41
1
10
25.6449666868691
20
1.19819140332947
30
0
41
1
10
25.3188047518444
20
1.43265199349474
30
0
41
1
10
24.8295618493074
20
1.76360408938191
30
0
41
1
10
24.3403189467703
20
2.0690256101152
30
0
41
1
10
23.8510760442335
20
2.34449519768731
30
0
41
1
10
23.3618331416965
20
2.58602508942761
30
0
41
1
10
22.8725902391594
20
2.79011884400006
30
0
41
1
10
22.3833473366224
20
2.95382195887115
30
0
41
1
10
22.0571854015976
20
3.03445052236219
30
0
41
1
10
21.7310234665729
20
3.10024194639848
30
0
41
1
10
21.5679424990605
20
3.12571902287743
30
0
41
1
10
21.2417805640357
20
3.16146745739491
30
0
41
1
10
21.0786995965233
20
3.17173868874264
30
0
41
1
10
20.7525376614985
20
3.17692664189747
30
0
41
1
10
20.5894566939861
20
3.17184334504236
30
0
41
1
10
20.2632947589614
20
3.14639572836816
30
0
41
1
10
20.100213791449
20
3.12603149635561
30
0
41
1
10
19.7740518564242
20
3.07031670994976
30
0
41
1
10
19.6109708889118
20
3.03496634835608
30
0
41
1
10
19.284808953887
20
2.94979094757048
30
0
41
1
10
18.9586470188621
20
2.85014106606698
30
0
41
1
10
18.6023966527332
20
2.71125492055984
30
0
41
1
10
18.4092272541167
20
2.62694434671931
30
0
41
1
10
18.3791388230126
20
2.61359703081897
30
0
0
SPLINE
5
FC
100
AcDbEntity
8
1
62
256
6
ByLayer
370
18
48
1
60
0
100
AcDbSpline
70
4
71
3
72
37
73
33
40
0
40
0
40
0
40
0
40
0.042604095463515
40
0.042604095463515
40
0.0929933535970141
40
0.0929933535970141
40
0.143382611730513
40
0.143382611730513
40
0.193771869864013
40
0.193771869864013
40
0.244161127997512
40
0.294550386131011
40
0.34493964426451
40
0.39532890239801
40
0.445718160531509
40
0.496107418665008
40
0.546496676798507
40
0.596885934932006
40
0.596885934932006
40
0.647275193065506
40
0.647275193065506
40
0.697664451199005
40
0.697664451199005
40
0.748053709332504
40
0.748053709332504
40
0.798442967466003
40
0.798442967466003
40
0.848832225599502
40
0.848832225599502
40
0.899221483733002
40
0.949610741866501
40
1
40
1
40
1
40
1
41
1
10
21.3292732867024
20
-3.15133323101102
30
0
41
1
10
21.1913884008052
20
-3.1644580179279
30
0
41
1
10
21.0535035149081
20
-3.17213945927136
30
0
41
1
10
20.7525376614985
20
-3.17692664189761
30
0
41
1
10
20.5894566939861
20
-3.1718433450425
30
0
41
1
10
20.2632947589614
20
-3.1463957283683
30
0
41
1
10
20.100213791449
20
-3.12603149635575
30
0
41
1
10
19.7740518564242
20
-3.07031670994988
30
0
41
1
10
19.6109708889117
20
-3.03496634835622
30
0
41
1
10
19.284808953887
20
-2.94979094757059
30
0
41
1
10
18.9586470188622
20
-2.85014146297527
30
0
41
1
10
18.4694041163249
20
-2.65940754565966
30
0
41
1
10
17.9801612137876
20
-2.43017537145673
30
0
41
1
10
17.4909183112502
20
-2.16576338676646
30
0
41
1
10
17.0016754087129
20
-1.8699993103578
30
0
41
1
10
16.5124325061757
20
-1.5471647195547
30
0
41
1
10
16.0231896036383
20
-1.20193307153468
30
0
41
1
10
15.6970276686133
20
-0.960178780164199
30
0
41
1
10
15.3708657335885
20
-0.714374526037773
30
0
41
1
10
15.207784766076
20
-0.58944786494547
30
0
41
1
10
14.8816228310511
20
-0.337352207819464
30
0
41
1
10
14.7185418635385
20
-0.210184094015318
30
0
41
1
10
14.3923799285136
20
0.0445535550339002
30
0
41
1
10
14.2292989610011
20
0.172122198923859
30
0
41
1
10
13.9031370259762
20
0.425814184281649
30
0
41
1
10
13.7400560584636
20
0.551936638149613
30
0
41
1
10
13.4138941234386
20
0.800910442997321
30
0
41
1
10
13.2508131559261
20
0.923760923178349
30
0
41
1
10
12.9246512209012
20
1.16441233399263
30
0
41
1
10
12.5984892858762
20
1.40001251282953
30
0
41
1
10
12.1092463833386
20
1.7331464918247
30
0
41
1
10
11.7830844483136
20
1.93850961813078
30
0
41
1
10
11.6200034808011
20
2.03626632846834
30
0
0
SPLINE
5
FD
100
AcDbEntity
8
1
62
256
6
ByLayer
370
18
48
1
60
0
100
AcDbSpline
70
4
71
3
72
53
73
49
40
0
40
0
40
0
40
0
40
0.0320672132669437
40
0.0320672132669437
40
0.0641344265338873
40
0.0641344265338873
40
0.096201639800831
40
0.128268853067775
40
0.160336066334718
40
0.192403279601662
40
0.224470492868606
40
0.256537706135549
40
0.288604919402493
40
0.320672132669437
40
0.320672132669437
40
0.352739345936381
40
0.352739345936381
40
0.384806559203324
40
0.384806559203324
40
0.416873772470268
40
0.416873772470268
40
0.448940985737212
40
0.448940985737212
40
0.481008199004156
40
0.481008199004156
40
0.513075412271099
40
0.545142625538043
40
0.577209838804987
40
0.60927705207193
40
0.641344265338874
40
0.673411478605818
40
0.705478691872761
40
0.737545905139705
40
0.737545905139705
40
0.769613118406649
40
0.769613118406649
40
0.801680331673593
40
0.801680331673593
40
0.833747544940536
40
0.833747544940536
40
0.86581475820748
40
0.86581475820748
40
0.897881971474424
40
0.897881971474424
40
0.929949184741367
40
0.962016398008311
40
0.994083611275255
40
1
40
1
40
1
40
1
41
1
10
27.2757763619921
20
-3.17016799835483
30
0
41
1
10
27.1126953944798
20
-3.16314124469068
30
0
41
1
10
26.9496144269675
20
-3.14844732702559
30
0
41
1
10
26.6234524919429
20
-3.10393767445484
30
0
41
1
10
26.4603715244306
20
-3.07412209685145
30
0
41
1
10
26.134209589406
20
-2.9998006467512
30
0
41
1
10
25.8080476543813
20
-2.91078942234896
30
0
41
1
10
25.3188047518443
20
-2.73513451342751
30
0
41
1
10
24.8295618493075
20
-2.51988545671563
30
0
41
1
10
24.3403189467705
20
-2.26815791526607
30
0
41
1
10
23.8510760442335
20
-1.98359598352974
30
0
41
1
10
23.3618331416964
20
-1.67031983438261
30
0
41
1
10
22.8725902391594
20
-1.3328630981737
30
0
41
1
10
22.5464283041347
20
-1.09502849772926
30
0
41
1
10
22.2202663691099
20
-0.852483766059237
30
0
41
1
10
22.0571854015975
20
-0.728856778229186
30
0
41
1
10
21.7310234665728
20
-0.478681496838561
30
0
41
1
10
21.5679424990605
20
-0.352134078180626
30
0
41
1
10
21.2417805640357
20
-0.0979498585922443
30
0
41
1
10
21.0786995965233
20
0.0296860532129983
30
0
41
1
10
20.7525376614986
20
0.284199566362503
30
0
41
1
10
20.5894566939862
20
0.41107627718128
30
0
41
1
10
20.2632947589614
20
0.662234673902361
30
0
41
1
10
20.100213791449
20
0.786515480707578
30
0
41
1
10
19.7740518564242
20
1.03068292221826
30
0
41
1
10
19.4478899213993
20
1.27045448175815
30
0
41
1
10
18.958647018862
20
1.6117210624696
30
0
41
1
10
18.4694041163248
20
1.92965576498827
30
0
41
1
10
17.9801612137876
20
2.21965608665229
30
0
41
1
10
17.4909183112503
20
2.47752391204978
30
0
41
1
10
17.001675408713
20
2.69952628809236
30
0
41
1
10
16.5124325061757
20
2.88244945956174
30
0
41
1
10
16.1862705711508
20
2.97658021006797
30
0
41
1
10
15.8601086361259
20
3.05612049079559
30
0
41
1
10
15.6970276686134
20
3.08859530701835
30
0
41
1
10
15.3708657335885
20
3.13848463552071
30
0
41
1
10
15.207784766076
20
3.15589897389577
30
0
41
1
10
14.8816228310511
20
3.17541515047665
30
0
41
1
10
14.7185418635386
20
3.1775169224432
30
0
41
1
10
14.3923799285136
20
3.16637743890368
30
0
41
1
10
14.2292989610012
20
3.1531362244225
30
0
41
1
10
13.9031370259762
20
3.11150235271219
30
0
41
1
10
13.7400560584637
20
3.08310984187588
30
0
41
1
10
13.4138941234387
20
3.01158429821854
30
0
41
1
10
13.0877321884138
20
2.9253187346871
30
0
41
1
10
12.5984892858762
20
2.75357244906752
30
0
41
1
10
12.2422389739978
20
2.59948679545221
30
0
41
1
10
12.049069629632
20
2.50733211555129
30
0
41
1
10
12.0189812527787
20
2.49277294406454
30
0
0
SPLINE
5
FE
100
AcDbEntity
8
1
62
256
6
ByLayer
370
18
48
1
60
0
100
AcDbSpline
70
4
71
3
72
14
73
10
40
0
40
0
40
0
40
0
40
0.25
40
0.25
40
0.5
40
0.5
40
0.75
40
0.75
40
1
40
1
40
1
40
1
41
1
10
10.8207981561059
20
-1.81364741852639
30
0
41
1
10
10.832140856094
20
-1.75291224778815
30
0
41
1
10
10.8470483413479
20
-1.69152460915637
30
0
41
1
10
10.8812685761112
20
-1.56707703401656
30
0
41
1
10
10.9006100879817
20
-1.50400408588683
30
0
41
1
10
10.9420570380677
20
-1.3759900097956
30
0
41
1
10
10.9640558060835
20
-1.31140053778307
30
0
41
1
10
11.0094777392561
20
-1.1807956334475
30
0
41
1
10
11.0329076663318
20
-1.11478159771858
30
0
41
1
10
11.0566756637034
20
-1.0479505573918
30
0
0
SPLINE
5
FF
100
AcDbEntity
8
1
62
256
6
ByLayer
370
18
48
1
60
0
100
AcDbSpline
70
4
71
3
72
14
73
10
40
0
40
0
40
0
40
0
40
0.25
40
0.25
40
0.5
40
0.5
40
0.75
40
0.75
40
1
40
1
40
1
40
1
41
1
10
10.8207981561059
20
2.47315205493231
30
0
41
1
10
10.832140856094
20
2.51955422037241
30
0
41
1
10
10.8470483413479
20
2.56332402431781
30
0
41
1
10
10.8812685761112
20
2.64623017041905
30
0
41
1
10
10.9006100879817
20
2.6853699190757
30
0
41
1
10
10.9420570380677
20
2.75928640128873
30
0
41
1
10
10.9640558060835
20
2.79386122513165
30
0
41
1
10
11.0094777392561
20
2.85856633033365
30
0
41
1
10
11.0329076663318
20
2.88869428333655
30
0
41
1
10
11.0566756637035
20
2.91666729426032
30
0
0
SPLINE
5
100
100
AcDbEntity
8
1
62
256
6
ByLayer
370
18
48
1
60
0
100
AcDbSpline
70
4
71
3
72
34
73
30
40
0
40
0
40
0
40
0
40
0.0554456471981984
40
0.111464153325943
40
0.168044844467897
40
0.225176209541336
40
0.253422302385589
40
0.282185965773826
40
0.311465002066567
40
0.341257016855622
40
0.371559414080883
40
0.402369391216825
40
0.433683934554755
40
0.465499814605582
40
0.497813581648524
40
0.530621561450069
40
0.563919851177794
40
0.597704315533192
40
0.631970583127485
40
0.666714043124493
40
0.701929842174137
40
0.737612881660372
40
0.773757823626899
40
0.81035913255716
40
0.847411036346603
40
0.88490750193089
40
0.922842233886333
40
0.961208673742815
40
1
40
1
40
1
40
1
41
1
10
11.2951492470843
20
2.75214248197926
30
0
41
1
10
11.2870405468566
20
2.7482234219485
30
0
41
1
10
11.2707393681145
20
2.74034481054724
30
0
41
1
10
11.2458372915219
20
2.72788169483792
30
0
41
1
10
11.2204447997722
20
2.71486469727515
30
0
41
1
10
11.1989873608685
20
2.70358437876772
30
0
41
1
10
11.1816023156963
20
2.69428856041125
30
0
41
1
10
11.1683907999734
20
2.6871473760778
30
0
41
1
10
11.154875358341
20
2.67976061421641
30
0
41
1
10
11.1410556237205
20
2.67212294308049
30
0
41
1
10
11.1269316716166
20
2.66422908089868
30
0
41
1
10
11.1125034527594
20
2.65607382716817
30
0
41
1
10
11.0977709490497
20
2.64765207040861
30
0
41
1
10
11.082734130596
20
2.63895880294868
30
0
41
1
10
11.0673929674323
20
2.62998913431673
30
0
41
1
10
11.0517474262276
20
2.62073830553203
30
0
41
1
10
11.0357974711219
20
2.61120170361929
30
0
41
1
10
11.0195430634723
20
2.60137487656581
30
0
41
1
10
11.0029841617978
20
2.59125354837198
30
0
41
1
10
10.9861207221257
20
2.58083363520512
30
0
41
1
10
10.9689526965677
20
2.57011125869101
30
0
41
1
10
10.9514800374231
20
2.55908277038935
30
0
41
1
10
10.9337026678875
20
2.54774472670473
30
0
41
1
10
10.915620581274
20
2.53609405047896
30
0
41
1
10
10.8972335703206
20
2.52412759814675
30
0
41
1
10
10.8785421406793
20
2.51184394424646
30
0
41
1
10
10.8595440549321
20
2.49923671196564
30
0
41
1
10
10.8402474768284
20
2.48632001377274
30
0
41
1
10
10.8272340769004
20
2.47750931054668
30
0
41
1
10
10.8206915463458
20
2.47307969988518
30
0
0
SPLINE
5
101
100
AcDbEntity
8
1
62
256
6
ByLayer
370
18
48
1
60
0
100
AcDbSpline
70
4
71
3
72
12
73
8
40
0
40
0
40
0
40
0
40
0.453129415474438
40
0.453129415474438
40
0.906258830948876
40
0.906258830948876
40
1
40
1
40
1
40
1
41
1
10
11.0566756636927
20
2.91666729426362
30
0
41
1
10
10.8073391735174
20
2.99363521084825
30
0
41
1
10
10.5591699765138
20
3.05379490959433
30
0
41
1
10
10.0620062896931
20
3.13954293346882
30
0
41
1
10
9.81302172767522
20
3.16513507851485
30
0
41
1
10
9.51008876143487
20
3.17421802658939
30
0
41
1
10
9.45804887237736
20
3.1750004303874
30
0
41
1
10
9.40594888318788
20
3.17499991827626
30
0
0
SPLINE
5
102
100
AcDbEntity
8
1
62
256
6
ByLayer
370
18
48
1
60
0
100
AcDbSpline
70
4
71
3
72
8
73
4
40
0
40
0
40
0
40
0
40
1
40
1
40
1
40
1
41
1
10
11.056675663694
20
2.91666729426711
30
0
41
1
10
11.1350515042488
20
2.86042981997897
30
0
41
1
10
11.2145698674543
20
2.80563983581092
30
0
41
1
10
11.2952530220107
20
2.75227933785089
30
0
0
SPLINE
5
103
100
AcDbEntity
8
1
62
256
6
ByLayer
370
18
48
1
60
0
100
AcDbSpline
70
4
71
3
72
88
73
84
40
0
40
0
40
0
40
0
40
0.0004442641222007
40
0.0004442641222007
40
0.0374648469324862
40
0.0374648469324862
40
0.0744854297427717
40
0.0744854297427717
40
0.111506012553057
40
0.111506012553057
40
0.120761158255628
40
0.120761158255628
40
0.1300163039582
40
0.1300163039582
40
0.148526595363343
40
0.148526595363343
40
0.185547178173629
40
0.185547178173629
40
0.259588343794201
40
0.259588343794201
40
0.296608926604487
40
0.296608926604487
40
0.333629509414773
40
0.333629509414773
40
0.37065009222506
40
0.37065009222506
40
0.407670675035346
40
0.407670675035346
40
0.426180966440489
40
0.426180966440489
40
0.444691257845633
40
0.444691257845633
40
0.463201549250776
40
0.463201549250776
40
0.472456694953348
40
0.472456694953348
40
0.48171184065592
40
0.48171184065592
40
0.51873242346621
40
0.51873242346621
40
0.537242714871356
40
0.537242714871356
40
0.555753006276502
40
0.555753006276502
40
0.592773589086793
40
0.592773589086793
40
0.611283880491939
40
0.611283880491939
40
0.629794171897084
40
0.629794171897084
40
0.64830446330223
40
0.64830446330223
40
0.666814754707376
40
0.666814754707376
40
0.685325046112521
40
0.685325046112521
40
0.703835337517667
40
0.703835337517667
40
0.740855920327958
40
0.740855920327958
40
0.759366211733104
40
0.759366211733104
40
0.77787650313825
40
0.77787650313825
40
0.796386794543395
40
0.796386794543395
40
0.805641940245968
40
0.805641940245968
40
0.814897085948541
40
0.814897085948541
40
0.851917668758833
40
0.851917668758833
40
0.888938251569125
40
0.888938251569125
40
0.907448542974271
40
0.907448542974271
40
0.925958834379418
40
0.925958834379418
40
0.962979417189709
40
0.962979417189709
40
0.981489708594855
40
0.981489708594855
40
1
40
1
40
1
40
1
41
1
10
24.7615779429081
20
-2.48961144810744
30
0
41
1
10
24.759583473031
20
-2.49046902909512
30
0
41
1
10
24.7575890778812
20
-2.49132567854912
30
0
41
1
10
24.5894077236081
20
-2.56348844877161
30
0
41
1
10
24.4237412572251
20
-2.62831844669964
30
0
41
1
10
24.0925544344391
20
-2.74455130993962
30
0
41
1
10
23.9270329177332
20
-2.79595846951006
30
0
41
1
10
23.5952419915605
20
-2.88484692699592
30
0
41
1
10
23.4289760402148
20
-2.9223319645302
30
0
41
1
10
23.2201322001687
20
-2.95998736022378
30
0
41
1
10
23.1783127298444
20
-2.96705752358454
30
0
41
1
10
23.0945571932424
20
-2.98026463100442
30
0
41
1
10
23.0525807987338
20
-2.98640660763653
30
0
41
1
10
22.9268972459597
20
-3.00335980789083
30
0
41
1
10
22.8433597086302
20
-3.01271446390558
30
0
41
1
10
22.5933156254193
20
-3.03501116501511
30
0
41
1
10
22.4273745241334
20
-3.04219392128883
30
0
41
1
10
21.9304533497551
20
-3.04107412764816
30
0
41
1
10
21.6003850441061
20
-3.01015974953916
30
0
41
1
10
21.1018577145641
20
-2.91890573427321
30
0
41
1
10
20.9351147052026
20
-2.88097918929026
30
0
41
1
10
20.5995649728349
20
-2.78990842945237
30
0
41
1
10
20.4328236263996
20
-2.73730183269049
30
0
41
1
10
20.1005863688507
20
-2.61895523297915
30
0
41
1
10
19.9350819765773
20
-2.55314005042973
30
0
41
1
10
19.6041730478584
20
-2.40981751093696
30
0
41
1
10
19.438721476025
20
-2.33253503933477
30
0
41
1
10
19.190202059755
20
-2.20768849946632
30
0
41
1
10
19.1072997062587
20
-2.16459770325937
30
0
41
1
10
18.9412739340919
20
-2.0754326626128
30
0
41
1
10
18.8581577787043
20
-2.02931818066168
30
0
41
1
10
18.6915517663614
20
-1.93429124052284
30
0
41
1
10
18.6080467756287
20
-1.88545749521526
30
0
41
1
10
18.4823775097212
20
-1.81048507974026
30
0
41
1
10
18.4403926313962
20
-1.78517496792716
30
0
41
1
10
18.3566040657141
20
-1.73412752910281
30
0
41
1
10
18.3147675895314
20
-1.70836965023281
30
0
41
1
10
18.1058592278528
20
-1.57841575391106
30
0
41
1
10
17.9396087220054
20
-1.4707364050048
30
0
41
1
10
17.6910796747557
20
-1.30402275896722
30
0
41
1
10
17.6083667002077
20
-1.24760509552058
30
0
41
1
10
17.442948241177
20
-1.13354771009421
30
0
41
1
10
17.3602423124301
20
-1.07591343855734
30
0
41
1
10
17.1120968019615
20
-0.901127718097939
30
0
41
1
10
16.946642779146
20
-0.782064950169826
30
0
41
1
10
16.6978535872256
20
-0.600199828932546
30
0
41
1
10
16.6148286561823
20
-0.539009527998587
30
0
41
1
10
16.4484135530351
20
-0.415796719824755
30
0
41
1
10
16.3650113952866
20
-0.353813934419861
30
0
41
1
10
16.1977062516016
20
-0.229261937578769
30
0
41
1
10
16.1136866738952
20
-0.166566700413654
30
0
41
1
10
15.9464042040452
20
-0.0415555438412696
30
0
41
1
10
15.8630029085206
20
0.0208519391393338
30
0
41
1
10
15.6965865073991
20
0.145336291988457
30
0
41
1
10
15.6135739145091
20
0.207415093871447
30
0
41
1
10
15.4478324585178
20
0.331095402238589
30
0
41
1
10
15.3650915565714
20
0.39268673973416
30
0
41
1
10
15.116939319743
20
0.576395985042183
30
0
41
1
10
14.9516404758624
20
0.697491733797705
30
0
41
1
10
14.7035009070798
20
0.876372862450694
30
0
41
1
10
14.6207541718837
20
0.935535721840893
30
0
41
1
10
14.4550679791773
20
1.05276961958595
30
0
41
1
10
14.3721317527654
20
1.11084065723739
30
0
41
1
10
14.2059096950244
20
1.22572448133948
30
0
41
1
10
14.1226194486295
20
1.28253850962196
30
0
41
1
10
13.9973486441806
20
1.36671449484703
30
0
41
1
10
13.9555362660183
20
1.39459883856353
30
0
41
1
10
13.8717892293187
20
1.44999883117072
30
0
41
1
10
13.8298238543279
20
1.47753400804919
30
0
41
1
10
13.6204967857848
20
1.61369148858239
30
0
41
1
10
13.4541138669044
20
1.71810142117383
30
0
41
1
10
13.1223812295131
20
1.91716489414696
30
0
41
1
10
12.9570091156199
20
2.01184534848227
30
0
41
1
10
12.7090007942075
20
2.14609186338524
30
0
41
1
10
12.6263487515819
20
2.18953618391103
30
0
41
1
10
12.4610097107758
20
2.27363693290099
30
0
41
1
10
12.3783177254452
20
2.31429809381302
30
0
41
1
10
12.1299681780271
20
2.43200192762842
30
0
41
1
10
11.9640347208822
20
2.50477005352406
30
0
41
1
10
11.7138721554527
20
2.60482603137788
30
0
41
1
10
11.6302594380024
20
2.63666918850711
30
0
41
1
10
11.4625895206206
20
2.69707699960213
30
0
41
1
10
11.3788675785743
20
2.72550855474381
30
0
41
1
10
11.2951870937331
20
2.75216062188335
30
0
0
SPLINE
5
104
100
AcDbEntity
8
1
62
256
6
ByLayer
370
18
48
1
60
0
100
AcDbSpline
70
4
71
3
72
17
73
13
40
0
40
0
40
0
40
0
40
0.250000000000004
40
0.250000000000004
40
0.500000000000009
40
0.500000000000009
40
0.56250000000001
40
0.56250000000001
40
0.625000000000011
40
0.750000000000008
40
0.750000000000008
40
1
40
1
40
1
40
1
41
1
10
11.0566756636913
20
-1.04795055738285
30
0
41
1
10
10.8073391735161
20
-0.864064526980712
30
0
41
1
10
10.5591699765126
20
-0.675135311673529
30
0
41
1
10
10.0620062896922
20
-0.291232792366998
30
0
41
1
10
9.81302172767442
20
-0.0962469577689262
30
0
41
1
10
9.49926413628867
20
0.148766295906199
30
0
41
1
10
9.43634760181092
20
0.197862166944304
30
0
41
1
10
9.31037120153547
20
0.295987612459356
30
0
41
1
10
9.12167261930571
20
0.442701506367769
30
0
41
1
10
8.93353708712064
20
0.587707811814028
30
0
41
1
10
8.55740366406926
20
0.874687928585274
30
0
41
1
10
8.30683630094074
20
1.06197530008009
30
0
41
1
10
8.05481817800248
20
1.24315296332424
30
0
0
SPLINE
5
105
100
AcDbEntity
8
1
62
256
6
ByLayer
370
18
48
1
60
0
100
AcDbSpline
70
4
71
5
72
15
73
9
40
0
40
0
40
0
40
0
40
0
40
0
40
0.337725275328562
40
0.615039712797931
40
0.8923541502673
40
1
40
1
40
1
40
1
40
1
40
1
41
1
10
11.6199999582396
20
2.03627695937567
30
0
41
1
10
11.5660138073601
20
2.06863853118898
30
0
41
1
10
11.4676983149835
20
2.12675491999289
30
0
41
1
10
11.3250534811097
20
2.20885656798612
30
0
41
1
10
11.1652012141245
20
2.29708991705033
30
0
41
1
10
11.0053489471393
20
2.38084291520624
30
0
41
1
10
10.8994828310336
20
2.43426759991897
30
0
41
1
10
10.8379460564251
20
2.46461694904337
30
0
41
1
10
10.8207386233138
20
2.47304806544199
30
0
0
SPLINE
5
106
100
AcDbEntity
8
1
62
256
6
ByLayer
370
18
48
1
60
0
100
AcDbSpline
70
4
71
3
72
10
73
6
40
0
40
0
40
0
40
0
40
0.5
40
0.5
40
1
40
1
40
1
40
1
41
1
10
9.13360217075009
20
3.06606884127311
30
0
41
1
10
9.41479158032479
20
3.00901687550217
30
0
41
1
10
9.69598098989943
20
2.92986865602774
30
0
41
1
10
10.2583598090487
20
2.73076827512631
30
0
41
1
10
10.5395492186234
20
2.61082226228007
30
0
41
1
10
10.8207386281981
20
2.47304804585667
30
0
0
SPLINE
5
107
100
AcDbEntity
8
1
62
256
6
ByLayer
370
18
48
1
60
0
100
AcDbSpline
70
4
71
3
72
75
73
71
40
0
40
0
40
0
40
0
40
0.125000000000001
40
0.125000000000001
40
0.156250000000002
40
0.156250000000002
40
0.187500000000002
40
0.187500000000002
40
0.250000000000003
40
0.250000000000003
40
0.312500000000003
40
0.312500000000003
40
0.375000000000004
40
0.375000000000004
40
0.406250000000004
40
0.406250000000004
40
0.437500000000004
40
0.437500000000004
40
0.468750000000004
40
0.468750000000004
40
0.484375000000004
40
0.484375000000004
40
0.500000000000004
40
0.500000000000004
40
0.531250000000004
40
0.531250000000004
40
0.562500000000005
40
0.562500000000005
40
0.570312500000004
40
0.570312500000004
40
0.578125000000003
40
0.578125000000003
40
0.593750000000002
40
0.609375
40
0.609375
40
0.617187499999999
40
0.617187499999999
40
0.624999999999999
40
0.624999999999999
40
0.656249999999996
40
0.656249999999996
40
0.671874999999996
40
0.671874999999996
40
0.679687499999997
40
0.679687499999997
40
0.687499999999997
40
0.687499999999997
40
0.718749999999998
40
0.718749999999998
40
0.726562499999999
40
0.726562499999999
40
0.734374999999999
40
0.750000000000002
40
0.750000000000002
40
0.781250000000006
40
0.781250000000006
40
0.796875000000006
40
0.796875000000006
40
0.812500000000006
40
0.812500000000006
40
0.843750000000007
40
0.843750000000007
40
0.875000000000007
40
0.875000000000007
40
0.937500000000003
40
0.937500000000003
40
0.953125000000002
40
0.953125000000002
40
0.96875
40
1
40
1
40
1
40
1
41
1
10
8.05406396074599
20
1.24390215486525
30
0
41
1
10
7.88849071448044
20
1.36330338334736
30
0
41
1
10
7.7256159726391
20
1.48245908997137
30
0
41
1
10
7.5257342124691
20
1.63071750930479
30
0
41
1
10
7.48594698130071
20
1.66033733832575
30
0
41
1
10
7.40677592611127
20
1.71951466484762
30
0
41
1
10
7.36736398340182
20
1.74909329055751
30
0
41
1
10
7.24997600192535
20
1.83760228789257
30
0
41
1
10
7.17309242328918
20
1.89611176962222
30
0
41
1
10
7.02255961547507
20
2.01218437532782
30
0
41
1
10
6.94890390151639
20
2.06974612051593
30
0
41
1
10
6.80565490152782
20
2.18406101501648
30
0
41
1
10
6.73604630980645
20
2.24081048667378
30
0
41
1
10
6.63578778330387
20
2.32555190905549
30
0
41
1
10
6.60304285575393
20
2.3537579726744
30
0
41
1
10
6.53935772347094
20
2.41002393084241
30
0
41
1
10
6.50857970816776
20
2.4379391117119
30
0
41
1
10
6.44957781636992
20
2.49337108515976
30
0
41
1
10
6.42135089801582
20
2.5208875225689
30
0
41
1
10
6.38138076364908
20
2.56190530126679
30
0
41
1
10
6.36845412819477
20
2.57553526002107
30
0
41
1
10
6.3434980212578
20
2.60271994825533
30
0
41
1
10
6.33148804780467
20
2.61625559101375
30
0
41
1
10
6.29725762909268
20
2.65643941426447
30
0
41
1
10
6.27673229112617
20
2.68276058448743
30
0
41
1
10
6.24141243688146
20
2.73447651427654
30
0
41
1
10
6.22660501490293
20
2.75987085836621
30
0
41
1
10
6.21277145005931
20
2.7910477154067
30
0
41
1
10
6.21024069465184
20
2.79725483266503
30
0
41
1
10
6.20568900202321
20
2.8096131458575
30
0
41
1
10
6.20367045162428
20
2.81576243000131
30
0
41
1
10
6.19848542252379
20
2.8339454679018
30
0
41
1
10
6.19384475298341
20
2.85760387152644
30
0
41
1
10
6.19412353594288
20
2.88009108382977
30
0
41
1
10
6.1963457558762
20
2.89651647282545
30
0
41
1
10
6.19742233215635
20
2.90191825678153
30
0
41
1
10
6.20027950386782
20
2.91257488706603
30
0
41
1
10
6.20206575843915
20
2.91784281646997
30
0
41
1
10
6.21277970315046
20
2.94365967083365
30
0
41
1
10
6.22688686325131
20
2.96234140907137
30
0
41
1
10
6.25617395349428
20
2.98781090910163
30
0
41
1
10
6.26729235605333
20
2.99587445483886
30
0
41
1
10
6.28599661188582
20
3.00737487961507
30
0
41
1
10
6.29257647429802
20
3.0111111699438
30
0
41
1
10
6.30624540500332
20
3.01831189012199
30
0
41
1
10
6.31335176131438
20
3.02178772576932
30
0
41
1
10
6.35017794942272
20
3.0385906812746
30
0
41
1
10
6.38375977816335
20
3.05020357264166
30
0
41
1
10
6.4300856262451
20
3.06301196773902
30
0
41
1
10
6.43958154811924
20
3.06548992024147
30
0
41
1
10
6.45884005867671
20
3.07024844083796
30
0
41
1
10
6.48817838438302
20
3.07710463761799
30
0
41
1
10
6.51877588778149
20
3.08319709308751
30
0
41
1
10
6.58145362422087
20
3.09453488723392
30
0
41
1
10
6.62520652932216
20
3.1009719629642
30
0
41
1
10
6.69323472663905
20
3.10942608604958
30
0
41
1
10
6.71631324500427
20
3.11204156329688
30
0
41
1
10
6.76320840297819
20
3.11692546464178
30
0
41
1
10
6.78702316495762
20
3.11919250469853
30
0
41
1
10
6.85882336256924
20
3.12549259512494
30
0
41
1
10
6.90738954498786
20
3.12905430454913
30
0
41
1
10
7.00566809673333
20
3.13526820567296
30
0
41
1
10
7.05538192558009
20
3.13791814112042
30
0
41
1
10
7.20599249894488
20
3.1448593534366
30
0
41
1
10
7.30834449225182
20
3.14816266042266
30
0
41
1
10
7.4382053437709
20
3.15133730634719
30
0
41
1
10
7.46430315823844
20
3.15192322734296
30
0
41
1
10
7.5164861907283
20
3.15300328703913
30
0
41
1
10
7.59477531448357
20
3.15448648041789
30
0
41
1
10
7.67310553488088
20
3.15561154243198
30
0
41
1
10
7.7253421440046
20
3.15623570429696
30
0
0
SPLINE
5
108
100
AcDbEntity
8
1
62
256
6
ByLayer
370
18
48
1
60
0
100
AcDbSpline
70
4
71
3
72
9
73
5
40
0
40
0
40
0
40
0
40
0.515147463582775
40
1
40
1
40
1
40
1
41
1
10
13.5614686956299
20
1.64592956828281
30
0
41
1
10
13.5778965186615
20
1.63685400758825
30
0
41
1
10
13.6058753200072
20
1.62081087850851
30
0
41
1
10
13.6401196358778
20
1.59911663040342
30
0
41
1
10
13.6568495959863
20
1.58811565071809
30
0
0
SPLINE
5
109
100
AcDbEntity
8
1
62
256
6
ByLayer
370
18
48
1
60
0
100
AcDbSpline
70
4
71
3
72
11
73
7
40
0
40
0
40
0
40
0
40
0.310645158137207
40
0.497974773193417
40
0.686385768555023
40
1
40
1
40
1
40
1
41
1
10
15.2277606117463
20
-3.15151684990971
30
0
41
1
10
15.3758003012525
20
-3.13749762853291
30
0
41
1
10
15.6131044721257
20
-3.1151632279647
30
0
41
1
10
15.9401757703157
20
-3.08473721618557
30
0
41
1
10
16.2686460354283
20
-3.05430774316429
30
0
41
1
10
16.5078850087122
20
-3.03320550018694
30
0
41
1
10
16.6573438212898
20
-3.02033649705368
30
0
0
SPLINE
5
10A
100
AcDbEntity
8
1
62
256
6
ByLayer
370
18
48
1
60
0
100
AcDbSpline
70
4
71
3
72
9
73
5
40
0
40
0
40
0
40
0
40
0.0465234691229996
40
1
40
1
40
1
40
1
41
1
10
26.3448248332494
20
1.63670162763856
30
0
41
1
10
26.3460671102928
20
1.63598442125533
30
0
41
1
10
26.3725811731299
20
1.6206242936747
30
0
41
1
10
26.3946000868552
20
1.60669433219903
30
0
41
1
10
26.4152080558294
20
1.5928389941553
30
0
0
SPLINE
5
10B
100
AcDbEntity
8
1
62
256
6
ByLayer
370
18
48
1
60
0
100
AcDbSpline
70
4
71
3
72
11
73
7
40
0
40
0
40
0
40
0
40
0.311762902877438
40
0.498671175923628
40
0.686671871616049
40
1
40
1
40
1
40
1
41
1
10
21.3261541606234
20
-3.1517496909934
30
0
41
1
10
21.4747864061005
20
-3.13762808248993
30
0
41
1
10
21.71251811946
20
-3.11523816880967
30
0
41
1
10
22.0398602036641
20
-3.0847622872206
30
0
41
1
10
22.367926678472
20
-3.05470772619935
30
0
41
1
10
22.606932628669
20
-3.03349549551638
30
0
41
1
10
22.7563176848946
20
-3.02048213031128
30
0
0
SPLINE
5
10C
100
AcDbEntity
8
1
62
256
6
ByLayer
370
18
48
1
60
0
100
AcDbSpline
70
4
71
3
72
11
73
7
40
0
40
0
40
0
40
0
40
0.313328128383956
40
0.501328824076386
40
0.688237097122567
40
1
40
1
40
1
40
1
41
1
10
22.7563176848945
20
3.02048213031114
30
0
41
1
10
22.6069326286689
20
3.03349549551624
30
0
41
1
10
22.3679266784719
20
3.05470772619921
30
0
41
1
10
22.0398602036641
20
3.08476228722046
30
0
41
1
10
21.71251811946
20
3.11523816880953
30
0
41
1
10
21.4747864061005
20
3.13762808248978
30
0
41
1
10
21.3261541606235
20
3.15174969099326
30
0
0
SPLINE
5
10D
100
AcDbEntity
8
1
62
256
6
ByLayer
370
18
48
1
60
0
100
AcDbSpline
70
4
71
3
72
11
73
7
40
0
40
0
40
0
40
0
40
0.313614231444978
40
0.502025226806581
40
0.689354841862783
40
1
40
1
40
1
40
1
41
1
10
16.6573438212894
20
3.02033649705362
30
0
41
1
10
16.5078850087119
20
3.03320550018688
30
0
41
1
10
16.268646035428
20
3.0543077431642
30
0
41
1
10
15.9401757703156
20
3.08473721618549
30
0
41
1
10
15.6131044721256
20
3.11516322796462
30
0
41
1
10
15.3758003012525
20
3.13749762853283
30
0
41
1
10
15.2277606117463
20
3.1515168499096
30
0
0
SPLINE
5
10E
100
AcDbEntity
8
1
62
256
6
ByLayer
370
18
48
1
60
0
100
AcDbSpline
70
4
71
3
72
8
73
4
40
0
40
0
40
0
40
0
40
1
40
1
40
1
40
1
41
1
10
13.2572154387875
20
1.84447005894827
30
0
41
1
10
13.3424917450033
20
1.84513466802417
30
0
41
1
10
13.4276926076894
20
1.84381963111625
30
0
41
1
10
13.5128161584141
20
1.84053159462977
30
0
0
SPLINE
5
10F
100
AcDbEntity
8
1
62
256
6
ByLayer
370
18
48
1
60
0
100
AcDbSpline
70
4
71
1
72
4
73
2
40
0
40
0
40
1
40
1
41
1
10
25.9573723800822
20
0.968873413349058
30
0
41
1
10
25.8837932215428
20
1.0225348740376
30
0
0
SPLINE
5
110
100
AcDbEntity
8
1
62
256
6
ByLayer
370
18
48
1
60
0
100
AcDbSpline
70
4
71
1
72
4
73
2
40
0
40
0
40
1
40
1
41
1
10
13.205388795008
20
0.957880487677443
30
0
41
1
10
13.1168026220173
20
1.02263895130017
30
0
0
SPLINE
5
111
100
AcDbEntity
8
1
62
256
6
ByLayer
370
18
48
1
60
0
100
AcDbSpline
70
4
71
1
72
4
73
2
40
0
40
0
40
1
40
1
41
1
10
19.8637316207329
20
0.96463330737933
30
0
41
1
10
19.7837438591515
20
1.02278122635624
30
0
0
LINE
5
77
100
AcDbEntity
8
80
62
256
6
ByLayer
370
18
48
1
60
0
100
AcDbLine
10
0
20
0
30
0
11
-5
21
0
31
0
39
0
210
0
220
0
230
1
0
LINE
5
78
100
AcDbEntity
8
4
62
256
6
ByLayer
370
18
48
0.05
60
0
100
AcDbLine
10
0
20
0
30
0
11
27.5
21
0
31
0
39
0
210
0
220
0
230
1
0
LINE
5
7A
100
AcDbEntity
8
81
62
256
6
ByLayer
370
18
48
1
60
0
100
AcDbLine
10
27.5
20
0
30
0
11
32.5
21
0
31
0
39
0
210
0
220
0
230
1
0
LINE
5
7B
100
AcDbEntity
8
SK4
62
256
6
ByLayer
370
18
48
0.05
60
0
100
AcDbLine
10
-36
20
0
30
0
11
27.5
21
0
31
0
39
0
210
0
220
0
230
1
0
LINE
5
7D
100
AcDbEntity
8
1
62
256
6
ByLayer
370
18
48
1
60
0
100
AcDbLine
10
0
20
3.175
30
0
11
0
21
0
31
0
39
0
210
0
220
0
230
1
0
LINE
5
7E
100
AcDbEntity
8
1
62
256
6
ByLayer
370
18
48
1
60
0
100
AcDbLine
10
0
20
0
30
0
11
0
21
-3.175
31
0
39
0
210
0
220
0
230
1
0
LINE
5
7F
100
AcDbEntity
8
1
62
256
6
ByLayer
370
18
48
1
60
0
100
AcDbLine
10
27.421616
20
-0.483807
30
0
11
27.382484
21
-0.617407
31
0
39
0
210
0
220
0
230
1
0
LINE
5
80
100
AcDbEntity
8
1
62
256
6
ByLayer
370
18
48
1
60
0
100
AcDbLine
10
27.472379
20
0.089178
30
0
11
27.49519
21
0.088142
31
0
39
0
210
0
220
0
230
1
0
LINE
5
81
100
AcDbEntity
8
1
62
256
6
ByLayer
370
18
48
1
60
0
100
AcDbLine
10
27.49519
20
0.088142
30
0
11
27.483852
21
-1E-06
31
0
39
0
210
0
220
0
230
1
0
LINE
5
82
100
AcDbEntity
8
1
62
256
6
ByLayer
370
18
48
1
60
0
100
AcDbLine
10
27.47238
20
-0.08918
30
0
11
27.421616
21
-0.483807
31
0
39
0
210
0
220
0
230
1
0
LINE
5
83
100
AcDbEntity
8
1
62
256
6
ByLayer
370
18
48
1
60
0
100
AcDbLine
10
27.421616
20
-0.483807
30
0
11
27.35504
21
-0.468087
31
0
39
0
210
0
220
0
230
1
0
LINE
5
84
100
AcDbEntity
8
1
62
256
6
ByLayer
370
18
48
1
60
0
100
AcDbLine
10
27.354897
20
-0.468599
30
0
11
27.35504
21
-0.468087
31
0
39
0
210
0
220
0
230
1
0
LINE
5
85
100
AcDbEntity
8
1
62
256
6
ByLayer
370
18
48
1
60
0
100
AcDbLine
10
27.35504
20
-0.468087
30
0
11
27.389846
21
-0.089381
31
0
39
0
210
0
220
0
230
1
0
LINE
5
86
100
AcDbEntity
8
1
62
256
6
ByLayer
370
18
48
1
60
0
100
AcDbLine
10
27.409868
20
3.161568
30
0
11
27.49519
21
3.077832
31
0
39
0
210
0
220
0
230
1
0
LINE
5
87
100
AcDbEntity
8
1
62
256
6
ByLayer
370
18
48
1
60
0
100
AcDbLine
10
27.365737
20
0.670186
30
0
11
27.49519
21
3.077832
31
0
39
0
210
0
220
0
230
1
0
LINE
5
88
100
AcDbEntity
8
1
62
256
6
ByLayer
370
13
48
1
60
0
100
AcDbLine
10
26.125179
20
1.891923
30
0
11
26.203701
21
1.755264
31
0
39
0
210
0
220
0
230
1
0
LINE
5
89
100
AcDbEntity
8
1
62
256
6
ByLayer
370
13
48
1
60
0
100
AcDbLine
10
27.25015
20
-0.065962
30
0
11
27.316886
21
-0.182107
31
0
39
0
210
0
220
0
230
1
0
LINE
5
8A
100
AcDbEntity
8
1
62
256
6
ByLayer
370
18
48
1
60
0
100
AcDbLine
10
27.334006
20
-0.08004
30
0
11
27.49519
21
-3.077832
31
0
39
0
210
0
220
0
230
1
0
LINE
5
8B
100
AcDbEntity
8
1
62
256
6
ByLayer
370
18
48
1
60
0
100
AcDbLine
10
27.316886
20
-0.182107
30
0
11
27.311438
21
-0.076238
31
0
39
0
210
0
220
0
230
1
0
LINE
5
8C
100
AcDbEntity
8
1
62
256
6
ByLayer
370
18
48
1
60
0
100
AcDbLine
10
27.409868
20
-3.161568
30
0
11
27.49519
21
-3.077832
31
0
39
0
210
0
220
0
230
1
0
LINE
5
8D
100
AcDbEntity
8
1
62
256
6
ByLayer
370
18
48
1
60
0
100
AcDbLine
10
27.49519
20
-3.077832
30
0
11
27.421616
21
-2.970819
31
0
39
0
210
0
220
0
230
1
0
LINE
5
8E
100
AcDbEntity
8
1
62
256
6
ByLayer
370
18
48
1
60
0
100
AcDbLine
10
27.421616
20
-2.970819
30
0
11
27.382484
21
-2.968754
31
0
39
0
210
0
220
0
230
1
0
LINE
5
8F
100
AcDbEntity
8
1
62
256
6
ByLayer
370
18
48
1
60
0
100
AcDbLine
10
27.421616
20
-2.970819
30
0
11
27.316433
21
-0.970586
31
0
39
0
210
0
220
0
230
1
0
LINE
5
90
100
AcDbEntity
8
1
62
256
6
ByLayer
370
18
48
1
60
0
100
AcDbLine
10
27.098281
20
-1.72866
30
0
11
27.316433
21
-0.970586
31
0
39
0
210
0
220
0
230
1
0
LINE
5
91
100
AcDbEntity
8
1
62
256
6
ByLayer
370
18
48
1
60
0
100
AcDbLine
10
27.316433
20
-0.970586
30
0
11
27.317112
21
-0.957607
31
0
39
0
210
0
220
0
230
1
0
LINE
5
92
100
AcDbEntity
8
1
62
256
6
ByLayer
370
13
48
1
60
0
100
AcDbLine
10
27.128502
20
-0.624328
30
0
11
25.714047
21
-0.344394
31
0
39
0
210
0
220
0
230
1
0
LINE
5
93
100
AcDbEntity
8
1
62
256
6
ByLayer
370
18
48
1
60
0
100
AcDbLine
10
27.49519
20
-0.088142
30
0
11
27.421616
21
0.483807
31
0
39
0
210
0
220
0
230
1
0
LINE
5
94
100
AcDbEntity
8
1
62
256
6
ByLayer
370
18
48
1
60
0
100
AcDbLine
10
27.421616
20
0.483807
30
0
11
27.382484
21
0.617407
31
0
39
0
210
0
220
0
230
1
0
LINE
5
95
100
AcDbEntity
8
1
62
256
6
ByLayer
370
18
48
1
60
0
100
AcDbLine
10
27.409868
20
-0.071274
30
0
11
27.49519
21
-0.088142
31
0
39
0
210
0
220
0
230
1
0
LINE
5
96
100
AcDbEntity
8
1
62
256
6
ByLayer
370
18
48
1
60
0
100
AcDbLine
10
26.157952
20
0.145275
30
0
11
27.088549
21
-0.038899
31
0
39
0
210
0
220
0
230
1
0
LINE
5
97
100
AcDbEntity
8
1
62
256
6
ByLayer
370
18
48
1
60
0
100
AcDbLine
10
27.406532
20
-0.092168
30
0
11
27.088549
21
-0.038899
31
0
39
0
210
0
220
0
230
1
0
LINE
5
98
100
AcDbEntity
8
1
62
256
6
ByLayer
370
18
48
1
60
0
100
AcDbLine
10
27.406532
20
-0.092168
30
0
11
27.49519
21
-0.088142
31
0
39
0
210
0
220
0
230
1
0
LINE
5
99
100
AcDbEntity
8
SK1
62
256
6
ByLayer
370
18
48
1
60
0
100
AcDbLine
10
0
20
3.175
30
0
11
0
21
0
31
0
39
0
210
0
220
0
230
1
0
LINE
5
9B
100
AcDbEntity
8
SK1
62
256
6
ByLayer
370
18
48
1
60
0
100
AcDbLine
10
0
20
0
30
0
11
0
21
-3.175
31
0
39
0
210
0
220
0
230
1
0
LINE
5
9C
100
AcDbEntity
8
SK1
62
256
6
ByLayer
370
18
48
1
60
0
100
AcDbLine
10
-20.6
20
1.925
30
0
11
-21.85
21
3.175
31
0
39
0
210
0
220
0
230
1
0
LINE
5
9D
100
AcDbEntity
8
SK1
62
256
6
ByLayer
370
18
48
1
60
0
100
AcDbLine
10
-15.15
20
3.175
30
0
11
-16.4
21
1.925
31
0
39
0
210
0
220
0
230
1
0
LINE
5
9E
100
AcDbEntity
8
SK1
62
256
6
ByLayer
370
18
48
1
60
0
100
AcDbLine
10
-20.6
20
1.925
30
0
11
-16.4
21
1.925
31
0
39
0
210
0
220
0
230
1
0
LINE
5
9F
100
AcDbEntity
8
SK1
62
256
6
ByLayer
370
18
48
1
60
0
100
AcDbLine
10
-35.6
20
3.175
30
0
11
-35.6
21
-3.175
31
0
39
0
210
0
220
0
230
1
0
LINE
5
A0
100
AcDbEntity
8
SK1
62
256
6
ByLayer
370
18
48
1
60
0
100
AcDbLine
10
-36
20
-2.775
30
0
11
-36
21
2.775
31
0
39
0
210
0
220
0
230
1
0
LINE
5
A1
100
AcDbEntity
8
1
62
256
6
ByLayer
370
18
48
1
60
0
100
AcDbLine
10
9.405968
20
3.175
30
0
11
0
21
3.175
31
0
39
0
210
0
220
0
230
1
0
LINE
5
A2
100
AcDbEntity
8
1
62
256
6
ByLayer
370
18
48
1
60
0
100
AcDbLine
10
0
20
-3.175
30
0
11
9.405968
21
-3.175
31
0
39
0
210
0
220
0
230
1
0
LINE
5
A3
100
AcDbEntity
8
SK1
62
256
6
ByLayer
370
18
48
1
60
0
100
AcDbLine
10
0
20
3.175
30
0
11
-15.15
21
3.175
31
0
39
0
210
0
220
0
230
1
0
LINE
5
A4
100
AcDbEntity
8
SK1
62
256
6
ByLayer
370
18
48
1
60
0
100
AcDbLine
10
-21.85
20
3.175
30
0
11
-35.6
21
3.175
31
0
39
0
210
0
220
0
230
1
0
LINE
5
A5
100
AcDbEntity
8
SK1
62
256
6
ByLayer
370
18
48
1
60
0
100
AcDbLine
10
-35.6
20
-3.175
30
0
11
0
21
-3.175
31
0
39
0
210
0
220
0
230
1
0
LINE
5
A6
100
AcDbEntity
8
SK1
62
256
6
ByLayer
370
18
48
1
60
0
100
AcDbLine
10
-36
20
-2.775
30
0
11
-35.6
21
-3.175
31
0
39
0
210
0
220
0
230
1
0
LINE
5
A7
100
AcDbEntity
8
SK1
62
256
6
ByLayer
370
18
48
1
60
0
100
AcDbLine
10
-35.6
20
3.175
30
0
11
-36
21
2.775
31
0
39
0
210
0
220
0
230
1
0
LINE
5
A8
100
AcDbEntity
8
SK2
62
256
6
ByLayer
370
18
48
1
60
0
100
AcDbLine
10
-43.85
20
11.925
30
0
11
-43.85
21
-26.139398
31
0
39
0
210
0
220
0
230
1
0
LINE
5
AA
100
AcDbEntity
8
SK2
62
256
6
ByLayer
370
18
48
1
60
0
100
AcDbLine
10
-37.1875
20
3.175
30
0
11
-45.85
21
3.175
31
0
39
0
210
0
220
0
230
1
0
LINE
5
AB
100
AcDbEntity
8
SK2
62
256
6
ByLayer
370
18
48
1
60
0
100
AcDbLine
10
-37.1875
20
-3.175
30
0
11
-45.85
21
-3.175
31
0
39
0
210
0
220
0
230
1
0
LINE
5
AC
100
AcDbEntity
8
1
62
256
6
ByLayer
370
18
48
1
60
1
100
AcDbLine
10
-43.85
20
3.175
30
0
11
-44.310784
21
6.674998
31
0
39
0
210
0
220
0
230
1
0
LINE
5
AD
100
AcDbEntity
8
1
62
256
6
ByLayer
370
18
48
1
60
1
100
AcDbLine
10
-44.310784
20
6.674998
30
0
11
-43.389216
21
6.675002
31
0
39
0
210
0
220
0
230
1
0
LINE
5
AE
100
AcDbEntity
8
1
62
256
6
ByLayer
370
18
48
1
60
1
100
AcDbLine
10
-43.389216
20
6.675002
30
0
11
-43.85
21
3.175
31
0
39
0
210
0
220
0
230
1
0
LINE
5
AF
100
AcDbEntity
8
1
62
256
6
ByLayer
370
18
48
1
60
1
100
AcDbLine
10
-43.85
20
-3.175
30
0
11
-43.389216
21
-6.674998
31
0
39
0
210
0
220
0
230
1
0
LINE
5
B0
100
AcDbEntity
8
1
62
256
6
ByLayer
370
18
48
1
60
1
100
AcDbLine
10
-43.389216
20
-6.674998
30
0
11
-44.310784
21
-6.675002
31
0
39
0
210
0
220
0
230
1
0
LINE
5
B1
100
AcDbEntity
8
1
62
256
6
ByLayer
370
18
48
1
60
1
100
AcDbLine
10
-44.310784
20
-6.675002
30
0
11
-43.85
21
-3.175
31
0
39
0
210
0
220
0
230
1
0
LINE
5
B2
100
AcDbEntity
8
2
62
256
6
ByLayer
370
18
48
1
60
0
100
AcDbLine
10
39.5
20
26.139498
30
0
11
39.5
21
-11.9251
31
0
39
0
210
0
220
0
230
1
0
LINE
5
B4
100
AcDbEntity
8
2
62
256
6
ByLayer
370
18
48
1
60
0
100
AcDbLine
10
29.0875
20
3.1751
30
0
11
41.5
21
3.1751
31
0
39
0
210
0
220
0
230
1
0
LINE
5
B5
100
AcDbEntity
8
2
62
256
6
ByLayer
370
18
48
1
60
0
100
AcDbLine
10
29.0875
20
-3.1751
30
0
11
41.5
21
-3.1751
31
0
39
0
210
0
220
0
230
1
0
LINE
5
B6
100
AcDbEntity
8
1
62
256
6
ByLayer
370
18
48
1
60
1
100
AcDbLine
10
39.5
20
3.1751
30
0
11
39.039216
21
6.675098
31
0
39
0
210
0
220
0
230
1
0
LINE
5
B7
100
AcDbEntity
8
1
62
256
6
ByLayer
370
18
48
1
60
1
100
AcDbLine
10
39.039216
20
6.675098
30
0
11
39.960784
21
6.675102
31
0
39
0
210
0
220
0
230
1
0
LINE
5
B8
100
AcDbEntity
8
1
62
256
6
ByLayer
370
18
48
1
60
1
100
AcDbLine
10
39.960784
20
6.675102
30
0
11
39.5
21
3.1751
31
0
39
0
210
0
220
0
230
1
0
LINE
5
B9
100
AcDbEntity
8
1
62
256
6
ByLayer
370
18
48
1
60
1
100
AcDbLine
10
39.5
20
-3.1751
30
0
11
39.960784
21
-6.675098
31
0
39
0
210
0
220
0
230
1
0
LINE
5
BA
100
AcDbEntity
8
1
62
256
6
ByLayer
370
18
48
1
60
1
100
AcDbLine
10
39.960784
20
-6.675098
30
0
11
39.039216
21
-6.675102
31
0
39
0
210
0
220
0
230
1
0
LINE
5
BB
100
AcDbEntity
8
1
62
256
6
ByLayer
370
18
48
1
60
1
100
AcDbLine
10
39.039216
20
-6.675102
30
0
11
39.5
21
-3.1751
31
0
39
0
210
0
220
0
230
1
0
LINE
5
BC
100
AcDbEntity
8
SK2
62
256
6
ByLayer
370
18
48
1
60
0
100
AcDbLine
10
27.5
20
-33.708629
30
0
11
-36
21
-33.708629
31
0
39
0
210
0
220
0
230
1
0
LINE
5
BD
100
AcDbEntity
8
SK2
62
256
6
ByLayer
370
18
48
1
60
0
100
AcDbLine
10
-36
20
-4.3625
30
0
11
-36
21
-35.708629
31
0
39
0
210
0
220
0
230
1
0
LINE
5
BE
100
AcDbEntity
8
SK2
62
256
6
ByLayer
370
18
48
1
60
0
100
AcDbLine
10
27.5
20
-4.7626
30
0
11
27.5
21
-35.708629
31
0
39
0
210
0
220
0
230
1
0
LINE
5
BF
100
AcDbEntity
8
1
62
256
6
ByLayer
370
18
48
1
60
1
100
AcDbLine
10
-36
20
-33.708629
30
0
11
-32.500002
21
-33.247846
31
0
39
0
210
0
220
0
230
1
0
LINE
5
C0
100
AcDbEntity
8
1
62
256
6
ByLayer
370
18
48
1
60
1
100
AcDbLine
10
-32.500002
20
-33.247846
30
0
11
-32.499998
21
-34.169413
31
0
39
0
210
0
220
0
230
1
0
LINE
5
C1
100
AcDbEntity
8
1
62
256
6
ByLayer
370
18
48
1
60
1
100
AcDbLine
10
-32.499998
20
-34.169413
30
0
11
-36
21
-33.708629
31
0
39
0
210
0
220
0
230
1
0
LINE
5
C2
100
AcDbEntity
8
1
62
256
6
ByLayer
370
18
48
1
60
1
100
AcDbLine
10
27.5
20
-33.708629
30
0
11
24.000002
21
-34.169413
31
0
39
0
210
0
220
0
230
1
0
LINE
5
C3
100
AcDbEntity
8
1
62
256
6
ByLayer
370
18
48
1
60
1
100
AcDbLine
10
24.000002
20
-34.169413
30
0
11
23.999998
21
-33.247846
31
0
39
0
210
0
220
0
230
1
0
LINE
5
C4
100
AcDbEntity
8
1
62
256
6
ByLayer
370
18
48
1
60
1
100
AcDbLine
10
23.999998
20
-33.247846
30
0
11
27.5
21
-33.708629
31
0
39
0
210
0
220
0
230
1
0
LINE
5
116
100
AcDbEntity
8
1
62
256
6
ByLayer
370
18
48
1
60
1
100
AcDbLine
10
-43.85
20
3.175
30
0
11
-44.310784
21
6.674998
31
0
39
0
210
0
220
0
230
1
0
LINE
5
117
100
AcDbEntity
8
1
62
256
6
ByLayer
370
18
48
1
60
1
100
AcDbLine
10
-44.310784
20
6.674998
30
0
11
-43.389216
21
6.675002
31
0
39
0
210
0
220
0
230
1
0
LINE
5
118
100
AcDbEntity
8
1
62
256
6
ByLayer
370
18
48
1
60
1
100
AcDbLine
10
-43.389216
20
6.675002
30
0
11
-43.85
21
3.175
31
0
39
0
210
0
220
0
230
1
0
LINE
5
11A
100
AcDbEntity
8
1
62
256
6
ByLayer
370
18
48
1
60
1
100
AcDbLine
10
-43.85
20
-3.175
30
0
11
-43.389216
21
-6.674998
31
0
39
0
210
0
220
0
230
1
0
LINE
5
11B
100
AcDbEntity
8
1
62
256
6
ByLayer
370
18
48
1
60
1
100
AcDbLine
10
-43.389216
20
-6.674998
30
0
11
-44.310784
21
-6.675002
31
0
39
0
210
0
220
0
230
1
0
LINE
5
11C
100
AcDbEntity
8
1
62
256
6
ByLayer
370
18
48
1
60
1
100
AcDbLine
10
-44.310784
20
-6.675002
30
0
11
-43.85
21
-3.175
31
0
39
0
210
0
220
0
230
1
0
LINE
5
120
100
AcDbEntity
8
1
62
256
6
ByLayer
370
18
48
1
60
1
100
AcDbLine
10
39.5
20
3.1751
30
0
11
39.039216
21
6.675098
31
0
39
0
210
0
220
0
230
1
0
LINE
5
121
100
AcDbEntity
8
1
62
256
6
ByLayer
370
18
48
1
60
1
100
AcDbLine
10
39.039216
20
6.675098
30
0
11
39.960784
21
6.675102
31
0
39
0
210
0
220
0
230
1
0
LINE
5
122
100
AcDbEntity
8
1
62
256
6
ByLayer
370
18
48
1
60
1
100
AcDbLine
10
39.960784
20
6.675102
30
0
11
39.5
21
3.1751
31
0
39
0
210
0
220
0
230
1
0
LINE
5
124
100
AcDbEntity
8
1
62
256
6
ByLayer
370
18
48
1
60
1
100
AcDbLine
10
39.5
20
-3.1751
30
0
11
39.960784
21
-6.675098
31
0
39
0
210
0
220
0
230
1
0
LINE
5
125
100
AcDbEntity
8
1
62
256
6
ByLayer
370
18
48
1
60
1
100
AcDbLine
10
39.960784
20
-6.675098
30
0
11
39.039216
21
-6.675102
31
0
39
0
210
0
220
0
230
1
0
LINE
5
126
100
AcDbEntity
8
1
62
256
6
ByLayer
370
18
48
1
60
1
100
AcDbLine
10
39.039216
20
-6.675102
30
0
11
39.5
21
-3.1751
31
0
39
0
210
0
220
0
230
1
0
LINE
5
129
100
AcDbEntity
8
1
62
256
6
ByLayer
370
18
48
1
60
1
100
AcDbLine
10
-36
20
-33.708629
30
0
11
-32.500002
21
-33.247846
31
0
39
0
210
0
220
0
230
1
0
LINE
5
12A
100
AcDbEntity
8
1
62
256
6
ByLayer
370
18
48
1
60
1
100
AcDbLine
10
-32.500002
20
-33.247846
30
0
11
-32.499998
21
-34.169413
31
0
39
0
210
0
220
0
230
1
0
LINE
5
12B
100
AcDbEntity
8
1
62
256
6
ByLayer
370
18
48
1
60
1
100
AcDbLine
10
-32.499998
20
-34.169413
30
0
11
-36
21
-33.708629
31
0
39
0
210
0
220
0
230
1
0
LINE
5
12D
100
AcDbEntity
8
1
62
256
6
ByLayer
370
18
48
1
60
1
100
AcDbLine
10
27.5
20
-33.708629
30
0
11
24.000002
21
-34.169413
31
0
39
0
210
0
220
0
230
1
0
LINE
5
12E
100
AcDbEntity
8
1
62
256
6
ByLayer
370
18
48
1
60
1
100
AcDbLine
10
24.000002
20
-34.169413
30
0
11
23.999998
21
-33.247846
31
0
39
0
210
0
220
0
230
1
0
LINE
5
12F
100
AcDbEntity
8
1
62
256
6
ByLayer
370
18
48
1
60
1
100
AcDbLine
10
23.999998
20
-33.247846
30
0
11
27.5
21
-33.708629
31
0
39
0
210
0
220
0
230
1
0
MTEXT
5
112
100
AcDbEntity
8
SK2
62
256
6
ByLayer
370
18
48
1
60
0
100
AcDbMText
10
-45.414634
20
-24.204554
30
0
210
0
220
0
230
1
1
%%c
40
3.5
41
0
44
1.084337
50
90
71
7
72
5
7
iso_b_vert
0
MTEXT
5
115
100
AcDbEntity
8
SK2
62
256
6
ByLayer
370
18
48
1
60
0
100
AcDbMText
10
-45.414634
20
-17.231898
30
0
210
0
220
0
230
1
1
\W0.7346;6.35
40
3.5
41
0
44
1.084337
50
90
71
7
72
5
7
iso_b_vert
0
MTEXT
5
11E
100
AcDbEntity
8
2
62
256
6
ByLayer
370
18
48
1
60
0
100
AcDbMText
10
37.935366
20
11.109944
30
0
210
0
220
0
230
1
1
%%c
40
3.5
41
0
44
1.084337
50
90
71
7
72
5
7
iso_b_vert
0
MTEXT
5
11F
100
AcDbEntity
8
2
62
256
6
ByLayer
370
18
48
1
60
0
100
AcDbMText
10
37.935366
20
18.0826
30
0
210
0
220
0
230
1
1
\W0.7346;6.35
40
3.5
41
0
44
1.084337
50
90
71
7
72
5
7
iso_b_vert
0
MTEXT
5
128
100
AcDbEntity
8
SK2
62
256
6
ByLayer
370
18
48
1
60
0
100
AcDbMText
10
-8.171699
20
-32.675996
30
0
210
0
220
0
230
1
1
\W0.7346;63.5
40
3.5
41
0
44
1.084337
50
0
71
7
72
5
7
iso_b_vert
0
MTEXT
5
131
100
AcDbEntity
8
SK6
62
256
6
ByLayer
370
18
48
1
60
0
100
AcDbMText
10
-29.559623
20
-62.114886
30
0
210
0
220
0
230
1
1
\W0.7309;2P342-0635-CMB      M2CM
40
3
41
0
44
1.084337
50
0
71
7
72
5
7
iso_b_vert
0
HATCH
5
119
100
AcDbEntity
8
SK2
62
256
6
ByLayer
370
13
48
1
60
0
100
AcDbHatch
10
0
20
0
30
0
210
0
220
0
230
1
2
ANSI31
70
0
71
0
91
1
92
5
93
3
72
1
10
-43.85
20
3.17499999999996
11
-44.3107837415528
21
6.67499830744677
72
1
10
-44.3107837415528
20
6.67499830744677
11
-43.3892162584472
21
6.67500169255314
72
1
10
-43.3892162584472
20
6.67500169255314
11
-43.85
21
3.17499999999996
97
0
75
0
76
1
52
0
41
0.0062
77
0
78
1
53
45
43
0
44
0
45
-0.0139193969876572
46
0.0139193969876572
79
0
47
0
98
1
10
0
20
0
0
HATCH
5
11D
100
AcDbEntity
8
SK2
62
256
6
ByLayer
370
13
48
1
60
0
100
AcDbHatch
10
0
20
0
30
0
210
0
220
0
230
1
2
ANSI31
70
0
71
0
91
1
92
5
93
3
72
1
10
-43.85
20
-3.17500000000004
11
-43.3892162584472
21
-6.67499830744686
72
1
10
-43.3892162584472
20
-6.67499830744686
11
-44.3107837415528
21
-6.67500169255322
72
1
10
-44.3107837415528
20
-6.67500169255322
11
-43.85
21
-3.17500000000004
97
0
75
0
76
1
52
0
41
0.0062
77
0
78
1
53
45
43
0
44
0
45
-0.0139193969876572
46
0.0139193969876572
79
0
47
0
98
1
10
0
20
0
0
HATCH
5
123
100
AcDbEntity
8
2
62
256
6
ByLayer
370
13
48
1
60
0
100
AcDbHatch
10
0
20
0
30
0
210
0
220
0
230
1
2
ANSI31
70
0
71
0
91
1
92
5
93
3
72
1
10
39.5
20
3.1750999999999
11
39.0392162584472
21
6.67509830744672
72
1
10
39.0392162584472
20
6.67509830744672
11
39.9607837415528
21
6.67510169255308
72
1
10
39.9607837415528
20
6.67510169255308
11
39.5
21
3.1750999999999
97
0
75
0
76
1
52
0
41
0.0062
77
0
78
1
53
45
43
0
44
0
45
-0.0139193969876572
46
0.0139193969876572
79
0
47
0
98
1
10
0
20
0
0
HATCH
5
127
100
AcDbEntity
8
2
62
256
6
ByLayer
370
13
48
1
60
0
100
AcDbHatch
10
0
20
0
30
0
210
0
220
0
230
1
2
ANSI31
70
0
71
0
91
1
92
5
93
3
72
1
10
39.5
20
-3.1751000000001
11
39.9607837415528
21
-6.67509830744692
72
1
10
39.9607837415528
20
-6.67509830744692
11
39.0392162584472
21
-6.67510169255328
72
1
10
39.0392162584472
20
-6.67510169255328
11
39.5
21
-3.1751000000001
97
0
75
0
76
1
52
0
41
0.0062
77
0
78
1
53
45
43
0
44
0
45
-0.0139193969876572
46
0.0139193969876572
79
0
47
0
98
1
10
0
20
0
0
HATCH
5
12C
100
AcDbEntity
8
SK2
62
256
6
ByLayer
370
13
48
1
60
0
100
AcDbHatch
10
0
20
0
30
0
210
0
220
0
230
1
2
ANSI31
70
0
71
0
91
1
92
5
93
3
72
1
10
-36
20
-33.7086292838012
11
-32.5000016925532
21
-33.2478455422484
72
1
10
-32.5000016925532
20
-33.2478455422484
11
-32.4999983074468
21
-34.1694130253539
72
1
10
-32.4999983074468
20
-34.1694130253539
11
-36
21
-33.7086292838012
97
0
75
0
76
1
52
0
41
0.0062
77
0
78
1
53
45
43
0
44
0
45
-0.0139193969876572
46
0.0139193969876572
79
0
47
0
98
1
10
0
20
0
0
HATCH
5
130
100
AcDbEntity
8
SK2
62
256
6
ByLayer
370
13
48
1
60
0
100
AcDbHatch
10
0
20
0
30
0
210
0
220
0
230
1
2
ANSI31
70
0
71
0
91
1
92
5
93
3
72
1
10
27.5
20
-33.7086292838012
11
24.0000016925532
21
-34.1694130253539
72
1
10
24.0000016925532
20
-34.1694130253539
11
23.9999983074468
21
-33.2478455422484
72
1
10
23.9999983074468
20
-33.2478455422484
11
27.5
21
-33.7086292838012
97
0
75
0
76
1
52
0
41
0.0062
77
0
78
1
53
45
43
0
44
0
45
-0.0139193969876572
46
0.0139193969876572
79
0
47
0
98
1
10
0
20
0
0
DIMENSION
5
134
100
AcDbEntity
8
2
62
256
6
ByLayer
370
18
48
1
60
0
100
AcDbDimension
2
_U0
10
11.62
20
-17.708629
30
0
11
19.56
21
-17.708629
31
0
70
32
71
1
72
1
41
1
210
0
220
0
230
1
3
Standard
100
AcDbAlignedDimension
13
27.5
23
-3.1751
33
0
14
11.62
24
-3.1751
34
0
50
0
100
AcDbRotatedDimension
1001
ACAD
1000
DSTYLE
1002
{
1070
   371
1070
    13
1070
   372
1070
    13
1070
   170
1070
     0
1070
   144
1040
1.0
1070
   277
1070
     2
1070
   284
1070
     8
1070
   278
1070
    46
1070
   146
1040
1.0
1070
   345
1005
16
1070
   347
1005
16
1070
   346
1005
16
1070
   344
1005
0
1070
   343
1005
0
1070
   172
1070
     1
1070
    76
1070
     0
1070
    75
1070
     0
1070
   282
1070
     0
1070
   281
1070
     0
1070
    71
1070
     0
1070
    74
1070
     0
1070
   279
1070
     0
1070
   173
1070
     1
1070
   340
1005
113
1070
   271
1070
     2
1070
   272
1070
     2
1070
    77
1070
     1
1070
    73
1070
     1
1070
   171
1070
     3
1070
   274
1070
     4
1070
   177
1070
     2
1070
   176
1070
     2
1070
   178
1070
     2
1070
    78
1070
     8
1070
    48
1040
-0.1
1070
    41
1040
3.5
1070
   147
1040
1.75
1070
    42
1040
1.5875
1070
    44
1040
2.0
1070
   140
1040
3.5
1002
}
1001
ACAD_DSTYLE_DIM_LINETYPE
1070
   380
1005
16
1001
ACAD_DSTYLE_DIM_EXT1_LINETYPE
1070
   381
1005
16
1001
ACAD_DSTYLE_DIM_EXT2_LINETYPE
1070
   382
1005
16
0
ENDSEC
0
SECTION
2
OBJECTS
0
DICTIONARY
5
1be
330
0
100
AcDbDictionary
280
0
281
1
3
ACAD_GROUP
350
1bf
3
ACAD_MLINESTYLE
350
1c0
0
DICTIONARY
5
1bf
330
0
100
AcDbDictionary
280
0
281
1
0
DICTIONARY
5
1c0
330
0
100
AcDbDictionary
280
0
281
1
3
Standard
350
18
0
MLINESTYLE
5
18
330
1c0
100
AcDbMlineStyle
2
Standard
70
0
3

62
256
51
90
52
90
71
2
49
-0.5
62
256
6
ByLayer
49
0.5
62
256
6
ByLayer
0
RASTERVARIABLES
5
1ac
330

100
AcDbRasterVariables
90
0
70
1
71
1
72
1
0
ENDSEC
0
EOF
