0
SECTION
2
HEADER
9
$ACADVER
1
AC1015
9
$DWGCODEPAGE
3
ANSI_1252
9
$HANDSEED
5
1e3
9
$ANGBASE
50
0
9
$ANGDIR
70
0
9
$ATTMODE
70
1
9
$AUNITS
70
0
9
$AUPREC
70
0
9
$CECOLOR
62
256
9
$CELTSCALE
40
1
9
$CELTYPE
6
ByLayer
9
$CELWEIGHT
370
18
9
$CLAYER
8
0
9
$CMLJUST
70
0
9
$CMLSCALE
40
1
9
$CMLSTYLE
2
Standard
9
$DIMSTYLE
2
Standard
9
$TEXTSIZE
40
0.2
9
$TEXTSTYLE
7
Standard
9
$LUNITS
70
2
9
$LUPREC
70
4
9
$EXTNAMES
290
1
9
$INSUNITS
70
4
9
$LTSCALE
40
1
9
$LWDISPLAY
290
1
9
$PDMODE
70
0
9
$PDSIZE
40
0
9
$PLINEGEN
70
0
0
ENDSEC
0
SECTION
2
CLASSES
0
CLASS
1
RASTERVARIABLES
2
AcDbRasterVariables
3
ISM
90
0
280
0
281
0
0
ENDSEC
0
SECTION
2
TABLES
0
TABLE
2
VPORT
5
1d9
100
AcDbSymbolTable
0
VPORT
5
1
100
AcDbSymbolTableRecord
100
AcDbViewportTableRecord
2
*Active
70
0
10
0
20
0
11
1
21
1
12
-1
22
1
13
0
23
0
14
0.5
24
0.5
15
10
25
10
16
0
26
0
36
1
17
0
27
0
37
0
0
ENDTAB
0
TABLE
2
LTYPE
5
1da
100
AcDbSymbolTable
0
LTYPE
5
14
100
AcDbSymbolTableRecord
100
AcDbLinetypeTableRecord
70
0
2
ByBlock
3

72
65
73
0
40
0
0
LTYPE
5
15
100
AcDbSymbolTableRecord
100
AcDbLinetypeTableRecord
70
0
2
ByLayer
3

72
65
73
0
40
0
0
LTYPE
5
16
100
AcDbSymbolTableRecord
100
AcDbLinetypeTableRecord
70
0
2
Continuous
3
Solid line
72
65
73
0
40
0
0
LTYPE
5
6E
100
AcDbSymbolTableRecord
100
AcDbLinetypeTableRecord
70
0
2
CENTER
3
____ _ ____ _ ____ _ ____
72
65
73
4
40
47.5
49
22
74
0
49
-8.5
74
0
49
8.5
74
0
49
-8.5
74
0
0
LTYPE
5
6F
100
AcDbSymbolTableRecord
100
AcDbLinetypeTableRecord
70
0
2
DASHED
3
__ __ __ __ __ __ __ __ __
72
65
73
2
40
25.72
49
12.86
74
0
49
-12.86
74
0
0
ENDTAB
0
TABLE
2
LAYER
5
1db
100
AcDbSymbolTable
0
LAYER
5
10
100
AcDbSymbolTableRecord
100
AcDbLayerTableRecord
2
0
70
0
62
7
6
Continuous
290
1
370
-3
390
0
0
LAYER
5
71
100
AcDbSymbolTableRecord
100
AcDbLayerTableRecord
2
81
70
0
62
-3
6
Continuous
290
1
370
-3
390
0
0
LAYER
5
73
100
AcDbSymbolTableRecord
100
AcDbLayerTableRecord
2
80
70
0
62
-6
6
Continuous
290
1
370
-3
390
0
0
LAYER
5
75
100
AcDbSymbolTableRecord
100
AcDbLayerTableRecord
2
1
70
0
62
4
6
Continuous
290
1
370
-3
390
0
0
LAYER
5
79
100
AcDbSymbolTableRecord
100
AcDbLayerTableRecord
2
4
70
0
62
-2
6
CENTER
290
1
370
-3
390
0
0
LAYER
5
B1
100
AcDbSymbolTableRecord
100
AcDbLayerTableRecord
2
2
70
0
62
7
6
Continuous
290
1
370
-3
390
0
0
LAYER
5
14F
100
AcDbSymbolTableRecord
100
AcDbLayerTableRecord
2
Defpoints
70
0
62
7
6
Continuous
290
0
370
-3
390
0
0
LAYER
5
1c5
100
AcDbSymbolTableRecord
100
AcDbLayerTableRecord
2
SK4
70
0
62
2
6
CENTER
290
1
370
-3
390
0
0
LAYER
5
1c6
100
AcDbSymbolTableRecord
100
AcDbLayerTableRecord
2
SK1
70
0
62
4
6
Continuous
290
1
370
-3
390
0
0
LAYER
5
1c7
100
AcDbSymbolTableRecord
100
AcDbLayerTableRecord
2
SK2
70
0
62
7
6
Continuous
290
1
370
-3
390
0
0
LAYER
5
1c8
100
AcDbSymbolTableRecord
100
AcDbLayerTableRecord
2
SK6
70
0
62
5
6
Continuous
290
1
370
-3
390
0
0
ENDTAB
0
TABLE
2
STYLE
5
1dc
100
AcDbSymbolTable
0
STYLE
5
11
100
AcDbSymbolTableRecord
100
AcDbTextStyleTableRecord
2
Standard
3
txt
70
0
71
0
40
0
41
1
42
0
50
0
0
STYLE
5
12B
100
AcDbSymbolTableRecord
100
AcDbTextStyleTableRecord
2
iso_b_vert
3
simplex.shx
70
0
71
0
40
0
41
1
42
0
50
0
0
STYLE
5
12C
100
AcDbSymbolTableRecord
100
AcDbTextStyleTableRecord
2
DWGDirectTextStyle
3
simplex
70
0
71
0
40
0
41
1
42
0
50
0
0
ENDTAB
0
TABLE
2
DIMSTYLE
5
1dd
100
AcDbSymbolTable
100
AcDbDimStyleTable
0
DIMSTYLE
105
27
100
AcDbSymbolTableRecord
100
AcDbDimStyleTableRecord
2
Standard
70
0
3
<>
41
0.18
42
0.0625
44
0.18
140
0.18
147
0.09
73
0
74
0
77
1
271
2
275
0
278
52
280
0
340
11
0
ENDTAB
0
TABLE
2
VIEW
5
1de
100
AcDbSymbolTable
0
ENDTAB
0
TABLE
2
UCS
5
1df
100
AcDbSymbolTable
0
ENDTAB
0
TABLE
2
APPID
5
1e0
100
AcDbSymbolTable
0
APPID
5
12
100
AcDbSymbolTableRecord
100
AcDbRegAppTableRecord
2
ACAD
70
0
0
APPID
5
14B
100
AcDbSymbolTableRecord
100
AcDbRegAppTableRecord
2
ACAD_DSTYLE_DIMBREAK
70
0
0
APPID
5
184
100
AcDbSymbolTableRecord
100
AcDbRegAppTableRecord
2
ACAD_DSTYLE_DIM_LINETYPE
70
0
0
APPID
5
185
100
AcDbSymbolTableRecord
100
AcDbRegAppTableRecord
2
ACAD_DSTYLE_DIM_EXT1_LINETYPE
70
0
0
APPID
5
186
100
AcDbSymbolTableRecord
100
AcDbRegAppTableRecord
2
ACAD_DSTYLE_DIM_EXT2_LINETYPE
70
0
0
APPID
5
1C1
100
AcDbSymbolTableRecord
100
AcDbRegAppTableRecord
2
ACAD_MLEADERVER
70
0
0
ENDTAB
0
TABLE
2
BLOCK_RECORD
5
1e1
100
AcDbSymbolTable
0
BLOCK_RECORD
5
1F
100
AcDbSymbolTableRecord
100
AcDbBlockTableRecord
2
*Model_Space
340
0
70
0
0
BLOCK_RECORD
5
1B
100
AcDbSymbolTableRecord
100
AcDbBlockTableRecord
2
*Paper_Space
340
0
70
0
0
BLOCK_RECORD
5
23
100
AcDbSymbolTableRecord
100
AcDbBlockTableRecord
2
*Paper_Space0
340
0
70
0
0
BLOCK_RECORD
5
150
100
AcDbSymbolTableRecord
100
AcDbBlockTableRecord
2
*D1
340
0
70
0
0
BLOCK_RECORD
5
15D
100
AcDbSymbolTableRecord
100
AcDbBlockTableRecord
2
_U0
340
0
70
0
0
ENDTAB
0
ENDSEC
0
SECTION
2
BLOCKS
0
BLOCK
5
20
100
AcDbEntity
8
0
100
AcDbBlockBegin
2
*Model_Space
70
0
10
0
20
0
30
0
3
*Model_Space
0
ENDBLK
5
21
100
AcDbEntity
8
0
100
AcDbBlockEnd
0
BLOCK
5
1C
100
AcDbEntity
8
0
100
AcDbBlockBegin
2
*Paper_Space
70
0
10
0
20
0
30
0
3
*Paper_Space
0
ENDBLK
5
1D
100
AcDbEntity
8
0
100
AcDbBlockEnd
0
BLOCK
5
24
100
AcDbEntity
8
0
100
AcDbBlockBegin
2
*Paper_Space0
70
0
10
0
20
0
30
0
3
*Paper_Space0
0
ENDBLK
5
25
100
AcDbEntity
8
0
100
AcDbBlockEnd
0
BLOCK
5
151
100
AcDbEntity
8
0
100
AcDbBlockBegin
2
*D1
70
1
10
0
20
0
30
0
3
*D1
0
LINE
5
153
100
AcDbEntity
8
0
62
256
6
ByLayer
370
-2
48
1
60
0
100
AcDbLine
10
21
20
-4.5876
30
0
11
21
21
-19.210102
31
0
39
0
210
0
220
0
230
1
0
LINE
5
154
100
AcDbEntity
8
0
62
256
6
ByLayer
370
-2
48
1
60
0
100
AcDbLine
10
8
20
-4.5876
30
0
11
8
21
-19.210102
31
0
39
0
210
0
220
0
230
1
0
LINE
5
155
100
AcDbEntity
8
0
62
256
6
ByLayer
370
-2
48
1
60
0
100
AcDbLine
10
24.5
20
-17.210102
30
0
11
28
21
-17.210102
31
0
39
0
210
0
220
0
230
1
0
LINE
5
156
100
AcDbEntity
8
0
62
256
6
ByLayer
370
-2
48
1
60
0
100
AcDbLine
10
4.5
20
-17.210102
30
0
11
1
21
-17.210102
31
0
39
0
210
0
220
0
230
1
0
SOLID
5
157
100
AcDbEntity
8
0
62
256
6
ByLayer
370
-1
48
1
60
0
100
AcDbTrace
10
24.5
20
-16.626769
30
0
11
24.5
21
-17.793435
31
0
12
21
22
-17.210102
32
0
13
21
23
-17.210102
33
0
39
0
210
0
220
0
230
1
0
SOLID
5
158
100
AcDbEntity
8
0
62
256
6
ByLayer
370
-1
48
1
60
0
100
AcDbTrace
10
4.5
20
-17.793435
30
0
11
4.5
21
-16.626769
31
0
12
8
22
-17.210102
32
0
13
8
23
-17.210102
33
0
39
0
210
0
220
0
230
1
0
MTEXT
5
159
100
AcDbEntity
8
0
62
256
6
ByLayer
370
18
48
1
60
0
100
AcDbMText
10
14.5
20
-10.210102
30
0
210
0
220
0
230
1
1
\A1;13
40
3.5
41
0
44
1
50
0
71
5
72
5
7
iso_b_vert
0
POINT
5
15A
100
AcDbEntity
8
Defpoints
62
0
6
ByLayer
370
-1
48
1
60
0
100
AcDbPoint
10
21
20
-3.0001
30
0
39
0
210
0
220
0
230
1
50
360
0
POINT
5
15B
100
AcDbEntity
8
Defpoints
62
0
6
ByLayer
370
-1
48
1
60
0
100
AcDbPoint
10
8
20
-3.0001
30
0
39
0
210
0
220
0
230
1
50
360
0
POINT
5
15C
100
AcDbEntity
8
Defpoints
62
0
6
ByLayer
370
-1
48
1
60
0
100
AcDbPoint
10
8
20
-17.210102
30
0
39
0
210
0
220
0
230
1
50
360
0
ENDBLK
5
152
100
AcDbEntity
8
0
100
AcDbBlockEnd
0
BLOCK
5
164
100
AcDbEntity
8
0
100
AcDbBlockBegin
2
_U0
70
0
10
0
20
0
30
0
3
_U0
0
MTEXT
5
15E
100
AcDbEntity
8
2
62
256
6
ByLayer
370
18
48
1
60
0
100
AcDbMText
10
13.032467
20
-16.177468
30
0
210
0
220
0
230
1
1
\W0.5321;13
40
3.5
41
0
44
1.084337
50
0
71
7
72
5
7
iso_b_vert
0
LINE
5
15F
100
AcDbEntity
8
2
62
256
6
ByLayer
370
13
48
1
60
0
100
AcDbLine
10
21
20
-4.5876
30
0
11
21
21
-19.210102
31
0
39
0
210
0
220
0
230
1
0
LINE
5
160
100
AcDbEntity
8
2
62
256
6
ByLayer
370
13
48
1
60
0
100
AcDbLine
10
8
20
-4.5876
30
0
11
8
21
-19.210102
31
0
39
0
210
0
220
0
230
1
0
LINE
5
161
100
AcDbEntity
8
2
62
256
6
ByLayer
370
13
48
1
60
0
100
AcDbLine
10
21
20
-17.210102
30
0
11
8
21
-17.210102
31
0
39
0
210
0
220
0
230
1
0
SOLID
5
162
100
AcDbEntity
8
2
62
256
6
ByLayer
370
18
48
1
60
0
100
AcDbTrace
10
21
20
-17.210102
30
0
11
17.500002
21
-17.670886
31
0
12
17.499998
22
-16.749318
32
0
13
17.499998
23
-16.749318
33
0
39
0
210
0
220
0
230
1
0
SOLID
5
163
100
AcDbEntity
8
2
62
256
6
ByLayer
370
18
48
1
60
0
100
AcDbTrace
10
8
20
-17.210102
30
0
11
11.499998
21
-16.749318
31
0
12
11.500002
22
-17.670886
32
0
13
11.500002
23
-17.670886
33
0
39
0
210
0
220
0
230
1
0
ENDBLK
5
165
100
AcDbEntity
8
0
100
AcDbBlockEnd
0
ENDSEC
0
SECTION
2
ENTITIES
0
ELLIPSE
5
C3
100
AcDbEntity
8
1
62
256
6
ByLayer
370
18
48
1
60
0
100
AcDbEllipse
10
20.800008
20
-0.194716
30
0
11
0.0372167043030946
21
-0.720115696766743
31
0
210
0
220
0
230
1
40
0.053243
41
-0.23090426855121
42
1.56967956714992
0
ELLIPSE
5
C4
100
AcDbEntity
8
1
62
256
6
ByLayer
370
18
48
1
60
0
100
AcDbEllipse
10
20.689429
20
-0.320962
30
0
11
0.114120937263165
21
-0.351416008864508
31
0
210
0
220
0
230
1
40
0.481231
41
2.92045412033897
42
-2.02732858322321
0
ELLIPSE
5
C5
100
AcDbEntity
8
1
62
256
6
ByLayer
370
18
48
1
60
0
100
AcDbEllipse
10
29.281656
20
-14.86439
30
0
11
11.007812782742
21
-18.4881970315146
31
0
210
0
220
0
230
1
40
0.008434
41
-2.46349258339474
42
-2.43225186639856
0
ELLIPSE
5
C6
100
AcDbEntity
8
1
62
256
6
ByLayer
370
13
48
1
60
0
100
AcDbEllipse
10
5.463271
20
-72.56998
30
0
11
7.24880805080848
21
-70.8536168569216
31
0
210
0
220
0
230
1
40
0.767757
41
3.02512196588054
42
3.03388663278666
0
ELLIPSE
5
C7
100
AcDbEntity
8
1
62
256
6
ByLayer
370
13
48
1
60
0
100
AcDbEllipse
10
5.463271
20
2.406594
30
0
11
54.8767334483392
21
-45.4018101611031
31
0
210
0
220
0
230
1
40
0.011497
41
-1.58605245092474
42
-1.53157117620009
0
POINT
5
70
100
AcDbEntity
8
81
62
256
6
ByLayer
370
18
48
1
60
0
100
AcDbPoint
10
21
20
0
30
0
39
0
210
0
220
0
230
1
50
360
0
POINT
5
72
100
AcDbEntity
8
80
62
256
6
ByLayer
370
18
48
1
60
0
100
AcDbPoint
10
0
20
0
30
0
39
0
210
0
220
0
230
1
50
360
0
POINT
5
74
100
AcDbEntity
8
1
62
256
6
ByLayer
370
18
48
1
60
1
100
AcDbPoint
10
21
20
-3.0001
30
0
39
0
210
0
220
0
230
1
50
360
0
POINT
5
76
100
AcDbEntity
8
1
62
256
6
ByLayer
370
18
48
1
60
1
100
AcDbPoint
10
8
20
-3.0001
30
0
39
0
210
0
220
0
230
1
50
360
0
SPLINE
5
C8
100
AcDbEntity
8
1
62
256
6
ByLayer
370
18
48
1
60
0
100
AcDbSpline
70
4
71
3
72
12
73
8
40
0
40
0
40
0
40
0
40
0.120011847957866
40
0.120011847957866
40
0.560005923978933
40
0.560005923978933
40
1
40
1
40
1
40
1
41
1
10
20.925412341197
20
-0.057151252739942
30
0
41
1
10
20.9272583785727
20
-0.0551790290981273
30
0
41
1
10
20.928975130594
20
-0.0532511623810592
30
0
41
1
10
20.9363487274435
20
-0.0444887608013005
30
0
41
1
10
20.9403523387532
20
-0.0382308867430368
30
0
41
1
10
20.9447528026069
20
-0.0269410672194681
30
0
41
1
10
20.9451444290437
20
-0.0219191598420707
30
0
41
1
10
20.9436528252446
20
-0.0173872408857676
30
0
0
SPLINE
5
C9
100
AcDbEntity
8
1
62
256
6
ByLayer
370
18
48
1
60
0
100
AcDbSpline
70
4
71
3
72
12
73
8
40
0
40
0
40
0
40
0
40
0.249999999999995
40
0.249999999999995
40
0.499999999999995
40
0.499999999999995
40
1
40
1
40
1
40
1
41
1
10
20.871599632749
20
-0.581466163887114
30
0
41
1
10
20.8726269600842
20
-0.576278838258389
30
0
41
1
10
20.8735116682583
20
-0.571518210482026
30
0
41
1
10
20.874948112478
20
-0.562993163930287
30
0
41
1
10
20.8755021302987
20
-0.559206720806515
30
0
41
1
10
20.8765534998356
20
-0.549787734502729
30
0
41
1
10
20.876440944359
20
-0.546150096615349
30
0
41
1
10
20.8754556996603
20
-0.545346460502174
30
0
0
SPLINE
5
CA
100
AcDbEntity
8
1
62
256
6
ByLayer
370
18
48
1
60
0
100
AcDbSpline
70
4
71
3
72
8
73
4
40
0
40
0
40
0
40
0
40
1
40
1
40
1
40
1
41
1
10
20.9436472067282
20
-0.0173837986513377
30
0
41
1
10
20.9209167043775
20
-0.193371352588684
30
0
41
1
10
20.8981862020269
20
-0.369358906526031
30
0
41
1
10
20.8754556996762
20
-0.54534646046335
30
0
0
SPLINE
5
CB
100
AcDbEntity
8
1
62
256
6
ByLayer
370
18
48
1
60
0
100
AcDbSpline
70
4
71
3
72
38
73
34
40
0
40
0
40
0
40
0
40
0.124999999999968
40
0.124999999999968
40
0.187499999999953
40
0.187499999999953
40
0.218749999999944
40
0.218749999999944
40
0.249999999999936
40
0.249999999999936
40
0.374999999999936
40
0.374999999999936
40
0.437499999999931
40
0.437499999999931
40
0.468749999999932
40
0.468749999999932
40
0.499999999999934
40
0.499999999999934
40
0.624999999999948
40
0.624999999999948
40
0.687499999999958
40
0.687499999999958
40
0.749999999999968
40
0.749999999999968
40
0.812499999999978
40
0.812499999999978
40
0.843749999999982
40
0.843749999999982
40
0.874999999999986
40
0.874999999999986
40
0.937499999999993
40
0.937499999999993
40
1
40
1
40
1
40
1
41
1
10
19.9581531089489
20
2.88932068040927
30
0
41
1
10
20.022295390727
20
2.89732716001558
30
0
41
1
10
20.0856009542574
20
2.89848975225206
30
0
41
1
10
20.1793516076204
20
2.8903204109873
30
0
41
1
10
20.2104123770448
20
2.88592382400969
30
0
41
1
10
20.2567054785554
20
2.87674801853441
30
0
41
1
10
20.2720866742607
20
2.87325860686607
30
0
41
1
10
20.3027488098021
20
2.86539373651593
30
0
41
1
10
20.318000202575
20
2.8610226046068
30
0
41
1
10
20.3931281344785
20
2.83719512129295
30
0
41
1
10
20.4503162731422
20
2.81172587408196
30
0
41
1
10
20.5317478274012
20
2.76393397277152
30
0
41
1
10
20.5581576964233
20
2.74639951550401
30
0
41
1
10
20.5966192728206
20
2.71758474577842
30
0
41
1
10
20.6092086069533
20
2.70758610006664
30
0
41
1
10
20.6337130150883
20
2.68697748865162
30
0
41
1
10
20.6456614286133
20
2.67634081120104
30
0
41
1
10
20.7038992474464
20
2.6215151488303
30
0
41
1
10
20.7457236148366
20
2.57244570263251
30
0
41
1
10
20.8009951315775
20
2.49097897326195
30
0
41
1
10
20.8182164029626
20
2.4623558744303
30
0
41
1
10
20.8492829693775
20
2.40373180398294
30
0
41
1
10
20.8632347702694
20
2.37359919756514
30
0
41
1
10
20.887992083691
20
2.31172554505338
30
0
41
1
10
20.8987980003725
20
2.2799864229674
30
0
41
1
10
20.9125767474092
20
2.23115335554462
30
0
41
1
10
20.916763712225
20
2.2146707808854
30
0
41
1
10
20.9243030474474
20
2.18129223974631
30
0
41
1
10
20.9276586258015
20
2.16436532774043
30
0
41
1
10
20.9363487274432
20
2.11347821646197
30
0
41
1
10
20.9403523387531
20
2.07926954768126
30
0
41
1
10
20.9447528026069
20
2.01028878319039
30
0
41
1
10
20.9451444290437
20
1.97551391926433
30
0
41
1
10
20.9436528252446
20
1.94048033292037
30
0
0
SPLINE
5
CC
100
AcDbEntity
8
1
62
256
6
ByLayer
370
18
48
1
60
0
100
AcDbSpline
70
4
71
3
72
8
73
4
40
0
40
0
40
0
40
0
40
1
40
1
40
1
40
1
41
1
10
20.9436472067189
20
1.94037601690425
30
0
41
1
10
20.9436490813255
20
1.94041078918804
30
0
41
1
10
20.9436509541672
20
1.94044556119434
30
0
41
1
10
20.9436528252444
20
1.94048033292148
30
0
0
SPLINE
5
CD
100
AcDbEntity
8
1
62
256
6
ByLayer
370
18
48
1
60
0
100
AcDbSpline
70
4
71
3
72
22
73
18
40
0
40
0
40
0
40
0
40
0.250000000000023
40
0.250000000000023
40
0.312500000000024
40
0.312500000000024
40
0.375000000000025
40
0.375000000000025
40
0.50000000000003
40
0.50000000000003
40
0.750000000000039
40
0.750000000000039
40
0.812500000000035
40
0.812500000000035
40
0.875000000000031
40
0.875000000000031
40
1
40
1
40
1
40
1
41
1
10
20.9436528252438
20
1.94048033292049
30
0
41
1
10
20.9380607847835
20
1.98585949197403
30
0
41
1
10
20.9286440730305
20
2.03031579388585
30
0
41
1
10
20.9116481267684
20
2.08462541436191
30
0
41
1
10
20.9079924878081
20
2.09542545955892
30
0
41
1
10
20.9001700649584
20
2.11690221549881
30
0
41
1
10
20.8959918632371
20
2.12760317384104
30
0
41
1
10
20.8827467316015
20
2.15933383769678
30
0
41
1
10
20.8730151586873
20
2.17990151822241
30
0
41
1
10
20.8411810041863
20
2.23988854585861
30
0
41
1
10
20.8164259573396
20
2.27758340797209
30
0
41
1
10
20.7812339429037
20
2.32194003905335
30
0
41
1
10
20.7739815512722
20
2.33067224172109
30
0
41
1
10
20.7590450713918
20
2.34785598198968
30
0
41
1
10
20.751364789804
20
2.35630078975768
30
0
41
1
10
20.7279030981009
20
2.38098512228049
30
0
41
1
10
20.7116325468835
20
2.39665802558332
30
0
41
1
10
20.6947639439136
20
2.41158665259101
30
0
0
SPLINE
5
CE
100
AcDbEntity
8
1
62
256
6
ByLayer
370
18
48
1
60
0
100
AcDbSpline
70
4
71
3
72
38
73
34
40
0
40
0
40
0
40
0
40
0.125000000000015
40
0.125000000000015
40
0.187500000000028
40
0.187500000000028
40
0.218750000000029
40
0.218750000000029
40
0.25000000000003
40
0.25000000000003
40
0.375000000000023
40
0.375000000000023
40
0.43750000000002
40
0.43750000000002
40
0.468750000000019
40
0.468750000000019
40
0.500000000000017
40
0.500000000000017
40
0.625000000000011
40
0.625000000000011
40
0.687500000000008
40
0.687500000000008
40
0.750000000000005
40
0.750000000000005
40
0.812500000000002
40
0.812500000000002
40
0.843750000000002
40
0.843750000000002
40
0.875000000000002
40
0.875000000000002
40
0.937500000000001
40
0.937500000000001
40
1
40
1
40
1
40
1
41
1
10
19.9581531089489
20
-2.88932068040941
30
0
41
1
10
20.0222953907271
20
-2.89732716001572
30
0
41
1
10
20.0856009542574
20
-2.8984897522522
30
0
41
1
10
20.1793516076204
20
-2.89032041098744
30
0
41
1
10
20.2104123770448
20
-2.88592382400981
30
0
41
1
10
20.2567054785554
20
-2.87674801853456
30
0
41
1
10
20.2720866742607
20
-2.87325860686619
30
0
41
1
10
20.3027488098021
20
-2.86539373651607
30
0
41
1
10
20.318000202575
20
-2.86102260460694
30
0
41
1
10
20.3931281344785
20
-2.83719512129309
30
0
41
1
10
20.4503162731422
20
-2.8117258740821
30
0
41
1
10
20.5317478274012
20
-2.76393397277167
30
0
41
1
10
20.5581576964233
20
-2.74639951550412
30
0
41
1
10
20.5966192728205
20
-2.71758474577857
30
0
41
1
10
20.6092086069533
20
-2.70758610006678
30
0
41
1
10
20.6337130150883
20
-2.68697748865173
30
0
41
1
10
20.6456614286133
20
-2.67634081120116
30
0
41
1
10
20.7038992474464
20
-2.62151514883041
30
0
41
1
10
20.7457236148366
20
-2.57244570263262
30
0
41
1
10
20.8009951315775
20
-2.49097897326206
30
0
41
1
10
20.8182164029627
20
-2.46235587443044
30
0
41
1
10
20.8492829693775
20
-2.40373180398305
30
0
41
1
10
20.8632347702694
20
-2.37359919756525
30
0
41
1
10
20.887992083691
20
-2.31172554505349
30
0
41
1
10
20.8987980003726
20
-2.27998642296754
30
0
41
1
10
20.9125767474093
20
-2.23115335554476
30
0
41
1
10
20.916763712225
20
-2.21467078088554
30
0
41
1
10
20.9243030474474
20
-2.18129223974651
30
0
41
1
10
20.9276586258015
20
-2.16436532774063
30
0
41
1
10
20.9363487274431
20
-2.11347821646214
30
0
41
1
10
20.940352338753
20
-2.07926954768146
30
0
41
1
10
20.9447528026069
20
-2.01028878319062
30
0
41
1
10
20.9451444290437
20
-1.97551391926456
30
0
41
1
10
20.9436528252446
20
-1.94048033292063
30
0
0
SPLINE
5
CF
100
AcDbEntity
8
1
62
256
6
ByLayer
370
18
48
1
60
0
100
AcDbSpline
70
4
71
3
72
8
73
4
40
0
40
0
40
0
40
0
40
1
40
1
40
1
40
1
41
1
10
20.9436472067188
20
-1.94037601690437
30
0
41
1
10
20.9436490813255
20
-1.94041078918821
30
0
41
1
10
20.9436509541672
20
-1.94044556119457
30
0
41
1
10
20.9436528252444
20
-1.94048033292174
30
0
0
SPLINE
5
D0
100
AcDbEntity
8
1
62
256
6
ByLayer
370
13
48
1
60
0
100
AcDbSpline
70
4
71
3
72
8
73
4
40
0
40
0
40
0
40
0
40
1
40
1
40
1
40
1
41
1
10
20.9436472067282
20
-1.94037601689348
30
0
41
1
10
20.9209167043775
20
-1.90201890424169
30
0
41
1
10
20.8981862020269
20
-1.86366179158989
30
0
41
1
10
20.8754556996762
20
-1.82530467893807
30
0
0
SPLINE
5
D1
100
AcDbEntity
8
1
62
256
6
ByLayer
370
13
48
1
60
0
100
AcDbSpline
70
4
71
3
72
8
73
4
40
0
40
0
40
0
40
0
40
1
40
1
40
1
40
1
41
1
10
19.9462962495346
20
-2.887037257413
30
0
41
1
10
19.9461127017527
20
-2.88672752545728
30
0
41
1
10
19.9459291539708
20
-2.88641779350155
30
0
41
1
10
19.9457456061889
20
-2.88610806154583
30
0
0
SPLINE
5
D2
100
AcDbEntity
8
1
62
256
6
ByLayer
370
18
48
1
60
0
100
AcDbSpline
70
4
71
3
72
12
73
8
40
0
40
0
40
0
40
0
40
0.25
40
0.25
40
0.500000000000001
40
0.500000000000001
40
1
40
1
40
1
40
1
41
1
10
20.871599632749
20
-1.9265765992985
30
0
41
1
10
20.8726269600842
20
-1.91929548497259
30
0
41
1
10
20.8735116682583
20
-1.91172196656242
30
0
41
1
10
20.874948112478
20
-1.89589225562267
30
0
41
1
10
20.8755021302987
20
-1.88757324555456
30
0
41
1
10
20.8765534998356
20
-1.86186716203522
30
0
41
1
10
20.876440944359
20
-1.84398527130543
30
0
41
1
10
20.8754556996603
20
-1.82530467893793
30
0
0
SPLINE
5
D3
100
AcDbEntity
8
1
62
256
6
ByLayer
370
18
48
1
60
0
100
AcDbSpline
70
4
71
3
72
45
73
41
40
0
40
0
40
0
40
0
40
0.0282778330714581
40
0.0566769210293174
40
0.085193030076716
40
0.113822075939345
40
0.142559990806408
40
0.17140264091227
40
0.200345890239945
40
0.229385749893242
40
0.258518421839184
40
0.287740116213913
40
0.379759601413993
40
0.474866382097009
40
0.572940597809297
40
0.673872066134726
40
0.685892816754144
40
0.698051811487157
40
0.710348752913661
40
0.722783349942279
40
0.735355318111795
40
0.748064379860507
40
0.760910264763782
40
0.773892709741323
40
0.787011459235923
40
0.800266265366318
40
0.813656888058064
40
0.827183095156413
40
0.840844662527303
40
0.854641374152659
40
0.868573022228188
40
0.882639407272485
40
0.896840338258183
40
0.911175632776944
40
0.92564511725177
40
0.940248627232352
40
0.954986008035443
40
0.969857115886213
40
0.98486181921601
40
1
40
1
40
1
40
1
41
1
10
20.8716190745783
20
-1.92621984210805
30
0
41
1
10
20.8709834340855
20
-1.93629810214665
30
0
41
1
10
20.8697094274838
20
-1.9564978376383
30
0
41
1
10
20.8666385199574
20
-1.98669212036614
30
0
41
1
10
20.8627085571921
20
-2.01684687894021
30
0
41
1
10
20.8578318427443
20
-2.04691466427627
30
0
41
1
10
20.852028930372
20
-2.07686065247222
30
0
41
1
10
20.8452938678178
20
-2.10664679122038
30
0
41
1
10
20.837629985953
20
-2.13623622881116
30
0
41
1
10
20.8290397526636
20
-2.16559180670544
30
0
41
1
10
20.8195266766389
20
-2.19467757363185
30
0
41
1
10
20.8016364042672
20
-2.24404105687097
30
0
41
1
10
20.7713896004741
20
-2.31293098809459
30
0
41
1
10
20.7228555731477
20
-2.39837026757976
30
0
41
1
10
20.6641772006326
20
-2.47983817362686
30
0
41
1
10
20.6161787017326
20
-2.5327447864735
30
0
41
1
10
20.5859635172468
20
-2.56200813072053
30
0
41
1
10
20.5770440539883
20
-2.57040975710444
30
0
41
1
10
20.5679128805642
20
-2.57877119793585
30
0
41
1
10
20.5585680102673
20
-2.58708626478128
30
0
41
1
10
20.5490077280514
20
-2.5953484245529
30
0
41
1
10
20.5392303744266
20
-2.60355110858623
30
0
41
1
10
20.5292344097379
20
-2.61168763046487
30
0
41
1
10
20.5190184020561
20
-2.61975121055204
30
0
41
1
10
20.5085810358746
20
-2.62773497155669
30
0
41
1
10
20.4979211151324
20
-2.63563194208217
30
0
41
1
10
20.4870375677688
20
-2.64343505809393
30
0
41
1
10
20.4759294498322
20
-2.65113716501642
30
0
41
1
10
20.46459594971
20
-2.6587310198006
30
0
41
1
10
20.4530363921838
20
-2.66620929280083
30
0
41
1
10
20.441250242886
20
-2.67356457075331
30
0
41
1
10
20.4292371110847
20
-2.68078935573018
30
0
41
1
10
20.416996758584
20
-2.68787607949466
30
0
41
1
10
20.4045290852258
20
-2.69481705965649
30
0
41
1
10
20.3918342026763
20
-2.7016046761928
30
0
41
1
10
20.3789121736665
20
-2.70823071404595
30
0
41
1
10
20.3657640164361
20
-2.71468886184999
30
0
41
1
10
20.3523879227374
20
-2.72096527389539
30
0
41
1
10
20.3387935840834
20
-2.72707429566861
30
0
41
1
10
20.3296038825777
20
-2.73095649064462
30
0
41
1
10
20.3249886850996
20
-2.73290618361904
30
0
0
SPLINE
5
D4
100
AcDbEntity
8
1
62
256
6
ByLayer
370
18
48
1
60
0
100
AcDbSpline
70
4
71
3
72
8
73
4
40
0
40
0
40
0
40
0
40
1
40
1
40
1
40
1
41
1
10
20.682052904223
20
-1.85471495496597
30
0
41
1
10
20.7452280048253
20
-1.87856200902908
30
0
41
1
10
20.8083960293913
20
-1.90226407853129
30
0
41
1
10
20.8715584781922
20
-1.92585190325437
30
0
0
SPLINE
5
D5
100
AcDbEntity
8
1
62
256
6
ByLayer
370
18
48
1
60
0
100
AcDbSpline
70
4
71
3
72
45
73
41
40
0
40
0
40
0
40
0
40
0.0935934568572453
40
0.0935934568572453
40
0.130572285298654
40
0.130572285298654
40
0.167551113740063
40
0.167551113740063
40
0.24150877062288
40
0.24150877062288
40
0.259998184843585
40
0.259998184843585
40
0.278487599064289
40
0.315466427505701
40
0.315466427505701
40
0.389424084388524
40
0.389424084388524
40
0.40791349860923
40
0.40791349860923
40
0.426402912829935
40
0.463381741271345
40
0.463381741271345
40
0.537339398154162
40
0.537339398154162
40
0.555828812374868
40
0.555828812374868
40
0.574318226595573
40
0.611297055036985
40
0.611297055036985
40
0.685254711919806
40
0.685254711919806
40
0.833170025685446
40
0.833170025685446
40
0.870148854126856
40
0.870148854126856
40
0.907127682568266
40
0.907127682568266
40
0.981085339451086
40
0.981085339451086
40
1
40
1
40
1
40
1
41
1
10
7.5791224137653
20
1.75040962134861
30
0
41
1
10
7.86687429213239
20
1.74118703046926
30
0
41
1
10
8.15434678613528
20
1.71724720723498
30
0
41
1
10
8.55675758976909
20
1.66377363226238
30
0
41
1
10
8.67064018800218
20
1.64642025549458
30
0
41
1
10
8.8981598349045
20
1.60746778970301
30
0
41
1
10
9.01183476236841
20
1.58586370212916
30
0
41
1
10
9.35283637690273
20
1.51489480761495
30
0
41
1
10
9.58013941518968
20
1.45936778038165
30
0
41
1
10
9.86500204466739
20
1.38052466881047
30
0
41
1
10
9.92199997521152
20
1.36428742176383
30
0
41
1
10
10.0358809859571
20
1.33095651690002
30
0
41
1
10
10.2066058554186
20
1.27965498469564
30
0
41
1
10
10.3771280569869
20
1.2245744089642
30
0
41
1
10
10.7181338173488
20
1.10974739382735
30
0
41
1
10
10.9454190156693
20
1.02697034091426
30
0
41
1
10
11.2302333361864
20
0.917018385808774
30
0
41
1
10
11.2872412811002
20
0.894700203273715
30
0
41
1
10
11.4011398942111
20
0.849534032579527
30
0
41
1
10
11.571887264767
20
0.780961424236182
30
0
41
1
10
11.7424203136239
20
0.710094282638664
30
0
41
1
10
12.0834322925755
20
0.565771990174483
30
0
41
1
10
12.3107010316139
20
0.466103533235781
30
0
41
1
10
12.5954687872734
20
0.338803830543753
30
0
41
1
10
12.6524894808449
20
0.313193437858672
30
0
41
1
10
12.7663349004634
20
0.261871020117297
30
0
41
1
10
12.9368830570985
20
0.184702165087685
30
0
41
1
10
13.1068578912728
20
0.107173007375053
30
0
41
1
10
13.4462705312236
20
-0.0478557934956712
30
0
41
1
10
13.6718300677782
20
-0.151166883975066
30
0
41
1
10
14.3481508827271
20
-0.457002944575123
30
0
41
1
10
14.7985416356961
20
-0.655441880247508
30
0
41
1
10
15.3668994183076
20
-0.883640629068793
30
0
41
1
10
15.4809797476737
20
-0.928337916599133
30
0
41
1
10
15.7086611088314
20
-1.01497720428057
30
0
41
1
10
15.8223615360772
20
-1.05696196020131
30
0
41
1
10
16.1632737173625
20
-1.17852211506209
30
0
41
1
10
16.3902962070804
20
-1.25369982407727
30
0
41
1
10
16.6758351943694
20
-1.3395026696669
30
0
41
1
10
16.7340126651905
20
-1.35652976421753
30
0
41
1
10
16.7922242275996
20
-1.37309323326255
30
0
0
SPLINE
5
D6
100
AcDbEntity
8
1
62
256
6
ByLayer
370
18
48
1
60
0
100
AcDbSpline
70
4
71
3
72
20
73
16
40
0
40
0
40
0
40
0
40
0.250000000000025
40
0.250000000000025
40
0.37500000000003
40
0.37500000000003
40
0.500000000000036
40
0.500000000000036
40
0.750000000000046
40
0.750000000000046
40
0.812500000000034
40
0.812500000000034
40
0.875000000000023
40
0.875000000000023
40
1
40
1
40
1
40
1
41
1
10
20.4873270006055
20
-0.215338275587698
30
0
41
1
10
20.4894651259209
20
-0.241383027653654
30
0
41
1
10
20.4948391595927
20
-0.267094640929116
30
0
41
1
10
20.5060926473419
20
-0.305659679264267
30
0
41
1
10
20.5103921399719
20
-0.318512692105202
30
0
41
1
10
20.5199420741689
20
-0.344300949298571
30
0
41
1
10
20.525210707948
20
-0.357275694099968
30
0
41
1
10
20.5421767940047
20
-0.39621168145473
30
0
41
1
10
20.5548677392319
20
-0.421863598646354
30
0
41
1
10
20.5719032988157
20
-0.454110639654601
30
0
41
1
10
20.5753704016199
20
-0.460569685488395
30
0
41
1
10
20.5824177794678
20
-0.473523671503244
30
0
41
1
10
20.5860058277546
20
-0.480032269762774
30
0
41
1
10
20.5967900508789
20
-0.499376851621292
30
0
41
1
10
20.6040401921926
20
-0.512106854622516
30
0
41
1
10
20.6113313991337
20
-0.524649721411976
30
0
0
SPLINE
5
D7
100
AcDbEntity
8
1
62
256
6
ByLayer
370
18
48
1
60
0
100
AcDbSpline
70
4
71
3
72
33
73
29
40
0
40
0
40
0
40
0
40
0.0570527299613868
40
0.114696462124649
40
0.172919814849966
40
0.231710542269685
40
0.261174931612125
40
0.291183265304041
40
0.321733155647206
40
0.35282198567617
40
0.38444690200804
40
0.416604807011504
40
0.449292314951793
40
0.48250572972957
40
0.516241091597273
40
0.55049417688042
40
0.585260493578565
40
0.62053527731783
40
0.656313487692285
40
0.692589805031056
40
0.729358627628478
40
0.76661406947423
40
0.804349958520125
40
0.842559835520558
40
0.881236953482677
40
0.920374277762538
40
0.959964487731361
40
1
40
1
40
1
40
1
41
1
10
7.69646347670164
20
-2.23229326097939
30
0
41
1
10
7.68852789636304
20
-2.24275897826809
30
0
41
1
10
7.6725745319867
20
-2.2637988259217
30
0
41
1
10
7.64819038352871
20
-2.29492579906798
30
0
41
1
10
7.62331618728928
20
-2.32591902719483
30
0
41
1
10
7.60223105436711
20
-2.35149603824803
30
0
41
1
10
7.58507121189822
20
-2.3718967479013
30
0
41
1
10
7.57193697508981
20
-2.38729600214239
30
0
41
1
10
7.55849534510614
20
-2.40283985455821
30
0
41
1
10
7.54474597347993
20
-2.41852018102358
30
0
41
1
10
7.53068900504798
20
-2.43432882979488
30
0
41
1
10
7.51632445802764
20
-2.45025732570403
30
0
41
1
10
7.50165238571475
20
-2.46629690789109
30
0
41
1
10
7.48667281530624
20
-2.48243848067094
30
0
41
1
10
7.47138579079842
20
-2.49867270017393
30
0
41
1
10
7.45579135398296
20
-2.51498997538303
30
0
41
1
10
7.43988954658377
20
-2.53138048092959
30
0
41
1
10
7.42368040926698
20
-2.54783416491964
30
0
41
1
10
7.40716398204697
20
-2.56434076043001
30
0
41
1
10
7.39034030294167
20
-2.58088979427396
30
0
41
1
10
7.37320941231661
20
-2.59747061110286
30
0
41
1
10
7.35577133582805
20
-2.61407234592781
30
0
41
1
10
7.33802614875302
20
-2.63068409940638
30
0
41
1
10
7.31997373070706
20
-2.64729434834169
30
0
41
1
10
7.3016146976818
20
-2.6638932709549
30
0
41
1
10
7.28294685931849
20
-2.68046400074215
30
0
41
1
10
7.26397867106184
20
-2.69701594886146
30
0
41
1
10
7.25118237639242
20
-2.70791734594482
30
0
41
1
10
7.24474844778447
20
-2.71339852720652
30
0
0
SPLINE
5
D8
100
AcDbEntity
8
1
62
256
6
ByLayer
370
18
48
1
60
0
100
AcDbSpline
70
4
71
3
72
15
73
11
40
0
40
0
40
0
40
0
40
0.0451776125904825
40
0.0451776125904825
40
0.283883209442862
40
0.283883209442862
40
0.522588806295241
40
0.76129440314762
40
0.76129440314762
40
1
40
1
40
1
40
1
41
1
10
19.5309058603241
20
1.7796848874068
30
0
41
1
10
19.5329787746033
20
1.78032035133981
30
0
41
1
10
19.5350608575614
20
1.78095813002
30
0
41
1
10
19.5482024524044
20
1.78497839109679
30
0
41
1
10
19.559530501361
20
1.78841877389502
30
0
41
1
10
19.582173488181
20
1.79514117789688
30
0
41
1
10
19.6049432767265
20
1.80174850190261
30
0
41
1
10
19.6280128083479
20
1.80794383732342
30
0
41
1
10
19.6512573994765
20
1.8138430996874
30
0
41
1
10
19.6629932542819
20
1.81664910566758
30
0
41
1
10
19.6746587049557
20
1.81922582316585
30
0
0
SPLINE
5
D9
100
AcDbEntity
8
1
62
256
6
ByLayer
370
18
48
1
60
0
100
AcDbSpline
70
4
71
3
72
35
73
31
40
0
40
0
40
0
40
0
40
0.0312500000000018
40
0.0312500000000018
40
0.0625000000000035
40
0.0625000000000035
40
0.125000000000007
40
0.125000000000007
40
0.156250000000008
40
0.156250000000008
40
0.18750000000001
40
0.250000000000013
40
0.250000000000013
40
0.281250000000015
40
0.281250000000015
40
0.312500000000017
40
0.312500000000017
40
0.375000000000019
40
0.375000000000019
40
0.500000000000025
40
0.500000000000025
40
0.562500000000028
40
0.562500000000028
40
0.62500000000003
40
0.62500000000003
40
0.75000000000002
40
0.75000000000002
40
0.87500000000001
40
0.87500000000001
40
1
40
1
40
1
40
1
41
1
10
20.6947639439124
20
2.41158665259087
30
0
41
1
10
20.691103987454
20
2.39904443521081
30
0
41
1
10
20.6868691049568
20
2.38659765909597
30
0
41
1
10
20.6774449856691
20
2.36232728185365
30
0
41
1
10
20.672238830107
20
2.3504408010495
30
0
41
1
10
20.6552328230418
20
2.31547979010887
30
0
41
1
10
20.6420830679623
20
2.29308474660567
30
0
41
1
10
20.6197388492476
20
2.26081077459486
30
0
41
1
10
20.6118699918836
20
2.2503139749243
30
0
41
1
10
20.5955427275914
20
2.23007091915494
30
0
41
1
10
20.5700835116886
20
2.20070960821002
30
0
41
1
10
20.5419842069872
20
2.17408368485772
30
0
41
1
10
20.5124345303562
20
2.14896048723713
30
0
41
1
10
20.5023423511753
20
2.14083712078821
30
0
41
1
10
20.4817179471805
20
2.12504631776812
30
0
41
1
10
20.471175466672
20
2.11737348876642
30
0
41
1
10
20.4392500848053
20
2.09517678808265
30
0
41
1
10
20.4174740159407
20
2.08139004928941
30
0
41
1
10
20.3509945905775
20
2.04239328098762
30
0
41
1
10
20.3051565044932
20
2.01951284732056
30
0
41
1
10
20.2349058819821
20
1.98825833347726
30
0
41
1
10
20.211234756603
20
1.97836213903204
30
0
41
1
10
20.1634676645793
20
1.95944194776283
30
0
41
1
10
20.139343571645
20
1.95040948653156
30
0
41
1
10
20.0668569870166
20
1.92456847319895
30
0
41
1
10
20.0182554308911
20
1.9089475946441
30
0
41
1
10
19.9206576465104
20
1.87999336769008
30
0
41
1
10
19.8716602236438
20
1.86666694329034
30
0
41
1
10
19.7733678818672
20
1.84173838946643
30
0
41
1
10
19.7240722303734
20
1.83014050611771
30
0
41
1
10
19.6746587049556
20
1.81922582316582
30
0
0
SPLINE
5
DA
100
AcDbEntity
8
1
62
256
6
ByLayer
370
18
48
1
60
0
100
AcDbSpline
70
4
71
3
72
30
73
26
40
0
40
0
40
0
40
0
40
0.125000000000018
40
0.125000000000018
40
0.250000000000035
40
0.250000000000035
40
0.312500000000037
40
0.312500000000037
40
0.375000000000038
40
0.375000000000038
40
0.500000000000041
40
0.500000000000041
40
0.625000000000043
40
0.625000000000043
40
0.687500000000045
40
0.687500000000045
40
0.718750000000039
40
0.718750000000039
40
0.750000000000033
40
0.750000000000033
40
0.875000000000012
40
0.875000000000012
40
0.937500000000006
40
0.937500000000006
40
1
40
1
40
1
40
1
41
1
10
19.9581531089494
20
2.88932068041106
30
0
41
1
10
19.9944090753681
20
2.88818742965037
30
0
41
1
10
20.0304588598519
20
2.88457964304476
30
0
41
1
10
20.1022266119561
20
2.87275047470493
30
0
41
1
10
20.1379439170365
20
2.86451901904729
30
0
41
1
10
20.1912503219446
20
2.84858268183351
30
0
41
1
10
20.2089741777965
20
2.84267791610395
30
0
41
1
10
20.2443204999472
20
2.82965409284785
30
0
41
1
10
20.2619795104475
20
2.82251418138864
30
0
41
1
10
20.3141287561541
20
2.79947537402927
30
0
41
1
10
20.3479894015181
20
2.78191329574457
30
0
41
1
10
20.413694919706
20
2.74235974895325
30
0
41
1
10
20.4455334838302
20
2.72034849083391
30
0
41
1
10
20.491412403041
20
2.6837202070756
30
0
41
1
10
20.5063879386741
20
2.6709014843174
30
0
41
1
10
20.5283037061612
20
2.65070186751458
30
0
41
1
10
20.5355181638574
20
2.64380798589957
30
0
41
1
10
20.5497453736317
20
2.6296753565681
30
0
41
1
10
20.5567676759665
20
2.62242517278349
30
0
41
1
10
20.5910782364457
20
2.58557604569239
30
0
41
1
10
20.6161469836998
20
2.5540018402543
30
0
41
1
10
20.6493300091825
20
2.50323214333361
30
0
41
1
10
20.6596458986965
20
2.48573425920162
30
0
41
1
10
20.6785870845187
20
2.4495163255169
30
0
41
1
10
20.6872343774964
20
2.43069843177821
30
0
41
1
10
20.6947639439124
20
2.41158665259084
30
0
0
SPLINE
5
DB
100
AcDbEntity
8
1
62
256
6
ByLayer
370
18
48
1
60
0
100
AcDbSpline
70
4
71
3
72
8
73
4
40
0
40
0
40
0
40
0
40
1
40
1
40
1
40
1
41
1
10
19.9581531089489
20
2.88932068040927
30
0
41
1
10
19.954200326532
20
2.88858423282369
30
0
41
1
10
19.9502480717615
20
2.8878230710794
30
0
41
1
10
19.9462962495346
20
2.88703725741289
30
0
0
SPLINE
5
DC
100
AcDbEntity
8
1
62
256
6
ByLayer
370
18
48
1
60
0
100
AcDbSpline
70
4
71
5
72
12
73
6
40
0
40
0
40
0
40
0
40
0
40
0
40
1
40
1
40
1
40
1
40
1
40
1
41
1
10
19.9392051418656
20
2.88624723918241
30
0
41
1
10
19.9406005967238
20
2.88654461606288
30
0
41
1
10
19.9419960515819
20
2.88684151645495
30
0
41
1
10
19.94339150644
20
2.8871379402768
30
0
41
1
10
19.9447869612981
20
2.88743388744686
30
0
41
1
10
19.9461824161563
20
2.88772935788387
30
0
0
SPLINE
5
DD
100
AcDbEntity
8
1
62
256
6
ByLayer
370
18
48
1
60
0
100
AcDbSpline
70
4
71
5
72
12
73
6
40
0
40
0
40
0
40
0
40
0
40
0
40
1
40
1
40
1
40
1
40
1
40
1
41
1
10
19.9319057989147
20
2.88468651625658
30
0
41
1
10
19.933365667201
20
2.88499970529716
30
0
41
1
10
19.9348255354873
20
2.88531237312719
30
0
41
1
10
19.9362854037736
20
2.88562451965237
30
0
41
1
10
19.9377452720599
20
2.88593614477873
30
0
41
1
10
19.9392051403462
20
2.88624724841253
30
0
0
SPLINE
5
DE
100
AcDbEntity
8
1
62
256
6
ByLayer
370
18
48
1
60
0
100
AcDbSpline
70
4
71
3
72
12
73
8
40
0
40
0
40
0
40
0
40
0.490256266503436
40
0.490256266503436
40
0.980512533006871
40
0.980512533006871
40
1
40
1
40
1
40
1
41
1
10
19.9319057981379
20
2.88468652097518
30
0
41
1
10
19.6833243694475
20
2.83135808431896
30
0
41
1
10
19.4347429407572
20
2.75983967696377
30
0
41
1
10
18.9375800833766
20
2.58310530301822
30
0
41
1
10
18.6889986546863
20
2.47789351961006
30
0
41
1
10
18.4305362255525
20
2.3530369331169
30
0
41
1
10
18.4206552251091
20
2.34824018615996
30
0
41
1
10
18.4107742246657
20
2.34342010968817
30
0
0
SPLINE
5
DF
100
AcDbEntity
8
1
62
256
6
ByLayer
370
18
48
1
60
0
100
AcDbSpline
70
4
71
3
72
10
73
6
40
0
40
0
40
0
40
0
40
0.469988084424208
40
0.469988084424208
40
1
40
1
40
1
40
1
41
1
10
9.40703027847391
20
-2.97754835261461
30
0
41
1
10
9.1866006880056
20
-2.9985767750355
30
0
41
1
10
8.96617109753737
20
-3.00486809598425
30
0
41
1
10
8.49716007837847
20
-2.9866409457189
30
0
41
1
10
8.24857864968797
20
-2.95808549013825
30
0
41
1
10
7.99999722099744
20
-2.91117067999198
30
0
0
SPLINE
5
E0
100
AcDbEntity
8
1
62
256
6
ByLayer
370
18
48
1
60
0
100
AcDbSpline
70
4
71
3
72
18
73
14
40
0
40
0
40
0
40
0
40
0.17240638168317
40
0.17240638168317
40
0.344812763366339
40
0.344812763366339
40
0.517219145049509
40
0.517219145049509
40
0.689625526732679
40
0.689625526732679
40
0.862031908415849
40
0.862031908415849
40
1
40
1
40
1
40
1
41
1
10
2.78374335508542
20
-2.42517976494901
30
0
41
1
10
2.93213743592168
20
-2.39041473196363
30
0
41
1
10
3.0814056120096
20
-2.35556259106707
30
0
41
1
10
3.38194287818104
20
-2.28611085406226
30
0
41
1
10
3.533212584919
20
-2.25151060648071
30
0
41
1
10
3.83800579385817
20
-2.18317439967157
30
0
41
1
10
3.99153013060712
20
-2.14943840257942
30
0
41
1
10
4.30106302436454
20
-2.08364084676052
30
0
41
1
10
4.45707258060108
20
-2.05158012643253
30
0
41
1
10
4.77175611092736
20
-1.99013063587418
30
0
41
1
10
4.9304311402137
20
-1.96074373966619
30
0
41
1
10
5.21857288616377
20
-1.91127542780731
30
0
41
1
10
5.34754341111491
20
-1.89050963628034
30
0
41
1
10
5.47739529449322
20
-1.87127891520007
30
0
0
SPLINE
5
E1
100
AcDbEntity
8
1
62
256
6
ByLayer
370
18
48
1
60
0
100
AcDbSpline
70
4
71
3
72
11
73
7
40
0
40
0
40
0
40
0
40
0.215170651063838
40
0.449568494342788
40
0.683966337621739
40
1
40
1
40
1
40
1
41
1
10
5.92976647711509
20
-2.11336783191368
30
0
41
1
10
5.81638412475741
20
-2.16914594433993
30
0
41
1
10
5.58104075077415
20
-2.29462068506985
30
0
41
1
10
5.22754505357591
20
-2.50223344114235
30
0
41
1
10
4.82724701583945
20
-2.74129821192108
30
0
41
1
10
4.55104741652909
20
-2.89464614937651
30
0
41
1
10
4.39401905553521
20
-2.97553329081521
30
0
0
SPLINE
5
E2
100
AcDbEntity
8
1
62
256
6
ByLayer
370
18
48
1
60
0
100
AcDbSpline
70
4
71
3
72
8
73
4
40
0
40
0
40
0
40
0
40
1
40
1
40
1
40
1
41
1
10
20.657239260526
20
1.27060865610287
30
0
41
1
10
20.6654696864203
20
1.25385258299437
30
0
41
1
10
20.673744412644
20
1.23693231911014
30
0
41
1
10
20.682052904223
20
1.21988691033562
30
0
0
SPLINE
5
E3
100
AcDbEntity
8
1
62
256
6
ByLayer
370
18
48
1
60
0
100
AcDbSpline
70
4
71
3
72
17
73
13
40
0
40
0
40
0
40
0
40
0.0615101153575381
40
0.0615101153575381
40
0.37434007690502
40
0.37434007690502
40
0.687170038452502
40
0.687170038452502
40
0.765377528839377
40
0.765377528839377
40
0.843585019226251
40
1
40
1
40
1
40
1
41
1
10
19.6901613977121
20
1.70118113807558
30
0
41
1
10
19.709137996026
20
1.69738412288262
30
0
41
1
10
19.7281729926849
20
1.69327030245691
30
0
41
1
10
19.8443666380445
20
1.66633611950198
30
0
41
1
10
19.9429703572042
20
1.63567637906658
30
0
41
1
10
20.1431608561032
20
1.55817406332932
30
0
41
1
10
20.2447341272724
20
1.51140477080187
30
0
41
1
10
20.3735477129309
20
1.44292336447893
30
0
41
1
10
20.3994125360926
20
1.4287156076461
30
0
41
1
10
20.4510466852406
20
1.39944881908596
30
0
41
1
10
20.5284590133398
20
1.35421756024317
30
0
41
1
10
20.6057567118705
20
1.30506347775787
30
0
41
1
10
20.6572392605261
20
1.27060865610292
30
0
0
SPLINE
5
E4
100
AcDbEntity
8
1
62
256
6
ByLayer
370
18
48
1
60
0
100
AcDbSpline
70
4
71
3
72
8
73
4
40
0
40
0
40
0
40
0
40
1
40
1
40
1
40
1
41
1
10
20.6820529042229
20
1.21988691033573
30
0
41
1
10
20.7452280060237
20
1.00708060297833
30
0
41
1
10
20.8083960304989
20
0.794266091882719
30
0
41
1
10
20.8715584781931
20
0.581445116415694
30
0
0
SPLINE
5
E5
100
AcDbEntity
8
1
62
256
6
ByLayer
370
18
48
1
60
0
100
AcDbSpline
70
4
71
3
72
28
73
24
40
0
40
0
40
0
40
0
40
0.124999999999995
40
0.124999999999995
40
0.249999999999989
40
0.249999999999989
40
0.312499999999988
40
0.312499999999988
40
0.374999999999986
40
0.374999999999986
40
0.49999999999998
40
0.49999999999998
40
0.562499999999977
40
0.562499999999977
40
0.624999999999973
40
0.624999999999973
40
0.749999999999965
40
0.749999999999965
40
0.812499999999969
40
0.812499999999969
40
0.874999999999973
40
0.874999999999973
40
1
40
1
40
1
40
1
41
1
10
20.682052904223
20
1.21988691033562
30
0
41
1
10
20.6835293323077
20
1.2112148373341
30
0
41
1
10
20.6834900738856
20
1.20318490878046
30
0
41
1
10
20.6801636302807
20
1.18879203125533
30
0
41
1
10
20.6768778341426
20
1.18243319907151
30
0
41
1
10
20.6691313244421
20
1.17451101254767
30
0
41
1
10
20.6660919961337
20
1.17216158012485
30
0
41
1
10
20.6591050928168
20
1.16812850646332
30
0
41
1
10
20.6551464791127
20
1.16644193337768
30
0
41
1
10
20.6418815070237
20
1.16241100495105
30
0
41
1
10
20.63119440125
20
1.16108951708188
30
0
41
1
10
20.612153346419
20
1.16147119139725
30
0
41
1
10
20.605280852227
20
1.1620003476572
30
0
41
1
10
20.5907601127391
20
1.16387215562983
30
0
41
1
10
20.5830860993276
20
1.16521252498217
30
0
41
1
10
20.5588477739014
20
1.17044740722679
30
0
41
1
10
20.5410592876384
20
1.17556176344482
30
0
41
1
10
20.5119059160834
20
1.18575153749754
30
0
41
1
10
20.5017277839698
20
1.18958759720653
30
0
41
1
10
20.4807883744137
20
1.19801351968599
30
0
41
1
10
20.4700528518685
20
1.20259381907951
30
0
41
1
10
20.4371110776491
20
1.21735774774339
30
0
41
1
10
20.4141775547076
20
1.22855804038244
30
0
41
1
10
20.3903243932576
20
1.2409967134914
30
0
0
SPLINE
5
E6
100
AcDbEntity
8
1
62
256
6
ByLayer
370
18
48
1
60
0
100
AcDbSpline
70
4
71
3
72
29
73
25
40
0
40
0
40
0
40
0
40
0.125000000000011
40
0.125000000000011
40
0.187500000000017
40
0.187500000000017
40
0.250000000000023
40
0.312500000000029
40
0.312500000000029
40
0.375000000000035
40
0.375000000000035
40
0.437500000000041
40
0.437500000000041
40
0.500000000000046
40
0.500000000000046
40
0.625000000000058
40
0.625000000000058
40
0.687500000000048
40
0.687500000000048
40
0.750000000000039
40
0.750000000000039
40
0.875000000000019
40
0.875000000000019
40
1
40
1
40
1
40
1
41
1
10
18.3524214876481
20
0.354737094087795
30
0
41
1
10
18.3474645392923
20
0.380653279601006
30
0
41
1
10
18.3389605932225
20
0.405623030180322
30
0
41
1
10
18.3211062079215
20
0.441533907047869
30
0
41
1
10
18.3142353322381
20
0.453307754998491
30
0
41
1
10
18.2991128314075
20
0.475657822910108
30
0
41
1
10
18.2825716936832
20
0.496935343638796
30
0
41
1
10
18.2633138810639
20
0.51609863957907
30
0
41
1
10
18.2427136517509
20
0.534196936729842
30
0
41
1
10
18.2318884312195
20
0.542581271610914
30
0
41
1
10
18.2094169639052
20
0.558003292034101
30
0
41
1
10
18.1977469018865
20
0.565061570528542
30
0
41
1
10
18.1735803697316
20
0.577935764559214
30
0
41
1
10
18.1610161535276
20
0.58377683139085
30
0
41
1
10
18.1226628731246
20
0.599245505498658
30
0
41
1
10
18.0962915409546
20
0.60686589982717
30
0
41
1
10
18.0555842127793
20
0.614580399864423
30
0
41
1
10
18.0417420598805
20
0.616530000427986
30
0
41
1
10
18.0141114547928
20
0.619096819058569
30
0
41
1
10
18.0003265282432
20
0.619723490887424
30
0
41
1
10
17.9590659977276
20
0.619647698770706
30
0
41
1
10
17.9316814075094
20
0.617047199665848
30
0
41
1
10
17.8772331613878
20
0.605724004099585
30
0
41
1
10
17.8513729228453
20
0.597242271938228
30
0
41
1
10
17.827341712485
20
0.585368798540685
30
0
0
SPLINE
5
E7
100
AcDbEntity
8
1
62
256
6
ByLayer
370
18
48
1
60
0
100
AcDbSpline
70
4
71
3
72
28
73
24
40
0
40
0
40
0
40
0
40
0.124999999999991
40
0.124999999999991
40
0.187499999999986
40
0.187499999999986
40
0.249999999999982
40
0.312499999999977
40
0.312499999999977
40
0.374999999999973
40
0.374999999999973
40
0.499999999999987
40
0.499999999999987
40
0.562499999999981
40
0.562499999999981
40
0.624999999999974
40
0.687499999999967
40
0.687499999999967
40
0.749999999999961
40
0.749999999999961
40
0.87499999999998
40
0.87499999999998
40
1
40
1
40
1
40
1
41
1
10
19.2689659058607
20
-0.0610730865072355
30
0
41
1
10
19.2709122525425
20
-0.0361950504008632
30
0
41
1
10
19.2762699676255
20
-0.0121487596004783
30
0
41
1
10
19.2881716849736
20
0.023072153519621
30
0
41
1
10
19.292837591852
20
0.0347300669008916
30
0
41
1
10
19.3033571719099
20
0.0574210508976591
30
0
41
1
10
19.3149948747836
20
0.0793799648903644
30
0
41
1
10
19.3287495262951
20
0.0999504212773559
30
0
41
1
10
19.343548527926
20
0.119835105844885
30
0
41
1
10
19.3515163123797
20
0.129478000631593
30
0
41
1
10
19.3764839109724
20
0.156773112722362
30
0
41
1
10
19.3946232488321
20
0.172976145895348
30
0
41
1
10
19.4240842822761
20
0.194349623951155
30
0
41
1
10
19.4343312480386
20
0.201000885877647
30
0
41
1
10
19.4551804397908
20
0.213021689768681
30
0
41
1
10
19.4764684150078
20
0.223833911735142
30
0
41
1
10
19.4986645505348
20
0.232288064775759
30
0
41
1
10
19.5213417079672
20
0.239563986105281
30
0
41
1
10
19.5329840646606
20
0.242622694217118
30
0
41
1
10
19.5680515767031
20
0.24988096708725
30
0
41
1
10
19.5916860606945
20
0.252229248623195
30
0
41
1
10
19.639603296824
20
0.252396914838329
30
0
41
1
10
19.6639631127264
20
0.250173128936268
30
0
41
1
10
19.6881161322332
20
0.245911362514448
30
0
0
SPLINE
5
E8
100
AcDbEntity
8
1
62
256
6
ByLayer
370
18
48
1
60
0
100
AcDbSpline
70
4
71
3
72
35
73
31
40
0
40
0
40
0
40
0
40
0.0312499999999973
40
0.0312499999999973
40
0.0624999999999945
40
0.0624999999999945
40
0.124999999999989
40
0.124999999999989
40
0.156249999999982
40
0.156249999999982
40
0.187499999999974
40
0.249999999999959
40
0.249999999999959
40
0.281249999999952
40
0.281249999999952
40
0.312499999999945
40
0.312499999999945
40
0.374999999999944
40
0.374999999999944
40
0.499999999999943
40
0.499999999999943
40
0.56249999999995
40
0.56249999999995
40
0.624999999999957
40
0.624999999999957
40
0.749999999999972
40
0.749999999999972
40
0.874999999999986
40
0.874999999999986
40
1
40
1
40
1
40
1
41
1
10
20.6947639439124
20
0.0839637472786592
30
0
41
1
10
20.6911455284032
20
0.0841035688121679
30
0
41
1
10
20.6869647812926
20
0.0843519735778955
30
0
41
1
10
20.677669821857
20
0.0850487054688926
30
0
41
1
10
20.6725390303197
20
0.0854974648253233
30
0
41
1
10
20.6557883970565
20
0.0871258800486601
30
0
41
1
10
20.642846322279
20
0.0885801898384386
30
0
41
1
10
20.6208747789247
20
0.0912930912162153
30
0
41
1
10
20.6131278114852
20
0.092286420778521
30
0
41
1
10
20.5970584129591
20
0.0944121759598033
30
0
41
1
10
20.5720030529869
20
0.0978202059671673
30
0
41
1
10
20.5443502801686
20
0.101827298168388
30
0
41
1
10
20.5152671796491
20
0.106164278333523
30
0
41
1
10
20.5053338988433
20
0.107665041035574
30
0
41
1
10
20.4850329827096
20
0.110766745112073
30
0
41
1
10
20.4746453635492
20
0.112370850123568
30
0
41
1
10
20.4431665370823
20
0.11727647110979
30
0
41
1
10
20.4216918422675
20
0.120681007318922
30
0
41
1
10
20.3561245866754
20
0.131208284840881
30
0
41
1
10
20.3109049774904
20
0.138640271211926
30
0
41
1
10
20.2415903590127
20
0.150195768503096
30
0
41
1
10
20.2182326798886
20
0.154116967162707
30
0
41
1
10
20.1710946882531
20
0.162075328699615
30
0
41
1
10
20.1472779859858
20
0.166118747406358
30
0
41
1
10
20.0756619059182
20
0.178333045158013
30
0
41
1
10
20.0276411776433
20
0.186596377191478
30
0
41
1
10
19.9312057203514
20
0.203294592906531
30
0
41
1
10
19.8827897379107
20
0.211730022340646
30
0
41
1
10
19.7856608521205
20
0.228730163379652
30
0
41
1
10
19.7369472460443
20
0.237295180958426
30
0
41
1
10
19.6881161322416
20
0.245911362512317
30
0
0
SPLINE
5
E9
100
AcDbEntity
8
1
62
256
6
ByLayer
370
18
48
1
60
0
100
AcDbSpline
70
4
71
3
72
10
73
6
40
0
40
0
40
0
40
0
40
0.5
40
0.5
40
1
40
1
40
1
40
1
41
1
10
20.3250042130738
20
0.863776293651881
30
0
41
1
10
20.3313261659988
20
0.929971704229075
30
0
41
1
10
20.341444268936
20
0.994194052251771
30
0
41
1
10
20.3645364520476
20
1.11967739627042
30
0
41
1
10
20.3775353000452
20
1.18093230377085
30
0
41
1
10
20.3903243932576
20
1.2409967134912
30
0
0
SPLINE
5
EA
100
AcDbEntity
8
1
62
256
6
ByLayer
370
18
48
1
60
0
100
AcDbSpline
70
4
71
3
72
25
73
21
40
0
40
0
40
0
40
0
40
0.205349334912862
40
0.205349334912862
40
0.308024002369293
40
0.308024002369293
40
0.359361336097507
40
0.359361336097507
40
0.410698669825721
40
0.410698669825721
40
0.616048004738579
40
0.616048004738579
40
0.821397339651438
40
0.821397339651438
40
0.924072007107867
40
0.924072007107867
40
0.949740673971973
40
0.949740673971973
40
0.97540934083608
40
1
40
1
40
1
40
1
41
1
10
20.3903243932581
20
1.24099671349111
30
0
41
1
10
20.1262803285805
20
1.4191668577796
30
0
41
1
10
19.863589186906
20
1.58772975429116
30
0
41
1
10
19.4680049123118
20
1.82286934957756
30
0
41
1
10
19.3359044223421
20
1.89830184745705
30
0
41
1
10
19.1370266965273
20
2.00658066105251
30
0
41
1
10
19.0706130832396
20
2.04186154090485
30
0
41
1
10
18.9374844562223
20
2.11070822016544
30
0
41
1
10
18.8706735765249
20
2.14431736916248
30
0
41
1
10
18.5377589302181
20
2.30686293712051
30
0
41
1
10
18.2738606471275
20
2.42003116854946
30
0
41
1
10
17.7468971494527
20
2.61053838198311
30
0
41
1
10
17.48382843361
20
2.68791207679766
30
0
41
1
10
17.086845571359
20
2.77522029839159
30
0
41
1
10
16.9541256482896
20
2.79950899012368
30
0
41
1
10
16.7874018826415
20
2.82360327981354
30
0
41
1
10
16.7540324581989
20
2.82810590995263
30
0
41
1
10
16.6874284035016
20
2.83645391453334
30
0
41
1
10
16.6223023490017
20
2.84399086057101
30
0
41
1
10
16.5573149319286
20
2.85029017935096
30
0
41
1
10
16.5255477345572
20
2.85307724843363
30
0
0
SPLINE
5
EB
100
AcDbEntity
8
1
62
256
6
ByLayer
370
18
48
1
60
0
100
AcDbSpline
70
4
71
3
72
8
73
4
40
0
40
0
40
0
40
0
40
1
40
1
40
1
40
1
41
1
10
19.9384954918884
20
0.618913967957383
30
0
41
1
10
19.9409137574608
20
0.617240230358505
30
0
41
1
10
19.9433304782081
20
0.615564146039048
30
0
41
1
10
19.9457456061888
20
0.613885662988537
30
0
0
SPLINE
5
EC
100
AcDbEntity
8
1
62
256
6
ByLayer
370
18
48
1
60
0
100
AcDbSpline
70
4
71
3
72
33
73
29
40
0
40
0
40
0
40
0
40
0.0570527299597311
40
0.114696462121294
40
0.172919814844874
40
0.231710542262821
40
0.261174931605525
40
0.291183265297708
40
0.321733155641146
40
0.352821985670388
40
0.38444690200254
40
0.416604807006291
40
0.449292314946873
40
0.482505729724946
40
0.516241091592951
40
0.550494176876404
40
0.58526049357486
40
0.620535277314439
40
0.656313487689214
40
0.69258980502831
40
0.729358627626061
40
0.766614069472145
40
0.804349958518377
40
0.842559835519151
40
0.881236953481616
40
0.920374277761826
40
0.959964487731004
40
1
40
1
40
1
40
1
41
1
10
7.69646347669792
20
1.64798085161337
30
0
41
1
10
7.68852789635963
20
1.63794937050957
30
0
41
1
10
7.67257453198386
20
1.61778249342493
30
0
41
1
10
7.64819038352681
20
1.5870458883829
30
0
41
1
10
7.62331618728828
20
1.5557627596977
30
0
41
1
10
7.6022310543668
20
1.52931098821855
30
0
41
1
10
7.58507121189822
20
1.50783410423932
30
0
41
1
10
7.57193697508981
20
1.49142558754926
30
0
41
1
10
7.55849534510614
20
1.47465799907337
30
0
41
1
10
7.54474597347996
20
1.45752958815524
30
0
41
1
10
7.53068900504798
20
1.44003868041992
30
0
41
1
10
7.51632445802764
20
1.42218390744063
30
0
41
1
10
7.50165238571475
20
1.40396416261859
30
0
41
1
10
7.48667281530626
20
1.38537862277633
30
0
41
1
10
7.47138579079845
20
1.36642678444179
30
0
41
1
10
7.45579135398296
20
1.34710846680054
30
0
41
1
10
7.4398895465838
20
1.32742383020914
30
0
41
1
10
7.42368040926698
20
1.30737339383117
30
0
41
1
10
7.40716398204697
20
1.28695805394736
30
0
41
1
10
7.39034030294167
20
1.26617910087245
30
0
41
1
10
7.37320941231661
20
1.24503823998069
30
0
41
1
10
7.35577133582805
20
1.22353759605045
30
0
41
1
10
7.33802614875302
20
1.20167977951056
30
0
41
1
10
7.31997373070709
20
1.17946771520872
30
0
41
1
10
7.3016146976818
20
1.15690537177665
30
0
41
1
10
7.28294685931849
20
1.13399506504661
30
0
41
1
10
7.26397867106189
20
1.11074776780561
30
0
41
1
10
7.25118237639245
20
1.09509842512767
30
0
41
1
10
7.2447484477845
20
1.08722999476154
30
0
0
SPLINE
5
ED
100
AcDbEntity
8
1
62
256
6
ByLayer
370
18
48
1
60
0
100
AcDbSpline
70
4
71
3
72
8
73
4
40
0
40
0
40
0
40
0
40
1
40
1
40
1
40
1
41
1
10
20.9436472067282
20
0.0173837986657759
30
0
41
1
10
20.9209167043775
20
0.193371352603094
30
0
41
1
10
20.8981862020269
20
0.369358906540441
30
0
41
1
10
20.8754556996762
20
0.545346460477759
30
0
0
SPLINE
5
EE
100
AcDbEntity
8
1
62
256
6
ByLayer
370
18
48
1
60
0
100
AcDbSpline
70
4
71
3
72
12
73
8
40
0
40
0
40
0
40
0
40
0.249999999999999
40
0.249999999999999
40
0.499999999999997
40
0.499999999999997
40
1
40
1
40
1
40
1
41
1
10
20.871599632749
20
0.581466163886972
30
0
41
1
10
20.8726269600842
20
0.576278838258219
30
0
41
1
10
20.8735116682583
20
0.57151821048177
30
0
41
1
10
20.874948112478
20
0.562993163930059
30
0
41
1
10
20.8755021302987
20
0.559206720806372
30
0
41
1
10
20.8765534998356
20
0.549787734502388
30
0
41
1
10
20.876440944359
20
0.546150096615349
30
0
41
1
10
20.8754556996602
20
0.545346460502145
30
0
0
SPLINE
5
EF
100
AcDbEntity
8
1
62
256
6
ByLayer
370
18
48
1
60
0
100
AcDbSpline
70
4
71
3
72
45
73
41
40
0
40
0
40
0
40
0
40
0.0282778330117168
40
0.056676920909061
40
0.0851930298952182
40
0.113822075695905
40
0.142559990500367
40
0.171402640543007
40
0.200345889806855
40
0.229385749395777
40
0.258518421276834
40
0.287740115586173
40
0.379759600867358
40
0.4748663816342
40
0.57294059743293
40
0.673872065847318
40
0.685892816477326
40
0.698051811221064
40
0.710348752658405
40
0.722783349697983
40
0.735355317878577
40
0.748064379638479
40
0.760910264553075
40
0.77389270954208
40
0.787011459048233
40
0.800266265190305
40
0.813656887893844
40
0.82718309500411
40
0.840844662387026
40
0.854641374024561
40
0.868573022112369
40
0.882639407169059
40
0.896840338167257
40
0.911175632698663
40
0.925645117186242
40
0.940248627179705
40
0.95498600799578
40
0.969857115859661
40
0.984861819202657
40
1
40
1
40
1
40
1
41
1
10
20.8716190745271
20
0.581434762102333
30
0
41
1
10
20.870983434027
20
0.582357889766342
30
0
41
1
10
20.8697094274107
20
0.584208103450692
30
0
41
1
10
20.8666385198696
20
0.587464883869501
30
0
41
1
10
20.8627085570947
20
0.591081257549519
30
0
41
1
10
20.8578318426434
20
0.595091277461108
30
0
41
1
10
20.8520289302732
20
0.59948403037609
30
0
41
1
10
20.845293867727
20
0.604259278803198
30
0
41
1
10
20.837629985876
20
0.609412755352963
30
0
41
1
10
20.8290397526062
20
0.614940413759314
30
0
41
1
10
20.8195266766069
20
0.620837694570668
30
0
41
1
10
20.8016364042544
20
0.631577382131439
30
0
41
1
10
20.7713896004741
20
0.648769240315261
30
0
41
1
10
20.7228555731477
20
0.674728818751589
30
0
41
1
10
20.6641772006326
20
0.704711644546336
30
0
41
1
10
20.6161787017326
20
0.728346266260161
30
0
41
1
10
20.5859635172468
20
0.742952051378353
30
0
41
1
10
20.5770440539883
20
0.747247163020518
30
0
41
1
10
20.5679128805642
20
0.751627989121289
30
0
41
1
10
20.5585680102672
20
0.75609509364341
30
0
41
1
10
20.5490077280514
20
0.760648962819488
30
0
41
1
10
20.5392303744266
20
0.765290024144974
30
0
41
1
10
20.5292344097379
20
0.770018638407777
30
0
41
1
10
20.5190184020561
20
0.774835099069463
30
0
41
1
10
20.5085810358746
20
0.779739629651687
30
0
41
1
10
20.4979211151324
20
0.784732381677372
30
0
41
1
10
20.4870375677688
20
0.789813432474205
30
0
41
1
10
20.4759294498322
20
0.794982783035039
30
0
41
1
10
20.4645959497101
20
0.800240355876582
30
0
41
1
10
20.4530363921838
20
0.805585992949432
30
0
41
1
10
20.441250242886
20
0.811019453460773
30
0
41
1
10
20.4292371110847
20
0.816540412136845
30
0
41
1
10
20.4169967585841
20
0.822148455946063
30
0
41
1
10
20.4045290852258
20
0.827843086790239
30
0
41
1
10
20.3918342026763
20
0.833623701764083
30
0
41
1
10
20.3789121736666
20
0.83948965853196
30
0
41
1
10
20.3657640164362
20
0.845440019000279
30
0
41
1
10
20.3523879227374
20
0.851474510279019
30
0
41
1
10
20.3387935840834
20
0.857589880613006
30
0
41
1
10
20.3296038825777
20
0.861707518903785
30
0
41
1
10
20.3249886850996
20
0.863775454825685
30
0
0
SPLINE
5
F0
100
AcDbEntity
8
1
62
256
6
ByLayer
370
18
48
1
60
0
100
AcDbSpline
70
4
71
3
72
30
73
26
40
0
40
0
40
0
40
0
40
0.0624999999999997
40
0.0624999999999997
40
0.124999999999999
40
0.124999999999999
40
0.187499999999999
40
0.187499999999999
40
0.218749999999999
40
0.218749999999999
40
0.249999999999999
40
0.249999999999999
40
0.312499999999999
40
0.312499999999999
40
0.374999999999999
40
0.374999999999999
40
0.437499999999999
40
0.437499999999999
40
0.499999999999999
40
0.499999999999999
40
0.624999999999999
40
0.624999999999999
40
0.749999999999999
40
0.749999999999999
40
1
40
1
40
1
40
1
41
1
10
19.9457456061889
20
0.61388566298848
30
0
41
1
10
19.9553171260087
20
0.607233579159413
30
0
41
1
10
19.9651383944879
20
0.6010191880344
30
0
41
1
10
19.9855032278554
20
0.589862721343735
30
0
41
1
10
19.9960426286256
20
0.584913278903741
30
0
41
1
10
20.0182271424332
20
0.576968547791239
30
0
41
1
10
20.0295563599573
20
0.574103098678052
30
0
41
1
10
20.0469601710349
20
0.572044379960204
30
0
41
1
10
20.052880332587
20
0.571737016208914
30
0
41
1
10
20.0645220255088
20
0.571959670085164
30
0
41
1
10
20.0702683111163
20
0.57248022881214
30
0
41
1
10
20.0872896553221
20
0.575233679732065
30
0
41
1
10
20.0984769665247
20
0.578747416714236
30
0
41
1
10
20.1192372684406
20
0.588054512223806
30
0
41
1
10
20.1289445942307
20
0.593823158579852
30
0
41
1
10
20.1474122163672
20
0.606910269335827
30
0
41
1
10
20.1560029940692
20
0.614110346425861
30
0
41
1
10
20.1721928192971
20
0.629217275503066
30
0
41
1
10
20.1798211239952
20
0.637154270607397
30
0
41
1
10
20.2017311763115
20
0.661743909801146
30
0
41
1
10
20.2150915858629
20
0.679203203421281
30
0
41
1
10
20.2402253513161
20
0.714957277197186
30
0
41
1
10
20.2519388820539
20
0.733196146573448
30
0
41
1
10
20.2854901797071
20
0.788469221571262
30
0
41
1
10
20.30577534563
20
0.826040011814229
30
0
41
1
10
20.3249789542824
20
0.863779811434995
30
0
0
SPLINE
5
F1
100
AcDbEntity
8
1
62
256
6
ByLayer
370
13
48
1
60
0
100
AcDbSpline
70
4
71
3
72
8
73
4
40
0
40
0
40
0
40
0
40
1
40
1
40
1
40
1
41
1
10
19.9462962495346
20
0.609622388292166
30
0
41
1
10
19.9461127017527
20
0.611043479857642
30
0
41
1
10
19.9459291539708
20
0.612464571423089
30
0
41
1
10
19.9457456061889
20
0.613885662988565
30
0
0
SPLINE
5
F2
100
AcDbEntity
8
1
62
256
6
ByLayer
370
18
48
1
60
0
100
AcDbSpline
70
4
71
3
72
8
73
4
40
0
40
0
40
0
40
0
40
1
40
1
40
1
40
1
41
1
10
7.46625784333219
20
-2.27048051837127
30
0
41
1
10
7.54204533962121
20
-2.25783808943245
30
0
41
1
10
7.61879544875157
20
-2.24523320293045
30
0
41
1
10
7.69653915189767
20
-2.23245175131453
30
0
0
SPLINE
5
F3
100
AcDbEntity
8
1
62
256
6
ByLayer
370
18
48
1
60
0
100
AcDbSpline
70
4
71
3
72
36
73
32
40
0
40
0
40
0
40
0
40
0.0694132954501009
40
0.0694132954501009
40
0.111712691111461
40
0.111712691111461
40
0.154012086772822
40
0.154012086772822
40
0.238610878095542
40
0.238610878095542
40
0.280910273756901
40
0.280910273756901
40
0.32320966941826
40
0.32320966941826
40
0.407808460740978
40
0.407808460740978
40
0.450107856402336
40
0.450107856402336
40
0.492407252063695
40
0.492407252063695
40
0.577006043386413
40
0.577006043386413
40
0.66160483470913
40
0.66160483470913
40
0.746203626031848
40
0.746203626031848
40
0.830802417354565
40
0.830802417354565
40
0.915401208677283
40
0.915401208677283
40
1
40
1
40
1
40
1
41
1
10
12.3857143470915
20
-2.46342262460365
30
0
41
1
10
12.276367403348
20
-2.50557883570542
30
0
41
1
10
12.167443974199
20
-2.54456432466395
30
0
41
1
10
11.9927995303437
20
-2.60191398942914
30
0
41
1
10
11.926806133923
20
-2.62239209193203
30
0
41
1
10
11.7949247990663
20
-2.66104931570598
30
0
41
1
10
11.7290284945677
20
-2.67924965908307
30
0
41
1
10
11.5314408706072
20
-2.73035599404906
30
0
41
1
10
11.399885619524
20
-2.75969903087687
30
0
41
1
10
11.2025429552651
20
-2.79620658594513
30
0
41
1
10
11.1367584448127
20
-2.80712709761855
30
0
41
1
10
11.0051291916929
20
-2.82639145188673
30
0
41
1
10
10.9392869178755
20
-2.83472245657399
30
0
41
1
10
10.7414844426833
20
-2.85608380773928
30
0
41
1
10
10.6092113196836
20
-2.86566960818573
30
0
41
1
10
10.4099917381889
20
-2.87233296103162
30
0
41
1
10
10.3434480952323
20
-2.87326780684398
30
0
41
1
10
10.2100247181972
20
-2.87248347884875
30
0
41
1
10
10.1434312033625
20
-2.87076436169286
30
0
41
1
10
9.9442496099991
20
-2.86160660616443
30
0
41
1
10
9.81212424215687
20
-2.85013367600553
30
0
41
1
10
9.54824512232844
20
-2.81788418974892
30
0
41
1
10
9.41656391418815
20
-2.79695381114533
30
0
41
1
10
9.15344115855586
20
-2.74506330994305
30
0
41
1
10
9.02198986165382
20
-2.71410689847124
30
0
41
1
10
8.75868731859313
20
-2.64273986675886
30
0
41
1
10
8.62683565463288
20
-2.60234029894653
30
0
41
1
10
8.36221997915811
20
-2.51240307398436
30
0
41
1
10
8.22948851339757
20
-2.46273209742552
30
0
41
1
10
7.96268616580664
20
-2.35374517041345
30
0
41
1
10
7.82957950077048
20
-2.29494322887004
30
0
41
1
10
7.69649073249118
20
-2.23225704751132
30
0
0
SPLINE
5
F4
100
AcDbEntity
8
1
62
256
6
ByLayer
370
18
48
1
60
0
100
AcDbSpline
70
4
71
3
72
30
73
26
40
0
40
0
40
0
40
0
40
0.0624999999999705
40
0.0624999999999705
40
0.124999999999941
40
0.124999999999941
40
0.187499999999911
40
0.187499999999911
40
0.218749999999915
40
0.218749999999915
40
0.249999999999919
40
0.249999999999919
40
0.312499999999926
40
0.312499999999926
40
0.374999999999933
40
0.374999999999933
40
0.437499999999939
40
0.437499999999939
40
0.499999999999946
40
0.499999999999946
40
0.62499999999996
40
0.62499999999996
40
0.749999999999973
40
0.749999999999973
40
1
40
1
40
1
40
1
41
1
10
19.9457456061889
20
-2.88610806154583
30
0
41
1
10
19.9553171260087
20
-2.88787217926316
30
0
41
1
10
19.9651383944879
20
-2.88940808762905
30
0
41
1
10
19.9855032278554
20
-2.89186333023619
30
0
41
1
10
19.9960426286255
20
-2.89278600532279
30
0
41
1
10
20.0182271424332
20
-2.89373083937022
30
0
41
1
10
20.0295563599573
20
-2.89373362311852
30
0
41
1
10
20.0469601710348
20
-2.89281632050611
30
0
41
1
10
20.052880332587
20
-2.89234964926294
30
0
41
1
10
20.0645220255088
20
-2.89110697427705
30
0
41
1
10
20.0702683111163
20
-2.89033223151395
30
0
41
1
10
20.0872896553221
20
-2.88755866441895
30
0
41
1
10
20.0984769665246
20
-2.88506272608581
30
0
41
1
10
20.1192372684406
20
-2.87929713839139
30
0
41
1
10
20.1289445942306
20
-2.87602356264597
30
0
41
1
10
20.1474122163672
20
-2.86888996190788
30
0
41
1
10
20.1560029940692
20
-2.86509434682509
30
0
41
1
10
20.1721928192971
20
-2.85723846613601
30
0
41
1
10
20.1798211239952
20
-2.85316324656725
30
0
41
1
10
20.2017311763115
20
-2.84058101158072
30
0
41
1
10
20.2150915858629
20
-2.83169765569551
30
0
41
1
10
20.240225351316
20
-2.81331358506276
30
0
41
1
10
20.2519388820539
20
-2.8038466389601
30
0
41
1
10
20.285490179707
20
-2.774697329551
30
0
41
1
10
20.30577534563
20
-2.75426960822094
30
0
41
1
10
20.3249789542824
20
-2.73291023508173
30
0
0
SPLINE
5
F5
100
AcDbEntity
8
1
62
256
6
ByLayer
370
18
48
1
60
0
100
AcDbSpline
70
4
71
3
72
10
73
6
40
0
40
0
40
0
40
0
40
0.5
40
0.5
40
1
40
1
40
1
40
1
41
1
10
20.3250042130738
20
-2.73290950846746
30
0
41
1
10
20.3313261659988
20
-2.69819429824756
30
0
41
1
10
20.341444268936
20
-2.66125138970241
30
0
41
1
10
20.3645364520476
20
-2.58313319999885
30
0
41
1
10
20.3775353000451
20
-2.54195512766066
30
0
41
1
10
20.3903243932575
20
-2.49865085486979
30
0
0
SPLINE
5
F6
100
AcDbEntity
8
1
62
256
6
ByLayer
370
18
48
1
60
0
100
AcDbSpline
70
4
71
3
72
10
73
6
40
0
40
0
40
0
40
0
40
0.5
40
0.5
40
1
40
1
40
1
40
1
41
1
10
19.9384954918892
20
-2.88477148871075
30
0
41
1
10
19.9375306497368
20
-2.88459357375498
30
0
41
1
10
19.9364768816736
20
-2.88446678652758
30
0
41
1
10
19.9342309682084
20
-2.8844285262696
30
0
41
1
10
19.9330203429565
20
-2.88452849439705
30
0
41
1
10
19.9318928326049
20
-2.88476510447191
30
0
0
SPLINE
5
F7
100
AcDbEntity
8
1
62
256
6
ByLayer
370
18
48
1
60
0
100
AcDbSpline
70
4
71
3
72
8
73
4
40
0
40
0
40
0
40
0
40
1
40
1
40
1
40
1
41
1
10
19.9384954918884
20
-2.88477148871061
30
0
41
1
10
19.9409137574608
20
-2.88521741202686
30
0
41
1
10
19.9433304782081
20
-2.88566293160403
30
0
41
1
10
19.9457456061888
20
-2.88610806154583
30
0
0
SPLINE
5
F8
100
AcDbEntity
8
1
62
256
6
ByLayer
370
18
48
1
60
0
100
AcDbSpline
70
4
71
3
72
38
73
34
40
0
40
0
40
0
40
0
40
0.124999999999995
40
0.124999999999995
40
0.187499999999992
40
0.187499999999992
40
0.218749999999986
40
0.218749999999986
40
0.249999999999979
40
0.249999999999979
40
0.374999999999963
40
0.374999999999963
40
0.437499999999955
40
0.437499999999955
40
0.468749999999955
40
0.468749999999955
40
0.499999999999956
40
0.499999999999956
40
0.624999999999966
40
0.624999999999966
40
0.687499999999972
40
0.687499999999972
40
0.749999999999977
40
0.749999999999977
40
0.812499999999982
40
0.812499999999982
40
0.843749999999985
40
0.843749999999985
40
0.874999999999988
40
0.874999999999988
40
0.937499999999994
40
0.937499999999994
40
1
40
1
40
1
40
1
41
1
10
19.9581531089723
20
0.600579307034963
30
0
41
1
10
20.0222953907493
20
0.570028378857558
30
0
41
1
10
20.0856009542786
20
0.539119687713452
30
0
41
1
10
20.1793516076399
20
0.49224694204301
30
0
41
1
10
20.2104123770637
20
0.476565325618623
30
0
41
1
10
20.2567054785735
20
0.452942745822213
30
0
41
1
10
20.2720866742785
20
0.445051661674853
30
0
41
1
10
20.3027488098194
20
0.429239219605961
30
0
41
1
10
20.3180002025918
20
0.421333764797765
30
0
41
1
10
20.3931281344936
20
0.382203121558462
30
0
41
1
10
20.4503162731559
20
0.351794363260296
30
0
41
1
10
20.5317478274129
20
0.307539559776814
30
0
41
1
10
20.5581576964345
20
0.293004298766959
30
0
41
1
10
20.5966192728308
20
0.271534944933734
30
0
41
1
10
20.6092086069632
20
0.264454269570138
30
0
41
1
10
20.6337130150975
20
0.250569471668712
30
0
41
1
10
20.6456614286222
20
0.243752544226339
30
0
41
1
10
20.7038992474536
20
0.210283127935554
30
0
41
1
10
20.7457236148427
20
0.185466713238185
30
0
41
1
10
20.800995131582
20
0.150796687523325
30
0
41
1
10
20.8182164029667
20
0.139659211439664
30
0
41
1
10
20.8492829693805
20
0.118769601398981
30
0
41
1
10
20.863234770272
20
0.108955100050366
30
0
41
1
10
20.8879920836929
20
0.0905124583839552
30
0
41
1
10
20.8987980003741
20
0.0818793384017056
30
0
41
1
10
20.9125767474103
20
0.0697955498829401
30
0
41
1
10
20.916763712226
20
0.0659132594284131
30
0
41
1
10
20.9243030474482
20
0.0584260826977072
30
0
41
1
10
20.9276586258022
20
0.0548156286655797
30
0
41
1
10
20.9363487274435
20
0.04448876080113
30
0
41
1
10
20.9403523387532
20
0.0382308867428378
30
0
41
1
10
20.9447528026069
20
0.026941067219326
30
0
41
1
10
20.9451444290436
20
0.0219191598418718
30
0
41
1
10
20.9436528252446
20
0.0173872408855971
30
0
0
SPLINE
5
F9
100
AcDbEntity
8
1
62
256
6
ByLayer
370
18
48
1
60
0
100
AcDbSpline
70
4
71
3
72
30
73
26
40
0
40
0
40
0
40
0
40
0.124999999999983
40
0.124999999999983
40
0.249999999999966
40
0.249999999999966
40
0.312499999999965
40
0.312499999999965
40
0.374999999999964
40
0.374999999999964
40
0.499999999999978
40
0.499999999999978
40
0.624999999999991
40
0.624999999999991
40
0.687499999999991
40
0.687499999999991
40
0.718749999999991
40
0.718749999999991
40
0.749999999999992
40
0.749999999999992
40
0.874999999999991
40
0.874999999999991
40
0.937499999999995
40
0.937499999999995
40
1
40
1
40
1
40
1
41
1
10
19.9581531089694
20
0.600579307031722
30
0
41
1
10
19.9944090753873
20
0.573979886668013
30
0
41
1
10
20.0304588598701
20
0.547909961361199
30
0
41
1
10
20.1022266119726
20
0.49682994296279
30
0
41
1
10
20.1379439170521
20
0.471822249649506
30
0
41
1
10
20.191250321959
20
0.435119444822988
30
0
41
1
10
20.2089741778104
20
0.423018115154918
30
0
41
1
10
20.2443204999602
20
0.399074992860676
30
0
41
1
10
20.26197951046
20
0.387209562408685
30
0
41
1
10
20.314128756165
20
0.352418431081787
30
0
41
1
10
20.3479894015281
20
0.33016694542377
30
0
41
1
10
20.4136949197141
20
0.287283846715155
30
0
41
1
10
20.4455334838374
20
0.266663280768313
30
0
41
1
10
20.491412403047
20
0.236720647345805
30
0
41
1
10
20.5063879386795
20
0.22690588098331
30
0
41
1
10
20.528303706166
20
0.212390159009715
30
0
41
1
10
20.535518163862
20
0.207585379629279
30
0
41
1
10
20.5497453736359
20
0.198038720789952
30
0
41
1
10
20.5567676759705
20
0.193290136559369
30
0
41
1
10
20.5910782364487
20
0.169854228738274
30
0
41
1
10
20.616146983702
20
0.151986269303137
30
0
41
1
10
20.6493300091837
20
0.12598938265802
30
0
41
1
10
20.6596458986973
20
0.117459606233126
30
0
41
1
10
20.6785870845191
20
0.100567733502629
30
0
41
1
10
20.6872343774966
20
0.0921720343118579
30
0
41
1
10
20.6947639439124
20
0.0839637472786592
30
0
0
SPLINE
5
FA
100
AcDbEntity
8
1
62
256
6
ByLayer
370
18
48
1
60
0
100
AcDbSpline
70
4
71
3
72
22
73
18
40
0
40
0
40
0
40
0
40
0.250000000000019
40
0.250000000000019
40
0.312500000000025
40
0.312500000000025
40
0.375000000000031
40
0.375000000000031
40
0.500000000000041
40
0.500000000000041
40
0.750000000000044
40
0.750000000000044
40
0.812500000000039
40
0.812500000000039
40
0.875000000000035
40
0.875000000000035
40
1
40
1
40
1
40
1
41
1
10
20.9436528252437
20
0.0173872408851139
30
0
41
1
10
20.9380607847835
20
0.020379929846257
30
0
41
1
10
20.9286440730305
20
0.0240445562986622
30
0
41
1
10
20.9116481267684
20
0.0295433035846315
30
0
41
1
10
20.9079924878081
20
0.0306881074162959
30
0
41
1
10
20.9001700649584
20
0.0330675155921938
30
0
41
1
10
20.8959918632371
20
0.034305287526621
30
0
41
1
10
20.8827467316015
20
0.0381347951943383
30
0
41
1
10
20.8730151586873
20
0.0408303216937895
30
0
41
1
10
20.8411810041863
20
0.0493341859830707
30
0
41
1
10
20.8164259573396
20
0.0555618684795434
30
0
41
1
10
20.7812339429036
20
0.0640180968520099
30
0
41
1
10
20.7739815512721
20
0.0657431733361022
30
0
41
1
10
20.7590450713918
20
0.0692615759036812
30
0
41
1
10
20.751364789804
20
0.0710539041832305
30
0
41
1
10
20.7279030981009
20
0.0764812272371671
30
0
41
1
10
20.7116325468834
20
0.0801828582395956
30
0
41
1
10
20.6947639439136
20
0.0839637472793413
30
0
0
SPLINE
5
FB
100
AcDbEntity
8
1
62
256
6
ByLayer
370
18
48
1
60
0
100
AcDbSpline
70
4
71
3
72
62
73
58
40
0
40
0
40
0
40
0
40
0.0625000000000265
40
0.0625000000000265
40
0.125000000000053
40
0.125000000000053
40
0.156250000000066
40
0.156250000000066
40
0.18750000000008
40
0.18750000000008
40
0.218750000000093
40
0.218750000000093
40
0.250000000000106
40
0.250000000000106
40
0.28125000000012
40
0.28125000000012
40
0.312500000000133
40
0.312500000000133
40
0.343750000000146
40
0.343750000000146
40
0.37500000000016
40
0.406250000000173
40
0.406250000000173
40
0.437500000000186
40
0.437500000000186
40
0.500000000000213
40
0.500000000000213
40
0.531250000000226
40
0.531250000000226
40
0.56250000000024
40
0.593750000000253
40
0.593750000000253
40
0.625000000000267
40
0.625000000000267
40
0.687500000000278
40
0.687500000000278
40
0.70312500000027
40
0.70312500000027
40
0.718750000000262
40
0.750000000000233
40
0.750000000000233
40
0.765625000000218
40
0.765625000000218
40
0.781250000000203
40
0.781250000000203
40
0.812500000000174
40
0.843750000000144
40
0.843750000000144
40
0.85937500000013
40
0.85937500000013
40
0.875000000000115
40
0.875000000000115
40
0.906250000000086
40
0.906250000000086
40
0.937500000000057
40
0.937500000000057
40
1
40
1
40
1
40
1
41
1
10
17.827341712485
20
0.585368798540713
30
0
41
1
10
17.8032207788486
20
0.573433135666875
30
0
41
1
10
17.7820191433944
20
0.558624101159239
30
0
41
1
10
17.7459236762507
20
0.522761298869284
30
0
41
1
10
17.732034381316
20
0.502688239149279
30
0
41
1
10
17.7172018351047
20
0.469514708137638
30
0
41
1
10
17.7133749925829
20
0.458165618114379
30
0
41
1
10
17.707813562173
20
0.435073194011892
30
0
41
1
10
17.7060673514736
20
0.423301337862483
30
0
41
1
10
17.7045603029489
20
0.399289710947784
30
0
41
1
10
17.7048155527213
20
0.387251108879667
30
0
41
1
10
17.7071472877709
20
0.363242746220123
30
0
41
1
10
17.7092231947397
20
0.351245554159078
30
0
41
1
10
17.7151138361256
20
0.327235703275676
30
0
41
1
10
17.7189313622191
20
0.315260553781428
30
0
41
1
10
17.7280400120225
20
0.291836648014936
30
0
41
1
10
17.7333476937164
20
0.280315624391079
30
0
41
1
10
17.7454141514434
20
0.257625459437747
30
0
41
1
10
17.7522125438699
20
0.24640047820958
30
0
41
1
10
17.7670950655596
20
0.224572228704375
30
0
41
1
10
17.7831663015982
20
0.203478324340296
30
0
41
1
10
17.8015302739229
20
0.183794116717081
30
0
41
1
10
17.8210572406092
20
0.164826351211701
30
0
41
1
10
17.8314748661396
20
0.155646932336111
30
0
41
1
10
17.8638910888935
20
0.129791154051389
30
0
41
1
10
17.8870551674176
20
0.114693636173172
30
0
41
1
10
17.9242326127009
20
0.0954344118810013
30
0
41
1
10
17.9371275841639
20
0.0895543382054598
30
0
41
1
10
17.9631631518172
20
0.0792894195483882
30
0
41
1
10
17.9895048451665
20
0.0704646188650884
30
0
41
1
10
18.0164777796547
20
0.0645554373415393
30
0
41
1
10
18.0437913356292
20
0.0601908834865696
30
0
41
1
10
18.0576947396581
20
0.0587875073392752
30
0
41
1
10
18.0987425963478
20
0.0571385493178695
30
0
41
1
10
18.1255723479656
20
0.0593220434406874
30
0
41
1
10
18.1584553959888
20
0.0664816728097435
30
0
41
1
10
18.16501089575
20
0.0681440729798055
30
0
41
1
10
18.1778470133422
20
0.0718748693211353
30
0
41
1
10
18.1967637321959
20
0.0780948438712414
30
0
41
1
10
18.2146895508261
20
0.0861608535522294
30
0
41
1
10
18.2319461788966
20
0.0954857410337979
30
0
41
1
10
18.2375864511006
20
0.0988045280426206
30
0
41
1
10
18.2486362764122
20
0.105876897293342
30
0
41
1
10
18.2540663002581
20
0.109647246746818
30
0
41
1
10
18.2697640679975
20
0.121460690226257
30
0
41
1
10
18.2892158303363
20
0.138587703577201
30
0
41
1
10
18.3057438055535
20
0.158420960074437
30
0
41
1
10
18.3169825862768
20
0.174353416466659
30
0
41
1
10
18.3205435448155
20
0.17985910560472
30
0
41
1
10
18.3271500962744
20
0.191043261805589
30
0
41
1
10
18.3302107375453
20
0.196740359247514
30
0
41
1
10
18.338673280614
20
0.214138575674781
30
0
41
1
10
18.3433594757967
20
0.226145246599714
30
0
41
1
10
18.3507762316264
20
0.250965444910349
30
0
41
1
10
18.3535105224143
20
0.263892635708544
30
0
41
1
10
18.3584269846995
20
0.302641300141602
30
0
41
1
10
18.3575214278096
20
0.328652016267057
30
0
41
1
10
18.3524214876481
20
0.354737094087795
30
0
0
SPLINE
5
FC
100
AcDbEntity
8
1
62
256
6
ByLayer
370
18
48
1
60
0
100
AcDbSpline
70
4
71
5
72
27
73
21
40
0
40
0
40
0
40
0
40
0
40
0
40
0.0342979450978754
40
0.113632395585052
40
0.192966846072228
40
0.245856479730346
40
0.325190930217522
40
0.378080563875639
40
0.457415014362816
40
0.510304648020933
40
0.58963909850811
40
0.668973548995286
40
0.721863182653404
40
0.80119763314058
40
0.854087266798698
40
0.933421717285874
40
0.986311350943991
40
1
40
1
40
1
40
1
40
1
40
1
41
1
10
13.8675873079941
20
1.7178351801218
30
0
41
1
10
13.8947495958273
20
1.71538479974626
30
0
41
1
10
13.9847408716093
20
1.70691046550317
30
0
41
1
10
14.1375611353401
20
1.69052153036907
30
0
41
1
10
14.3322673910367
20
1.66535462701501
30
0
41
1
10
14.5898026346821
20
1.62497832855664
30
0
41
1
10
14.8620615824601
20
1.57366436831234
30
0
41
1
10
15.1343205302381
20
1.51475984325279
30
0
41
1
10
15.3856364820332
20
1.45361562972653
30
0
41
1
10
15.6578954298112
20
1.38036921506122
30
0
41
1
10
15.9301543775893
20
1.30043368963871
30
0
41
1
10
16.2024133253673
20
1.21357579539367
30
0
41
1
10
16.4746722731453
20
1.12085232807237
30
0
41
1
10
16.7469312209233
20
1.02218533960442
30
0
41
1
10
17.0191901687013
20
0.918604004028424
30
0
41
1
10
17.2705061204964
20
0.818868909633295
30
0
41
1
10
17.4907768180038
20
0.728274857984758
30
0
41
1
10
17.6482185275625
20
0.662024248885217
30
0
41
1
10
17.7637742451553
20
0.61268487656227
30
0
41
1
10
17.8165009747994
20
0.590032095084155
30
0
41
1
10
17.8273417124776
20
0.585368798543868
30
0
0
SPLINE
5
FD
100
AcDbEntity
8
1
62
256
6
ByLayer
370
18
48
1
60
0
100
AcDbSpline
70
4
71
3
72
62
73
58
40
0
40
0
40
0
40
0
40
0.0823502772716678
40
0.0823502772716678
40
0.123525415907501
40
0.123525415907501
40
0.144112985225418
40
0.144112985225418
40
0.164700554543334
40
0.164700554543334
40
0.247050831814998
40
0.247050831814998
40
0.329401109086661
40
0.329401109086661
40
0.370576247722494
40
0.370576247722494
40
0.380870032381453
40
0.380870032381453
40
0.391163817040412
40
0.411751386358331
40
0.411751386358331
40
0.494101663630005
40
0.494101663630005
40
0.57645194090168
40
0.57645194090168
40
0.597039510219598
40
0.597039510219598
40
0.607333294878557
40
0.607333294878557
40
0.617627079537516
40
0.658802218173347
40
0.658802218173347
40
0.679389787491264
40
0.679389787491264
40
0.699977356809181
40
0.699977356809181
40
0.741152495445012
40
0.741152495445012
40
0.761740064762928
40
0.761740064762928
40
0.782327634080844
40
0.782327634080844
40
0.823502772716675
40
0.823502772716675
40
0.864677911352507
40
0.864677911352507
40
0.885265480670423
40
0.885265480670423
40
0.905853049988339
40
0.905853049988339
40
0.947028188624171
40
0.947028188624171
40
0.967615757942087
40
0.967615757942087
40
0.988203327260002
40
0.988203327260002
40
1
40
1
40
1
40
1
41
1
10
20.3903243932576
20
-2.49865085486962
30
0
41
1
10
20.12628032858
20
-2.40133031110233
30
0
41
1
10
19.8635891869056
20
-2.28598533615147
30
0
41
1
10
19.4680049123114
20
-2.09001933393654
30
0
41
1
10
19.3359044223417
20
-2.02082984684444
30
0
41
1
10
19.1370266965268
20
-1.9114989552321
30
0
41
1
10
19.0706130832391
20
-1.87412994708831
30
0
41
1
10
18.9374844562218
20
-1.79755381095856
30
0
41
1
10
18.8706735765245
20
-1.75828290994184
30
0
41
1
10
18.5377589302177
20
-1.55867787008361
30
0
41
1
10
18.273860647127
20
-1.38813018931268
30
0
41
1
10
17.7468971494524
20
-1.03049778548328
30
0
41
1
10
17.4838284336097
20
-0.84343314684557
30
0
41
1
10
17.0868455713587
20
-0.554162249114484
30
0
41
1
10
16.9541256482892
20
-0.456277051002957
30
0
41
1
10
16.7874018826411
20
-0.332490275484275
30
0
41
1
10
16.7540324581985
20
-0.307673956968983
30
0
41
1
10
16.6874284035012
20
-0.258078019653368
30
0
41
1
10
16.5876439975465
20
-0.183679269714304
30
0
41
1
10
16.4881850506059
20
-0.109316918216877
30
0
41
1
10
16.1572132372825
20
0.13826171904114
30
0
41
1
10
15.8942116014291
20
0.335370598382013
30
0
41
1
10
15.3678005831445
20
0.722432477447768
30
0
41
1
10
15.1044066986797
20
0.91241019111709
30
0
41
1
10
14.7724485663779
20
1.14203100300625
30
0
41
1
10
14.7059200615307
20
1.18756072143674
30
0
41
1
10
14.6058711943531
20
1.25519278873603
30
0
41
1
10
14.5725171395084
20
1.27760027936196
30
0
41
1
10
14.5059359219193
20
1.32203659866971
30
0
41
1
10
14.3396909319247
20
1.43225497190014
30
0
41
1
10
14.1743670298631
20
1.53801466723218
30
0
41
1
10
13.9764357045917
20
1.66030773242582
30
0
41
1
10
13.9105310072139
20
1.7003042641966
30
0
41
1
10
13.7787656863087
20
1.77874329084159
30
0
41
1
10
13.7129042852877
20
1.81718872616233
30
0
41
1
10
13.5153638183491
20
1.93007424052467
30
0
41
1
10
13.3837397229558
20
2.00205967845449
30
0
41
1
10
13.1861354636208
20
2.1045846944715
30
0
41
1
10
13.1202392934887
20
2.13784819308654
30
0
41
1
10
12.9883317929399
20
2.20244713182035
30
0
41
1
10
12.9223138795005
20
2.23378885302864
30
0
41
1
10
12.723865438965
20
2.325042228271
30
0
41
1
10
12.5910360718087
20
2.38224281321891
30
0
41
1
10
12.3240450870421
20
2.48836080501931
30
0
41
1
10
12.1911840027933
20
2.53676858463717
30
0
41
1
10
11.9927995303437
20
2.60191398942905
30
0
41
1
10
11.926806133923
20
2.62239209193194
30
0
41
1
10
11.7949247990663
20
2.6610493157059
30
0
41
1
10
11.7290284945677
20
2.67924965908301
30
0
41
1
10
11.5314408706071
20
2.73035599404901
30
0
41
1
10
11.399885619524
20
2.75969903087682
30
0
41
1
10
11.2025429552651
20
2.79620658594507
30
0
41
1
10
11.1367584448127
20
2.80712709761849
30
0
41
1
10
11.0051291916929
20
2.82639145188665
30
0
41
1
10
10.9392869178755
20
2.83472245657393
30
0
41
1
10
10.8355725010615
20
2.84592292348577
30
0
41
1
10
10.797759015266
20
2.84962083919021
30
0
41
1
10
10.7599091244165
20
2.85292516707276
30
0
0
SPLINE
5
FE
100
AcDbEntity
8
1
62
256
6
ByLayer
370
18
48
1
60
0
100
AcDbSpline
70
4
71
3
72
28
73
24
40
0
40
0
40
0
40
0
40
0.124999999999998
40
0.124999999999998
40
0.249999999999995
40
0.249999999999995
40
0.312499999999992
40
0.312499999999992
40
0.374999999999988
40
0.374999999999988
40
0.499999999999989
40
0.499999999999989
40
0.56249999999999
40
0.56249999999999
40
0.624999999999991
40
0.624999999999991
40
0.749999999999994
40
0.749999999999994
40
0.812499999999995
40
0.812499999999995
40
0.874999999999997
40
0.874999999999997
40
1
40
1
40
1
40
1
41
1
10
20.682052904223
20
-1.85471495496796
30
0
41
1
10
20.6835293323076
20
-1.88536064815429
30
0
41
1
10
20.6834900738855
20
-1.91612391797162
30
0
41
1
10
20.6801636302805
20
-1.97795739190806
30
0
41
1
10
20.6768778341424
20
-2.00902837747193
30
0
41
1
10
20.6691313244419
20
-2.05593323897349
30
0
41
1
10
20.6660919961334
20
-2.07150828584403
30
0
41
1
10
20.6591050928165
20
-2.102304859843
30
0
41
1
10
20.6551464791124
20
-2.11755978031499
30
0
41
1
10
20.6418815070233
20
-2.16289663024134
30
0
41
1
10
20.6311944012496
20
-2.19255323221716
30
0
41
1
10
20.6121533464186
20
-2.23611151523426
30
0
41
1
10
20.6052808522266
20
-2.25050475713738
30
0
41
1
10
20.5907601127387
20
-2.27841313948892
30
0
41
1
10
20.5830860993273
20
-2.2919975530292
30
0
41
1
10
20.558847773901
20
-2.33165758576033
30
0
41
1
10
20.5410592876381
20
-2.35663334158451
30
0
41
1
10
20.5119059160831
20
-2.39186362237717
30
0
41
1
10
20.5017277839696
20
-2.40328474093619
30
0
41
1
10
20.4807883744135
20
-2.42511226819005
30
0
41
1
10
20.4700528518683
20
-2.43548047072801
30
0
41
1
10
20.4371110776489
20
-2.46507170820993
30
0
41
1
10
20.4141775547075
20
-2.48279475642556
30
0
41
1
10
20.3903243932576
20
-2.49865085486965
30
0
0
SPLINE
5
FF
100
AcDbEntity
8
1
62
256
6
ByLayer
370
18
48
1
60
0
100
AcDbSpline
70
4
71
3
72
8
73
4
40
0
40
0
40
0
40
0
40
1
40
1
40
1
40
1
41
1
10
20.6338098345335
20
-1.55099970908103
30
0
41
1
10
20.6497265731132
20
-1.65242257422293
30
0
41
1
10
20.6658205003097
20
-1.75364650164852
30
0
41
1
10
20.6820529042233
20
-1.85471495496779
30
0
0
SPLINE
5
100
100
AcDbEntity
8
1
62
256
6
ByLayer
370
18
48
1
60
0
100
AcDbSpline
70
4
71
3
72
15
73
11
40
0
40
0
40
0
40
0
40
0.499999999999992
40
0.499999999999992
40
0.56249999999999
40
0.56249999999999
40
0.624999999999988
40
0.749999999999992
40
0.749999999999992
40
1
40
1
40
1
40
1
41
1
10
19.3227289478006
20
-0.230016999490317
30
0
41
1
10
19.5151645194824
20
-0.483431380719026
30
0
41
1
10
19.7228786164944
20
-0.72116250884946
30
0
41
1
10
19.9729476439491
20
-0.971785171270994
30
0
41
1
10
20.0010014555345
20
-0.999437580368465
30
0
41
1
10
20.0573534067774
20
-1.05407663632852
30
0
41
1
10
20.1421630506873
20
-1.13495800565553
30
0
41
1
10
20.2277887269051
20
-1.21271907416568
30
0
41
1
10
20.4000747113834
20
-1.36428504036181
30
0
41
1
10
20.5163090750997
20
-1.46006356292253
30
0
41
1
10
20.6338098345335
20
-1.55099970908105
30
0
0
SPLINE
5
101
100
AcDbEntity
8
1
62
256
6
ByLayer
370
18
48
1
60
0
100
AcDbSpline
70
4
71
3
72
18
73
14
40
0
40
0
40
0
40
0
40
0.250000000000018
40
0.250000000000018
40
0.375000000000027
40
0.375000000000027
40
0.500000000000036
40
0.500000000000036
40
0.750000000000018
40
0.750000000000018
40
0.875000000000009
40
0.875000000000009
40
1
40
1
40
1
40
1
41
1
10
19.3227289478001
20
-0.230016999489464
30
0
41
1
10
19.3134841375918
20
-0.217842702201182
30
0
41
1
10
19.3051803527988
20
-0.205158440759675
30
0
41
1
10
19.294346827574
20
-0.185250822353112
30
0
41
1
10
19.2910069518922
20
-0.178467555370901
30
0
41
1
10
19.2849199624202
20
-0.164578481356472
30
0
41
1
10
19.282160842499
20
-0.157432551645059
30
0
41
1
10
19.2749832650858
20
-0.135826755163095
30
0
41
1
10
19.2716383665776
20
-0.121197243938951
30
0
41
1
10
19.2688854099069
20
-0.0988903828356342
30
0
41
1
10
19.2683462087941
20
-0.0913941449499305
30
0
41
1
10
19.2680574323448
20
-0.0762736998043465
30
0
41
1
10
19.268312099841
20
-0.0686467696207842
30
0
41
1
10
19.2689659058607
20
-0.0610730865072355
30
0
0
SPLINE
5
102
100
AcDbEntity
8
1
62
256
6
ByLayer
370
18
48
1
60
0
100
AcDbSpline
70
4
71
5
72
16
73
10
40
0
40
0
40
0
40
0
40
0
40
0
40
0.0534686753308797
40
0.281968195560716
40
0.510467715790552
40
0.853216996135307
40
1
40
1
40
1
40
1
40
1
40
1
41
1
10
18.352421487651
20
0.354737094086488
30
0
41
1
10
18.3622227708356
20
0.350356606315472
30
0
41
1
10
18.4139100459862
20
0.32724077534246
30
0
41
1
10
18.5074833131025
20
0.285250028661551
30
0
41
1
10
18.6638855681677
20
0.214681699704073
30
0
41
1
10
18.8471944518088
20
0.131393133407784
30
0
41
1
10
19.0207020522651
20
0.0522318431727058
30
0
41
1
10
19.1523236607557
20
-0.0078599282745984
30
0
41
1
10
19.2420592772803
20
-0.0488009435074162
30
0
41
1
10
19.2689659058563
20
-0.0610730865052176
30
0
0
SPLINE
5
103
100
AcDbEntity
8
1
62
256
6
ByLayer
370
18
48
1
60
0
100
AcDbSpline
70
4
71
3
72
89
73
85
40
0
40
0
40
0
40
0
40
0.0073646074750738
40
0.0146399642306559
40
0.0218260584501926
40
0.0289228795384837
40
0.0359304181080594
40
0.0428486659656244
40
0.049677616098675
40
0.0564172626626142
40
0.063067600968375
40
0.0696286274707404
40
0.0761003397572799
40
0.0824827365384022
40
0.0887758176384016
40
0.0949795839877559
40
0.101094037616729
40
0.10711918165074
40
0.113055020307158
40
0.118901558894452
40
0.12465880381289
40
0.130326762558169
40
0.135905443727339
40
0.141394857027548
40
0.14679501328797
40
0.152105924475268
40
0.157327603712748
40
0.162460065303609
40
0.167503324758774
40
0.172457398829945
40
0.177322305548066
40
0.182098064267881
40
0.186784695719359
40
0.191382222066773
40
0.195890666976011
40
0.200310055691234
40
0.204640415122075
40
0.208881773942496
40
0.213034162702601
40
0.217097613955375
40
0.221072162399952
40
0.224957845043751
40
0.228754701385869
40
0.232462773624993
40
0.236082106894789
40
0.239612749531428
40
0.243054753377289
40
0.246408174127263
40
0.249673071723613
40
0.252849510807746
40
0.255937561238237
40
0.258937298686424
40
0.261848805323599
40
0.264672170615985
40
0.267407492248126
40
0.282392117344828
40
0.297452336304176
40
0.312591937795104
40
0.327814653647229
40
0.343124157742659
40
0.358524065059281
40
0.374017930861139
40
0.389609250032189
40
0.405301456547417
40
0.421097923076961
40
0.43700196071684
40
0.453016818840752
40
0.469145685066631
40
0.48539168533147
40
0.501757884068532
40
0.518247284480103
40
0.534862828899284
40
0.564996205703865
40
0.59666602506625
40
0.629885036994613
40
0.664664241073667
40
0.701013186486258
40
0.738940214495059
40
0.778452655638417
40
0.819556991071911
40
0.86225898535171
40
0.906563796330778
40
0.952476066605326
40
1
40
1
40
1
40
1
41
1
10
7.09368906879689
20
-0.0042687458955015
30
0
41
1
10
7.0920735695168
20
0.0021356847980485
30
0
41
1
10
7.08886214898214
20
0.0148669317231622
30
0
41
1
10
7.08407057838755
20
0.0338803358803546
30
0
41
1
10
7.07933139398259
20
0.0526799669253819
30
0
41
1
10
7.07464196180368
20
0.0712645573411805
30
0
41
1
10
7.06999990303299
20
0.0896298177442247
30
0
41
1
10
7.06540299511713
20
0.107772546037893
30
0
41
1
10
7.06084919112294
20
0.12568953893188
30
0
41
1
10
7.05633660794169
20
0.143377870149806
30
0
41
1
10
7.05186352264008
20
0.160834809222251
30
0
41
1
10
7.04742836664016
20
0.178057834663633
30
0
41
1
10
7.0430297204546
20
0.19504462228204
30
0
41
1
10
7.03866630827269
20
0.211793039974339
30
0
41
1
10
7.03433699259381
20
0.228301140788034
30
0
41
1
10
7.03004076886918
20
0.244567156424409
30
0
41
1
10
7.02577676017211
20
0.260589490627808
30
0
41
1
10
7.02154421190031
20
0.2763667126207
30
0
41
1
10
7.01734248652141
20
0.291897550557394
30
0
41
1
10
7.01317105836338
20
0.307180885014958
30
0
41
1
10
7.00902950846216
20
0.322215742529835
30
0
41
1
10
7.00491751946626
20
0.337001289188294
30
0
41
1
10
7.00083487060814
20
0.351536824279407
30
0
41
1
10
6.99678143274522
20
0.365821774017888
30
0
41
1
10
6.99275716347569
20
0.379855685343955
30
0
41
1
10
6.98876210233263
20
0.393638219806235
30
0
41
1
10
6.98479636606086
20
0.407169147534518
30
0
41
1
10
6.98086014397953
20
0.420448341306667
30
0
41
1
10
6.97695369343407
20
0.433475770715518
30
0
41
1
10
6.97307733533867
20
0.446251496439771
30
0
41
1
10
6.96923144981298
20
0.45877566462309
30
0
41
1
10
6.96541647191566
20
0.471048501364834
30
0
41
1
10
6.96163288747442
20
0.483070307326045
30
0
41
1
10
6.95788122901595
20
0.494841452452704
30
0
41
1
10
6.95416207179622
20
0.506362370819801
30
0
41
1
10
6.95047602993259
20
0.517633555597371
30
0
41
1
10
6.94682375263773
20
0.528655554140954
30
0
41
1
10
6.94320592055678
20
0.53942896320757
30
0
41
1
10
6.93962324220797
20
0.549954424298932
30
0
41
1
10
6.93607645052637
20
0.560232619132222
30
0
41
1
10
6.93256629951154
20
0.570264265239842
30
0
41
1
10
6.92909356097888
20
0.58005011169837
30
0
41
1
10
6.92565902141192
20
0.589590934986433
30
0
41
1
10
6.92226347892748
20
0.598887534975546
30
0
41
1
10
6.91890774030517
20
0.607940731038099
30
0
41
1
10
6.91559261825734
20
0.616751358332237
30
0
41
1
10
6.91231892829964
20
0.625320264045115
30
0
41
1
10
6.90908748752324
20
0.633648304381751
30
0
41
1
10
6.9058991069964
20
0.641736339470782
30
0
41
1
10
6.90275460746781
20
0.649585236331262
30
0
41
1
10
6.89965475205847
20
0.657195843557162
30
0
41
1
10
6.89660047638787
20
0.664569067776625
30
0
41
1
10
6.89359205627821
20
0.671705587013861
30
0
41
1
10
6.89063206764033
20
0.678606860522251
30
0
41
1
10
6.88332897388011
20
0.695291352887779
30
0
41
1
10
6.87130323878571
20
0.721727569102228
30
0
41
1
10
6.85400795374346
20
0.757771556876605
30
0
41
1
10
6.8358808958285
20
0.79359498730085
30
0
41
1
10
6.81693811216286
20
0.829205940329672
30
0
41
1
10
6.79718453133495
20
0.864610039403345
30
0
41
1
10
6.77662917508499
20
0.899815150372632
30
0
41
1
10
6.75528091493311
20
0.934829946440289
30
0
41
1
10
6.73314949034185
20
0.969664136203789
30
0
41
1
10
6.71024511098037
20
1.00432824859044
30
0
41
1
10
6.68657844721449
20
1.03883354385752
30
0
41
1
10
6.6621605232701
20
1.07319189786227
30
0
41
1
10
6.63700263629653
20
1.10741569749823
30
0
41
1
10
6.61111629835386
20
1.141517750307
30
0
41
1
10
6.58451308737037
20
1.17551115755413
30
0
41
1
10
6.55720487043808
20
1.2094093526396
30
0
41
1
10
6.52920264134812
20
1.24322553994915
30
0
41
1
10
6.49281706088382
20
1.2860388473847
30
0
41
1
10
6.44670087920647
20
1.33842951650337
30
0
41
1
10
6.38949361560287
20
1.40093970493467
30
0
41
1
10
6.32828345024981
20
1.46559089996975
30
0
41
1
10
6.26309938778866
20
1.5324154405281
30
0
41
1
10
6.19397170377769
20
1.60144731699722
30
0
41
1
10
6.12092994820082
20
1.67272025994936
30
0
41
1
10
6.04400348260461
20
1.74626820571225
30
0
41
1
10
5.96322020016331
20
1.82212405374273
30
0
41
1
10
5.87861021683787
20
1.90032307793825
30
0
41
1
10
5.79019067839971
20
1.980888651919
30
0
41
1
10
5.69802495495188
20
2.06388763724863
30
0
41
1
10
5.63508834521204
20
2.11980426841126
30
0
41
1
10
5.60307724959912
20
2.14824483160487
30
0
0
SPLINE
5
104
100
AcDbEntity
8
1
62
256
6
ByLayer
370
18
48
1
60
0
100
AcDbSpline
70
4
71
5
72
22
73
16
40
0
40
0
40
0
40
0
40
0
40
0
40
0.251663503991324
40
0.314579379989156
40
0.408953193985902
40
0.471869069983734
40
0.56624288398048
40
0.629158759978311
40
0.723532573975058
40
0.817906387971805
40
0.880822263969636
40
0.975196077966383
40
1
40
1
40
1
40
1
40
1
40
1
41
1
10
7.09221007279501
20
-0.0092453304460491
30
0
41
1
10
7.25975404065841
20
-0.0857077026350623
30
0
41
1
10
7.46918400048767
20
-0.181258174234699
30
0
41
1
10
7.7414429482657
20
-0.304813037969552
30
0
41
1
10
8.05558788800954
20
-0.445230910704083
30
0
41
1
10
8.4325618157022
20
-0.608746872223378
30
0
41
1
10
8.68387776749728
20
-0.715068859199533
30
0
41
1
10
8.95613671527531
20
-0.826767622665614
30
0
41
1
10
9.22839566305333
20
-0.934498453770715
30
0
41
1
10
9.50065461083133
20
-1.03727742136482
30
0
41
1
10
9.77291355860936
20
-1.13504291836858
30
0
41
1
10
10.0197996259779
20
-1.21821564474899
30
0
41
1
10
10.2038567053977
20
-1.2766870793603
30
0
41
1
10
10.3250847968688
20
-1.31358610608817
30
0
41
1
10
10.404426896374
20
-1.33702416484647
30
0
41
1
10
10.4209400079304
20
-1.34187120077789
30
0
0
SPLINE
5
105
100
AcDbEntity
8
1
62
256
6
ByLayer
370
18
48
1
60
0
100
AcDbSpline
70
4
71
5
72
46
73
40
40
0
40
0
40
0
40
0
40
0
40
0
40
0.0311152157701658
40
0.0534001537799377
40
0.0868275607945955
40
0.109112498804367
40
0.142539905819025
40
0.164824843828797
40
0.198252250843455
40
0.231679657858113
40
0.253964595867885
40
0.287392002882542
40
0.309676940892314
40
0.343104347906972
40
0.365389285916744
40
0.398816692931402
40
0.43224409994606
40
0.454529037955831
40
0.476813975965603
40
0.510241382980261
40
0.543668789994919
40
0.565953728004691
40
0.599381135019349
40
0.632808542034006
40
0.655093480043773
40
0.67737841805355
40
0.710805825068208
40
0.744233232082866
40
0.766518170092638
40
0.799945577107296
40
0.822230515117067
40
0.855657922131725
40
0.877942860141497
40
0.911370267156155
40
0.944797674170813
40
0.967082612180585
40
1
40
1
40
1
40
1
40
1
40
1
41
1
10
7.63751454232425
20
1.71127646586024
30
0
41
1
10
7.69599761628183
20
1.7055273414575
30
0
41
1
10
7.79636668220522
20
1.69480905020032
30
0
41
1
10
7.95956473607737
20
1.67501822066262
30
0
41
1
10
8.16464878191542
20
1.64537410682991
30
0
41
1
10
8.4325618157022
20
1.5989936460843
30
0
41
1
10
8.68387776749731
20
1.54834254640269
30
0
41
1
10
8.95613671527531
20
1.48600318149536
30
0
41
1
10
9.22839566305336
20
1.41646690082263
30
0
41
1
10
9.50065461083133
20
1.33939298970657
30
0
41
1
10
9.77291355860939
20
1.25584539352937
30
0
41
1
10
10.0451725063874
20
1.16563566969725
30
0
41
1
10
10.3174314541654
20
1.06981641774237
30
0
41
1
10
10.5687474059605
20
0.976573536698453
30
0
41
1
10
10.8410063537385
20
0.870867025171464
30
0
41
1
10
11.1132653015166
20
0.760925672358326
30
0
41
1
10
11.3855242492946
20
0.646925180332602
30
0
41
1
10
11.6368402010896
20
0.538807696696182
30
0
41
1
10
11.9090991488677
20
0.419135580164465
30
0
41
1
10
12.1813580966457
20
0.297438535213217
30
0
41
1
10
12.4326740484408
20
0.183720041807817
30
0
41
1
10
12.7049329962188
20
0.0596370337713097
30
0
41
1
10
12.9981349399798
20
-0.0743138387341276
30
0
41
1
10
13.2703938877578
20
-0.19831884369745
30
0
41
1
10
13.5217098395529
20
-0.311900201625605
30
0
41
1
10
13.7939687873309
20
-0.433378893945218
30
0
41
1
10
14.0662277351089
20
-0.552763845510668
30
0
41
1
10
14.317543686904
20
-0.660553856864453
30
0
41
1
10
14.5898026346821
20
-0.774133715731097
30
0
41
1
10
14.8620615824601
20
-0.883584305586311
30
0
41
1
10
15.1343205302381
20
-0.988738731073369
30
0
41
1
10
15.3856364820332
20
-1.08141759929208
30
0
41
1
10
15.6578954298112
20
-1.17656993649396
30
0
41
1
10
15.9301543775892
20
-1.26605973804806
30
0
41
1
10
16.2024133253673
20
-1.34883302706695
30
0
41
1
10
16.4737136588604
20
-1.42481851691099
30
0
41
1
10
16.7031280003876
20
-1.48270925577754
30
0
41
1
10
16.8697133539661
20
-1.52122578744536
30
0
41
1
10
16.9734697195958
20
-1.54381438944685
30
0
41
1
10
17.0353400932597
20
-1.55677885249597
30
0
0
SPLINE
5
106
100
AcDbEntity
8
1
62
256
6
ByLayer
370
18
48
1
60
0
100
AcDbSpline
70
4
71
3
72
8
73
4
40
0
40
0
40
0
40
0
40
1
40
1
40
1
40
1
41
1
10
7.46625784333222
20
1.79768906319356
30
0
41
1
10
7.54204533962124
20
1.74635104639611
30
0
41
1
10
7.6187954487516
20
1.69641324309941
30
0
41
1
10
7.6965391518977
20
1.64798837754429
30
0
0
SPLINE
5
107
100
AcDbEntity
8
1
62
256
6
ByLayer
370
18
48
1
60
0
100
AcDbSpline
70
4
71
3
72
70
73
66
40
0
40
0
40
0
40
0
40
0.0374470328907618
40
0.0374470328907618
40
0.111489568822246
40
0.111489568822246
40
0.148510836787987
40
0.148510836787987
40
0.157766153779422
40
0.157766153779422
40
0.167021470770858
40
0.185532104753729
40
0.185532104753729
40
0.259574640685213
40
0.259574640685213
40
0.333617176616696
40
0.333617176616696
40
0.352127810599567
40
0.352127810599567
40
0.361383127591002
40
0.361383127591002
40
0.370638444582437
40
0.407659712548174
40
0.407659712548174
40
0.426170346531044
40
0.426170346531044
40
0.444680980513913
40
0.444680980513913
40
0.481702248479652
40
0.481702248479652
40
0.500212882462522
40
0.500212882462522
40
0.518723516445392
40
0.518723516445392
40
0.555744784411131
40
0.555744784411131
40
0.592766052376871
40
0.592766052376871
40
0.61127668635974
40
0.61127668635974
40
0.629787320342609
40
0.629787320342609
40
0.666808588308347
40
0.666808588308347
40
0.685319222291216
40
0.685319222291216
40
0.703829856274085
40
0.703829856274085
40
0.740851124239824
40
0.740851124239824
40
0.759361758222693
40
0.759361758222693
40
0.777872392205563
40
0.777872392205563
40
0.814893660171303
40
0.814893660171303
40
0.851914928137042
40
0.851914928137042
40
0.888936196102782
40
0.888936196102782
40
0.925957464068521
40
0.925957464068521
40
0.96297873203426
40
0.96297873203426
40
1
40
1
40
1
40
1
41
1
10
18.4107273376358
20
-2.35714973945232
30
0
41
1
10
18.2769973745465
20
-2.41435343717879
30
0
41
1
10
18.1436348651569
20
-2.46711023749819
30
0
41
1
10
17.7468971494527
20
-2.61053838198327
30
0
41
1
10
17.4838284336099
20
-2.6879120767978
30
0
41
1
10
17.086845571359
20
-2.7752202983917
30
0
41
1
10
16.9541256482895
20
-2.7995089901238
30
0
41
1
10
16.7874018826414
20
-2.82360327981368
30
0
41
1
10
16.7540324581988
20
-2.82810590995274
30
0
41
1
10
16.6874284035015
20
-2.83645391453345
30
0
41
1
10
16.5876439975468
20
-2.84800182249219
30
0
41
1
10
16.4881850506062
20
-2.85664433212804
30
0
41
1
10
16.1572132372827
20
-2.87905279437555
30
0
41
1
10
15.8942116014292
20
-2.87653676344044
30
0
41
1
10
15.3678005831447
20
-2.83138868166282
30
0
41
1
10
15.1044066986799
20
-2.78877897169912
30
0
41
1
10
14.7724485663781
20
-2.71021088950079
30
0
41
1
10
14.7059200615309
20
-2.69322955469849
30
0
41
1
10
14.6058711943533
20
-2.66584443881095
30
0
41
1
10
14.5725171395086
20
-2.65640706290577
30
0
41
1
10
14.5059359219195
20
-2.63696242376699
30
0
41
1
10
14.3396909319248
20
-2.58689779903412
30
0
41
1
10
14.1743670298632
20
-2.52969508951409
30
0
41
1
10
13.9764357045918
20
-2.4546633277312
30
0
41
1
10
13.9105310072141
20
-2.42859800392748
30
0
41
1
10
13.7787656863089
20
-2.37454006753686
30
0
41
1
10
13.7129042852879
20
-2.34655250664497
30
0
41
1
10
13.5153638183492
20
-2.25960256095749
30
0
41
1
10
13.3837397229559
20
-2.19762561923346
30
0
41
1
10
13.186135463621
20
-2.09855067820882
30
0
41
1
10
13.1202392934888
20
-2.06450443906584
30
0
41
1
10
12.98833179294
20
-1.99436461285933
30
0
41
1
10
12.9223138795006
20
-1.95829178034197
30
0
41
1
10
12.7238654389651
20
-1.84759384166549
30
0
41
1
10
12.5910360718088
20
-1.77056949149031
30
0
41
1
10
12.3240450870423
20
-1.60942042448357
30
0
41
1
10
12.1911840027935
20
-1.52613293591838
30
0
41
1
10
11.9927995303438
20
-1.3974685766969
30
0
41
1
10
11.9268061339231
20
-1.35395939498369
30
0
41
1
10
11.7949247990664
20
-1.26599031983199
30
0
41
1
10
11.7290284945678
20
-1.22154957877004
30
0
41
1
10
11.5314408706073
20
-1.0868650108051
30
0
41
1
10
11.3998856195241
20
-0.995186190404382
30
0
41
1
10
11.2025429552652
20
-0.855060626166022
30
0
41
1
10
11.1367584448128
20
-0.807921214414506
30
0
41
1
10
11.005129191693
20
-0.712827288444629
30
0
41
1
10
10.9392869178756
20
-0.664864826569385
30
0
41
1
10
10.7414844426834
20
-0.520096354372015
30
0
41
1
10
10.6092113196837
20
-0.422526898890368
30
0
41
1
10
10.409991738189
20
-0.274615677151957
30
0
41
1
10
10.3434480952324
20
-0.225055291140023
30
0
41
1
10
10.2100247181973
20
-0.125479607406959
30
0
41
1
10
10.1434312033626
20
-0.0756779382413413
30
0
41
1
10
9.94424960999916
20
0.0734170726716172
30
0
41
1
10
9.81212424215693
20
0.172499240986809
30
0
41
1
10
9.54824512232852
20
0.369022183460885
30
0
41
1
10
9.4165639141882
20
0.466529574141163
30
0
41
1
10
9.15344115855592
20
0.659547586304797
30
0
41
1
10
9.02198986165385
20
0.755045305906208
30
0
41
1
10
8.75868731859319
20
0.943274861255077
30
0
41
1
10
8.62683565463291
20
1.03600868034653
30
0
41
1
10
8.36221997915814
20
1.21806054139663
30
0
41
1
10
8.22948851339763
20
1.30739349719377
30
0
41
1
10
7.9626861658067
20
1.48192260688387
30
0
41
1
10
7.82957950077054
20
1.56646212061659
30
0
41
1
10
7.69649073249118
20
1.64801532798276
30
0
0
SPLINE
5
108
100
AcDbEntity
8
1
62
256
6
ByLayer
370
18
48
1
60
0
100
AcDbSpline
70
4
71
5
72
14
73
8
40
0
40
0
40
0
40
0
40
0
40
0
40
0.399868886087975
40
0.677165425888816
40
1
40
1
40
1
40
1
40
1
40
1
41
1
10
7.99999992735857
20
2.91115388651184
30
0
41
1
10
7.9395992279409
20
2.89975438070695
30
0
41
1
10
7.83731253655739
20
2.87892487284174
30
0
41
1
10
7.68626127570886
20
2.84437665312584
30
0
41
1
10
7.53521001486033
20
2.80430605754316
30
0
41
1
10
7.38415875401182
20
2.75884356013447
30
0
41
1
10
7.29350819258096
20
2.72965088309869
30
0
41
1
10
7.24474362311597
20
2.71339994409757
30
0
0
SPLINE
5
109
100
AcDbEntity
8
1
62
256
6
ByLayer
370
18
48
1
60
0
100
AcDbSpline
70
4
71
5
72
46
73
40
40
0
40
0
40
0
40
0
40
0
40
0
40
0.0382670428482409
40
0.0610831710518289
40
0.095307363357211
40
0.118123491560799
40
0.152347683866181
40
0.175163812069769
40
0.209388004375151
40
0.243612196680533
40
0.266428324884121
40
0.300652517189504
40
0.323468645393092
40
0.357692837698474
40
0.380508965902062
40
0.414733158207444
40
0.448957350512826
40
0.471773478716414
40
0.494589606920002
40
0.528813799225384
40
0.563037991530766
40
0.585854119734354
40
0.620078312039737
40
0.654302504345119
40
0.677118632548702
40
0.699934760752295
40
0.734158953057677
40
0.768383145363059
40
0.791199273566647
40
0.825423465872029
40
0.848239594075617
40
0.882463786380999
40
0.905279914584587
40
0.939504106889969
40
0.973728299195351
40
0.99654442739894
40
1
40
1
40
1
40
1
40
1
40
1
41
1
10
7.57867551982517
20
1.74902932723214
30
0
41
1
10
7.64892639828253
20
1.7470379517801
30
0
41
1
10
7.76106326870573
20
1.7426911377278
30
0
41
1
10
7.93602912707769
20
1.7330050939417
30
0
41
1
10
8.15288097741555
20
1.71541449310652
30
0
41
1
10
8.4325618157022
20
1.68392171650242
30
0
41
1
10
8.68387776749731
20
1.64810391060669
30
0
41
1
10
8.95613671527531
20
1.60134796942128
30
0
41
1
10
9.22839566305336
20
1.54684153453138
30
0
41
1
10
9.50065461083133
20
1.48410662012418
30
0
41
1
10
9.77291355860939
20
1.41419857659662
30
0
41
1
10
10.0451725063874
20
1.33678505313085
30
0
41
1
10
10.3174314541654
20
1.25293191763109
30
0
41
1
10
10.5687474059605
20
1.16992053584434
30
0
41
1
10
10.8410063537385
20
1.07436123893331
30
0
41
1
10
11.1132653015166
20
0.973586173073954
30
0
41
1
10
11.3855242492946
20
0.867622990938742
30
0
41
1
10
11.6368402010896
20
0.765939918135132
30
0
41
1
10
11.9090991488677
20
0.652137703189311
30
0
41
1
10
12.1813580966457
20
0.535184879630179
30
0
41
1
10
12.4326740484408
20
0.42478713353529
30
0
41
1
10
12.7049329962188
20
0.303136452791051
30
0
41
1
10
12.9981349399798
20
0.170411162894823
30
0
41
1
10
13.2703938877578
20
0.0462437102316926
30
0
41
1
10
13.5217098395529
20
-0.0685787165476199
30
0
41
1
10
13.7939687873309
20
-0.192576695492477
30
0
41
1
10
14.0662277351089
20
-0.315644297612891
30
0
41
1
10
14.317543686904
20
-0.427893275627554
30
0
41
1
10
14.5898026346821
20
-0.547428199509625
30
0
41
1
10
14.8620615824601
20
-0.664037751205825
30
0
41
1
10
15.1343205302381
20
-0.777410120604316
30
0
41
1
10
15.3856364820332
20
-0.878619398273941
30
0
41
1
10
15.6578954298112
20
-0.983990558678727
30
0
41
1
10
15.9301543775892
20
-1.08463240099351
30
0
41
1
10
16.2024133253673
20
-1.17952349085115
30
0
41
1
10
16.4181870471579
20
-1.25020943282681
30
0
41
1
10
16.5920747769828
20
-1.30391775275183
30
0
41
1
10
16.7031335188589
20
-1.33683346453625
30
0
41
1
10
16.7513632727862
20
-1.350861697618
30
0
41
1
10
16.7577070347476
20
-1.35270224578596
30
0
0
SPLINE
5
10A
100
AcDbEntity
8
1
62
256
6
ByLayer
370
18
48
1
60
0
100
AcDbSpline
70
4
71
3
72
10
73
6
40
0
40
0
40
0
40
0
40
0.0192176678215257
40
0.0192176678215257
40
1
40
1
40
1
40
1
41
1
10
6.40814275030587
20
2.37265320097137
30
0
41
1
10
6.41350192291827
20
2.37521557427684
30
0
41
1
10
6.41886109553067
20
2.37777099322488
30
0
41
1
10
6.69772805598424
20
2.5103801800569
30
0
41
1
10
6.97123584382544
20
2.62225260327622
30
0
41
1
10
7.24474363166661
20
2.71339989348169
30
0
0
SPLINE
5
10B
100
AcDbEntity
8
1
62
256
6
ByLayer
370
18
48
1
60
0
100
AcDbSpline
70
4
71
3
72
16
73
12
40
0
40
0
40
0
40
0
40
0.235218343948228
40
0.235218343948228
40
0.283017197451459
40
0.283017197451459
40
0.330816050954691
40
0.42641375796116
40
0.617609171974105
40
0.617609171974105
40
1
40
1
40
1
40
1
41
1
10
6.40821218577941
20
-2.38332526861126
30
0
41
1
10
6.25116809754721
20
-2.45784711195353
30
0
41
1
10
6.09361393347194
20
-2.52662433008931
30
0
41
1
10
5.90287908761664
20
-2.60189361536482
30
0
41
1
10
5.87061279609247
20
-2.614352859576
30
0
41
1
10
5.80617876285601
20
-2.63867825542889
30
0
41
1
10
5.70961088859823
20
-2.67430289620623
30
0
41
1
10
5.48478529991323
20
-2.75136254652955
30
0
41
1
10
5.29265440652125
20
-2.80694315183734
30
0
41
1
10
4.90843171631337
20
-2.90388601416913
30
0
41
1
10
4.6523431709256
20
-2.94958446891448
30
0
41
1
10
4.39434829464571
20
-2.97536368659044
30
0
0
SPLINE
5
10C
100
AcDbEntity
8
1
62
256
6
ByLayer
370
18
48
1
60
0
100
AcDbSpline
70
4
71
3
72
43
73
39
40
0
40
0
40
0
40
0
40
0.0624999999999984
40
0.0624999999999984
40
0.124999999999997
40
0.124999999999997
40
0.249999999999994
40
0.249999999999994
40
0.312499999999995
40
0.312499999999995
40
0.374999999999996
40
0.374999999999996
40
0.499999999999998
40
0.499999999999998
40
0.562499999999996
40
0.562499999999996
40
0.624999999999995
40
0.624999999999995
40
0.687499999999994
40
0.687499999999994
40
0.749999999999993
40
0.749999999999993
40
0.781249999999994
40
0.781249999999994
40
0.812499999999995
40
0.812499999999995
40
0.874999999999997
40
0.874999999999997
40
0.906249999999998
40
0.906249999999998
40
0.921874999999999
40
0.921874999999999
40
0.937499999999999
40
0.96875
40
0.96875
40
0.984375
40
0.984375
40
1
40
1
40
1
40
1
41
1
10
4.39373113980054
20
-2.97545155216625
30
0
41
1
10
4.34599156246853
20
-2.9802298045206
30
0
41
1
10
4.29837522857201
20
-2.98436533482851
30
0
41
1
10
4.20385608586164
20
-2.99123520993635
30
0
41
1
10
4.15690677441191
20
-2.99397508168553
30
0
41
1
10
4.01703020377701
20
-2.99999677331306
30
0
41
1
10
3.92506421339388
20
-3.00109052454249
30
0
41
1
10
3.78935378632957
20
-2.99776450125467
30
0
41
1
10
3.74449229890777
20
-2.9958259532701
30
0
41
1
10
3.65560789884549
20
-2.99015490242618
30
0
41
1
10
3.61174604039397
20
-2.98643262255911
30
0
41
1
10
3.48210107694982
20
-2.97241720650467
30
0
41
1
10
3.39821897564136
20
-2.95930540811557
30
0
41
1
10
3.27751746282166
20
-2.93282847275282
30
0
41
1
10
3.23814495430091
20
-2.92286186576681
30
0
41
1
10
3.16148894808913
20
-2.90033547946459
30
0
41
1
10
3.1242022626059
20
-2.8877781747052
30
0
41
1
10
3.05226016685
20
-2.85962045718347
30
0
41
1
10
3.01752229916625
20
-2.84396859492884
30
0
41
1
10
2.95242127260579
20
-2.80945777645363
30
0
41
1
10
2.92194912590171
20
-2.79057390797522
30
0
41
1
10
2.8803223166592
20
-2.75930363897916
30
0
41
1
10
2.86712646998981
20
-2.74838282569797
30
0
41
1
10
2.84235990006309
20
-2.72545186672809
30
0
41
1
10
2.83089205961417
20
-2.7135364858801
30
0
41
1
10
2.79958440569413
20
-2.67634467037121
30
0
41
1
10
2.78279427981411
20
-2.64963483409625
30
0
41
1
10
2.76576541720354
20
-2.6061419291228
30
0
41
1
10
2.76145813890176
20
-2.59107034837078
30
0
41
1
10
2.7574377965922
20
-2.56749784321468
30
0
41
1
10
2.75651510210454
20
-2.55951998553064
30
0
41
1
10
2.75555237737646
20
-2.54343772390251
30
0
41
1
10
2.75542401885283
20
-2.51907366229813
30
0
41
1
10
2.75937552411003
20
-2.49400538305918
30
0
41
1
10
2.76626165791438
20
-2.46849273976019
30
0
41
1
10
2.76904657373282
20
-2.45991448142055
30
0
41
1
10
2.77563721005734
20
-2.44261432669691
30
0
41
1
10
2.77944960971999
20
-2.43388485997753
30
0
41
1
10
2.78374335509952
20
-2.42517976494605
30
0
0
SPLINE
5
10D
100
AcDbEntity
8
1
62
256
6
ByLayer
370
18
48
1
60
0
100
AcDbSpline
70
4
71
3
72
41
73
37
40
0
40
0
40
0
40
0
40
0.0312499999999997
40
0.0312499999999997
40
0.0624999999999995
40
0.0624999999999995
40
0.124999999999999
40
0.124999999999999
40
0.156249999999999
40
0.156249999999999
40
0.171874999999999
40
0.171874999999999
40
0.187499999999999
40
0.249999999999997
40
0.249999999999997
40
0.281249999999998
40
0.281249999999998
40
0.312499999999999
40
0.312499999999999
40
0.375000000000001
40
0.375000000000001
40
0.437500000000003
40
0.437500000000003
40
0.500000000000004
40
0.500000000000004
40
0.562500000000006
40
0.562500000000006
40
0.625000000000008
40
0.625000000000008
40
0.68750000000001
40
0.68750000000001
40
0.750000000000012
40
0.750000000000012
40
0.875000000000006
40
0.875000000000006
40
1
40
1
40
1
40
1
41
1
10
2.7837433550973
20
-2.42517976494119
30
0
41
1
10
2.77854302579499
20
-2.41292451839448
30
0
41
1
10
2.77395128403475
20
-2.40033753096873
30
0
41
1
10
2.76620931362203
20
-2.37466488044242
30
0
41
1
10
2.7630759904749
20
-2.36164673182555
30
0
41
1
10
2.75603315663838
20
-2.32204385560786
30
0
41
1
10
2.75447134969429
20
-2.29491113880084
30
0
41
1
10
2.75754949665503
20
-2.25309666865306
30
0
41
1
10
2.75948117863115
20
-2.23897250713301
30
0
41
1
10
2.76385131516346
20
-2.21750379857616
30
0
41
1
10
2.76555975649384
20
-2.21027905531173
30
0
41
1
10
2.76945750479231
20
-2.19584854048691
30
0
41
1
10
2.78038266070618
20
-2.15987156713391
30
0
41
1
10
2.79713394283553
20
-2.1244250146957
30
0
41
1
10
2.82263183291067
20
-2.08252393768478
30
0
41
1
10
2.83203141159433
20
-2.06866267590433
30
0
41
1
10
2.85260860410122
20
-2.04117253491486
30
0
41
1
10
2.8638362850682
20
-2.0274965815579
30
0
41
1
10
2.89941974444801
20
-1.98762666306544
30
0
41
1
10
2.92581807816842
20
-1.96234427406429
30
0
41
1
10
2.98309570374443
20
-1.91408897638695
30
0
41
1
10
3.01399844655256
20
-1.89110447322926
30
0
41
1
10
3.07960713734226
20
-1.84730350267336
30
0
41
1
10
3.11371741155804
20
-1.82687424889897
30
0
41
1
10
3.18403260296637
20
-1.78845980931527
30
0
41
1
10
3.22024065561612
20
-1.77047757019704
30
0
41
1
10
3.29441219670457
20
-1.73662846087186
30
0
41
1
10
3.33237729616769
20
-1.72076311445807
30
0
41
1
10
3.40982358712509
20
-1.69091519289685
30
0
41
1
10
3.44939656814555
20
-1.6769088997948
30
0
41
1
10
3.52894407434107
20
-1.65089601440448
30
0
41
1
10
3.56902006719815
20
-1.63884584996512
30
0
41
1
10
3.69002858067418
20
-1.60521538720525
30
0
41
1
10
3.77173510211452
20
-1.58613737468892
30
0
41
1
10
3.9367860387751
20
-1.55346210911227
30
0
41
1
10
4.0201343452743
20
-1.53987541629965
30
0
41
1
10
4.10417833447733
20
-1.52867663099059
30
0
0
SPLINE
5
10E
100
AcDbEntity
8
1
62
256
6
ByLayer
370
18
48
1
60
0
100
AcDbSpline
70
4
71
3
72
25
73
21
40
0
40
0
40
0
40
0
40
0.0625000000000007
40
0.0625000000000007
40
0.125000000000001
40
0.125000000000001
40
0.187500000000002
40
0.187500000000002
40
0.250000000000003
40
0.250000000000003
40
0.375000000000004
40
0.375000000000004
40
0.500000000000006
40
0.500000000000006
40
0.562500000000001
40
0.562500000000001
40
0.624999999999995
40
0.749999999999997
40
0.749999999999997
40
1
40
1
40
1
40
1
41
1
10
4.10417833447829
20
-1.52867663099147
30
0
41
1
10
4.13774804368566
20
-1.52420349769704
30
0
41
1
10
4.17144907134605
20
-1.52124807022145
30
0
41
1
10
4.23906520534578
20
-1.5178260098283
30
0
41
1
10
4.27298073323288
20
-1.51736397536646
30
0
41
1
10
4.34099791533592
20
-1.51860550511958
30
0
41
1
10
4.37519297732979
20
-1.52032292667428
30
0
41
1
10
4.44291035929331
20
-1.52562953024068
30
0
41
1
10
4.47651849493414
20
-1.5292157531062
30
0
41
1
10
4.57667820806375
20
-1.54242901287654
30
0
41
1
10
4.64256999361029
20
-1.55449375201215
30
0
41
1
10
4.77285663089461
20
-1.58399524283322
30
0
41
1
10
4.83724815975154
20
-1.60144416212057
30
0
41
1
10
4.93280823438076
20
-1.63114553840313
30
0
41
1
10
4.96451333727796
20
-1.64164769449036
30
0
41
1
10
5.02702610111606
20
-1.66355718292562
30
0
41
1
10
5.11966658978611
20
-1.69784499986017
30
0
41
1
10
5.2091190834517
20
-1.73599207619301
30
0
41
1
10
5.38415590272658
20
-1.81652824814694
30
0
41
1
10
5.49569872162655
20
-1.87586701180237
30
0
41
1
10
5.60280143289194
20
-1.93882754664804
30
0
0
SPLINE
5
10F
100
AcDbEntity
8
1
62
256
6
ByLayer
370
18
48
1
60
0
100
AcDbSpline
70
4
71
3
72
14
73
10
40
0
40
0
40
0
40
0
40
0.25
40
0.25
40
0.5
40
0.5
40
0.75
40
0.75
40
1
40
1
40
1
40
1
41
1
10
7.24473528502139
20
-2.7133987233064
30
0
41
1
10
7.25540906918829
20
-2.68358173448556
30
0
41
1
10
7.26939698578784
20
-2.65195884443091
30
0
41
1
10
7.30149960557094
20
-2.58509151415481
30
0
41
1
10
7.31963926042116
20
-2.5498396617528
30
0
41
1
10
7.35853488152492
20
-2.47567072595513
30
0
41
1
10
7.37918817131521
20
-2.43696234388304
30
0
41
1
10
7.42186341339911
20
-2.35623294750141
30
0
41
1
10
7.44389157758846
20
-2.31421200624342
30
0
41
1
10
7.46625784334523
20
-2.27048051836908
30
0
0
SPLINE
5
110
100
AcDbEntity
8
1
62
256
6
ByLayer
370
18
48
1
60
0
100
AcDbSpline
70
4
71
3
72
18
73
14
40
0
40
0
40
0
40
0
40
0.249999999999992
40
0.249999999999992
40
0.499999999999983
40
0.499999999999983
40
0.531249999999982
40
0.531249999999982
40
0.562499999999982
40
0.624999999999985
40
0.749999999999992
40
0.749999999999992
40
1
40
1
40
1
40
1
41
1
10
7.46625784333088
20
-2.27048051836175
30
0
41
1
10
7.21101452290836
20
-2.14013787661497
30
0
41
1
10
6.95706288433175
20
-1.9954352890191
30
0
41
1
10
6.44794778371158
20
-1.68109282371162
30
0
41
1
10
6.19279843998686
20
-1.5114397154598
30
0
41
1
10
5.90287908761599
20
-1.30844339629886
30
0
41
1
10
5.87061279609176
20
-1.28571030482266
30
0
41
1
10
5.80617876285535
20
-1.24004667063289
30
0
41
1
10
5.70961088859764
20
-1.17121009160499
30
0
41
1
10
5.48478529991272
20
-1.00831031193491
30
0
41
1
10
5.29265440652085
20
-0.865130551903007
30
0
41
1
10
4.90843171631317
20
-0.574956868848886
30
0
41
1
10
4.65234317092552
20
-0.376418966241658
30
0
41
1
10
4.39434829464571
20
-0.1751952630716
30
0
0
SPLINE
5
111
100
AcDbEntity
8
1
62
256
6
ByLayer
370
18
48
1
60
0
100
AcDbSpline
70
4
71
3
72
25
73
21
40
0
40
0
40
0
40
0
40
0.0625000000000026
40
0.0625000000000026
40
0.125000000000005
40
0.125000000000005
40
0.187500000000008
40
0.187500000000008
40
0.25000000000001
40
0.25000000000001
40
0.375000000000003
40
0.375000000000003
40
0.499999999999996
40
0.499999999999996
40
0.562499999999992
40
0.562499999999992
40
0.624999999999988
40
0.749999999999992
40
0.749999999999992
40
1
40
1
40
1
40
1
41
1
10
4.10417833447832
20
2.46838434746715
30
0
41
1
10
4.13774804368566
20
2.47133895984825
30
0
41
1
10
4.17144907134607
20
2.47327747235121
30
0
41
1
10
4.23906520534584
20
2.47552155085631
30
0
41
1
10
4.27298073323291
20
2.4758234140223
30
0
41
1
10
4.34099791533592
20
2.47501025743983
30
0
41
1
10
4.37519297732979
20
2.4738858210217
30
0
41
1
10
4.44291035929331
20
2.47039644071413
30
0
41
1
10
4.47651849493414
20
2.4680332436389
30
0
41
1
10
4.57667820806375
20
2.45927141213136
30
0
41
1
10
4.64256999361029
20
2.45121474259761
30
0
41
1
10
4.77285663089461
20
2.43109463055632
30
0
41
1
10
4.83724815975154
20
2.4190226689544
30
0
41
1
10
4.9328082343807
20
2.39792062128319
30
0
41
1
10
4.96451333727794
20
2.39037654286801
30
0
41
1
10
5.02702610111604
20
2.3744222262327
30
0
41
1
10
5.11966658978608
20
2.34914504602622
30
0
41
1
10
5.20911908345167
20
2.31986575231119
30
0
41
1
10
5.38415590272658
20
2.25590362011698
30
0
41
1
10
5.4956987216265
20
2.2060727654486
30
0
41
1
10
5.60280143289191
20
2.14848921019024
30
0
0
SPLINE
5
112
100
AcDbEntity
8
1
62
256
6
ByLayer
370
18
48
1
60
0
100
AcDbSpline
70
4
71
3
72
10
73
6
40
0
40
0
40
0
40
0
40
0.5
40
0.5
40
1
40
1
40
1
40
1
41
1
10
5.60369690461954
20
2.14836737223834
30
0
41
1
10
5.87720469246071
20
1.99921877012861
30
0
41
1
10
6.15071248030193
20
1.83366346122315
30
0
41
1
10
6.69772805598424
20
1.4772476635124
30
0
41
1
10
6.97123584382544
20
1.28639953359411
30
0
41
1
10
7.24474363166661
20
1.08723882712465
30
0
0
SPLINE
5
113
100
AcDbEntity
8
1
62
256
6
ByLayer
370
18
48
1
60
0
100
AcDbSpline
70
4
71
3
72
14
73
10
40
0
40
0
40
0
40
0
40
0.136086288489405
40
0.272172576978809
40
0.408258865468214
40
0.544345153957619
40
0.680431442447023
40
0.816517730936428
40
1
40
1
40
1
40
1
41
1
10
7.09221007279501
20
-0.0092453304460491
30
0
41
1
10
6.96745651119028
20
-0.0701282299794741
30
0
41
1
10
6.71064669893246
20
-0.171030161738059
30
0
41
1
10
6.3329329622168
20
-0.304285237945237
30
0
41
1
10
5.95929097638631
20
-0.397840608421575
30
0
41
1
10
5.59097797917761
20
-0.444034648512854
30
0
41
1
10
5.22754505357591
20
-0.431888920297069
30
0
41
1
10
4.82724701584823
20
-0.353918897260854
30
0
41
1
10
4.55104741654637
20
-0.247860827098833
30
0
41
1
10
4.39401905556088
20
-0.175042604692266
30
0
0
SPLINE
5
114
100
AcDbEntity
8
1
62
256
6
ByLayer
370
18
48
1
60
0
100
AcDbSpline
70
4
71
3
72
72
73
68
40
0
40
0
40
0
40
0
40
0.0312500000000002
40
0.0312500000000002
40
0.0625000000000004
40
0.125000000000001
40
0.125000000000001
40
0.187500000000001
40
0.187500000000001
40
0.250000000000002
40
0.250000000000002
40
0.312500000000002
40
0.312500000000002
40
0.343750000000001
40
0.343750000000001
40
0.374999999999999
40
0.374999999999999
40
0.406249999999998
40
0.406249999999998
40
0.437499999999997
40
0.437499999999997
40
0.468749999999995
40
0.468749999999995
40
0.499999999999994
40
0.499999999999994
40
0.515624999999993
40
0.515624999999993
40
0.531249999999993
40
0.531249999999993
40
0.562499999999991
40
0.562499999999991
40
0.578124999999991
40
0.578124999999991
40
0.58593749999999
40
0.58593749999999
40
0.59374999999999
40
0.624999999999988
40
0.624999999999988
40
0.640624999999987
40
0.640624999999987
40
0.648437499999987
40
0.648437499999987
40
0.656249999999987
40
0.687499999999986
40
0.687499999999986
40
0.695312499999985
40
0.695312499999985
40
0.703124999999985
40
0.703124999999985
40
0.718749999999983
40
0.718749999999983
40
0.749999999999981
40
0.749999999999981
40
0.76562499999998
40
0.76562499999998
40
0.781249999999979
40
0.781249999999979
40
0.81249999999998
40
0.81249999999998
40
0.874999999999987
40
0.874999999999987
40
0.890624999999991
40
0.890624999999991
40
0.906249999999994
40
0.937499999999998
40
0.937499999999998
40
1
40
1
40
1
40
1
41
1
10
4.39373113986508
20
-0.17450879998438
30
0
41
1
10
4.35650496262997
20
-0.145373008711061
30
0
41
1
10
4.31937902469602
20
-0.115976558219529
30
0
41
1
10
4.24561216842642
20
-0.0568750241500027
30
0
41
1
10
4.1355800111763
20
0.0323280514434146
30
0
41
1
10
4.02743957978328
20
0.123210922501585
30
0
41
1
10
3.88508443422961
20
0.246016133123277
30
0
41
1
10
3.81482128617341
20
0.308231168458036
30
0
41
1
10
3.67639547462792
20
0.434543458805251
30
0
41
1
10
3.60822968360665
20
0.49863761914483
30
0
41
1
10
3.47445330545358
20
0.629149123468949
30
0
41
1
10
3.40883598846023
20
0.695559775498083
30
0
41
1
10
3.31291015542718
20
0.797491116490647
30
0
41
1
10
3.28145485986298
20
0.831752704928249
30
0
41
1
10
3.21986079066446
20
0.900810268862188
30
0
41
1
10
3.18970237480394
20
0.935626003132995
30
0
41
1
10
3.13087350437769
20
1.00595462726011
30
0
41
1
10
3.10220197459248
20
1.04146686857425
30
0
41
1
10
3.04663378304869
20
1.11335739251714
30
0
41
1
10
3.01971981817982
20
1.14976745469474
30
0
41
1
10
2.96853501959876
20
1.22299163437435
30
0
41
1
10
2.94420230833123
20
1.25987890512312
30
0
41
1
10
2.89859043735007
20
1.33438747000278
30
0
41
1
10
2.87730697769837
20
1.37200721995654
30
0
41
1
10
2.84825256654838
20
1.42918845316473
30
0
41
1
10
2.83904849898383
20
1.44837493468862
30
0
41
1
10
2.82173679696515
20
1.48704712563699
30
0
41
1
10
2.81361772560911
20
1.50657113920403
30
0
41
1
10
2.79140075396933
20
1.56499700843119
30
0
41
1
10
2.77933558175087
20
1.60393370888744
30
0
41
1
10
2.76632764421333
20
1.66242829846212
30
0
41
1
10
2.76284361968121
20
1.6819418377313
30
0
41
1
10
2.75906107832157
20
1.71125417220469
30
0
41
1
10
2.75803963962056
20
1.7210569304635
30
0
41
1
10
2.75652115690519
20
1.74053502631139
30
0
41
1
10
2.75403145153595
20
1.78889920575605
30
0
41
1
10
2.75818825623506
20
1.83561491527956
30
0
41
1
10
2.77021275855776
20
1.89009815644224
30
0
41
1
10
2.77539560148415
20
1.9079964643272
30
0
41
1
10
2.78503499952211
20
1.93444897561611
30
0
41
1
10
2.7885718060318
20
1.94322621803627
30
0
41
1
10
2.79619210803006
20
1.960446754466
30
0
41
1
10
2.81663142973858
20
2.00274334751691
30
0
41
1
10
2.8437962272385
20
2.04143894019151
30
0
41
1
10
2.87585334834901
20
2.07765986772526
30
0
41
1
10
2.88251002563612
20
2.08477987498932
30
0
41
1
10
2.89630409326352
20
2.09878002061547
30
0
41
1
10
2.90344645685545
20
2.10566277667806
30
0
41
1
10
2.92535664095064
20
2.12576875568377
30
0
41
1
10
2.94067415805486
20
2.138522668219
30
0
41
1
10
2.98852528667871
20
2.17508667558042
30
0
41
1
10
3.0229468024005
20
2.19721050870223
30
0
41
1
10
3.07768638034085
20
2.22774635052517
30
0
41
1
10
3.09645382033156
20
2.23748004914057
30
0
41
1
10
3.13494758872596
20
2.25614749103107
30
0
41
1
10
3.15459298941443
20
2.26503978568297
30
0
41
1
10
3.21421262253753
20
2.29039289494696
30
0
41
1
10
3.25502909172582
20
2.3056196749003
30
0
41
1
10
3.3800760199469
20
2.34740354405528
30
0
41
1
10
3.4668716699158
20
2.37012373743596
30
0
41
1
10
3.57850305277719
20
2.39421343213627
30
0
41
1
10
3.60102074729968
20
2.39881614710129
30
0
41
1
10
3.6461446987802
20
2.40757350127828
30
0
41
1
10
3.71399300116712
20
2.42004489933558
30
0
41
1
10
3.78229033020898
20
2.43071426936257
30
0
41
1
10
3.91940756569284
20
2.45002933965048
30
0
41
1
10
4.01151187270028
20
2.46022837942954
30
0
41
1
10
4.10417833447843
20
2.46838434746593
30
0
0
SPLINE
5
115
100
AcDbEntity
8
1
62
256
6
ByLayer
370
18
48
1
60
0
100
AcDbSpline
70
4
71
3
72
28
73
24
40
0
40
0
40
0
40
0
40
0.0988191088810246
40
0.0988191088810246
40
0.197638217762049
40
0.197638217762049
40
0.296457326643074
40
0.296457326643074
40
0.395276435524099
40
0.395276435524099
40
0.494095544405123
40
0.494095544405123
40
0.592914653286148
40
0.592914653286148
40
0.691733762167173
40
0.691733762167173
40
0.790552871048197
40
0.790552871048197
40
0.889371979929222
40
0.889371979929222
40
0.988191088810246
40
0.988191088810246
40
1
40
1
40
1
40
1
41
1
10
19.9319057981379
20
0.620534618110241
30
0
41
1
10
19.6833243694475
20
0.810547662701026
30
0
41
1
10
19.4347429407572
20
0.996643096397065
30
0
41
1
10
18.9375800833766
20
1.35401894896333
30
0
41
1
10
18.6889986546862
20
1.52529090916985
30
0
41
1
10
18.1918357973056
20
1.84657907579637
30
0
41
1
10
17.9432543686152
20
1.99658767800614
30
0
41
1
10
17.4460915112346
20
2.26970760953949
30
0
41
1
10
17.1975100825441
20
2.39281247383806
30
0
41
1
10
16.7003472251635
20
2.607494751074
30
0
41
1
10
16.451765796473
20
2.69906708252796
30
0
41
1
10
15.9546029390923
20
2.84723955382321
30
0
41
1
10
15.706021510402
20
2.90383618648772
30
0
41
1
10
15.208858653021
20
2.97992748132975
30
0
41
1
10
14.9602772243307
20
2.99942034395627
30
0
41
1
10
14.4631143669499
20
3.00056936425492
30
0
41
1
10
14.2145329382595
20
2.98222549461724
30
0
41
1
10
13.7173700808786
20
2.9083889897469
30
0
41
1
10
13.4687886521881
20
2.85289810043832
30
0
41
1
10
12.9716257948073
20
2.7068522948374
30
0
41
1
10
12.7230443661168
20
2.61630083546743
30
0
41
1
10
12.4447573870721
20
2.49720627639553
30
0
41
1
10
12.4150518367178
20
2.48426761868512
30
0
41
1
10
12.3853462863636
20
2.47110688019677
30
0
0
SPLINE
5
116
100
AcDbEntity
8
1
62
256
6
ByLayer
370
18
48
1
60
0
100
AcDbSpline
70
4
71
3
72
10
73
6
40
0
40
0
40
0
40
0
40
0.5
40
0.5
40
1
40
1
40
1
40
1
41
1
10
19.9384954918892
20
0.618913967956814
30
0
41
1
10
19.9375306497368
20
0.619581757551998
30
0
41
1
10
19.9364768816736
20
0.620146077925625
30
0
41
1
10
19.9342309682084
20
0.62078463654808
30
0
41
1
10
19.9330203429565
20
0.620835686121495
30
0
41
1
10
19.9318928326049
20
0.620534361525785
30
0
0
SPLINE
5
117
100
AcDbEntity
8
1
62
256
6
ByLayer
370
18
48
1
60
0
100
AcDbSpline
70
4
71
3
72
8
73
4
40
0
40
0
40
0
40
0
40
1
40
1
40
1
40
1
41
1
10
19.9581531089699
20
0.600579307030074
30
0
41
1
10
19.9542003265461
20
0.603592139467224
30
0
41
1
10
19.9502480717685
20
0.606606543333044
30
0
41
1
10
19.9462962495346
20
0.609622388292081
30
0
0
SPLINE
5
118
100
AcDbEntity
8
1
62
256
6
ByLayer
370
18
48
1
60
0
100
AcDbSpline
70
4
71
3
72
26
73
22
40
0
40
0
40
0
40
0
40
0.063792180571361
40
0.063792180571361
40
0.167815271618987
40
0.167815271618987
40
0.271838362666614
40
0.271838362666614
40
0.375861453714241
40
0.375861453714241
40
0.479884544761867
40
0.479884544761867
40
0.583907635809494
40
0.583907635809494
40
0.68793072685712
40
0.68793072685712
40
0.791953817904747
40
0.791953817904747
40
0.895976908952373
40
0.895976908952373
40
1
40
1
40
1
40
1
41
1
10
15.1690236223565
20
-2.97767800555113
30
0
41
1
10
15.016581013451
20
-2.99217548267916
30
0
41
1
10
14.8641384045456
20
-2.99964253564622
30
0
41
1
10
14.4631143669498
20
-3.000569364255
30
0
41
1
10
14.2145329382594
20
-2.98222549461733
30
0
41
1
10
13.7173700808786
20
-2.90838898974698
30
0
41
1
10
13.4687886521881
20
-2.85289810043838
30
0
41
1
10
12.9716257948073
20
-2.70685229483746
30
0
41
1
10
12.7230443661168
20
-2.61630083546748
30
0
41
1
10
12.2258815087359
20
-2.4035370493574
30
0
41
1
10
11.9773000800454
20
-2.28132975869354
30
0
41
1
10
11.4801372226645
20
-2.00984792902622
30
0
41
1
10
11.231555793974
20
-1.86057981616159
30
0
41
1
10
10.734392936593
20
-1.54058770168118
30
0
41
1
10
10.4858115079026
20
-1.36987127349337
30
0
41
1
10
9.98864865052158
20
-1.01340063810613
30
0
41
1
10
9.74006722183111
20
-0.82765486812346
30
0
41
1
10
9.24290436445006
20
-0.448109087520408
30
0
41
1
10
8.99432293575947
20
-0.254318060403932
30
0
41
1
10
8.49716007837858
20
0.134031849564622
30
0
41
1
10
8.24857864968803
20
0.328581540570525
30
0
41
1
10
7.99999722099747
20
0.519857528837662
30
0
0
SPLINE
5
119
100
AcDbEntity
8
1
62
256
6
ByLayer
370
18
48
1
60
0
100
AcDbSpline
70
4
71
3
72
8
73
4
40
0
40
0
40
0
40
0
40
1
40
1
40
1
40
1
41
1
10
19.9581531089489
20
-2.88932068040941
30
0
41
1
10
19.954200326532
20
-2.88858423282383
30
0
41
1
10
19.9502480717615
20
-2.88782307107954
30
0
41
1
10
19.9462962495346
20
-2.88703725741303
30
0
0
SPLINE
5
11A
100
AcDbEntity
8
1
62
256
6
ByLayer
370
18
48
1
60
0
100
AcDbSpline
70
4
71
5
72
12
73
6
40
0
40
0
40
0
40
0
40
0
40
0
40
1
40
1
40
1
40
1
40
1
40
1
41
1
10
19.9392051418656
20
-2.88624723918255
30
0
41
1
10
19.9406005967237
20
-2.88654461606302
30
0
41
1
10
19.9419960515819
20
-2.88684151645509
30
0
41
1
10
19.94339150644
20
-2.88713794027694
30
0
41
1
10
19.9447869612981
20
-2.887433887447
30
0
41
1
10
19.9461824161562
20
-2.88772935788401
30
0
0
SPLINE
5
11B
100
AcDbEntity
8
1
62
256
6
ByLayer
370
18
48
1
60
0
100
AcDbSpline
70
4
71
5
72
12
73
6
40
0
40
0
40
0
40
0
40
0
40
0
40
1
40
1
40
1
40
1
40
1
40
1
41
1
10
19.9319057989147
20
-2.88468651625672
30
0
41
1
10
19.933365667201
20
-2.88499970529727
30
0
41
1
10
19.9348255354873
20
-2.88531237312733
30
0
41
1
10
19.9362854037736
20
-2.88562451965251
30
0
41
1
10
19.9377452720599
20
-2.88593614477887
30
0
41
1
10
19.9392051403462
20
-2.88624724841267
30
0
0
SPLINE
5
11C
100
AcDbEntity
8
1
62
256
6
ByLayer
370
18
48
1
60
0
100
AcDbSpline
70
4
71
3
72
38
73
34
40
0
40
0
40
0
40
0
40
0.0625
40
0.0625
40
0.125
40
0.125
40
0.1875
40
0.1875
40
0.25
40
0.25
40
0.3125
40
0.3125
40
0.375
40
0.375
40
0.4375
40
0.4375
40
0.5
40
0.5
40
0.5625
40
0.5625
40
0.625
40
0.625
40
0.6875
40
0.6875
40
0.75
40
0.75
40
0.8125
40
0.8125
40
0.875
40
0.875
40
0.9375
40
0.9375
40
1
40
1
40
1
40
1
41
1
10
19.9319057981378
20
-2.88468652097529
30
0
41
1
10
19.6833243694475
20
-2.83135808431911
30
0
41
1
10
19.4347429407571
20
-2.75983967696391
30
0
41
1
10
18.9375800833766
20
-2.58310530301836
30
0
41
1
10
18.6889986546862
20
-2.47789351961021
30
0
41
1
10
18.1918357973056
20
-2.23772686362159
30
0
41
1
10
17.9432543686152
20
-2.10277767593212
30
0
41
1
10
17.4460915112345
20
-1.80820903426337
30
0
41
1
10
17.1975100825441
20
-1.64859655182232
30
0
41
1
10
16.7003472251635
20
-1.31070175467332
30
0
41
1
10
16.451765796473
20
-1.13242743743916
30
0
41
1
10
15.9546029390923
20
-0.763911399386984
30
0
41
1
10
15.7060215104019
20
-0.573678400963928
30
0
41
1
10
15.208858653021
20
-0.188397411482896
30
0
41
1
10
14.9602772243307
20
0.0066414602038378
30
0
41
1
10
14.4631143669498
20
0.39420073541632
30
0
41
1
10
14.2145329382593
20
0.586711965737976
30
0
41
1
10
13.7173700808787
20
0.961977188594716
30
0
41
1
10
13.4687886521881
20
1.14472229857378
30
0
41
1
10
12.9716257948073
20
1.49358338043416
30
0
41
1
10
12.7230443661168
20
1.65969109518576
30
0
41
1
10
12.2258815087359
20
1.96903074291623
30
0
41
1
10
11.9773000800455
20
2.11225535429063
30
0
41
1
10
11.4801372226645
20
2.37044228291782
30
0
41
1
10
11.231555793974
20
2.48539848968338
30
0
41
1
10
10.734392936593
20
2.68272476546807
30
0
41
1
10
10.4858115079026
20
2.76509016340125
30
0
41
1
10
9.98864865052164
20
2.89413622213368
30
0
41
1
10
9.74006722183111
20
2.94081382847872
30
0
41
1
10
9.24290436445011
20
2.99672745878863
30
0
41
1
10
8.99432293575958
20
3.00596215937409
30
0
41
1
10
8.49716007837856
20
2.98664094571888
30
0
41
1
10
8.24857864968797
20
2.95808549013822
30
0
41
1
10
7.99999722099747
20
2.91117067999196
30
0
0
SPLINE
5
11D
100
AcDbEntity
8
1
62
256
6
ByLayer
370
18
48
1
60
0
100
AcDbSpline
70
4
71
5
72
14
73
8
40
0
40
0
40
0
40
0
40
0
40
0
40
0.399868886087981
40
0.677165425888815
40
1
40
1
40
1
40
1
40
1
40
1
41
1
10
7.99999992735857
20
-2.9111538865119
30
0
41
1
10
7.93959922794087
20
-2.89975438070701
30
0
41
1
10
7.83731253655736
20
-2.87892487284179
30
0
41
1
10
7.68626127570886
20
-2.84437665312589
30
0
41
1
10
7.53521001486033
20
-2.80430605754322
30
0
41
1
10
7.38415875401179
20
-2.75884356013452
30
0
41
1
10
7.29350819258096
20
-2.72965088309871
30
0
41
1
10
7.24474362311597
20
-2.7133999440976
30
0
0
SPLINE
5
11E
100
AcDbEntity
8
1
62
256
6
ByLayer
370
18
48
1
60
0
100
AcDbSpline
70
4
71
5
72
12
73
6
40
0
40
0
40
0
40
0
40
0
40
0
40
1
40
1
40
1
40
1
40
1
40
1
41
1
10
19.9392051418658
20
0.614953958873627
30
0
41
1
10
19.9406005967238
20
0.613886860782742
30
0
41
1
10
19.9419960515819
20
0.612819661169596
30
0
41
1
10
19.94339150644
20
0.611752360327756
30
0
41
1
10
19.9447869612981
20
0.610684958550905
30
0
41
1
10
19.9461824161562
20
0.609617456132781
30
0
0
SPLINE
5
11F
100
AcDbEntity
8
1
62
256
6
ByLayer
370
18
48
1
60
0
100
AcDbSpline
70
4
71
5
72
12
73
6
40
0
40
0
40
0
40
0
40
0
40
0
40
1
40
1
40
1
40
1
40
1
40
1
41
1
10
19.9319057989147
20
0.620534618126783
30
0
41
1
10
19.933365667201
20
0.619418709832729
30
0
41
1
10
19.9348255354874
20
0.618302689419295
30
0
41
1
10
19.9362854037737
20
0.617186557222567
30
0
41
1
10
19.93774527206
20
0.61607031357866
30
0
41
1
10
19.9392051403463
20
0.614953958823691
30
0
0
SPLINE
5
120
100
AcDbEntity
8
1
62
256
6
ByLayer
370
18
48
1
60
0
100
AcDbSpline
70
4
71
5
72
14
73
8
40
0
40
0
40
0
40
0
40
0
40
0
40
0.399868886087989
40
0.677165425888823
40
1
40
1
40
1
40
1
40
1
40
1
41
1
10
7.9999999273586
20
0.519858201685679
30
0
41
1
10
7.9395992279409
20
0.566334485469184
30
0
41
1
10
7.83731253655739
20
0.644768324448251
30
0
41
1
10
7.68626127570886
20
0.759812613699353
30
0
41
1
10
7.53521001486033
20
0.873449491777507
30
0
41
1
10
7.38415875401182
20
0.985313180031596
30
0
41
1
10
7.29350819258096
20
1.051729841704
30
0
41
1
10
7.24474362311597
20
1.08723883533523
30
0
0
SPLINE
5
121
100
AcDbEntity
8
1
62
256
6
ByLayer
370
18
48
1
60
0
100
AcDbSpline
70
4
71
3
72
10
73
6
40
0
40
0
40
0
40
0
40
0.5
40
0.5
40
1
40
1
40
1
40
1
41
1
10
5.60369690461954
20
-1.93896075420275
30
0
41
1
10
5.87720469246071
20
-2.102018632995
30
0
41
1
10
6.15071248030191
20
-2.2502586849981
30
0
41
1
10
6.69772805598424
20
-2.51038018005693
30
0
41
1
10
6.97123584382541
20
-2.62225260327625
30
0
41
1
10
7.24474363166658
20
-2.71339989348172
30
0
0
SPLINE
5
122
100
AcDbEntity
8
1
62
256
6
ByLayer
370
18
48
1
60
0
100
AcDbSpline
70
4
71
3
72
14
73
10
40
0
40
0
40
0
40
0
40
0.25
40
0.25
40
0.5
40
0.5
40
0.75
40
0.75
40
1
40
1
40
1
40
1
41
1
10
7.24473528502156
20
1.0872413840045
30
0
41
1
10
7.25540906918843
20
1.15239262348149
30
0
41
1
10
7.26939698578786
20
1.21579894814104
30
0
41
1
10
7.30149960557097
20
1.33977078891783
30
0
41
1
10
7.31963926042116
20
1.40034208977786
30
0
41
1
10
7.35853488152492
20
1.5189529372108
30
0
41
1
10
7.37918817131524
20
1.57666005370831
30
0
41
1
10
7.42186341339911
20
1.68924719336826
30
0
41
1
10
7.44389157758849
20
1.74412479840223
30
0
41
1
10
7.46625784334526
20
1.79768906318472
30
0
0
SPLINE
5
123
100
AcDbEntity
8
1
62
256
6
ByLayer
370
18
48
1
60
0
100
AcDbSpline
70
4
71
3
72
18
73
14
40
0
40
0
40
0
40
0
40
0.25000000000001
40
0.25000000000001
40
0.500000000000021
40
0.500000000000021
40
0.531250000000022
40
0.531250000000022
40
0.562500000000024
40
0.625000000000022
40
0.750000000000015
40
0.750000000000015
40
1
40
1
40
1
40
1
41
1
10
7.46625784333091
20
1.7976890631937
30
0
41
1
10
7.21101452290841
20
1.9573385083483
30
0
41
1
10
6.9570628843318
20
2.10428069367632
30
0
41
1
10
6.44794778371161
20
2.36934634153712
30
0
41
1
10
6.19279843998689
20
2.48748335989944
30
0
41
1
10
5.90287908761599
20
2.60189361536507
30
0
41
1
10
5.87061279609182
20
2.61435285957626
30
0
41
1
10
5.80617876285535
20
2.63867825542911
30
0
41
1
10
5.70961088859767
20
2.6743028962064
30
0
41
1
10
5.48478529991272
20
2.75136254652969
30
0
41
1
10
5.29265440652085
20
2.80694315183743
30
0
41
1
10
4.90843171631317
20
2.90388601416916
30
0
41
1
10
4.65234317092549
20
2.94958446891448
30
0
41
1
10
4.39434829464571
20
2.97536368659044
30
0
0
SPLINE
5
124
100
AcDbEntity
8
1
62
256
6
ByLayer
370
18
48
1
60
0
100
AcDbSpline
70
4
71
3
72
12
73
8
40
0
40
0
40
0
40
0
40
0.305974312889684
40
0.305974312889684
40
0.611948625779369
40
0.611948625779369
40
1
40
1
40
1
40
1
41
1
10
4.39373113980065
20
2.97545155216622
30
0
41
1
10
4.34599156246867
20
2.98022980452058
30
0
41
1
10
4.29837522857213
20
2.98436533482848
30
0
41
1
10
4.20385608586176
20
2.99123520993632
30
0
41
1
10
4.15690677441202
20
2.9939750816855
30
0
41
1
10
4.051148514153
20
2.99852797876793
30
0
41
1
10
3.99253251593439
20
2.99989918879675
30
0
41
1
10
3.93448611958036
20
2.99999639679225
30
0
0
SPLINE
5
125
100
AcDbEntity
8
1
62
256
6
ByLayer
370
18
48
1
60
0
100
AcDbSpline
70
4
71
3
72
11
73
7
40
0
40
0
40
0
40
0
40
0.310913407858257
40
0.497805570062255
40
0.68611146266984
40
1
40
1
40
1
40
1
41
1
10
9.40454112115324
20
-2.97776400721799
30
0
41
1
10
9.54586153979426
20
-2.96426488536693
30
0
41
1
10
9.7721292202649
20
-2.94288697573694
30
0
41
1
10
10.0839872089223
20
-2.91404715475531
30
0
41
1
10
10.397189733088
20
-2.88526461196406
30
0
41
1
10
10.6254465463007
20
-2.86481189888215
30
0
41
1
10
10.7681140449281
20
-2.85219595264485
30
0
0
SPLINE
5
126
100
AcDbEntity
8
1
62
256
6
ByLayer
370
18
48
1
60
0
100
AcDbSpline
70
4
71
3
72
11
73
7
40
0
40
0
40
0
40
0
40
0.313375530539863
40
0.501431249719896
40
0.688394763912072
40
1
40
1
40
1
40
1
41
1
10
16.5305779651892
20
2.85264154671552
30
0
41
1
10
16.388138383225
20
2.86506441256807
30
0
41
1
10
16.1602319090818
20
2.88531908082081
30
0
41
1
10
15.8473885212367
20
2.9140315737111
30
0
41
1
10
15.5353337674765
20
2.94313309627944
30
0
41
1
10
15.308734725412
20
2.96450382163044
30
0
41
1
10
15.1671056113671
20
2.97797620045645
30
0
0
SPLINE
5
127
100
AcDbEntity
8
1
62
256
6
ByLayer
370
18
48
1
60
0
100
AcDbSpline
70
4
71
3
72
11
73
7
40
0
40
0
40
0
40
0
40
0.311605236087933
40
0.498568750280122
40
0.686624469460142
40
1
40
1
40
1
40
1
41
1
10
15.1671056113671
20
-2.97797620045657
30
0
41
1
10
15.308734725412
20
-2.96450382163056
30
0
41
1
10
15.5353337674766
20
-2.94313309627952
30
0
41
1
10
15.8473885212367
20
-2.91403157371118
30
0
41
1
10
16.160231909082
20
-2.88531908082092
30
0
41
1
10
16.3881383832251
20
-2.86506441256816
30
0
41
1
10
16.5305779651893
20
-2.8526415467156
30
0
0
SPLINE
5
128
100
AcDbEntity
8
1
62
256
6
ByLayer
370
18
48
1
60
0
100
AcDbSpline
70
4
71
2
72
6
73
3
40
0
40
0
40
0
40
1
40
1
40
1
41
1
10
20.9254031394952
20
0.0572329465797736
30
0
41
1
10
20.8901472313488
20
0.330196603114757
30
0
41
1
10
20.8548913232025
20
0.603160259649741
30
0
0
SPLINE
5
129
100
AcDbEntity
8
1
62
256
6
ByLayer
370
18
48
1
60
0
100
AcDbSpline
70
4
71
3
72
11
73
7
40
0
40
0
40
0
40
0
40
0.313888537330167
40
0.502194429937732
40
0.689086592141736
40
1
40
1
40
1
40
1
41
1
10
10.7681140449281
20
2.85219595264479
30
0
41
1
10
10.6254465463007
20
2.8648118988821
30
0
41
1
10
10.397189733088
20
2.88526461196398
30
0
41
1
10
10.0839872089223
20
2.91404715475525
30
0
41
1
10
9.77212922026493
20
2.94288697573688
30
0
41
1
10
9.54586153979426
20
2.96426488536687
30
0
41
1
10
9.40454112115327
20
2.97776400721793
30
0
0
LINE
5
77
100
AcDbEntity
8
80
62
256
6
ByLayer
370
18
48
1
60
0
100
AcDbLine
10
0
20
0
30
0
11
-5
21
0
31
0
39
0
210
0
220
0
230
1
0
LINE
5
78
100
AcDbEntity
8
4
62
256
6
ByLayer
370
18
48
0.05
60
0
100
AcDbLine
10
0
20
0
30
0
11
21
21
0
31
0
39
0
210
0
220
0
230
1
0
LINE
5
7A
100
AcDbEntity
8
81
62
256
6
ByLayer
370
18
48
1
60
0
100
AcDbLine
10
21
20
0
30
0
11
26
21
0
31
0
39
0
210
0
220
0
230
1
0
LINE
5
7B
100
AcDbEntity
8
SK4
62
256
6
ByLayer
370
18
48
0.05
60
0
100
AcDbLine
10
-36
20
0
30
0
11
21
21
0
31
0
39
0
210
0
220
0
230
1
0
LINE
5
7D
100
AcDbEntity
8
1
62
256
6
ByLayer
370
18
48
1
60
0
100
AcDbLine
10
0
20
3
30
0
11
0
21
0
31
0
39
0
210
0
220
0
230
1
0
LINE
5
7E
100
AcDbEntity
8
1
62
256
6
ByLayer
370
18
48
1
60
0
100
AcDbLine
10
0
20
0
30
0
11
0
21
-3
31
0
39
0
210
0
220
0
230
1
0
LINE
5
7F
100
AcDbEntity
8
1
62
256
6
ByLayer
370
18
48
1
60
0
100
AcDbLine
10
20.870564
20
-0.584797
30
0
11
20.871558
21
-0.581445
31
0
39
0
210
0
220
0
230
1
0
LINE
5
80
100
AcDbEntity
8
1
62
256
6
ByLayer
370
18
48
1
60
0
100
AcDbLine
10
20.915239
20
0
30
0
11
20.943647
21
-0.017384
31
0
39
0
210
0
220
0
230
1
0
LINE
5
81
100
AcDbEntity
8
1
62
256
6
ByLayer
370
18
48
1
60
0
100
AcDbLine
10
20.875456
20
-0.545346
30
0
11
20.868117
21
-0.539361
31
0
39
0
210
0
220
0
230
1
0
LINE
5
82
100
AcDbEntity
8
1
62
256
6
ByLayer
370
18
48
1
60
0
100
AcDbLine
10
20.865811
20
-0.496563
30
0
11
20.910468
21
-0.002574
31
0
39
0
210
0
220
0
230
1
0
LINE
5
83
100
AcDbEntity
8
1
62
256
6
ByLayer
370
18
48
1
60
0
100
AcDbLine
10
20.833603
20
-0.006933
30
0
11
20.889663
21
0
31
0
39
0
210
0
220
0
230
1
0
LINE
5
84
100
AcDbEntity
8
1
62
256
6
ByLayer
370
18
48
1
60
0
100
AcDbLine
10
20.833604
20
-0.019823
30
0
11
20.840086
21
-0.019401
31
0
39
0
210
0
220
0
230
1
0
LINE
5
85
100
AcDbEntity
8
1
62
256
6
ByLayer
370
18
48
1
60
0
100
AcDbLine
10
20.870567
20
0.584798
30
0
11
20.943647
21
1.940376
31
0
39
0
210
0
220
0
230
1
0
LINE
5
86
100
AcDbEntity
8
1
62
256
6
ByLayer
370
13
48
1
60
0
100
AcDbLine
10
19.674659
20
1.819226
30
0
11
19.758556
21
1.674118
31
0
39
0
210
0
220
0
230
1
0
LINE
5
87
100
AcDbEntity
8
1
62
256
6
ByLayer
370
13
48
1
60
0
100
AcDbLine
10
20.713926
20
0.021733
30
0
11
20.838391
21
-0.193539
31
0
39
0
210
0
220
0
230
1
0
LINE
5
88
100
AcDbEntity
8
1
62
256
6
ByLayer
370
18
48
1
60
0
100
AcDbLine
10
20.840086
20
-0.019401
30
0
11
20.943647
21
-1.940376
31
0
39
0
210
0
220
0
230
1
0
LINE
5
89
100
AcDbEntity
8
1
62
256
6
ByLayer
370
18
48
1
60
0
100
AcDbLine
10
20.835491
20
-0.035772
30
0
11
20.840086
21
-0.019401
31
0
39
0
210
0
220
0
230
1
0
LINE
5
8A
100
AcDbEntity
8
1
62
256
6
ByLayer
370
18
48
1
60
0
100
AcDbLine
10
20.833604
20
-0.034048
30
0
11
20.835491
21
-0.035772
31
0
39
0
210
0
220
0
230
1
0
LINE
5
8B
100
AcDbEntity
8
1
62
256
6
ByLayer
370
18
48
1
60
0
100
AcDbLine
10
20.833604
20
0.006932
30
0
11
20.833604
21
-0.034048
31
0
39
0
210
0
220
0
230
1
0
LINE
5
8C
100
AcDbEntity
8
1
62
256
6
ByLayer
370
18
48
1
60
0
100
AcDbLine
10
20.838391
20
-0.193539
30
0
11
20.828006
21
0.007624
31
0
39
0
210
0
220
0
230
1
0
LINE
5
8D
100
AcDbEntity
8
1
62
256
6
ByLayer
370
13
48
1
60
0
100
AcDbLine
10
19.938495
20
-2.884771
30
0
11
19.938974
21
-2.885579
31
0
39
0
210
0
220
0
230
1
0
LINE
5
8E
100
AcDbEntity
8
1
62
256
6
ByLayer
370
18
48
1
60
0
100
AcDbLine
10
20.875456
20
-1.825305
30
0
11
20.826952
21
-0.905649
31
0
39
0
210
0
220
0
230
1
0
LINE
5
8F
100
AcDbEntity
8
1
62
256
6
ByLayer
370
18
48
1
60
0
100
AcDbLine
10
20.63381
20
-1.551
30
0
11
20.826952
21
-0.905649
31
0
39
0
210
0
220
0
230
1
0
LINE
5
90
100
AcDbEntity
8
1
62
256
6
ByLayer
370
18
48
1
60
0
100
AcDbLine
10
20.826952
20
-0.905649
30
0
11
20.827463
21
-0.896173
31
0
39
0
210
0
220
0
230
1
0
LINE
5
91
100
AcDbEntity
8
1
62
256
6
ByLayer
370
13
48
1
60
0
100
AcDbLine
10
20.611331
20
-0.52465
30
0
11
19.322729
21
-0.230017
31
0
39
0
210
0
220
0
230
1
0
LINE
5
92
100
AcDbEntity
8
1
62
256
6
ByLayer
370
13
48
1
60
0
100
AcDbLine
10
19.688116
20
0.245911
30
0
11
20.61518
21
0.033943
31
0
39
0
210
0
220
0
230
1
0
LINE
5
93
100
AcDbEntity
8
1
62
256
6
ByLayer
370
18
48
1
60
0
100
AcDbLine
10
20.910939
20
-0.002631
30
0
11
20.61518
21
0.033943
31
0
39
0
210
0
220
0
230
1
0
LINE
5
94
100
AcDbEntity
8
1
62
256
6
ByLayer
370
18
48
1
60
0
100
AcDbLine
10
20.910939
20
-0.002631
30
0
11
20.943647
21
0.017384
31
0
39
0
210
0
220
0
230
1
0
LINE
5
95
100
AcDbEntity
8
1
62
256
6
ByLayer
370
13
48
1
60
0
100
AcDbLine
10
19.938495
20
0.618914
30
0
11
19.938974
21
0.615209
31
0
39
0
210
0
220
0
230
1
0
LINE
5
96
100
AcDbEntity
8
SK1
62
256
6
ByLayer
370
18
48
1
60
0
100
AcDbLine
10
-36
20
-2.6
30
0
11
-36
21
2.6
31
0
39
0
210
0
220
0
230
1
0
LINE
5
98
100
AcDbEntity
8
SK1
62
256
6
ByLayer
370
18
48
1
60
0
100
AcDbLine
10
0
20
3
30
0
11
0
21
0
31
0
39
0
210
0
220
0
230
1
0
LINE
5
99
100
AcDbEntity
8
SK1
62
256
6
ByLayer
370
18
48
1
60
0
100
AcDbLine
10
0
20
0
30
0
11
0
21
-3
31
0
39
0
210
0
220
0
230
1
0
LINE
5
9A
100
AcDbEntity
8
SK1
62
256
6
ByLayer
370
18
48
1
60
0
100
AcDbLine
10
-35.6
20
3
30
0
11
-35.6
21
-3
31
0
39
0
210
0
220
0
230
1
0
LINE
5
9B
100
AcDbEntity
8
SK1
62
256
6
ByLayer
370
18
48
1
60
0
100
AcDbLine
10
-20.1
20
2.1
30
0
11
-21
21
3
31
0
39
0
210
0
220
0
230
1
0
LINE
5
9C
100
AcDbEntity
8
SK1
62
256
6
ByLayer
370
18
48
1
60
0
100
AcDbLine
10
-15.9
20
2.1
30
0
11
-15
21
3
31
0
39
0
210
0
220
0
230
1
0
LINE
5
9D
100
AcDbEntity
8
SK1
62
256
6
ByLayer
370
18
48
1
60
0
100
AcDbLine
10
-20.1
20
2.1
30
0
11
-15.9
21
2.1
31
0
39
0
210
0
220
0
230
1
0
LINE
5
9E
100
AcDbEntity
8
1
62
256
6
ByLayer
370
18
48
1
60
0
100
AcDbLine
10
3.939789
20
3
30
0
11
0
21
3
31
0
39
0
210
0
220
0
230
1
0
LINE
5
9F
100
AcDbEntity
8
1
62
256
6
ByLayer
370
18
48
1
60
0
100
AcDbLine
10
0
20
-3
30
0
11
3.939789
21
-3
31
0
39
0
210
0
220
0
230
1
0
LINE
5
A0
100
AcDbEntity
8
1
62
256
6
ByLayer
370
18
48
1
60
0
100
AcDbLine
10
19.78214
20
1.634253
30
0
11
19.778631
21
1.636715
31
0
39
0
210
0
220
0
230
1
0
LINE
5
A1
100
AcDbEntity
8
SK1
62
256
6
ByLayer
370
18
48
1
60
0
100
AcDbLine
10
-36
20
-2.6
30
0
11
-35.6
21
-3
31
0
39
0
210
0
220
0
230
1
0
LINE
5
A2
100
AcDbEntity
8
SK1
62
256
6
ByLayer
370
18
48
1
60
0
100
AcDbLine
10
-35.6
20
3
30
0
11
-36
21
2.6
31
0
39
0
210
0
220
0
230
1
0
LINE
5
A3
100
AcDbEntity
8
SK1
62
256
6
ByLayer
370
18
48
1
60
0
100
AcDbLine
10
0
20
3
30
0
11
-15
21
3
31
0
39
0
210
0
220
0
230
1
0
LINE
5
A4
100
AcDbEntity
8
SK1
62
256
6
ByLayer
370
18
48
1
60
0
100
AcDbLine
10
-21
20
3
30
0
11
-35.6
21
3
31
0
39
0
210
0
220
0
230
1
0
LINE
5
A5
100
AcDbEntity
8
SK1
62
256
6
ByLayer
370
18
48
1
60
0
100
AcDbLine
10
-35.6
20
-3
30
0
11
0
21
-3
31
0
39
0
210
0
220
0
230
1
0
LINE
5
A6
100
AcDbEntity
8
SK2
62
256
6
ByLayer
370
18
48
1
60
0
100
AcDbLine
10
-43.85
20
11.75
30
0
11
-43.85
21
-19.315466
31
0
39
0
210
0
220
0
230
1
0
LINE
5
A8
100
AcDbEntity
8
SK2
62
256
6
ByLayer
370
18
48
1
60
0
100
AcDbLine
10
-37.1875
20
3
30
0
11
-45.85
21
3
31
0
39
0
210
0
220
0
230
1
0
LINE
5
A9
100
AcDbEntity
8
SK2
62
256
6
ByLayer
370
18
48
1
60
0
100
AcDbLine
10
-37.1875
20
-3
30
0
11
-45.85
21
-3
31
0
39
0
210
0
220
0
230
1
0
LINE
5
AA
100
AcDbEntity
8
1
62
256
6
ByLayer
370
18
48
1
60
1
100
AcDbLine
10
-43.85
20
3
30
0
11
-44.310784
21
6.499998
31
0
39
0
210
0
220
0
230
1
0
LINE
5
AB
100
AcDbEntity
8
1
62
256
6
ByLayer
370
18
48
1
60
1
100
AcDbLine
10
-44.310784
20
6.499998
30
0
11
-43.389216
21
6.500002
31
0
39
0
210
0
220
0
230
1
0
LINE
5
AC
100
AcDbEntity
8
1
62
256
6
ByLayer
370
18
48
1
60
1
100
AcDbLine
10
-43.389216
20
6.500002
30
0
11
-43.85
21
3
31
0
39
0
210
0
220
0
230
1
0
LINE
5
AD
100
AcDbEntity
8
1
62
256
6
ByLayer
370
18
48
1
60
1
100
AcDbLine
10
-43.85
20
-3
30
0
11
-43.389216
21
-6.499998
31
0
39
0
210
0
220
0
230
1
0
LINE
5
AE
100
AcDbEntity
8
1
62
256
6
ByLayer
370
18
48
1
60
1
100
AcDbLine
10
-43.389216
20
-6.499998
30
0
11
-44.310784
21
-6.500002
31
0
39
0
210
0
220
0
230
1
0
LINE
5
AF
100
AcDbEntity
8
1
62
256
6
ByLayer
370
18
48
1
60
1
100
AcDbLine
10
-44.310784
20
-6.500002
30
0
11
-43.85
21
-3
31
0
39
0
210
0
220
0
230
1
0
LINE
5
B0
100
AcDbEntity
8
2
62
256
6
ByLayer
370
18
48
1
60
0
100
AcDbLine
10
33
20
19.315566
30
0
11
33
21
-11.7501
31
0
39
0
210
0
220
0
230
1
0
LINE
5
B2
100
AcDbEntity
8
2
62
256
6
ByLayer
370
18
48
1
60
0
100
AcDbLine
10
22.5875
20
3.0001
30
0
11
35
21
3.0001
31
0
39
0
210
0
220
0
230
1
0
LINE
5
B3
100
AcDbEntity
8
2
62
256
6
ByLayer
370
18
48
1
60
0
100
AcDbLine
10
22.5875
20
-3.0001
30
0
11
35
21
-3.0001
31
0
39
0
210
0
220
0
230
1
0
LINE
5
B4
100
AcDbEntity
8
1
62
256
6
ByLayer
370
18
48
1
60
1
100
AcDbLine
10
33
20
3.0001
30
0
11
32.539216
21
6.500098
31
0
39
0
210
0
220
0
230
1
0
LINE
5
B5
100
AcDbEntity
8
1
62
256
6
ByLayer
370
18
48
1
60
1
100
AcDbLine
10
32.539216
20
6.500098
30
0
11
33.460784
21
6.500102
31
0
39
0
210
0
220
0
230
1
0
LINE
5
B6
100
AcDbEntity
8
1
62
256
6
ByLayer
370
18
48
1
60
1
100
AcDbLine
10
33.460784
20
6.500102
30
0
11
33
21
3.0001
31
0
39
0
210
0
220
0
230
1
0
LINE
5
B7
100
AcDbEntity
8
1
62
256
6
ByLayer
370
18
48
1
60
1
100
AcDbLine
10
33
20
-3.0001
30
0
11
33.460784
21
-6.500098
31
0
39
0
210
0
220
0
230
1
0
LINE
5
B8
100
AcDbEntity
8
1
62
256
6
ByLayer
370
18
48
1
60
1
100
AcDbLine
10
33.460784
20
-6.500098
30
0
11
32.539216
21
-6.500102
31
0
39
0
210
0
220
0
230
1
0
LINE
5
B9
100
AcDbEntity
8
1
62
256
6
ByLayer
370
18
48
1
60
1
100
AcDbLine
10
32.539216
20
-6.500102
30
0
11
33
21
-3.0001
31
0
39
0
210
0
220
0
230
1
0
LINE
5
BA
100
AcDbEntity
8
SK2
62
256
6
ByLayer
370
18
48
1
60
0
100
AcDbLine
10
21
20
-33.210102
30
0
11
-36
21
-33.210102
31
0
39
0
210
0
220
0
230
1
0
LINE
5
BB
100
AcDbEntity
8
SK2
62
256
6
ByLayer
370
18
48
1
60
0
100
AcDbLine
10
-36
20
-4.1875
30
0
11
-36
21
-35.210102
31
0
39
0
210
0
220
0
230
1
0
LINE
5
BC
100
AcDbEntity
8
SK2
62
256
6
ByLayer
370
18
48
1
60
0
100
AcDbLine
10
21
20
-4.5876
30
0
11
21
21
-35.210102
31
0
39
0
210
0
220
0
230
1
0
LINE
5
BD
100
AcDbEntity
8
1
62
256
6
ByLayer
370
18
48
1
60
1
100
AcDbLine
10
-36
20
-33.210102
30
0
11
-32.500002
21
-32.749318
31
0
39
0
210
0
220
0
230
1
0
LINE
5
BE
100
AcDbEntity
8
1
62
256
6
ByLayer
370
18
48
1
60
1
100
AcDbLine
10
-32.500002
20
-32.749318
30
0
11
-32.499998
21
-33.670886
31
0
39
0
210
0
220
0
230
1
0
LINE
5
BF
100
AcDbEntity
8
1
62
256
6
ByLayer
370
18
48
1
60
1
100
AcDbLine
10
-32.499998
20
-33.670886
30
0
11
-36
21
-33.210102
31
0
39
0
210
0
220
0
230
1
0
LINE
5
C0
100
AcDbEntity
8
1
62
256
6
ByLayer
370
18
48
1
60
1
100
AcDbLine
10
21
20
-33.210102
30
0
11
17.500002
21
-33.670886
31
0
39
0
210
0
220
0
230
1
0
LINE
5
C1
100
AcDbEntity
8
1
62
256
6
ByLayer
370
18
48
1
60
1
100
AcDbLine
10
17.500002
20
-33.670886
30
0
11
17.499998
21
-32.749318
31
0
39
0
210
0
220
0
230
1
0
LINE
5
C2
100
AcDbEntity
8
1
62
256
6
ByLayer
370
18
48
1
60
1
100
AcDbLine
10
17.499998
20
-32.749318
30
0
11
21
21
-33.210102
31
0
39
0
210
0
220
0
230
1
0
LINE
5
12E
100
AcDbEntity
8
1
62
256
6
ByLayer
370
18
48
1
60
1
100
AcDbLine
10
-43.85
20
3
30
0
11
-44.310784
21
6.499998
31
0
39
0
210
0
220
0
230
1
0
LINE
5
12F
100
AcDbEntity
8
1
62
256
6
ByLayer
370
18
48
1
60
1
100
AcDbLine
10
-44.310784
20
6.499998
30
0
11
-43.389216
21
6.500002
31
0
39
0
210
0
220
0
230
1
0
LINE
5
130
100
AcDbEntity
8
1
62
256
6
ByLayer
370
18
48
1
60
1
100
AcDbLine
10
-43.389216
20
6.500002
30
0
11
-43.85
21
3
31
0
39
0
210
0
220
0
230
1
0
LINE
5
132
100
AcDbEntity
8
1
62
256
6
ByLayer
370
18
48
1
60
1
100
AcDbLine
10
-43.85
20
-3
30
0
11
-43.389216
21
-6.499998
31
0
39
0
210
0
220
0
230
1
0
LINE
5
133
100
AcDbEntity
8
1
62
256
6
ByLayer
370
18
48
1
60
1
100
AcDbLine
10
-43.389216
20
-6.499998
30
0
11
-44.310784
21
-6.500002
31
0
39
0
210
0
220
0
230
1
0
LINE
5
134
100
AcDbEntity
8
1
62
256
6
ByLayer
370
18
48
1
60
1
100
AcDbLine
10
-44.310784
20
-6.500002
30
0
11
-43.85
21
-3
31
0
39
0
210
0
220
0
230
1
0
LINE
5
138
100
AcDbEntity
8
1
62
256
6
ByLayer
370
18
48
1
60
1
100
AcDbLine
10
33
20
3.0001
30
0
11
32.539216
21
6.500098
31
0
39
0
210
0
220
0
230
1
0
LINE
5
139
100
AcDbEntity
8
1
62
256
6
ByLayer
370
18
48
1
60
1
100
AcDbLine
10
32.539216
20
6.500098
30
0
11
33.460784
21
6.500102
31
0
39
0
210
0
220
0
230
1
0
LINE
5
13A
100
AcDbEntity
8
1
62
256
6
ByLayer
370
18
48
1
60
1
100
AcDbLine
10
33.460784
20
6.500102
30
0
11
33
21
3.0001
31
0
39
0
210
0
220
0
230
1
0
LINE
5
13C
100
AcDbEntity
8
1
62
256
6
ByLayer
370
18
48
1
60
1
100
AcDbLine
10
33
20
-3.0001
30
0
11
33.460784
21
-6.500098
31
0
39
0
210
0
220
0
230
1
0
LINE
5
13D
100
AcDbEntity
8
1
62
256
6
ByLayer
370
18
48
1
60
1
100
AcDbLine
10
33.460784
20
-6.500098
30
0
11
32.539216
21
-6.500102
31
0
39
0
210
0
220
0
230
1
0
LINE
5
13E
100
AcDbEntity
8
1
62
256
6
ByLayer
370
18
48
1
60
1
100
AcDbLine
10
32.539216
20
-6.500102
30
0
11
33
21
-3.0001
31
0
39
0
210
0
220
0
230
1
0
LINE
5
141
100
AcDbEntity
8
1
62
256
6
ByLayer
370
18
48
1
60
1
100
AcDbLine
10
-36
20
-33.210102
30
0
11
-32.500002
21
-32.749318
31
0
39
0
210
0
220
0
230
1
0
LINE
5
142
100
AcDbEntity
8
1
62
256
6
ByLayer
370
18
48
1
60
1
100
AcDbLine
10
-32.500002
20
-32.749318
30
0
11
-32.499998
21
-33.670886
31
0
39
0
210
0
220
0
230
1
0
LINE
5
143
100
AcDbEntity
8
1
62
256
6
ByLayer
370
18
48
1
60
1
100
AcDbLine
10
-32.499998
20
-33.670886
30
0
11
-36
21
-33.210102
31
0
39
0
210
0
220
0
230
1
0
LINE
5
145
100
AcDbEntity
8
1
62
256
6
ByLayer
370
18
48
1
60
1
100
AcDbLine
10
21
20
-33.210102
30
0
11
17.500002
21
-33.670886
31
0
39
0
210
0
220
0
230
1
0
LINE
5
146
100
AcDbEntity
8
1
62
256
6
ByLayer
370
18
48
1
60
1
100
AcDbLine
10
17.500002
20
-33.670886
30
0
11
17.499998
21
-32.749318
31
0
39
0
210
0
220
0
230
1
0
LINE
5
147
100
AcDbEntity
8
1
62
256
6
ByLayer
370
18
48
1
60
1
100
AcDbLine
10
17.499998
20
-32.749318
30
0
11
21
21
-33.210102
31
0
39
0
210
0
220
0
230
1
0
MTEXT
5
12A
100
AcDbEntity
8
SK2
62
256
6
ByLayer
370
18
48
1
60
0
100
AcDbMText
10
-45.414634
20
-17.380622
30
0
210
0
220
0
230
1
1
%%c
40
3.5
41
0
44
1.084337
50
90
71
7
72
5
7
iso_b_vert
0
MTEXT
5
12D
100
AcDbEntity
8
SK2
62
256
6
ByLayer
370
18
48
1
60
0
100
AcDbMText
10
-45.414634
20
-10.407966
30
0
210
0
220
0
230
1
1
\W0.5404;6
40
3.5
41
0
44
1.084337
50
90
71
7
72
5
7
iso_b_vert
0
MTEXT
5
136
100
AcDbEntity
8
2
62
256
6
ByLayer
370
18
48
1
60
0
100
AcDbMText
10
31.435366
20
10.934944
30
0
210
0
220
0
230
1
1
%%c
40
3.5
41
0
44
1.084337
50
90
71
7
72
5
7
iso_b_vert
0
MTEXT
5
137
100
AcDbEntity
8
2
62
256
6
ByLayer
370
18
48
1
60
0
100
AcDbMText
10
31.435366
20
17.9076
30
0
210
0
220
0
230
1
1
\W0.5404;6
40
3.5
41
0
44
1.084337
50
90
71
7
72
5
7
iso_b_vert
0
MTEXT
5
140
100
AcDbEntity
8
SK2
62
256
6
ByLayer
370
18
48
1
60
0
100
AcDbMText
10
-9.404966
20
-32.177468
30
0
210
0
220
0
230
1
1
\W0.6740;57
40
3.5
41
0
44
1.084337
50
0
71
7
72
5
7
iso_b_vert
0
MTEXT
5
149
100
AcDbEntity
8
SK6
62
256
6
ByLayer
370
18
48
1
60
0
100
AcDbMText
10
-33.283941
20
-62.114886
30
0
210
0
220
0
230
1
1
\W0.7444;2S342-0600-100CMB   M2CM
40
3
41
0
44
1.084337
50
0
71
7
72
5
7
iso_b_vert
0
HATCH
5
131
100
AcDbEntity
8
SK2
62
256
6
ByLayer
370
13
48
1
60
0
100
AcDbHatch
10
0
20
0
30
0
210
0
220
0
230
1
2
ANSI31
70
0
71
0
91
1
92
5
93
3
72
1
10
-43.85
20
3
11
-44.3107837415528
21
6.49999830744682
72
1
10
-44.3107837415528
20
6.49999830744682
11
-43.3892162584472
21
6.50000169255318
72
1
10
-43.3892162584472
20
6.50000169255318
11
-43.85
21
3
97
0
75
0
76
1
52
0
41
0.0062
77
0
78
1
53
45
43
0
44
0
45
-0.0139193969876572
46
0.0139193969876572
79
0
47
0
98
1
10
0
20
0
0
HATCH
5
135
100
AcDbEntity
8
SK2
62
256
6
ByLayer
370
13
48
1
60
0
100
AcDbHatch
10
0
20
0
30
0
210
0
220
0
230
1
2
ANSI31
70
0
71
0
91
1
92
5
93
3
72
1
10
-43.85
20
-3
11
-43.3892162584472
21
-6.49999830744682
72
1
10
-43.3892162584472
20
-6.49999830744682
11
-44.3107837415528
21
-6.50000169255318
72
1
10
-44.3107837415528
20
-6.50000169255318
11
-43.85
21
-3
97
0
75
0
76
1
52
0
41
0.0062
77
0
78
1
53
45
43
0
44
0
45
-0.0139193969876572
46
0.0139193969876572
79
0
47
0
98
1
10
0
20
0
0
HATCH
5
13B
100
AcDbEntity
8
2
62
256
6
ByLayer
370
13
48
1
60
0
100
AcDbHatch
10
0
20
0
30
0
210
0
220
0
230
1
2
ANSI31
70
0
71
0
91
1
92
5
93
3
72
1
10
33
20
3.00009999999995
11
32.5392162584472
21
6.50009830744676
72
1
10
32.5392162584472
20
6.50009830744676
11
33.4607837415528
21
6.50010169255313
72
1
10
33.4607837415528
20
6.50010169255313
11
33
21
3.00009999999995
97
0
75
0
76
1
52
0
41
0.0062
77
0
78
1
53
45
43
0
44
0
45
-0.0139193969876572
46
0.0139193969876572
79
0
47
0
98
1
10
0
20
0
0
HATCH
5
13F
100
AcDbEntity
8
2
62
256
6
ByLayer
370
13
48
1
60
0
100
AcDbHatch
10
0
20
0
30
0
210
0
220
0
230
1
2
ANSI31
70
0
71
0
91
1
92
5
93
3
72
1
10
33
20
-3.00010000000006
11
33.4607837415528
21
-6.50009830744688
72
1
10
33.4607837415528
20
-6.50009830744688
11
32.5392162584472
21
-6.50010169255324
72
1
10
32.5392162584472
20
-6.50010169255324
11
33
21
-3.00010000000006
97
0
75
0
76
1
52
0
41
0.0062
77
0
78
1
53
45
43
0
44
0
45
-0.0139193969876572
46
0.0139193969876572
79
0
47
0
98
1
10
0
20
0
0
HATCH
5
144
100
AcDbEntity
8
SK2
62
256
6
ByLayer
370
13
48
1
60
0
100
AcDbHatch
10
0
20
0
30
0
210
0
220
0
230
1
2
ANSI31
70
0
71
0
91
1
92
5
93
3
72
1
10
-36
20
-33.2101019128498
11
-32.5000016925532
21
-32.749318171297
72
1
10
-32.5000016925532
20
-32.749318171297
11
-32.4999983074468
21
-33.6708856544025
72
1
10
-32.4999983074468
20
-33.6708856544025
11
-36
21
-33.2101019128498
97
0
75
0
76
1
52
0
41
0.0062
77
0
78
1
53
45
43
0
44
0
45
-0.0139193969876572
46
0.0139193969876572
79
0
47
0
98
1
10
0
20
0
0
HATCH
5
148
100
AcDbEntity
8
SK2
62
256
6
ByLayer
370
13
48
1
60
0
100
AcDbHatch
10
0
20
0
30
0
210
0
220
0
230
1
2
ANSI31
70
0
71
0
91
1
92
5
93
3
72
1
10
21
20
-33.2101019128498
11
17.5000016925532
21
-33.6708856544025
72
1
10
17.5000016925532
20
-33.6708856544025
11
17.4999983074468
21
-32.749318171297
72
1
10
17.4999983074468
20
-32.749318171297
11
21
21
-33.2101019128498
97
0
75
0
76
1
52
0
41
0.0062
77
0
78
1
53
45
43
0
44
0
45
-0.0139193969876572
46
0.0139193969876572
79
0
47
0
98
1
10
0
20
0
0
DIMENSION
5
14C
100
AcDbEntity
8
2
62
256
6
ByLayer
370
18
48
1
60
0
100
AcDbDimension
2
_U0
10
8
20
-17.210102
30
0
11
14.5
21
-17.210102
31
0
70
32
71
1
72
1
41
1
210
0
220
0
230
1
3
Standard
100
AcDbAlignedDimension
13
21
23
-3.0001
33
0
14
8
24
-3.0001
34
0
50
0
100
AcDbRotatedDimension
1001
ACAD
1000
DSTYLE
1002
{
1070
   371
1070
    13
1070
   372
1070
    13
1070
   170
1070
     0
1070
   144
1040
1.0
1070
   277
1070
     2
1070
   284
1070
     8
1070
   278
1070
    46
1070
   146
1040
1.0
1070
   345
1005
16
1070
   347
1005
16
1070
   346
1005
16
1070
   344
1005
0
1070
   343
1005
0
1070
   172
1070
     1
1070
    76
1070
     0
1070
    75
1070
     0
1070
   282
1070
     0
1070
   281
1070
     0
1070
    71
1070
     0
1070
    74
1070
     0
1070
   279
1070
     0
1070
   173
1070
     1
1070
   340
1005
12B
1070
   271
1070
     2
1070
   272
1070
     2
1070
    77
1070
     1
1070
    73
1070
     1
1070
   171
1070
     3
1070
   274
1070
     4
1070
   177
1070
     2
1070
   176
1070
     2
1070
   178
1070
     2
1070
    78
1070
     8
1070
    48
1040
-0.1
1070
    41
1040
3.5
1070
   147
1040
1.75
1070
    42
1040
1.5875
1070
    44
1040
2.0
1070
   140
1040
3.5
1002
}
1001
ACAD_DSTYLE_DIM_LINETYPE
1070
   380
1005
16
1001
ACAD_DSTYLE_DIM_EXT1_LINETYPE
1070
   381
1005
16
1001
ACAD_DSTYLE_DIM_EXT2_LINETYPE
1070
   382
1005
16
0
ENDSEC
0
SECTION
2
OBJECTS
0
DICTIONARY
5
1d6
330
0
100
AcDbDictionary
280
0
281
1
3
ACAD_GROUP
350
1d7
3
ACAD_MLINESTYLE
350
1d8
0
DICTIONARY
5
1d7
330
0
100
AcDbDictionary
280
0
281
1
0
DICTIONARY
5
1d8
330
0
100
AcDbDictionary
280
0
281
1
3
Standard
350
18
0
MLINESTYLE
5
18
330
1d8
100
AcDbMlineStyle
2
Standard
70
0
3

62
256
51
90
52
90
71
2
49
-0.5
62
256
6
ByLayer
49
0.5
62
256
6
ByLayer
0
RASTERVARIABLES
5
1c4
330

100
AcDbRasterVariables
90
0
70
1
71
1
72
1
0
ENDSEC
0
EOF
