0
SECTION
2
HEADER
9
$ACADVER
1
AC1015
9
$DWGCODEPAGE
3
ANSI_1252
9
$HANDSEED
5
1c5
9
$ANGBASE
50
0
9
$ANGDIR
70
0
9
$ATTMODE
70
1
9
$AUNITS
70
0
9
$AUPREC
70
0
9
$CECOLOR
62
256
9
$CELTSCALE
40
1
9
$CELTYPE
6
ByLayer
9
$CELWEIGHT
370
18
9
$CLAYER
8
0
9
$CMLJUST
70
0
9
$CMLSCALE
40
1
9
$CMLSTYLE
2
Standard
9
$DIMSTYLE
2
Standard
9
$TEXTSIZE
40
0.2
9
$TEXTSTYLE
7
Standard
9
$LUNITS
70
2
9
$LUPREC
70
4
9
$EXTNAMES
290
1
9
$INSUNITS
70
4
9
$LTSCALE
40
1
9
$LWDISPLAY
290
1
9
$PDMODE
70
0
9
$PDSIZE
40
0
9
$PLINEGEN
70
0
0
ENDSEC
0
SECTION
2
CLASSES
0
CLASS
1
RASTERVARIABLES
2
AcDbRasterVariables
3
ISM
90
0
280
0
281
0
0
ENDSEC
0
SECTION
2
TABLES
0
TABLE
2
VPORT
5
1bb
100
AcDbSymbolTable
0
VPORT
5
1
100
AcDbSymbolTableRecord
100
AcDbViewportTableRecord
2
*Active
70
0
10
0
20
0
11
1
21
1
12
-1
22
1
13
0
23
0
14
0.5
24
0.5
15
10
25
10
16
0
26
0
36
1
17
0
27
0
37
0
0
ENDTAB
0
TABLE
2
LTYPE
5
1bc
100
AcDbSymbolTable
0
LTYPE
5
14
100
AcDbSymbolTableRecord
100
AcDbLinetypeTableRecord
70
0
2
ByBlock
3

72
65
73
0
40
0
0
LTYPE
5
15
100
AcDbSymbolTableRecord
100
AcDbLinetypeTableRecord
70
0
2
ByLayer
3

72
65
73
0
40
0
0
LTYPE
5
16
100
AcDbSymbolTableRecord
100
AcDbLinetypeTableRecord
70
0
2
Continuous
3
Solid line
72
65
73
0
40
0
0
LTYPE
5
6E
100
AcDbSymbolTableRecord
100
AcDbLinetypeTableRecord
70
0
2
CENTER
3
____ _ ____ _ ____ _ ____
72
65
73
4
40
47.5
49
22
74
0
49
-8.5
74
0
49
8.5
74
0
49
-8.5
74
0
0
LTYPE
5
6F
100
AcDbSymbolTableRecord
100
AcDbLinetypeTableRecord
70
0
2
DASHED
3
__ __ __ __ __ __ __ __ __
72
65
73
2
40
25.72
49
12.86
74
0
49
-12.86
74
0
0
ENDTAB
0
TABLE
2
LAYER
5
1bd
100
AcDbSymbolTable
0
LAYER
5
10
100
AcDbSymbolTableRecord
100
AcDbLayerTableRecord
2
0
70
0
62
7
6
Continuous
290
1
370
-3
390
0
0
LAYER
5
71
100
AcDbSymbolTableRecord
100
AcDbLayerTableRecord
2
81
70
0
62
-3
6
Continuous
290
1
370
-3
390
0
0
LAYER
5
73
100
AcDbSymbolTableRecord
100
AcDbLayerTableRecord
2
80
70
0
62
-6
6
Continuous
290
1
370
-3
390
0
0
LAYER
5
75
100
AcDbSymbolTableRecord
100
AcDbLayerTableRecord
2
1
70
0
62
4
6
Continuous
290
1
370
-3
390
0
0
LAYER
5
79
100
AcDbSymbolTableRecord
100
AcDbLayerTableRecord
2
4
70
0
62
-2
6
CENTER
290
1
370
-3
390
0
0
LAYER
5
B3
100
AcDbSymbolTableRecord
100
AcDbLayerTableRecord
2
2
70
0
62
7
6
Continuous
290
1
370
-3
390
0
0
LAYER
5
132
100
AcDbSymbolTableRecord
100
AcDbLayerTableRecord
2
Defpoints
70
0
62
7
6
Continuous
290
0
370
-3
390
0
0
LAYER
5
1a7
100
AcDbSymbolTableRecord
100
AcDbLayerTableRecord
2
SK4
70
0
62
2
6
CENTER
290
1
370
-3
390
0
0
LAYER
5
1a8
100
AcDbSymbolTableRecord
100
AcDbLayerTableRecord
2
SK1
70
0
62
4
6
Continuous
290
1
370
-3
390
0
0
LAYER
5
1a9
100
AcDbSymbolTableRecord
100
AcDbLayerTableRecord
2
SK2
70
0
62
7
6
Continuous
290
1
370
-3
390
0
0
LAYER
5
1aa
100
AcDbSymbolTableRecord
100
AcDbLayerTableRecord
2
SK6
70
0
62
5
6
Continuous
290
1
370
-3
390
0
0
ENDTAB
0
TABLE
2
STYLE
5
1be
100
AcDbSymbolTable
0
STYLE
5
11
100
AcDbSymbolTableRecord
100
AcDbTextStyleTableRecord
2
Standard
3
txt
70
0
71
0
40
0
41
1
42
0
50
0
0
STYLE
5
10E
100
AcDbSymbolTableRecord
100
AcDbTextStyleTableRecord
2
iso_b_vert
3
simplex.shx
70
0
71
0
40
0
41
1
42
0
50
0
0
STYLE
5
10F
100
AcDbSymbolTableRecord
100
AcDbTextStyleTableRecord
2
DWGDirectTextStyle
3
simplex
70
0
71
0
40
0
41
1
42
0
50
0
0
ENDTAB
0
TABLE
2
DIMSTYLE
5
1bf
100
AcDbSymbolTable
100
AcDbDimStyleTable
0
DIMSTYLE
105
27
100
AcDbSymbolTableRecord
100
AcDbDimStyleTableRecord
2
Standard
70
0
3
<>
41
0.18
42
0.0625
44
0.18
140
0.18
147
0.09
73
0
74
0
77
1
271
2
275
0
278
52
280
0
340
11
0
ENDTAB
0
TABLE
2
VIEW
5
1c0
100
AcDbSymbolTable
0
ENDTAB
0
TABLE
2
UCS
5
1c1
100
AcDbSymbolTable
0
ENDTAB
0
TABLE
2
APPID
5
1c2
100
AcDbSymbolTable
0
APPID
5
12
100
AcDbSymbolTableRecord
100
AcDbRegAppTableRecord
2
ACAD
70
0
0
APPID
5
12E
100
AcDbSymbolTableRecord
100
AcDbRegAppTableRecord
2
ACAD_DSTYLE_DIMBREAK
70
0
0
APPID
5
166
100
AcDbSymbolTableRecord
100
AcDbRegAppTableRecord
2
ACAD_DSTYLE_DIM_LINETYPE
70
0
0
APPID
5
167
100
AcDbSymbolTableRecord
100
AcDbRegAppTableRecord
2
ACAD_DSTYLE_DIM_EXT1_LINETYPE
70
0
0
APPID
5
168
100
AcDbSymbolTableRecord
100
AcDbRegAppTableRecord
2
ACAD_DSTYLE_DIM_EXT2_LINETYPE
70
0
0
APPID
5
1A3
100
AcDbSymbolTableRecord
100
AcDbRegAppTableRecord
2
ACAD_MLEADERVER
70
0
0
ENDTAB
0
TABLE
2
BLOCK_RECORD
5
1c3
100
AcDbSymbolTable
0
BLOCK_RECORD
5
1F
100
AcDbSymbolTableRecord
100
AcDbBlockTableRecord
2
*Model_Space
340
0
70
0
0
BLOCK_RECORD
5
1B
100
AcDbSymbolTableRecord
100
AcDbBlockTableRecord
2
*Paper_Space
340
0
70
0
0
BLOCK_RECORD
5
23
100
AcDbSymbolTableRecord
100
AcDbBlockTableRecord
2
*Paper_Space0
340
0
70
0
0
BLOCK_RECORD
5
133
100
AcDbSymbolTableRecord
100
AcDbBlockTableRecord
2
*D1
340
0
70
0
0
BLOCK_RECORD
5
13F
100
AcDbSymbolTableRecord
100
AcDbBlockTableRecord
2
_U0
340
0
70
0
0
ENDTAB
0
ENDSEC
0
SECTION
2
BLOCKS
0
BLOCK
5
20
100
AcDbEntity
8
0
100
AcDbBlockBegin
2
*Model_Space
70
0
10
0
20
0
30
0
3
*Model_Space
0
ENDBLK
5
21
100
AcDbEntity
8
0
100
AcDbBlockEnd
0
BLOCK
5
1C
100
AcDbEntity
8
0
100
AcDbBlockBegin
2
*Paper_Space
70
0
10
0
20
0
30
0
3
*Paper_Space
0
ENDBLK
5
1D
100
AcDbEntity
8
0
100
AcDbBlockEnd
0
BLOCK
5
24
100
AcDbEntity
8
0
100
AcDbBlockBegin
2
*Paper_Space0
70
0
10
0
20
0
30
0
3
*Paper_Space0
0
ENDBLK
5
25
100
AcDbEntity
8
0
100
AcDbBlockEnd
0
BLOCK
5
134
100
AcDbEntity
8
0
100
AcDbBlockBegin
2
*D1
70
1
10
0
20
0
30
0
3
*D1
0
LINE
5
136
100
AcDbEntity
8
0
62
256
6
ByLayer
370
-2
48
1
60
0
100
AcDbLine
10
59.6
20
-11.5876
30
0
11
59.6
21
-27.431155
31
0
39
0
210
0
220
0
230
1
0
LINE
5
137
100
AcDbEntity
8
0
62
256
6
ByLayer
370
-2
48
1
60
0
100
AcDbLine
10
17.6
20
-11.5876
30
0
11
17.6
21
-27.431155
31
0
39
0
210
0
220
0
230
1
0
LINE
5
138
100
AcDbEntity
8
0
62
256
6
ByLayer
370
-2
48
1
60
0
100
AcDbLine
10
56.1
20
-25.431155
30
0
11
21.1
21
-25.431155
31
0
39
0
210
0
220
0
230
1
0
SOLID
5
139
100
AcDbEntity
8
0
62
256
6
ByLayer
370
-1
48
1
60
0
100
AcDbTrace
10
56.1
20
-26.014488
30
0
11
56.1
21
-24.847822
31
0
12
59.6
22
-25.431155
32
0
13
59.6
23
-25.431155
33
0
39
0
210
0
220
0
230
1
0
SOLID
5
13A
100
AcDbEntity
8
0
62
256
6
ByLayer
370
-1
48
1
60
0
100
AcDbTrace
10
21.1
20
-24.847822
30
0
11
21.1
21
-26.014488
31
0
12
17.6
22
-25.431155
32
0
13
17.6
23
-25.431155
33
0
39
0
210
0
220
0
230
1
0
MTEXT
5
13B
100
AcDbEntity
8
0
62
256
6
ByLayer
370
18
48
1
60
0
100
AcDbMText
10
38.6
20
-18.431155
30
0
210
0
220
0
230
1
1
\A1;42
40
3.5
41
0
44
1
50
0
71
5
72
5
7
iso_b_vert
0
POINT
5
13C
100
AcDbEntity
8
Defpoints
62
0
6
ByLayer
370
-1
48
1
60
0
100
AcDbPoint
10
59.6
20
-10.0001
30
0
39
0
210
0
220
0
230
1
50
360
0
POINT
5
13D
100
AcDbEntity
8
Defpoints
62
0
6
ByLayer
370
-1
48
1
60
0
100
AcDbPoint
10
17.6
20
-10.0001
30
0
39
0
210
0
220
0
230
1
50
360
0
POINT
5
13E
100
AcDbEntity
8
Defpoints
62
0
6
ByLayer
370
-1
48
1
60
0
100
AcDbPoint
10
17.6
20
-25.431155
30
0
39
0
210
0
220
0
230
1
50
360
0
ENDBLK
5
135
100
AcDbEntity
8
0
100
AcDbBlockEnd
0
BLOCK
5
146
100
AcDbEntity
8
0
100
AcDbBlockBegin
2
_U0
70
0
10
0
20
0
30
0
3
_U0
0
MTEXT
5
140
100
AcDbEntity
8
2
62
256
6
ByLayer
370
18
48
1
60
0
100
AcDbMText
10
36.510767
20
-24.398521
30
0
210
0
220
0
230
1
1
\W0.7361;42
40
3.5
41
0
44
1.084337
50
0
71
7
72
5
7
iso_b_vert
0
LINE
5
141
100
AcDbEntity
8
2
62
256
6
ByLayer
370
13
48
1
60
0
100
AcDbLine
10
59.6
20
-11.5876
30
0
11
59.6
21
-27.431155
31
0
39
0
210
0
220
0
230
1
0
LINE
5
142
100
AcDbEntity
8
2
62
256
6
ByLayer
370
13
48
1
60
0
100
AcDbLine
10
17.6
20
-11.5876
30
0
11
17.6
21
-27.431155
31
0
39
0
210
0
220
0
230
1
0
LINE
5
143
100
AcDbEntity
8
2
62
256
6
ByLayer
370
13
48
1
60
0
100
AcDbLine
10
59.6
20
-25.431155
30
0
11
17.6
21
-25.431155
31
0
39
0
210
0
220
0
230
1
0
SOLID
5
144
100
AcDbEntity
8
2
62
256
6
ByLayer
370
18
48
1
60
0
100
AcDbTrace
10
59.6
20
-25.431155
30
0
11
56.100002
21
-25.891939
31
0
12
56.099998
22
-24.970371
32
0
13
56.099998
23
-24.970371
33
0
39
0
210
0
220
0
230
1
0
SOLID
5
145
100
AcDbEntity
8
2
62
256
6
ByLayer
370
18
48
1
60
0
100
AcDbTrace
10
17.6
20
-25.431155
30
0
11
21.099998
21
-24.970371
31
0
12
21.100002
22
-25.891939
32
0
13
21.100002
23
-25.891939
33
0
39
0
210
0
220
0
230
1
0
ENDBLK
5
147
100
AcDbEntity
8
0
100
AcDbBlockEnd
0
ENDSEC
0
SECTION
2
ENTITIES
0
ELLIPSE
5
C5
100
AcDbEntity
8
1
62
256
6
ByLayer
370
18
48
1
60
0
100
AcDbEllipse
10
58.900264
20
-0.62744
30
0
11
0.122003064111573
21
-2.40954647526485
31
0
210
0
220
0
230
1
40
0.053854
41
1.1545829963606
42
1.58561774975295
0
ELLIPSE
5
C6
100
AcDbEntity
8
1
62
256
6
ByLayer
370
18
48
1
60
0
100
AcDbEllipse
10
58.839462
20
-1.340832
30
0
11
0.120255428948682
21
-1.14196040204682
31
0
210
0
220
0
230
1
40
0.180272
41
0.934882104898658
42
1.32685641433194
0
ELLIPSE
5
C7
100
AcDbEntity
8
1
62
256
6
ByLayer
370
18
48
1
60
0
100
AcDbEllipse
10
58.900264
20
-0.62744
30
0
11
0.12200306418484
21
-2.40954647625709
31
0
210
0
220
0
230
1
40
0.053854
41
0.0100193029756507
42
0.961195106808116
0
ELLIPSE
5
C8
100
AcDbEntity
8
1
62
256
6
ByLayer
370
18
48
1
60
0
100
AcDbEllipse
10
58.553303
20
-1.285481
30
0
11
0.400192831047494
21
-1.15788223940527
31
0
210
0
220
0
230
1
40
0.474863
41
2.88491419994519
42
-2.21674971987357
0
ELLIPSE
5
C9
100
AcDbEntity
8
1
62
256
6
ByLayer
370
18
48
1
60
0
100
AcDbEllipse
10
91.737971
20
-57.824937
30
0
11
36.6927363398751
21
-62.0891790185643
31
0
210
0
220
0
230
1
40
0.008616
41
-2.69548159324485
42
-2.65682490272426
0
ELLIPSE
5
CA
100
AcDbEntity
8
1
62
256
6
ByLayer
370
13
48
1
60
0
100
AcDbEllipse
10
15.166865
20
-6.29974
30
0
11
55.0592629830925
21
-49.6785267459417
31
0
210
0
220
0
230
1
40
0.050895
41
1.62993087987989
42
1.7812266824871
0
POINT
5
70
100
AcDbEntity
8
81
62
256
6
ByLayer
370
18
48
1
60
0
100
AcDbPoint
10
59.6
20
0
30
0
39
0
210
0
220
0
230
1
50
360
0
POINT
5
72
100
AcDbEntity
8
80
62
256
6
ByLayer
370
18
48
1
60
0
100
AcDbPoint
10
0
20
0
30
0
39
0
210
0
220
0
230
1
50
360
0
POINT
5
74
100
AcDbEntity
8
1
62
256
6
ByLayer
370
18
48
1
60
1
100
AcDbPoint
10
59.6
20
-10.0001
30
0
39
0
210
0
220
0
230
1
50
360
0
POINT
5
76
100
AcDbEntity
8
1
62
256
6
ByLayer
370
18
48
1
60
1
100
AcDbPoint
10
17.6
20
-10.0001
30
0
39
0
210
0
220
0
230
1
50
360
0
SPLINE
5
CB
100
AcDbEntity
8
1
62
256
6
ByLayer
370
18
48
1
60
0
100
AcDbSpline
70
4
71
3
72
18
73
14
40
0
40
0
40
0
40
0
40
0.125
40
0.125
40
0.25
40
0.25
40
0.500000000000004
40
0.500000000000004
40
0.625000000000006
40
0.625000000000006
40
0.750000000000008
40
0.750000000000008
40
1
40
1
40
1
40
1
41
1
10
59.0765061148543
20
-2.00161591013557
30
0
41
1
10
59.0698676339317
20
-1.98522968413391
30
0
41
1
10
59.064078749352
20
-1.96859147027607
30
0
41
1
10
59.054240582294
20
-1.93478371938377
30
0
41
1
10
59.0501913320677
20
-1.91756085641941
30
0
41
1
10
59.0408181522515
20
-1.86621703463319
30
0
41
1
10
59.0381270158448
20
-1.83205954881393
30
0
41
1
10
59.0383902821058
20
-1.7806887919825
30
0
41
1
10
59.0392037365143
20
-1.76348251983541
30
0
41
1
10
59.0420885286927
20
-1.72936787192597
30
0
41
1
10
59.0441535954537
20
-1.71244701817179
30
0
41
1
10
59.0519547289652
20
-1.66197624364673
30
0
41
1
10
59.0592817404761
20
-1.62871248587828
30
0
41
1
10
59.0682753791929
20
-1.5956098631201
30
0
0
SPLINE
5
CC
100
AcDbEntity
8
1
62
256
6
ByLayer
370
18
48
1
60
0
100
AcDbSpline
70
4
71
3
72
57
73
53
40
0
40
0
40
0
40
0
40
0.0537806497928892
40
0.0537806497928892
40
0.124151150717959
40
0.124151150717959
40
0.141743775949227
40
0.141743775949227
40
0.159336401180495
40
0.159336401180495
40
0.194521651643032
40
0.194521651643032
40
0.264892152568105
40
0.264892152568105
40
0.300077403030642
40
0.300077403030642
40
0.308873715646275
40
0.308873715646275
40
0.317670028261909
40
0.335262653493177
40
0.335262653493177
40
0.405633154418247
40
0.405633154418247
40
0.476003655343317
40
0.476003655343317
40
0.546374156268387
40
0.546374156268387
40
0.616744657193457
40
0.616744657193457
40
0.634337282424725
40
0.634337282424725
40
0.651929907655992
40
0.687115158118526
40
0.687115158118526
40
0.757485659043594
40
0.757485659043594
40
0.792670909506127
40
0.792670909506127
40
0.810263534737394
40
0.810263534737394
40
0.827856159968662
40
0.827856159968662
40
0.898226660893728
40
0.898226660893728
40
0.933411911356262
40
0.933411911356262
40
0.951004536587529
40
0.959800849203162
40
0.959800849203162
40
0.968597161818795
40
0.968597161818795
40
1
40
1
40
1
40
1
41
1
10
14.890569391799
20
5.82012952410949
30
0
41
1
10
15.4506312849984
20
5.78786668448325
30
0
41
1
10
16.0097065641774
20
5.73894629323758
30
0
41
1
10
17.299960242699
20
5.58856566612448
30
0
41
1
10
18.0310260485746
20
5.47555209474055
30
0
41
1
10
18.9468480350507
20
5.30109587123226
30
0
41
1
10
19.1301120005487
20
5.26454645394944
30
0
41
1
10
19.4968976403533
20
5.18817488343601
30
0
41
1
10
19.6802924922168
20
5.14837800957579
30
0
41
1
10
20.229969193824
20
5.02438881365006
30
0
41
1
10
20.5959877290217
20
4.93554674400147
30
0
41
1
10
21.6934447531855
20
4.65137846188119
30
0
41
1
10
22.4242842422815
20
4.43839692743472
30
0
41
1
10
23.5221300752317
20
4.08745826300876
30
0
41
1
10
23.8883430999134
20
3.9652374492415
30
0
41
1
10
24.3467318887016
20
3.80633658789688
30
0
41
1
10
24.4384719921455
20
3.7742391300755
30
0
41
1
10
24.621796532383
20
3.70952283414809
30
0
41
1
10
24.8965906683751
20
3.61165282199212
30
0
41
1
10
25.1708394907265
20
3.51146262312838
30
0
41
1
10
26.0839344602742
20
3.17263392296607
30
0
41
1
10
26.8109976375746
20
2.88601637428897
30
0
41
1
10
28.2619113748703
20
2.28917018973868
30
0
41
1
10
28.9857595854965
20
1.97893713082331
30
0
41
1
10
30.4337873362912
20
1.34237605242939
30
0
41
1
10
31.1579645078152
20
1.01604290711649
30
0
41
1
10
32.6102007083947
20
0.354966948077731
30
0
41
1
10
33.3382573976808
20
0.020218402704046
30
0
41
1
10
34.2530219332983
20
-0.398462169373403
30
0
41
1
10
34.4362390973084
20
-0.482222830710612
30
0
41
1
10
34.8030806323795
20
-0.649581372642984
30
0
41
1
10
35.352934236863
20
-0.899909859229496
30
0
41
1
10
35.9018257523253
20
-1.14754329632785
30
0
41
1
10
36.9990244548811
20
-1.63773028928429
30
0
41
1
10
37.7297107090826
20
-1.95774461916042
30
0
41
1
10
38.8273524523169
20
-2.42176750132498
30
0
41
1
10
39.1935017490367
20
-2.57377657012324
30
0
41
1
10
39.7434788614734
20
-2.79706913218246
30
0
41
1
10
39.9269637872149
20
-2.87072554062428
30
0
41
1
10
40.2935224660094
20
-3.01606211108015
30
0
41
1
10
40.4766834540646
20
-3.08777810122081
30
0
41
1
10
41.3920427145452
20
-3.44133927883067
30
0
41
1
10
42.1229049795692
20
-3.70811315503462
30
0
41
1
10
43.2198452613447
20
-4.07941631498227
30
0
41
1
10
43.5855996080833
20
-4.19837744046373
30
0
41
1
10
44.1347410406608
20
-4.36903911438898
30
0
41
1
10
44.4094392599955
20
-4.45242515496847
30
0
41
1
10
44.6843944274908
20
-4.53278881988947
30
0
41
1
10
44.8677623050365
20
-4.58568137702577
30
0
41
1
10
44.9594939920565
20
-4.61179025849242
30
0
41
1
10
45.3784777650612
20
-4.72941096594255
30
0
41
1
10
45.7053719890822
20
-4.81662613164718
30
0
41
1
10
46.0320234916937
20
-4.89899609446712
30
0
0
SPLINE
5
CD
100
AcDbEntity
8
1
62
256
6
ByLayer
370
18
48
1
60
0
100
AcDbSpline
70
4
71
3
72
28
73
24
40
0
40
0
40
0
40
0
40
0.125000000000006
40
0.125000000000006
40
0.250000000000012
40
0.250000000000012
40
0.375000000000017
40
0.375000000000017
40
0.43750000000002
40
0.43750000000002
40
0.500000000000023
40
0.500000000000023
40
0.625000000000018
40
0.625000000000018
40
0.750000000000012
40
0.750000000000012
40
0.812500000000009
40
0.812500000000009
40
0.875000000000006
40
0.875000000000006
40
0.937500000000003
40
0.937500000000003
40
1
40
1
40
1
40
1
41
1
10
57.8733447222517
20
-0.740231215240101
30
0
41
1
10
57.8727938423577
20
-0.790374595394013
30
0
41
1
10
57.8773410725535
20
-0.840293044558678
30
0
41
1
10
57.89396606903
20
-0.9399896142736
30
0
41
1
10
57.9060758320377
20
-0.989763982323126
30
0
41
1
10
57.9364219940911
20
-1.08944018606013
30
0
41
1
10
57.9546708578083
20
-1.13933855055788
30
0
41
1
10
57.9859875757353
20
-1.21453424360348
30
0
41
1
10
57.9970546458748
20
-1.23957536088639
30
0
41
1
10
58.0201830955495
20
-1.28935728525502
30
0
41
1
10
58.0322650602429
20
-1.31414726529081
30
0
41
1
10
58.0699047358285
20
-1.38833472006434
30
0
41
1
10
58.0968536088201
20
-1.43753876455062
30
0
41
1
10
58.1537431845975
20
-1.53624365046784
30
0
41
1
10
58.1836892306525
20
-1.58572517546557
30
0
41
1
10
58.2303376119093
20
-1.66118043852302
30
0
41
1
10
58.2461748479853
20
-1.68654344818643
30
0
41
1
10
58.2783300400623
20
-1.73798976960245
30
0
41
1
10
58.2947239057203
20
-1.76419621111259
30
0
41
1
10
58.3271269448914
20
-1.81652825002368
30
0
41
1
10
58.3431979092678
20
-1.84275581410941
30
0
41
1
10
58.3747996382579
20
-1.89549209061957
30
0
41
1
10
58.3903267439934
20
-1.92200299296724
30
0
41
1
10
58.4054708583188
20
-1.94871606854878
30
0
0
SPLINE
5
CE
100
AcDbEntity
8
1
62
256
6
ByLayer
370
18
48
1
60
0
100
AcDbSpline
70
4
71
3
72
62
73
58
40
0
40
0
40
0
40
0
40
0.0625000000000051
40
0.0625000000000051
40
0.0937500000000083
40
0.0937500000000083
40
0.109375000000009
40
0.109375000000009
40
0.12500000000001
40
0.12500000000001
40
0.187500000000012
40
0.187500000000012
40
0.218750000000013
40
0.218750000000013
40
0.234375000000013
40
0.234375000000013
40
0.242187500000013
40
0.242187500000013
40
0.250000000000014
40
0.250000000000014
40
0.312500000000019
40
0.312500000000019
40
0.320312500000021
40
0.320312500000021
40
0.328125000000023
40
0.343750000000026
40
0.343750000000026
40
0.375000000000035
40
0.375000000000035
40
0.390625000000038
40
0.390625000000038
40
0.406250000000041
40
0.406250000000041
40
0.437500000000043
40
0.437500000000043
40
0.500000000000045
40
0.500000000000045
40
0.515625000000045
40
0.515625000000045
40
0.531250000000044
40
0.531250000000044
40
0.562500000000043
40
0.562500000000043
40
0.625000000000035
40
0.625000000000035
40
0.687500000000027
40
0.687500000000027
40
0.750000000000019
40
0.750000000000019
40
0.812500000000011
40
0.875000000000004
40
0.875000000000004
40
0.906250000000003
40
0.906250000000003
40
0.937500000000002
40
0.937500000000002
40
1
40
1
40
1
40
1
41
1
10
58.9350011495088
20
9.98650660024734
30
0
41
1
10
58.9922985526682
20
9.8616952067128
30
0
41
1
10
59.0460072340887
20
9.73545040137878
30
0
41
1
10
59.1175703881646
20
9.54248845463746
30
0
41
1
10
59.1399134417422
20
9.47756414792863
30
0
41
1
10
59.1705642570264
20
9.37903383917541
30
0
41
1
10
59.1803026660463
20
9.34599926809969
30
0
41
1
10
59.1987052141852
20
9.2795010396988
30
0
41
1
10
59.2073649218615
20
9.24604340527031
30
0
41
1
10
59.2474084662231
20
9.07867927398397
30
0
41
1
10
59.2693517609952
20
8.94372931292568
30
0
41
1
10
59.2811785231091
20
8.73909210964555
30
0
41
1
10
59.2815786968163
20
8.67050812557926
30
0
41
1
10
59.2758641063029
20
8.56696968818216
30
0
41
1
10
59.2729052218593
20
8.532346303342
30
0
41
1
10
59.2667444582266
20
8.48023053332767
30
0
41
1
10
59.2644079473902
20
8.46287395520176
30
0
41
1
10
59.2591886524855
20
8.42838106458146
30
0
41
1
10
59.2563026327087
20
8.41121647841496
30
0
41
1
10
59.2278340944955
20
8.25747401130639
30
0
41
1
10
59.1847199210497
20
8.12608885821683
30
0
41
1
10
59.1163325286286
20
7.98417001791216
30
0
41
1
10
59.108455267422
20
7.96847867776413
30
0
41
1
10
59.0922712930235
20
7.93747563157143
30
0
41
1
10
59.0673115336492
20
7.89145597804506
30
0
41
1
10
59.0403728526446
20
7.84683967843969
30
0
41
1
10
58.9840346234528
20
7.75935220524048
30
0
41
1
10
58.9431992754979
20
7.70335077601524
30
0
41
1
10
58.8776509660512
20
7.62239463889534
30
0
41
1
10
58.8550881862845
20
7.59591512784053
30
0
41
1
10
58.8085900316136
20
7.54392948271283
30
0
41
1
10
58.7846859402491
20
7.5184688392238
30
0
41
1
10
58.7116951305129
20
7.44418681412552
30
0
41
1
10
58.6611185423698
20
7.39721797460854
30
0
41
1
10
58.5044452787018
20
7.26289705926294
30
0
41
1
10
58.3934420899795
20
7.18208131478255
30
0
41
1
10
58.2485745254338
20
7.08920598723353
30
0
41
1
10
58.2192924855667
20
7.07104193344341
30
0
41
1
10
58.1601527065782
20
7.03548075768055
30
0
41
1
10
58.1302523440322
20
7.01805998475828
30
0
41
1
10
58.0401153264654
20
6.96707979062506
30
0
41
1
10
57.9794599404876
20
6.9347994807747
30
0
41
1
10
57.7960812498239
20
6.84223211990204
30
0
41
1
10
57.6719599462056
20
6.78617466605707
30
0
41
1
10
57.420995094503
20
6.68229581437799
30
0
41
1
10
57.2941438768169
20
6.63449762065784
30
0
41
1
10
57.0383504376489
20
6.54522749252109
30
0
41
1
10
56.9094045898681
20
6.50376652934622
30
0
41
1
10
56.6498547056182
20
6.42586139523681
30
0
41
1
10
56.3886427871883
20
6.35298468776901
30
0
41
1
10
56.1247351533198
20
6.28826377366156
30
0
41
1
10
55.9259738448628
20
6.24223598824614
30
0
41
1
10
55.8595964458829
20
6.22731813431008
30
0
41
1
10
55.7268169850245
20
6.19830034330698
30
0
41
1
10
55.6603855290489
20
6.18419360240392
30
0
41
1
10
55.4609768062641
20
6.1429755421768
30
0
41
1
10
55.3278855834793
20
6.11696254087394
30
0
41
1
10
55.1946653405887
20
6.09219304704351
30
0
0
SPLINE
5
CF
100
AcDbEntity
8
1
62
256
6
ByLayer
370
18
48
1
60
0
100
AcDbSpline
70
4
71
3
72
18
73
14
40
0
40
0
40
0
40
0
40
0.12678995605317
40
0.12678995605317
40
0.301431964842578
40
0.301431964842578
40
0.650715982421393
40
0.650715982421393
40
0.738036986816045
40
0.738036986816045
40
0.825357991210697
40
0.825357991210697
40
1
40
1
40
1
40
1
41
1
10
54.6373578007929
20
5.9571212431544
30
0
41
1
10
54.6596335375187
20
5.96318306195505
30
0
41
1
10
54.6822538264757
20
5.96934092509963
30
0
41
1
10
54.7368928194703
20
5.98413565525604
30
0
41
1
10
54.7687443335285
20
5.99269649866312
30
0
41
1
10
54.8649011494737
20
6.01807897144013
30
0
41
1
10
54.9298176902781
20
6.03460478676914
30
0
41
1
10
55.0121741830575
20
6.05392684721372
30
0
41
1
10
55.0287062846961
20
6.0577244520718
30
0
41
1
10
55.0618981099858
20
6.06516451711508
30
0
41
1
10
55.0785654339822
20
6.06880818597858
30
0
41
1
10
55.1284204999411
20
6.07940192716936
30
0
41
1
10
55.1615752622276
20
6.08604064502089
30
0
41
1
10
55.1946653405886
20
6.09219304704351
30
0
0
SPLINE
5
D0
100
AcDbEntity
8
1
62
256
6
ByLayer
370
18
48
1
60
0
100
AcDbSpline
70
4
71
3
72
20
73
16
40
0
40
0
40
0
40
0
40
0.162680976110899
40
0.162680976110899
40
0.325361952221799
40
0.325361952221799
40
0.488042928332699
40
0.488042928332699
40
0.650723904443598
40
0.650723904443598
40
0.813404880554498
40
0.813404880554498
40
0.976085856665397
40
0.976085856665397
40
1
40
1
40
1
40
1
41
1
10
58.9350354639467
20
9.98650799245684
30
0
41
1
10
58.504462147604
20
9.96903917024684
30
0
41
1
10
58.0738888312613
20
9.9346040914686
30
0
41
1
10
57.2127421985761
20
9.83215160529599
30
0
41
1
10
56.7821688822334
20
9.76413437269176
30
0
41
1
10
55.921022249548
20
9.59520961690103
30
0
41
1
10
55.4904489332054
20
9.49430238447991
30
0
41
1
10
54.6293023005201
20
9.26062436909919
30
0
41
1
10
54.1987289841774
20
9.12785398932502
30
0
41
1
10
53.3375823514921
20
8.8318006698367
30
0
41
1
10
52.9070090351494
20
8.66851824223974
30
0
41
1
10
52.045862402464
20
8.31310232240688
30
0
41
1
10
51.6152890861214
20
8.1209694425761
30
0
41
1
10
51.1214213868137
20
7.88516814099521
30
0
41
1
10
51.0581270038488
20
7.85465712042026
30
0
41
1
10
50.9948326208838
20
7.82385905432821
30
0
0
SPLINE
5
D1
100
AcDbEntity
8
1
62
256
6
ByLayer
370
18
48
1
60
0
100
AcDbSpline
70
4
71
3
72
12
73
8
40
0
40
0
40
0
40
0
40
0.234009869228243
40
0.234009869228243
40
0.617004934614122
40
0.617004934614122
40
1
40
1
40
1
40
1
41
1
10
20.9726774916655
20
-9.92361344776199
30
0
41
1
10
20.7095973254785
20
-9.94897250939826
30
0
41
1
10
20.4465171592914
20
-9.9680452046268
30
0
41
1
10
19.7528636767617
20
-10.0016427990539
30
0
41
1
10
19.322290360419
20
-10.0055413203065
30
0
41
1
10
18.4611437277335
20
-9.97938551455414
30
0
41
1
10
18.0305704113908
20
-9.9493312316676
30
0
41
1
10
17.599997095048
20
-9.90245338277626
30
0
0
SPLINE
5
D2
100
AcDbEntity
8
1
62
256
6
ByLayer
370
18
48
1
60
0
100
AcDbSpline
70
4
71
3
72
8
73
4
40
0
40
0
40
0
40
0
40
1
40
1
40
1
40
1
41
1
10
58.9350997596182
20
9.98662293194374
30
0
41
1
10
59.084489402523
20
9.97706254903892
30
0
41
1
10
59.2338714104276
20
9.96740312897219
30
0
41
1
10
59.3832460626182
20
9.95764834124682
30
0
0
SPLINE
5
D3
100
AcDbEntity
8
1
62
256
6
ByLayer
370
18
48
1
60
0
100
AcDbSpline
70
4
71
3
72
16
73
12
40
0
40
0
40
0
40
0
40
0.232375743880186
40
0.232375743880186
40
0.464751487760372
40
0.464751487760372
40
0.697127231640557
40
0.697127231640557
40
0.929502975520743
40
0.929502975520743
40
1
40
1
40
1
40
1
41
1
10
2.22691525048012
20
-9.14543362893352
30
0
41
1
10
2.65550061510729
20
-8.95118520676667
30
0
41
1
10
3.08836515908513
20
-8.7604307776175
30
0
41
1
10
3.96397648848677
20
-8.3874694565009
30
0
41
1
10
4.40672671569916
20
-8.20525865459902
30
0
41
1
10
5.30351910390726
20
-7.85181194090259
30
0
41
1
10
5.75756655729325
20
-7.68057594270977
30
0
41
1
10
6.67831454869605
20
-7.35245326439684
30
0
41
1
10
7.14502189118664
20
-7.19557204270544
30
0
41
1
10
7.7622984680427
20
-7.00321591655651
30
0
41
1
10
7.9066114290537
20
-6.95929972542939
30
0
41
1
10
8.0515685972475
20
-6.91630794767806
30
0
0
SPLINE
5
D4
100
AcDbEntity
8
1
62
256
6
ByLayer
370
18
48
1
60
0
100
AcDbSpline
70
4
71
3
72
8
73
4
40
0
40
0
40
0
40
0
40
1
40
1
40
1
40
1
41
1
10
15.8899038530571
20
-8.18869165928768
30
0
41
1
10
16.1112365803582
20
-8.12688291037654
30
0
41
1
10
16.341443913272
20
-8.0738227841851
30
0
41
1
10
16.5785559892214
20
-8.03167671621884
30
0
0
SPLINE
5
D5
100
AcDbEntity
8
1
62
256
6
ByLayer
370
18
48
1
60
0
100
AcDbSpline
70
4
71
3
72
47
73
43
40
0
40
0
40
0
40
0
40
0.0060101479702208
40
0.0060101479702208
40
0.0291261910406814
40
0.0291261910406814
40
0.0753582771816023
40
0.0753582771816023
40
0.167822449463445
40
0.167822449463445
40
0.214054535604365
40
0.214054535604365
40
0.260286621745285
40
0.260286621745285
40
0.306518707886205
40
0.306518707886205
40
0.352750794027126
40
0.352750794027126
40
0.398982880168046
40
0.398982880168046
40
0.445214966308966
40
0.445214966308966
40
0.491447052449886
40
0.514563095520345
40
0.514563095520345
40
0.537679138590804
40
0.537679138590804
40
0.583911224731725
40
0.583911224731725
40
0.630143310872645
40
0.630143310872645
40
0.722607483154483
40
0.722607483154483
40
0.768839569295402
40
0.768839569295402
40
0.815071655436321
40
0.815071655436321
40
0.861303741577241
40
0.861303741577241
40
0.90753582771816
40
0.90753582771816
40
1
40
1
40
1
40
1
41
1
10
30.8496268122271
20
-8.21198212131682
30
0
41
1
10
30.8208122177864
20
-8.22305248581921
30
0
41
1
10
30.7919884454998
20
-8.23406392771722
30
0
41
1
10
30.6522578476492
20
-8.28714082305459
30
0
41
1
10
30.5411643706293
20
-8.32841102446841
30
0
41
1
10
30.2085438241181
20
-8.44916321596895
30
0
41
1
10
29.9873432537474
20
-8.52570819130665
30
0
41
1
10
29.325074270508
20
-8.74337396940984
30
0
41
1
10
28.8853457724042
20
-8.87248752185158
30
0
41
1
10
28.2270469640986
20
-9.04227929054196
30
0
41
1
10
28.0078530300439
20
-9.09482832415429
30
0
41
1
10
27.5697427974697
20
-9.19172637357255
30
0
41
1
10
27.3508148030775
20
-9.23611354460775
30
0
41
1
10
26.9129697698144
20
-9.31687091559752
30
0
41
1
10
26.6940583217491
20
-9.35322586510171
30
0
41
1
10
26.2560925919193
20
-9.41764956453076
30
0
41
1
10
26.0370387603647
20
-9.44571083465067
30
0
41
1
10
25.5985684966658
20
-9.49349993189159
30
0
41
1
10
25.3791491356421
20
-9.51324005956641
30
0
41
1
10
24.9397074574611
20
-9.54453114081565
30
0
41
1
10
24.7196959777667
20
-9.55602376034304
30
0
41
1
10
24.2789059044228
20
-9.57038212353069
30
0
41
1
10
23.9477294178955
20
-9.57473498708697
30
0
41
1
10
23.615419068978
20
-9.56943057396978
30
0
41
1
10
23.3935988410113
20
-9.56373809343765
30
0
41
1
10
23.2825074551444
20
-9.55981003155344
30
0
41
1
10
22.9499143267217
20
-9.54483633903172
30
0
41
1
10
22.7287222221638
20
-9.53061882655479
30
0
41
1
10
22.2872461764545
20
-9.49367684754097
30
0
41
1
10
22.066984778619
20
-9.47087077866766
30
0
41
1
10
21.4071087000823
20
-9.39030242493268
30
0
41
1
10
20.9684051403673
20
-9.32045137499122
30
0
41
1
10
20.3112356153372
20
-9.19093036699792
30
0
41
1
10
20.0923397363568
20
-9.14355305048991
30
0
41
1
10
19.6545242687954
20
-9.04110633941801
30
0
41
1
10
19.4356144761206
20
-8.98600603181009
30
0
41
1
10
18.9976328862336
20
-8.86794285188526
30
0
41
1
10
18.7785609849376
20
-8.80498182230315
30
0
41
1
10
18.3400837619248
20
-8.67103698505915
30
0
41
1
10
18.1206790064655
20
-8.60003041691778
30
0
41
1
10
17.4615341795865
20
-8.3758149851972
30
0
41
1
10
17.0209152580186
20
-8.21120454023247
30
0
41
1
10
16.578321592502
20
-8.03100243801418
30
0
0
SPLINE
5
D6
100
AcDbEntity
8
1
62
256
6
ByLayer
370
18
48
1
60
0
100
AcDbSpline
70
4
71
3
72
18
73
14
40
0
40
0
40
0
40
0
40
0.249999999999999
40
0.249999999999999
40
0.499999999999998
40
0.499999999999998
40
0.624999999999999
40
0.624999999999999
40
0.749999999999999
40
0.749999999999999
40
0.875
40
0.875
40
1
40
1
40
1
40
1
41
1
10
58.4506983467512
20
3.93105879165307
30
0
41
1
10
58.4848490101632
20
3.85857498205948
30
0
41
1
10
58.5178772535105
20
3.79012000737697
30
0
41
1
10
58.5817881216007
20
3.66091158029656
30
0
41
1
10
58.6126777795537
20
3.60013288276667
30
0
41
1
10
58.657262796257
20
3.51524441659089
30
0
41
1
10
58.6718245833204
20
3.48801578347769
30
0
41
1
10
58.7002475986694
20
3.43600055498371
30
0
41
1
10
58.7141106097139
20
3.41121452087324
30
0
41
1
10
58.7410523059186
20
3.36439173869556
30
0
41
1
10
58.7541332386773
20
3.34234711215404
30
0
41
1
10
58.779364782863
20
3.30151890081902
30
0
41
1
10
58.7915177529393
20
3.28272704828643
30
0
41
1
10
58.8030721589383
20
3.26603333365395
30
0
0
SPLINE
5
D7
100
AcDbEntity
8
1
62
256
6
ByLayer
370
18
48
1
60
0
100
AcDbSpline
70
4
71
3
72
9
73
5
40
0
40
0
40
0
40
0
40
0.0846515456185973
40
1
40
1
40
1
40
1
41
1
10
10.1230765463194
20
-7.53696552399202
30
0
41
1
10
10.0843903747709
20
-7.57278459436785
30
0
41
1
10
9.62793849866728
20
-8.00005759063754
30
0
41
1
10
9.17680870432088
20
-8.47290384995219
30
0
41
1
10
8.75375237277396
20
-8.90798622680464
30
0
0
SPLINE
5
D8
100
AcDbEntity
8
1
62
256
6
ByLayer
370
18
48
1
60
0
100
AcDbSpline
70
4
71
3
72
14
73
10
40
0
40
0
40
0
40
0
40
0.252720674256377
40
0.252720674256377
40
0.626360337128189
40
0.626360337128189
40
0.813180168564094
40
0.813180168564094
40
1
40
1
40
1
40
1
41
1
10
55.5341045795977
20
5.44429142957685
30
0
41
1
10
55.7722538857547
20
5.36229314042319
30
0
41
1
10
56.0124179671748
20
5.26847209239179
30
0
41
1
10
56.6125606250308
20
5.00716598014424
30
0
41
1
10
56.9748928530004
20
4.82586962140127
30
0
41
1
10
57.5247041463954
20
4.51688050364768
30
0
41
1
10
57.7090252292835
20
4.407718876502
30
0
41
1
10
58.0797163863325
20
4.1773720828094
30
0
41
1
10
58.2651805125846
20
4.05674998040604
30
0
41
1
10
58.4506983467512
20
3.93105879165307
30
0
0
SPLINE
5
D9
100
AcDbEntity
8
1
62
256
6
ByLayer
370
18
48
1
60
0
100
AcDbSpline
70
4
71
3
72
10
73
6
40
0
40
0
40
0
40
0
40
0.217067994337376
40
0.217067994337376
40
1
40
1
40
1
40
1
41
1
10
11.0490198621458
20
-7.95454022022094
30
0
41
1
10
10.8833979859853
20
-8.0329572285693
30
0
41
1
10
10.7174939423313
20
-8.10950989594679
30
0
41
1
10
9.95178105571205
20
-8.4532770303091
30
0
41
1
10
9.35338982773681
20
-8.69501608293581
30
0
41
1
10
8.75386949004974
20
-8.90786578007717
30
0
0
SPLINE
5
DA
100
AcDbEntity
8
1
62
256
6
ByLayer
370
18
48
1
60
0
100
AcDbSpline
70
4
71
3
72
58
73
54
40
0
40
0
40
0
40
0
40
0.124999999999995
40
0.124999999999995
40
0.24999999999999
40
0.24999999999999
40
0.312499999999987
40
0.312499999999987
40
0.343749999999986
40
0.359374999999986
40
0.359374999999986
40
0.374999999999986
40
0.374999999999986
40
0.437499999999986
40
0.437499999999986
40
0.499999999999986
40
0.499999999999986
40
0.562499999999986
40
0.562499999999986
40
0.624999999999986
40
0.624999999999986
40
0.656249999999986
40
0.656249999999986
40
0.671874999999987
40
0.671874999999987
40
0.687499999999987
40
0.687499999999987
40
0.74999999999999
40
0.74999999999999
40
0.781249999999991
40
0.781249999999991
40
0.796874999999992
40
0.796874999999992
40
0.812499999999993
40
0.812499999999993
40
0.843749999999994
40
0.843749999999994
40
0.874999999999995
40
0.874999999999995
40
0.906249999999996
40
0.906249999999996
40
0.914062499999997
40
0.914062499999997
40
0.921874999999997
40
0.937499999999998
40
0.937499999999998
40
0.968749999999999
40
0.968749999999999
40
0.984375
40
0.984375
40
0.9921875
40
0.9921875
40
1
40
1
40
1
40
1
41
1
10
8.75342065762484
20
-8.90790012928551
30
0
41
1
10
8.38072751830873
20
-9.04066260035313
30
0
41
1
10
8.0130672782349
20
-9.16465022761994
30
0
41
1
10
7.28643203915865
20
-9.39146843255693
30
0
41
1
10
6.92744259243975
20
-9.49432087910935
30
0
41
1
10
6.39529867331314
20
-9.63011676941787
30
0
41
1
10
6.21898438705639
20
-9.67230043690799
30
0
41
1
10
5.95621093806204
20
-9.73057807989611
30
0
41
1
10
5.82525011322963
20
-9.75846669773335
30
0
41
1
10
5.69496093864387
20
-9.7844005135135
30
0
41
1
10
5.60825555889389
20
-9.80124564572714
30
0
41
1
10
5.56496928823171
20
-9.80944793239442
30
0
41
1
10
5.3493878540682
20
-9.84924304850557
30
0
41
1
10
5.17929182221732
20
-9.87725978217381
30
0
41
1
10
4.8443712795663
20
-9.92518888610616
30
0
41
1
10
4.67954351936081
20
-9.94510375879594
30
0
41
1
10
4.35598452848882
20
-9.97620752965045
30
0
41
1
10
4.19724751658734
20
-9.98740048457137
30
0
41
1
10
3.88712033117969
20
-10.0001846056425
30
0
41
1
10
3.73571909577206
20
-10.0017830649776
30
0
41
1
10
3.51556354633775
20
-9.99601031934978
30
0
41
1
10
3.44334220273495
20
-9.99272045944133
30
0
41
1
10
3.33701179913584
20
-9.98556771374129
30
0
41
1
10
3.30190255307099
20
-9.98281341297556
30
0
41
1
10
3.23240385422045
20
-9.97653094416839
30
0
41
1
10
3.19798488701741
20
-9.97299899078092
30
0
41
1
10
3.02835738757329
20
-9.95337329200936
30
0
41
1
10
2.90027139464016
20
-9.93141683311589
30
0
41
1
10
2.72318805084828
20
-9.88749951326673
30
0
41
1
10
2.66668433904695
20
-9.87102264042969
30
0
41
1
10
2.58638450810713
20
-9.84325616360445
30
0
41
1
10
2.56034613999816
20
-9.83348463298927
30
0
41
1
10
2.50996709346052
20
-9.81289061771523
30
0
41
1
10
2.48570585202577
20
-9.80210145617252
30
0
41
1
10
2.41589635039392
20
-9.76820862491206
30
0
41
1
10
2.37331187270038
20
-9.74358235113925
30
0
41
1
10
2.29727922300296
20
-9.68994947011149
30
0
41
1
10
2.26382585253168
20
-9.66094408837725
30
0
41
1
10
2.20766862671573
20
-9.59813446092684
30
0
41
1
10
2.18495575086484
20
-9.56433229777323
30
0
41
1
10
2.16466535106616
20
-9.518725233829
30
0
41
1
10
2.16100907267344
20
-9.50941915955121
30
0
41
1
10
2.15458374584244
20
-9.49055361336636
30
0
41
1
10
2.14627426730675
20
-9.46188534250464
30
0
41
1
10
2.14203532054791
20
-9.43211308273834
30
0
41
1
10
2.13923793004864
20
-9.37111162975219
30
0
41
1
10
2.14493410677036
20
-9.32850149665052
30
0
41
1
10
2.16603518164601
20
-9.26173018896756
30
0
41
1
10
2.17516467267893
20
-9.23899704048236
30
0
41
1
10
2.19218666799409
20
-9.20419037620431
30
0
41
1
10
2.19841786792438
20
-9.19247153785517
30
0
41
1
10
2.21189225430211
20
-9.16900779156086
30
0
41
1
10
2.21914708199202
20
-9.15723769320502
30
0
41
1
10
2.22691525047969
20
-9.14543362893366
30
0
0
SPLINE
5
DB
100
AcDbEntity
8
1
62
256
6
ByLayer
370
18
48
1
60
0
100
AcDbSpline
70
4
71
3
72
21
73
17
40
0
40
0
40
0
40
0
40
0.125000000000002
40
0.125000000000002
40
0.250000000000005
40
0.250000000000005
40
0.375000000000007
40
0.375000000000007
40
0.500000000000009
40
0.500000000000009
40
0.750000000000013
40
0.750000000000013
40
0.812500000000011
40
0.812500000000011
40
0.875000000000009
40
1
40
1
40
1
40
1
41
1
10
15.0825935410963
20
-9.43913904905534
30
0
41
1
10
15.1000734699888
20
-9.39970269974154
30
0
41
1
10
15.1220209761966
20
-9.35874256611604
30
0
41
1
10
15.1717937162384
20
-9.27371398966167
30
0
41
1
10
15.1996464874793
20
-9.22964631386742
30
0
41
1
10
15.259429548265
20
-9.13836050837782
30
0
41
1
10
15.291372057422
20
-9.09114268822256
30
0
41
1
10
15.3581383989355
20
-8.99351539003928
30
0
41
1
10
15.3929683706189
20
-8.94310605876038
30
0
41
1
10
15.5005212420579
20
-8.7870212481549
30
0
41
1
10
15.57624297142
20
-8.67649427623439
30
0
41
1
10
15.6732054146001
20
-8.52995000269229
30
0
41
1
10
15.6927249067966
20
-8.50021220235189
30
0
41
1
10
15.7318909743083
20
-8.43999124499294
30
0
41
1
10
15.7908530128292
20
-8.34851001877308
30
0
41
1
10
15.8502531477637
20
-8.25355825043044
30
0
41
1
10
15.8899038530571
20
-8.18869165928768
30
0
0
SPLINE
5
DC
100
AcDbEntity
8
1
62
256
6
ByLayer
370
18
48
1
60
0
100
AcDbSpline
70
4
71
3
72
16
73
12
40
0
40
0
40
0
40
0
40
0.25
40
0.25
40
0.499999999999999
40
0.499999999999999
40
0.624999999999999
40
0.624999999999999
40
0.749999999999999
40
0.749999999999999
40
1
40
1
40
1
40
1
41
1
10
15.8899038530567
20
-8.18869165928751
30
0
41
1
10
15.29662129416
20
-7.92263854930576
30
0
41
1
10
14.7055233501749
20
-7.63120140607796
30
0
41
1
10
13.5233943813107
20
-7.00160510414716
30
0
41
1
10
12.9323709397532
20
-6.66343921609462
30
0
41
1
10
12.042673611338
20
-6.12383068537713
30
0
41
1
10
11.7455801405001
20
-5.9385649490815
30
0
41
1
10
11.149782506625
20
-5.55766255929578
30
0
41
1
10
10.8510327448359
20
-5.36199498592765
30
0
41
1
10
9.95178105571205
20
-4.7602391431754
30
0
41
1
10
9.35338982773686
20
-4.34284101466571
30
0
41
1
10
8.75386949004974
20
-3.91176830694204
30
0
0
SPLINE
5
DD
100
AcDbEntity
8
1
62
256
6
ByLayer
370
18
48
1
60
0
100
AcDbSpline
70
4
71
3
72
28
73
24
40
0
40
0
40
0
40
0
40
0.0625000000000029
40
0.0625000000000029
40
0.125000000000006
40
0.125000000000006
40
0.187500000000009
40
0.187500000000009
40
0.21875000000001
40
0.21875000000001
40
0.250000000000011
40
0.250000000000011
40
0.375000000000009
40
0.375000000000009
40
0.500000000000007
40
0.500000000000007
40
0.625000000000004
40
0.625000000000004
40
0.687500000000003
40
0.687500000000003
40
0.750000000000002
40
0.750000000000002
40
1
40
1
40
1
40
1
41
1
10
6.13866717692841
20
6.81758606543994
30
0
41
1
10
6.24386274032514
20
6.83035973875829
30
0
41
1
10
6.34918566932723
20
6.83942167574006
30
0
41
1
10
6.56004687787822
20
6.85133134346248
30
0
41
1
10
6.66558542856862
20
6.85417035926952
30
0
41
1
10
6.87685365574632
20
6.85435016995754
30
0
41
1
10
6.98258346831164
20
6.85168662973695
30
0
41
1
10
7.14130970220896
20
6.84389585033333
30
0
41
1
10
7.19424042118953
20
6.84066451569717
30
0
41
1
10
7.30014436104372
20
6.83297010577965
30
0
41
1
10
7.35313096966829
20
6.82850342252112
30
0
41
1
10
7.61652439842672
20
6.80333824388509
30
0
41
1
10
7.82369461451447
20
6.7741402901452
30
0
41
1
10
8.23202704327446
20
6.69984019678495
30
0
41
1
10
8.43317698260785
20
6.65470545024513
30
0
41
1
10
8.83003072321077
20
6.54926582151938
30
0
41
1
10
9.02572905852739
20
6.48894675930924
30
0
41
1
10
9.31544165336766
20
6.38709528980323
30
0
41
1
10
9.4107768079385
20
6.35145231026448
30
0
41
1
10
9.59883989602585
20
6.27697550962696
30
0
41
1
10
9.69161596998532
20
6.23812441673883
30
0
41
1
10
10.1495631543505
20
6.03596881756053
30
0
41
1
10
10.4970127484222
20
5.84904552968538
30
0
41
1
10
10.8290318047737
20
5.63801276843142
30
0
0
SPLINE
5
DE
100
AcDbEntity
8
1
62
256
6
ByLayer
370
18
48
1
60
0
100
AcDbSpline
70
4
71
3
72
11
73
7
40
0
40
0
40
0
40
0
40
0.255028119102876
40
0.510056238205753
40
0.765084357308629
40
1
40
1
40
1
40
1
41
1
10
14.4312871176813
20
-0.586160122731883
30
0
41
1
10
13.9230772730295
20
-1.00754150149561
30
0
41
1
10
12.8679971118297
20
-1.8089368193715
30
0
41
1
10
11.3770690871107
20
-2.91990321674072
30
0
41
1
10
10.0380448698389
20
-3.73093273679814
30
0
41
1
10
9.17680870432091
20
-3.93055148533568
30
0
41
1
10
8.75375237277399
20
-3.91176310855417
30
0
0
SPLINE
5
DF
100
AcDbEntity
8
1
62
256
6
ByLayer
370
18
48
1
60
0
100
AcDbSpline
70
4
71
3
72
87
73
83
40
0
40
0
40
0
40
0
40
0.0625000000000013
40
0.0625000000000013
40
0.125000000000003
40
0.125000000000003
40
0.187500000000004
40
0.187500000000004
40
0.250000000000005
40
0.250000000000005
40
0.265625000000006
40
0.265625000000006
40
0.281250000000007
40
0.312500000000008
40
0.312500000000008
40
0.375000000000011
40
0.375000000000011
40
0.406250000000013
40
0.406250000000013
40
0.437500000000014
40
0.437500000000014
40
0.468750000000016
40
0.468750000000016
40
0.484375000000017
40
0.484375000000017
40
0.500000000000018
40
0.500000000000018
40
0.531250000000019
40
0.531250000000019
40
0.546875000000019
40
0.546875000000019
40
0.554687500000019
40
0.554687500000019
40
0.562500000000019
40
0.562500000000019
40
0.59375000000002
40
0.59375000000002
40
0.625000000000021
40
0.625000000000021
40
0.632812500000021
40
0.636718750000021
40
0.636718750000021
40
0.640625000000021
40
0.640625000000021
40
0.656250000000022
40
0.656250000000022
40
0.687500000000022
40
0.687500000000022
40
0.695312500000022
40
0.695312500000022
40
0.703125000000022
40
0.718750000000022
40
0.734375000000023
40
0.734375000000023
40
0.742187500000023
40
0.742187500000023
40
0.746093750000023
40
0.746093750000023
40
0.750000000000022
40
0.750000000000022
40
0.781250000000016
40
0.781250000000016
40
0.789062500000015
40
0.789062500000015
40
0.796875000000014
40
0.796875000000014
40
0.812500000000012
40
0.812500000000012
40
0.84375000000001
40
0.84375000000001
40
0.875000000000007
40
0.875000000000007
40
0.882812500000006
40
0.882812500000006
40
0.890625000000006
40
0.906250000000005
40
0.906250000000005
40
0.937500000000003
40
0.937500000000003
40
0.968750000000002
40
0.968750000000002
40
1
40
1
40
1
40
1
41
1
10
8.75342065725346
20
-3.911698740497
30
0
41
1
10
8.4866895202841
20
-3.71926422679007
30
0
41
1
10
8.2225832362289
20
-3.52155520462378
30
0
41
1
10
7.69906149157003
20
-3.11585163274199
30
0
41
1
10
7.43964370199234
20
-2.90786157466707
30
0
41
1
10
6.92521421685222
20
-2.48151393996787
30
0
41
1
10
6.67019906404258
20
-2.26316302202713
30
0
41
1
10
6.16465167519192
20
-1.81549737863446
30
0
41
1
10
5.9141133849572
20
-1.58619402032158
30
0
41
1
10
5.60410107337034
20
-1.29185700954375
30
0
41
1
10
5.54223097807983
20
-1.23257546384542
30
0
41
1
10
5.41894547330875
20
-1.11332013866459
30
0
41
1
10
5.23495399640197
20
-0.933644555643639
30
0
41
1
10
5.0538623604341
20
-0.751514540642717
30
0
41
1
10
4.69588115648304
20
-0.383693836495127
30
0
41
1
10
4.46277499584517
20
-0.133779689929128
30
0
41
1
10
4.12358561520136
20
0.249989147500088
30
0
41
1
10
4.01227946491176
20
0.379405376113254
30
0
41
1
10
3.79373725134607
20
0.641703011209955
30
0
41
1
10
3.68649869016815
20
0.774582266635832
30
0
41
1
10
3.4768457132659
20
1.04445507595929
30
0
41
1
10
3.37442699930188
20
1.1814449271526
30
0
41
1
10
3.22520682570922
20
1.39069543634449
30
0
41
1
10
3.17617026023041
20
1.46112570235817
30
0
41
1
10
3.07989366567375
20
1.60317774107
30
0
41
1
10
3.03277708180374
20
1.67461520155206
30
0
41
1
10
2.89478628194703
20
1.89030274732679
30
0
41
1
10
2.80724664212005
20
2.03591630178232
30
0
41
1
10
2.68415493097765
20
2.25780580848237
30
0
41
1
10
2.64449943641981
20
2.33234978577067
30
0
41
1
10
2.58733501383799
20
2.44515983925336
30
0
41
1
10
2.56866720397738
20
2.4829291256045
30
0
41
1
10
2.53215556358492
20
2.55882355612346
30
0
41
1
10
2.51429321298272
20
2.59698993058492
30
0
41
1
10
2.42742645869686
20
2.7882325263632
30
0
41
1
10
2.36584181684344
20
2.94219111587438
30
0
41
1
10
2.26202390252885
20
3.2527804233348
30
0
41
1
10
2.21975728661698
20
3.40940386650181
30
0
41
1
10
2.18229018555147
20
3.60754137724268
30
0
41
1
10
2.17221137579995
20
3.66716138139401
30
0
41
1
10
2.16399849475792
20
3.7270756977066
30
0
41
1
10
2.15895333399089
20
3.76708724709317
30
0
41
1
10
2.1566433803566
20
3.78715220286557
30
0
41
1
10
2.14624846142448
20
3.88725285367079
30
0
41
1
10
2.14160441063584
20
3.96669815975304
30
0
41
1
10
2.1393853948847
20
4.20311830512469
30
0
41
1
10
2.15346765584042
20
4.35818009980926
30
0
41
1
10
2.19353825399176
20
4.54874749101896
30
0
41
1
10
2.20271059332436
20
4.58678965471779
30
0
41
1
10
2.22314700163292
20
4.66167570918657
30
0
41
1
10
2.25697686130991
20
4.77246469409852
30
0
41
1
10
2.32901627355409
20
4.9496141679202
30
0
41
1
10
2.40298568370196
20
5.083705949098
30
0
41
1
10
2.46449498065422
20
5.18153186563487
30
0
41
1
10
2.48600387448352
20
5.21368313637234
30
0
41
1
10
2.51976787398229
20
5.26123681848051
30
0
41
1
10
2.53128440316149
20
5.27699052162535
30
0
41
1
10
2.5546981168001
20
5.30812140400602
30
0
41
1
10
2.56660644927297
20
5.32351518675617
30
0
41
1
10
2.67555027062051
20
5.46055970019609
30
0
41
1
10
2.78489122163887
20
5.57178874367978
30
0
41
1
10
2.93474410732071
20
5.70011794579193
30
0
41
1
10
2.96537768601201
20
5.72524434763835
30
0
41
1
10
3.02792464580722
20
5.77446676721891
30
0
41
1
10
3.05990019639555
20
5.79860658205152
30
0
41
1
10
3.15711278650153
20
5.86913912780739
30
0
41
1
10
3.22364381145198
20
5.91367923096749
30
0
41
1
10
3.42781634141244
20
6.04082472387049
30
0
41
1
10
3.57000868460992
20
6.11700195079598
30
0
41
1
10
3.86437055143927
20
6.25578396033055
30
0
41
1
10
4.01655429005285
20
6.31836532166224
30
0
41
1
10
4.21216434276343
20
6.38953616431684
30
0
41
1
10
4.25159516486823
20
6.40342773558299
30
0
41
1
10
4.3306441754188
20
6.43041670534842
30
0
41
1
10
4.44958986085913
20
6.46974365258117
30
0
41
1
10
4.56959713645739
20
6.50580087056503
30
0
41
1
10
4.81090680836638
20
6.57399253198489
30
0
41
1
10
4.97350137262345
20
6.61424299252229
30
0
41
1
10
5.30166091802559
20
6.68603137637396
30
0
41
1
10
5.4672281782571
20
6.71756095833351
30
0
41
1
10
5.80101400462911
20
6.77305366450796
30
0
41
1
10
5.9692338518052
20
6.79701213746728
30
0
41
1
10
6.13866717692841
20
6.81758606543994
30
0
0
SPLINE
5
E0
100
AcDbEntity
8
1
62
256
6
ByLayer
370
18
48
1
60
0
100
AcDbSpline
70
4
71
3
72
8
73
4
40
0
40
0
40
0
40
0
40
1
40
1
40
1
40
1
41
1
10
59.2873627489793
20
-1.7365601397714
30
0
41
1
10
59.2500675876184
20
-1.8562571942293
30
0
41
1
10
59.2128762813012
20
-1.97519095331481
30
0
41
1
10
59.175788892691
20
-2.09336095647691
30
0
0
SPLINE
5
E1
100
AcDbEntity
8
1
62
256
6
ByLayer
370
18
48
1
60
0
100
AcDbSpline
70
4
71
3
72
16
73
12
40
0
40
0
40
0
40
0
40
0.249999999999998
40
0.249999999999998
40
0.374999999999997
40
0.374999999999997
40
0.437499999999998
40
0.437499999999998
40
0.499999999999998
40
0.499999999999998
40
1
40
1
40
1
40
1
41
1
10
59.2873627489793
20
-9.42452183841039
30
0
41
1
10
59.2765487743358
20
-9.48717348028197
30
0
41
1
10
59.2703893631766
20
-9.54548387526685
30
0
41
1
10
59.2682524631569
20
-9.6263253285901
30
0
41
1
10
59.2687244446384
20
-9.6521679167586
30
0
41
1
10
59.2712293923874
20
-9.68925578482921
30
0
41
1
10
59.2723647710212
20
-9.70134140187062
30
0
41
1
10
59.2752277257731
20
-9.72488032511276
30
0
41
1
10
59.2769557141677
20
-9.73634306508396
30
0
41
1
10
59.295158154112
20
-9.83676590648184
30
0
41
1
10
59.3301340597288
20
-9.90658743914787
30
0
41
1
10
59.3832460626181
20
-9.95764834124725
30
0
0
SPLINE
5
E2
100
AcDbEntity
8
1
62
256
6
ByLayer
370
18
48
1
60
0
100
AcDbSpline
70
4
71
3
72
10
73
6
40
0
40
0
40
0
40
0
40
0.5
40
0.5
40
1
40
1
40
1
40
1
41
1
10
59.2873627489793
20
-9.42452183841039
30
0
41
1
10
59.2058171365222
20
-9.33291823416491
30
0
41
1
10
59.1246839848384
20
-9.23083116218638
30
0
41
1
10
58.9632488212703
20
-9.00553203413679
30
0
41
1
10
58.8829467566094
20
-8.88232131948638
30
0
41
1
10
58.8030721589382
20
-8.74824572583478
30
0
0
SPLINE
5
E3
100
AcDbEntity
8
1
62
256
6
ByLayer
370
18
48
1
60
0
100
AcDbSpline
70
4
71
3
72
8
73
4
40
0
40
0
40
0
40
0
40
1
40
1
40
1
40
1
41
1
10
58.9350997596181
20
-9.98662293194414
30
0
41
1
10
59.0844894025229
20
-9.97706254903932
30
0
41
1
10
59.2338714104275
20
-9.96740312897262
30
0
41
1
10
59.3832460626182
20
-9.95764834124722
30
0
0
SPLINE
5
E4
100
AcDbEntity
8
1
62
256
6
ByLayer
370
18
48
1
60
0
100
AcDbSpline
70
4
71
3
72
10
73
6
40
0
40
0
40
0
40
0
40
0.5
40
0.5
40
1
40
1
40
1
40
1
41
1
10
59.2873627489792
20
1.73656013977094
30
0
41
1
10
59.2056479121343
20
1.99882003941795
30
0
41
1
10
59.1244316433441
20
2.25741565204484
30
0
41
1
10
58.9629975600926
20
2.76726861483596
30
0
41
1
10
58.8827797042887
20
3.01852626885494
30
0
41
1
10
58.8030721589382
20
3.26603333365392
30
0
0
SPLINE
5
E5
100
AcDbEntity
8
1
62
256
6
ByLayer
370
18
48
1
60
0
100
AcDbSpline
70
4
71
3
72
38
73
34
40
0
40
0
40
0
40
0
40
0.0934099317753292
40
0.0934099317753292
40
0.186819863550658
40
0.186819863550658
40
0.280229795325988
40
0.280229795325988
40
0.373639727101317
40
0.373639727101317
40
0.42034469298898
40
0.42034469298898
40
0.443697175932812
40
0.443697175932812
40
0.467049658876644
40
0.467049658876644
40
0.560459590651973
40
0.560459590651973
40
0.653869522427302
40
0.653869522427302
40
0.747279454202632
40
0.747279454202632
40
0.840689385977961
40
0.840689385977961
40
0.887394351865627
40
0.887394351865627
40
0.934099317753292
40
0.934099317753292
40
0.957451800697126
40
0.957451800697126
40
0.98080428364096
40
0.98080428364096
40
1
40
1
40
1
40
1
41
1
10
58.8030721589383
20
3.26603333365392
30
0
41
1
10
58.3613946239031
20
3.57654465645376
30
0
41
1
10
57.9214720421365
20
3.87996081751592
30
0
41
1
10
57.0434545288442
20
4.47084157073644
30
0
41
1
10
56.6053793869008
20
4.75830105038145
30
0
41
1
10
55.7295283091375
20
5.31530805931675
30
0
41
1
10
55.291710220324
20
5.58490757638515
30
0
41
1
10
54.4146711125125
20
6.10436402655276
30
0
41
1
10
53.9754747925543
20
6.35414930686756
30
0
41
1
10
53.3143220166604
20
6.71260304918906
30
0
41
1
10
53.0935464106969
20
6.8293841337989
30
0
41
1
10
52.7616413646533
20
7.00027754502264
30
0
41
1
10
52.6508826738211
20
7.05652860643374
30
0
41
1
10
52.4290906960265
20
7.16756528501645
30
0
41
1
10
52.3179739171608
20
7.22239099937252
30
0
41
1
10
51.7633811657696
20
7.4919323661195
30
0
41
1
10
51.3219041477754
20
7.69344230860412
30
0
41
1
10
50.4417576435408
20
8.06713458388114
30
0
41
1
10
50.0031309153021
20
8.23916457110585
30
0
41
1
10
49.1267179859688
20
8.55379974461155
30
0
41
1
10
48.688965501614
20
8.69637313275186
30
0
41
1
10
47.8128859702214
20
8.95071206211011
30
0
41
1
10
47.3745601218021
20
9.0624926101375
30
0
41
1
10
46.7154573450426
20
9.2057050541178
30
0
41
1
10
46.4954888315144
20
9.24932569517398
30
0
41
1
10
46.0547289285505
20
9.32867419277497
30
0
41
1
10
45.8339428730756
20
9.36438716023881
30
0
41
1
10
45.5020103613935
20
9.41182909032474
30
0
41
1
10
45.3912407367517
20
9.42661946480413
30
0
41
1
10
45.169425472854
20
9.45410791085047
30
0
41
1
10
45.0583101789881
20
9.46681175526413
30
0
41
1
10
44.8562596594261
20
9.48794234962961
30
0
41
1
10
44.7652014518011
20
9.49673386911579
30
0
41
1
10
44.6742307277396
20
9.50479285697878
30
0
0
SPLINE
5
E6
100
AcDbEntity
8
1
62
256
6
ByLayer
370
18
48
1
60
0
100
AcDbSpline
70
4
71
3
72
34
73
30
40
0
40
0
40
0
40
0
40
0.125000000000011
40
0.125000000000011
40
0.187500000000016
40
0.187500000000016
40
0.218750000000019
40
0.218750000000019
40
0.250000000000022
40
0.250000000000022
40
0.375000000000056
40
0.375000000000056
40
0.406250000000058
40
0.406250000000058
40
0.43750000000006
40
0.500000000000037
40
0.562500000000013
40
0.562500000000013
40
0.593750000000001
40
0.593750000000001
40
0.62499999999999
40
0.62499999999999
40
0.750000000000003
40
0.750000000000003
40
0.81250000000001
40
0.81250000000001
40
0.875000000000017
40
0.875000000000017
40
1
40
1
40
1
40
1
41
1
10
50.4511952464735
20
1.31352146196031
30
0
41
1
10
50.431415148287
20
1.36418484900503
30
0
41
1
10
50.4060500063071
20
1.41172838478542
30
0
41
1
10
50.3603429962201
20
1.47862217305379
30
0
41
1
10
50.3438197705489
20
1.50017742309203
30
0
41
1
10
50.3171078233119
20
1.53138391042953
30
0
41
1
10
50.3078884005257
20
1.54158680177832
30
0
41
1
10
50.2890289545093
20
1.56138997525079
30
0
41
1
10
50.2793637226227
20
1.57102046536957
30
0
41
1
10
50.2299017028611
20
1.61786118598948
30
0
41
1
10
50.186728407907
20
1.65116827570847
30
0
41
1
10
50.1285854523587
20
1.68794541488089
30
0
41
1
10
50.1167223397322
20
1.69506857336083
30
0
41
1
10
50.0927779788981
20
1.70871549247954
30
0
41
1
10
50.0564840743642
20
1.72832169330331
30
0
41
1
10
49.9941790346018
20
1.7568454304911
30
0
41
1
10
49.942489721334
20
1.77546080671141
30
0
41
1
10
49.9030426507859
20
1.78788418319988
30
0
41
1
10
49.8897800586456
20
1.79176848535181
30
0
41
1
10
49.8630270389472
20
1.79902420465209
30
0
41
1
10
49.8495297203584
20
1.80239583196996
30
0
41
1
10
49.7820312304691
20
1.81784856848475
30
0
41
1
10
49.7275605142663
20
1.82588465102125
30
0
41
1
10
49.6451541587836
20
1.83172160701014
30
0
41
1
10
49.6175676866205
20
1.83262258675367
30
0
41
1
10
49.562148029677
20
1.8322729545371
30
0
41
1
10
49.5342060062548
20
1.83101002961789
30
0
41
1
10
49.4510413284159
20
1.823885246537
30
0
41
1
10
49.3963818636709
20
1.81477494854428
30
0
41
1
10
49.3426170898453
20
1.80081659662471
30
0
0
SPLINE
5
E7
100
AcDbEntity
8
1
62
256
6
ByLayer
370
18
48
1
60
0
100
AcDbSpline
70
4
71
3
72
35
73
31
40
0
40
0
40
0
40
0
40
0.0625000000000179
40
0.0625000000000179
40
0.125000000000036
40
0.187500000000054
40
0.187500000000054
40
0.218750000000063
40
0.218750000000063
40
0.250000000000072
40
0.250000000000072
40
0.375000000000074
40
0.375000000000074
40
0.40625000000008
40
0.40625000000008
40
0.437500000000085
40
0.437500000000085
40
0.500000000000076
40
0.500000000000076
40
0.625000000000057
40
0.625000000000057
40
0.687500000000047
40
0.687500000000047
40
0.750000000000038
40
0.750000000000038
40
0.875000000000019
40
0.875000000000019
40
0.937500000000009
40
0.937500000000009
40
1
40
1
40
1
40
1
41
1
10
53.8765401907407
20
-0.237910764908349
30
0
41
1
10
53.8895771796645
20
-0.204292188559094
30
0
41
1
10
53.9042811770843
20
-0.171704511276801
30
0
41
1
10
53.9366471421558
20
-0.108375984414721
30
0
41
1
10
53.9719733859513
20
-0.0468956503632683
30
0
41
1
10
54.0128264362316
20
0.0111094376486847
30
0
41
1
10
54.0454990088442
20
0.0533302956750958
30
0
41
1
10
54.0567510743072
20
0.0672144151462248
30
0
41
1
10
54.0798432309197
20
0.0944358312738416
30
0
41
1
10
54.0916386124667
20
0.107722941923527
30
0
41
1
10
54.1518290273222
20
0.172585603204851
30
0
41
1
10
54.2038295036496
20
0.219484042815168
30
0
41
1
10
54.2735960839166
20
0.272056674246386
30
0
41
1
10
54.2877898505277
20
0.28226615622691
30
0
41
1
10
54.3166655663077
20
0.302070037698144
30
0
41
1
10
54.3313835316664
20
0.311686106771873
30
0
41
1
10
54.375964933232
20
0.339403597630252
30
0
41
1
10
54.406247073026
20
0.356383478262984
30
0
41
1
10
54.4987622553771
20
0.403009860338557
30
0
41
1
10
54.5626507022803
20
0.428368820053407
30
0
41
1
10
54.6619889699223
20
0.457995327373112
30
0
41
1
10
54.6957930139952
20
0.466472512524206
30
0
41
1
10
54.7634775885558
20
0.480376065735413
30
0
41
1
10
54.7974780894016
20
0.48584742654603
30
0
41
1
10
54.8999902935795
20
0.498036252233817
30
0
41
1
10
54.9690117370046
20
0.500544585515001
30
0
41
1
10
55.0737249406262
20
0.496380713998832
30
0
41
1
10
55.1088360536377
20
0.493657584150981
30
0
41
1
10
55.1787286880521
20
0.485717048927313
30
0
41
1
10
55.213605098904
20
0.480498274317426
30
0
41
1
10
55.2484275447015
20
0.474092923667769
30
0
0
SPLINE
5
E8
100
AcDbEntity
8
1
62
256
6
ByLayer
370
18
48
1
60
0
100
AcDbSpline
70
4
71
3
72
76
73
72
40
0
40
0
40
0
40
0
40
0.004886615453515
40
0.0097003582310422
40
0.0144412200807115
40
0.019109193604276
40
0.0237042722293429
40
0.0282264501821559
40
0.0326757224609728
40
0.0370520848098864
40
0.0413555336934736
40
0.0455860662720356
40
0.0497436803775556
40
0.0538283744904748
40
0.0578401477173462
40
0.0617789997692975
40
0.065644930941566
40
0.0694379420939719
40
0.0731580346325381
40
0.0768052104924114
40
0.0803794721218533
40
0.0838808224678781
40
0.0873092649632546
40
0.0906648035152441
40
0.0939474424961916
40
0.0971571867360216
40
0.100294041517097
40
0.103358012571459
40
0.106349106080838
40
0.109267328679793
40
0.112112687462327
40
0.11488518999246
40
0.117584844319326
40
0.12021165899746
40
0.122765643113028
40
0.12524680631707
40
0.127655158866705
40
0.147306309715165
40
0.16648162738215
40
0.185183151866935
40
0.203413177525542
40
0.221174265880969
40
0.238469260643504
40
0.255301305266307
40
0.306222287436298
40
0.357105726660576
40
0.408052622407368
40
0.459165103683821
40
0.510545917121347
40
0.52840901243227
40
0.546671368814495
40
0.565336633197005
40
0.584408202904172
40
0.603889246786037
40
0.623782724591463
40
0.644091404720733
40
0.664817880487586
40
0.685964585012486
40
0.707533804861775
40
0.729527692538674
40
0.751948277924241
40
0.774797478758927
40
0.798077110247633
40
0.821788893864764
40
0.845934465428728
40
0.870515382509736
40
0.895533131229069
40
0.920989132502835
40
0.94688474777847
40
0.973221284308322
40
1
40
1
40
1
40
1
41
1
10
14.4368355711998
20
-0.566381431268525
30
0
41
1
10
14.4351561290885
20
-0.553819897809802
30
0
41
1
10
14.431822289898
20
-0.528884157389911
30
0
41
1
10
14.4268436999306
20
-0.491788177441549
30
0
41
1
10
14.4219269040346
20
-0.455275187795166
30
0
41
1
10
14.4170695592247
20
-0.419347825888025
30
0
41
1
10
14.4122706386366
20
-0.384006361094066
30
0
41
1
10
14.4075289271629
20
-0.349251483222616
30
0
41
1
10
14.4028434090822
20
-0.315083581499835
30
0
41
1
10
14.3982131604633
20
-0.281502942177298
30
0
41
1
10
14.3936373712419
20
-0.248509705613429
30
0
41
1
10
14.3891153334585
20
-0.216103886140587
30
0
41
1
10
14.3846464384312
20
-0.184285375376589
30
0
41
1
10
14.3802301716782
20
-0.153053949722221
30
0
41
1
10
14.37586610852
20
-0.122409276620772
30
0
41
1
10
14.3715539095962
20
-0.0923509209930842
30
0
41
1
10
14.3672933164984
20
-0.0628783514775648
30
0
41
1
10
14.3630841474709
20
-0.0339909465685366
30
0
41
1
10
14.3589262931914
20
-0.0056880006269466
30
0
41
1
10
14.3548197126298
20
0.0220312702311674
30
0
41
1
10
14.3507644289915
20
0.0491677223723457
30
0
41
1
10
14.3467605257381
20
0.0757222790085734
30
0
41
1
10
14.3428081426949
20
0.101695924687846
30
0
41
1
10
14.3389074722405
20
0.127089699912176
30
0
41
1
10
14.3350587555798
20
0.151904695883303
30
0
41
1
10
14.331262279109
20
0.176142049378399
30
0
41
1
10
14.3275183708467
20
0.199802937751201
30
0
41
1
10
14.3238273970174
20
0.222888574072613
30
0
41
1
10
14.3201897584894
20
0.24540020236438
30
0
41
1
10
14.3166058881389
20
0.267339093091465
30
0
41
1
10
14.3130762452811
20
0.288706538316404
30
0
41
1
10
14.309601321054
20
0.309503848661478
30
0
41
1
10
14.3061816048841
20
0.32973234437199
30
0
41
1
10
14.3028176909323
20
0.34939336812343
30
0
41
1
10
14.2995098834949
20
0.36848822052292
30
0
41
1
10
14.2962595956707
20
0.387018372814339
30
0
41
1
10
14.2854065890947
20
0.448042760783494
30
0
41
1
10
14.2663475327934
20
0.550094505268618
30
0
41
1
10
14.2376641076381
20
0.691176413402786
30
0
41
1
10
14.2075178349154
20
0.827463151109356
30
0
41
1
10
14.1759255188068
20
0.959001682013252
30
0
41
1
10
14.142909951674
20
1.08585495522459
30
0
41
1
10
14.1085008626199
20
1.20810005141874
30
0
41
1
10
14.0483048345758
20
1.4063586587815
30
0
41
1
10
13.9529090704173
20
1.67697867482386
30
0
41
1
10
13.8084792907866
20
2.01375339107219
30
0
41
1
10
13.6433227251836
20
2.33984385264526
30
0
41
1
10
13.4583677443221
20
2.65662168616791
30
0
41
1
10
13.2994497727093
20
2.89776037094583
30
0
41
1
10
13.1777516688415
20
3.06986835878553
30
0
41
1
10
13.0996435418698
20
3.17664769732292
30
0
41
1
10
13.0180045270476
20
3.28482339458563
30
0
41
1
10
12.9328541188201
20
3.3944198556409
30
0
41
1
10
12.8442187514452
20
3.50546200756335
30
0
41
1
10
12.7521232072246
20
3.61797501531663
30
0
41
1
10
12.6565929046701
20
3.73198426334218
30
0
41
1
10
12.5576531808154
20
3.84751526755772
30
0
41
1
10
12.4553294098185
20
3.96459361051967
30
0
41
1
10
12.349646895049
20
4.08324487402143
30
0
41
1
10
12.2406308285692
20
4.20349457631534
30
0
41
1
10
12.1283062359214
20
4.32536811143271
30
0
41
1
10
12.0126979316523
20
4.44889069307752
30
0
41
1
10
11.8938304673273
20
4.57408729524437
30
0
41
1
10
11.7717281194878
20
4.70098261886196
30
0
41
1
10
11.6464147410032
20
4.82960097185381
30
0
41
1
10
11.5179141506951
20
4.95996649411856
30
0
41
1
10
11.3862484737304
20
5.09210207275439
30
0
41
1
10
11.2514443483321
20
5.22603328846066
30
0
41
1
10
11.1135090124907
20
5.361773101045
30
0
41
1
10
10.9725217393886
20
5.49938030056589
30
0
41
1
10
10.8771584193283
20
5.59151541847308
30
0
41
1
10
10.8290798142478
20
5.63796648524698
30
0
0
SPLINE
5
E9
100
AcDbEntity
8
1
62
256
6
ByLayer
370
18
48
1
60
0
100
AcDbSpline
70
4
71
5
72
21
73
15
40
0
40
0
40
0
40
0
40
0
40
0
40
0.276931057614622
40
0.346163822018278
40
0.450012968623761
40
0.553862115229245
40
0.6230948796329
40
0.692327644036556
40
0.796176790642039
40
0.900025937247522
40
0.969258701651178
40
1
40
1
40
1
40
1
40
1
40
1
41
1
10
14.4312871176813
20
-0.586160122731883
30
0
41
1
10
14.9897670105594
20
-0.839682992586262
30
0
41
1
10
15.6878668766567
20
-1.15484293335857
30
0
41
1
10
16.5953967025836
20
-1.55967465808339
30
0
41
1
10
17.7123564883394
20
-2.04608761933514
30
0
41
1
10
18.968936247315
20
-2.56995116474712
30
0
41
1
10
19.8066560866319
20
-2.90772767677916
30
0
41
1
10
20.7141859125586
20
-3.2594238215228
30
0
41
1
10
21.6217157384854
20
-3.5953730329816
30
0
41
1
10
22.4594355778023
20
-3.88959307934348
30
0
41
1
10
23.2195306464483
20
-4.1408046800469
30
0
41
1
10
23.8400057418747
20
-4.33355035902881
30
0
41
1
10
24.2510508774719
20
-4.4555608158378
30
0
41
1
10
24.4526660532398
20
-4.51400986838206
30
0
41
1
10
24.5146612557883
20
-4.53184962874724
30
0
0
SPLINE
5
EA
100
AcDbEntity
8
1
62
256
6
ByLayer
370
18
48
1
60
0
100
AcDbSpline
70
4
71
5
72
15
73
9
40
0
40
0
40
0
40
0
40
0
40
0
40
0.193789382136181
40
0.471092795297198
40
0.887047915038725
40
1
40
1
40
1
40
1
40
1
40
1
41
1
10
17.5999999081773
20
9.90242919905168
30
0
41
1
10
17.5024285583131
20
9.89180624491144
30
0
41
1
10
17.2652372352293
20
9.86423373894189
30
0
41
1
10
16.8186159523164
20
9.80432613368154
30
0
41
1
10
16.315124229557
20
9.71991404789401
30
0
41
1
10
15.8116325067977
20
9.61670616957059
30
0
41
1
10
15.4057121339025
20
9.52146162985457
30
0
41
1
10
15.1394117342268
20
9.45385658421176
30
0
41
1
10
15.0825412943804
20
9.43918608523069
30
0
0
SPLINE
5
EB
100
AcDbEntity
8
1
62
256
6
ByLayer
370
18
48
1
60
0
100
AcDbSpline
70
4
71
3
72
10
73
6
40
0
40
0
40
0
40
0
40
0.472756287715108
40
0.472756287715108
40
1
40
1
40
1
40
1
41
1
10
11.0490206101976
20
7.95098742274206
30
0
41
1
10
11.684644700067
20
8.2521561139994
30
0
41
1
10
12.3202687899364
20
8.52388081525811
30
0
41
1
10
13.6647756878593
20
9.02992642683543
30
0
41
1
10
14.3736584959128
20
9.25632010208253
30
0
41
1
10
15.0825413039663
20
9.43918600603624
30
0
0
SPLINE
5
EC
100
AcDbEntity
8
1
62
256
6
ByLayer
370
18
48
1
60
0
100
AcDbSpline
70
4
71
5
72
44
73
38
40
0
40
0
40
0
40
0
40
0
40
0
40
0.0784080421850568
40
0.101183408254204
40
0.135346457357924
40
0.169509506461644
40
0.192284872530791
40
0.215060238599938
40
0.249223287703658
40
0.283386336807378
40
0.306161702876525
40
0.340324751980245
40
0.363100118049392
40
0.397263167153112
40
0.420038533222259
40
0.454201582325979
40
0.488364631429699
40
0.511139997498846
40
0.545303046602566
40
0.568078412671713
40
0.602241461775433
40
0.62501682784458
40
0.6591798769483
40
0.69334292605202
40
0.716118292121167
40
0.738893658190314
40
0.773056707294034
40
0.807219756397754
40
0.829995122466901
40
0.864158171570621
40
0.898321220674341
40
0.921096586743488
40
0.943871952812635
40
0.978035001916355
40
1
40
1
40
1
40
1
40
1
40
1
41
1
10
14.8203599534599
20
5.82890141106941
30
0
41
1
10
15.3010252791821
20
5.81550421994532
30
0
41
1
10
15.9213105781238
20
5.78495533308123
30
0
41
1
10
16.751025836895
20
5.72128999445215
30
0
41
1
10
17.7901710554951
20
5.60383683101063
30
0
41
1
10
18.968936247315
20
5.41862581150301
30
0
41
1
10
19.8066560866319
20
5.26282559865686
30
0
41
1
10
20.7141859125586
20
5.06870154618062
30
0
41
1
10
21.6217157384854
20
4.85008957459746
30
0
41
1
10
22.4594355778023
20
4.62655508297738
30
0
41
1
10
23.3669654037291
20
4.36203120028293
30
0
41
1
10
24.2744952296558
20
4.07436369089424
30
0
41
1
10
25.1820250555825
20
3.76708179397951
30
0
41
1
10
26.0197448948995
20
3.46656181383955
30
0
41
1
10
26.9272747208262
20
3.12433012060816
30
0
41
1
10
27.8348045467529
20
2.76691462829771
30
0
41
1
10
28.7423343726796
20
2.39474489076187
30
0
41
1
10
29.6498641986064
20
2.01100063820178
30
0
41
1
10
30.5573940245331
20
1.61662241520861
30
0
41
1
10
31.4649238504598
20
1.21453092805436
30
0
41
1
10
32.3026436897768
20
0.837859697245563
30
0
41
1
10
33.2101735157035
20
0.425851957917274
30
0
41
1
10
34.1177033416302
20
0.011684246423556
30
0
41
1
10
35.025233167557
20
-0.402602199437524
30
0
41
1
10
35.8629530068739
20
-0.783224245700978
30
0
41
1
10
36.7704828328007
20
-1.19157663392315
30
0
41
1
10
37.6780126587273
20
-1.59417227543113
30
0
41
1
10
38.5157324980443
20
-1.95887099588984
30
0
41
1
10
39.4232623239711
20
-2.34449347006137
30
0
41
1
10
40.4006021365075
20
-2.74630545749398
30
0
41
1
10
41.3081319624343
20
-3.10487177225949
30
0
41
1
10
42.1458518017512
20
-3.42200366108798
30
0
41
1
10
43.0533816276779
20
-3.74886147123888
30
0
41
1
10
43.886133662917
20
-4.03216798820043
30
0
41
1
10
44.5094557383269
20
-4.23229222029286
30
0
41
1
10
44.9931578405172
20
-4.37994217638123
30
0
41
1
10
45.3372399694881
20
-4.48094875115979
30
0
41
1
10
45.4718921386297
20
-4.51985110222364
30
0
0
SPLINE
5
ED
100
AcDbEntity
8
1
62
256
6
ByLayer
370
18
48
1
60
0
100
AcDbSpline
70
4
71
3
72
102
73
98
40
0
40
0
40
0
40
0
40
0.0312499999999778
40
0.0312499999999778
40
0.0624999999999557
40
0.0624999999999557
40
0.0781249999999446
40
0.0781249999999446
40
0.0937499999999335
40
0.0937499999999335
40
0.12499999999992
40
0.12499999999992
40
0.132812499999917
40
0.132812499999917
40
0.140624999999913
40
0.140624999999913
40
0.156249999999913
40
0.156249999999913
40
0.187499999999911
40
0.187499999999911
40
0.203124999999911
40
0.203124999999911
40
0.21874999999991
40
0.21874999999991
40
0.249999999999909
40
0.249999999999909
40
0.265624999999908
40
0.265624999999908
40
0.281249999999908
40
0.281249999999908
40
0.312499999999906
40
0.312499999999906
40
0.328124999999905
40
0.328124999999905
40
0.343749999999904
40
0.343749999999904
40
0.374999999999908
40
0.374999999999908
40
0.390624999999913
40
0.390624999999913
40
0.406249999999918
40
0.406249999999918
40
0.437499999999929
40
0.437499999999929
40
0.45312499999993
40
0.45312499999993
40
0.46874999999993
40
0.46874999999993
40
0.499999999999932
40
0.531249999999934
40
0.531249999999934
40
0.546874999999935
40
0.546874999999935
40
0.562499999999936
40
0.562499999999936
40
0.593749999999927
40
0.593749999999927
40
0.624999999999918
40
0.624999999999918
40
0.640624999999913
40
0.640624999999913
40
0.656249999999908
40
0.656249999999908
40
0.687499999999899
40
0.687499999999899
40
0.703124999999895
40
0.703124999999895
40
0.71874999999989
40
0.71874999999989
40
0.749999999999881
40
0.749999999999881
40
0.781249999999872
40
0.781249999999872
40
0.789062499999873
40
0.789062499999873
40
0.796874999999875
40
0.812499999999878
40
0.812499999999878
40
0.843749999999885
40
0.843749999999885
40
0.851562499999888
40
0.851562499999888
40
0.859374999999891
40
0.859374999999891
40
0.874999999999901
40
0.874999999999901
40
0.906249999999925
40
0.906249999999925
40
0.921874999999937
40
0.921874999999937
40
0.93749999999995
40
0.93749999999995
40
0.968749999999975
40
0.968749999999975
40
0.984374999999987
40
0.984374999999987
40
1
40
1
40
1
40
1
41
1
10
49.3426170898464
20
1.8008165966246
30
0
41
1
10
49.305354321383
20
1.79115094646218
30
0
41
1
10
49.269206998973
20
1.77929170160624
30
0
41
1
10
49.1992492404642
20
1.75101760699761
30
0
41
1
10
49.16543703994
20
1.73460619448576
30
0
41
1
10
49.116674169153
20
1.70619547300251
30
0
41
1
10
49.1007507188064
20
1.69608065143109
30
0
41
1
10
49.0701973197653
20
1.67492270161131
30
0
41
1
10
49.0554877072505
20
1.6638358817807
30
0
41
1
10
49.0130781804084
20
1.62903510589948
30
0
41
1
10
48.9870872111345
20
1.60379098523262
30
0
41
1
10
48.9576527569521
20
1.56948670112564
30
0
41
1
10
48.9519193978209
20
1.56248758568535
30
0
41
1
10
48.9407683495616
20
1.54820448212303
30
0
41
1
10
48.9353450707854
20
1.54091042855166
30
0
41
1
10
48.9197347656735
20
1.51884004273131
30
0
41
1
10
48.9101444481309
20
1.50380066033335
30
0
41
1
10
48.8837611969284
20
1.45772004687822
30
0
41
1
10
48.8693429980883
20
1.42572221812662
30
0
41
1
10
48.8524653186949
20
1.37576161346826
30
0
41
1
10
48.8476183289903
20
1.35869363310016
30
0
41
1
10
48.8396717239251
20
1.32444754101505
30
0
41
1
10
48.8365540715786
20
1.30724679709658
30
0
41
1
10
48.8296510258531
20
1.25540733553143
30
0
41
1
10
48.828301462083
20
1.22053280560374
30
0
41
1
10
48.830972214867
20
1.16770619820267
30
0
41
1
10
48.8326567868826
20
1.15001435543141
30
0
41
1
10
48.8374959191347
20
1.115027607694
30
0
41
1
10
48.8406523596162
20
1.09765840947662
30
0
41
1
10
48.8522315979955
20
1.04589350136038
30
0
41
1
10
48.862752217752
20
1.01183819668992
30
0
41
1
10
48.8825790254542
20
0.961366291532926
30
0
41
1
10
48.8898652772456
20
0.944661142426384
30
0
41
1
10
48.9055503355912
20
0.911914736150266
30
0
41
1
10
48.9139719436263
20
0.895812426548872
30
0
41
1
10
48.9409088215979
20
0.848280633296127
30
0
41
1
10
48.9610871907294
20
0.817621706265498
30
0
41
1
10
48.9946048429491
20
0.773119278171293
30
0
41
1
10
49.0063611761375
20
0.758488616167909
30
0
41
1
10
49.0307699585236
20
0.729965250840252
30
0
41
1
10
49.0433949506287
20
0.716097738005146
30
0
41
1
10
49.0824916584306
20
0.675639045881098
30
0
41
1
10
49.1101791273673
20
0.650185771782276
30
0
41
1
10
49.1541039838508
20
0.614248450076161
30
0
41
1
10
49.1691460833351
20
0.602644635171089
30
0
41
1
10
49.2000426536318
20
0.5801996827187
30
0
41
1
10
49.2159539329064
20
0.569323208818417
30
0
41
1
10
49.2644688490069
20
0.538171526529482
30
0
41
1
10
49.3310927926416
20
0.50060528400607
30
0
41
1
10
49.4015103922983
20
0.470826020233943
30
0
41
1
10
49.4557966028139
20
0.451522631222247
30
0
41
1
10
49.4741526286315
20
0.445590923274494
30
0
41
1
10
49.5113177834001
20
0.434799431639704
30
0
41
1
10
49.5299465612086
20
0.429991167926147
30
0
41
1
10
49.5859727177955
20
0.417303677454726
30
0
41
1
10
49.6235092628898
20
0.411154152368482
30
0
41
1
10
49.6989761455362
20
0.403526898452469
30
0
41
1
10
49.7369063044345
20
0.402047731128789
30
0
41
1
10
49.794130831832
20
0.403568659649863
30
0
41
1
10
49.8132147583024
20
0.404705685472152
30
0
41
1
10
49.8508960906923
20
0.40820911618485
30
0
41
1
10
49.8695654273066
20
0.41057654471669
30
0
41
1
10
49.9250678571989
20
0.419518488229301
30
0
41
1
10
49.9613979849081
20
0.427923557554664
30
0
41
1
10
50.0148735128499
20
0.444324529110588
30
0
41
1
10
50.032528113205
20
0.450425929093996
30
0
41
1
10
50.0674855767799
20
0.463948745466638
30
0
41
1
10
50.0847989262542
20
0.471383094793282
30
0
41
1
10
50.1353153776395
20
0.495318797474994
30
0
41
1
10
50.1674070085322
20
0.513552002246001
30
0
41
1
10
50.2284261091098
20
0.554586508693433
30
0
41
1
10
50.2573550973757
20
0.577385678361168
30
0
41
1
10
50.2914000974549
20
0.608941363468659
30
0
41
1
10
50.2981125039123
20
0.615417166384219
30
0
41
1
10
50.3112018482838
20
0.628564316590968
30
0
41
1
10
50.3303728935122
20
0.648613791671778
30
0
41
1
10
50.3481688349273
20
0.669638676739396
30
0
41
1
10
50.3819318786244
20
0.712981169641893
30
0
41
1
10
50.4020144622265
20
0.743591817542267
30
0
41
1
10
50.4239241027889
20
0.784088299222077
30
0
41
1
10
50.4281453736498
20
0.792299886557345
30
0
41
1
10
50.4362583962129
20
0.808952555875891
30
0
41
1
10
50.4401591463712
20
0.817415285643591
30
0
41
1
10
50.4512655887256
20
0.842952781699665
30
0
41
1
10
50.4578865038766
20
0.860185932485734
30
0
41
1
10
50.4754354977994
20
0.912490572154553
30
0
41
1
10
50.4840638903736
20
0.948163926828073
30
0
41
1
10
50.4922863295046
20
1.00286526668131
30
0
41
1
10
50.4942369867427
20
1.02129842727126
30
0
41
1
10
50.4964937959946
20
1.05857169432099
30
0
41
1
10
50.4967842374951
20
1.07722301066559
30
0
41
1
10
50.495197231522
20
1.13279529822716
30
0
41
1
10
50.490885930355
20
1.16951445527505
30
0
41
1
10
50.4796123547026
20
1.22406693972852
30
0
41
1
10
50.4750500869854
20
1.24216310093158
30
0
41
1
10
50.4642896266939
20
1.27817027450314
30
0
41
1
10
50.4581176967639
20
1.29598407947418
30
0
41
1
10
50.4511952464736
20
1.31352146196031
30
0
0
SPLINE
5
EE
100
AcDbEntity
8
1
62
256
6
ByLayer
370
18
48
1
60
0
100
AcDbSpline
70
4
71
5
72
28
73
22
40
0
40
0
40
0
40
0
40
0
40
0
40
0.0137353985137088
40
0.0656192748526728
40
0.117503151191636
40
0.195328965700082
40
0.273154780208528
40
0.325038656547492
40
0.402864471055937
40
0.480690285564383
40
0.532574161903347
40
0.584458038242311
40
0.662283852750757
40
0.740109667259202
40
0.791993543598166
40
0.869819358106612
40
0.921703234445576
40
0.999529048954022
40
1
40
1
40
1
40
1
40
1
40
1
41
1
10
35.8875725681784
20
5.71622340639581
30
0
41
1
10
35.9245346478833
20
5.71277234046212
30
0
41
1
10
36.1011167008078
20
5.6960006027559
30
0
41
1
10
36.4173187269517
20
5.66353494403791
30
0
41
1
10
36.9429507129249
20
5.60236054236225
30
0
41
1
10
37.6780126587273
20
5.50023510247468
30
0
41
1
10
38.5157324980444
20
5.35924986383844
30
0
41
1
10
39.4232623239711
20
5.18061300700532
30
0
41
1
10
40.4006021365075
20
4.95861375393133
30
0
41
1
10
41.3081319624343
20
4.72608976871211
30
0
41
1
10
42.1458518017512
20
4.49036676901162
30
0
41
1
10
43.0533816276779
20
4.21343430495369
30
0
41
1
10
43.9609114536047
20
3.91614589098356
30
0
41
1
10
44.7986312929217
20
3.62411775325256
30
0
41
1
10
45.7061611188483
20
3.29023749862603
30
0
41
1
10
46.6136909447752
20
2.93891860225531
30
0
41
1
10
47.5212207707018
20
2.57348703541831
30
0
41
1
10
48.2205879702576
20
2.28222152537515
30
0
41
1
10
48.7803351965938
20
2.04383427513025
30
0
41
1
10
49.1306524631007
20
1.89281002891659
30
0
41
1
10
49.3413497563882
20
1.80136664597128
30
0
41
1
10
49.3426170898464
20
1.80081659662423
30
0
0
SPLINE
5
EF
100
AcDbEntity
8
1
62
256
6
ByLayer
370
18
48
1
60
0
100
AcDbSpline
70
4
71
3
72
92
73
88
40
0
40
0
40
0
40
0
40
0.0395702666085296
40
0.0395702666085296
40
0.0791405332170591
40
0.0791405332170591
40
0.118710799825589
40
0.118710799825589
40
0.158281066434118
40
0.158281066434118
40
0.178066199738383
40
0.178066199738383
40
0.187958766390516
40
0.187958766390516
40
0.197851333042649
40
0.197851333042649
40
0.237421599651181
40
0.237421599651181
40
0.276991866259712
40
0.276991866259712
40
0.316562132868244
40
0.316562132868244
40
0.356132399476776
40
0.356132399476776
40
0.375917532781042
40
0.375917532781042
40
0.395702666085308
40
0.395702666085308
40
0.405595232737442
40
0.405595232737442
40
0.415487799389575
40
0.415487799389575
40
0.435272932693842
40
0.435272932693842
40
0.455058065998108
40
0.455058065998108
40
0.474843199302375
40
0.474843199302375
40
0.494628332606642
40
0.494628332606642
40
0.514413465910909
40
0.514413465910909
40
0.534198599215175
40
0.534198599215175
40
0.553983732519442
40
0.553983732519442
40
0.593553999127976
40
0.593553999127976
40
0.613339132432244
40
0.613339132432244
40
0.623231699084377
40
0.623231699084377
40
0.63312426573651
40
0.63312426573651
40
0.652909399040776
40
0.652909399040776
40
0.672694532345041
40
0.672694532345041
40
0.692479665649307
40
0.692479665649307
40
0.712264798953573
40
0.712264798953573
40
0.732049932257838
40
0.732049932257838
40
0.751835065562104
40
0.751835065562104
40
0.791405332170635
40
0.791405332170635
40
0.830975598779166
40
0.830975598779166
40
0.840868165431299
40
0.840868165431299
40
0.850760732083432
40
0.850760732083432
40
0.870545865387697
40
0.870545865387697
40
0.910116131996227
40
0.910116131996227
40
0.929901265300493
40
0.929901265300493
40
0.949686398604759
40
0.949686398604759
40
0.969471531909024
40
0.969471531909024
40
0.98925666521329
40
0.98925666521329
40
1
40
1
40
1
40
1
41
1
10
58.8030721589382
20
-8.74824572583478
30
0
41
1
10
58.361394623903
20
-8.61399314895715
30
0
41
1
10
57.9214720421365
20
-8.46476070783604
30
0
41
1
10
57.0434545288441
20
-8.13793243923567
30
0
41
1
10
56.6053793869007
20
-7.96027932949502
30
0
41
1
10
55.7295283091374
20
-7.57752325000578
30
0
41
1
10
55.291710220324
20
-7.37260355405203
30
0
41
1
10
54.4146711125124
20
-6.93685710499088
30
0
41
1
10
53.9754747925542
20
-6.70586156650558
30
0
41
1
10
53.3143220166602
20
-6.34110310810647
30
0
41
1
10
53.0935464106969
20
-6.21646928765594
30
0
41
1
10
52.7616413646533
20
-6.02500270821551
30
0
41
1
10
52.6508826738211
20
-5.9604274914642
30
0
41
1
10
52.4290906960264
20
-5.82978180703574
30
0
41
1
10
52.3179739171607
20
-5.76366151185405
30
0
41
1
10
51.7633811657696
20
-5.43043920958181
30
0
41
1
10
51.3219041477753
20
-5.15500066345228
30
0
41
1
10
50.4417576435407
20
-4.58834148215755
30
0
41
1
10
50.003130915302
20
-4.29699684284978
30
0
41
1
10
49.1267179859688
20
-3.70142089706491
30
0
41
1
10
48.6889655016139
20
-3.39712672977638
30
0
41
1
10
47.8128859702213
20
-2.77721559418978
30
0
41
1
10
47.3745601218019
20
-2.46160277100819
30
0
41
1
10
46.7154573450425
20
-1.98092133428358
30
0
41
1
10
46.4954888315144
20
-1.81946572519246
30
0
41
1
10
46.0547289285504
20
-1.49466146524946
30
0
41
1
10
45.8339428730755
20
-1.33129897228758
30
0
41
1
10
45.5020103613934
20
-1.08495649909054
30
0
41
1
10
45.3912407367516
20
-1.00262478218082
30
0
41
1
10
45.169425472854
20
-0.837545847497012
30
0
41
1
10
45.058310178988
20
-0.754746540631885
30
0
41
1
10
44.7256252671112
20
-0.506589382018888
30
0
41
1
10
44.5044115808025
20
-0.341244050248861
30
0
41
1
10
44.0628527405833
20
-0.0110738643842581
30
0
41
1
10
43.8425000122145
20
0.153746136789238
30
0
41
1
10
43.4024577393961
20
0.482599054317234
30
0
41
1
10
43.1827773918833
20
0.646638947297077
30
0
41
1
10
42.7439567519302
20
0.973706641744911
30
0
41
1
10
42.5247975141381
20
1.13672020764326
30
0
41
1
10
42.0866482211512
20
1.46136777959995
30
0
41
1
10
41.8676797078102
20
1.6230158880621
30
0
41
1
10
41.4298046378219
20
1.94472057107842
30
0
41
1
10
41.2108989836009
20
2.10477742993263
30
0
41
1
10
40.7729734656563
20
2.42302618764904
30
0
41
1
10
40.5539336300691
20
2.58120980259565
30
0
41
1
10
39.8961967263265
20
3.05252411256791
30
0
41
1
10
39.4569636867078
20
3.36245495650826
30
0
41
1
10
38.7958587067697
20
3.81916374115531
30
0
41
1
10
38.575092768529
20
3.9700365288827
30
0
41
1
10
38.2431768993565
20
4.19410012651298
30
0
41
1
10
38.1324124319943
20
4.26841238973347
30
0
41
1
10
37.9106068885461
20
4.4162450538027
30
0
41
1
10
37.7995010222412
20
4.48980733410747
30
0
41
1
10
37.466852353906
20
4.70850832786755
30
0
41
1
10
37.2456660810381
20
4.85186836131354
30
0
41
1
10
36.8042076218491
20
5.13352311049797
30
0
41
1
10
36.5838913003707
20
5.27186643540267
30
0
41
1
10
36.1438870051161
20
5.54340977624256
30
0
41
1
10
35.9242175784362
20
5.67658726252196
30
0
41
1
10
35.4853702271002
20
5.93750702112732
30
0
41
1
10
35.2662019879024
20
6.06523091811366
30
0
41
1
10
34.8281191896917
20
6.31507528615876
30
0
41
1
10
34.6091722233509
20
6.43726030276932
30
0
41
1
10
34.1713252630697
20
6.67586746122754
30
0
41
1
10
33.9524335248528
20
6.79226782680399
30
0
41
1
10
33.2955299613141
20
7.13247591932927
30
0
41
1
10
32.8573030105125
20
7.34724835888869
30
0
41
1
10
31.9785166779424
20
7.75131084905587
30
0
41
1
10
31.5379750900522
20
7.94057795320663
30
0
41
1
10
30.9848104073623
20
8.15989289092784
30
0
41
1
10
30.874052624293
20
8.20289171564784
30
0
41
1
10
30.6522578476492
20
8.28714082305436
30
0
41
1
10
30.5411643706294
20
8.32841102446818
30
0
41
1
10
30.2085438241182
20
8.44916321596872
30
0
41
1
10
29.9873432537475
20
8.52570819130645
30
0
41
1
10
29.325074270508
20
8.74337396940965
30
0
41
1
10
28.8853457724042
20
8.87248752185138
30
0
41
1
10
28.2270469640986
20
9.04227929054176
30
0
41
1
10
28.0078530300439
20
9.09482832415409
30
0
41
1
10
27.5697427974697
20
9.19172637357238
30
0
41
1
10
27.3508148030775
20
9.23611354460758
30
0
41
1
10
26.9129697698145
20
9.31687091559735
30
0
41
1
10
26.6940583217492
20
9.35322586510154
30
0
41
1
10
26.2560925919193
20
9.41764956453059
30
0
41
1
10
26.0370387603647
20
9.4457108346505
30
0
41
1
10
25.6987588698954
20
9.48258013211188
30
0
41
1
10
25.579659791413
20
9.49432995240335
30
0
41
1
10
25.4604876211288
20
9.5048644237518
30
0
0
SPLINE
5
F0
100
AcDbEntity
8
1
62
256
6
ByLayer
370
18
48
1
60
0
100
AcDbSpline
70
4
71
3
72
20
73
16
40
0
40
0
40
0
40
0
40
0.125000000000001
40
0.125000000000001
40
0.250000000000001
40
0.250000000000001
40
0.5
40
0.5
40
0.624999999999999
40
0.624999999999999
40
0.749999999999998
40
0.749999999999998
40
0.874999999999999
40
0.874999999999999
40
1
40
1
40
1
40
1
41
1
10
58.3717336994485
20
-5.33885247845146
30
0
41
1
10
58.3928675122332
20
-5.47826792704427
30
0
41
1
10
58.413732959326
20
-5.6180589291059
30
0
41
1
10
58.454728719942
20
-5.89824526126378
30
0
41
1
10
58.4748456499585
20
-6.03868132147687
30
0
41
1
10
58.5340068919612
20
-6.46106021673725
30
0
41
1
10
58.571921737849
20
-6.74401968652197
30
0
41
1
10
58.6264592892962
20
-7.17056037507635
30
0
41
1
10
58.6442513630768
20
-7.31314695525214
30
0
41
1
10
58.6789364576143
20
-7.59884625135913
30
0
41
1
10
58.6958219218472
20
-7.74190253149456
30
0
41
1
10
58.7285316807685
20
-8.02849481132418
30
0
41
1
10
58.744362868661
20
-8.17202769482938
30
0
41
1
10
58.7747641624947
20
-8.45966355516779
30
0
41
1
10
58.7893391678092
20
-8.60376431715676
30
0
41
1
10
58.8030721589382
20
-8.74824572583478
30
0
0
SPLINE
5
F1
100
AcDbEntity
8
1
62
256
6
ByLayer
370
18
48
1
60
0
100
AcDbSpline
70
4
71
3
72
15
73
11
40
0
40
0
40
0
40
0
40
0.49999999999999
40
0.49999999999999
40
0.562499999999992
40
0.562499999999992
40
0.624999999999993
40
0.749999999999995
40
0.749999999999995
40
1
40
1
40
1
40
1
41
1
10
54.0366006660746
20
-1.10365717245622
30
0
41
1
10
54.6880770039996
20
-1.91250000114843
30
0
41
1
10
55.3799733055625
20
-2.67394521906363
30
0
41
1
10
56.2040662350255
20
-3.47697071033878
30
0
41
1
10
56.2963064965086
20
-3.56548755553507
30
0
41
1
10
56.4818968763423
20
-3.74087488231527
30
0
41
1
10
56.7610117538544
20
-4.00060527453289
30
0
41
1
10
57.0422629195749
20
-4.25052109562418
30
0
41
1
10
57.6074893410075
20
-4.73783767786671
30
0
41
1
10
57.987934213135
20
-5.04605099054425
30
0
41
1
10
58.3717336994484
20
-5.33885247845109
30
0
0
SPLINE
5
F2
100
AcDbEntity
8
1
62
256
6
ByLayer
370
18
48
1
60
0
100
AcDbSpline
70
4
71
3
72
22
73
18
40
0
40
0
40
0
40
0
40
0.250000000000037
40
0.250000000000037
40
0.31250000000004
40
0.31250000000004
40
0.375000000000044
40
0.375000000000044
40
0.500000000000037
40
0.500000000000037
40
0.62500000000003
40
0.62500000000003
40
0.687500000000027
40
0.687500000000027
40
0.750000000000023
40
0.750000000000023
40
1
40
1
40
1
40
1
41
1
10
54.0366006660745
20
-1.10365717245622
30
0
41
1
10
53.9878862806484
20
-1.04317564916477
30
0
41
1
10
53.9455110120467
20
-0.978898623592102
30
0
41
1
10
53.9023713489398
20
-0.892680284741658
30
0
41
1
10
53.8942401745293
20
-0.875139895870376
30
0
41
1
10
53.8790445863045
20
-0.839422380717537
30
0
41
1
10
53.8719771579041
20
-0.821220176098848
30
0
41
1
10
53.8527747576795
20
-0.766443108204584
30
0
41
1
10
53.842515543073
20
-0.729438787880753
30
0
41
1
10
53.8272814605112
20
-0.654418370904637
30
0
41
1
10
53.8223049252796
20
-0.616402596121702
30
0
41
1
10
53.819067384126
20
-0.558568633204402
30
0
41
1
10
53.8186958540946
20
-0.539088015818464
30
0
41
1
10
53.8194210786837
20
-0.500152978534118
30
0
41
1
10
53.8205098961867
20
-0.480829522055245
30
0
41
1
10
53.8294617181564
20
-0.384907224543042
30
0
41
1
10
53.8477251049341
20
-0.310368898140979
30
0
41
1
10
53.8765401907407
20
-0.237910764908321
30
0
0
SPLINE
5
F3
100
AcDbEntity
8
1
62
256
6
ByLayer
370
18
48
1
60
0
100
AcDbSpline
70
4
71
5
72
16
73
10
40
0
40
0
40
0
40
0
40
0
40
0
40
0.184020836319101
40
0.489727215146374
40
0.693531467697889
40
0.999237846525162
40
1
40
1
40
1
40
1
40
1
40
1
41
1
10
50.4511952464736
20
1.31352146196031
30
0
41
1
10
50.5772622147387
20
1.2574765357995
30
0
41
1
10
50.912759142833
20
1.10790254526117
30
0
41
1
10
51.3878760441468
20
0.89459808546502
30
0
41
1
10
52.0724229052899
20
0.584862273806863
30
0
41
1
10
52.7574918941433
20
0.27270071375176
30
0
41
1
10
53.3164939147317
20
0.01753501417042
30
0
41
1
10
53.6660659754908
20
-0.141960202632447
30
0
41
1
10
53.8760180630304
20
-0.237672738870657
30
0
41
1
10
53.8765401907407
20
-0.237910764908321
30
0
0
SPLINE
5
F4
100
AcDbEntity
8
1
62
256
6
ByLayer
370
18
48
1
60
0
100
AcDbSpline
70
4
71
5
72
46
73
40
40
0
40
0
40
0
40
0
40
0
40
0
40
0.0679952825039166
40
0.0901793130151904
40
0.123455358782101
40
0.156731404549012
40
0.178915435060286
40
0.201099465571559
40
0.23437551133847
40
0.267651557105381
40
0.289835587616655
40
0.323111633383566
40
0.345295663894839
40
0.37857170966175
40
0.400755740173024
40
0.434031785939935
40
0.467307831706845
40
0.489491862218119
40
0.52276790798503
40
0.544951938496304
40
0.578227984263214
40
0.600412014774488
40
0.633688060541399
40
0.66696410630831
40
0.689148136819583
40
0.711332167330857
40
0.744608213097768
40
0.777884258864679
40
0.800068289375953
40
0.833344335142863
40
0.866620380909774
40
0.888804411421048
40
0.910988441932322
40
0.944264487699232
40
0.977540533466143
40
0.999724563977417
40
1
40
1
40
1
40
1
40
1
40
1
41
1
10
15.0839718180151
20
5.69732965821771
30
0
41
1
10
15.5119147708263
20
5.65446301132655
30
0
41
1
10
16.079477696857
20
5.58705229101682
30
0
41
1
10
16.8564705827171
20
5.47583696520095
30
0
41
1
10
17.8428934284062
20
5.30250487645793
30
0
41
1
10
18.968936247315
20
5.06008434960827
30
0
41
1
10
19.8066560866319
20
4.85715993997624
30
0
41
1
10
20.7141859125586
20
4.61396972172656
30
0
41
1
10
21.6217157384854
20
4.34848848544644
30
0
41
1
10
22.4594355778023
20
4.08390648794827
30
0
41
1
10
23.3669654037291
20
3.77753725599104
30
0
41
1
10
24.2744952296558
20
3.45113611431975
30
0
41
1
10
25.1820250555825
20
3.10814132827321
30
0
41
1
10
26.0197448948995
20
2.77758698620008
30
0
41
1
10
26.9272747208262
20
2.40615493990731
30
0
41
1
10
27.8348045467529
20
2.02300263656588
30
0
41
1
10
28.7423343726796
20
1.62904625069629
30
0
41
1
10
29.6498641986063
20
1.22721619926961
30
0
41
1
10
30.5573940245331
20
0.818919673677897
30
0
41
1
10
31.4649238504598
20
0.406767476644518
30
0
41
1
10
32.3026436897768
20
0.0244105773254546
30
0
41
1
10
33.2101735157035
20
-0.389824883119417
30
0
41
1
10
34.1177033416302
20
-0.802278898592903
30
0
41
1
10
35.025233167557
20
-1.21052542987579
30
0
41
1
10
35.8629530068739
20
-1.58196761652385
30
0
41
1
10
36.7704828328006
20
-1.97652143808543
30
0
41
1
10
37.6780126587273
20
-2.36152628645573
30
0
41
1
10
38.5157324980443
20
-2.70655574071998
30
0
41
1
10
39.4232623239711
20
-3.06725606046467
30
0
41
1
10
40.4006021365075
20
-3.43809627776074
30
0
41
1
10
41.3081319624343
20
-3.76422248598661
30
0
41
1
10
42.1458518017512
20
-4.04846796433611
30
0
41
1
10
43.0533816276779
20
-4.33669011017111
30
0
41
1
10
43.9609114536046
20
-4.60396083247699
30
0
41
1
10
44.7986312929217
20
-4.83025407575946
30
0
41
1
10
45.4984646749407
20
-5.00129695499129
30
0
41
1
10
46.0586780837403
20
-5.12611237103565
30
0
41
1
10
46.4094615327107
20
-5.19940347205574
30
0
41
1
10
46.5508150218519
20
-5.22814020590002
30
0
41
1
10
46.5525485377735
20
-5.22849250452322
30
0
0
SPLINE
5
F5
100
AcDbEntity
8
1
62
256
6
ByLayer
370
18
48
1
60
0
100
AcDbSpline
70
4
71
3
72
101
73
97
40
0
40
0
40
0
40
0
40
0.003277670427232
40
0.003277670427232
40
0.0416131446415688
40
0.0416131446415688
40
0.0799486188559056
40
0.0799486188559056
40
0.118284093070242
40
0.118284093070242
40
0.137451830177411
40
0.137451830177411
40
0.15661956728458
40
0.15661956728458
40
0.166203435838164
40
0.166203435838164
40
0.175787304391749
40
0.175787304391749
40
0.194955041498918
40
0.194955041498918
40
0.214122778606086
40
0.214122778606086
40
0.233290515713255
40
0.233290515713255
40
0.252458252820424
40
0.252458252820424
40
0.271625989927593
40
0.271625989927593
40
0.290793727034761
40
0.290793727034761
40
0.30996146414193
40
0.30996146414193
40
0.348296938356269
40
0.348296938356269
40
0.367464675463437
40
0.367464675463437
40
0.377048544017022
40
0.377048544017022
40
0.386632412570606
40
0.386632412570606
40
0.405800149677775
40
0.405800149677775
40
0.424967886784944
40
0.424967886784944
40
0.444135623892113
40
0.444135623892113
40
0.463303360999282
40
0.463303360999282
40
0.482471098106451
40
0.482471098106451
40
0.50163883521362
40
0.50163883521362
40
0.539974309427958
40
0.539974309427958
40
0.578309783642297
40
0.578309783642297
40
0.587893652195881
40
0.587893652195881
40
0.597477520749466
40
0.597477520749466
40
0.616645257856635
40
0.616645257856635
40
0.654980732070972
40
0.654980732070972
40
0.67414846917814
40
0.67414846917814
40
0.693316206285309
40
0.693316206285309
40
0.712483943392477
40
0.712483943392477
40
0.731651680499646
40
0.731651680499646
40
0.750819417606814
40
0.750819417606814
40
0.769987154713983
40
0.769987154713983
40
0.789154891821152
40
0.798738760374735
40
0.798738760374735
40
0.808322628928319
40
0.808322628928319
40
0.827490366035487
40
0.827490366035487
40
0.846658103142655
40
0.846658103142655
40
0.88499357735699
40
0.88499357735699
40
0.904161314464159
40
0.904161314464159
40
0.923329051571327
40
0.923329051571327
40
0.942496788678495
40
0.942496788678495
40
0.961664525785663
40
0.961664525785663
40
1
40
1
40
1
40
1
41
1
10
50.9947405315792
20
-7.8320413485965
30
0
41
1
10
50.957093393871
20
-7.84823068445331
30
0
41
1
10
50.9194570138643
20
-7.86431316297515
30
0
41
1
10
50.4417576435408
20
-8.06713458388148
30
0
41
1
10
50.0031309153021
20
-8.23916457110619
30
0
41
1
10
49.1267179859689
20
-8.55379974461189
30
0
41
1
10
48.6889655016139
20
-8.6963731327522
30
0
41
1
10
47.8128859702213
20
-8.95071206211045
30
0
41
1
10
47.374560121802
20
-9.06249261013784
30
0
41
1
10
46.7154573450426
20
-9.20570505411811
30
0
41
1
10
46.4954888315145
20
-9.24932569517429
30
0
41
1
10
46.0547289285505
20
-9.32867419277528
30
0
41
1
10
45.8339428730756
20
-9.36438716023912
30
0
41
1
10
45.5020103613936
20
-9.41182909032506
30
0
41
1
10
45.3912407367517
20
-9.42661946480445
30
0
41
1
10
45.169425472854
20
-9.45410791085078
30
0
41
1
10
45.0583101789881
20
-9.46681175526444
30
0
41
1
10
44.7256252671113
20
-9.50160419202541
30
0
41
1
10
44.5044115808025
20
-9.52040894461419
30
0
41
1
10
44.0628527405833
20
-9.54949916051996
30
0
41
1
10
43.8425000122146
20
-9.55981198210765
30
0
41
1
10
43.4024577393962
20
-9.57198514154459
30
0
41
1
10
43.1827773918833
20
-9.57381767931997
30
0
41
1
10
42.7439567519303
20
-9.56874474573917
30
0
41
1
10
42.5247975141382
20
-9.56189722130588
30
0
41
1
10
42.0866482211512
20
-9.54015476128555
30
0
41
1
10
41.8676797078103
20
-9.52518352092224
30
0
41
1
10
41.429804637822
20
-9.48686487546942
30
0
41
1
10
41.2108989836011
20
-9.46351274217315
30
0
41
1
10
40.7729734656564
20
-9.40826619196875
30
0
41
1
10
40.5539336300693
20
-9.37646646108044
30
0
41
1
10
39.8961967263265
20
-9.26909894938686
30
0
41
1
10
39.4569636867079
20
-9.18119135765338
30
0
41
1
10
38.7958587067698
20
-9.02377968771964
30
0
41
1
10
38.5750927685291
20
-8.96720419764353
30
0
41
1
10
38.2431768993567
20
-8.87634423292724
30
0
41
1
10
38.1324124319945
20
-8.84503792316946
30
0
41
1
10
37.9106068885463
20
-8.78035260588459
30
0
41
1
10
37.7995010222413
20
-8.74695375438537
30
0
41
1
10
37.4668523539061
20
-8.64397523819252
30
0
41
1
10
37.2456660810382
20
-8.5714941314715
30
0
41
1
10
36.8042076218492
20
-8.41914824789538
30
0
41
1
10
36.5838913003708
20
-8.3394232586937
30
0
41
1
10
36.1438870051163
20
-8.17306032407029
30
0
41
1
10
35.9242175784364
20
-8.08636130996345
30
0
41
1
10
35.4853702271002
20
-7.90599423938417
30
0
41
1
10
35.2662019879025
20
-7.81228698189585
30
0
41
1
10
34.8281191896918
20
-7.61818095946649
30
0
41
1
10
34.609172223351
20
-7.51791674670579
30
0
41
1
10
34.1713252630698
20
-7.31092339204324
30
0
41
1
10
33.9524335248529
20
-7.20415407478052
30
0
41
1
10
33.2955299613141
20
-6.87434553912047
30
0
41
1
10
32.8573030105126
20
-6.6417331990576
30
0
41
1
10
31.9785166779424
20
-6.15287304787367
30
0
41
1
10
31.5379750900522
20
-5.89656517529858
30
0
41
1
10
30.9848104073624
20
-5.56193105722673
30
0
41
1
10
30.8740526242931
20
-5.49429187806231
30
0
41
1
10
30.6522578476493
20
-5.35762398653338
30
0
41
1
10
30.5411643706294
20
-5.28856017587887
30
0
41
1
10
30.2085438241183
20
-5.08003561009156
30
0
41
1
10
29.9873432537476
20
-4.93902529943801
30
0
41
1
10
29.3250742705082
20
-4.51040807202924
30
0
41
1
10
28.8853457724043
20
-4.21719298062246
30
0
41
1
10
28.2270469640987
20
-3.76812431914774
30
0
41
1
10
28.007853030044
20
-3.61683993629384
30
0
41
1
10
27.5697427974698
20
-3.31132795161966
30
0
41
1
10
27.3508148030776
20
-3.15712851798739
30
0
41
1
10
26.9129697698145
20
-2.84621449372116
30
0
41
1
10
26.6940583217493
20
-2.68948737010899
30
0
41
1
10
26.2560925919194
20
-2.37364795153923
30
0
41
1
10
26.0370387603648
20
-2.21453269787415
30
0
41
1
10
25.5985684966658
20
-1.89420800863135
30
0
41
1
10
25.3791491356422
20
-1.73300648312264
30
0
41
1
10
24.9397074574611
20
-1.40888859974851
30
0
41
1
10
24.7196959777668
20
-1.24593897552077
30
0
41
1
10
24.2789059044229
20
-0.918416769598764
30
0
41
1
10
23.9477294178956
20
-0.671586771234558
30
0
41
1
10
23.6154190689782
20
-0.423322697159932
30
0
41
1
10
23.3935988410114
20
-0.257530455210542
30
0
41
1
10
23.2825074551445
20
-0.174462084435646
30
0
41
1
10
22.9499143267217
20
0.074258676510766
30
0
41
1
10
22.7287222221638
20
0.239695177012493
30
0
41
1
10
22.2872461764545
20
0.569567705374283
30
0
41
1
10
22.0669847786191
20
0.734013890712788
30
0
41
1
10
21.4071087000824
20
1.22536797611403
30
0
41
1
10
20.9684051403674
20
1.55031227636041
30
0
41
1
10
20.3112356153373
20
2.03231102785023
30
0
41
1
10
20.0923397363568
20
2.19207139476524
30
0
41
1
10
19.6545242687955
20
2.50948084272844
30
0
41
1
10
19.4356144761208
20
2.66713556538275
30
0
41
1
10
18.9976328862337
20
2.98009016984665
30
0
41
1
10
18.7785609849377
20
3.13539040067846
30
0
41
1
10
18.3400837619248
20
3.44334793813579
30
0
41
1
10
18.1206790064655
20
3.59599990648792
30
0
41
1
10
17.4615341795866
20
4.049603130793
30
0
41
1
10
17.0209152580187
20
4.34621996240298
30
0
41
1
10
16.5783215925021
20
4.63580560064287
30
0
0
SPLINE
5
F6
100
AcDbEntity
8
1
62
256
6
ByLayer
370
18
48
1
60
0
100
AcDbSpline
70
4
71
3
72
16
73
12
40
0
40
0
40
0
40
0
40
0.249999999999998
40
0.249999999999998
40
0.374999999999997
40
0.374999999999997
40
0.437499999999997
40
0.437499999999997
40
0.499999999999997
40
0.499999999999997
40
1
40
1
40
1
40
1
41
1
10
59.2873627489793
20
1.73656013977097
30
0
41
1
10
59.2765487743359
20
1.57445041567834
30
0
41
1
10
59.2703893631766
20
1.41070808089361
30
0
41
1
10
59.2682524631569
20
1.16260344179412
30
0
41
1
10
59.2687244446385
20
1.07948650295819
30
0
41
1
10
59.2712293923875
20
0.954180796832446
30
0
41
1
10
59.2723647710213
20
0.912296859191287
30
0
41
1
10
59.2752277257732
20
0.828573682200869
30
0
41
1
10
59.2769557141678
20
0.786703310630543
30
0
41
1
10
59.295158154112
20
0.409791453628941
30
0
41
1
10
59.3301340597288
20
0.0742019289977236
30
0
41
1
10
59.3832460626181
20
-0.261924812449166
30
0
0
SPLINE
5
F7
100
AcDbEntity
8
1
62
256
6
ByLayer
370
18
48
1
60
0
100
AcDbSpline
70
4
71
3
72
8
73
4
40
0
40
0
40
0
40
0
40
1
40
1
40
1
40
1
41
1
10
58.9350997596181
20
-0.17858563445273
30
0
41
1
10
59.084489402523
20
-0.206365981569775
30
0
41
1
10
59.2338714104275
20
-0.234145693447488
30
0
41
1
10
59.3832460626181
20
-0.261924812449166
30
0
0
SPLINE
5
F8
100
AcDbEntity
8
1
62
256
6
ByLayer
370
18
48
1
60
0
100
AcDbSpline
70
4
71
3
72
18
73
14
40
0
40
0
40
0
40
0
40
0.312941546145388
40
0.312941546145388
40
0.469412319218083
40
0.469412319218083
40
0.547647705754431
40
0.547647705754431
40
0.62588309229078
40
0.62588309229078
40
0.938824638436176
40
0.938824638436176
40
1
40
1
40
1
40
1
41
1
10
58.9350011495087
20
-0.178568266108016
30
0
41
1
10
58.9918167626814
20
-0.190092574950313
30
0
41
1
10
59.0451025665572
20
-0.200973542003425
30
0
41
1
10
59.1162155583237
20
-0.215688243670883
30
0
41
1
10
59.1384396395559
20
-0.220323354504529
30
0
41
1
10
59.1689761118357
20
-0.226765757618665
30
0
41
1
10
59.1786871416274
20
-0.228827965300042
30
0
41
1
10
59.1970600598429
20
-0.232761164529649
30
0
41
1
10
59.2057227726137
20
-0.234632414806782
30
0
41
1
10
59.2458529189215
20
-0.24339891207066
30
0
41
1
10
59.2680869992766
20
-0.248589995583473
30
0
41
1
10
59.2782791781372
20
-0.251770396938184
30
0
41
1
10
59.2794180690599
20
-0.252193029982124
30
0
41
1
10
59.2799906461187
20
-0.2525111154321
30
0
0
SPLINE
5
F9
100
AcDbEntity
8
1
62
256
6
ByLayer
370
18
48
1
60
0
100
AcDbSpline
70
4
71
3
72
47
73
43
40
0
40
0
40
0
40
0
40
0.0058830601862709
40
0.0058830601862709
40
0.0161316884317728
40
0.0161316884317728
40
0.0981207143957956
40
0.0981207143957956
40
0.108369342641298
40
0.108369342641298
40
0.1186179708868
40
0.139115227377804
40
0.139115227377804
40
0.180109740359816
40
0.180109740359816
40
0.200606996850822
40
0.200606996850822
40
0.221104253341828
40
0.221104253341828
40
0.26209876632384
40
0.26209876632384
40
0.344087792287856
40
0.344087792287856
40
0.385082305269865
40
0.385082305269865
40
0.426076818251873
40
0.426076818251873
40
0.50806584421589
40
0.50806584421589
40
0.590054870179907
40
0.590054870179907
40
0.672043896143924
40
0.672043896143924
40
0.754032922107941
40
0.754032922107941
40
0.836021948071958
40
0.836021948071958
40
0.877016461053967
40
0.877016461053967
40
0.918010974035975
40
0.918010974035975
40
1
40
1
40
1
40
1
41
1
10
59.2677249802065
20
-0.252227596162982
30
0
41
1
10
59.2665011951352
20
-0.252079563500388
30
0
41
1
10
59.2651861860894
20
-0.251914556607716
30
0
41
1
10
59.2613378157678
20
-0.251416296374657
30
0
41
1
10
59.2586214075305
20
-0.251048755616495
30
0
41
1
10
59.2317227598558
20
-0.247280565212776
30
0
41
1
10
59.1903133691281
20
-0.240644440424319
30
0
41
1
10
59.1241538644288
20
-0.229502568507485
30
0
41
1
10
59.1165180323536
20
-0.228211344956947
30
0
41
1
10
59.1007837044218
20
-0.225540626862966
30
0
41
1
10
59.0765015614496
20
-0.221404471110702
30
0
41
1
10
59.0502492391698
20
-0.2168917961734
30
0
41
1
10
58.9952938250376
20
-0.207398081942159
30
0
41
1
10
58.9553937515398
20
-0.200445325156551
30
0
41
1
10
58.8912637288658
20
-0.189198259785769
30
0
41
1
10
58.869175244898
20
-0.185313204679346
30
0
41
1
10
58.8236438355298
20
-0.177284248389498
30
0
41
1
10
58.8001598683452
20
-0.173132981594364
30
0
41
1
10
58.7284121552674
20
-0.160422184079664
30
0
41
1
10
58.678665011395
20
-0.151572755297479
30
0
41
1
10
58.5244759737952
20
-0.124054329827686
30
0
41
1
10
58.4151230812176
20
-0.104422372036026
30
0
41
1
10
58.243741482336
20
-0.0735327855666981
30
0
41
1
10
58.1853646335026
20
-0.0629914480017817
30
0
41
1
10
58.0665175981507
20
-0.0414973930036808
30
0
41
1
10
58.0065245768415
20
-0.0306309977441117
30
0
41
1
10
57.8251192135694
20
0.002267139873851
30
0
41
1
10
57.7022961253842
20
0.0245945741425544
30
0
41
1
10
57.4539076349938
20
0.0698242307307737
30
0
41
1
10
57.3283343577893
20
0.092728103647346
30
0
41
1
10
57.075083723314
20
0.138976863919794
30
0
41
1
10
56.9474026612837
20
0.162322527791986
30
0
41
1
10
56.6903733077987
20
0.209363306235332
30
0
41
1
10
56.5610230674852
20
0.233058829286591
30
0
41
1
10
56.3009681540848
20
0.280733764020397
30
0
41
1
10
56.1702626263533
20
0.304713354836167
30
0
41
1
10
55.9733697699301
20
0.340857665552818
30
0
41
1
10
55.9075774499146
20
0.352939033499553
30
0
41
1
10
55.7759553455628
20
0.377115267483219
30
0
41
1
10
55.710102314162
20
0.389214399259515
30
0
41
1
10
55.5124282537827
20
0.425541960168374
30
0
41
1
10
55.3804926634316
20
0.449800448665542
30
0
41
1
10
55.2484275447139
20
0.474092923665495
30
0
0
SPLINE
5
FA
100
AcDbEntity
8
1
62
256
6
ByLayer
370
18
48
1
60
0
100
AcDbSpline
70
4
71
3
72
49
73
45
40
0
40
0
40
0
40
0
40
0.0459928717791488
40
0.0459928717791488
40
0.0919857435582976
40
0.0919857435582976
40
0.137978615337446
40
0.137978615337446
40
0.183971487116595
40
0.183971487116595
40
0.229964358895744
40
0.229964358895744
40
0.275957230674893
40
0.275957230674893
40
0.321950102454042
40
0.321950102454042
40
0.367942974233191
40
0.413935846012339
40
0.413935846012339
40
0.459928717791488
40
0.459928717791488
40
0.505921589570637
40
0.505921589570637
40
0.551914461349786
40
0.551914461349786
40
0.597907333128935
40
0.597907333128935
40
0.643900204908083
40
0.643900204908083
40
0.689893076687232
40
0.689893076687232
40
0.735885948466381
40
0.735885948466381
40
0.78187882024553
40
0.78187882024553
40
0.827871692024679
40
0.827871692024679
40
0.873864563803827
40
0.873864563803827
40
0.919857435582976
40
0.919857435582976
40
0.965850307362125
40
0.965850307362125
40
1
40
1
40
1
40
1
41
1
10
58.9350354639466
20
-0.178595071205706
30
0
41
1
10
58.504462147604
20
0.157751966175624
30
0
41
1
10
58.0738888312613
20
0.494401866019217
30
0
41
1
10
57.2127421985761
20
1.16488387926466
30
0
41
1
10
56.7821688822333
20
1.49871483393747
30
0
41
1
10
55.9210222495481
20
2.16016179477916
30
0
41
1
10
55.4904489332054
20
2.48777665764052
30
0
41
1
10
54.6293023005201
20
3.13345751683107
30
0
41
1
10
54.1987289841774
20
3.45152239736791
30
0
41
1
10
53.3375823514919
20
4.07486654436156
30
0
41
1
10
52.9070090351493
20
4.38014473425673
30
0
41
1
10
52.045862402464
20
4.97480886260752
30
0
41
1
10
51.6152890861213
20
5.264193772265
30
0
41
1
10
50.754142453436
20
5.82412642877279
30
0
41
1
10
50.3235691370934
20
6.09467320564838
30
0
41
1
10
49.4624225044081
20
6.61417636956034
30
0
41
1
10
48.6012758717227
20
7.11208735173386
30
0
41
1
10
47.7401292390373
20
7.56174970267071
30
0
41
1
10
46.878982606352
20
7.98499930705992
30
0
41
1
10
46.4484092900094
20
8.18341741482541
30
0
41
1
10
45.5872626573239
20
8.55182244913382
30
0
41
1
10
45.1566893409812
20
8.72180873937288
30
0
41
1
10
44.2955427082959
20
9.03162021653699
30
0
41
1
10
43.8649693919531
20
9.17144486375739
30
0
41
1
10
43.0038227592678
20
9.41951005340792
30
0
41
1
10
42.5732494429252
20
9.52775016668556
30
0
41
1
10
41.7121028102398
20
9.71154468711993
30
0
41
1
10
41.281529493897
20
9.78709878011753
30
0
41
1
10
40.4203828612117
20
9.90475228580863
30
0
41
1
10
39.989809544869
20
9.94685149675897
30
0
41
1
10
39.1286629121836
20
9.99716670623084
30
0
41
1
10
38.6980895958409
20
10.0053826182057
30
0
41
1
10
37.8369429631556
20
9.98784750123781
30
0
41
1
10
37.4063696468129
20
9.96209650192887
30
0
41
1
10
36.5452230141274
20
9.8768894909945
30
0
41
1
10
36.1146496977848
20
9.81743362529159
30
0
41
1
10
35.2535030650994
20
9.6654217952576
30
0
41
1
10
34.8229297487567
20
9.5728660954664
30
0
41
1
10
33.9617831160713
20
9.35559634923075
30
0
41
1
10
33.5312097997286
20
9.23088267912814
30
0
41
1
10
32.6700631670432
20
8.95056599688175
30
0
41
1
10
32.2394898507005
20
8.7949634689563
30
0
41
1
10
31.489215984199
20
8.49829326605627
30
0
41
1
10
31.1695154340403
20
8.36380063113083
30
0
41
1
10
30.8498148838816
20
8.22161490075848
30
0
0
SPLINE
5
FB
100
AcDbEntity
8
1
62
256
6
ByLayer
370
18
48
1
60
0
100
AcDbSpline
70
4
71
3
72
42
73
38
40
0
40
0
40
0
40
0
40
0.0276546271349282
40
0.0276546271349282
40
0.0848514137740501
40
0.0848514137740501
40
0.142048200413172
40
0.142048200413172
40
0.199244987052294
40
0.199244987052294
40
0.256441773691416
40
0.256441773691416
40
0.313638560330538
40
0.313638560330538
40
0.370835346969659
40
0.370835346969659
40
0.428032133608781
40
0.428032133608781
40
0.485228920247903
40
0.485228920247903
40
0.542425706887025
40
0.542425706887025
40
0.599622493526147
40
0.599622493526147
40
0.656819280165269
40
0.656819280165269
40
0.714016066804391
40
0.714016066804391
40
0.771212853443513
40
0.771212853443513
40
0.828409640082634
40
0.828409640082634
40
0.885606426721756
40
0.885606426721756
40
0.942803213360878
40
0.942803213360878
40
1
40
1
40
1
40
1
41
1
10
40.1837823901578
20
-9.92366080086015
30
0
41
1
10
39.9756003362807
20
-9.94372124270743
30
0
41
1
10
39.7674182824035
20
-9.95984540805256
30
0
41
1
10
39.1286629121836
20
-9.99716670623113
30
0
41
1
10
38.6980895958409
20
-10.0053826182059
30
0
41
1
10
37.8369429631555
20
-9.98784750123806
30
0
41
1
10
37.4063696468129
20
-9.96209650192912
30
0
41
1
10
36.5452230141274
20
-9.87688949099476
30
0
41
1
10
36.1146496977848
20
-9.81743362529184
30
0
41
1
10
35.2535030650994
20
-9.66542179525783
30
0
41
1
10
34.8229297487567
20
-9.57286609546662
30
0
41
1
10
33.9617831160712
20
-9.35559634923098
30
0
41
1
10
33.5312097997285
20
-9.23088267912837
30
0
41
1
10
32.6700631670432
20
-8.95056599688195
30
0
41
1
10
32.2394898507005
20
-8.79496346895652
30
0
41
1
10
31.3783432180151
20
-8.45445241339118
30
0
41
1
10
30.9477699016723
20
-8.26954447282949
30
0
41
1
10
30.086623268987
20
-7.87230416023857
30
0
41
1
10
29.6560499526442
20
-7.65997247195509
30
0
41
1
10
28.7949033199588
20
-7.21004530711213
30
0
41
1
10
28.3643300036161
20
-6.97245060916319
30
0
41
1
10
27.5031833709307
20
-6.47441515521177
30
0
41
1
10
27.072610054588
20
-6.21397526289613
30
0
41
1
10
26.2114634219026
20
-5.67289964684699
30
0
41
1
10
25.7808901055598
20
-5.39226485736816
30
0
41
1
10
24.9197434728744
20
-4.81365519051747
30
0
41
1
10
24.4891701565317
20
-4.51568131154377
30
0
41
1
10
23.6280235238462
20
-3.90542566319593
30
0
41
1
10
23.1974502075036
20
-3.59314494710483
30
0
41
1
10
22.3363035748181
20
-2.95745342483531
30
0
41
1
10
21.9057302584754
20
-2.63404371647587
30
0
41
1
10
21.0445836257899
20
-1.9793852698952
30
0
41
1
10
20.6140103094472
20
-1.64813766402986
30
0
41
1
10
19.7528636767618
20
-0.981174257596592
30
0
41
1
10
19.322290360419
20
-0.645459609873427
30
0
41
1
10
18.4611437277336
20
0.0270215739608659
30
0
41
1
10
18.0305704113908
20
0.363786948416674
30
0
41
1
10
17.5999970950481
20
0.699364762296341
30
0
0
SPLINE
5
FC
100
AcDbEntity
8
1
62
256
6
ByLayer
370
18
48
1
60
0
100
AcDbSpline
70
4
71
3
72
70
73
66
40
0
40
0
40
0
40
0
40
0.03125
40
0.03125
40
0.0625
40
0.0625
40
0.09375
40
0.09375
40
0.125
40
0.125
40
0.15625
40
0.15625
40
0.1875
40
0.1875
40
0.21875
40
0.21875
40
0.25
40
0.25
40
0.28125
40
0.28125
40
0.3125
40
0.3125
40
0.34375
40
0.34375
40
0.375
40
0.375
40
0.40625
40
0.40625
40
0.4375
40
0.4375
40
0.46875
40
0.46875
40
0.5
40
0.5
40
0.53125
40
0.53125
40
0.5625
40
0.5625
40
0.59375
40
0.59375
40
0.625
40
0.625
40
0.65625
40
0.65625
40
0.6875
40
0.6875
40
0.71875
40
0.71875
40
0.75
40
0.75
40
0.78125
40
0.78125
40
0.8125
40
0.8125
40
0.84375
40
0.84375
40
0.875
40
0.875
40
0.90625
40
0.90625
40
0.9375
40
0.9375
40
0.96875
40
0.96875
40
1
40
1
40
1
40
1
41
1
10
58.9350354639466
20
-9.98650799245726
30
0
41
1
10
58.5044621476039
20
-9.96903917024724
30
0
41
1
10
58.0738888312613
20
-9.93460409146903
30
0
41
1
10
57.2127421985759
20
-9.83215160529636
30
0
41
1
10
56.7821688822333
20
-9.76413437269215
30
0
41
1
10
55.9210222495479
20
-9.59520961690143
30
0
41
1
10
55.4904489332054
20
-9.49430238448031
30
0
41
1
10
54.6293023005199
20
-9.26062436909959
30
0
41
1
10
54.1987289841773
20
-9.12785398932542
30
0
41
1
10
53.337582351492
20
-8.83180066983709
30
0
41
1
10
52.9070090351493
20
-8.66851824224011
30
0
41
1
10
52.0458624024639
20
-8.31310232240725
30
0
41
1
10
51.6152890861213
20
-8.12096944257647
30
0
41
1
10
50.7541424534359
20
-7.7098077141948
30
0
41
1
10
50.3235691370933
20
-7.49077957263987
30
0
41
1
10
49.462422504408
20
-7.02805610739321
30
0
41
1
10
49.0318491880653
20
-6.78436158520734
30
0
41
1
10
48.17070255538
20
-6.27478516651897
30
0
41
1
10
47.7401292390373
20
-6.00890415278158
30
0
41
1
10
46.8789826063519
20
-5.45766034931248
30
0
41
1
10
46.4484092900093
20
-5.17229851307002
30
0
41
1
10
45.5872626573238
20
-4.58499691159659
30
0
41
1
10
45.1566893409812
20
-4.28305816143174
30
0
41
1
10
44.2955427082958
20
-3.66567528366929
30
0
41
1
10
43.8649693919531
20
-3.35023222107691
30
0
41
1
10
43.0038227592678
20
-2.70905070171113
30
0
41
1
10
42.5732494429251
20
-2.38331335256427
30
0
41
1
10
41.7121028102397
20
-1.7248580099014
30
0
41
1
10
41.281529493897
20
-1.39214115519735
30
0
41
1
10
40.4203828612117
20
-0.723112591737959
30
0
41
1
10
39.989809544869
20
-0.386802039327762
30
0
41
1
10
39.1286629121836
20
0.285991546813165
30
0
41
1
10
38.6980895958409
20
0.622473417922578
30
0
41
1
10
37.8369429631555
20
1.29218551362547
30
0
41
1
10
37.4063696468129
20
1.62541458061915
30
0
41
1
10
36.5452230141275
20
2.28523002972477
30
0
41
1
10
36.1146496977848
20
2.61181527126791
30
0
41
1
10
35.2535030650994
20
3.25501962666081
30
0
41
1
10
34.8229297487567
20
3.57163762944805
30
0
41
1
10
33.9617831160713
20
4.19168548297466
30
0
41
1
10
33.5312097997286
20
4.49511426239397
30
0
41
1
10
32.6700631670432
20
5.08569585017983
30
0
41
1
10
32.2394898507005
20
5.37284763790382
30
0
41
1
10
31.3783432180151
20
5.92795305165842
30
0
41
1
10
30.9477699016724
20
6.19590571739448
30
0
41
1
10
30.086623268987
20
6.70988606260227
30
0
41
1
10
29.6560499526441
20
6.9559128514465
30
0
41
1
10
28.7949033199588
20
7.42353772873386
30
0
41
1
10
28.3643300036162
20
7.64513501046807
30
0
41
1
10
27.5031833709307
20
8.06164574735664
30
0
41
1
10
27.072610054588
20
8.25655848620704
30
0
41
1
10
26.2114634219026
20
8.61771656168321
30
0
41
1
10
25.7808901055599
20
8.78396127326945
30
0
41
1
10
24.9197434728744
20
9.0860914435105
30
0
41
1
10
24.4891701565317
20
9.22197637811499
30
0
41
1
10
23.6280235238463
20
9.46200408365632
30
0
41
1
10
23.1974502075036
20
9.5661464364234
30
0
41
1
10
22.3363035748181
20
9.74162908610882
30
0
41
1
10
21.9057302584754
20
9.81296907813262
30
0
41
1
10
21.0445836257899
20
9.92212090504768
30
0
41
1
10
20.6140103094472
20
9.95993255606368
30
0
41
1
10
19.7528636767618
20
10.0016427990538
30
0
41
1
10
19.322290360419
20
10.0055413203063
30
0
41
1
10
18.4611437277335
20
9.97938551455402
30
0
41
1
10
18.0305704113908
20
9.94933123166749
30
0
41
1
10
17.5999970950481
20
9.90245338277617
30
0
0
SPLINE
5
FD
100
AcDbEntity
8
1
62
256
6
ByLayer
370
18
48
1
60
0
100
AcDbSpline
70
4
71
3
72
36
73
32
40
0
40
0
40
0
40
0
40
0.0370813657113462
40
0.0744130014961739
40
0.111991758027187
40
0.149814343074763
40
0.187877322254882
40
0.226177119944287
40
0.318379896533321
40
0.413652147204299
40
0.511919954698597
40
0.613097460125035
40
0.631421862498454
40
0.649979112679047
40
0.668768260423225
40
0.687788316729359
40
0.70703825319087
40
0.726517001362638
40
0.746223452142458
40
0.766156455169408
40
0.786314818240947
40
0.806697306750659
40
0.827302643148416
40
0.848129506424943
40
0.869176531622672
40
0.890442309374857
40
0.911925385474727
40
0.933624260476914
40
0.955537389332897
40
0.977663181124082
40
1
40
1
40
1
40
1
41
1
10
16.5782432999035
20
-8.03109655692126
30
0
41
1
10
16.5611810119979
20
-8.05149938831755
30
0
41
1
10
16.5269412791538
20
-8.0924427541859
30
0
41
1
10
16.4749452410712
20
-8.15318858617209
30
0
41
1
10
16.4222637559609
20
-8.21368710860284
30
0
41
1
10
16.3688631036831
20
-8.27385594233095
30
0
41
1
10
16.3147532153274
20
-8.33369291316285
30
0
41
1
10
16.2343206284377
20
-8.42095708974318
30
0
41
1
10
16.125359076719
20
-8.53540260721331
30
0
41
1
10
15.9853724466392
20
-8.67583755040576
30
0
41
1
10
15.8388601379478
20
-8.81598761020607
30
0
41
1
10
15.7290314919397
20
-8.91596450429472
30
0
41
1
10
15.6588187392939
20
-8.97797907266209
30
0
41
1
10
15.6304328182604
20
-9.00281563440817
30
0
41
1
10
15.6016188414872
20
-9.02778838384063
30
0
41
1
10
15.5723767099602
20
-9.05288969449416
30
0
41
1
10
15.5427065175616
20
-9.07811183674573
30
0
41
1
10
15.5126083069259
20
-9.10344696300925
30
0
41
1
10
15.4820821361221
20
-9.12888711497234
30
0
41
1
10
15.4511280605399
20
-9.15442422519124
30
0
41
1
10
15.4197461378187
20
-9.18005012028212
30
0
41
1
10
15.3879364268564
20
-9.20575652496873
30
0
41
1
10
15.3556989870703
20
-9.23153506253811
30
0
41
1
10
15.3230338827718
20
-9.25737727059095
30
0
41
1
10
15.2899411665166
20
-9.28327455993863
30
0
41
1
10
15.2564209426285
20
-9.30921839037322
30
0
41
1
10
15.2224731267283
20
-9.33519962570188
30
0
41
1
10
15.1880983572757
20
-9.36121100021157
30
0
41
1
10
15.1532945427549
20
-9.38723779905521
30
0
41
1
10
15.1180699379726
20
-9.41329317996002
30
0
41
1
10
15.0943974897992
20
-9.430539284801
30
0
41
1
10
15.0825050889873
20
-9.43920326368951
30
0
0
SPLINE
5
FE
100
AcDbEntity
8
1
62
256
6
ByLayer
370
18
48
1
60
0
100
AcDbSpline
70
4
71
5
72
15
73
9
40
0
40
0
40
0
40
0
40
0
40
0
40
0.193789382136181
40
0.471092795297198
40
0.887047915038725
40
1
40
1
40
1
40
1
40
1
40
1
41
1
10
17.5999999081772
20
-9.9024291990518
30
0
41
1
10
17.502428558313
20
-9.89180624491152
30
0
41
1
10
17.2652372352293
20
-9.864233738942
30
0
41
1
10
16.8186159523163
20
-9.80432613368166
30
0
41
1
10
16.3151242295569
20
-9.71991404789412
30
0
41
1
10
15.8116325067975
20
-9.61670616957068
30
0
41
1
10
15.4057121339024
20
-9.52146162985466
30
0
41
1
10
15.1394117342268
20
-9.45385658421188
30
0
41
1
10
15.0825412943804
20
-9.43918608523077
30
0
0
SPLINE
5
FF
100
AcDbEntity
8
1
62
256
6
ByLayer
370
18
48
1
60
0
100
AcDbSpline
70
4
71
3
72
50
73
46
40
0
40
0
40
0
40
0
40
0.062499999999997
40
0.062499999999997
40
0.124999999999994
40
0.124999999999994
40
0.156249999999992
40
0.156249999999992
40
0.171874999999992
40
0.171874999999992
40
0.187499999999991
40
0.187499999999991
40
0.249999999999988
40
0.249999999999988
40
0.312499999999986
40
0.312499999999986
40
0.328124999999985
40
0.328124999999985
40
0.343749999999984
40
0.343749999999984
40
0.374999999999984
40
0.374999999999984
40
0.437499999999984
40
0.437499999999984
40
0.453124999999984
40
0.453124999999984
40
0.468749999999984
40
0.468749999999984
40
0.499999999999984
40
0.499999999999984
40
0.562499999999984
40
0.562499999999984
40
0.624999999999984
40
0.624999999999984
40
0.656249999999985
40
0.656249999999985
40
0.687499999999987
40
0.687499999999987
40
0.749999999999989
40
0.749999999999989
40
0.812499999999992
40
0.812499999999992
40
0.874999999999995
40
0.874999999999995
40
1
40
1
40
1
40
1
41
1
10
2.22691525048015
20
-9.14543362893352
30
0
41
1
10
2.19674391649042
20
-9.09246087002026
30
0
41
1
10
2.17389081758699
20
-9.03702381369513
30
0
41
1
10
2.14471953931908
20
-8.92114545519894
30
0
41
1
10
2.13839031036667
20
-8.86069874255293
30
0
41
1
10
2.14313769042042
20
-8.76614512317187
30
0
41
1
10
2.14709899478638
20
-8.7339795478625
30
0
41
1
10
2.15690055839752
20
-8.68473974172204
30
0
41
1
10
2.16081148847172
20
-8.66816119711723
30
0
41
1
10
2.16997575490464
20
-8.63466978133263
30
0
41
1
10
2.17521605257048
20
-8.6178155024117
30
0
41
1
10
2.2045361111206
20
-8.53359683335324
30
0
41
1
10
2.23810639282135
20
-8.46584301449579
30
0
41
1
10
2.32512692909202
20
-8.33020814428065
30
0
41
1
10
2.37857684632999
20
-8.26232615482598
30
0
41
1
10
2.45777160426803
20
-8.17778111800686
30
0
41
1
10
2.47423037962483
20
-8.16088749876437
30
0
41
1
10
2.50838940147591
20
-8.12714086057258
30
0
41
1
10
2.52598555678031
20
-8.1103910060726
30
0
41
1
10
2.58021647132128
20
-8.06056173703865
30
0
41
1
10
2.61831501520839
20
-8.02788002188149
30
0
41
1
10
2.73805498856893
20
-7.93144168481456
30
0
41
1
10
2.82512460237527
20
-7.86929028087548
30
0
41
1
10
2.94201164585044
20
-7.79428077762245
30
0
41
1
10
2.96579285574393
20
-7.77941299014154
30
0
41
1
10
3.01414262014089
20
-7.7499462247529
30
0
41
1
10
3.03869924052518
20
-7.73535584145273
30
0
41
1
10
3.11306665031643
20
-7.69224309559826
30
0
41
1
10
3.16371872821074
20
-7.66428914098378
30
0
41
1
10
3.318608660292
20
-7.58265222841152
30
0
41
1
10
3.42576783984259
20
-7.53118800596238
30
0
41
1
10
3.6467334403244
20
-7.43363105514214
30
0
41
1
10
3.76054495434443
20
-7.38754077969276
30
0
41
1
10
3.93564944342751
20
-7.32215581560027
30
0
41
1
10
3.99475100618869
20
-7.30098702354283
30
0
41
1
10
4.11434232473957
20
-7.2598663674265
30
0
41
1
10
4.17490713843489
20
-7.23989327169528
30
0
41
1
10
4.35728360830629
20
-7.18215209840153
30
0
41
1
10
4.48015186860684
20
-7.14641807697637
30
0
41
1
10
4.72811638359403
20
-7.07991873704526
30
0
41
1
10
4.85321393907432
20
-7.04915547246949
30
0
41
1
10
5.10539373897834
20
-6.99219984353786
30
0
41
1
10
5.23247675881692
20
-6.96600871619807
30
0
41
1
10
5.61643154721969
20
-6.89384432032747
30
0
41
1
10
5.87599422405302
20
-6.85425672851454
30
0
41
1
10
6.13866717692832
20
-6.82238040311091
30
0
0
SPLINE
5
100
100
AcDbEntity
8
1
62
256
6
ByLayer
370
18
48
1
60
0
100
AcDbSpline
70
4
71
3
72
28
73
24
40
0
40
0
40
0
40
0
40
0.062500000000003
40
0.062500000000003
40
0.125000000000006
40
0.125000000000006
40
0.187500000000009
40
0.187500000000009
40
0.218750000000011
40
0.218750000000011
40
0.250000000000012
40
0.250000000000012
40
0.37500000000001
40
0.37500000000001
40
0.500000000000008
40
0.500000000000008
40
0.625000000000006
40
0.625000000000006
40
0.687500000000005
40
0.687500000000005
40
0.750000000000004
40
0.750000000000004
40
1
40
1
40
1
40
1
41
1
10
6.13866717692835
20
-6.82238040311091
30
0
41
1
10
6.2438348416089
20
-6.80961792161213
30
0
41
1
10
6.34912980474596
20
-6.80050663530824
30
0
41
1
10
6.55993497619934
20
-6.78851932069281
30
0
41
1
10
6.66544545534668
20
-6.78565024833358
30
0
41
1
10
6.87665744885075
20
-6.78546299055111
30
0
41
1
10
6.98235909914948
20
-6.78814833522722
30
0
41
1
10
7.14104302768445
20
-6.79598389371657
30
0
41
1
10
7.19395963450745
20
-6.79923169619701
30
0
41
1
10
7.29983532991395
20
-6.80695264096863
30
0
41
1
10
7.35280868958
20
-6.81142941821659
30
0
41
1
10
7.61613700594279
20
-6.83659836439648
30
0
41
1
10
7.82325661409709
20
-6.86566637773188
30
0
41
1
10
8.23149039454466
20
-6.93837571866106
30
0
41
1
10
8.43259230108765
20
-6.98204668566009
30
0
41
1
10
8.82935240030466
20
-7.08180304924196
30
0
41
1
10
9.02500513032561
20
-7.13790200675516
30
0
41
1
10
9.31465108525401
20
-7.23006220024209
30
0
41
1
10
9.40998202157212
20
-7.26193658897679
30
0
41
1
10
9.59805493259779
20
-7.32761626270678
30
0
41
1
10
9.69084737662348
20
-7.36143792387153
30
0
41
1
10
10.1489272993194
20
-7.53481465678709
30
0
41
1
10
10.4966434911324
20
-7.6870921135731
30
0
41
1
10
10.8290318047748
20
-7.84569814166693
30
0
0
SPLINE
5
101
100
AcDbEntity
8
1
62
256
6
ByLayer
370
18
48
1
60
0
100
AcDbSpline
70
4
71
3
72
10
73
6
40
0
40
0
40
0
40
0
40
0.500000000000002
40
0.500000000000002
40
1
40
1
40
1
40
1
41
1
10
10.8292444556451
20
-7.84568531268937
30
0
41
1
10
11.5381272636987
20
-8.18908940384932
30
0
41
1
10
12.2470100717522
20
-8.49630769316846
30
0
41
1
10
13.6647756878592
20
-9.02992642683549
30
0
41
1
10
14.3736584959127
20
-9.25632010208258
30
0
41
1
10
15.0825413039662
20
-9.43918600603632
30
0
0
SPLINE
5
102
100
AcDbEntity
8
1
62
256
6
ByLayer
370
18
48
1
60
0
100
AcDbSpline
70
4
71
3
72
21
73
17
40
0
40
0
40
0
40
0
40
0.125
40
0.125
40
0.25
40
0.25
40
0.375
40
0.375
40
0.5
40
0.5
40
0.750000000000001
40
0.750000000000001
40
0.812499999999999
40
0.812499999999999
40
0.874999999999998
40
1
40
1
40
1
40
1
41
1
10
15.0825935410964
20
2.63543235958485
30
0
41
1
10
15.1000734699888
20
2.75064477215076
30
0
41
1
10
15.1220209761967
20
2.86386300271019
30
0
41
1
10
15.1717937162385
20
3.08722911322329
30
0
41
1
10
15.1996464874794
20
3.19736881392271
30
0
41
1
10
15.259429548265
20
3.41511580696428
30
0
41
1
10
15.291372057422
20
3.52271945731627
30
0
41
1
10
15.3581383989356
20
3.73574645579993
30
0
41
1
10
15.3929683706189
20
3.8411679705884
30
0
41
1
10
15.5005212420579
20
4.15452215370865
30
0
41
1
10
15.5762429714201
20
4.35956638625507
30
0
41
1
10
15.6732054146002
20
4.61176491840814
30
0
41
1
10
15.6927249067967
20
4.66201210873732
30
0
41
1
10
15.7318909743084
20
4.76193477502503
30
0
41
1
10
15.7908530128293
20
4.91101676255596
30
0
41
1
10
15.8502531477637
20
5.05776464992596
30
0
41
1
10
15.8899038530571
20
5.15460604204838
30
0
0
SPLINE
5
103
100
AcDbEntity
8
1
62
256
6
ByLayer
370
18
48
1
60
0
100
AcDbSpline
70
4
71
3
72
25
73
21
40
0
40
0
40
0
40
0
40
0.207495772387377
40
0.207495772387377
40
0.414991544774754
40
0.414991544774754
40
0.518739430968442
40
0.518739430968442
40
0.570613374065286
40
0.596550345613707
40
0.596550345613707
40
0.622487317162128
40
0.622487317162128
40
0.72623520335581
40
0.72623520335581
40
0.829983089549492
40
0.829983089549492
40
0.933730975743174
40
0.933730975743174
40
1
40
1
40
1
40
1
41
1
10
8.75342065762493
20
8.90790012928548
30
0
41
1
10
8.38072751830879
20
9.0406626003531
30
0
41
1
10
8.01306727823498
20
9.16465022761994
30
0
41
1
10
7.28643203915871
20
9.39146843255693
30
0
41
1
10
6.9274425924398
20
9.49432087910932
30
0
41
1
10
6.39529867331322
20
9.63011676941784
30
0
41
1
10
6.21898438705648
20
9.67230043690799
30
0
41
1
10
5.9562109380621
20
9.73057807989608
30
0
41
1
10
5.82525011322969
20
9.75846669773333
30
0
41
1
10
5.6949609386439
20
9.7844005135135
30
0
41
1
10
5.60825555889397
20
9.80124564572714
30
0
41
1
10
5.56496928823177
20
9.80944793239442
30
0
41
1
10
5.34938785406828
20
9.84924304850557
30
0
41
1
10
5.17929182221738
20
9.87725978217378
30
0
41
1
10
4.84437127956633
20
9.92518888610616
30
0
41
1
10
4.67954351936089
20
9.94510375879594
30
0
41
1
10
4.35598452848888
20
9.97620752965045
30
0
41
1
10
4.19724751658737
20
9.98740048457137
30
0
41
1
10
3.94313696145141
20
9.9978754775909
30
0
41
1
10
3.84558424931234
20
10.0000026096384
30
0
41
1
10
3.74977819300665
20
10.0000036692159
30
0
0
SPLINE
5
104
100
AcDbEntity
8
1
62
256
6
ByLayer
370
18
48
1
60
0
100
AcDbSpline
70
4
71
3
72
36
73
32
40
0
40
0
40
0
40
0
40
0.0370813657113477
40
0.0744130014961766
40
0.111991758027192
40
0.149814343074762
40
0.187877322254881
40
0.226177119944284
40
0.318379896533319
40
0.413652147204296
40
0.511919954698595
40
0.613097460125033
40
0.631421862498452
40
0.649979112679045
40
0.668768260423224
40
0.687788316729357
40
0.707038253190869
40
0.726517001362637
40
0.746223452142457
40
0.766156455169407
40
0.786314818240946
40
0.806697306750658
40
0.827302643148415
40
0.848129506424942
40
0.869176531622672
40
0.890442309374856
40
0.911925385474726
40
0.933624260476914
40
0.955537389332896
40
0.977663181124082
40
1
40
1
40
1
40
1
41
1
10
16.5782432999036
20
4.63569692439248
30
0
41
1
10
16.5611810119979
20
4.61203340233305
30
0
41
1
10
16.5269412791538
20
4.56454664803925
30
0
41
1
10
16.4749452410713
20
4.49270396235465
30
0
41
1
10
16.4222637559609
20
4.42011766735743
30
0
41
1
10
16.3688631036831
20
4.34676942016796
30
0
41
1
10
16.3147532153275
20
4.2726761598386
30
0
41
1
10
16.2343206284377
20
4.16289464935014
30
0
41
1
10
16.125359076719
20
4.01494677652957
30
0
41
1
10
15.9853724466393
20
3.82611623290799
30
0
41
1
10
15.8388601379478
20
3.62975457867586
30
0
41
1
10
15.7290314919397
20
3.48351750878126
30
0
41
1
10
15.658818739294
20
3.39041420873613
30
0
41
1
10
15.6304328182604
20
3.3528230857973
30
0
41
1
10
15.6016188414872
20
3.31471270558652
30
0
41
1
10
15.5723767099602
20
3.27608350326946
30
0
41
1
10
15.5427065175616
20
3.2369360113303
30
0
41
1
10
15.512608306926
20
3.19727094246826
30
0
41
1
10
15.4820821361222
20
3.15708917442416
30
0
41
1
10
15.4511280605399
20
3.1163917615865
30
0
41
1
10
15.4197461378188
20
3.07517993922613
30
0
41
1
10
15.3879364268564
20
3.03345512992757
30
0
41
1
10
15.3556989870703
20
2.99121894859553
30
0
41
1
10
15.3230338827719
20
2.94847321080095
30
0
41
1
10
15.2899411665166
20
2.90521992878163
30
0
41
1
10
15.2564209426286
20
2.86146135385022
30
0
41
1
10
15.2224731267283
20
2.81719984263143
30
0
41
1
10
15.1880983572758
20
2.77243839050317
30
0
41
1
10
15.1532945427549
20
2.72717863692242
30
0
41
1
10
15.1180699379727
20
2.68142844441303
30
0
41
1
10
15.0943974897993
20
2.65073652590101
30
0
41
1
10
15.0825050889874
20
2.63531773212188
30
0
0
SPLINE
5
105
100
AcDbEntity
8
1
62
256
6
ByLayer
370
18
48
1
60
0
100
AcDbSpline
70
4
71
5
72
15
73
9
40
0
40
0
40
0
40
0
40
0
40
0
40
0.193789382136197
40
0.471092795297214
40
0.88704791503874
40
1
40
1
40
1
40
1
40
1
40
1
41
1
10
17.5999999081773
20
0.699366759281702
30
0
41
1
10
17.5024285583131
20
0.775411196158501
30
0
41
1
10
17.2652372352293
20
0.960148118099454
30
0
41
1
10
16.8186159523164
20
1.30733223486456
30
0
41
1
10
16.315124229557
20
1.69677963334783
30
0
41
1
10
15.8116325067977
20
2.08291895947576
30
0
41
1
10
15.4057121339025
20
2.39142706744158
30
0
41
1
10
15.1394117342268
20
2.59243373836801
30
0
41
1
10
15.0825412943804
20
2.63529518189301
30
0
0
SPLINE
5
106
100
AcDbEntity
8
1
62
256
6
ByLayer
370
18
48
1
60
0
100
AcDbSpline
70
4
71
3
72
10
73
6
40
0
40
0
40
0
40
0
40
0.5
40
0.5
40
1
40
1
40
1
40
1
41
1
10
10.8292444556452
20
5.63802985693675
30
0
41
1
10
11.5381272636987
20
5.18060828529994
30
0
41
1
10
12.2470100717522
20
4.6971919741263
30
0
41
1
10
13.6647756878592
20
3.69166026246881
30
0
41
1
10
14.3736584959128
20
3.16955761743205
30
0
41
1
10
15.0825413039663
20
2.63529517275984
30
0
0
SPLINE
5
107
100
AcDbEntity
8
1
62
256
6
ByLayer
370
18
48
1
60
0
100
AcDbSpline
70
4
71
3
72
16
73
12
40
0
40
0
40
0
40
0
40
0.249999999999998
40
0.249999999999998
40
0.499999999999997
40
0.499999999999997
40
0.624999999999997
40
0.624999999999997
40
0.749999999999997
40
0.749999999999997
40
1
40
1
40
1
40
1
41
1
10
15.8899038530567
20
5.15460604204867
30
0
41
1
10
15.29662129416
20
5.55180517175833
30
0
41
1
10
14.705523350175
20
5.93093599125439
30
0
41
1
10
13.5233943813107
20
6.64893701231316
30
0
41
1
10
12.9323709397533
20
6.98781483057158
30
0
41
1
10
12.042673611338
20
7.46256372355299
30
0
41
1
10
11.7455801405001
20
7.61521499055158
30
0
41
1
10
11.149782506625
20
7.90870148628321
30
0
41
1
10
10.8510327448359
20
8.04955759232831
30
0
41
1
10
9.9517810557121
20
8.45327703030904
30
0
41
1
10
9.35338982773686
20
8.69501608293578
30
0
41
1
10
8.75386949004979
20
8.90786578007717
30
0
0
SPLINE
5
108
100
AcDbEntity
8
1
62
256
6
ByLayer
370
18
48
1
60
0
100
AcDbSpline
70
4
71
3
72
8
73
4
40
0
40
0
40
0
40
0
40
1
40
1
40
1
40
1
41
1
10
15.8899038530572
20
5.15460604204836
30
0
41
1
10
16.1112365803583
20
4.97459170524786
30
0
41
1
10
16.341443913272
20
4.80273192792225
30
0
41
1
10
16.5785559892214
20
4.63570179166234
30
0
0
SPLINE
5
109
100
AcDbEntity
8
1
62
256
6
ByLayer
370
18
48
1
60
0
100
AcDbSpline
70
4
71
3
72
17
73
13
40
0
40
0
40
0
40
0
40
0.132661095252992
40
0.235730481121138
40
0.309296873396274
40
0.357042363252162
40
0.402057939573765
40
0.448624434827331
40
0.522893093762121
40
0.632989393211957
40
0.792034756409019
40
1
40
1
40
1
40
1
41
1
10
20.9707581692609
20
-9.92378297432248
30
0
41
1
10
21.1706651231787
20
-9.90451932786141
30
0
41
1
10
21.5258613069361
20
-9.87038843308082
30
0
41
1
10
21.9916658489479
20
-9.82579024777513
30
0
41
1
10
22.3297775249545
20
-9.79362129773136
30
0
41
1
10
22.5782762307247
20
-9.76996425909553
30
0
41
1
10
22.7876498326513
20
-9.75008033679683
30
0
41
1
10
23.0376368737254
20
-9.72648818707458
30
0
41
1
10
23.3854077432723
20
-9.69396475955367
30
0
41
1
10
23.9030246740155
20
-9.64582836424373
30
0
41
1
10
24.6221119358177
20
-9.57984079283423
30
0
41
1
10
25.1751195025729
20
-9.53019009283625
30
0
41
1
10
25.4884419658027
20
-9.50239484498118
30
0
0
SPLINE
5
10A
100
AcDbEntity
8
1
62
256
6
ByLayer
370
18
48
1
60
0
100
AcDbSpline
70
4
71
3
72
17
73
13
40
0
40
0
40
0
40
0
40
0.138403950115283
40
0.252159917465011
40
0.355897616715745
40
0.469200057407854
40
0.548499352571382
40
0.620211699918673
40
0.682804310519517
40
0.749298944162531
40
0.854392200874972
40
1
40
1
40
1
40
1
41
1
10
40.182737266096
20
-9.92376405603096
30
0
41
1
10
40.388184162644
20
-9.90375604649054
30
0
41
1
10
40.7639652789589
20
-9.86742226856987
30
0
41
1
10
41.3037802391622
20
-9.81586305234106
30
0
41
1
10
41.7985280535339
20
-9.76922364522312
30
0
41
1
10
42.2464278661811
20
-9.72678417684068
30
0
41
1
10
42.6452469745386
20
-9.68947883268086
30
0
41
1
10
42.9676867336281
20
-9.65960469259124
30
0
41
1
10
43.2707847382383
20
-9.63161424640296
30
0
41
1
10
43.6242844306634
20
-9.59911802440354
30
0
41
1
10
44.1025181195422
20
-9.55559926922683
30
0
41
1
10
44.4803434062648
20
-9.52189717735274
30
0
41
1
10
44.699681841417
20
-9.50254500616856
30
0
0
SPLINE
5
10B
100
AcDbEntity
8
1
62
256
6
ByLayer
370
18
48
1
60
0
100
AcDbSpline
70
4
71
3
72
17
73
13
40
0
40
0
40
0
40
0
40
0.140923717979782
40
0.249566131760105
40
0.325886299699051
40
0.373642591563572
40
0.417663156453845
40
0.462493391104693
40
0.532565965892846
40
0.638390347634772
40
0.794181212237733
40
1
40
1
40
1
40
1
41
1
10
25.4884419658024
20
9.50239484498104
30
0
41
1
10
25.2760820755597
20
9.5211995996909
30
0
41
1
10
24.9000427059098
20
9.55479851705104
30
0
41
1
10
24.4091500879288
20
9.59942675126379
30
0
41
1
10
24.058565849767
20
9.63157759789851
30
0
41
1
10
23.8058199335134
20
9.65493204252911
30
0
41
1
10
23.6003341746338
20
9.67400062805493
30
0
41
1
10
23.3611342913272
20
9.69629327314888
30
0
41
1
10
23.0287310959579
20
9.72743919348997
30
0
41
1
10
22.5292567962848
20
9.77461100470956
30
0
41
1
10
21.8253189043753
20
9.84161489782713
30
0
41
1
10
21.2807318413189
20
9.89388147137069
30
0
41
1
10
20.9707581692609
20
9.92378297432236
30
0
0
SPLINE
5
10C
100
AcDbEntity
8
1
62
256
6
ByLayer
370
18
48
1
60
0
100
AcDbSpline
70
4
71
3
72
18
73
14
40
0
40
0
40
0
40
0
40
0.127287652741897
40
0.224806737786047
40
0.292579140091292
40
0.342905879447152
40
0.399348349793057
40
0.462491042000638
40
0.530801138079453
40
0.644103290085251
40
0.747840725019952
40
0.861596402527819
40
1
40
1
40
1
40
1
41
1
10
44.6996818414172
20
9.50254500616825
30
0
41
1
10
44.5079318750487
20
9.51946161724632
30
0
41
1
10
44.1691552006711
20
9.5496416819918
30
0
41
1
10
43.7280743477975
20
9.58964218883483
30
0
41
1
10
43.4027350644494
20
9.61946667120901
30
0
41
1
10
43.1392364172003
20
9.64375811746874
30
0
41
1
10
42.8827729330293
20
9.66746137262859
30
0
41
1
10
42.5991438365855
20
9.69378436637055
30
0
41
1
10
42.2298273669716
20
9.728357837582
30
0
41
1
10
41.7985254976088
20
9.76922367535218
30
0
41
1
10
41.3037809686256
20
9.81586304374184
30
0
41
1
10
40.7639650119016
20
9.86742227171766
30
0
41
1
10
40.3881841626441
20
9.90375604649026
30
0
41
1
10
40.1827372660961
20
9.92376405603068
30
0
0
LINE
5
77
100
AcDbEntity
8
80
62
256
6
ByLayer
370
18
48
1
60
0
100
AcDbLine
10
0
20
0
30
0
11
-5
21
0
31
0
39
0
210
0
220
0
230
1
0
LINE
5
78
100
AcDbEntity
8
4
62
256
6
ByLayer
370
18
48
0.05
60
0
100
AcDbLine
10
0
20
0
30
0
11
59.6
21
0
31
0
39
0
210
0
220
0
230
1
0
LINE
5
7A
100
AcDbEntity
8
81
62
256
6
ByLayer
370
18
48
1
60
0
100
AcDbLine
10
59.6
20
0
30
0
11
64.6
21
0
31
0
39
0
210
0
220
0
230
1
0
LINE
5
7B
100
AcDbEntity
8
SK4
62
256
6
ByLayer
370
18
48
0.05
60
0
100
AcDbLine
10
-50
20
0
30
0
11
59.6
21
0
31
0
39
0
210
0
220
0
230
1
0
LINE
5
7D
100
AcDbEntity
8
1
62
256
6
ByLayer
370
18
48
1
60
0
100
AcDbLine
10
0
20
10
30
0
11
0
21
0
31
0
39
0
210
0
220
0
230
1
0
LINE
5
7E
100
AcDbEntity
8
1
62
256
6
ByLayer
370
18
48
1
60
0
100
AcDbLine
10
0
20
0
30
0
11
0
21
-10
31
0
39
0
210
0
220
0
230
1
0
LINE
5
7F
100
AcDbEntity
8
1
62
256
6
ByLayer
370
18
48
1
60
0
100
AcDbLine
10
59.356348
20
-1.501093
30
0
11
59.287363
21
-1.73656
31
0
39
0
210
0
220
0
230
1
0
LINE
5
80
100
AcDbEntity
8
1
62
256
6
ByLayer
370
18
48
1
60
0
100
AcDbLine
10
59.510942
20
0.298674
30
0
11
59.588115
21
0.301524
31
0
39
0
210
0
220
0
230
1
0
LINE
5
81
100
AcDbEntity
8
1
62
256
6
ByLayer
370
18
48
1
60
0
100
AcDbLine
10
59.588115
20
0.301524
30
0
11
59.549345
21
-2E-05
31
0
39
0
210
0
220
0
230
1
0
LINE
5
82
100
AcDbEntity
8
1
62
256
6
ByLayer
370
18
48
1
60
0
100
AcDbLine
10
59.510944
20
-0.298691
30
0
11
59.356348
21
-1.501093
31
0
39
0
210
0
220
0
230
1
0
LINE
5
83
100
AcDbEntity
8
1
62
256
6
ByLayer
370
18
48
1
60
0
100
AcDbLine
10
59.356348
20
-1.501093
30
0
11
59.143139
21
-1.468715
31
0
39
0
210
0
220
0
230
1
0
LINE
5
84
100
AcDbEntity
8
1
62
256
6
ByLayer
370
18
48
1
60
0
100
AcDbLine
10
59.142717
20
-1.470216
30
0
11
59.143139
21
-1.468715
31
0
39
0
210
0
220
0
230
1
0
LINE
5
85
100
AcDbEntity
8
1
62
256
6
ByLayer
370
18
48
1
60
0
100
AcDbLine
10
59.143139
20
-1.468715
30
0
11
59.25249
21
-0.2819
31
0
39
0
210
0
220
0
230
1
0
LINE
5
86
100
AcDbEntity
8
1
62
256
6
ByLayer
370
18
48
1
60
0
100
AcDbLine
10
59.383246
20
9.957648
30
0
11
59.588115
21
9.756348
31
0
39
0
210
0
220
0
230
1
0
LINE
5
87
100
AcDbEntity
8
1
62
256
6
ByLayer
370
18
48
1
60
0
100
AcDbLine
10
59.176097
20
2.091015
30
0
11
59.588115
21
9.756348
31
0
39
0
210
0
220
0
230
1
0
LINE
5
88
100
AcDbEntity
8
1
62
256
6
ByLayer
370
13
48
1
60
0
100
AcDbLine
10
55.194665
20
6.092193
30
0
11
55.584369
21
5.413399
31
0
39
0
210
0
220
0
230
1
0
LINE
5
89
100
AcDbEntity
8
1
62
256
6
ByLayer
370
13
48
1
60
0
100
AcDbLine
10
58.809873
20
-0.204862
30
0
11
59.028206
21
-0.585158
31
0
39
0
210
0
220
0
230
1
0
LINE
5
8A
100
AcDbEntity
8
1
62
256
6
ByLayer
370
18
48
1
60
0
100
AcDbLine
10
59.07722
20
-0.251469
30
0
11
59.588115
21
-9.756348
31
0
39
0
210
0
220
0
230
1
0
LINE
5
8B
100
AcDbEntity
8
1
62
256
6
ByLayer
370
18
48
1
60
0
100
AcDbLine
10
59.028206
20
-0.585158
30
0
11
59.010443
21
-0.239814
31
0
39
0
210
0
220
0
230
1
0
LINE
5
8C
100
AcDbEntity
8
1
62
256
6
ByLayer
370
18
48
1
60
0
100
AcDbLine
10
59.383246
20
-9.957648
30
0
11
59.588115
21
-9.756348
31
0
39
0
210
0
220
0
230
1
0
LINE
5
8D
100
AcDbEntity
8
1
62
256
6
ByLayer
370
18
48
1
60
0
100
AcDbLine
10
59.588115
20
-9.756348
30
0
11
59.356348
21
-9.427121
31
0
39
0
210
0
220
0
230
1
0
LINE
5
8E
100
AcDbEntity
8
1
62
256
6
ByLayer
370
18
48
1
60
0
100
AcDbLine
10
59.356348
20
-9.427121
30
0
11
59.287363
21
-9.424522
31
0
39
0
210
0
220
0
230
1
0
LINE
5
8F
100
AcDbEntity
8
1
62
256
6
ByLayer
370
18
48
1
60
0
100
AcDbLine
10
59.356348
20
-9.427121
30
0
11
59.022003
21
-3.066723
31
0
39
0
210
0
220
0
230
1
0
LINE
5
90
100
AcDbEntity
8
1
62
256
6
ByLayer
370
18
48
1
60
0
100
AcDbLine
10
58.371734
20
-5.338852
30
0
11
59.022003
21
-3.066723
31
0
39
0
210
0
220
0
230
1
0
LINE
5
91
100
AcDbEntity
8
1
62
256
6
ByLayer
370
18
48
1
60
0
100
AcDbLine
10
59.022003
20
-3.066723
30
0
11
59.023561
21
-3.036799
31
0
39
0
210
0
220
0
230
1
0
LINE
5
92
100
AcDbEntity
8
1
62
256
6
ByLayer
370
13
48
1
60
0
100
AcDbLine
10
58.405471
20
-1.948716
30
0
11
54.036601
21
-1.103657
31
0
39
0
210
0
220
0
230
1
0
LINE
5
93
100
AcDbEntity
8
1
62
256
6
ByLayer
370
18
48
1
60
0
100
AcDbLine
10
59.588115
20
-0.301524
30
0
11
59.356348
21
1.501093
31
0
39
0
210
0
220
0
230
1
0
LINE
5
94
100
AcDbEntity
8
1
62
256
6
ByLayer
370
18
48
1
60
0
100
AcDbLine
10
59.356348
20
1.501093
30
0
11
59.287363
21
1.73656
31
0
39
0
210
0
220
0
230
1
0
LINE
5
95
100
AcDbEntity
8
1
62
256
6
ByLayer
370
18
48
1
60
0
100
AcDbLine
10
59.383246
20
-0.261925
30
0
11
59.588115
21
-0.301524
31
0
39
0
210
0
220
0
230
1
0
LINE
5
96
100
AcDbEntity
8
1
62
256
6
ByLayer
370
18
48
1
60
0
100
AcDbLine
10
55.248428
20
0.474093
30
0
11
58.305807
21
-0.117288
31
0
39
0
210
0
220
0
230
1
0
LINE
5
97
100
AcDbEntity
8
1
62
256
6
ByLayer
370
18
48
1
60
0
100
AcDbLine
10
59.305283
20
-0.291078
30
0
11
58.305807
21
-0.117288
31
0
39
0
210
0
220
0
230
1
0
LINE
5
98
100
AcDbEntity
8
1
62
256
6
ByLayer
370
18
48
1
60
0
100
AcDbLine
10
59.305283
20
-0.291078
30
0
11
59.588115
21
-0.301524
31
0
39
0
210
0
220
0
230
1
0
LINE
5
99
100
AcDbEntity
8
SK1
62
256
6
ByLayer
370
18
48
1
60
0
100
AcDbLine
10
0
20
10
30
0
11
0
21
0
31
0
39
0
210
0
220
0
230
1
0
LINE
5
9B
100
AcDbEntity
8
SK1
62
256
6
ByLayer
370
18
48
1
60
0
100
AcDbLine
10
0
20
0
30
0
11
0
21
-10
31
0
39
0
210
0
220
0
230
1
0
LINE
5
9C
100
AcDbEntity
8
SK1
62
256
6
ByLayer
370
18
48
1
60
0
100
AcDbLine
10
-30.5
20
8.2
30
0
11
-32.3
21
10
31
0
39
0
210
0
220
0
230
1
0
LINE
5
9D
100
AcDbEntity
8
SK1
62
256
6
ByLayer
370
18
48
1
60
0
100
AcDbLine
10
-17.7
20
10
30
0
11
-19.5
21
8.2
31
0
39
0
210
0
220
0
230
1
0
LINE
5
9E
100
AcDbEntity
8
SK1
62
256
6
ByLayer
370
18
48
1
60
0
100
AcDbLine
10
-30.5
20
8.2
30
0
11
-19.5
21
8.2
31
0
39
0
210
0
220
0
230
1
0
LINE
5
9F
100
AcDbEntity
8
SK1
62
256
6
ByLayer
370
18
48
1
60
0
100
AcDbLine
10
-49
20
10
30
0
11
-49
21
-10
31
0
39
0
210
0
220
0
230
1
0
LINE
5
A0
100
AcDbEntity
8
SK1
62
256
6
ByLayer
370
18
48
1
60
0
100
AcDbLine
10
-50
20
-9
30
0
11
-50
21
9
31
0
39
0
210
0
220
0
230
1
0
LINE
5
A1
100
AcDbEntity
8
1
62
256
6
ByLayer
370
18
48
1
60
0
100
AcDbLine
10
3.749992
20
10
30
0
11
0
21
10
31
0
39
0
210
0
220
0
230
1
0
LINE
5
A2
100
AcDbEntity
8
1
62
256
6
ByLayer
370
18
48
1
60
0
100
AcDbLine
10
0
20
-10
30
0
11
3.749992
21
-10
31
0
39
0
210
0
220
0
230
1
0
LINE
5
A3
100
AcDbEntity
8
SK1
62
256
6
ByLayer
370
18
48
1
60
0
100
AcDbLine
10
0
20
10
30
0
11
-17.7
21
10
31
0
39
0
210
0
220
0
230
1
0
LINE
5
A4
100
AcDbEntity
8
SK1
62
256
6
ByLayer
370
18
48
1
60
0
100
AcDbLine
10
-32.3
20
10
30
0
11
-49
21
10
31
0
39
0
210
0
220
0
230
1
0
LINE
5
A5
100
AcDbEntity
8
SK1
62
256
6
ByLayer
370
18
48
1
60
0
100
AcDbLine
10
-49
20
-10
30
0
11
0
21
-10
31
0
39
0
210
0
220
0
230
1
0
LINE
5
A6
100
AcDbEntity
8
SK1
62
256
6
ByLayer
370
18
48
1
60
0
100
AcDbLine
10
-50
20
-9
30
0
11
-49
21
-10
31
0
39
0
210
0
220
0
230
1
0
LINE
5
A7
100
AcDbEntity
8
SK1
62
256
6
ByLayer
370
18
48
1
60
0
100
AcDbLine
10
-49
20
10
30
0
11
-50
21
9
31
0
39
0
210
0
220
0
230
1
0
LINE
5
A8
100
AcDbEntity
8
SK2
62
256
6
ByLayer
370
18
48
1
60
0
100
AcDbLine
10
-57.25
20
10
30
0
11
-57.25
21
-28.930932
31
0
39
0
210
0
220
0
230
1
0
LINE
5
AA
100
AcDbEntity
8
SK2
62
256
6
ByLayer
370
18
48
1
60
0
100
AcDbLine
10
-50.5875
20
10
30
0
11
-59.25
21
10
31
0
39
0
210
0
220
0
230
1
0
LINE
5
AB
100
AcDbEntity
8
SK2
62
256
6
ByLayer
370
18
48
1
60
0
100
AcDbLine
10
-50.5875
20
-10
30
0
11
-59.25
21
-10
31
0
39
0
210
0
220
0
230
1
0
LINE
5
AC
100
AcDbEntity
8
1
62
256
6
ByLayer
370
18
48
1
60
1
100
AcDbLine
10
-57.25
20
10
30
0
11
-56.789216
21
6.500002
31
0
39
0
210
0
220
0
230
1
0
LINE
5
AD
100
AcDbEntity
8
1
62
256
6
ByLayer
370
18
48
1
60
1
100
AcDbLine
10
-56.789216
20
6.500002
30
0
11
-57.710784
21
6.499998
31
0
39
0
210
0
220
0
230
1
0
LINE
5
AE
100
AcDbEntity
8
1
62
256
6
ByLayer
370
18
48
1
60
1
100
AcDbLine
10
-57.710784
20
6.499998
30
0
11
-57.25
21
10
31
0
39
0
210
0
220
0
230
1
0
LINE
5
AF
100
AcDbEntity
8
1
62
256
6
ByLayer
370
18
48
1
60
1
100
AcDbLine
10
-57.25
20
-10
30
0
11
-57.710784
21
-6.500002
31
0
39
0
210
0
220
0
230
1
0
LINE
5
B0
100
AcDbEntity
8
1
62
256
6
ByLayer
370
18
48
1
60
1
100
AcDbLine
10
-57.710784
20
-6.500002
30
0
11
-56.789216
21
-6.499998
31
0
39
0
210
0
220
0
230
1
0
LINE
5
B1
100
AcDbEntity
8
1
62
256
6
ByLayer
370
18
48
1
60
1
100
AcDbLine
10
-56.789216
20
-6.499998
30
0
11
-57.25
21
-10
31
0
39
0
210
0
220
0
230
1
0
LINE
5
B2
100
AcDbEntity
8
2
62
256
6
ByLayer
370
18
48
1
60
0
100
AcDbLine
10
71.6
20
-10.0001
30
0
11
71.6
21
28.931032
31
0
39
0
210
0
220
0
230
1
0
LINE
5
B4
100
AcDbEntity
8
2
62
256
6
ByLayer
370
18
48
1
60
0
100
AcDbLine
10
61.1875
20
10.0001
30
0
11
73.6
21
10.0001
31
0
39
0
210
0
220
0
230
1
0
LINE
5
B5
100
AcDbEntity
8
2
62
256
6
ByLayer
370
18
48
1
60
0
100
AcDbLine
10
61.1875
20
-10.0001
30
0
11
73.6
21
-10.0001
31
0
39
0
210
0
220
0
230
1
0
LINE
5
B6
100
AcDbEntity
8
1
62
256
6
ByLayer
370
18
48
1
60
1
100
AcDbLine
10
71.6
20
10.0001
30
0
11
72.060784
21
6.500102
31
0
39
0
210
0
220
0
230
1
0
LINE
5
B7
100
AcDbEntity
8
1
62
256
6
ByLayer
370
18
48
1
60
1
100
AcDbLine
10
72.060784
20
6.500102
30
0
11
71.139216
21
6.500098
31
0
39
0
210
0
220
0
230
1
0
LINE
5
B8
100
AcDbEntity
8
1
62
256
6
ByLayer
370
18
48
1
60
1
100
AcDbLine
10
71.139216
20
6.500098
30
0
11
71.6
21
10.0001
31
0
39
0
210
0
220
0
230
1
0
LINE
5
B9
100
AcDbEntity
8
1
62
256
6
ByLayer
370
18
48
1
60
1
100
AcDbLine
10
71.6
20
-10.0001
30
0
11
71.139216
21
-6.500102
31
0
39
0
210
0
220
0
230
1
0
LINE
5
BA
100
AcDbEntity
8
1
62
256
6
ByLayer
370
18
48
1
60
1
100
AcDbLine
10
71.139216
20
-6.500102
30
0
11
72.060784
21
-6.500098
31
0
39
0
210
0
220
0
230
1
0
LINE
5
BB
100
AcDbEntity
8
1
62
256
6
ByLayer
370
18
48
1
60
1
100
AcDbLine
10
72.060784
20
-6.500098
30
0
11
71.6
21
-10.0001
31
0
39
0
210
0
220
0
230
1
0
LINE
5
BC
100
AcDbEntity
8
SK2
62
256
6
ByLayer
370
18
48
1
60
0
100
AcDbLine
10
59.6
20
-41.431155
30
0
11
-50
21
-41.431155
31
0
39
0
210
0
220
0
230
1
0
LINE
5
BD
100
AcDbEntity
8
SK2
62
256
6
ByLayer
370
18
48
1
60
0
100
AcDbLine
10
-50
20
-10.5875
30
0
11
-50
21
-43.431155
31
0
39
0
210
0
220
0
230
1
0
LINE
5
BE
100
AcDbEntity
8
SK2
62
256
6
ByLayer
370
18
48
1
60
0
100
AcDbLine
10
59.6
20
-11.5876
30
0
11
59.6
21
-43.431155
31
0
39
0
210
0
220
0
230
1
0
LINE
5
BF
100
AcDbEntity
8
1
62
256
6
ByLayer
370
18
48
1
60
1
100
AcDbLine
10
-50
20
-41.431155
30
0
11
-46.500002
21
-40.970371
31
0
39
0
210
0
220
0
230
1
0
LINE
5
C0
100
AcDbEntity
8
1
62
256
6
ByLayer
370
18
48
1
60
1
100
AcDbLine
10
-46.500002
20
-40.970371
30
0
11
-46.499998
21
-41.891939
31
0
39
0
210
0
220
0
230
1
0
LINE
5
C1
100
AcDbEntity
8
1
62
256
6
ByLayer
370
18
48
1
60
1
100
AcDbLine
10
-46.499998
20
-41.891939
30
0
11
-50
21
-41.431155
31
0
39
0
210
0
220
0
230
1
0
LINE
5
C2
100
AcDbEntity
8
1
62
256
6
ByLayer
370
18
48
1
60
1
100
AcDbLine
10
59.6
20
-41.431155
30
0
11
56.100002
21
-41.891939
31
0
39
0
210
0
220
0
230
1
0
LINE
5
C3
100
AcDbEntity
8
1
62
256
6
ByLayer
370
18
48
1
60
1
100
AcDbLine
10
56.100002
20
-41.891939
30
0
11
56.099998
21
-40.970371
31
0
39
0
210
0
220
0
230
1
0
LINE
5
C4
100
AcDbEntity
8
1
62
256
6
ByLayer
370
18
48
1
60
1
100
AcDbLine
10
56.099998
20
-40.970371
30
0
11
59.6
21
-41.431155
31
0
39
0
210
0
220
0
230
1
0
LINE
5
111
100
AcDbEntity
8
1
62
256
6
ByLayer
370
18
48
1
60
1
100
AcDbLine
10
-57.25
20
10
30
0
11
-56.789216
21
6.500002
31
0
39
0
210
0
220
0
230
1
0
LINE
5
112
100
AcDbEntity
8
1
62
256
6
ByLayer
370
18
48
1
60
1
100
AcDbLine
10
-56.789216
20
6.500002
30
0
11
-57.710784
21
6.499998
31
0
39
0
210
0
220
0
230
1
0
LINE
5
113
100
AcDbEntity
8
1
62
256
6
ByLayer
370
18
48
1
60
1
100
AcDbLine
10
-57.710784
20
6.499998
30
0
11
-57.25
21
10
31
0
39
0
210
0
220
0
230
1
0
LINE
5
115
100
AcDbEntity
8
1
62
256
6
ByLayer
370
18
48
1
60
1
100
AcDbLine
10
-57.25
20
-10
30
0
11
-57.710784
21
-6.500002
31
0
39
0
210
0
220
0
230
1
0
LINE
5
116
100
AcDbEntity
8
1
62
256
6
ByLayer
370
18
48
1
60
1
100
AcDbLine
10
-57.710784
20
-6.500002
30
0
11
-56.789216
21
-6.499998
31
0
39
0
210
0
220
0
230
1
0
LINE
5
117
100
AcDbEntity
8
1
62
256
6
ByLayer
370
18
48
1
60
1
100
AcDbLine
10
-56.789216
20
-6.499998
30
0
11
-57.25
21
-10
31
0
39
0
210
0
220
0
230
1
0
LINE
5
11B
100
AcDbEntity
8
1
62
256
6
ByLayer
370
18
48
1
60
1
100
AcDbLine
10
71.6
20
10.0001
30
0
11
72.060784
21
6.500102
31
0
39
0
210
0
220
0
230
1
0
LINE
5
11C
100
AcDbEntity
8
1
62
256
6
ByLayer
370
18
48
1
60
1
100
AcDbLine
10
72.060784
20
6.500102
30
0
11
71.139216
21
6.500098
31
0
39
0
210
0
220
0
230
1
0
LINE
5
11D
100
AcDbEntity
8
1
62
256
6
ByLayer
370
18
48
1
60
1
100
AcDbLine
10
71.139216
20
6.500098
30
0
11
71.6
21
10.0001
31
0
39
0
210
0
220
0
230
1
0
LINE
5
11F
100
AcDbEntity
8
1
62
256
6
ByLayer
370
18
48
1
60
1
100
AcDbLine
10
71.6
20
-10.0001
30
0
11
71.139216
21
-6.500102
31
0
39
0
210
0
220
0
230
1
0
LINE
5
120
100
AcDbEntity
8
1
62
256
6
ByLayer
370
18
48
1
60
1
100
AcDbLine
10
71.139216
20
-6.500102
30
0
11
72.060784
21
-6.500098
31
0
39
0
210
0
220
0
230
1
0
LINE
5
121
100
AcDbEntity
8
1
62
256
6
ByLayer
370
18
48
1
60
1
100
AcDbLine
10
72.060784
20
-6.500098
30
0
11
71.6
21
-10.0001
31
0
39
0
210
0
220
0
230
1
0
LINE
5
124
100
AcDbEntity
8
1
62
256
6
ByLayer
370
18
48
1
60
1
100
AcDbLine
10
-50
20
-41.431155
30
0
11
-46.500002
21
-40.970371
31
0
39
0
210
0
220
0
230
1
0
LINE
5
125
100
AcDbEntity
8
1
62
256
6
ByLayer
370
18
48
1
60
1
100
AcDbLine
10
-46.500002
20
-40.970371
30
0
11
-46.499998
21
-41.891939
31
0
39
0
210
0
220
0
230
1
0
LINE
5
126
100
AcDbEntity
8
1
62
256
6
ByLayer
370
18
48
1
60
1
100
AcDbLine
10
-46.499998
20
-41.891939
30
0
11
-50
21
-41.431155
31
0
39
0
210
0
220
0
230
1
0
LINE
5
128
100
AcDbEntity
8
1
62
256
6
ByLayer
370
18
48
1
60
1
100
AcDbLine
10
59.6
20
-41.431155
30
0
11
56.100002
21
-41.891939
31
0
39
0
210
0
220
0
230
1
0
LINE
5
129
100
AcDbEntity
8
1
62
256
6
ByLayer
370
18
48
1
60
1
100
AcDbLine
10
56.100002
20
-41.891939
30
0
11
56.099998
21
-40.970371
31
0
39
0
210
0
220
0
230
1
0
LINE
5
12A
100
AcDbEntity
8
1
62
256
6
ByLayer
370
18
48
1
60
1
100
AcDbLine
10
56.099998
20
-40.970371
30
0
11
59.6
21
-41.431155
31
0
39
0
210
0
220
0
230
1
0
MTEXT
5
10D
100
AcDbEntity
8
SK2
62
256
6
ByLayer
370
18
48
1
60
0
100
AcDbMText
10
-58.814634
20
-26.996089
30
0
210
0
220
0
230
1
1
%%c
40
3.5
41
0
44
1.084337
50
90
71
7
72
5
7
iso_b_vert
0
MTEXT
5
110
100
AcDbEntity
8
SK2
62
256
6
ByLayer
370
18
48
1
60
0
100
AcDbMText
10
-58.814634
20
-20.023432
30
0
210
0
220
0
230
1
1
\W0.6740;20
40
3.5
41
0
44
1.084337
50
90
71
7
72
5
7
iso_b_vert
0
MTEXT
5
119
100
AcDbEntity
8
2
62
256
6
ByLayer
370
18
48
1
60
0
100
AcDbMText
10
70.035366
20
17.934944
30
0
210
0
220
0
230
1
1
%%c
40
3.5
41
0
44
1.084337
50
90
71
7
72
5
7
iso_b_vert
0
MTEXT
5
11A
100
AcDbEntity
8
2
62
256
6
ByLayer
370
18
48
1
60
0
100
AcDbMText
10
70.035366
20
24.9076
30
0
210
0
220
0
230
1
1
\W0.6740;20
40
3.5
41
0
44
1.084337
50
90
71
7
72
5
7
iso_b_vert
0
MTEXT
5
123
100
AcDbEntity
8
SK2
62
256
6
ByLayer
370
18
48
1
60
0
100
AcDbMText
10
0.008001
20
-40.398521
30
0
210
0
220
0
230
1
1
\W0.6864;109.6
40
3.5
41
0
44
1.084337
50
0
71
7
72
5
7
iso_b_vert
0
MTEXT
5
12C
100
AcDbEntity
8
SK6
62
256
6
ByLayer
370
18
48
1
60
0
100
AcDbMText
10
-19.289799
20
-62.114886
30
0
210
0
220
0
230
1
1
\W0.7309;2P342-2000-CMB      M2CM
40
3
41
0
44
1.084337
50
0
71
7
72
5
7
iso_b_vert
0
HATCH
5
114
100
AcDbEntity
8
SK2
62
256
6
ByLayer
370
13
48
1
60
0
100
AcDbHatch
10
0
20
0
30
0
210
0
220
0
230
1
2
ANSI31
70
0
71
0
91
1
92
5
93
3
72
1
10
-57.25
20
9.99999999999997
11
-56.7892162584472
21
6.50000169255316
72
1
10
-56.7892162584472
20
6.50000169255316
11
-57.7107837415528
21
6.49999830744679
72
1
10
-57.7107837415528
20
6.49999830744679
11
-57.25
21
9.99999999999997
97
0
75
0
76
1
52
0
41
0.0062
77
0
78
1
53
45
43
0
44
0
45
-0.0139193969876572
46
0.0139193969876572
79
0
47
0
98
1
10
0
20
0
0
HATCH
5
118
100
AcDbEntity
8
SK2
62
256
6
ByLayer
370
13
48
1
60
0
100
AcDbHatch
10
0
20
0
30
0
210
0
220
0
230
1
2
ANSI31
70
0
71
0
91
1
92
5
93
3
72
1
10
-57.25
20
-10
11
-57.7107837415528
21
-6.50000169255321
72
1
10
-57.7107837415528
20
-6.50000169255321
11
-56.7892162584472
21
-6.49999830744684
72
1
10
-56.7892162584472
20
-6.49999830744684
11
-57.25
21
-10
97
0
75
0
76
1
52
0
41
0.0062
77
0
78
1
53
45
43
0
44
0
45
-0.0139193969876572
46
0.0139193969876572
79
0
47
0
98
1
10
0
20
0
0
HATCH
5
11E
100
AcDbEntity
8
2
62
256
6
ByLayer
370
13
48
1
60
0
100
AcDbHatch
10
0
20
0
30
0
210
0
220
0
230
1
2
ANSI31
70
0
71
0
91
1
92
5
93
3
72
1
10
71.6
20
10.0000999999998
11
72.0607837415528
21
6.50010169255299
72
1
10
72.0607837415528
20
6.50010169255299
11
71.1392162584472
21
6.50009830744662
72
1
10
71.1392162584472
20
6.50009830744662
11
71.6
21
10.0000999999998
97
0
75
0
76
1
52
0
41
0.0062
77
0
78
1
53
45
43
0
44
0
45
-0.0139193969876572
46
0.0139193969876572
79
0
47
0
98
1
10
0
20
0
0
HATCH
5
122
100
AcDbEntity
8
2
62
256
6
ByLayer
370
13
48
1
60
0
100
AcDbHatch
10
0
20
0
30
0
210
0
220
0
230
1
2
ANSI31
70
0
71
0
91
1
92
5
93
3
72
1
10
71.6
20
-10.0001000000002
11
71.1392162584472
21
-6.50010169255339
72
1
10
71.1392162584472
20
-6.50010169255339
11
72.0607837415528
21
-6.50009830744702
72
1
10
72.0607837415528
20
-6.50009830744702
11
71.6
21
-10.0001000000002
97
0
75
0
76
1
52
0
41
0.0062
77
0
78
1
53
45
43
0
44
0
45
-0.0139193969876572
46
0.0139193969876572
79
0
47
0
98
1
10
0
20
0
0
HATCH
5
127
100
AcDbEntity
8
SK2
62
256
6
ByLayer
370
13
48
1
60
0
100
AcDbHatch
10
0
20
0
30
0
210
0
220
0
230
1
2
ANSI31
70
0
71
0
91
1
92
5
93
3
72
1
10
-50
20
-41.4311548464824
11
-46.5000016925532
21
-40.9703711049296
72
1
10
-46.5000016925532
20
-40.9703711049296
11
-46.4999983074468
21
-41.8919385880352
72
1
10
-46.4999983074468
20
-41.8919385880352
11
-50
21
-41.4311548464824
97
0
75
0
76
1
52
0
41
0.0062
77
0
78
1
53
45
43
0
44
0
45
-0.0139193969876572
46
0.0139193969876572
79
0
47
0
98
1
10
0
20
0
0
HATCH
5
12B
100
AcDbEntity
8
SK2
62
256
6
ByLayer
370
13
48
1
60
0
100
AcDbHatch
10
0
20
0
30
0
210
0
220
0
230
1
2
ANSI31
70
0
71
0
91
1
92
5
93
3
72
1
10
59.6
20
-41.4311548464824
11
56.1000016925532
21
-41.8919385880352
72
1
10
56.1000016925532
20
-41.8919385880352
11
56.0999983074468
21
-40.9703711049296
72
1
10
56.0999983074468
20
-40.9703711049296
11
59.6
21
-41.4311548464824
97
0
75
0
76
1
52
0
41
0.0062
77
0
78
1
53
45
43
0
44
0
45
-0.0139193969876572
46
0.0139193969876572
79
0
47
0
98
1
10
0
20
0
0
DIMENSION
5
12F
100
AcDbEntity
8
2
62
256
6
ByLayer
370
18
48
1
60
0
100
AcDbDimension
2
_U0
10
17.6
20
-25.431155
30
0
11
38.6
21
-25.431155
31
0
70
32
71
1
72
1
41
1
210
0
220
0
230
1
3
Standard
100
AcDbAlignedDimension
13
59.6
23
-10.0001
33
0
14
17.6
24
-10.0001
34
0
50
0
100
AcDbRotatedDimension
1001
ACAD
1000
DSTYLE
1002
{
1070
   371
1070
    13
1070
   372
1070
    13
1070
   170
1070
     0
1070
   144
1040
1.0
1070
   277
1070
     2
1070
   284
1070
     8
1070
   278
1070
    46
1070
   146
1040
1.0
1070
   345
1005
16
1070
   347
1005
16
1070
   346
1005
16
1070
   344
1005
0
1070
   343
1005
0
1070
   172
1070
     1
1070
    76
1070
     0
1070
    75
1070
     0
1070
   282
1070
     0
1070
   281
1070
     0
1070
    71
1070
     0
1070
    74
1070
     0
1070
   279
1070
     0
1070
   173
1070
     1
1070
   340
1005
10E
1070
   271
1070
     2
1070
   272
1070
     2
1070
    77
1070
     1
1070
    73
1070
     1
1070
   171
1070
     3
1070
   274
1070
     4
1070
   177
1070
     2
1070
   176
1070
     2
1070
   178
1070
     2
1070
    78
1070
     8
1070
    48
1040
-0.1
1070
    41
1040
3.5
1070
   147
1040
1.75
1070
    42
1040
1.5875
1070
    44
1040
2.0
1070
   140
1040
3.5
1002
}
1001
ACAD_DSTYLE_DIM_LINETYPE
1070
   380
1005
16
1001
ACAD_DSTYLE_DIM_EXT1_LINETYPE
1070
   381
1005
16
1001
ACAD_DSTYLE_DIM_EXT2_LINETYPE
1070
   382
1005
16
0
ENDSEC
0
SECTION
2
OBJECTS
0
DICTIONARY
5
1b8
330
0
100
AcDbDictionary
280
0
281
1
3
ACAD_GROUP
350
1b9
3
ACAD_MLINESTYLE
350
1ba
0
DICTIONARY
5
1b9
330
0
100
AcDbDictionary
280
0
281
1
0
DICTIONARY
5
1ba
330
0
100
AcDbDictionary
280
0
281
1
3
Standard
350
18
0
MLINESTYLE
5
18
330
1ba
100
AcDbMlineStyle
2
Standard
70
0
3

62
256
51
90
52
90
71
2
49
-0.5
62
256
6
ByLayer
49
0.5
62
256
6
ByLayer
0
RASTERVARIABLES
5
1a6
330

100
AcDbRasterVariables
90
0
70
1
71
1
72
1
0
ENDSEC
0
EOF
