0
SECTION
2
HEADER
9
$ACADVER
1
AC1015
9
$DWGCODEPAGE
3
ANSI_1252
9
$HANDSEED
5
250
9
$ANGBASE
50
0
9
$ANGDIR
70
0
9
$ATTMODE
70
1
9
$AUNITS
70
0
9
$AUPREC
70
0
9
$CECOLOR
62
256
9
$CELTSCALE
40
1
9
$CELTYPE
6
ByLayer
9
$CELWEIGHT
370
18
9
$CLAYER
8
0
9
$CMLJUST
70
0
9
$CMLSCALE
40
1
9
$CMLSTYLE
2
Standard
9
$DIMSTYLE
2
Standard
9
$TEXTSIZE
40
0.2
9
$TEXTSTYLE
7
Standard
9
$LUNITS
70
2
9
$LUPREC
70
4
9
$EXTNAMES
290
1
9
$INSUNITS
70
4
9
$LTSCALE
40
1
9
$LWDISPLAY
290
1
9
$PDMODE
70
0
9
$PDSIZE
40
0
9
$PLINEGEN
70
0
0
ENDSEC
0
SECTION
2
CLASSES
0
CLASS
1
RASTERVARIABLES
2
AcDbRasterVariables
3
ISM
90
0
280
0
281
0
0
ENDSEC
0
SECTION
2
TABLES
0
TABLE
2
VPORT
5
246
100
AcDbSymbolTable
0
VPORT
5
1
100
AcDbSymbolTableRecord
100
AcDbViewportTableRecord
2
*Active
70
0
10
0
20
0
11
1
21
1
12
-1
22
1
13
0
23
0
14
0.5
24
0.5
15
10
25
10
16
0
26
0
36
1
17
0
27
0
37
0
0
ENDTAB
0
TABLE
2
LTYPE
5
247
100
AcDbSymbolTable
0
LTYPE
5
14
100
AcDbSymbolTableRecord
100
AcDbLinetypeTableRecord
70
0
2
ByBlock
3

72
65
73
0
40
0
0
LTYPE
5
15
100
AcDbSymbolTableRecord
100
AcDbLinetypeTableRecord
70
0
2
ByLayer
3

72
65
73
0
40
0
0
LTYPE
5
16
100
AcDbSymbolTableRecord
100
AcDbLinetypeTableRecord
70
0
2
Continuous
3
Solid line
72
65
73
0
40
0
0
LTYPE
5
6E
100
AcDbSymbolTableRecord
100
AcDbLinetypeTableRecord
70
0
2
CENTER
3
____ _ ____ _ ____ _ ____
72
65
73
4
40
47.5
49
22
74
0
49
-8.5
74
0
49
8.5
74
0
49
-8.5
74
0
0
LTYPE
5
6F
100
AcDbSymbolTableRecord
100
AcDbLinetypeTableRecord
70
0
2
DASHED
3
__ __ __ __ __ __ __ __ __
72
65
73
2
40
25.72
49
12.86
74
0
49
-12.86
74
0
0
ENDTAB
0
TABLE
2
LAYER
5
248
100
AcDbSymbolTable
0
LAYER
5
10
100
AcDbSymbolTableRecord
100
AcDbLayerTableRecord
2
0
70
0
62
7
6
Continuous
290
1
370
-3
390
0
0
LAYER
5
71
100
AcDbSymbolTableRecord
100
AcDbLayerTableRecord
2
80
70
0
62
-6
6
Continuous
290
1
370
-3
390
0
0
LAYER
5
73
100
AcDbSymbolTableRecord
100
AcDbLayerTableRecord
2
81
70
0
62
-3
6
Continuous
290
1
370
-3
390
0
0
LAYER
5
75
100
AcDbSymbolTableRecord
100
AcDbLayerTableRecord
2
1
70
0
62
4
6
Continuous
290
1
370
-3
390
0
0
LAYER
5
7B
100
AcDbSymbolTableRecord
100
AcDbLayerTableRecord
2
4
70
0
62
-2
6
CENTER
290
1
370
-3
390
0
0
LAYER
5
C7
100
AcDbSymbolTableRecord
100
AcDbLayerTableRecord
2
2
70
0
62
7
6
Continuous
290
1
370
-3
390
0
0
LAYER
5
1A5
100
AcDbSymbolTableRecord
100
AcDbLayerTableRecord
2
Defpoints
70
0
62
7
6
Continuous
290
0
370
-3
390
0
0
LAYER
5
232
100
AcDbSymbolTableRecord
100
AcDbLayerTableRecord
2
SK4
70
0
62
2
6
CENTER
290
1
370
-3
390
0
0
LAYER
5
233
100
AcDbSymbolTableRecord
100
AcDbLayerTableRecord
2
SK1
70
0
62
4
6
Continuous
290
1
370
-3
390
0
0
LAYER
5
234
100
AcDbSymbolTableRecord
100
AcDbLayerTableRecord
2
SK2
70
0
62
7
6
Continuous
290
1
370
-3
390
0
0
LAYER
5
235
100
AcDbSymbolTableRecord
100
AcDbLayerTableRecord
2
SK6
70
0
62
5
6
Continuous
290
1
370
-3
390
0
0
ENDTAB
0
TABLE
2
STYLE
5
249
100
AcDbSymbolTable
0
STYLE
5
11
100
AcDbSymbolTableRecord
100
AcDbTextStyleTableRecord
2
Standard
3
txt
70
0
71
0
40
0
41
1
42
0
50
0
0
STYLE
5
177
100
AcDbSymbolTableRecord
100
AcDbTextStyleTableRecord
2
iso_b_vert
3
simplex.shx
70
0
71
0
40
0
41
1
42
0
50
0
0
STYLE
5
178
100
AcDbSymbolTableRecord
100
AcDbTextStyleTableRecord
2
DWGDirectTextStyle
3
simplex
70
0
71
0
40
0
41
1
42
0
50
0
0
ENDTAB
0
TABLE
2
DIMSTYLE
5
24a
100
AcDbSymbolTable
100
AcDbDimStyleTable
0
DIMSTYLE
105
27
100
AcDbSymbolTableRecord
100
AcDbDimStyleTableRecord
2
Standard
70
0
3
<>
41
0.18
42
0.0625
44
0.18
140
0.18
147
0.09
73
0
74
0
77
1
271
2
275
0
278
52
280
0
340
11
0
ENDTAB
0
TABLE
2
VIEW
5
24b
100
AcDbSymbolTable
0
ENDTAB
0
TABLE
2
UCS
5
24c
100
AcDbSymbolTable
0
ENDTAB
0
TABLE
2
APPID
5
24d
100
AcDbSymbolTable
0
APPID
5
12
100
AcDbSymbolTableRecord
100
AcDbRegAppTableRecord
2
ACAD
70
0
0
APPID
5
1A1
100
AcDbSymbolTableRecord
100
AcDbRegAppTableRecord
2
ACAD_DSTYLE_DIMBREAK
70
0
0
APPID
5
1F1
100
AcDbSymbolTableRecord
100
AcDbRegAppTableRecord
2
ACAD_DSTYLE_DIM_LINETYPE
70
0
0
APPID
5
1F2
100
AcDbSymbolTableRecord
100
AcDbRegAppTableRecord
2
ACAD_DSTYLE_DIM_EXT1_LINETYPE
70
0
0
APPID
5
1F3
100
AcDbSymbolTableRecord
100
AcDbRegAppTableRecord
2
ACAD_DSTYLE_DIM_EXT2_LINETYPE
70
0
0
APPID
5
22E
100
AcDbSymbolTableRecord
100
AcDbRegAppTableRecord
2
ACAD_MLEADERVER
70
0
0
ENDTAB
0
TABLE
2
BLOCK_RECORD
5
24e
100
AcDbSymbolTable
0
BLOCK_RECORD
5
1F
100
AcDbSymbolTableRecord
100
AcDbBlockTableRecord
2
*Model_Space
340
0
70
0
0
BLOCK_RECORD
5
1B
100
AcDbSymbolTableRecord
100
AcDbBlockTableRecord
2
*Paper_Space
340
0
70
0
0
BLOCK_RECORD
5
23
100
AcDbSymbolTableRecord
100
AcDbBlockTableRecord
2
*Paper_Space0
340
0
70
0
0
BLOCK_RECORD
5
1A6
100
AcDbSymbolTableRecord
100
AcDbBlockTableRecord
2
*D1
340
0
70
0
0
BLOCK_RECORD
5
1B2
100
AcDbSymbolTableRecord
100
AcDbBlockTableRecord
2
_U0
340
0
70
0
0
BLOCK_RECORD
5
1BE
100
AcDbSymbolTableRecord
100
AcDbBlockTableRecord
2
*D3
340
0
70
0
0
BLOCK_RECORD
5
1CA
100
AcDbSymbolTableRecord
100
AcDbBlockTableRecord
2
_U1
340
0
70
0
0
ENDTAB
0
ENDSEC
0
SECTION
2
BLOCKS
0
BLOCK
5
20
100
AcDbEntity
8
0
100
AcDbBlockBegin
2
*Model_Space
70
0
10
0
20
0
30
0
3
*Model_Space
0
ENDBLK
5
21
100
AcDbEntity
8
0
100
AcDbBlockEnd
0
BLOCK
5
1C
100
AcDbEntity
8
0
100
AcDbBlockBegin
2
*Paper_Space
70
0
10
0
20
0
30
0
3
*Paper_Space
0
ENDBLK
5
1D
100
AcDbEntity
8
0
100
AcDbBlockEnd
0
BLOCK
5
24
100
AcDbEntity
8
0
100
AcDbBlockBegin
2
*Paper_Space0
70
0
10
0
20
0
30
0
3
*Paper_Space0
0
ENDBLK
5
25
100
AcDbEntity
8
0
100
AcDbBlockEnd
0
BLOCK
5
1A7
100
AcDbEntity
8
0
100
AcDbBlockBegin
2
*D1
70
1
10
0
20
0
30
0
3
*D1
0
LINE
5
1A9
100
AcDbEntity
8
0
62
256
6
ByLayer
370
-2
48
1
60
0
100
AcDbLine
10
43.6
20
-7.9375
30
0
11
43.6
21
-22.481683
31
0
39
0
210
0
220
0
230
1
0
LINE
5
1AA
100
AcDbEntity
8
0
62
256
6
ByLayer
370
-2
48
1
60
0
100
AcDbLine
10
15.02
20
-7.9375
30
0
11
15.02
21
-22.481683
31
0
39
0
210
0
220
0
230
1
0
LINE
5
1AB
100
AcDbEntity
8
0
62
256
6
ByLayer
370
-2
48
1
60
0
100
AcDbLine
10
40.1
20
-20.481683
30
0
11
18.52
21
-20.481683
31
0
39
0
210
0
220
0
230
1
0
SOLID
5
1AC
100
AcDbEntity
8
0
62
256
6
ByLayer
370
-1
48
1
60
0
100
AcDbTrace
10
40.1
20
-21.065016
30
0
11
40.1
21
-19.89835
31
0
12
43.6
22
-20.481683
32
0
13
43.6
23
-20.481683
33
0
39
0
210
0
220
0
230
1
0
SOLID
5
1AD
100
AcDbEntity
8
0
62
256
6
ByLayer
370
-1
48
1
60
0
100
AcDbTrace
10
18.52
20
-19.89835
30
0
11
18.52
21
-21.065016
31
0
12
15.02
22
-20.481683
32
0
13
15.02
23
-20.481683
33
0
39
0
210
0
220
0
230
1
0
MTEXT
5
1AE
100
AcDbEntity
8
0
62
256
6
ByLayer
370
18
48
1
60
0
100
AcDbMText
10
29.31
20
-13.481683
30
0
210
0
220
0
230
1
1
\A1;28.58
40
3.5
41
0
44
1
50
0
71
5
72
5
7
iso_b_vert
0
POINT
5
1AF
100
AcDbEntity
8
Defpoints
62
0
6
ByLayer
370
-1
48
1
60
0
100
AcDbPoint
10
43.6
20
-6.35
30
0
39
0
210
0
220
0
230
1
50
360
0
POINT
5
1B0
100
AcDbEntity
8
Defpoints
62
0
6
ByLayer
370
-1
48
1
60
0
100
AcDbPoint
10
15.02
20
-6.35
30
0
39
0
210
0
220
0
230
1
50
360
0
POINT
5
1B1
100
AcDbEntity
8
Defpoints
62
0
6
ByLayer
370
-1
48
1
60
0
100
AcDbPoint
10
15.02
20
-20.481683
30
0
39
0
210
0
220
0
230
1
50
360
0
ENDBLK
5
1A8
100
AcDbEntity
8
0
100
AcDbBlockEnd
0
BLOCK
5
1B9
100
AcDbEntity
8
0
100
AcDbBlockBegin
2
_U0
70
0
10
0
20
0
30
0
3
_U0
0
MTEXT
5
1B3
100
AcDbEntity
8
2
62
256
6
ByLayer
370
18
48
1
60
0
100
AcDbMText
10
24.080568
20
-19.44905
30
0
210
0
220
0
230
1
1
\W0.7468;28.58
40
3.5
41
0
44
1.084337
50
0
71
7
72
5
7
iso_b_vert
0
LINE
5
1B4
100
AcDbEntity
8
2
62
256
6
ByLayer
370
13
48
1
60
0
100
AcDbLine
10
43.6
20
-7.9375
30
0
11
43.6
21
-22.481683
31
0
39
0
210
0
220
0
230
1
0
LINE
5
1B5
100
AcDbEntity
8
2
62
256
6
ByLayer
370
13
48
1
60
0
100
AcDbLine
10
15.02
20
-7.9375
30
0
11
15.02
21
-22.481683
31
0
39
0
210
0
220
0
230
1
0
LINE
5
1B6
100
AcDbEntity
8
2
62
256
6
ByLayer
370
13
48
1
60
0
100
AcDbLine
10
43.6
20
-20.481683
30
0
11
15.02
21
-20.481683
31
0
39
0
210
0
220
0
230
1
0
SOLID
5
1B7
100
AcDbEntity
8
2
62
256
6
ByLayer
370
18
48
1
60
0
100
AcDbTrace
10
43.6
20
-20.481683
30
0
11
40.100002
21
-20.942467
31
0
12
40.099998
22
-20.020899
32
0
13
40.099998
23
-20.020899
33
0
39
0
210
0
220
0
230
1
0
SOLID
5
1B8
100
AcDbEntity
8
2
62
256
6
ByLayer
370
18
48
1
60
0
100
AcDbTrace
10
15.02
20
-20.481683
30
0
11
18.519998
21
-20.020899
31
0
12
18.520002
22
-20.942467
32
0
13
18.520002
23
-20.942467
33
0
39
0
210
0
220
0
230
1
0
ENDBLK
5
1BA
100
AcDbEntity
8
0
100
AcDbBlockEnd
0
BLOCK
5
1BF
100
AcDbEntity
8
0
100
AcDbBlockBegin
2
*D3
70
1
10
0
20
0
30
0
3
*D3
0
LINE
5
1C1
100
AcDbEntity
8
0
62
256
6
ByLayer
370
-2
48
1
60
0
100
AcDbLine
10
43.6
20
-7.9375
30
0
11
43.6
21
-37.481683
31
0
39
0
210
0
220
0
230
1
0
LINE
5
1C2
100
AcDbEntity
8
0
62
256
6
ByLayer
370
-2
48
1
60
0
100
AcDbLine
10
7.097679
20
-7.6225
30
0
11
7.097679
21
-37.481683
31
0
39
0
210
0
220
0
230
1
0
LINE
5
1C3
100
AcDbEntity
8
0
62
256
6
ByLayer
370
-2
48
1
60
0
100
AcDbLine
10
40.1
20
-35.481683
30
0
11
10.597679
21
-35.481683
31
0
39
0
210
0
220
0
230
1
0
SOLID
5
1C4
100
AcDbEntity
8
0
62
256
6
ByLayer
370
-1
48
1
60
0
100
AcDbTrace
10
40.1
20
-36.065016
30
0
11
40.1
21
-34.89835
31
0
12
43.6
22
-35.481683
32
0
13
43.6
23
-35.481683
33
0
39
0
210
0
220
0
230
1
0
SOLID
5
1C5
100
AcDbEntity
8
0
62
256
6
ByLayer
370
-1
48
1
60
0
100
AcDbTrace
10
10.597679
20
-34.89835
30
0
11
10.597679
21
-36.065016
31
0
12
7.097679
22
-35.481683
32
0
13
7.097679
23
-35.481683
33
0
39
0
210
0
220
0
230
1
0
MTEXT
5
1C6
100
AcDbEntity
8
0
62
256
6
ByLayer
370
18
48
1
60
0
100
AcDbMText
10
25.348839
20
-28.481683
30
0
210
0
220
0
230
1
1
\A1;36.5
40
3.5
41
0
44
1
50
0
71
5
72
5
7
iso_b_vert
0
POINT
5
1C7
100
AcDbEntity
8
Defpoints
62
0
6
ByLayer
370
-1
48
1
60
0
100
AcDbPoint
10
43.6
20
-6.35
30
0
39
0
210
0
220
0
230
1
50
360
0
POINT
5
1C8
100
AcDbEntity
8
Defpoints
62
0
6
ByLayer
370
-1
48
1
60
0
100
AcDbPoint
10
7.097679
20
-6.035
30
0
39
0
210
0
220
0
230
1
50
360
0
POINT
5
1C9
100
AcDbEntity
8
Defpoints
62
0
6
ByLayer
370
-1
48
1
60
0
100
AcDbPoint
10
7.097679
20
-35.481683
30
0
39
0
210
0
220
0
230
1
50
360
0
ENDBLK
5
1C0
100
AcDbEntity
8
0
100
AcDbBlockEnd
0
BLOCK
5
1D1
100
AcDbEntity
8
0
100
AcDbBlockBegin
2
_U1
70
0
10
0
20
0
30
0
3
_U1
0
MTEXT
5
1CB
100
AcDbEntity
8
SK2
62
256
6
ByLayer
370
18
48
1
60
0
100
AcDbMText
10
21.42714
20
-34.44905
30
0
210
0
220
0
230
1
1
\W0.7346;36.5
40
3.5
41
0
44
1.084337
50
0
71
7
72
5
7
iso_b_vert
0
LINE
5
1CC
100
AcDbEntity
8
SK2
62
256
6
ByLayer
370
13
48
1
60
0
100
AcDbLine
10
43.6
20
-7.9375
30
0
11
43.6
21
-37.481683
31
0
39
0
210
0
220
0
230
1
0
LINE
5
1CD
100
AcDbEntity
8
SK2
62
256
6
ByLayer
370
13
48
1
60
0
100
AcDbLine
10
7.097679
20
-7.6225
30
0
11
7.097679
21
-37.481683
31
0
39
0
210
0
220
0
230
1
0
LINE
5
1CE
100
AcDbEntity
8
SK2
62
256
6
ByLayer
370
13
48
1
60
0
100
AcDbLine
10
43.6
20
-35.481683
30
0
11
7.097679
21
-35.481683
31
0
39
0
210
0
220
0
230
1
0
SOLID
5
1CF
100
AcDbEntity
8
SK2
62
256
6
ByLayer
370
18
48
1
60
0
100
AcDbTrace
10
43.6
20
-35.481683
30
0
11
40.100002
21
-35.942467
31
0
12
40.099998
22
-35.020899
32
0
13
40.099998
23
-35.020899
33
0
39
0
210
0
220
0
230
1
0
SOLID
5
1D0
100
AcDbEntity
8
SK2
62
256
6
ByLayer
370
18
48
1
60
0
100
AcDbTrace
10
7.097679
20
-35.481683
30
0
11
10.597677
21
-35.020899
31
0
12
10.597681
22
-35.942467
32
0
13
10.597681
23
-35.942467
33
0
39
0
210
0
220
0
230
1
0
ENDBLK
5
1D2
100
AcDbEntity
8
0
100
AcDbBlockEnd
0
ENDSEC
0
SECTION
2
ENTITIES
0
ARC
5
D9
100
AcDbEntity
8
1
62
256
6
ByLayer
370
18
48
1
60
0
100
AcDbCircle
39
0
10
7.097679
20
7.035
30
0
40
1
210
0
220
0
230
1
100
AcDbArc
50
240
51
270
0
ARC
5
DA
100
AcDbEntity
8
1
62
256
6
ByLayer
370
18
48
1
60
0
100
AcDbCircle
39
0
10
7.097679
20
-7.035
30
0
40
1
210
0
220
0
230
1
100
AcDbArc
50
90
51
120
0
ELLIPSE
5
DB
100
AcDbEntity
8
1
62
256
6
ByLayer
370
18
48
1
60
0
100
AcDbEllipse
10
43.569301
20
0.233676
30
0
11
1.11598416809732
21
0.515075453908191
31
0
210
0
220
0
230
1
40
0.646684
41
-2.97315636671233
42
-2.8526184216177
0
ELLIPSE
5
DC
100
AcDbEntity
8
1
62
256
6
ByLayer
370
18
48
1
60
0
100
AcDbEllipse
10
43.137641
20
1.285295
30
0
11
0.664637007850212
21
0.768970410905815
31
0
210
0
220
0
230
1
40
0.601183
41
-2.69168634604
42
-2.19715303568337
0
ELLIPSE
5
DD
100
AcDbEntity
8
1
62
256
6
ByLayer
370
18
48
1
60
0
100
AcDbEllipse
10
42.351413
20
3.74594
30
0
11
3.75088365402305
21
-11.013786976015
31
0
210
0
220
0
230
1
40
0.085928
41
-1.27339762617057
42
-1.25823710106328
0
ELLIPSE
5
DE
100
AcDbEntity
8
1
62
256
6
ByLayer
370
18
48
1
60
0
100
AcDbEllipse
10
40.702499
20
-7.146708
30
0
11
8.64618336582753
21
20.2549162023493
31
0
210
0
220
0
230
1
40
0.042203
41
1.25272576231659
42
1.25916871261743
0
ELLIPSE
5
DF
100
AcDbEntity
8
1
62
256
6
ByLayer
370
13
48
1
60
0
100
AcDbEllipse
10
22.639326
20
73.092781
30
0
11
11.7325538044009
21
-71.7452393268601
31
0
210
0
220
0
230
1
40
0.73422
41
-0.385968333250808
42
-0.383198068949504
0
ELLIPSE
5
E0
100
AcDbEntity
8
1
62
256
6
ByLayer
370
18
48
1
60
0
100
AcDbEllipse
10
43.019553
20
1.887885
30
0
11
0.464177890250174
21
-4.3102345798739
31
0
210
0
220
0
230
1
40
0.017155
41
-0.529611467242384
42
-0.521184846092563
0
ELLIPSE
5
E1
100
AcDbEntity
8
1
62
256
6
ByLayer
370
18
48
1
60
0
100
AcDbEllipse
10
43.569301
20
-0.722879
30
0
11
1.00472525222301
21
-0.724771039396386
31
0
210
0
220
0
230
1
40
0.812643
41
3.07767323422643
42
-3.06986601431243
0
ELLIPSE
5
E2
100
AcDbEntity
8
1
62
256
6
ByLayer
370
18
48
1
60
0
100
AcDbEllipse
10
43.135998
20
-0.262618
30
0
11
0.0451819088077629
21
1.18376822281504
31
0
210
0
220
0
230
1
40
0.680107
41
0.0991986015931926
42
0.614178618264132
0
ELLIPSE
5
E3
100
AcDbEntity
8
1
62
256
6
ByLayer
370
18
48
1
60
0
100
AcDbEllipse
10
42.828259
20
0.064263
30
0
11
2.51145042253023
21
-1.63673387319714
31
0
210
0
220
0
230
1
40
0.250568
41
-1.517684829568
42
-1.49316230671047
0
ELLIPSE
5
E4
100
AcDbEntity
8
1
62
256
6
ByLayer
370
13
48
1
60
0
100
AcDbEllipse
10
22.639326
20
-0.829815
30
0
11
53.8103872454819
21
-48.8822504528267
31
0
210
0
220
0
230
1
40
0.084196
41
-1.75717056856868
42
-1.65850788230438
0
ELLIPSE
5
E5
100
AcDbEntity
8
1
62
256
6
ByLayer
370
13
48
1
60
0
100
AcDbEllipse
10
22.639326
20
-71.150124
30
0
11
33.1218389489288
21
-64.714573084297
31
0
210
0
220
0
230
1
40
0.658399
41
2.71952246826493
42
2.74351908894055
0
ELLIPSE
5
E6
100
AcDbEntity
8
1
62
256
6
ByLayer
370
13
48
1
60
0
100
AcDbEllipse
10
22.639326
20
-71.150124
30
0
11
33.1218389489288
21
-64.714573084297
31
0
210
0
220
0
230
1
40
0.658399
41
2.71384166388682
42
2.71834931953543
0
POINT
5
70
100
AcDbEntity
8
80
62
256
6
ByLayer
370
18
48
1
60
0
100
AcDbPoint
10
0
20
0
30
0
39
0
210
0
220
0
230
1
50
360
0
POINT
5
72
100
AcDbEntity
8
81
62
256
6
ByLayer
370
18
48
1
60
0
100
AcDbPoint
10
43.6
20
0
30
0
39
0
210
0
220
0
230
1
50
360
0
POINT
5
74
100
AcDbEntity
8
1
62
256
6
ByLayer
370
18
48
1
60
1
100
AcDbPoint
10
43.6
20
-6.35
30
0
39
0
210
0
220
0
230
1
50
360
0
POINT
5
76
100
AcDbEntity
8
1
62
256
6
ByLayer
370
18
48
1
60
1
100
AcDbPoint
10
15.02
20
-6.35
30
0
39
0
210
0
220
0
230
1
50
360
0
POINT
5
77
100
AcDbEntity
8
1
62
256
6
ByLayer
370
18
48
1
60
1
100
AcDbPoint
10
43.6
20
-6.35
30
0
39
0
210
0
220
0
230
1
50
360
0
POINT
5
78
100
AcDbEntity
8
1
62
256
6
ByLayer
370
18
48
1
60
1
100
AcDbPoint
10
7.097679
20
-6.035
30
0
39
0
210
0
220
0
230
1
50
360
0
SPLINE
5
E7
100
AcDbEntity
8
1
62
256
6
ByLayer
370
18
48
1
60
0
100
AcDbSpline
70
4
71
1
72
4
73
2
40
0
40
0
40
1
40
1
41
1
10
43.4484822078738
20
0.953713211042981
30
0
41
1
10
43.4456407723879
20
0.934722185301951
30
0
0
SPLINE
5
E8
100
AcDbEntity
8
1
62
256
6
ByLayer
370
18
48
1
60
0
100
AcDbSpline
70
4
71
1
72
4
73
2
40
0
40
0
40
1
40
1
41
1
10
43.4484822078738
20
0.953713211043009
30
0
41
1
10
43.5781505619673
20
1.93632266675866
30
0
0
SPLINE
5
E9
100
AcDbEntity
8
1
62
256
6
ByLayer
370
18
48
1
60
0
100
AcDbSpline
70
4
71
5
72
15
73
9
40
0
40
0
40
0
40
0
40
0
40
0
40
0.607224466254775
40
0.789542488361657
40
0.971326320805047
40
1
40
1
40
1
40
1
40
1
40
1
41
1
10
43.5791617237134
20
-4.9473384497004
30
0
41
1
10
43.5791991063499
20
-4.95773917640818
30
0
41
1
10
43.5785527226305
20
-4.97131699979832
30
0
41
1
10
43.5766512605745
20
-4.98804116890841
30
0
41
1
10
43.5732686202863
20
-5.00537907314208
30
0
41
1
10
43.5684767920881
20
-5.02257693639109
30
0
41
1
10
43.5663829013072
20
-5.02929545245846
30
0
41
1
10
43.5652007897018
20
-5.03288354999555
30
0
41
1
10
43.5650386183132
20
-5.03337218582294
30
0
0
SPLINE
5
EA
100
AcDbEntity
8
1
62
256
6
ByLayer
370
18
48
1
60
0
100
AcDbSpline
70
4
71
5
72
14
73
8
40
0
40
0
40
0
40
0
40
0
40
0
40
0.723881141323055
40
0.941225114188635
40
1
40
1
40
1
40
1
40
1
40
1
41
1
10
43.5791617237135
20
1.94310239918005
30
0
41
1
10
43.5791991063502
20
1.9475857500623
30
0
41
1
10
43.5785527226308
20
1.95328574567878
30
0
41
1
10
43.576910604087
20
1.95913908587275
30
0
41
1
10
43.5742361331321
20
1.96480281616488
30
0
41
1
10
43.5705645110093
20
1.97021574883127
30
0
41
1
10
43.5694756854165
20
1.97169010340704
30
0
41
1
10
43.5692405277915
20
1.97200300736623
30
0
0
SPLINE
5
EB
100
AcDbEntity
8
1
62
256
6
ByLayer
370
13
48
1
60
0
100
AcDbSpline
70
4
71
1
72
4
73
2
40
0
40
0
40
1
40
1
41
1
10
43.4484822078749
20
-5.4319482475243
30
0
41
1
10
43.5781505619684
20
-4.93209835988185
30
0
0
SPLINE
5
EC
100
AcDbEntity
8
1
62
256
6
ByLayer
370
18
48
1
60
0
100
AcDbSpline
70
4
71
5
72
29
73
23
40
0
40
0
40
0
40
0
40
0
40
0
40
0.116227194447212
40
0.151124194442567
40
0.185918946637792
40
0.263906659913342
40
0.34245447086476
40
0.379749478494766
40
0.415199985923504
40
0.493373331342281
40
0.572319359604656
40
0.610743141151263
40
0.646429078189743
40
0.68523722429416
40
0.764570305765015
40
0.843440431746267
40
0.878212596467185
40
0.916270778470235
40
0.996121450199014
40
1
40
1
40
1
40
1
40
1
40
1
41
1
10
43.5791617237134
20
5.96408659651613
30
0
41
1
10
43.579199106351
20
5.97686724910369
30
0
41
1
10
43.5785527226324
20
5.99345896151354
30
0
41
1
10
43.5766512605767
20
6.0137475080449
30
0
41
1
10
43.5719873772807
20
6.04248688413452
30
0
41
1
10
43.5624591570544
20
6.07889057678202
30
0
41
1
10
43.5529505056553
20
6.10595627658549
30
0
41
1
10
43.5412602810851
20
6.13217425150472
30
0
41
1
10
43.5250417668342
20
6.16169211310111
30
0
41
1
10
43.5063847951717
20
6.189850235319
30
0
41
1
10
43.4883624538377
20
6.21267031977072
30
0
41
1
10
43.4687076816928
20
6.23373629618368
30
0
41
1
10
43.4469468346294
20
6.25347423167489
30
0
41
1
10
43.4237529169286
20
6.27176324915882
30
0
41
1
10
43.3994984187653
20
6.28830530570764
30
0
41
1
10
43.3744878111733
20
6.30246457825638
30
0
41
1
10
43.3480742477373
20
6.31467228111643
30
0
41
1
10
43.3163600050299
20
6.32624781683157
30
0
41
1
10
43.2918262766146
20
6.33296770838439
30
0
41
1
10
43.2753895378099
20
6.33649933394781
30
0
41
1
10
43.2625140469877
20
6.3386898922713
30
0
41
1
10
43.2536186630662
20
6.33993280907256
30
0
41
1
10
43.2532065130143
20
6.33998981956609
30
0
0
SPLINE
5
ED
100
AcDbEntity
8
1
62
256
6
ByLayer
370
18
48
1
60
0
100
AcDbSpline
70
4
71
3
72
20
73
16
40
0
40
0
40
0
40
0
40
0.24999999999999
40
0.24999999999999
40
0.499999999999981
40
0.499999999999981
40
0.624999999999979
40
0.624999999999979
40
0.749999999999977
40
0.749999999999977
40
0.874999999999975
40
0.874999999999975
40
0.937499999999987
40
0.937499999999987
40
1
40
1
40
1
40
1
41
1
10
43.3701541140907
20
-5.73652012728928
30
0
41
1
10
43.3779812274621
20
-5.71596649098129
30
0
41
1
10
43.3857427587754
20
-5.69492470987799
30
0
41
1
10
43.4010093622757
20
-5.65149673747052
30
0
41
1
10
43.4085354290412
20
-5.6290835262385
30
0
41
1
10
43.4194216490739
20
-5.59388272589766
30
0
41
1
10
43.4229926390858
20
-5.58184539747703
30
0
41
1
10
43.4298838987749
20
-5.55713232104054
30
0
41
1
10
43.4332056516622
20
-5.54447337088101
30
0
41
1
10
43.4394307324521
20
-5.51813399958854
30
0
41
1
10
43.4423692156413
20
-5.50433437762163
30
0
41
1
10
43.4459505607747
20
-5.48299686327402
30
0
41
1
10
43.4470109734919
20
-5.47570548093384
30
0
41
1
10
43.4486399733052
20
-5.46137201944558
30
0
41
1
10
43.4492238336796
20
-5.45421949930628
30
0
41
1
10
43.4494692949681
20
-5.44728114108338
30
0
0
SPLINE
5
EE
100
AcDbEntity
8
1
62
256
6
ByLayer
370
18
48
1
60
0
100
AcDbSpline
70
4
71
1
72
4
73
2
40
0
40
0
40
1
40
1
41
1
10
43.4494692949682
20
-5.44728114108349
30
0
41
1
10
43.4484822078749
20
-5.4319482475243
30
0
0
SPLINE
5
EF
100
AcDbEntity
8
1
62
256
6
ByLayer
370
18
48
1
60
0
100
AcDbSpline
70
4
71
1
72
4
73
2
40
0
40
0
40
1
40
1
41
1
10
43.4484822078749
20
-5.4319482475243
30
0
41
1
10
43.4456407723879
20
-5.38781087790974
30
0
0
SPLINE
5
F0
100
AcDbEntity
8
1
62
256
6
ByLayer
370
18
48
1
60
0
100
AcDbSpline
70
4
71
3
72
12
73
8
40
0
40
0
40
0
40
0
40
0.25
40
0.25
40
0.5
40
0.5
40
1
40
1
40
1
40
1
41
1
10
42.5365220418669
20
-0.232022329453116
30
0
41
1
10
42.5346903043591
20
-0.245346715607099
30
0
41
1
10
42.5330477243809
20
-0.258776801316657
30
0
41
1
10
42.5301793072846
20
-0.285858385647231
30
0
41
1
10
42.5289528168062
20
-0.299533782782845
30
0
41
1
10
42.5259887256787
20
-0.340477429099394
30
0
41
1
10
42.5249496006838
20
-0.367784487379481
30
0
41
1
10
42.5249494915667
20
-0.395094669154076
30
0
0
SPLINE
5
F1
100
AcDbEntity
8
1
62
256
6
ByLayer
370
18
48
1
60
0
100
AcDbSpline
70
4
71
3
72
22
73
18
40
0
40
0
40
0
40
0
40
0.0324543157628523
40
0.0324543157628523
40
0.22596345261028
40
0.22596345261028
40
0.322718021033991
40
0.322718021033991
40
0.419472589457702
40
0.419472589457702
40
0.612981726305126
40
0.612981726305126
40
0.709736294728838
40
0.709736294728838
40
0.80649086315255
40
0.80649086315255
40
1
40
1
40
1
40
1
41
1
10
42.5577219998544
20
0.447902627903517
30
0
41
1
10
42.5575685772642
20
0.447982741165845
30
0
41
1
10
42.5574732421798
20
0.44803388221473
30
0
41
1
10
42.5572151846123
20
0.448200908433904
30
0
41
1
10
42.559064869858
20
0.447375793867991
30
0
41
1
10
42.5652562158291
20
0.445164772346061
30
0
41
1
10
42.5678984493049
20
0.444262790518394
30
0
41
1
10
42.5743875692596
20
0.442216116936265
30
0
41
1
10
42.5782215495191
20
0.44107544255948
30
0
41
1
10
42.5915784889838
20
0.437425355431969
30
0
41
1
10
42.6029410694922
20
0.434686642048774
30
0
41
1
10
42.624254644256
20
0.430606588254534
30
0
41
1
10
42.6320742252904
20
0.429251307716129
30
0
41
1
10
42.6492953714337
20
0.426638961451801
30
0
41
1
10
42.658732826569
20
0.425377955515273
30
0
41
1
10
42.6894056086517
20
0.421928011523761
30
0
41
1
10
42.7129442592121
20
0.420062358262726
30
0
41
1
10
42.7401857984406
20
0.419081496077041
30
0
0
SPLINE
5
F2
100
AcDbEntity
8
1
62
256
6
ByLayer
370
18
48
1
60
0
100
AcDbSpline
70
4
71
3
72
8
73
4
40
0
40
0
40
0
40
0
40
1
40
1
40
1
40
1
41
1
10
42.5517091599393
20
-0.584474254483951
30
0
41
1
10
42.5256626319122
20
-0.510239011897909
30
0
41
1
10
42.5048705914467
20
-0.43526231819672
30
0
41
1
10
42.4891141005675
20
-0.359575067317053
30
0
0
SPLINE
5
F3
100
AcDbEntity
8
1
62
256
6
ByLayer
370
18
48
1
60
0
100
AcDbSpline
70
4
71
3
72
10
73
6
40
0
40
0
40
0
40
0
40
0.648679342957321
40
0.648679342957321
40
1
40
1
40
1
40
1
41
1
10
10.4574199424283
20
5.49971843102963
30
0
41
1
10
10.3757177908311
20
5.48126292773182
30
0
41
1
10
10.2918050179974
20
5.46406530988662
30
0
41
1
10
10.1589361649917
20
5.44002548557941
30
0
41
1
10
10.1115901690924
20
5.43204858818069
30
0
41
1
10
10.0635408966861
20
5.42461433720328
30
0
0
SPLINE
5
F4
100
AcDbEntity
8
1
62
256
6
ByLayer
370
18
48
1
60
0
100
AcDbSpline
70
4
71
3
72
12
73
8
40
0
40
0
40
0
40
0
40
0.242552601968004
40
0.242552601968004
40
0.621276300984002
40
0.621276300984002
40
1
40
1
40
1
40
1
41
1
10
9.94000000000028
20
5.47288222309265
30
0
41
1
10
9.94000000000028
20
5.4834891353143
30
0
41
1
10
9.94000000000025
20
5.49421806699303
30
0
41
1
10
9.94000000000025
20
5.52202087411649
30
0
41
1
10
9.94000000000025
20
5.53927624147241
30
0
41
1
10
9.94000000000025
20
5.57444202826082
30
0
41
1
10
9.94000000000025
20
5.59239162027094
30
0
41
1
10
9.94000000000025
20
5.6105962230921
30
0
0
SPLINE
5
F5
100
AcDbEntity
8
1
62
256
6
ByLayer
370
18
48
1
60
0
100
AcDbSpline
70
4
71
3
72
12
73
8
40
0
40
0
40
0
40
0
40
0.347041765729846
40
0.347041765729846
40
0.694083531459693
40
0.694083531459693
40
1
40
1
40
1
40
1
41
1
10
42.5945095615974
20
-0.465701668392597
30
0
41
1
10
42.5875583055113
20
-0.486056518337932
30
0
41
1
10
42.5810787364811
20
-0.50697658838692
30
0
41
1
10
42.5691861926025
20
-0.54936110267127
30
0
41
1
10
42.5637745796332
20
-0.570801171554081
30
0
41
1
10
42.5545394266737
20
-0.611555562394329
30
0
41
1
10
42.5506014883057
20
-0.630819977851701
30
0
41
1
10
42.5470446977064
20
-0.65024085200389
30
0
0
SPLINE
5
F6
100
AcDbEntity
8
1
62
256
6
ByLayer
370
18
48
1
60
0
100
AcDbSpline
70
4
71
3
72
8
73
4
40
0
40
0
40
0
40
0
40
1
40
1
40
1
40
1
41
1
10
43.1744209456784
20
-5.1341103694345
30
0
41
1
10
43.1719239011198
20
-5.12167916449704
30
0
41
1
10
43.1694268565612
20
-5.10924795955955
30
0
41
1
10
43.1669298120026
20
-5.0968167546221
30
0
0
SPLINE
5
F7
100
AcDbEntity
8
1
62
256
6
ByLayer
370
18
48
1
60
0
100
AcDbSpline
70
4
71
3
72
14
73
10
40
0
40
0
40
0
40
0
40
0.25
40
0.25
40
0.5
40
0.5
40
0.75
40
0.75
40
1
40
1
40
1
40
1
41
1
10
15.0200336832179
20
-5.90917216022982
30
0
41
1
10
15.0209272464158
20
-5.82218299307223
30
0
41
1
10
15.0218911248527
20
-5.72865431883611
30
0
41
1
10
15.0237202518577
20
-5.52867919954326
30
0
41
1
10
15.0246416887134
20
-5.42220035452709
30
0
41
1
10
15.0264091184321
20
-5.19629230951179
30
0
41
1
10
15.0272439507912
20
-5.0776469068966
30
0
41
1
10
15.0290035745329
20
-4.82908858406387
30
0
41
1
10
15.0298545320389
20
-4.69918037355279
30
0
41
1
10
15.0307108958646
20
-4.56357966144833
30
0
0
SPLINE
5
F8
100
AcDbEntity
8
1
62
256
6
ByLayer
370
18
48
1
60
0
100
AcDbSpline
70
4
71
3
72
12
73
8
40
0
40
0
40
0
40
0
40
0.50000000000001
40
0.50000000000001
40
0.750000000000005
40
0.750000000000005
40
1
40
1
40
1
40
1
41
1
10
10.8887781559181
20
5.06089302467839
30
0
41
1
10
10.9275564773381
20
4.98505658773752
30
0
41
1
10
10.9710377576706
20
4.91130877487515
30
0
41
1
10
11.0428830749523
20
4.80362856246256
30
0
41
1
10
11.0679373811382
20
4.76822628331229
30
0
41
1
10
11.1202071627483
20
4.69838151866355
30
0
41
1
10
11.1474429636191
20
4.6639148049409
30
0
41
1
10
11.175696607093
20
4.62997168457582
30
0
0
SPLINE
5
F9
100
AcDbEntity
8
1
62
256
6
ByLayer
370
18
48
1
60
0
100
AcDbSpline
70
4
71
3
72
8
73
4
40
0
40
0
40
0
40
0
40
1
40
1
40
1
40
1
41
1
10
42.5393925363987
20
-0.190503769379092
30
0
41
1
10
42.5302886201896
20
-0.149994720977617
30
0
41
1
10
42.5249497402665
20
-0.105974287174718
30
0
41
1
10
42.5249494915667
20
-0.0584846309887155
30
0
0
SPLINE
5
FA
100
AcDbEntity
8
1
62
256
6
ByLayer
370
18
48
1
60
0
100
AcDbSpline
70
4
71
3
72
26
73
22
40
0
40
0
40
0
40
0
40
0.124999999999996
40
0.124999999999996
40
0.249999999999992
40
0.249999999999992
40
0.31249999999999
40
0.31249999999999
40
0.374999999999988
40
0.374999999999988
40
0.49999999999999
40
0.49999999999999
40
0.624999999999992
40
0.624999999999992
40
0.687499999999993
40
0.687499999999993
40
0.749999999999995
40
0.749999999999995
40
0.874999999999997
40
0.874999999999997
40
1
40
1
40
1
40
1
41
1
10
42.7089599685896
20
0.722521741613292
30
0
41
1
10
42.6822563575879
20
0.696868950819635
30
0
41
1
10
42.6597436097298
20
0.66951723953531
30
0
41
1
10
42.6211976043705
20
0.612613886615435
30
0
41
1
10
42.6051842020531
20
0.583050176127585
30
0
41
1
10
42.5852806217679
20
0.537632542923205
30
0
41
1
10
42.5793371223393
20
0.522312628978312
30
0
41
1
10
42.5687518922049
20
0.491394304721865
30
0
41
1
10
42.5641600399086
20
0.475942166962341
30
0
41
1
10
42.5522992750637
20
0.429747328407046
30
0
41
1
10
42.5469249109225
20
0.399144209149057
30
0
41
1
10
42.5405598403626
20
0.338800175130302
30
0
41
1
10
42.5395728769506
20
0.309056617620087
30
0
41
1
10
42.5411620374742
20
0.26547958610152
30
0
41
1
10
42.5422059744787
20
0.251127605191243
30
0
41
1
10
42.5453162762695
20
0.222848184794515
30
0
41
1
10
42.5473904063252
20
0.208889089093276
30
0
41
1
10
42.5550848419058
20
0.168174508726878
30
0
41
1
10
42.562166607733
20
0.142483817256533
30
0
41
1
10
42.5802130554935
20
0.0946581077642463
30
0
41
1
10
42.5911753569739
20
0.0725229047368146
30
0
41
1
10
42.6042488592001
20
0.052565784424246
30
0
0
SPLINE
5
FB
100
AcDbEntity
8
1
62
256
6
ByLayer
370
18
48
1
60
0
100
AcDbSpline
70
4
71
3
72
14
73
10
40
0
40
0
40
0
40
0
40
0.39302330270346
40
0.39302330270346
40
0.589534954055179
40
0.589534954055179
40
0.786046605406897
40
0.786046605406897
40
1
40
1
40
1
40
1
41
1
10
42.6141593424606
20
-0.690069165094855
30
0
41
1
10
42.6018463662671
20
-0.722746102262619
30
0
41
1
10
42.5915925440839
20
-0.754228821992456
30
0
41
1
10
42.5791309046855
20
-0.800039889555762
30
0
41
1
10
42.5754663891042
20
-0.815074809771517
30
0
41
1
10
42.5691199264335
20
-0.844736699077487
30
0
41
1
10
42.5664377631571
20
-0.859380167708537
30
0
41
1
10
42.5619205006436
20
-0.8893201027754
30
0
41
1
10
42.5601682772
20
-0.904602287683787
30
0
41
1
10
42.5590247188181
20
-0.91961075150428
30
0
0
SPLINE
5
FC
100
AcDbEntity
8
1
62
256
6
ByLayer
370
18
48
1
60
0
100
AcDbSpline
70
4
71
3
72
8
73
4
40
0
40
0
40
0
40
0
40
1
40
1
40
1
40
1
41
1
10
42.5520483648663
20
-0.651027130969055
30
0
41
1
10
42.5514207309004
20
-0.6287980606117
30
0
41
1
10
42.5513013794449
20
-0.606615925468901
30
0
41
1
10
42.55170915994
20
-0.584474254483865
30
0
0
SPLINE
5
FD
100
AcDbEntity
8
1
62
256
6
ByLayer
370
18
48
1
60
0
100
AcDbSpline
70
4
71
3
72
25
73
21
40
0
40
0
40
0
40
0
40
0.124999999999975
40
0.124999999999975
40
0.187499999999974
40
0.187499999999974
40
0.249999999999973
40
0.374999999999988
40
0.374999999999988
40
0.43749999999999
40
0.43749999999999
40
0.499999999999993
40
0.499999999999993
40
0.624999999999997
40
0.624999999999997
40
0.6875
40
0.6875
40
0.750000000000002
40
0.750000000000002
40
1
40
1
40
1
40
1
41
1
10
42.55170915994
20
-0.584474254483865
30
0
41
1
10
42.5457037000538
20
-0.575299730767142
30
0
41
1
10
42.5401125151835
20
-0.56462431136643
30
0
41
1
10
42.5324921597514
20
-0.546181609318239
30
0
41
1
10
42.5300706800182
20
-0.539592099083933
30
0
41
1
10
42.5256119512717
20
-0.525881571324163
30
0
41
1
10
42.5194676347454
20
-0.504458801870271
30
0
41
1
10
42.5149732668121
20
-0.480653804788346
30
0
41
1
10
42.51164983039
20
-0.455469393588004
30
0
41
1
10
42.5107421015268
20
-0.446862335104385
30
0
41
1
10
42.5093466829295
20
-0.429503381324707
30
0
41
1
10
42.5088542317836
20
-0.420717805397714
30
0
41
1
10
42.5079802121275
20
-0.39408623778499
30
0
41
1
10
42.5082000129801
20
-0.375967422910264
30
0
41
1
10
42.5097261020595
20
-0.348370340946701
30
0
41
1
10
42.510434721675
20
-0.339100947517409
30
0
41
1
10
42.5122563385896
20
-0.32043713362873
30
0
41
1
10
42.5133721949264
20
-0.311029789578555
30
0
41
1
10
42.5199011393066
20
-0.264220222652853
30
0
41
1
10
42.5281598922995
20
-0.227114647158999
30
0
41
1
10
42.5393925363975
20
-0.190503769378751
30
0
0
SPLINE
5
FE
100
AcDbEntity
8
1
62
256
6
ByLayer
370
18
48
1
60
0
100
AcDbSpline
70
4
71
3
72
26
73
22
40
0
40
0
40
0
40
0
40
0.155617830852314
40
0.155617830852314
40
0.233426746278471
40
0.272331203991543
40
0.272331203991543
40
0.311235661704614
40
0.311235661704614
40
0.466853492556874
40
0.466853492556874
40
0.544662407983004
40
0.583566865696059
40
0.583566865696059
40
0.622471323409113
40
0.622471323409113
40
0.778089154261326
40
0.778089154261326
40
0.933706985113538
40
0.933706985113538
40
1
40
1
40
1
40
1
41
1
10
43.3754401992807
20
5.46670152365414
30
0
41
1
10
43.3643330293281
20
5.39942815087414
30
0
41
1
10
43.3481578171098
20
5.33391461772027
30
0
41
1
10
43.3155180539849
20
5.23855314917682
30
0
41
1
10
43.2971083012004
20
5.19159810699608
30
0
41
1
10
43.2754586956713
20
5.14576807935671
30
0
41
1
10
43.2602967970061
20
5.11546780775649
30
0
41
1
10
43.2523297467757
20
5.10040675717497
30
0
41
1
10
43.2109574781754
20
5.02627749664063
30
0
41
1
10
43.173034541391
20
4.97081269174203
30
0
41
1
10
43.1099365072312
20
4.89255870834086
30
0
41
1
10
43.076833125407
20
4.85466828436029
30
0
41
1
10
43.0415772176777
20
4.81849029245922
30
0
41
1
10
43.0176136492677
20
4.79473728766277
30
0
41
1
10
43.0053970482525
20
4.7830405796972
30
0
41
1
10
42.9436525221417
20
4.72583145264912
30
0
41
1
10
42.8918147632643
20
4.68376687462768
30
0
41
1
10
42.7843991173315
20
4.60530843047692
30
0
41
1
10
42.7288160793563
20
4.5689223740753
30
0
41
1
10
42.647451595678
20
4.52022463546308
30
0
41
1
10
42.6228759373402
20
4.50608303311523
30
0
41
1
10
42.5980546767783
20
4.49231429302799
30
0
0
SPLINE
5
FF
100
AcDbEntity
8
1
62
256
6
ByLayer
370
18
48
1
60
0
100
AcDbSpline
70
4
71
3
72
8
73
4
40
0
40
0
40
0
40
0
40
1
40
1
40
1
40
1
41
1
10
12.788690984603
20
-5.50989582872091
30
0
41
1
10
13.2183194649016
20
-5.46453010672349
30
0
41
1
10
13.6464434991106
20
-5.39748705398372
30
0
41
1
10
14.0745384934828
20
-5.3085222296919
30
0
0
SPLINE
5
100
100
AcDbEntity
8
1
62
256
6
ByLayer
370
18
48
1
60
0
100
AcDbSpline
70
4
71
3
72
8
73
4
40
0
40
0
40
0
40
0
40
1
40
1
40
1
40
1
41
1
10
14.0745384934828
20
-5.3085222296919
30
0
41
1
10
14.1255234093972
20
-5.3283571300426
30
0
41
1
10
14.1780903003219
20
-5.34531079557001
30
0
41
1
10
14.23218839476
20
-5.35930045041442
30
0
0
SPLINE
5
101
100
AcDbEntity
8
1
62
256
6
ByLayer
370
13
48
1
60
0
100
AcDbSpline
70
4
71
3
72
10
73
6
40
0
40
0
40
0
40
0
40
0.322111691152188
40
0.661055845576094
40
1
40
1
40
1
40
1
41
1
10
15.0200000000001
20
-4.55670508793415
30
0
41
1
10
15.0200000000001
20
-4.73195255669225
30
0
41
1
10
15.0200000000001
20
-5.07383556043686
30
0
41
1
10
15.0200000000002
20
-5.52930396989834
30
0
41
1
10
15.02
20
-5.7910003670614
30
0
41
1
10
15.02
20
-5.90917019555928
30
0
0
SPLINE
5
102
100
AcDbEntity
8
1
62
256
6
ByLayer
370
13
48
1
60
0
100
AcDbSpline
70
4
71
3
72
8
73
4
40
0
40
0
40
0
40
0
40
1
40
1
40
1
40
1
41
1
10
43.1934358072253
20
-5.14350321527533
30
0
41
1
10
43.1913515476139
20
-5.13312700541454
30
0
41
1
10
43.1892672880026
20
-5.12275079555377
30
0
41
1
10
43.1871830283913
20
-5.11237458569298
30
0
0
SPLINE
5
103
100
AcDbEntity
8
1
62
256
6
ByLayer
370
18
48
1
60
0
100
AcDbSpline
70
4
71
5
72
29
73
23
40
0
40
0
40
0
40
0
40
0
40
0
40
0.11622719441766
40
0.151124194414185
40
0.185918946610578
40
0.263906659888744
40
0.342454470842796
40
0.379749478474053
40
0.41519998590398
40
0.493373331325379
40
0.572319359590402
40
0.610743141138298
40
0.646429078177976
40
0.685237224283694
40
0.76457030575721
40
0.843440431741108
40
0.878212596463192
40
0.916270778467519
40
0.996121450198976
40
1
40
1
40
1
40
1
40
1
40
1
41
1
10
43.5791617237134
20
-4.88858959649076
30
0
41
1
10
43.5791991063504
20
-4.89925186694919
30
0
41
1
10
43.5785527226313
20
-4.91302336816125
30
0
41
1
10
43.5766512605754
20
-4.92975116892737
30
0
41
1
10
43.5719873772797
20
-4.95324772913548
30
0
41
1
10
43.5624591570543
20
-4.98264495049327
30
0
41
1
10
43.5529505056552
20
-5.00425667582783
30
0
41
1
10
43.541260281085
20
-5.02494121371962
30
0
41
1
10
43.5250417668341
20
-5.04792059486468
30
0
41
1
10
43.5063847951716
20
-5.06951985960535
30
0
41
1
10
43.4883624538377
20
-5.08673150166558
30
0
41
1
10
43.4687076816928
20
-5.10231550706243
30
0
41
1
10
43.4469468346294
20
-5.1165793840633
30
0
41
1
10
43.4237529169285
20
-5.1294902640808
30
0
41
1
10
43.3994984187653
20
-5.14083719418534
30
0
41
1
10
43.3744878111732
20
-5.15012066150493
30
0
41
1
10
43.3480742477373
20
-5.15763498264394
30
0
41
1
10
43.3163600050299
20
-5.1640870185779
30
0
41
1
10
43.2918262766146
20
-5.16721451180899
30
0
41
1
10
43.2753895378098
20
-5.16850049682688
30
0
41
1
10
43.2625140469876
20
-5.16902758740184
30
0
41
1
10
43.2536186630662
20
-5.16916616552396
30
0
41
1
10
43.2532065130143
20
-5.16917210457274
30
0
0
SPLINE
5
104
100
AcDbEntity
8
1
62
256
6
ByLayer
370
13
48
1
60
0
100
AcDbSpline
70
4
71
1
72
4
73
2
40
0
40
0
40
1
40
1
41
1
10
43.4484822078752
20
-4.22722630073068
30
0
41
1
10
43.5781505619688
20
-4.87276299253713
30
0
0
SPLINE
5
105
100
AcDbEntity
8
1
62
256
6
ByLayer
370
18
48
1
60
0
100
AcDbSpline
70
4
71
3
72
10
73
6
40
0
40
0
40
0
40
0
40
0.5
40
0.5
40
1
40
1
40
1
40
1
41
1
10
9.94000000000025
20
3.42066003271677
30
0
41
1
10
9.94000000000025
20
3.45305414825535
30
0
41
1
10
9.94000000000028
20
3.48423349072004
30
0
41
1
10
9.94000000000025
20
3.54395322098571
30
0
41
1
10
9.94000000000025
20
3.57249603921554
30
0
41
1
10
9.94000000000025
20
3.59953565156806
30
0
0
SPLINE
5
106
100
AcDbEntity
8
1
62
256
6
ByLayer
370
18
48
1
60
0
100
AcDbSpline
70
4
71
3
72
17
73
13
40
0
40
0
40
0
40
0
40
0.249999999999987
40
0.249999999999987
40
0.374999999999987
40
0.374999999999987
40
0.499999999999987
40
0.624999999999987
40
0.624999999999987
40
0.749999999999987
40
0.749999999999987
40
1
40
1
40
1
40
1
41
1
10
14.0745384934828
20
-3.69572819072411
30
0
41
1
10
14.1436179996076
20
-3.78142365215075
30
0
41
1
10
14.2155771926855
20
-3.86393263917481
30
0
41
1
10
14.3276409352864
20
-3.98304359048359
30
0
41
1
10
14.3657110998409
20
-4.02199451455897
30
0
41
1
10
14.4431228156626
20
-4.09822322866916
30
0
41
1
10
14.5215620121929
20
-4.17254271939686
30
0
41
1
10
14.6020301221475
20
-4.24306052278516
30
0
41
1
10
14.6835220702414
20
-4.31165665625281
30
0
41
1
10
14.7248120511938
20
-4.34501493265657
30
0
41
1
10
14.8495311682537
20
-4.44158081818793
30
0
41
1
10
14.9340161187376
20
-4.50149445998508
30
0
41
1
10
15.0200000000001
20
-4.55670508793415
30
0
0
SPLINE
5
107
100
AcDbEntity
8
1
62
256
6
ByLayer
370
18
48
1
60
0
100
AcDbSpline
70
4
71
3
72
8
73
4
40
0
40
0
40
0
40
0
40
1
40
1
40
1
40
1
41
1
10
15.0200000000001
20
-4.55670508793415
30
0
41
1
10
15.0235704401179
20
-4.55899768322135
30
0
41
1
10
15.0271407382771
20
-4.5612892082074
30
0
41
1
10
15.0307108958657
20
-4.56357966144765
30
0
0
SPLINE
5
108
100
AcDbEntity
8
1
62
256
6
ByLayer
370
18
48
1
60
0
100
AcDbSpline
70
4
71
3
72
38
73
34
40
0
40
0
40
0
40
0
40
0.0244853892731757
40
0.0244853892731757
40
0.219588311418537
40
0.219588311418537
40
0.268364041954879
40
0.268364041954879
40
0.31713977249122
40
0.31713977249122
40
0.365915503027562
40
0.365915503027562
40
0.390303368295732
40
0.390303368295732
40
0.414691233563901
40
0.414691233563901
40
0.512242694636578
40
0.512242694636578
40
0.561018425172919
40
0.561018425172919
40
0.609794155709259
40
0.609794155709259
40
0.707345616781943
40
0.707345616781943
40
0.804897077854627
40
0.804897077854627
40
0.853672808390969
40
0.853672808390969
40
0.87806067365914
40
0.87806067365914
40
0.902448538927312
40
0.902448538927312
40
1
40
1
40
1
40
1
41
1
10
24.0125821518927
20
-5.64384004200895
30
0
41
1
10
23.9394216514843
20
-5.66429709809864
30
0
41
1
10
23.8663047909625
20
-5.68406588045912
30
0
41
1
10
23.2109191048358
20
-5.85501705772524
30
0
41
1
10
22.6309462690084
20
-5.96204533625581
30
0
41
1
10
21.9028065179949
20
-6.03873333571289
30
0
41
1
10
21.757022280704
20
-6.05120871005036
30
0
41
1
10
21.4649917438491
20
-6.07024892637122
30
0
41
1
10
21.3187447066093
20
-6.07680442124038
30
0
41
1
10
21.0256267868778
20
-6.0840119998617
30
0
41
1
10
20.8787561932496
20
-6.08467006250174
30
0
41
1
10
20.6578660339589
20
-6.08121499456203
30
0
41
1
10
20.5841420336256
20
-6.07931628555329
30
0
41
1
10
20.4370205444743
20
-6.07401662500573
30
0
41
1
10
20.3635566450361
20
-6.07061198264825
30
0
41
1
10
19.9966650838687
20
-6.04986438053515
30
0
41
1
10
19.7045016758657
20
-6.02141655534976
30
0
41
1
10
19.2672952310564
20
-5.96184436771412
30
0
41
1
10
19.1217356576728
20
-5.93916598599759
30
0
41
1
10
18.8308455348563
20
-5.88804840679111
30
0
41
1
10
18.6855146644937
20
-5.85960125721712
30
0
41
1
10
18.2496047073018
20
-5.76593282263232
30
0
41
1
10
17.9591015147798
20
-5.69249281801586
30
0
41
1
10
17.3771593554839
20
-5.52382418571509
30
0
41
1
10
17.0857297490927
20
-5.42832983766132
30
0
41
1
10
16.6469470825498
20
-5.26918002993136
30
0
41
1
10
16.5004147192684
20
-5.21350646717457
30
0
41
1
10
16.2800934572309
20
-5.12599336457319
30
0
41
1
10
16.2065657289681
20
-5.09615386906572
30
0
41
1
10
16.0593149592022
20
-5.03513658504113
30
0
41
1
10
15.9855934016144
20
-5.00395783891074
30
0
41
1
10
15.6175450830848
20
-4.84520014604095
30
0
41
1
10
15.3240076207757
20
-4.70870546758042
30
0
41
1
10
15.0307108958671
20
-4.56357966144813
30
0
0
SPLINE
5
109
100
AcDbEntity
8
1
62
256
6
ByLayer
370
18
48
1
60
0
100
AcDbSpline
70
4
71
3
72
44
73
40
40
0
40
0
40
0
40
0
40
0.0624999999999962
40
0.0624999999999962
40
0.124999999999992
40
0.124999999999992
40
0.156249999999994
40
0.156249999999994
40
0.187499999999995
40
0.187499999999995
40
0.249999999999998
40
0.249999999999998
40
0.312500000000001
40
0.312500000000001
40
0.343749999999996
40
0.343749999999996
40
0.374999999999992
40
0.374999999999992
40
0.499999999999975
40
0.499999999999975
40
0.531249999999971
40
0.531249999999971
40
0.562499999999966
40
0.562499999999966
40
0.624999999999974
40
0.687499999999982
40
0.687499999999982
40
0.718749999999986
40
0.718749999999986
40
0.74999999999999
40
0.74999999999999
40
0.812499999999998
40
0.875000000000006
40
0.875000000000006
40
0.90625000000001
40
0.90625000000001
40
0.937500000000014
40
0.937500000000014
40
1
40
1
40
1
40
1
41
1
10
41.2370129009677
20
0.649005279413672
30
0
41
1
10
41.2401518077998
20
0.681574026523379
30
0
41
1
10
41.2451275727209
20
0.714073378539268
30
0
41
1
10
41.2584117604567
20
0.779260749470552
30
0
41
1
10
41.2667202469815
20
0.811949515598684
30
0
41
1
10
41.2815916722143
20
0.861295164681593
30
0
41
1
10
41.2869519718612
20
0.877794933828085
30
0
41
1
10
41.2984849741258
20
0.910913881236837
30
0
41
1
10
41.3046698877559
20
0.927563833592245
30
0
41
1
10
41.3243945230815
20
0.977503716101353
30
0
41
1
10
41.3389315063323
20
1.01036324491676
30
0
41
1
10
41.3706861724
20
1.07524093728927
30
0
41
1
10
41.3879036783124
20
1.107259477692
30
0
41
1
10
41.4157298630469
20
1.15466643430574
30
0
41
1
10
41.425339203103
20
1.17036515182417
30
0
41
1
10
41.4452317197196
20
1.20155544647511
30
0
41
1
10
41.4555449113483
20
1.21709004928948
30
0
41
1
10
41.5084624190696
20
1.29372394179077
30
0
41
1
10
41.5544050616842
20
1.35096215765756
30
0
41
1
10
41.6162911694974
20
1.41761260974047
30
0
41
1
10
41.628895833741
20
1.43069383159505
30
0
41
1
10
41.654575438987
20
1.45634810946174
30
0
41
1
10
41.6676804059564
20
1.46894688891848
30
0
41
1
10
41.7072991513387
20
1.50556615457109
30
0
41
1
10
41.7611458237915
20
1.55149565374913
30
0
41
1
10
41.8172606506914
20
1.59173298419938
30
0
41
1
10
41.8603482227367
20
1.61970811351972
30
0
41
1
10
41.8748783328604
20
1.62866493327476
30
0
41
1
10
41.9043085937658
20
1.64581653037254
30
0
41
1
10
41.9192217869444
20
1.65401494288048
30
0
41
1
10
41.9640724578484
20
1.67716867736067
30
0
41
1
10
42.0244851703309
20
1.70440399274926
30
0
41
1
10
42.0866471882929
20
1.72417092596996
30
0
41
1
10
42.1341765196
20
1.73597648182434
30
0
41
1
10
42.1501714059233
20
1.73940687518976
30
0
41
1
10
42.1825177387746
20
1.74519882419654
30
0
41
1
10
42.1988979718204
20
1.74756346343833
30
0
41
1
10
42.2484749409761
20
1.7529158856517
30
0
41
1
10
42.281820150272
20
1.7541463989981
30
0
41
1
10
42.3156327227157
20
1.7528412825269
30
0
0
SPLINE
5
10A
100
AcDbEntity
8
1
62
256
6
ByLayer
370
18
48
1
60
0
100
AcDbSpline
70
4
71
3
72
20
73
16
40
0
40
0
40
0
40
0
40
0.24999999999999
40
0.24999999999999
40
0.49999999999998
40
0.49999999999998
40
0.624999999999978
40
0.624999999999978
40
0.749999999999976
40
0.749999999999976
40
0.874999999999975
40
0.874999999999975
40
0.937499999999987
40
0.937499999999987
40
1
40
1
40
1
40
1
41
1
10
43.3701541140907
20
-4.20296750792753
30
0
41
1
10
43.3779823288041
20
-4.21333127783217
30
0
41
1
10
43.3857350330226
20
-4.22306563202903
30
0
41
1
10
43.4010088529777
20
-4.24060394083676
30
0
41
1
10
43.4085255718143
20
-4.24843019668657
30
0
41
1
10
43.4194206551289
20
-4.25753732889714
30
0
41
1
10
43.4229848154105
20
-4.26012264625564
30
0
41
1
10
43.4298658668354
20
-4.26392776599909
30
0
41
1
10
43.4331913962447
20
-4.26517133732438
30
0
41
1
10
43.4394458938242
20
-4.26538597854759
30
0
41
1
10
43.4423712014706
20
-4.26439245092146
30
0
41
1
10
43.4459605228123
20
-4.25952712200038
30
0
41
1
10
43.4469998304288
20
-4.25735493693941
30
0
41
1
10
43.4486320389142
20
-4.25144688225527
30
0
41
1
10
43.4492264220326
20
-4.24761429360854
30
0
41
1
10
43.4494692949677
20
-4.24293305222022
30
0
0
SPLINE
5
10B
100
AcDbEntity
8
1
62
256
6
ByLayer
370
18
48
1
60
0
100
AcDbSpline
70
4
71
1
72
4
73
2
40
0
40
0
40
1
40
1
41
1
10
43.4494692949682
20
-4.24293305221198
30
0
41
1
10
43.4484822078752
20
-4.22722630073071
30
0
0
SPLINE
5
10C
100
AcDbEntity
8
1
62
256
6
ByLayer
370
18
48
1
60
0
100
AcDbSpline
70
4
71
1
72
4
73
2
40
0
40
0
40
1
40
1
41
1
10
43.4484822078752
20
-4.22722630073071
30
0
41
1
10
43.4456407723879
20
-4.18201274119181
30
0
0
SPLINE
5
10D
100
AcDbEntity
8
1
62
256
6
ByLayer
370
18
48
1
60
0
100
AcDbSpline
70
4
71
3
72
12
73
8
40
0
40
0
40
0
40
0
40
0.367207200630244
40
0.367207200630244
40
0.683603597864612
40
0.683603597864612
40
1
40
1
40
1
40
1
41
1
10
43.1744209456784
20
6.33797096161678
30
0
41
1
10
43.1767487673325
20
6.33815201001329
30
0
41
1
10
43.1790764586373
20
6.33833304207019
30
0
41
1
10
43.1834095122591
20
6.33867002644374
30
0
41
1
10
43.1854149083703
20
6.33882598293519
30
0
41
1
10
43.1894255048565
20
6.3391378720379
30
0
41
1
10
43.1914307052393
20
6.33929380464963
30
0
41
1
10
43.1934358072256
20
6.33944972540829
30
0
0
SPLINE
5
10E
100
AcDbEntity
8
1
62
256
6
ByLayer
370
18
48
1
60
0
100
AcDbSpline
70
4
71
3
72
8
73
4
40
0
40
0
40
0
40
0
40
1
40
1
40
1
40
1
41
1
10
43.1744209456784
20
6.33797096161678
30
0
41
1
10
43.1744847406309
20
6.33908237683184
30
0
41
1
10
43.1745486079569
20
6.34019364346264
30
0
41
1
10
43.1746125475142
20
6.34130476066665
30
0
0
SPLINE
5
10F
100
AcDbEntity
8
1
62
256
6
ByLayer
370
18
48
1
60
0
100
AcDbSpline
70
4
71
3
72
14
73
10
40
0
40
0
40
0
40
0
40
0.25290847010793
40
0.25290847010793
40
0.505816940215858
40
0.505816940215858
40
0.758725410323787
40
0.758725410323787
40
1
40
1
40
1
40
1
41
1
10
43.1745584968347
20
6.34130255134605
30
0
41
1
10
42.8812818378705
20
6.32931411271599
30
0
41
1
10
42.5880051789064
20
6.30492859608455
30
0
41
1
10
42.001451860978
20
6.23164866254092
30
0
41
1
10
41.7081752020139
20
6.18275441315947
30
0
41
1
10
41.1216218840855
20
6.06102930985597
30
0
41
1
10
40.8283452251214
20
5.98819873117441
30
0
41
1
10
40.2552827388064
20
5.82333466000128
30
0
41
1
10
39.9754969114555
20
5.7323389696264
30
0
41
1
10
39.6957110841046
20
5.63132612355963
30
0
0
SPLINE
5
110
100
AcDbEntity
8
1
62
256
6
ByLayer
370
18
48
1
60
0
100
AcDbSpline
70
4
71
3
72
16
73
12
40
0
40
0
40
0
40
0
40
0.131190331109119
40
0.131190331109119
40
0.348392748331841
40
0.348392748331841
40
0.565595165554563
40
0.565595165554563
40
0.782797582777282
40
0.782797582777282
40
1
40
1
40
1
40
1
41
1
10
19.0707367379226
20
-6.30157361124344
30
0
41
1
10
18.8935975398969
20
-6.31863290489048
30
0
41
1
10
18.7164583418711
20
-6.3312041529708
30
0
41
1
10
18.2460424848812
20
-6.35258210063881
30
0
41
1
10
17.952765825917
20
-6.35351686563007
30
0
41
1
10
17.3662125079887
20
-6.33058919405457
30
0
41
1
10
17.0729358490246
20
-6.30672681327144
30
0
41
1
10
16.4863825310963
20
-6.23448409361856
30
0
41
1
10
16.1931058721322
20
-6.18610392061277
30
0
41
1
10
15.6065525542038
20
-6.06539189544446
30
0
41
1
10
15.3132758952397
20
-5.99306031675223
30
0
41
1
10
15.0199992362754
20
-5.90917623685544
30
0
0
SPLINE
5
111
100
AcDbEntity
8
1
62
256
6
ByLayer
370
18
48
1
60
0
100
AcDbSpline
70
4
71
5
72
16
73
10
40
0
40
0
40
0
40
0
40
0
40
0
40
0.19142777939766
40
0.481728994494254
40
0.675263137891984
40
0.965564352988576
40
1
40
1
40
1
40
1
40
1
40
1
41
1
10
41.0849223237812
20
5.18388310602995
30
0
41
1
10
41.1726160738967
20
5.20278954816143
30
0
41
1
10
41.3932978485037
20
5.24846937361474
30
0
41
1
10
41.7026383061052
20
5.30576392977582
30
0
41
1
10
42.1449667881982
20
5.37399731657766
30
0
41
1
10
42.603070363298
20
5.42408164990783
30
0
41
1
10
42.9734801882823
20
5.45047425912895
30
0
41
1
10
43.2109019887751
20
5.46156962290539
30
0
41
1
10
43.3596651062735
20
5.46623277739695
30
0
41
1
10
43.3754401992803
20
5.46670152365414
30
0
0
SPLINE
5
112
100
AcDbEntity
8
1
62
256
6
ByLayer
370
18
48
1
60
0
100
AcDbSpline
70
4
71
3
72
18
73
14
40
0
40
0
40
0
40
0
40
0.249999999999993
40
0.249999999999993
40
0.374999999999994
40
0.374999999999994
40
0.499999999999995
40
0.499999999999995
40
0.624999999999996
40
0.624999999999996
40
0.749999999999997
40
0.749999999999997
40
1
40
1
40
1
40
1
41
1
10
43.2532065130143
20
6.33998981956609
30
0
41
1
10
43.2782848199804
20
6.27021518426344
30
0
41
1
10
43.3009141622533
20
6.19971857430929
30
0
41
1
10
43.3300819511496
20
6.09256558965862
30
0
41
1
10
43.339004387804
20
6.05661203455628
30
0
41
1
10
43.3549990334303
20
5.98415946222636
30
0
41
1
10
43.362080890233
20
5.94759931185686
30
0
41
1
10
43.3740294550484
20
5.87418493484424
30
0
41
1
10
43.3788975109804
20
5.83734789277321
30
0
41
1
10
43.3860970180023
20
5.76337605117544
30
0
41
1
10
43.3884300683508
20
5.7261755988462
30
0
41
1
10
43.3910205421801
20
5.61452414971993
30
0
41
1
10
43.3869058350699
20
5.54041086267191
30
0
41
1
10
43.3754401992809
20
5.46670152365417
30
0
0
SPLINE
5
113
100
AcDbEntity
8
1
62
256
6
ByLayer
370
18
48
1
60
0
100
AcDbSpline
70
4
71
3
72
8
73
4
40
0
40
0
40
0
40
0
40
1
40
1
40
1
40
1
41
1
10
43.1934358072254
20
6.33944972540812
30
0
41
1
10
43.2133180543044
20
6.34099580888389
30
0
41
1
10
43.2332360357544
20
6.34120492636438
30
0
41
1
10
43.2532065130143
20
6.33998981956609
30
0
0
SPLINE
5
114
100
AcDbEntity
8
1
62
256
6
ByLayer
370
18
48
1
60
0
100
AcDbSpline
70
4
71
3
72
10
73
6
40
0
40
0
40
0
40
0
40
0.5
40
0.5
40
1
40
1
40
1
40
1
41
1
10
10.4574199424283
20
-3.36709593820504
30
0
41
1
10
10.3757177908311
20
-3.32274534283783
30
0
41
1
10
10.2918050179973
20
-3.28179815479567
30
0
41
1
10
10.1194264574628
20
-3.20727827374563
30
0
41
1
10
10.0309652058704
20
-3.17369699793829
30
0
41
1
10
9.94000000000011
20
-3.14434862949494
30
0
0
SPLINE
5
115
100
AcDbEntity
8
1
62
256
6
ByLayer
370
18
48
1
60
0
100
AcDbSpline
70
4
71
3
72
18
73
14
40
0
40
0
40
0
40
0
40
0.250000000000004
40
0.250000000000004
40
0.375000000000004
40
0.375000000000004
40
0.500000000000004
40
0.500000000000004
40
0.625000000000004
40
0.625000000000004
40
0.750000000000004
40
0.750000000000004
40
1
40
1
40
1
40
1
41
1
10
14.0745384934828
20
-5.19458085620082
30
0
41
1
10
13.7744538973446
20
-5.07643372637105
30
0
41
1
10
13.4744661402092
20
-4.94864386978958
30
0
41
1
10
13.0237304663238
20
-4.74356362721835
30
0
41
1
10
12.8733602883063
20
-4.67296823169016
30
0
41
1
10
12.5722260249138
20
-4.52748005512368
30
0
41
1
10
12.4214483156288
20
-4.45257796922633
30
0
41
1
10
12.1199219013226
20
-4.29892085554292
30
0
41
1
10
11.969103236356
20
-4.22013335373435
30
0
41
1
10
11.6672179377909
20
-4.05882616992636
30
0
41
1
10
11.5160961243265
20
-3.97627515307971
30
0
41
1
10
11.062647916088
20
-3.72354123420493
30
0
41
1
10
10.7602512856215
20
-3.54829646363626
30
0
41
1
10
10.4572454882004
20
-3.36700126377917
30
0
0
SPLINE
5
116
100
AcDbEntity
8
1
62
256
6
ByLayer
370
18
48
1
60
0
100
AcDbSpline
70
4
71
3
72
11
73
7
40
0
40
0
40
0
40
0
40
0.0415572442879505
40
0.379236874353676
40
0.716916504419402
40
1
40
1
40
1
40
1
41
1
10
14.0745384934828
20
-3.69572819072411
30
0
41
1
10
14.0745384934828
20
-3.71972093933189
30
0
41
1
10
14.0745384934828
20
-3.93761570455109
30
0
41
1
10
14.0745384934828
20
-4.33093316573914
30
0
41
1
10
14.0745384934828
20
-4.80534063403778
30
0
41
1
10
14.0745384934828
20
-5.0781557079757
30
0
41
1
10
14.0745384934828
20
-5.19458085620079
30
0
0
SPLINE
5
117
100
AcDbEntity
8
1
62
256
6
ByLayer
370
18
48
1
60
0
100
AcDbSpline
70
4
71
3
72
8
73
4
40
0
40
0
40
0
40
0
40
1
40
1
40
1
40
1
41
1
10
12.7815151384203
20
-2.93749460411451
30
0
41
1
10
13.2135692403142
20
-3.20156051302712
30
0
41
1
10
13.6440597900976
20
-3.45505151352705
30
0
41
1
10
14.0745384934828
20
-3.69572819072411
30
0
0
SPLINE
5
118
100
AcDbEntity
8
1
62
256
6
ByLayer
370
18
48
1
60
0
100
AcDbSpline
70
4
71
3
72
64
73
60
40
0
40
0
40
0
40
0
40
0.0097751429909694
40
0.0195377041963958
40
0.0292876572371664
40
0.0390249758575975
40
0.0487496339329368
40
0.0584616054770282
40
0.0681608646498793
40
0.077847385765037
40
0.0875211432971327
40
0.0971821118891572
40
0.106830266359659
40
0.116465581710146
40
0.126088033132098
40
0.135697596014005
40
0.145294245948494
40
0.154877958739115
40
0.164448710407228
40
0.174006477198761
40
0.183551235590951
40
0.193082962298779
40
0.202601634281623
40
0.212107228749596
40
0.221599723169885
40
0.231079095273049
40
0.24054532305912
40
0.249998384803568
40
0.262988108002674
40
0.276190666273485
40
0.289606502280291
40
0.303236031353146
40
0.317079643175658
40
0.331137703360817
40
0.345410554923764
40
0.359898519659174
40
0.374601899430725
40
0.389520977379018
40
0.404656019054247
40
0.420007273478853
40
0.435574974145364
40
0.451359339954197
40
0.467360576095275
40
0.483578874877665
40
0.500014416510838
40
0.531159648994099
40
0.562997398965107
40
0.595530629578144
40
0.628762126965045
40
0.662694518700156
40
0.697330290357196
40
0.73267180035108
40
0.768721293239767
40
0.805480911644988
40
0.842952706936204
40
0.881138648807709
40
0.92004063386719
40
0.959660493342058
40
1
40
1
40
1
40
1
41
1
10
13.8257154453685
20
-1.06097319383028
30
0
41
1
10
13.8174583318199
20
-1.0472730112364
30
0
41
1
10
13.8009547326215
20
-1.01989027983251
30
0
41
1
10
13.7762806023258
20
-0.978821679650792
30
0
41
1
10
13.7516834449549
20
-0.937794415007431
30
0
41
1
10
13.7271659223736
20
-0.896809807043951
30
0
41
1
10
13.7027245673897
20
-0.855871343492737
30
0
41
1
10
13.6783575415211
20
-0.814981930912893
30
0
41
1
10
13.6540625610293
20
-0.774144628410653
30
0
41
1
10
13.6298374522422
20
-0.733362450312228
30
0
41
1
10
13.6056800037381
20
-0.692638417825719
30
0
41
1
10
13.5815880065689
20
-0.651975544118756
30
0
41
1
10
13.5575592442003
20
-0.611376837204404
30
0
41
1
10
13.5335914959012
20
-0.570845298067184
30
0
41
1
10
13.5096825365364
20
-0.53038392006593
30
0
41
1
10
13.4858301373347
20
-0.489995687992604
30
0
41
1
10
13.4620320663554
20
-0.44968357724872
30
0
41
1
10
13.4382860891937
20
-0.409450552911466
30
0
41
1
10
13.414589969045
20
-0.369299569140452
30
0
41
1
10
13.3909414690947
20
-0.329233567354493
30
0
41
1
10
13.3673383462716
20
-0.289255478999081
30
0
41
1
10
13.3437783771643
20
-0.249368211237737
30
0
41
1
10
13.3202592641587
20
-0.209574696257363
30
0
41
1
10
13.2967789876755
20
-0.169877703674558
30
0
41
1
10
13.2733344969771
20
-0.130280535257697
30
0
41
1
10
13.2499265887025
20
-0.090784433630887
30
0
41
1
10
13.2265417403582
20
-0.0513982291673472
30
0
41
1
10
13.2003004503791
20
-0.0071835669604638
30
0
41
1
10
13.1707943839096
20
0.0420266373106415
30
0
41
1
10
13.1375565533954
20
0.0963630604425987
30
0
41
1
10
13.1033929679539
20
0.151262502928461
30
0
41
1
10
13.0682841189445
20
0.206711786411916
30
0
41
1
10
13.0322310487281
20
0.262708855278618
30
0
41
1
10
12.9952294574456
20
0.319248921827551
30
0
41
1
10
12.9572768039333
20
0.376328264144377
30
0
41
1
10
12.9183703536195
20
0.433943180237861
30
0
41
1
10
12.8785077103426
20
0.492090271011449
30
0
41
1
10
12.8376866630179
20
0.550766356645653
30
0
41
1
10
12.7959052349456
20
0.609968500945683
30
0
41
1
10
12.7531616203449
20
0.669693976598239
30
0
41
1
10
12.709454369419
20
0.7299403581859
30
0
41
1
10
12.6647816753171
20
0.790705154124737
30
0
41
1
10
12.6191440691859
20
0.851987187558137
30
0
41
1
10
12.5725341362207
20
0.913781316394733
30
0
41
1
10
12.5109972450993
20
0.994414824221025
30
0
41
1
10
12.4334494831841
20
1.09398768966315
30
0
41
1
10
12.3386360415616
20
1.2124766331828
30
0
41
1
10
12.2403168274856
20
1.33236157343319
30
0
41
1
10
12.1385050130667
20
1.453671601303
30
0
41
1
10
12.0332327064866
20
1.57644709246489
30
0
41
1
10
11.9245294858934
20
1.70072789545586
30
0
41
1
10
11.812427863543
20
1.8265560478122
30
0
41
1
10
11.6969611989211
20
1.95397440338962
30
0
41
1
10
11.5781642481994
20
2.0830268470225
30
0
41
1
10
11.4560710319861
20
2.21375649989824
30
0
41
1
10
11.330721099669
20
2.34621069534322
30
0
41
1
10
11.2021342313811
20
2.48042039987482
30
0
41
1
10
11.0704062225176
20
2.61647775409165
30
0
41
1
10
10.9811667605412
20
2.70749701380311
30
0
41
1
10
10.9361454447823
20
2.75341623766278
30
0
0
SPLINE
5
119
100
AcDbEntity
8
1
62
256
6
ByLayer
370
18
48
1
60
0
100
AcDbSpline
70
4
71
5
72
19
73
13
40
0
40
0
40
0
40
0
40
0
40
0
40
0.3204743978263
40
0.400592997282875
40
0.520770896467738
40
0.600889495924313
40
0.721067395109175
40
0.80118599456575
40
0.921363893750613
40
1
40
1
40
1
40
1
40
1
40
1
41
1
10
13.8333773968939
20
-1.08446954432529
30
0
41
1
10
14.1880121288714
20
-1.24729825039069
30
0
41
1
10
14.6313055438433
20
-1.44760813531144
30
0
41
1
10
15.2075869833067
20
-1.70145661809323
30
0
41
1
10
15.8725271057647
20
-1.98214610953013
30
0
41
1
10
16.670455252714
20
-2.29808006724073
30
0
41
1
10
17.2024073506804
20
-2.49850306398378
30
0
41
1
10
17.7786887901438
20
-2.70350260052592
30
0
41
1
10
18.3090003714737
20
-2.88017288653737
30
0
41
1
10
18.7506532698091
20
-3.01664343514753
30
0
41
1
10
19.0593181436529
20
-3.10652571781515
30
0
41
1
10
19.2793243345024
20
-3.16770402840586
30
0
41
1
10
19.3663425008604
20
-3.19144435275203
30
0
0
SPLINE
5
11A
100
AcDbEntity
8
1
62
256
6
ByLayer
370
18
48
1
60
0
100
AcDbSpline
70
4
71
3
72
64
73
60
40
0
40
0
40
0
40
0
40
0.0097751429909702
40
0.0195377041963966
40
0.0292876572371683
40
0.039024975857598
40
0.0487496339329372
40
0.0584616054770291
40
0.0681608646498797
40
0.0778473857650375
40
0.0875211432971348
40
0.0971821118891584
40
0.10683026635966
40
0.116465581710147
40
0.126088033132099
40
0.135697596014006
40
0.145294245948495
40
0.154877958739116
40
0.16444871040723
40
0.174006477198763
40
0.183551235590953
40
0.19308296229878
40
0.202601634281624
40
0.212107228749597
40
0.221599723169886
40
0.231079095273051
40
0.240545323059122
40
0.249998384803568
40
0.262988108002675
40
0.276190666273487
40
0.289606502280294
40
0.303236031353148
40
0.317079643175659
40
0.331137703360819
40
0.345410554923765
40
0.359898519659174
40
0.374601899430728
40
0.38952097737902
40
0.404656019054248
40
0.420007273478854
40
0.435574974145365
40
0.451359339954199
40
0.467360576095276
40
0.483578874877665
40
0.500014416510839
40
0.5311596489941
40
0.562997398965109
40
0.595530629578145
40
0.628762126965046
40
0.662694518700157
40
0.697330290357197
40
0.732671800351081
40
0.768721293239768
40
0.805480911644991
40
0.842952706936204
40
0.88113864880771
40
0.920040633867191
40
0.95966049334206
40
1
40
1
40
1
40
1
41
1
10
13.8257154453685
20
3.33018274630314
30
0
41
1
10
13.8174583318199
20
3.33446104880105
30
0
41
1
10
13.8009547326216
20
3.34301214710661
30
0
41
1
10
13.7762806023258
20
3.35613920941302
30
0
41
1
10
13.7516834449549
20
3.36947521924904
30
0
41
1
10
13.7271659223736
20
3.3830416820478
30
0
41
1
10
13.7027245673897
20
3.39683202219146
30
0
41
1
10
13.6783575415212
20
3.41084709944957
30
0
41
1
10
13.6540625610293
20
3.42508571108965
30
0
41
1
10
13.6298374522422
20
3.43954713212378
30
0
41
1
10
13.6056800037381
20
3.45423043625595
30
0
41
1
10
13.5815880065689
20
3.4691346777704
30
0
41
1
10
13.5575592442003
20
3.48425884320463
30
0
41
1
10
13.5335914959012
20
3.49960186460737
30
0
41
1
10
13.5096825365364
20
3.51516261634586
30
0
41
1
10
13.4858301373347
20
3.53093991633745
30
0
41
1
10
13.4620320663554
20
3.54693252609974
30
0
41
1
10
13.4382860891937
20
3.56313915120143
30
0
41
1
10
13.414589969045
20
3.57955844138496
30
0
41
1
10
13.3909414690947
20
3.59618899169024
30
0
41
1
10
13.3673383462716
20
3.61302934000221
30
0
41
1
10
13.3437783771643
20
3.63007797796635
30
0
41
1
10
13.3202592641587
20
3.64733331219424
30
0
41
1
10
13.2967789876755
20
3.66479381067555
30
0
41
1
10
13.273334496977
20
3.68245745948602
30
0
41
1
10
13.2499265887025
20
3.70032378825536
30
0
41
1
10
13.2265417403582
20
3.71838632883242
30
0
41
1
10
13.200300450379
20
3.73894819238751
30
0
41
1
10
13.1707943839096
20
3.7621725418021
30
0
41
1
10
13.1375565533954
20
3.78819642286919
30
0
41
1
10
13.1033929679539
20
3.81487037080018
30
0
41
1
10
13.0682841189445
20
3.84218001235089
30
0
41
1
10
13.0322310487281
20
3.87011952649328
30
0
41
1
10
12.9952294574456
20
3.898680849497
30
0
41
1
10
12.9572768039333
20
3.92785664853628
30
0
41
1
10
12.9183703536195
20
3.95763951695975
30
0
41
1
10
12.8785077103426
20
3.98802220635719
30
0
41
1
10
12.8376866630179
20
4.01899757041338
30
0
41
1
10
12.7959052349457
20
4.05055860065426
30
0
41
1
10
12.7531616203449
20
4.08269838576069
30
0
41
1
10
12.709454369419
20
4.11541028513196
30
0
41
1
10
12.6647816753171
20
4.14868730494103
30
0
41
1
10
12.6191440691859
20
4.18252450566487
30
0
41
1
10
12.5725341362207
20
4.21690986183688
30
0
41
1
10
12.5109972450993
20
4.26213139513811
30
0
41
1
10
12.433449483184
20
4.31845264428046
30
0
41
1
10
12.3386360415616
20
4.38599573743232
30
0
41
1
10
12.2403168274856
20
4.45479178471808
30
0
41
1
10
12.1385050130667
20
4.52476772781662
30
0
41
1
10
12.0332327064866
20
4.59587273628497
30
0
41
1
10
11.9245294858934
20
4.66805877079824
30
0
41
1
10
11.8124278635431
20
4.74128566606873
30
0
41
1
10
11.6969611989211
20
4.81551930601211
30
0
41
1
10
11.5781642481994
20
4.89073205437552
30
0
41
1
10
11.4560710319861
20
4.96690112674347
30
0
41
1
10
11.330721099669
20
5.044012965565
30
0
41
1
10
11.2021342313811
20
5.12204503913733
30
0
41
1
10
11.0704062225176
20
5.20103411727666
30
0
41
1
10
10.9811667605412
20
5.25374478680834
30
0
41
1
10
10.9361454447823
20
5.28033732383503
30
0
0
SPLINE
5
11B
100
AcDbEntity
8
1
62
256
6
ByLayer
370
18
48
1
60
0
100
AcDbSpline
70
4
71
3
72
16
73
12
40
0
40
0
40
0
40
0
40
0.25
40
0.25
40
0.5
40
0.5
40
0.625
40
0.625
40
0.75
40
0.75
40
1
40
1
40
1
40
1
41
1
10
10.8254513573551
20
-5.53515169230269
30
0
41
1
10
10.9820186375517
20
-5.55142401442771
30
0
41
1
10
11.1402917316217
20
-5.56257668810463
30
0
41
1
10
11.4604693817
20
-5.57535838120992
30
0
41
1
10
11.6223769908339
20
-5.57698014610554
30
0
41
1
10
11.8682860420079
20
-5.57286938527272
30
0
41
1
10
11.9507503048533
20
-5.57040867282947
30
0
41
1
10
12.1164680987196
20
-5.56342814792558
30
0
41
1
10
12.1997578288856
20
-5.55890785052139
30
0
41
1
10
12.4510357680484
20
-5.54243141373112
30
0
41
1
10
12.6204288842775
20
-5.52755478733752
30
0
41
1
10
12.7920620148415
20
-5.50926997915229
30
0
0
SPLINE
5
11C
100
AcDbEntity
8
1
62
256
6
ByLayer
370
18
48
1
60
0
100
AcDbSpline
70
4
71
3
72
36
73
32
40
0
40
0
40
0
40
0
40
0.0313413224157587
40
0.0629727438643316
40
0.0948948599396324
40
0.12710825011071
40
0.159613478276674
40
0.19241109329955
40
0.225501629516228
40
0.258885607230473
40
0.29256353318554
40
0.32653590101862
40
0.360803191697607
40
0.395365873940951
40
0.430224404621591
40
0.465379229155366
40
0.500830781874633
40
0.536579486387705
40
0.572625755924961
40
0.608969993671645
40
0.645612593088488
40
0.68255393822021
40
0.719794403992854
40
0.757334356499901
40
0.795174153277931
40
0.833314143572365
40
0.870645011111263
40
0.90878146583429
40
0.947723797383487
40
0.987472277505714
40
1
40
1
40
1
40
1
41
1
10
12.7921705692131
20
-5.50881605094247
30
0
41
1
10
12.794223368732
20
-5.50031343411203
30
0
41
1
10
12.798347968728
20
-5.4832294992118
30
0
41
1
10
12.8048485896005
20
-5.45760599732216
30
0
41
1
10
12.8116177386411
20
-5.43184049434524
30
0
41
1
10
12.8186792646419
20
-5.40594647524449
30
0
41
1
10
12.8260305056463
20
-5.379926723582
30
0
41
1
10
12.8336759751182
20
-5.35378709718671
30
0
41
1
10
12.8416182090963
20
-5.32753278845851
30
0
41
1
10
12.8498602493286
20
-5.30116934220032
30
0
41
1
10
12.8584049660615
20
-5.27470238128336
30
0
41
1
10
12.8672552390282
20
-5.24813768318364
30
0
41
1
10
12.8764139053391
20
-5.2214811611955
30
0
41
1
10
12.8858837706064
20
-5.19473887147871
30
0
41
1
10
12.8956676028431
20
-5.16791701304015
30
0
41
1
10
12.9057681309794
20
-5.14102192957978
30
0
41
1
10
12.9161880420714
20
-5.1140601107725
30
0
41
1
10
12.9269299787993
20
-5.08703819364274
30
0
41
1
10
12.9379965368562
20
-5.05996296385209
30
0
41
1
10
12.9493902622108
20
-5.03284135693616
30
0
41
1
10
12.9611136487184
20
-5.0056804595138
30
0
41
1
10
12.9731691341838
20
-4.97848751032271
30
0
41
1
10
12.9855591020602
20
-4.95126990163294
30
0
41
1
10
12.9982858616498
20
-4.92403517893851
30
0
41
1
10
13.0113517092978
20
-4.89679104684663
30
0
41
1
10
13.0246286615525
20
-4.86980958220983
30
0
41
1
10
13.0381716083587
20
-4.84297221440227
30
0
41
1
10
13.0520367764693
20
-4.81616438900303
30
0
41
1
10
13.0664243002628
20
-4.78902151518267
30
0
41
1
10
13.0778358000957
20
-4.76801524162966
30
0
41
1
10
13.0844413961465
20
-4.75604883905501
30
0
41
1
10
13.0860281410004
20
-4.75318530503631
30
0
0
SPLINE
5
11D
100
AcDbEntity
8
1
62
256
6
ByLayer
370
18
48
1
60
0
100
AcDbSpline
70
4
71
3
72
10
73
6
40
0
40
0
40
0
40
0
40
0.5
40
0.5
40
1
40
1
40
1
40
1
41
1
10
11.1756966070929
20
4.62997168457582
30
0
41
1
10
11.4370169589379
20
4.51038472729613
30
0
41
1
10
11.7022692462454
20
4.38382074137266
30
0
41
1
10
12.2425935053435
20
4.12089132215445
30
0
41
1
10
12.5176617133583
20
3.98456472665265
30
0
41
1
10
12.7991560755563
20
3.84618570871126
30
0
0
SPLINE
5
11E
100
AcDbEntity
8
1
62
256
6
ByLayer
370
18
48
1
60
0
100
AcDbSpline
70
4
71
2
72
6
73
3
40
0
40
0
40
0
40
1
40
1
40
1
41
1
10
11.1756966070929
20
4.62997168457582
30
0
41
1
10
10.5578483035466
20
4.65820315066563
30
0
41
1
10
9.94000000000017
20
4.68643461675541
30
0
0
SPLINE
5
11F
100
AcDbEntity
8
1
62
256
6
ByLayer
370
18
48
1
60
0
100
AcDbSpline
70
4
71
3
72
10
73
6
40
0
40
0
40
0
40
0
40
0.5
40
0.5
40
1
40
1
40
1
40
1
41
1
10
10.4574199424283
20
3.20195946531416
30
0
41
1
10
10.3757177908311
20
3.245529270335
30
0
41
1
10
10.2918050179972
20
3.28550405185521
30
0
41
1
10
10.1194264574627
20
3.35842849926786
30
0
41
1
10
10.0309652058703
20
3.39138387966185
30
0
41
1
10
9.94000000000011
20
3.4206600327168
30
0
0
SPLINE
5
120
100
AcDbEntity
8
1
62
256
6
ByLayer
370
18
48
1
60
0
100
AcDbSpline
70
4
71
3
72
20
73
16
40
0
40
0
40
0
40
0
40
0.249999999999997
40
0.249999999999997
40
0.499999999999994
40
0.499999999999994
40
0.624999999999995
40
0.624999999999995
40
0.749999999999995
40
0.749999999999995
40
0.874999999999996
40
0.874999999999996
40
0.937499999999998
40
0.937499999999998
40
1
40
1
40
1
40
1
41
1
10
43.3701541140907
20
3.28906920046762
30
0
41
1
10
43.377982055359
20
3.26127636584894
30
0
41
1
10
43.385734749822
20
3.23340218515781
30
0
41
1
10
43.4010092988924
20
3.17740427277448
30
0
41
1
10
43.4085252158746
20
3.14932045282569
30
0
41
1
10
43.4194211133899
20
3.10713447763359
30
0
41
1
10
43.4229843347694
20
3.09307937461142
30
0
41
1
10
43.4298653390843
20
3.06515653866407
30
0
41
1
10
43.4331912940623
20
3.05126808754531
30
0
41
1
10
43.4394477351551
20
3.02374309994721
30
0
41
1
10
43.4423739630275
20
3.01014723083387
30
0
41
1
10
43.4459600877619
20
2.9910887369258
30
0
41
1
10
43.4469992147606
20
2.9850647137026
30
0
41
1
10
43.4486320418099
20
2.97395402364447
30
0
41
1
10
43.4492264671488
20
2.96880158054609
30
0
41
1
10
43.4494692949676
20
2.96464662725418
30
0
0
SPLINE
5
121
100
AcDbEntity
8
1
62
256
6
ByLayer
370
13
48
1
60
0
100
AcDbSpline
70
4
71
3
72
8
73
4
40
0
40
0
40
0
40
0
40
1
40
1
40
1
40
1
41
1
10
43.1934358072253
20
2.26145370708951
30
0
41
1
10
43.1913515476139
20
2.27629944295373
30
0
41
1
10
43.1892672880026
20
2.29114517881794
30
0
41
1
10
43.1871830283913
20
2.30599091468215
30
0
0
SPLINE
5
122
100
AcDbEntity
8
1
62
256
6
ByLayer
370
18
48
1
60
0
100
AcDbSpline
70
4
71
1
72
4
73
2
40
0
40
0
40
1
40
1
41
1
10
43.4494692949682
20
2.96464662724347
30
0
41
1
10
43.4484822078741
20
2.95867152232216
30
0
0
SPLINE
5
123
100
AcDbEntity
8
1
62
256
6
ByLayer
370
18
48
1
60
0
100
AcDbSpline
70
4
71
5
72
29
73
23
40
0
40
0
40
0
40
0
40
0
40
0
40
0.116227194448477
40
0.151124194443778
40
0.18591894663895
40
0.263906659914379
40
0.342454470865675
40
0.379749478495623
40
0.415199985924306
40
0.493373331342962
40
0.572319359605214
40
0.610743141151762
40
0.646429078190187
40
0.685237224294544
40
0.764570305765276
40
0.843440431746405
40
0.878212596467269
40
0.91627077847026
40
0.996121450198916
40
1
40
1
40
1
40
1
40
1
40
1
41
1
10
43.5791617237133
20
2.04087516890553
30
0
41
1
10
43.579199106351
20
2.04492324564714
30
0
41
1
10
43.5785527226324
20
2.05030091298423
30
0
41
1
10
43.5766512605767
20
2.05707264051497
30
0
41
1
10
43.5719873772807
20
2.06701234103036
30
0
41
1
10
43.5624591570544
20
2.0802410071768
30
0
41
1
10
43.5529505056552
20
2.09050374245575
30
0
41
1
10
43.541260281085
20
2.10088209247394
30
0
41
1
10
43.5250417668341
20
2.11310555470547
30
0
41
1
10
43.5063847951717
20
2.12532747704907
30
0
41
1
10
43.4883624538377
20
2.13574403595834
30
0
41
1
10
43.4687076816928
20
2.14589185944376
30
0
41
1
10
43.4469468346294
20
2.15598960882582
30
0
41
1
10
43.4237529169285
20
2.16588030230741
30
0
41
1
10
43.3994984187653
20
2.17540372514551
30
0
41
1
10
43.3744878111733
20
2.18430449177535
30
0
41
1
10
43.3480742477373
20
2.19283342761861
30
0
41
1
10
43.3163600050299
20
2.20209618287063
30
0
41
1
10
43.2918262766146
20
2.20855274172436
30
0
41
1
10
43.2753895378098
20
2.21257052922897
30
0
41
1
10
43.2625140469876
20
2.21553510545075
30
0
41
1
10
43.2536186630662
20
2.2174974506803
30
0
41
1
10
43.2532065130143
20
2.21758818882768
30
0
0
SPLINE
5
124
100
AcDbEntity
8
1
62
256
6
ByLayer
370
18
48
1
60
0
100
AcDbSpline
70
4
71
3
72
28
73
24
40
0
40
0
40
0
40
0
40
0.125000000000037
40
0.125000000000037
40
0.187500000000055
40
0.218750000000064
40
0.218750000000064
40
0.250000000000073
40
0.250000000000073
40
0.375000000000097
40
0.375000000000097
40
0.43750000000011
40
0.468750000000116
40
0.468750000000116
40
0.500000000000122
40
0.500000000000122
40
0.625000000000092
40
0.625000000000092
40
0.750000000000061
40
0.750000000000061
40
0.875000000000031
40
0.875000000000031
40
1
40
1
40
1
40
1
41
1
10
43.3754401992806
20
1.91899049882801
30
0
41
1
10
43.364333029328
20
1.89960590956107
30
0
41
1
10
43.3481578171098
20
1.88167299668388
30
0
41
1
10
43.3155180539849
20
1.85717309689582
30
0
41
1
10
43.2971083012004
20
1.84552176409142
30
0
41
1
10
43.2754586956713
20
1.83479844598938
30
0
41
1
10
43.2602967970062
20
1.8278583308755
30
0
41
1
10
43.2523297467757
20
1.82448459538136
30
0
41
1
10
43.2109574781754
20
1.80825993888777
30
0
41
1
10
43.173034541391
20
1.79734855796454
30
0
41
1
10
43.1099365072311
20
1.7836450304587
30
0
41
1
10
43.076833125407
20
1.77745956311819
30
0
41
1
10
43.0415772176777
20
1.77219680088541
30
0
41
1
10
43.0176136492677
20
1.76888531840927
30
0
41
1
10
43.0053970482525
20
1.76732800923415
30
0
41
1
10
42.9436525221417
20
1.76006238054032
30
0
41
1
10
42.8918147632644
20
1.75585505458352
30
0
41
1
10
42.7843991173316
20
1.74989872719925
30
0
41
1
10
42.7288160793563
20
1.74815311138639
30
0
41
1
10
42.6147003008662
20
1.74660067056192
30
0
41
1
10
42.5561597617159
20
1.74679595053362
30
0
41
1
10
42.436720348915
20
1.74874872469235
30
0
41
1
10
42.3764072553182
20
1.75049547332637
30
0
41
1
10
42.3156327227157
20
1.75284128252684
30
0
0
SPLINE
5
125
100
AcDbEntity
8
1
62
256
6
ByLayer
370
18
48
1
60
0
100
AcDbSpline
70
4
71
3
72
12
73
8
40
0
40
0
40
0
40
0
40
0.367207200629957
40
0.367207200629957
40
0.683603597863666
40
0.683603597863666
40
1
40
1
40
1
40
1
41
1
10
43.1744209456784
20
2.27523301893453
30
0
41
1
10
43.1767487673325
20
2.27354684720123
30
0
41
1
10
43.1790764586372
20
2.27186051132983
30
0
41
1
10
43.183409512259
20
2.26872087230544
30
0
41
1
10
43.1854149083702
20
2.26726761164704
30
0
41
1
10
43.1894255048564
20
2.26436084422429
30
0
41
1
10
43.1914307052392
20
2.26290733745421
30
0
41
1
10
43.1934358072255
20
2.2614537070894
30
0
0
SPLINE
5
126
100
AcDbEntity
8
1
62
256
6
ByLayer
370
18
48
1
60
0
100
AcDbSpline
70
4
71
3
72
8
73
4
40
0
40
0
40
0
40
0
40
1
40
1
40
1
40
1
41
1
10
43.1744209456784
20
2.27523301893453
30
0
41
1
10
43.1744847406309
20
2.27532577538221
30
0
41
1
10
43.1745486079569
20
2.27541790602137
30
0
41
1
10
43.1746125475143
20
2.27550941149349
30
0
0
SPLINE
5
127
100
AcDbEntity
8
1
62
256
6
ByLayer
370
18
48
1
60
0
100
AcDbSpline
70
4
71
5
72
35
73
29
40
0
40
0
40
0
40
0
40
0
40
0
40
0.0038452394773236
40
0.0391975431835632
40
0.0922259987429228
40
0.127578302449162
40
0.180606758008522
40
0.215959061714762
40
0.268987517274121
40
0.322015972833481
40
0.35736827653972
40
0.39272058024596
40
0.445749035805319
40
0.498777491364679
40
0.534129795070919
40
0.587158250630278
40
0.640186706189638
40
0.675539009895872
40
0.710891313602117
40
0.763919769161477
40
0.816948224720836
40
0.852300528427076
40
0.905328983986435
40
0.940681287692675
40
0.993709743252035
40
1
40
1
40
1
40
1
40
1
40
1
41
1
10
30.8361324739492
20
5.17622160049868
30
0
41
1
10
30.8457758021659
20
5.17832736666125
30
0
41
1
10
30.944077813377
20
5.19970024291524
30
0
41
1
10
31.1753678490798
20
5.24775896685515
30
0
41
1
10
31.4953165677769
20
5.30693686639052
30
0
41
1
10
31.9482533109655
20
5.3762027252844
30
0
41
1
10
32.4802054089318
20
5.43358894620499
30
0
41
1
10
33.0564868483953
20
5.46948925419716
30
0
41
1
10
33.6327682878588
20
5.47896573026085
30
0
41
1
10
34.2090497273222
20
5.45932434621619
30
0
41
1
10
34.7410018252885
20
5.41683703321155
30
0
41
1
10
35.317283264752
20
5.34466373063833
30
0
41
1
10
35.8935647042155
20
5.24666928092034
30
0
41
1
10
36.4255168021817
20
5.13275993844411
30
0
41
1
10
37.0017982416452
20
4.98454999537029
30
0
41
1
10
37.6224090226059
20
4.79643572951883
30
0
41
1
10
38.1986904620693
20
4.59624260804236
30
0
41
1
10
38.7306425600356
20
4.39094279662334
30
0
41
1
10
39.3069239994991
20
4.14743274950632
30
0
41
1
10
39.8832054389625
20
3.88388561930915
30
0
41
1
10
40.4151575369289
20
3.62316266451126
30
0
41
1
10
40.9914389763924
20
3.32320097409192
30
0
41
1
10
41.5677204158558
20
3.00562083702022
30
0
41
1
10
42.1440018553193
20
2.67359740802579
30
0
41
1
10
42.603070363298
20
2.39874773725373
30
0
41
1
10
42.9734801882823
20
2.17091352541993
30
0
41
1
10
43.2109019887751
20
2.02264747489488
30
0
41
1
10
43.3596651062735
20
1.9289367765173
30
0
41
1
10
43.3754401992803
20
1.91899049882826
30
0
0
SPLINE
5
128
100
AcDbEntity
8
1
62
256
6
ByLayer
370
18
48
1
60
0
100
AcDbSpline
70
4
71
3
72
18
73
14
40
0
40
0
40
0
40
0
40
0.250000000000009
40
0.250000000000009
40
0.375000000000008
40
0.375000000000008
40
0.500000000000007
40
0.500000000000007
40
0.625000000000006
40
0.625000000000006
40
0.750000000000005
40
0.750000000000005
40
1
40
1
40
1
40
1
41
1
10
43.2532065130143
20
2.21758818882765
30
0
41
1
10
43.2782848199804
20
2.19103149591609
30
0
41
1
10
43.3009141622533
20
2.16467744635747
30
0
41
1
10
43.3300819511497
20
2.12554158806824
30
0
41
1
10
43.339004387804
20
2.11256251241318
30
0
41
1
10
43.3549990334304
20
2.08675746104049
30
0
41
1
10
43.362080890233
20
2.0739103901463
30
0
41
1
10
43.3740294550483
20
2.04851342683148
30
0
41
1
10
43.3788975109803
20
2.03596874861842
30
0
41
1
10
43.3860970180024
20
2.01123206731813
30
0
41
1
10
43.3884300683507
20
1.99901895394868
30
0
41
1
10
43.3910205421801
20
1.9631408595148
30
0
41
1
10
43.3869058350699
20
1.94035371216611
30
0
41
1
10
43.3754401992809
20
1.91899049882789
30
0
0
SPLINE
5
129
100
AcDbEntity
8
1
62
256
6
ByLayer
370
18
48
1
60
0
100
AcDbSpline
70
4
71
3
72
8
73
4
40
0
40
0
40
0
40
0
40
1
40
1
40
1
40
1
41
1
10
43.1669298120027
20
2.32859076346298
30
0
41
1
10
43.1694833608366
20
2.31100339469765
30
0
41
1
10
43.1720363307533
20
2.29337254775143
30
0
41
1
10
43.1745887219265
20
2.27569823569786
30
0
0
SPLINE
5
12A
100
AcDbEntity
8
1
62
256
6
ByLayer
370
18
48
1
60
0
100
AcDbSpline
70
4
71
3
72
12
73
8
40
0
40
0
40
0
40
0
40
0.278485797807865
40
0.278485797807865
40
0.556971727161741
40
0.556971727161741
40
1
40
1
40
1
40
1
41
1
10
43.1669298120027
20
2.32859076346298
30
0
41
1
10
43.1688411299956
20
2.3265161881973
30
0
41
1
10
43.1707440322515
20
2.32443518023766
30
0
41
1
10
43.1745325070233
20
2.32026021944333
30
0
41
1
10
43.1764181067253
20
2.31816623663229
30
0
41
1
10
43.1812803245319
20
2.31272414700987
30
0
41
1
10
43.1842434218168
20
2.30936592559891
30
0
41
1
10
43.1871830283912
20
2.30599091468213
30
0
0
SPLINE
5
12B
100
AcDbEntity
8
1
62
256
6
ByLayer
370
18
48
1
60
0
100
AcDbSpline
70
4
71
3
72
40
73
36
40
0
40
0
40
0
40
0
40
0.0156249999999623
40
0.0156249999999623
40
0.0234374999999557
40
0.0234374999999557
40
0.031249999999949
40
0.031249999999949
40
0.0390624999999424
40
0.0390624999999424
40
0.0468749999999357
40
0.0468749999999357
40
0.0546874999999291
40
0.0546874999999291
40
0.0624999999999225
40
0.0624999999999225
40
0.078124999999923
40
0.078124999999923
40
0.0937499999999236
40
0.0937499999999236
40
0.124999999999925
40
0.124999999999925
40
0.187499999999928
40
0.187499999999928
40
0.249999999999931
40
0.249999999999931
40
0.374999999999943
40
0.374999999999943
40
0.499999999999954
40
0.499999999999954
40
0.624999999999965
40
0.624999999999965
40
0.749999999999976
40
0.749999999999976
40
1
40
1
40
1
40
1
41
1
10
43.1871830283913
20
2.30599091468218
30
0
41
1
10
43.1914049334858
20
2.30114367563084
30
0
41
1
10
43.1958868119932
20
2.29650645460495
30
0
41
1
10
43.2036619710569
20
2.29040992110771
30
0
41
1
10
43.2064297997635
20
2.28853335138388
30
0
41
1
10
43.2124496706114
20
2.28550890101337
30
0
41
1
10
43.2156481466381
20
2.28438954912227
30
0
41
1
10
43.2224609796427
20
2.28366333049851
30
0
41
1
10
43.2258674548985
20
2.28416027908
30
0
41
1
10
43.2319308808302
20
2.28653424685538
30
0
41
1
10
43.2345959223792
20
2.28834135631396
30
0
41
1
10
43.2392713357764
20
2.2924264909835
30
0
41
1
10
43.2413276507432
20
2.29473975553404
30
0
41
1
10
43.2450135201462
20
2.29951268672713
30
0
41
1
10
43.2466651179193
20
2.30200156809914
30
0
41
1
10
43.2512689882346
20
2.30965439839517
30
0
41
1
10
43.253885829266
20
2.31502171435008
30
0
41
1
10
43.2586097742248
20
2.32585572103275
30
0
41
1
10
43.2607135227696
20
2.33133768571923
30
0
41
1
10
43.2665746324756
20
2.34789021372109
30
0
41
1
10
43.2698907432877
20
2.35906498914997
30
0
41
1
10
43.2790164472499
20
2.39274949608443
30
0
41
1
10
43.2840036335633
20
2.41543688411889
30
0
41
1
10
43.2931281616474
20
2.46078730606644
30
0
41
1
10
43.2972139426802
20
2.48344668097914
30
0
41
1
10
43.3086576799726
20
2.55128110641115
30
0
41
1
10
43.3152094699481
20
2.59631132817429
30
0
41
1
10
43.3271267053215
20
2.6858328216058
30
0
41
1
10
43.3324576407017
20
2.73032947397039
30
0
41
1
10
43.3421280760342
20
2.8187493100175
30
0
41
1
10
43.3464649449576
20
2.86269542161938
30
0
41
1
10
43.3541422705739
20
2.94987930207156
30
0
41
1
10
43.357476895233
20
2.99311508166156
30
0
41
1
10
43.3658603681731
20
3.1217615959697
30
0
41
1
10
43.3693205835054
20
3.20612143922745
30
0
41
1
10
43.3701541140907
20
3.28906920046765
30
0
0
SPLINE
5
12C
100
AcDbEntity
8
1
62
256
6
ByLayer
370
18
48
1
60
0
100
AcDbSpline
70
4
71
3
72
14
73
10
40
0
40
0
40
0
40
0
40
0.124999999999998
40
0.124999999999998
40
0.249999999999996
40
0.249999999999996
40
0.499999999999999
40
0.499999999999999
40
1
40
1
40
1
40
1
41
1
10
43.3701541140907
20
3.28906920046762
30
0
41
1
10
43.3522800339014
20
3.3367020669447
30
0
41
1
10
43.3344354384428
20
3.38383676222969
30
0
41
1
10
43.2988056353852
20
3.47710274119831
30
0
41
1
10
43.281009821308
20
3.52326122728343
30
0
41
1
10
43.2277863002531
20
3.66002731582887
30
0
41
1
10
43.1925953757859
20
3.74874163661249
30
0
41
1
10
43.0878947467293
20
4.00751333909025
30
0
41
1
10
43.0192541795688
20
4.17022487500404
30
0
41
1
10
42.95180290859
20
4.32288462158422
30
0
0
SPLINE
5
12D
100
AcDbEntity
8
1
62
256
6
ByLayer
370
18
48
1
60
0
100
AcDbSpline
70
4
71
3
72
22
73
18
40
0
40
0
40
0
40
0
40
0.163265320915647
40
0.163265320915647
40
0.326530641831295
40
0.326530641831295
40
0.489795962746942
40
0.489795962746942
40
0.65306128366259
40
0.65306128366259
40
0.734693944120414
40
0.734693944120414
40
0.816326604578237
40
0.816326604578237
40
0.97959192549389
40
0.97959192549389
40
1
40
1
40
1
40
1
41
1
10
42.9518029085743
20
4.32288462159241
30
0
41
1
10
42.660188616956
20
4.47453205990348
30
0
41
1
10
42.3697165192768
20
4.61716536555369
30
0
41
1
10
41.7897757582691
20
4.88390498275604
30
0
41
1
10
41.5003080782933
20
5.00804544532949
30
0
41
1
10
40.9212546436543
20
5.236833780696
30
0
41
1
10
40.6316689518459
20
5.34145592983782
30
0
41
1
10
40.0511833165353
20
5.53038184810842
30
0
41
1
10
39.7602879694454
20
5.614686697276
30
0
41
1
10
39.322055080537
20
5.72500776570115
30
0
41
1
10
39.1756614746352
20
5.75909547815689
30
0
41
1
10
38.8820847816447
20
5.82179344743199
30
0
41
1
10
38.7356266558224
20
5.85025130204676
30
0
41
1
10
38.2972872942765
20
5.92695070463202
30
0
41
1
10
38.0063252894009
20
5.96651417021835
30
0
41
1
10
37.6797506542906
20
5.99800672987615
30
0
41
1
10
37.6434751095045
20
6.00132594235041
30
0
41
1
10
37.6072088075814
20
6.00446519357715
30
0
0
SPLINE
5
12E
100
AcDbEntity
8
1
62
256
6
ByLayer
370
18
48
1
60
0
100
AcDbSpline
70
4
71
3
72
30
73
26
40
0
40
0
40
0
40
0
40
0.207210974556858
40
0.207210974556858
40
0.310816461835286
40
0.310816461835286
40
0.362619205474499
40
0.362619205474499
40
0.414421949113713
40
0.414421949113713
40
0.51802743639214
40
0.51802743639214
40
0.621632923670567
40
0.621632923670567
40
0.725238410948994
40
0.725238410948994
40
0.828843898227421
40
0.828843898227421
40
0.880646641866634
40
0.880646641866634
40
0.932449385505846
40
0.932449385505846
40
0.984252129145058
40
0.984252129145058
40
1
40
1
40
1
40
1
41
1
10
10.8887781559177
20
5.06089302467856
30
0
41
1
10
10.647750271185
20
5.17679130936327
30
0
41
1
10
10.4092830246651
20
5.28519969422078
30
0
41
1
10
10.0549758206934
20
5.43472134040451
30
0
41
1
10
9.93744936180528
20
5.48238284953848
30
0
41
1
10
9.76208150409258
20
5.55037242971611
30
0
41
1
10
9.70378009208511
20
5.57245168093877
30
0
41
1
10
9.58750836643108
20
5.61539968643888
30
0
41
1
10
9.52959607634898
20
5.63624576604144
30
0
41
1
10
9.35715592034938
20
5.69664904824378
30
0
41
1
10
9.24369627415911
20
5.7341562893011
30
0
41
1
10
9.02024077264798
20
5.8033855076423
30
0
41
1
10
8.91024108225361
20
5.83510969934761
30
0
41
1
10
8.69446114618171
20
5.89239544537796
30
0
41
1
10
8.5886732182681
20
5.91796084134592
30
0
41
1
10
8.38253201327055
20
5.96234681877746
30
0
41
1
10
8.28216167372361
20
5.98117518664188
30
0
41
1
10
8.13719550841276
20
6.00364684550718
30
0
41
1
10
8.08998524300623
20
6.0101436771414
30
0
41
1
10
7.99835221049111
20
6.02099528520293
30
0
41
1
10
7.95389873116198
20
6.0253551117232
30
0
41
1
10
7.86822411373745
20
6.03177420234272
30
0
41
1
10
7.82700034291409
20
6.03383427768733
30
0
41
1
10
7.77579976813115
20
6.03487164173356
30
0
41
1
10
7.76403735732259
20
6.03499627108613
30
0
41
1
10
7.75247747907258
20
6.03499982319863
30
0
0
SPLINE
5
12F
100
AcDbEntity
8
1
62
256
6
ByLayer
370
18
48
1
60
0
100
AcDbSpline
70
4
71
3
72
10
73
6
40
0
40
0
40
0
40
0
40
0.338514814277402
40
0.338514814277402
40
1
40
1
40
1
40
1
41
1
10
9.70724179089419
20
5.56826147365683
30
0
41
1
10
9.73426481938714
20
5.57265767454516
30
0
41
1
10
9.7610863521256
20
5.57720821542884
30
0
41
1
10
9.83940633734517
20
5.59100717268691
30
0
41
1
10
9.890179663889
20
5.60061367637999
30
0
41
1
10
9.93999999998542
20
5.61059622308849
30
0
0
SPLINE
5
130
100
AcDbEntity
8
1
62
256
6
ByLayer
370
18
48
1
60
0
100
AcDbSpline
70
4
71
3
72
29
73
25
40
0
40
0
40
0
40
0
40
0.124999999999979
40
0.124999999999979
40
0.156249999999977
40
0.156249999999977
40
0.187499999999976
40
0.249999999999973
40
0.249999999999973
40
0.374999999999967
40
0.374999999999967
40
0.437499999999971
40
0.437499999999971
40
0.499999999999976
40
0.499999999999976
40
0.624999999999985
40
0.624999999999985
40
0.749999999999994
40
0.749999999999994
40
0.875000000000004
40
0.875000000000004
40
0.937500000000002
40
0.937500000000002
40
1
40
1
40
1
40
1
41
1
10
8.62399904165594
20
3.77576804036355
30
0
41
1
10
8.67795724476372
20
3.79092173052487
30
0
41
1
10
8.73367578182794
20
3.8011964694108
30
0
41
1
10
8.80494472522577
20
3.80961292948533
30
0
41
1
10
8.81929594642293
20
3.8110699997288
30
0
41
1
10
8.84792222824291
20
3.81353878814284
30
0
41
1
10
8.8908323350245
20
3.8165843260866
30
0
41
1
10
8.93366164672281
20
3.81782046486532
30
0
41
1
10
9.01922626090112
20
3.81819021338168
30
0
41
1
10
9.07614474912072
20
3.81565125858398
30
0
41
1
10
9.16136860620645
20
3.80838926588007
30
0
41
1
10
9.18975068133989
20
3.80538754650152
30
0
41
1
10
9.24646647389415
20
3.79829289954853
30
0
41
1
10
9.27479178721046
20
3.79419764934681
30
0
41
1
10
9.35890064804997
20
3.78049913318503
30
0
41
1
10
9.41410495917089
20
3.76945852994945
30
0
41
1
10
9.52301292399346
20
3.74401688415622
30
0
41
1
10
9.57671485263475
20
3.72961205976472
30
0
41
1
10
9.6827576071581
20
3.69768118646638
30
0
41
1
10
9.73509760232241
20
3.68015334785034
30
0
41
1
10
9.81265078779876
20
3.65160634781648
30
0
41
1
10
9.83834202374072
20
3.64171397112744
30
0
41
1
10
9.88941202026282
20
3.62118173142841
30
0
41
1
10
9.91482621509206
20
3.61052619111302
30
0
41
1
10
9.9400000000004
20
3.599535651568
30
0
0
SPLINE
5
131
100
AcDbEntity
8
1
62
256
6
ByLayer
370
18
48
1
60
0
100
AcDbSpline
70
4
71
3
72
73
73
69
40
0
40
0
40
0
40
0
40
0.0624999999999948
40
0.0624999999999948
40
0.0937499999999934
40
0.0937499999999934
40
0.124999999999992
40
0.124999999999992
40
0.187499999999989
40
0.187499999999989
40
0.249999999999986
40
0.249999999999986
40
0.312499999999983
40
0.312499999999983
40
0.37499999999998
40
0.37499999999998
40
0.406249999999979
40
0.406249999999979
40
0.437499999999977
40
0.437499999999977
40
0.499999999999974
40
0.499999999999974
40
0.531249999999974
40
0.531249999999974
40
0.546874999999973
40
0.546874999999973
40
0.562499999999973
40
0.562499999999973
40
0.593749999999974
40
0.593749999999974
40
0.624999999999975
40
0.624999999999975
40
0.656249999999975
40
0.656249999999975
40
0.671874999999975
40
0.671874999999975
40
0.687499999999975
40
0.687499999999975
40
0.718749999999975
40
0.718749999999975
40
0.734374999999975
40
0.734374999999975
40
0.742187499999974
40
0.742187499999974
40
0.749999999999974
40
0.781249999999974
40
0.781249999999974
40
0.796874999999974
40
0.804687499999973
40
0.804687499999973
40
0.812499999999973
40
0.812499999999973
40
0.843749999999974
40
0.843749999999974
40
0.859374999999974
40
0.867187499999976
40
0.867187499999976
40
0.874999999999977
40
0.874999999999977
40
0.906249999999982
40
0.906249999999982
40
0.937499999999987
40
0.937499999999987
40
0.953124999999991
40
0.953124999999991
40
0.968749999999995
40
0.968749999999995
40
1
40
1
40
1
40
1
41
1
10
10.1921369259257
20
-1.25561592036939
30
0
41
1
10
10.0883455262308
20
-1.16088125032491
30
0
41
1
10
9.98499904854756
20
-1.06480042106435
30
0
41
1
10
9.83067899604237
20
-0.918546915522739
30
0
41
1
10
9.7793561145541
20
-0.869439596702847
30
0
41
1
10
9.6769570441956
20
-0.770483156033919
30
0
41
1
10
9.62583604581394
20
-0.720589758797132
30
0
41
1
10
9.47320791406418
20
-0.570074022675215
30
0
41
1
10
9.37257965064936
20
-0.468769901923906
30
0
41
1
10
9.17382721681435
20
-0.264016353716642
30
0
41
1
10
9.07570152265666
20
-0.160568261144988
30
0
41
1
10
8.88236062231033
20
0.0488300051462431
30
0
41
1
10
8.78714270071535
20
0.154777795709862
30
0
41
1
10
8.60023642663185
20
0.369719304210292
30
0
41
1
10
8.50854292653727
20
0.47870849963158
30
0
41
1
10
8.37435764236983
20
0.645098661682709
30
0
41
1
10
8.33019134801822
20
0.701049056839054
30
0
41
1
10
8.24314966294804
20
0.81407029854654
30
0
41
1
10
8.20023472140974
20
0.871194510932753
30
0
41
1
10
8.07400845806163
20
1.04416294524162
30
0
41
1
10
7.99354482673377
20
1.16106902341701
30
0
41
1
10
7.88020729566654
20
1.33980257971842
30
0
41
1
10
7.84366276589748
20
1.39994729902637
30
0
41
1
10
7.79103626566595
20
1.49119678580692
30
0
41
1
10
7.77386010015135
20
1.52178586247214
30
0
41
1
10
7.74031014929491
20
1.58334708268839
30
0
41
1
10
7.72393729392022
20
1.61432090218358
30
0
41
1
10
7.67638753785806
20
1.70738848479604
30
0
41
1
10
7.64668741945229
20
1.76978060244838
30
0
41
1
10
7.59198567322298
20
1.89544997568456
30
0
41
1
10
7.56698052669884
20
1.95872624223671
30
0
41
1
10
7.52260891037753
20
2.08642090626915
30
0
41
1
10
7.50323603544959
20
2.15083749269732
30
0
41
1
10
7.47940127323952
20
2.24859208129064
30
0
41
1
10
7.47233068500361
20
2.2813662211133
30
0
41
1
10
7.46016273458883
20
2.3473549503951
30
0
41
1
10
7.45511896726967
20
2.38029487081082
30
0
41
1
10
7.44337658861457
20
2.47871466386445
30
0
41
1
10
7.44003262370035
20
2.54389903284124
30
0
41
1
10
7.44286125096971
20
2.64105035599766
30
0
41
1
10
7.44511492042423
20
2.67332995493214
30
0
41
1
10
7.4506396985918
20
2.72159575488846
30
0
41
1
10
7.45284517925552
20
2.73769520865474
30
0
41
1
10
7.45797346779102
20
2.76965314996457
30
0
41
1
10
7.47256249897438
20
2.84884032770734
30
0
41
1
10
7.49601031457706
20
2.92452315077057
30
0
41
1
10
7.53286361729707
20
3.01205917209728
30
0
41
1
10
7.55347119967507
20
3.05500567859019
30
0
41
1
10
7.5774097704408
20
3.09672872179459
30
0
41
1
10
7.5941172340554
20
3.12427270853081
30
0
41
1
10
7.60286398559083
20
3.13793448472114
30
0
41
1
10
7.64805144358618
20
3.20494030941765
30
0
41
1
10
7.68906507859953
20
3.25481086224889
30
0
41
1
10
7.75707948399861
20
3.32479459345839
30
0
41
1
10
7.79271473829988
20
3.35857679023047
30
0
41
1
10
7.83067749632536
20
3.39065841555015
30
0
41
1
10
7.85649256548433
20
3.41167908136043
30
0
41
1
10
7.86965250381576
20
3.42200351586379
30
0
41
1
10
7.93619140724871
20
3.47237321496573
30
0
41
1
10
7.99215795669468
20
3.50900579403196
30
0
41
1
10
8.10863958611267
20
3.57634747219569
30
0
41
1
10
8.16915963765064
20
3.60704895326148
30
0
41
1
10
8.26289205166194
20
3.64935800109942
30
0
41
1
10
8.29463011825854
20
3.66283432524222
30
0
41
1
10
8.35903512781397
20
3.68862376100472
30
0
41
1
10
8.39173268373997
20
3.70094427431025
30
0
41
1
10
8.49024293615375
20
3.73597412313188
30
0
41
1
10
8.55676195893733
20
3.75688509281895
30
0
41
1
10
8.62399904165602
20
3.77576804036323
30
0
0
SPLINE
5
132
100
AcDbEntity
8
1
62
256
6
ByLayer
370
18
48
1
60
0
100
AcDbSpline
70
4
71
3
72
10
73
6
40
0
40
0
40
0
40
0
40
0.5
40
0.5
40
1
40
1
40
1
40
1
41
1
10
10.1921369259257
20
-1.25561592036937
30
0
41
1
10
10.2346914829683
20
-1.24446885059726
30
0
41
1
10
10.2808330578017
20
-1.23365273024441
30
0
41
1
10
10.379676942072
20
-1.21262580332132
30
0
41
1
10
10.4323811403145
20
-1.20241517101812
30
0
41
1
10
10.488151261732
20
-1.19248741032402
30
0
0
SPLINE
5
133
100
AcDbEntity
8
1
62
256
6
ByLayer
370
18
48
1
60
0
100
AcDbSpline
70
4
71
3
72
16
73
12
40
0
40
0
40
0
40
0
40
0.250000000000001
40
0.250000000000001
40
0.500000000000003
40
0.500000000000003
40
0.625000000000001
40
0.625000000000001
40
0.749999999999998
40
0.749999999999998
40
1
40
1
40
1
40
1
41
1
10
10.488151261732
20
-1.19248741032405
30
0
41
1
10
10.6692345340577
20
-1.35815199982326
30
0
41
1
10
10.8528741088349
20
-1.51893682501128
30
0
41
1
10
11.2252767291832
20
-1.83111383492343
30
0
41
1
10
11.414044913335
20
-1.98249856700443
30
0
41
1
10
11.7014334892876
20
-2.20238042703713
30
0
41
1
10
11.797883921706
20
-2.27442532404837
30
0
41
1
10
11.9918366313108
20
-2.41569795390277
30
0
41
1
10
12.0893907552581
20
-2.48496538968252
30
0
41
1
10
12.3839697516297
20
-2.68854719157363
30
0
41
1
10
12.582903388524
20
-2.81864778280618
30
0
41
1
10
12.7849725052483
20
-2.94274081520624
30
0
0
SPLINE
5
134
100
AcDbEntity
8
1
62
256
6
ByLayer
370
18
48
1
60
0
100
AcDbSpline
70
4
71
3
72
68
73
64
40
0
40
0
40
0
40
0
40
0.0113019554950355
40
0.0227061988368113
40
0.0342129412948316
40
0.0458223885388811
40
0.0575347408271544
40
0.0693501931871552
40
0.0812689355896097
40
0.0932911531157767
40
0.105417026118429
40
0.117646730376646
40
0.129980437244811
40
0.142418313796004
40
0.154960522960033
40
0.167607223656287
40
0.180358570921661
40
0.193214716033832
40
0.206175806629803
40
0.219241986820376
40
0.232413397300136
40
0.245690175453734
40
0.259072455458098
40
0.272560368381064
40
0.286154042276463
40
0.299853602275784
40
0.313659170676586
40
0.327570867027802
40
0.341616754306077
40
0.355965746964087
40
0.370617953980797
40
0.385573477602042
40
0.40083241386683
40
0.416394853082572
40
0.432260880255015
40
0.448430575477902
40
0.464904014286887
40
0.481681267981329
40
0.498762403917593
40
0.516147485776682
40
0.533836573808834
40
0.551829725057436
40
0.570126993564324
40
0.588728430558218
40
0.60763408462793
40
0.626844001881847
40
0.646358226094889
40
0.666176798844119
40
0.686299759634068
40
0.706727146012644
40
0.727458993678474
40
0.748495336580492
40
0.769836207010264
40
0.791481635687912
40
0.813431651841953
40
0.835686283283726
40
0.85824555647671
40
0.881109496601314
40
0.904278127615306
40
0.927751472310458
40
0.951529552365492
40
0.975612388395789
40
1
40
1
40
1
40
1
41
1
10
12.7850791726167
20
-2.94238367269864
30
0
41
1
10
12.7869599519225
20
-2.93611075516421
30
0
41
1
10
12.7907385324439
20
-2.92350814733356
30
0
41
1
10
12.7966986006392
20
-2.90446290182436
30
0
41
1
10
12.8029074499061
20
-2.88520366698882
30
0
41
1
10
12.809387315827
20
-2.86572417666088
30
0
41
1
10
12.816135662582
20
-2.8460232695098
30
0
41
1
10
12.8231566614397
20
-2.82609844063464
30
0
41
1
10
12.8304526405725
20
-2.80594759521691
30
0
41
1
10
12.8380264043
20
-2.78556857501059
30
0
41
1
10
12.8458806010478
20
-2.76495928958974
30
0
41
1
10
12.8540178925107
20
-2.74411768345141
30
0
41
1
10
12.8624409052668
20
-2.72304174772225
30
0
41
1
10
12.8711522413974
20
-2.70172951980047
30
0
41
1
10
12.8801544730418
20
-2.68017908631472
30
0
41
1
10
12.889450141267
20
-2.65838858522557
30
0
41
1
10
12.8990417537168
20
-2.63635620820148
30
0
41
1
10
12.9089317825443
20
-2.61408020296159
30
0
41
1
10
12.9191226622226
20
-2.59155887567024
30
0
41
1
10
12.9296167873326
20
-2.56879059335299
30
0
41
1
10
12.9404165103363
20
-2.54577378636534
30
0
41
1
10
12.9515241392102
20
-2.52250695081994
30
0
41
1
10
12.9629419354291
20
-2.49898865131425
30
0
41
1
10
12.9746721104543
20
-2.47521752267235
30
0
41
1
10
12.9867168276916
20
-2.45119227555182
30
0
41
1
10
12.9990781836189
20
-2.42691168759535
30
0
41
1
10
13.0117582673931
20
-2.40237464930002
30
0
41
1
10
13.0247676292943
20
-2.37756340082413
30
0
41
1
10
13.038171608952
20
-2.35235998749948
30
0
41
1
10
13.0520367763053
20
-2.32664271751651
30
0
41
1
10
13.0664243003082
20
-2.30030490084863
30
0
41
1
10
13.0813420167873
20
-2.27334067275098
30
0
41
1
10
13.096797648177
20
-2.24574428582585
30
0
41
1
10
13.1127988545796
20
-2.21751017573658
30
0
41
1
10
13.1293531979904
20
-2.18863296814399
30
0
41
1
10
13.1464681298212
20
-2.15910750256381
30
0
41
1
10
13.1641509712912
20
-2.1289288522286
30
0
41
1
10
13.1824088950859
20
-2.0980923457285
30
0
41
1
10
13.2012489059599
20
-2.06659358883007
30
0
41
1
10
13.2206778209251
20
-2.03442848691088
30
0
41
1
10
13.2407022488457
20
-2.0015932678792
30
0
41
1
10
13.2613285694927
20
-1.96808450560815
30
0
41
1
10
13.2825629120406
20
-1.93389914386165
30
0
41
1
10
13.3044111330205
20
-1.8990345207086
30
0
41
1
10
13.3268787937275
20
-1.86348839340894
30
0
41
1
10
13.3499711370906
20
-1.82725896376047
30
0
41
1
10
13.3736930640121
20
-1.79034490388926
30
0
41
1
10
13.3980491091854
20
-1.75274538246822
30
0
41
1
10
13.4230434164003
20
-1.71446009134274
30
0
41
1
10
13.4486797133458
20
-1.67548927254455
30
0
41
1
10
13.4749612859416
20
-1.6358337456694
30
0
41
1
10
13.5018909521381
20
-1.59549493559587
30
0
41
1
10
13.5294710354851
20
-1.55447490050511
30
0
41
1
10
13.5577033374294
20
-1.51277636023616
30
0
41
1
10
13.5865891123662
20
-1.47040272468129
30
0
41
1
10
13.6161290302426
20
-1.42735812321266
30
0
41
1
10
13.6463231847222
20
-1.38364743118365
30
0
41
1
10
13.6771709260787
20
-1.33927630840785
30
0
41
1
10
13.7086713599181
20
-1.29425119266708
30
0
41
1
10
13.7408213096758
20
-1.24857946486654
30
0
41
1
10
13.7736229305994
20
-1.20226896112521
30
0
41
1
10
13.807054598631
20
-1.15532996979292
30
0
41
1
10
13.8296636997295
20
-1.12381997878129
30
0
41
1
10
13.8410393317532
20
-1.10796591800926
30
0
0
SPLINE
5
135
100
AcDbEntity
8
1
62
256
6
ByLayer
370
18
48
1
60
0
100
AcDbSpline
70
4
71
5
72
38
73
32
40
0
40
0
40
0
40
0
40
0
40
0
40
0.109580853670149
40
0.136976067087686
40
0.178068887213992
40
0.205464100631529
40
0.246556920757835
40
0.273952134175372
40
0.315044954301678
40
0.356137774427984
40
0.383532987845521
40
0.424625807971827
40
0.452021021389364
40
0.49311384151567
40
0.520509054933207
40
0.561601875059513
40
0.602694695185819
40
0.630089908603356
40
0.657485122020893
40
0.698577942147199
40
0.739670762273505
40
0.767065975691042
40
0.808158795817348
40
0.849251615943654
40
0.876646829361189
40
0.904042042778728
40
0.945134862905034
40
0.98622768303134
40
1
40
1
40
1
40
1
40
1
40
1
41
1
10
13.8333773968939
20
3.32392136853881
30
0
41
1
10
14.1880121288714
20
3.23607161217885
30
0
41
1
10
14.6313055438434
20
3.11637160002951
30
0
41
1
10
15.2075869833068
20
2.94540114438581
30
0
41
1
10
15.8725271057647
20
2.72665447710236
30
0
41
1
10
16.6704552527141
20
2.43770319662784
30
0
41
1
10
17.2024073506804
20
2.23414673943708
30
0
41
1
10
17.7786887901438
20
2.00288737071986
30
0
41
1
10
18.3549702296073
20
1.76189131870007
30
0
41
1
10
18.9312516690708
20
1.51149835639583
30
0
41
1
10
19.5075331085343
20
1.25379987256881
30
0
41
1
10
20.0838145479977
20
0.989473942313168
30
0
41
1
10
20.6600959874612
20
0.72043268681918
30
0
41
1
10
21.1920480854275
20
0.468811615403638
30
0
41
1
10
21.768329524891
20
0.194024452561166
30
0
41
1
10
22.3446109643544
20
-0.0817683671720886
30
0
41
1
10
22.9208924038179
20
-0.357164324823287
30
0
41
1
10
23.4528445017842
20
-0.609782487723407
30
0
41
1
10
24.0291259412477
20
-0.880370650304201
30
0
41
1
10
24.6054073807111
20
-1.14670556492226
30
0
41
1
10
25.1373594786774
20
-1.38755912266095
30
0
41
1
10
25.7136409181409
20
-1.64177732405196
30
0
41
1
10
26.3342516991015
20
-1.90611784222028
30
0
41
1
10
26.910533138565
20
-2.14147998221765
30
0
41
1
10
27.4424852365313
20
-2.34918311807985
30
0
41
1
10
28.0187666759948
20
-2.5627345915419
30
0
41
1
10
28.5950481154582
20
-2.76390497790814
30
0
41
1
10
29.0829126555246
20
-2.92298578898428
30
0
41
1
10
29.4821185125966
20
-3.04430051353535
30
0
41
1
10
29.7926656866742
20
-3.13303093355384
30
0
41
1
10
29.9702248362602
20
-3.18187022712539
30
0
41
1
10
30.0147959613547
20
-3.194009861567
30
0
0
SPLINE
5
136
100
AcDbEntity
8
1
62
256
6
ByLayer
370
18
48
1
60
0
100
AcDbSpline
70
4
71
3
72
8
73
4
40
0
40
0
40
0
40
0
40
1
40
1
40
1
40
1
41
1
10
12.7958853779289
20
3.85003063872941
30
0
41
1
10
13.2230772319159
20
3.64125372800751
30
0
41
1
10
13.648829235179
20
3.41702678241569
30
0
41
1
10
14.0745384934828
20
3.17840661307164
30
0
0
SPLINE
5
137
100
AcDbEntity
8
1
62
256
6
ByLayer
370
18
48
1
60
0
100
AcDbSpline
70
4
71
3
72
25
73
21
40
0
40
0
40
0
40
0
40
0.0625000000000003
40
0.0625000000000003
40
0.125000000000001
40
0.250000000000001
40
0.250000000000001
40
0.375000000000001
40
0.375000000000001
40
0.500000000000001
40
0.500000000000001
40
0.625000000000002
40
0.625000000000002
40
0.687500000000002
40
0.687500000000002
40
0.750000000000002
40
0.750000000000002
40
0.875000000000001
40
0.875000000000001
40
1
40
1
40
1
40
1
41
1
10
42.7759180448946
20
-1.09200100607975
30
0
41
1
10
42.7796288620563
20
-1.12755353140895
30
0
41
1
10
42.7832445005398
20
-1.16299939689503
30
0
41
1
10
42.7902552257272
20
-1.23346421464197
30
0
41
1
10
42.8004477138522
20
-1.33858616830943
30
0
41
1
10
42.8096179796207
20
-1.44189088619808
30
0
41
1
10
42.8207483291905
20
-1.57768092384293
30
0
41
1
10
42.8257631802077
20
-1.64459761536267
30
0
41
1
10
42.8344817219638
20
-1.77610010888944
30
0
41
1
10
42.8381966440982
20
-1.84070587728996
30
0
41
1
10
42.8442550211145
20
-1.96747931503629
30
0
41
1
10
42.8465991611882
20
-2.02964820246828
30
0
41
1
10
42.8489817951011
20
-2.12088634072597
30
0
41
1
10
42.8495870332276
20
-2.15100963135521
30
0
41
1
10
42.8503905458523
20
-2.21027150403467
30
0
41
1
10
42.8505894325448
20
-2.23940020844452
30
0
41
1
10
42.8505498141007
20
-2.32521112579479
30
0
41
1
10
42.8496764953702
20
-2.38032176948664
30
0
41
1
10
42.8460401093766
20
-2.48586472182711
30
0
41
1
10
42.8432792442293
20
-2.53630248211948
30
0
41
1
10
42.8394288831219
20
-2.58404304379536
30
0
0
SPLINE
5
138
100
AcDbEntity
8
1
62
256
6
ByLayer
370
18
48
1
60
0
100
AcDbSpline
70
4
71
3
72
10
73
6
40
0
40
0
40
0
40
0
40
0.5
40
0.5
40
1
40
1
40
1
40
1
41
1
10
41.5574010669175
20
-0.0570386098724498
30
0
41
1
10
41.7592665834134
20
-0.227183484496123
30
0
41
1
10
41.9617576019047
20
-0.398531996219219
30
0
41
1
10
42.3679430642474
20
-0.74354473955654
30
0
41
1
10
42.5716373637445
20
-0.917208693393093
30
0
41
1
10
42.7759180448947
20
-1.09200100607975
30
0
0
SPLINE
5
139
100
AcDbEntity
8
1
62
256
6
ByLayer
370
18
48
1
60
0
100
AcDbSpline
70
4
71
3
72
21
73
17
40
0
40
0
40
0
40
0
40
0.25
40
0.25
40
0.312500000000001
40
0.312500000000001
40
0.375000000000002
40
0.375000000000002
40
0.500000000000003
40
0.625000000000004
40
0.625000000000004
40
0.687500000000004
40
0.687500000000004
40
0.750000000000005
40
0.750000000000005
40
1
40
1
40
1
40
1
41
1
10
41.5574010669175
20
-0.0570386098724498
30
0
41
1
10
41.5016208241491
20
-0.0100235348014621
30
0
41
1
10
41.4517594518349
20
0.040708493474682
30
0
41
1
10
41.3975080649487
20
0.10931240813062
30
0
41
1
10
41.38706522287
20
0.123295740707903
30
0
41
1
10
41.3670275010935
20
0.151814770621684
30
0
41
1
10
41.3574268995254
20
0.166368145002934
30
0
41
1
10
41.3303417035195
20
0.210237221124203
30
0
41
1
10
41.2984921777644
20
0.269696187672167
30
0
41
1
10
41.2749922138575
20
0.331232541383571
30
0
41
1
10
41.2605203582975
20
0.378257514727153
30
0
41
1
10
41.2562121994316
20
0.394125940769811
30
0
41
1
10
41.2487179987217
20
0.425939966546281
30
0
41
1
10
41.2455385004853
20
0.441840523668446
30
0
41
1
10
41.2323746885003
20
0.521357993794084
30
0
41
1
10
41.2305148564634
20
0.584991079012013
30
0
41
1
10
41.2370129009678
20
0.649005279413672
30
0
0
SPLINE
5
13A
100
AcDbEntity
8
1
62
256
6
ByLayer
370
18
48
1
60
0
100
AcDbSpline
70
4
71
5
72
24
73
18
40
0
40
0
40
0
40
0
40
0
40
0
40
0.0366148839531257
40
0.103898472446445
40
0.204823855186423
40
0.272107443679742
40
0.373032826419721
40
0.473958209159699
40
0.541241797653018
40
0.608525386146337
40
0.709450768886316
40
0.810376151626294
40
0.877659740119613
40
0.978585122859592
40
1
40
1
40
1
40
1
40
1
40
1
41
1
10
34.6485798982312
20
3.2239915303345
30
0
41
1
10
34.6968268401968
20
3.21111131164395
30
0
41
1
10
34.8337324651568
20
3.1741594109001
30
0
41
1
10
35.1036261146084
20
3.09907382249
30
0
41
1
10
35.4621784470544
20
2.99357265590191
30
0
41
1
10
35.9537188039919
20
2.83890194910995
30
0
41
1
10
36.5300002434554
20
2.64380157451276
30
0
41
1
10
37.1062816829189
20
2.43462346167604
30
0
41
1
10
37.6382337808851
20
2.23067388719804
30
0
41
1
10
38.2145152203486
20
1.99906191762474
30
0
41
1
10
38.790796659812
20
1.75779207722675
30
0
41
1
10
39.3227487577784
20
1.5271285565762
30
0
41
1
10
39.8990301972418
20
1.26986200951521
30
0
41
1
10
40.4148710503712
20
1.03356884947769
30
0
41
1
10
40.797723879009
20
0.855442964813619
30
0
41
1
10
41.0475886831552
20
0.738248675835052
30
0
41
1
10
41.2087948043071
20
0.662307988113611
30
0
41
1
10
41.2370129009674
20
0.649005279413842
30
0
0
SPLINE
5
13B
100
AcDbEntity
8
1
62
256
6
ByLayer
370
18
48
1
60
0
100
AcDbSpline
70
4
71
3
72
18
73
14
40
0
40
0
40
0
40
0
40
0.0966319661099168
40
0.0966319661099168
40
0.322473974582438
40
0.322473974582438
40
0.548315983054959
40
0.548315983054959
40
0.66123698729122
40
0.66123698729122
40
0.77415799152748
40
0.77415799152748
40
1
40
1
40
1
40
1
41
1
10
43.0216943252856
20
-5.05707677758795
30
0
41
1
10
43.0246305205565
20
-5.08251813350088
30
0
41
1
10
43.0274517690081
20
-5.10823300958245
30
0
41
1
10
43.0364724003772
20
-5.19498518776439
30
0
41
1
10
43.0421452625868
20
-5.25727536518275
30
0
41
1
10
43.0520616712411
20
-5.38525682925672
30
0
41
1
10
43.056306284671
20
-5.45094557698226
30
0
41
1
10
43.0614350637073
20
-5.55242490070796
30
0
41
1
10
43.0629384498112
20
-5.58677468243314
30
0
41
1
10
43.065488955
20
-5.65641848913211
30
0
41
1
10
43.0665320684158
20
-5.69159150685945
30
0
41
1
10
43.068919080014
20
-5.79823334449927
30
0
41
1
10
43.069525158515
20
-5.87081812898035
30
0
41
1
10
43.0689766615997
20
-5.94514922802776
30
0
0
SPLINE
5
13C
100
AcDbEntity
8
1
62
256
6
ByLayer
370
18
48
1
60
0
100
AcDbSpline
70
4
71
5
72
39
73
33
40
0
40
0
40
0
40
0
40
0
40
0
40
0.0258226578818408
40
0.0681670630939687
40
0.110511468306096
40
0.138741071780848
40
0.181085476992976
40
0.223429882205104
40
0.251659485679854
40
0.279889089154608
40
0.322233494366736
40
0.364577899578864
40
0.392807503053616
40
0.435151908265744
40
0.463381511740496
40
0.505725916952623
40
0.533955520427375
40
0.576299925639503
40
0.618644330851631
40
0.646873934326383
40
0.689218339538511
40
0.717447943013263
40
0.759792348225391
40
0.788021951700143
40
0.830366356912271
40
0.872710762124398
40
0.90094036559915
40
0.929169969073902
40
0.97151437428603
40
1
40
1
40
1
40
1
40
1
40
1
41
1
10
24.0669225448198
20
3.20859165031084
30
0
41
1
10
24.1480219070998
20
3.18671441219698
30
0
41
1
10
24.3621092938712
20
3.12790837422955
30
0
41
1
10
24.7091847051344
20
3.02811273037028
30
0
41
1
10
25.1449187993919
20
2.89403253582827
30
0
41
1
10
25.7136409181409
20
2.70544986602576
30
0
41
1
10
26.3342516991016
20
2.4842069233444
30
0
41
1
10
26.9105331385651
20
2.26553609598952
30
0
41
1
10
27.4424852365314
20
2.05357840010581
30
0
41
1
10
28.0187666759948
20
1.81415079868293
30
0
41
1
10
28.5950481154583
20
1.56595866932056
30
0
41
1
10
29.1270002134245
20
1.32975803906831
30
0
41
1
10
29.703281652888
20
1.06744690704579
30
0
41
1
10
30.2795630923515
20
0.799499237056409
30
0
41
1
10
30.855844531815
20
0.527755012221036
30
0
41
1
10
31.3877966297813
20
0.274497811317502
30
0
41
1
10
31.9640780692447
20
-0.0011225476382606
30
0
41
1
10
32.5403595087083
20
-0.276805671432129
30
0
41
1
10
33.1166409481717
20
-0.551055350140643
30
0
41
1
10
33.6929223876352
20
-0.822641614247175
30
0
41
1
10
34.2692038270986
20
-1.0898192348094
30
0
41
1
10
34.8454852665621
20
-1.35166524145959
30
0
41
1
10
35.3774373645284
20
-1.58739925894133
30
0
41
1
10
35.9537188039919
20
-1.83504499373592
30
0
41
1
10
36.5300002434553
20
-2.07388367040693
30
0
41
1
10
37.1062816829188
20
-2.30173290124173
30
0
41
1
10
37.6382337808851
20
-2.50178607475391
30
0
41
1
10
38.2145152203486
20
-2.70631698898711
30
0
41
1
10
38.747271388927
20
-2.88331287820782
30
0
41
1
10
39.1470395330139
20
-3.00742410155405
30
0
41
1
10
39.4581489941063
20
-3.09844515703429
30
0
41
1
10
39.6805997722044
20
-3.16058321619246
30
0
41
1
10
39.7700625258109
20
-3.18509082323701
30
0
0
SPLINE
5
13D
100
AcDbEntity
8
1
62
256
6
ByLayer
370
18
48
1
60
0
100
AcDbSpline
70
4
71
3
72
17
73
13
40
0
40
0
40
0
40
0
40
0.249999999999997
40
0.249999999999997
40
0.374999999999996
40
0.374999999999996
40
0.499999999999994
40
0.624999999999993
40
0.624999999999993
40
0.749999999999992
40
0.749999999999992
40
1
40
1
40
1
40
1
41
1
10
14.0745384934828
20
3.17840661307164
30
0
41
1
10
14.1434370706446
20
3.15203409089804
30
0
41
1
10
14.2152482365307
20
3.12225754141735
30
0
41
1
10
14.3271500325966
20
3.07209132536741
30
0
41
1
10
14.3651745837214
20
3.05444101429632
30
0
41
1
10
14.442525269853
20
3.017287409251
30
0
41
1
10
14.5209266977475
20
2.97840279293502
30
0
41
1
10
14.6014080208192
20
2.93601402937009
30
0
41
1
10
14.6829413225589
20
2.89184802149896
30
0
41
1
10
14.7242670592682
20
2.86885580246366
30
0
41
1
10
14.8491384713322
20
2.79759778112054
30
0
41
1
10
14.9337838961116
20
2.74693922592158
30
0
41
1
10
15.0200000000002
20
2.69316210334219
30
0
0
SPLINE
5
13E
100
AcDbEntity
8
1
62
256
6
ByLayer
370
18
48
1
60
0
100
AcDbSpline
70
4
71
3
72
12
73
8
40
0
40
0
40
0
40
0
40
0.0014188735412948
40
0.261579880768128
40
0.521740887994961
40
0.781901895221795
40
1
40
1
40
1
40
1
41
1
10
14.0745384934828
20
3.17840661307164
30
0
41
1
10
14.0745384934828
20
3.17744087584901
30
0
41
1
10
14.0745384934828
20
2.99935069608688
30
0
41
1
10
14.0745384934828
20
2.62600346186528
30
0
41
1
10
14.0745384934828
20
2.02113941155704
30
0
41
1
10
14.0745384934828
20
1.41278364500209
30
0
41
1
10
14.0745384934828
20
1.00219334061722
30
0
41
1
10
14.0745384934828
20
0.812848233888559
30
0
0
SPLINE
5
13F
100
AcDbEntity
8
1
62
256
6
ByLayer
370
18
48
1
60
0
100
AcDbSpline
70
4
71
3
72
89
73
85
40
0
40
0
40
0
40
0
40
0.0090852493786947
40
0.0090852493786947
40
0.0202191229811814
40
0.0424868701861547
40
0.0424868701861547
40
0.064754617391128
40
0.064754617391128
40
0.109290111801073
40
0.109290111801073
40
0.131557859006046
40
0.131557859006046
40
0.153825606211018
40
0.153825606211018
40
0.198361100620965
40
0.198361100620965
40
0.220628847825939
40
0.220628847825939
40
0.242896595030913
40
0.242896595030913
40
0.254030468633399
40
0.254030468633399
40
0.265164342235885
40
0.265164342235885
40
0.287432089440858
40
0.287432089440858
40
0.309699836645831
40
0.309699836645831
40
0.331967583850803
40
0.331967583850803
40
0.354235331055776
40
0.354235331055776
40
0.376503078260749
40
0.376503078260749
40
0.421038572670694
40
0.421038572670694
40
0.443306319875667
40
0.443306319875667
40
0.465574067080639
40
0.465574067080639
40
0.476707940683126
40
0.476707940683126
40
0.487841814285612
40
0.487841814285612
40
0.510109561490585
40
0.510109561490585
40
0.532377308695557
40
0.532377308695557
40
0.55464505590053
40
0.55464505590053
40
0.599180550310475
40
0.599180550310475
40
0.64371604472042
40
0.64371604472042
40
0.665983791925393
40
0.665983791925393
40
0.688251539130366
40
0.688251539130366
40
0.710519286335338
40
0.710519286335338
40
0.721653159937825
40
0.721653159937825
40
0.732787033540312
40
0.732787033540312
40
0.77732252795026
40
0.77732252795026
40
0.799590275155235
40
0.799590275155235
40
0.82185802236021
40
0.82185802236021
40
0.844125769565184
40
0.844125769565184
40
0.866393516770159
40
0.866393516770159
40
0.910929011180107
40
0.910929011180107
40
0.955464505590055
40
0.955464505590055
40
0.966598379192542
40
0.966598379192542
40
0.977732252795028
40
0.977732252795028
40
1
40
1
40
1
40
1
41
1
10
34.5479919670659
20
-5.60813461394304
30
0
41
1
10
34.4884231261079
20
-5.62394793436434
30
0
41
1
10
34.4287801937014
20
-5.63932674230836
30
0
41
1
10
34.2960841145494
20
-5.67251690787828
30
0
41
1
10
34.0771690639874
20
-5.72519898126842
30
0
41
1
10
33.859058055955
20
-5.77142896913415
30
0
41
1
10
33.5688086827697
20
-5.82730216588868
30
0
41
1
10
33.4239734841213
20
-5.85231816966439
30
0
41
1
10
32.9900270384572
20
-5.91900013148179
30
0
41
1
10
32.7014091232892
20
-5.95273063989356
30
0
41
1
10
32.268855239179
20
-5.98625371801154
30
0
41
1
10
32.1247328354341
20
-5.9945671664355
30
0
41
1
10
31.8364798042122
20
-6.00526707926372
30
0
41
1
10
31.6923407183494
20
-6.0077026227338
30
0
41
1
10
31.2596072228025
20
-6.00699861211896
30
0
41
1
10
30.9707417121062
20
-5.99561551744824
30
0
41
1
10
30.536080903188
20
-5.9607014510384
30
0
41
1
10
30.3909627824856
20
-5.9460368309939
30
0
41
1
10
30.100097101619
20
-5.91102318586948
30
0
41
1
10
29.954351445668
20
-5.8907733817388
30
0
41
1
10
29.7351582703433
20
-5.85612269973564
30
0
41
1
10
29.6620627449151
20
-5.84386323589848
30
0
41
1
10
29.5161636677171
20
-5.81797876095078
30
0
41
1
10
29.443306122481
20
-5.80434553542747
30
0
41
1
10
29.2249870170646
20
-5.76136605075862
30
0
41
1
10
29.0797822028166
20
-5.72992636472688
30
0
41
1
10
28.7899092526565
20
-5.66151676691052
30
0
41
1
10
28.645219913447
20
-5.62464139421289
30
0
41
1
10
28.3561287950145
20
-5.54602980662855
30
0
41
1
10
28.2117450022048
20
-5.50420823288812
30
0
41
1
10
27.9232007231012
20
-5.41540123021178
30
0
41
1
10
27.7790378153905
20
-5.3684290340386
30
0
41
1
10
27.4907996023142
20
-5.2693048140307
30
0
41
1
10
27.3467285596702
20
-5.21710164479103
30
0
41
1
10
26.9143551616167
20
-5.05340982227099
30
0
41
1
10
26.6259015421841
20
-4.93495923867115
30
0
41
1
10
26.1921647218241
20
-4.7426908863786
30
0
41
1
10
26.0474058431921
20
-4.67617364576699
30
0
41
1
10
25.7573696968759
20
-4.53839345046094
30
0
41
1
10
25.6120894881552
20
-4.46721874412543
30
0
41
1
10
25.3936706120877
20
-4.35719567988539
30
0
41
1
10
25.3207814361698
20
-4.31996387147024
30
0
41
1
10
25.1748180530037
20
-4.24435928328958
30
0
41
1
10
25.1016822070031
20
-4.20595502610988
30
0
41
1
10
24.8826572662796
20
-4.08940651292406
30
0
41
1
10
24.7370277022493
20
-4.0098667917313
30
0
41
1
10
24.4464029157753
20
-3.84724327859468
30
0
41
1
10
24.3014111966136
20
-3.76414245526593
30
0
41
1
10
24.0118194528778
20
-3.59490316770982
30
0
41
1
10
23.8672266016227
20
-3.50874825737557
30
0
41
1
10
23.4339432063701
20
-3.24557887765306
30
0
41
1
10
23.1457189074111
20
-3.06395427804981
30
0
41
1
10
22.569347283324
20
-2.68985128945545
30
0
41
1
10
22.2811906291765
20
-2.49742304850798
30
0
41
1
10
21.8481445713992
20
-2.20179501387929
30
0
41
1
10
21.7036629765383
20
-2.10207429412071
30
0
41
1
10
21.414291066749
20
-1.90038980962589
30
0
41
1
10
21.2693995849191
20
-1.79842971031761
30
0
41
1
10
20.9790513950033
20
-1.59250877351968
30
0
41
1
10
20.8335950201761
20
-1.48855291902149
30
0
41
1
10
20.6148762841539
20
-1.33125452302889
30
0
41
1
10
20.541859664836
20
-1.27857566059348
30
0
41
1
10
20.3957171248983
20
-1.17282803215599
30
0
41
1
10
20.3227478840365
20
-1.11987213248366
30
0
41
1
10
19.9583500677623
20
-0.854762626445051
30
0
41
1
10
19.6682444139423
20
-0.641644241758229
30
0
41
1
10
19.2342355176129
20
-0.321702907956677
30
0
41
1
10
19.0897635684379
20
-0.215004919598044
30
0
41
1
10
18.8011077676192
20
-0.0016712496944535
30
0
41
1
10
18.6569208727398
20
0.104960828420872
30
0
41
1
10
18.3686527241579
20
0.317929662736219
30
0
41
1
10
18.2245714149302
20
0.424266660587648
30
0
41
1
10
17.9363677877576
20
0.636452345943525
30
0
41
1
10
17.7922481792775
20
0.742303601060371
30
0
41
1
10
17.3596473688277
20
1.05885541671017
30
0
41
1
10
17.0709322031895
20
1.26854790410897
30
0
41
1
10
16.4916248704394
20
1.68361755553781
30
0
41
1
10
16.2010494671856
20
1.88902463275591
30
0
41
1
10
15.8359250726613
20
2.14203007910407
30
0
41
1
10
15.7628187133224
20
2.19243240668641
30
0
41
1
10
15.616806803743
20
2.29255356366713
30
0
41
1
10
15.5438499891258
20
2.34230804099155
30
0
41
1
10
15.3250946929678
20
2.49062808953235
30
0
41
1
10
15.1794096661252
20
2.58825318310019
30
0
41
1
10
15.0338025215888
20
2.68454596546567
30
0
0
SPLINE
5
140
100
AcDbEntity
8
1
62
256
6
ByLayer
370
18
48
1
60
0
100
AcDbSpline
70
4
71
3
72
10
73
6
40
0
40
0
40
0
40
0
40
0.5
40
0.5
40
1
40
1
40
1
40
1
41
1
10
43.3701541140907
20
-5.73652012728937
30
0
41
1
10
43.319250803222
20
-5.78495399621374
30
0
41
1
10
43.2686972476331
20
-5.82662971107604
30
0
41
1
10
43.1682991498823
20
-5.89628121331802
30
0
41
1
10
43.1184545486687
20
-5.92425814172387
30
0
41
1
10
43.0689766615999
20
-5.94514922802796
30
0
0
SPLINE
5
141
100
AcDbEntity
8
1
62
256
6
ByLayer
370
18
48
1
60
0
100
AcDbSpline
70
4
71
3
72
99
73
95
40
0
40
0
40
0
40
0
40
0.0332933815428457
40
0.0332933815428457
40
0.0665867630856914
40
0.0665867630856914
40
0.099880144628537
40
0.099880144628537
40
0.133173526171383
40
0.133173526171383
40
0.149820216942806
40
0.149820216942806
40
0.158143562328517
40
0.158143562328517
40
0.166466907714228
40
0.199760289257075
40
0.199760289257075
40
0.266347052342767
40
0.266347052342767
40
0.299640433885614
40
0.299640433885614
40
0.316287124657037
40
0.324610470042749
40
0.324610470042749
40
0.332933815428461
40
0.332933815428461
40
0.366227196971307
40
0.366227196971307
40
0.38287388774273
40
0.38287388774273
40
0.399520578514153
40
0.399520578514153
40
0.416167269285576
40
0.416167269285576
40
0.432813960056999
40
0.432813960056999
40
0.466107341599845
40
0.466107341599845
40
0.482754032371267
40
0.482754032371267
40
0.49940072314269
40
0.49940072314269
40
0.507724068528401
40
0.507724068528401
40
0.516047413914113
40
0.532694104685536
40
0.532694104685536
40
0.54934079545696
40
0.54934079545696
40
0.565987486228383
40
0.565987486228383
40
0.582634176999807
40
0.582634176999807
40
0.59928086777123
40
0.59928086777123
40
0.632574249314077
40
0.632574249314077
40
0.649220940085501
40
0.649220940085501
40
0.665867630856925
40
0.665867630856925
40
0.674190976242638
40
0.674190976242638
40
0.68251432162835
40
0.68251432162835
40
0.699161012399775
40
0.699161012399775
40
0.7158077031712
40
0.7158077031712
40
0.732454393942625
40
0.732454393942625
40
0.799041157028324
40
0.799041157028324
40
0.815687847799749
40
0.815687847799749
40
0.832334538571173
40
0.832334538571173
40
0.848981229342598
40
0.848981229342598
40
0.857304574728311
40
0.857304574728311
40
0.865627920114024
40
0.865627920114024
40
0.898921301656875
40
0.898921301656875
40
0.915567992428302
40
0.915567992428302
40
0.932214683199728
40
0.932214683199728
40
0.965508064742581
40
0.965508064742581
40
0.998801446285435
40
0.998801446285435
40
1
40
1
40
1
40
1
41
1
10
43.0689766615997
20
-5.94514922802801
30
0
41
1
10
42.7758213816254
20
-5.99180451039774
30
0
41
1
10
42.4839106073504
20
-6.02653022949869
30
0
41
1
10
41.9012626257774
20
-6.07265048206673
30
0
41
1
10
41.6105244608182
20
-6.08408937055333
30
0
41
1
10
41.0290561696056
20
-6.08362117286256
30
0
41
1
10
40.7383303436986
20
-6.07165859596842
30
0
41
1
10
40.1556804274576
20
-6.02435045857825
30
0
41
1
10
39.8637589518757
20
-5.98902697794918
30
0
41
1
10
39.4240577342098
20
-5.91828918211726
30
0
41
1
10
39.2771865768832
20
-5.89174853118413
30
0
41
1
10
39.0563032418249
20
-5.84750183449566
30
0
41
1
10
38.9825477165375
20
-5.83200535304496
30
0
41
1
10
38.8353469174326
20
-5.79965379077021
30
0
41
1
10
38.4678111673613
20
-5.71532464672657
30
0
41
1
10
38.1023629334263
20
-5.61395336144221
30
0
41
1
10
37.227487888424
20
-5.33925027399823
30
0
41
1
10
36.6471435862999
20
-5.11445212129365
30
0
41
1
10
35.7737998579318
20
-4.71976113357999
30
0
41
1
10
35.4822056400827
20
-4.57872196810385
30
0
41
1
10
35.0431954761041
20
-4.35350124766759
30
0
41
1
10
34.8232854889418
20
-4.23746495131343
30
0
41
1
10
34.6025902007051
20
-4.11635897393387
30
0
41
1
10
34.4552647131623
20
-4.03450226859249
30
0
41
1
10
34.3815400805404
20
-3.99303306566253
30
0
41
1
10
34.0137111154187
20
-3.78368167489293
30
0
41
1
10
33.7209705010698
20
-3.60921486331262
30
0
41
1
10
33.2831931843838
20
-3.3382028766502
30
0
41
1
10
33.1374782301712
20
-3.24635221460198
30
0
41
1
10
32.846288943561
20
-3.05995587240719
30
0
41
1
10
32.7008233705977
20
-2.96538019314946
30
0
41
1
10
32.4100303514347
20
-2.77355243998113
30
0
41
1
10
32.2647026291243
20
-2.67630171934917
30
0
41
1
10
31.9740482930953
20
-2.47922151846316
30
0
41
1
10
31.828723877407
20
-2.37936911203141
30
0
41
1
10
31.3924743087871
20
-2.07648823348254
30
0
41
1
10
31.1012820168264
20
-1.87019462309334
30
0
41
1
10
30.6631219171616
20
-1.5547127837518
30
0
41
1
10
30.5168368721314
20
-1.44853903373414
30
0
41
1
10
30.2236352811712
20
-1.23438020828743
30
0
41
1
10
30.0767186862895
20
-1.12643635476635
30
0
41
1
10
29.8557595908983
20
-0.96339668285853
30
0
41
1
10
29.7820307616182
20
-0.908873526785925
30
0
41
1
10
29.6348903904572
20
-0.799850809094409
30
0
41
1
10
29.4144609120196
20
-0.636210035313184
30
0
41
1
10
29.1948003494204
20
-0.472354983086547
30
0
41
1
10
28.9024656231369
20
-0.253889665263642
30
0
41
1
10
28.7565711455223
20
-0.14466295608932
30
0
41
1
10
28.4650875903164
20
0.0735190210841097
30
0
41
1
10
28.3195073158207
20
0.182482190512445
30
0
41
1
10
28.0285649312194
20
0.399983214501077
30
0
41
1
10
27.8832005303177
20
0.508519499823507
30
0
41
1
10
27.5925461409673
20
0.72496272268836
30
0
41
1
10
27.447259506411
20
0.832869099429757
30
0
41
1
10
27.011256118862
20
1.1553216453126
30
0
41
1
10
26.7203724857572
20
1.36862303059849
30
0
41
1
10
26.2829042228812
20
1.68485963363489
30
0
41
1
10
26.1368884888443
20
1.78964991861582
30
0
41
1
10
25.8443104561903
20
1.99775789358264
30
0
41
1
10
25.6977460460083
20
2.10107746474225
30
0
41
1
10
25.4773739504198
20
2.25483181875921
30
0
41
1
10
25.4038291946384
20
2.30587779523165
30
0
41
1
10
25.2565446668969
20
2.40752674092508
30
0
41
1
10
25.1828181663207
20
2.45811941457632
30
0
41
1
10
24.9621255680065
20
2.6086376028149
30
0
41
1
10
24.8153787545214
20
2.70748935156021
30
0
41
1
10
24.5224993874353
20
2.90202139579196
30
0
41
1
10
24.376372855063
20
2.99768425547177
30
0
41
1
10
24.084527393957
20
3.18579026150854
30
0
41
1
10
23.9388020102916
20
3.27825916765625
30
0
41
1
10
23.2109191048359
20
3.73200478021852
30
0
41
1
10
22.630946269009
20
4.06745214460111
30
0
41
1
10
21.9028065179954
20
4.44664709705086
30
0
41
1
10
21.757022280704
20
4.52047751316067
30
0
41
1
10
21.4649917438491
20
4.66387607404306
30
0
41
1
10
21.3187447066093
20
4.73343747259941
30
0
41
1
10
21.0256267868779
20
4.86816967603511
30
0
41
1
10
20.8787561932497
20
4.93334464570128
30
0
41
1
10
20.657866033959
20
5.02770888362619
30
0
41
1
10
20.5841420336257
20
5.05859097400699
30
0
41
1
10
20.4370205444743
20
5.11895591174451
30
0
41
1
10
20.3635566450361
20
5.14846520267952
30
0
41
1
10
19.9966650838687
20
5.29264831330417
30
0
41
1
10
19.7045016758657
20
5.3972839933985
30
0
41
1
10
19.2672952310565
20
5.53821992647426
30
0
41
1
10
19.1217356576728
20
5.58252707187583
30
0
41
1
10
18.8308455348564
20
5.66557691072467
30
0
41
1
10
18.6855146644937
20
5.70431139027218
30
0
41
1
10
18.2496047073018
20
5.81226391405235
30
0
41
1
10
17.9591015147798
20
5.87333356549675
30
0
41
1
10
17.377159355484
20
5.97291967155954
30
0
41
1
10
17.0857297490927
20
6.01117845656034
30
0
41
1
10
16.7826772578742
20
6.03888995371551
30
0
41
1
10
16.7721451370463
20
6.03983812877129
30
0
41
1
10
16.7616115801729
20
6.04077149654879
30
0
0
SPLINE
5
142
100
AcDbEntity
8
1
62
256
6
ByLayer
370
18
48
1
60
0
100
AcDbSpline
70
4
71
3
72
10
73
6
40
0
40
0
40
0
40
0
40
0.677347859622993
40
0.677347859622993
40
1
40
1
40
1
40
1
41
1
10
15.0200336832179
20
6.14704299669984
30
0
41
1
10
15.0209272464159
20
6.17057205301384
30
0
41
1
10
15.0218911248527
20
6.18627206511596
30
0
41
1
10
15.0232413372872
20
6.19803545956108
30
0
41
1
10
15.0236785458228
20
6.20007483022454
30
0
41
1
10
15.024112493841
20
6.20034982113543
30
0
0
SPLINE
5
143
100
AcDbEntity
8
1
62
256
6
ByLayer
370
13
48
1
60
0
100
AcDbSpline
70
4
71
3
72
11
73
7
40
0
40
0
40
0
40
0
40
0.217616659968225
40
0.478411106645483
40
0.739205553322742
40
1
40
1
40
1
40
1
41
1
10
15.0200000000002
20
2.69316210334219
30
0
41
1
10
15.0200000000002
20
2.52075251049399
30
0
41
1
10
15.0200000000001
20
2.12964686081298
30
0
41
1
10
15.0200000000001
20
1.49056281178639
30
0
41
1
10
15.0200000000002
20
0.783208694349895
30
0
41
1
10
15.02
20
0.297426560807566
30
0
41
1
10
15.02
20
0.052632695059657
30
0
0
SPLINE
5
144
100
AcDbEntity
8
1
62
256
6
ByLayer
370
18
48
1
60
0
100
AcDbSpline
70
4
71
3
72
18
73
14
40
0
40
0
40
0
40
0
40
0.25
40
0.25
40
0.375
40
0.375
40
0.5
40
0.5
40
0.625
40
0.625
40
0.75
40
0.75
40
1
40
1
40
1
40
1
41
1
10
15.0200336832179
20
0.0526332038456871
30
0
41
1
10
15.0211944255839
20
0.28687387250389
30
0
41
1
10
15.0224410352285
20
0.518294262282268
30
0
41
1
10
15.0242135795642
20
0.861239562343286
30
0
41
1
10
15.0248123384545
20
0.974867706571132
30
0
41
1
10
15.0259663147199
20
1.20066099407893
30
0
41
1
10
15.0265181530885
20
1.31237009394263
30
0
41
1
10
15.0276317118811
20
1.5334273991906
30
0
41
1
10
15.0282108588135
20
1.64277495123085
30
0
41
1
10
15.0293475086045
20
1.85910482963541
30
0
41
1
10
15.0299012095927
20
1.96618640604731
30
0
41
1
10
15.0315586629311
20
2.28228835329992
30
0
41
1
10
15.0327094676424
20
2.48662622849281
30
0
41
1
10
15.0338025215888
20
2.6845459654657
30
0
0
SPLINE
5
145
100
AcDbEntity
8
1
62
256
6
ByLayer
370
18
48
1
60
0
100
AcDbSpline
70
4
71
3
72
8
73
4
40
0
40
0
40
0
40
0
40
1
40
1
40
1
40
1
41
1
10
15.0200000000001
20
2.69316210334219
30
0
41
1
10
15.0246010845234
20
2.69029218606173
30
0
41
1
10
15.0292019240852
20
2.68742013921968
30
0
41
1
10
15.0338025215889
20
2.68454596546562
30
0
0
SPLINE
5
146
100
AcDbEntity
8
1
62
256
6
ByLayer
370
18
48
1
60
0
100
AcDbSpline
70
4
71
3
72
8
73
4
40
0
40
0
40
0
40
0
40
1
40
1
40
1
40
1
41
1
10
43.1669298120027
20
-5.0968167546221
30
0
41
1
10
43.1694833608366
20
-5.11036195918157
30
0
41
1
10
43.1720363307532
20
-5.12383832988152
30
0
41
1
10
43.1745887219265
20
-5.13724588741493
30
0
0
SPLINE
5
147
100
AcDbEntity
8
1
62
256
6
ByLayer
370
18
48
1
60
0
100
AcDbSpline
70
4
71
3
72
12
73
8
40
0
40
0
40
0
40
0
40
0.278485797807021
40
0.278485797807021
40
0.556971727159505
40
0.556971727159505
40
1
40
1
40
1
40
1
41
1
10
43.1669298120026
20
-5.0968167546221
30
0
41
1
10
43.1688411299955
20
-5.09824425745438
30
0
41
1
10
43.1707440322514
20
-5.09967636201631
30
0
41
1
10
43.1745325070232
20
-5.10254983888336
30
0
41
1
10
43.1764181067252
20
-5.10399123182029
30
0
41
1
10
43.1812803245319
20
-5.10773776914701
30
0
41
1
10
43.1842434218168
20
-5.11005015671159
30
0
41
1
10
43.1871830283913
20
-5.112374585693
30
0
0
SPLINE
5
148
100
AcDbEntity
8
1
62
256
6
ByLayer
370
18
48
1
60
0
100
AcDbSpline
70
4
71
3
72
40
73
36
40
0
40
0
40
0
40
0
40
0.0156249999999874
40
0.0156249999999874
40
0.0234374999999933
40
0.0234374999999933
40
0.0312499999999992
40
0.0312499999999992
40
0.0390625000000051
40
0.0390625000000051
40
0.046875000000011
40
0.046875000000011
40
0.0546875000000169
40
0.0546875000000169
40
0.0625000000000228
40
0.0625000000000228
40
0.0781250000000211
40
0.0781250000000211
40
0.0937500000000194
40
0.0937500000000194
40
0.125000000000017
40
0.125000000000017
40
0.187500000000015
40
0.187500000000015
40
0.250000000000014
40
0.250000000000014
40
0.375000000000011
40
0.375000000000011
40
0.500000000000009
40
0.500000000000009
40
0.625000000000007
40
0.625000000000007
40
0.750000000000004
40
0.750000000000004
40
1
40
1
40
1
40
1
41
1
10
43.1871830283913
20
-5.11237458569292
30
0
41
1
10
43.1914049334858
20
-5.11571296391108
30
0
41
1
10
43.1958868119931
20
-5.11885231849888
30
0
41
1
10
43.2036619710569
20
-5.12277425775673
30
0
41
1
10
43.2064297997635
20
-5.12394068663278
30
0
41
1
10
43.2124496706113
20
-5.12565524087654
30
0
41
1
10
43.2156481466381
20
-5.12618692363117
30
0
41
1
10
43.2224609796428
20
-5.12603285630024
30
0
41
1
10
43.2258674548985
20
-5.12528856106235
30
0
41
1
10
43.2319308808303
20
-5.12280660713839
30
0
41
1
10
43.2345959223793
20
-5.12112214158782
30
0
41
1
10
43.2392713357764
20
-5.11745275817626
30
0
41
1
10
43.2413276507431
20
-5.11543561868973
30
0
41
1
10
43.245013520146
20
-5.1113280363611
30
0
41
1
10
43.2466651179193
20
-5.10921258242547
30
0
41
1
10
43.2512689882346
20
-5.10275094743096
30
0
41
1
10
43.253885829266
20
-5.09827428104018
30
0
41
1
10
43.2586097742248
20
-5.08927590610844
30
0
41
1
10
43.2607135227695
20
-5.0847427861822
30
0
41
1
10
43.2665746324756
20
-5.07107513388652
30
0
41
1
10
43.2698907432877
20
-5.0618732185938
30
0
41
1
10
43.2790164472499
20
-5.03409466215339
30
0
41
1
10
43.2840036335633
20
-5.01533091560987
30
0
41
1
10
43.2931281616474
20
-4.97754703013797
30
0
41
1
10
43.2972139426801
20
-4.9585363604634
30
0
41
1
10
43.3086576799727
20
-4.90115590393634
30
0
41
1
10
43.3152094699481
20
-4.86243780367116
30
0
41
1
10
43.3271267053215
20
-4.78408204550814
30
0
41
1
10
43.3324576407017
20
-4.74444394230781
30
0
41
1
10
43.3421280760342
20
-4.66424553583062
30
0
41
1
10
43.3464649449575
20
-4.62366413871459
30
0
41
1
10
43.3541422705737
20
-4.54169195077947
30
0
41
1
10
43.3574768952329
20
-4.50030473102095
30
0
41
1
10
43.3658603681732
20
-4.37493974316541
30
0
41
1
10
43.3693205835053
20
-4.28974664657648
30
0
41
1
10
43.3701541140907
20
-4.20296750792755
30
0
0
SPLINE
5
149
100
AcDbEntity
8
1
62
256
6
ByLayer
370
18
48
1
60
0
100
AcDbSpline
70
4
71
3
72
15
73
11
40
0
40
0
40
0
40
0
40
0.500000000000006
40
0.500000000000006
40
0.750000000000009
40
0.750000000000009
40
0.812500000000008
40
0.812500000000008
40
0.875000000000008
40
1
40
1
40
1
40
1
41
1
10
43.3701541140907
20
-4.20296750792755
30
0
41
1
10
43.2788846865024
20
-3.95936238412733
30
0
41
1
10
43.188922404214
20
-3.70271421187104
30
0
41
1
10
43.0559915414136
20
-3.29766008052712
30
0
41
1
10
43.0120179842295
20
-3.15928204980779
30
0
41
1
10
42.9574882920878
20
-2.98194646965274
30
0
41
1
10
42.9466046922465
20
-2.94626183156728
30
0
41
1
10
42.9249372846138
20
-2.87463560052384
30
0
41
1
10
42.8925649408792
20
-2.76674297981197
30
0
41
1
10
42.8605794435439
20
-2.65748862435018
30
0
41
1
10
42.8394288831219
20
-2.58404304379562
30
0
0
SPLINE
5
14A
100
AcDbEntity
8
1
62
256
6
ByLayer
370
18
48
1
60
0
100
AcDbSpline
70
4
71
3
72
63
73
59
40
0
40
0
40
0
40
0
40
0.0562208359822657
40
0.0562208359822657
40
0.112441671964532
40
0.112441671964532
40
0.168662507946797
40
0.168662507946797
40
0.224883343929063
40
0.224883343929063
40
0.238938552924629
40
0.238938552924629
40
0.252993761920194
40
0.252993761920194
40
0.281104179911324
40
0.281104179911324
40
0.337325015893582
40
0.337325015893582
40
0.393545851875841
40
0.393545851875841
40
0.4497666878581
40
0.4497666878581
40
0.505987523840359
40
0.505987523840359
40
0.534097941831488
40
0.534097941831488
40
0.548153150827053
40
0.548153150827053
40
0.562208359822618
40
0.590318777813747
40
0.590318777813747
40
0.618429195804877
40
0.618429195804877
40
0.674650031787137
40
0.674650031787137
40
0.702760449778266
40
0.702760449778266
40
0.730870867769396
40
0.730870867769396
40
0.787091703751656
40
0.787091703751656
40
0.815202121742785
40
0.815202121742785
40
0.843312539733915
40
0.843312539733915
40
0.857367748729479
40
0.857367748729479
40
0.871422957725044
40
0.871422957725044
40
0.899533375716173
40
0.899533375716173
40
0.927643793707303
40
0.927643793707303
40
0.955754211698432
40
0.955754211698432
40
0.983864629689561
40
0.983864629689561
40
1
40
1
40
1
40
1
41
1
10
42.8394288831218
20
-2.58404304379545
30
0
41
1
10
42.5492701957869
20
-2.39041249841193
30
0
41
1
10
42.2601577063301
20
-2.1924807065356
30
0
41
1
10
41.6827779110522
20
-1.78980444352504
30
0
41
1
10
41.3945163706044
20
-1.58505602298811
30
0
41
1
10
40.8177574875301
20
-1.17010107080162
30
0
41
1
10
40.5292549196323
20
-0.959904556960652
30
0
41
1
10
39.9508302205927
20
-0.535663144849167
30
0
41
1
10
39.66091392041
20
-0.321602610574615
30
0
41
1
10
39.2968890403557
20
-0.0525445456948148
30
0
41
1
10
39.2240023458251
20
0.0013402719532962
30
0
41
1
10
39.0780462271634
20
0.109230112936416
30
0
41
1
10
39.0049120240251
20
0.163282975884499
30
0
41
1
10
38.7857854907555
20
0.325155034250713
30
0
41
1
10
38.6400725885792
20
0.43268407051724
30
0
41
1
10
38.2038273437441
20
0.75383236678141
30
0
41
1
10
37.91419599161
20
0.96601251686306
30
0
41
1
10
37.3361660049922
20
1.38502837306734
30
0
41
1
10
37.0477582907955
20
1.59187072053956
30
0
41
1
10
36.4710243691695
20
1.99871849589869
30
0
41
1
10
36.1827058041617
20
2.19870442905048
30
0
41
1
10
35.6049663246591
20
2.59034863937035
30
0
41
1
10
35.3155464340358
20
2.78203423233168
30
0
41
1
10
34.8797356399325
20
3.06215396326198
30
0
41
1
10
34.7341846132342
20
3.15429046354052
30
0
41
1
10
34.5153216642787
20
3.290473154685
30
0
41
1
10
34.4422251093096
20
3.33556243395478
30
0
41
1
10
34.2960841145494
20
3.42488420266491
30
0
41
1
10
34.0771690639874
20
3.55744990442818
30
0
41
1
10
33.8590580559551
20
3.6856884102578
30
0
41
1
10
33.5688086827697
20
3.85268164101328
30
0
41
1
10
33.4239734841213
20
3.93415936198824
30
0
41
1
10
32.9900270384573
20
4.17259124167987
30
0
41
1
10
32.7014091232893
20
4.32382308557081
30
0
41
1
10
32.2688552391791
20
4.53780358057557
30
0
41
1
10
32.1247328354342
20
4.60697398781318
30
0
41
1
10
31.8364798042122
20
4.74073654526143
30
0
41
1
10
31.6923407183494
20
4.80535971924064
30
0
41
1
10
31.2596072228025
20
4.99279502398034
30
0
41
1
10
30.9707417121063
20
5.10902975493849
30
0
41
1
10
30.536080903188
20
5.26852135380435
30
0
41
1
10
30.3909627824856
20
5.31916400561397
30
0
41
1
10
30.1000971016191
20
5.41555639051279
30
0
41
1
10
29.9543514456681
20
5.461384192997
30
0
41
1
10
29.7351582703433
20
5.52636355187803
30
0
41
1
10
29.6620627449152
20
5.54737129711839
30
0
41
1
10
29.5161636677173
20
5.5879545050787
30
0
41
1
10
29.443306122481
20
5.60754625314678
30
0
41
1
10
29.2249870170647
20
5.66419345418751
30
0
41
1
10
29.0797822028167
20
5.69910836385401
30
0
41
1
10
28.7899092526566
20
5.7631529327781
30
0
41
1
10
28.6452199134471
20
5.79237039772073
30
0
41
1
10
28.3561287950146
20
5.84555049700876
30
0
41
1
10
28.2117450022049
20
5.86943278419781
30
0
41
1
10
27.9232007231013
20
5.91153916837666
30
0
41
1
10
27.7790378153906
20
5.92977605957435
30
0
41
1
10
27.5521943910022
20
5.95391515939173
30
0
41
1
10
27.4694859090326
20
5.96174454248489
30
0
41
1
10
27.3867740697847
20
5.96864285798605
30
0
0
SPLINE
5
14B
100
AcDbEntity
8
1
62
256
6
ByLayer
370
18
48
1
60
0
100
AcDbSpline
70
4
71
3
72
18
73
14
40
0
40
0
40
0
40
0
40
0.249999999999996
40
0.249999999999996
40
0.374999999999997
40
0.374999999999997
40
0.499999999999997
40
0.499999999999997
40
0.624999999999997
40
0.624999999999997
40
0.749999999999997
40
0.749999999999997
40
1
40
1
40
1
40
1
41
1
10
14.0745384934828
20
0.812848233888559
30
0
41
1
10
13.7744538973446
20
1.02965009930585
30
0
41
1
10
13.4744661402092
20
1.24315484896792
30
0
41
1
10
13.0237304663237
20
1.55740105753606
30
0
41
1
10
12.8733602883063
20
1.66114815245768
30
0
41
1
10
12.5722260249138
20
1.86646924913151
30
0
41
1
10
12.4214483156288
20
1.96805103796663
30
0
41
1
10
12.1199219013226
20
2.16850176604714
30
0
41
1
10
11.969103236356
20
2.26741891290445
30
0
41
1
10
11.6672179377909
20
2.46249559920048
30
0
41
1
10
11.5160961243265
20
2.55868955687558
30
0
41
1
10
11.0626479160881
20
2.84261357583668
30
0
41
1
10
10.7602512856215
20
3.02568156580975
30
0
41
1
10
10.4572454882004
20
3.20205247446685
30
0
0
SPLINE
5
14C
100
AcDbEntity
8
1
62
256
6
ByLayer
370
18
48
1
60
0
100
AcDbSpline
70
4
71
3
72
8
73
4
40
0
40
0
40
0
40
0
40
1
40
1
40
1
40
1
41
1
10
10.9361454412976
20
2.75341624120841
30
0
41
1
10
10.7779084232181
20
2.9015602497426
30
0
41
1
10
10.6198455542539
20
3.04965664010794
30
0
41
1
10
10.4619634124873
20
3.19769925798985
30
0
0
SPLINE
5
14D
100
AcDbEntity
8
1
62
256
6
ByLayer
370
18
48
1
60
0
100
AcDbSpline
70
4
71
5
72
16
73
10
40
0
40
0
40
0
40
0
40
0
40
0
40
0.499831769303663
40
0.624789711629579
40
0.812226625118453
40
0.937184567444369
40
1
40
1
40
1
40
1
40
1
40
1
41
1
10
10.9361454412973
20
2.7534162412083
30
0
41
1
10
11.2907801732748
20
2.54708201220106
30
0
41
1
10
11.7340735882467
20
2.28097350078821
30
0
41
1
10
12.3103550277101
20
1.92338451572272
30
0
41
1
10
12.975295150168
20
1.49662598567204
30
0
41
1
10
13.6848033362355
20
1.02938240233033
30
0
41
1
10
14.0396767903254
20
0.793322034882948
30
0
41
1
10
14.3058915614209
20
0.615305498246954
30
0
41
1
10
14.4391183080249
20
0.526034046251738
30
0
41
1
10
14.4836863716345
20
0.496151606482641
30
0
0
SPLINE
5
14E
100
AcDbEntity
8
1
62
256
6
ByLayer
370
18
48
1
60
0
100
AcDbSpline
70
4
71
5
72
37
73
31
40
0
40
0
40
0
40
0
40
0
40
0
40
0.0299966311409258
40
0.0607603089549282
40
0.0915239867689307
40
0.137669503489934
40
0.183815020210938
40
0.214578698024941
40
0.260724214745944
40
0.306869731466948
40
0.337633409280948
40
0.368397087094953
40
0.414542603815957
40
0.46068812053696
40
0.491451798350963
40
0.537597315071967
40
0.568360992885969
40
0.614506509606973
40
0.645270187420975
40
0.691415704141979
40
0.737561220862983
40
0.768324898676985
40
0.814470415397989
40
0.845234093211992
40
0.891379609932995
40
0.922143287746998
40
0.968288804468001
40
1
40
1
40
1
40
1
40
1
40
1
41
1
10
20.2563600194515
20
5.18902624508354
30
0
41
1
10
20.3428081296971
20
5.20750150793643
30
0
41
1
10
20.517914922937
20
5.2434380975038
30
0
41
1
10
20.7816803991713
20
5.29300778204635
30
0
41
1
10
21.1784338998971
20
5.35711975926381
30
0
41
1
10
21.7081754251146
20
5.42145051206057
30
0
41
1
10
22.2401275230808
20
5.46189392888903
30
0
41
1
10
22.8164089625443
20
5.4793086724595
30
0
41
1
10
23.437019743505
20
5.46670368125598
30
0
41
1
10
24.0133011829685
20
5.42594345872917
30
0
41
1
10
24.5452532809347
20
5.3641107624662
30
0
41
1
10
25.1215347203982
20
5.27124506966067
30
0
41
1
10
25.6978161598616
20
5.1529129300485
30
0
41
1
10
26.229768257828
20
5.02063931557566
30
0
41
1
10
26.8060496972914
20
4.85307665662026
30
0
41
1
10
27.3823311367549
20
4.6597477029764
30
0
41
1
10
27.9586125762184
20
4.443952708013
30
0
41
1
10
28.4905646741847
20
4.22488354411382
30
0
41
1
10
29.0668461136482
20
3.96720453088057
30
0
41
1
10
29.6431275531116
20
3.69028923041321
30
0
41
1
10
30.2194089925751
20
3.39372321730298
30
0
41
1
10
30.7956904320386
20
3.08075432965006
30
0
41
1
10
31.3719718715021
20
2.75145713323039
30
0
41
1
10
31.9482533109655
20
2.40894755089312
30
0
41
1
10
32.4802054089318
20
2.08196030812579
30
0
41
1
10
33.0564868483953
20
1.71775262684758
30
0
41
1
10
33.5911696235419
20
1.37204929878479
30
0
41
1
10
34.0371937156943
20
1.07857170479466
30
0
41
1
10
34.3502297833549
20
0.870724037190001
30
0
41
1
10
34.5746071680213
20
0.721017708525181
30
0
41
1
10
34.665996528196
20
0.659937721572192
30
0
0
SPLINE
5
14F
100
AcDbEntity
8
1
62
256
6
ByLayer
370
18
48
1
60
0
100
AcDbSpline
70
4
71
3
72
8
73
4
40
0
40
0
40
0
40
0
40
1
40
1
40
1
40
1
41
1
10
43.1934358072253
20
-5.14350321527536
30
0
41
1
10
43.2133180543043
20
-5.15332786938959
30
0
41
1
10
43.2332360357544
20
-5.1619145737196
30
0
41
1
10
43.2532065130143
20
-5.16917210457277
30
0
0
SPLINE
5
150
100
AcDbEntity
8
1
62
256
6
ByLayer
370
18
48
1
60
0
100
AcDbSpline
70
4
71
3
72
18
73
14
40
0
40
0
40
0
40
0
40
0.249999999999998
40
0.249999999999998
40
0.374999999999999
40
0.374999999999999
40
0.5
40
0.5
40
0.625000000000001
40
0.625000000000001
40
0.750000000000002
40
0.750000000000002
40
1
40
1
40
1
40
1
41
1
10
14.0745384934828
20
5.88632736292618
30
0
41
1
10
13.7744538973446
20
5.9005859900133
30
0
41
1
10
13.4744661402092
20
5.90279192779596
30
0
41
1
10
13.0237304663238
20
5.88845677744774
30
0
41
1
10
12.8733602883063
20
5.88073499666694
30
0
41
1
10
12.5722260249138
20
5.85947697326307
30
0
41
1
10
12.4214483156289
20
5.84593600617163
30
0
41
1
10
12.1199219013226
20
5.81315961984825
30
0
41
1
10
11.969103236356
20
5.79392095314711
30
0
41
1
10
11.667217937791
20
5.74984593361225
30
0
41
1
10
11.5160961243265
20
5.72499883011784
30
0
41
1
10
11.0626479160881
20
5.6422680164554
30
0
41
1
10
10.7602512856216
20
5.57621180598753
30
0
41
1
10
10.4572454882004
20
5.49967903531857
30
0
0
SPLINE
5
151
100
AcDbEntity
8
1
62
256
6
ByLayer
370
18
48
1
60
0
100
AcDbSpline
70
4
71
3
72
8
73
4
40
0
40
0
40
0
40
0
40
1
40
1
40
1
40
1
41
1
10
10.9361454412976
20
5.28033732588798
30
0
41
1
10
10.7779084232263
20
5.35182281002304
30
0
41
1
10
10.6198455542702
20
5.42424714725968
30
0
41
1
10
10.4619634125118
20
5.49760725475812
30
0
0
SPLINE
5
152
100
AcDbEntity
8
1
62
256
6
ByLayer
370
18
48
1
60
0
100
AcDbSpline
70
4
71
5
72
34
73
28
40
0
40
0
40
0
40
0
40
0
40
0
40
0.126971637007462
40
0.158714546259327
40
0.206328910137125
40
0.23807181938899
40
0.285686183266788
40
0.317429092518654
40
0.365043456396452
40
0.41265782027425
40
0.444400729526115
40
0.492015093403913
40
0.523758002655779
40
0.571372366533577
40
0.603115275785442
40
0.65072963966324
40
0.698344003541038
40
0.730086912792904
40
0.761829822044769
40
0.809444185922567
40
0.857058549800365
40
0.88880145905223
40
0.936415822930028
40
0.984030186807826
40
1
40
1
40
1
40
1
40
1
40
1
41
1
10
10.9361454412973
20
5.2803373258875
30
0
41
1
10
11.2907801732748
20
5.34298081845589
30
0
41
1
10
11.7340735882468
20
5.40557755327529
30
0
41
1
10
12.3103550277102
20
5.46092279163412
30
0
41
1
10
12.9752951501681
20
5.48517289624621
30
0
41
1
10
13.7732232971175
20
5.45929864522091
30
0
41
1
10
14.3051753950838
20
5.41769090726973
30
0
41
1
10
14.8814568345472
20
5.3464510988864
30
0
41
1
10
15.4577382740107
20
5.2493555650002
30
0
41
1
10
16.0340197134742
20
5.12434791118778
30
0
41
1
10
16.6103011529377
20
4.97457275837223
30
0
41
1
10
17.1865825924011
20
4.79838324976657
30
0
41
1
10
17.7628640318646
20
4.59905363463224
30
0
41
1
10
18.2948161298309
20
4.3944951363577
30
0
41
1
10
18.8710975692944
20
4.15171263434078
30
0
41
1
10
19.4473790087578
20
3.88880584729714
30
0
41
1
10
20.0236604482213
20
3.60519520351502
30
0
41
1
10
20.5556125461876
20
3.32731616527656
30
0
41
1
10
21.1318939856511
20
3.01035588989871
30
0
41
1
10
21.7081754251146
20
2.67885197879585
30
0
41
1
10
22.2401275230808
20
2.3607448293152
30
0
41
1
10
22.8164089625443
20
2.00471856902794
30
0
41
1
10
23.437019743505
20
1.60988557433572
30
0
41
1
10
23.9692465592319
20
1.26333420891112
30
0
41
1
10
24.3684853504672
20
0.999652678434074
30
0
41
1
10
24.6790654587081
20
0.792899101711868
30
0
41
1
10
24.8566575424574
20
0.674261558802613
30
0
41
1
10
24.9012616017152
20
0.64444027120237
30
0
0
SPLINE
5
153
100
AcDbEntity
8
1
62
256
6
ByLayer
370
18
48
1
60
0
100
AcDbSpline
70
4
71
3
72
8
73
4
40
0
40
0
40
0
40
0
40
1
40
1
40
1
40
1
41
1
10
43.1934358072253
20
2.26145370708949
30
0
41
1
10
43.2133180543043
20
2.24703975793761
30
0
41
1
10
43.2332360357544
20
2.23241640445141
30
0
41
1
10
43.2532065130143
20
2.21758818882768
30
0
0
SPLINE
5
154
100
AcDbEntity
8
1
62
256
6
ByLayer
370
18
48
1
60
0
100
AcDbSpline
70
4
71
3
72
35
73
31
40
0
40
0
40
0
40
0
40
0.063948839695097
40
0.063948839695097
40
0.127897679390194
40
0.127897679390194
40
0.191846519085291
40
0.255795358780389
40
0.319744198475486
40
0.383693038170583
40
0.383693038170583
40
0.44764187786568
40
0.44764187786568
40
0.511590717560778
40
0.511590717560778
40
0.575539557255875
40
0.575539557255875
40
0.639488396950972
40
0.639488396950972
40
0.703437236646069
40
0.703437236646069
40
0.767386076341166
40
0.767386076341166
40
0.831334916036264
40
0.831334916036264
40
0.895283755731361
40
0.895283755731361
40
0.959232595426458
40
0.959232595426458
40
1
40
1
40
1
40
1
41
1
10
43.1745584968346
20
2.27554883595528
30
0
41
1
10
42.8812818378705
20
2.48946399415351
30
0
41
1
10
42.5880051789064
20
2.69893002235764
30
0
41
1
10
42.0014518609779
20
3.1065135097036
30
0
41
1
10
41.7081752020139
20
3.3046300365082
30
0
41
1
10
41.1216218840855
20
3.68719511529494
30
0
41
1
10
40.5350685661573
20
4.05609127427681
30
0
41
1
10
39.6552385892647
20
4.56195049036299
30
0
41
1
10
38.7754086123723
20
5.01440299348445
30
0
41
1
10
38.1888552944439
20
5.27690190824814
30
0
41
1
10
37.6023019765156
20
5.51829700898924
30
0
41
1
10
37.3090253175514
20
5.62844209986272
30
0
41
1
10
36.7224719996232
20
5.82633889819749
30
0
41
1
10
36.4291953406591
20
5.91409015318291
30
0
41
1
10
35.8426420227307
20
6.06617186958542
30
0
41
1
10
35.5493653637665
20
6.13050198267371
30
0
41
1
10
34.9628120458383
20
6.23498819422855
30
0
41
1
10
34.6695353868741
20
6.27514405268278
30
0
41
1
10
34.0829820689457
20
6.33081153577641
30
0
41
1
10
33.7897054099817
20
6.3463230333949
30
0
41
1
10
33.2031520920532
20
6.35252008645165
30
0
41
1
10
32.9098754330891
20
6.34320562816424
30
0
41
1
10
32.3233221151608
20
6.29985970015508
30
0
41
1
10
32.0300454561966
20
6.26582832972173
30
0
41
1
10
31.4434921382684
20
6.17344686642826
30
0
41
1
10
31.1502154793041
20
6.11509698796775
30
0
41
1
10
30.5636621613759
20
5.97476149775611
30
0
41
1
10
30.2703855024118
20
5.89277620940231
30
0
41
1
10
29.790144884993
20
5.73995926786907
30
0
41
1
10
29.6031809265385
20
5.67585795976186
30
0
41
1
10
29.416216968084
20
5.60730757929613
30
0
0
SPLINE
5
155
100
AcDbEntity
8
1
62
256
6
ByLayer
370
18
48
1
60
0
100
AcDbSpline
70
4
71
3
72
36
73
32
40
0
40
0
40
0
40
0
40
0.0463778407326983
40
0.0463778407326983
40
0.109952651350518
40
0.109952651350518
40
0.173527461968339
40
0.173527461968339
40
0.237102272586159
40
0.237102272586159
40
0.300677083203979
40
0.300677083203979
40
0.364251893821799
40
0.364251893821799
40
0.427826704439619
40
0.427826704439619
40
0.491401515057439
40
0.554976325675259
40
0.618551136293079
40
0.618551136293079
40
0.682125946910899
40
0.682125946910899
40
0.74570075752872
40
0.74570075752872
40
0.80927556814654
40
0.80927556814654
40
0.87285037876436
40
0.87285037876436
40
0.93642518938218
40
0.93642518938218
40
1
40
1
40
1
40
1
41
1
10
28.8592850845901
20
-6.30151158250462
30
0
41
1
10
28.645339686281
20
-6.32212759138022
30
0
41
1
10
28.4313942879719
20
-6.33619518656354
30
0
41
1
10
27.9241722306986
20
-6.3538998026406
30
0
41
1
10
27.6308955717344
20
-6.35173489745893
30
0
41
1
10
27.0443422538061
20
-6.32262692796618
30
0
41
1
10
26.7510655948419
20
-6.29568392662921
30
0
41
1
10
26.1645122769137
20
-6.21733507076419
30
0
41
1
10
25.8712356179494
20
-6.16592939528002
30
0
41
1
10
25.2846823000212
20
-6.03925688036887
30
0
41
1
10
24.991405641057
20
-5.96399033314145
30
0
41
1
10
24.4048523231287
20
-5.79047711301615
30
0
41
1
10
24.1115756641645
20
-5.69223083779335
30
0
41
1
10
23.5250223462363
20
-5.47390822792357
30
0
41
1
10
23.2317456872721
20
-5.35383239245743
30
0
41
1
10
22.6451923693438
20
-5.09325629242321
30
0
41
1
10
22.0586390514155
20
-4.81225626963706
30
0
41
1
10
21.178809074523
20
-4.33441947774386
30
0
41
1
10
20.5922557565947
20
-3.98203346501171
30
0
41
1
10
20.0057024386664
20
-3.61479497099071
30
0
41
1
10
19.7124257797022
20
-3.42375032328653
30
0
41
1
10
19.125872461774
20
-3.02904504160068
30
0
41
1
10
18.8325958028098
20
-2.82538531077785
30
0
41
1
10
18.2460424848815
20
-2.40783405388746
30
0
41
1
10
17.9527658259173
20
-2.19394348344324
30
0
41
1
10
17.366212507989
20
-1.75843452137252
30
0
41
1
10
17.0729358490248
20
-1.53681712687524
30
0
41
1
10
16.4863825310966
20
-1.08844896148946
30
0
41
1
10
16.1931058721324
20
-0.861699216457822
30
0
41
1
10
15.6065525542041
20
-0.405720892057502
30
0
41
1
10
15.31327589524
20
-0.176493355295378
30
0
41
1
10
15.0199992362758
20
0.0526318181849206
30
0
0
SPLINE
5
156
100
AcDbEntity
8
1
62
256
6
ByLayer
370
18
48
1
60
0
100
AcDbSpline
70
4
71
3
72
12
73
8
40
0
40
0
40
0
40
0
40
0.367207200629312
40
0.367207200629312
40
0.683603597863072
40
0.683603597863072
40
1
40
1
40
1
40
1
41
1
10
43.1744209456784
20
-5.1341103694345
30
0
41
1
10
43.1767487673325
20
-5.13525986396922
30
0
41
1
10
43.1790764586372
20
-5.13640943590539
30
0
41
1
10
43.1834095122589
20
-5.13854965769363
30
0
41
1
10
43.1854149083701
20
-5.13954028745044
30
0
41
1
10
43.1894255048564
20
-5.14152166364747
30
0
41
1
10
43.1914307052392
20
-5.1425124100914
30
0
41
1
10
43.1934358072255
20
-5.14350321527559
30
0
0
SPLINE
5
157
100
AcDbEntity
8
1
62
256
6
ByLayer
370
18
48
1
60
0
100
AcDbSpline
70
4
71
3
72
8
73
4
40
0
40
0
40
0
40
0
40
1
40
1
40
1
40
1
41
1
10
43.1744209456784
20
-5.13411036943452
30
0
41
1
10
43.1744847406309
20
-5.13518604249944
30
0
41
1
10
43.1745486079569
20
-5.13626192303718
30
0
41
1
10
43.1746125475143
20
-5.13733800982467
30
0
0
SPLINE
5
158
100
AcDbEntity
8
1
62
256
6
ByLayer
370
18
48
1
60
0
100
AcDbSpline
70
4
71
3
72
57
73
53
40
0
40
0
40
0
40
0
40
0.0362253212633667
40
0.0724506425267335
40
0.1086759637901
40
0.1086759637901
40
0.144901285053467
40
0.144901285053467
40
0.181126606316834
40
0.181126606316834
40
0.2173519275802
40
0.2173519275802
40
0.253577248843567
40
0.253577248843567
40
0.289802570106934
40
0.289802570106934
40
0.326027891370301
40
0.326027891370301
40
0.362253212633667
40
0.362253212633667
40
0.398478533897034
40
0.398478533897034
40
0.434703855160401
40
0.434703855160401
40
0.470929176423768
40
0.470929176423768
40
0.507154497687134
40
0.507154497687134
40
0.543379818950501
40
0.579605140213868
40
0.615830461477234
40
0.652055782740601
40
0.652055782740601
40
0.688281104003968
40
0.688281104003968
40
0.724506425267335
40
0.724506425267335
40
0.760731746530701
40
0.760731746530701
40
0.796957067794068
40
0.796957067794068
40
0.833182389057435
40
0.833182389057435
40
0.869407710320802
40
0.869407710320802
40
0.905633031584168
40
0.905633031584168
40
0.941858352847535
40
0.941858352847535
40
0.978083674110902
40
0.978083674110902
40
1
40
1
40
1
40
1
41
1
10
43.1745584968346
20
-5.13731318885954
30
0
41
1
10
42.8812818378705
20
-5.00263508547533
30
0
41
1
10
42.2947285199422
20
-4.71319282118711
30
0
41
1
10
41.4148985430496
20
-4.22385144317491
30
0
41
1
10
40.8283452251214
20
-3.86465783177977
30
0
41
1
10
40.2417919071931
20
-3.49108382768372
30
0
41
1
10
39.9485152482288
20
-3.29710709145519
30
0
41
1
10
39.3619619303006
20
-2.89704326540667
30
0
41
1
10
39.0686852713364
20
-2.69095709137096
30
0
41
1
10
38.482131953408
20
-2.26908698938817
30
0
41
1
10
38.1888552944439
20
-2.0533040266767
30
0
41
1
10
37.6023019765156
20
-1.61456647946474
30
0
41
1
10
37.3090253175515
20
-1.39161289839166
30
0
41
1
10
36.7224719996232
20
-0.941144204406896
30
0
41
1
10
36.429195340659
20
-0.713630121755045
30
0
41
1
10
35.8426420227307
20
-0.256703916234358
30
0
41
1
10
35.5493653637665
20
-0.0272928384855788
30
0
41
1
10
34.9628120458382
20
0.430741644753056
30
0
41
1
10
34.669535386874
20
0.659364002702091
30
0
41
1
10
34.0829820689457
20
1.11314455514071
30
0
41
1
10
33.7897054099816
20
1.33830171176405
30
0
41
1
10
33.2031520920532
20
1.78251592517546
30
0
41
1
10
32.9098754330891
20
2.00157196581796
30
0
41
1
10
32.3233221151608
20
2.43101942500351
30
0
41
1
10
32.0300454561967
20
2.64140986121339
30
0
41
1
10
31.4434921382683
20
3.05106302401933
30
0
41
1
10
31.1502154793042
20
3.25032481510965
30
0
41
1
10
30.5636621613759
20
3.63538787248348
30
0
41
1
10
29.9771088434476
20
4.00698864594449
30
0
41
1
10
29.097278866555
20
4.51748091205522
30
0
41
1
10
28.2174488896626
20
4.97508707073439
30
0
41
1
10
27.6308955717343
20
5.24132918913156
30
0
41
1
10
27.044342253806
20
5.48659836460612
30
0
41
1
10
26.7510655948418
20
5.59874624412473
30
0
41
1
10
26.1645122769135
20
5.80075669843569
30
0
41
1
10
25.8712356179494
20
5.89061881105829
30
0
41
1
10
25.284682300021
20
6.04700560593037
30
0
41
1
10
24.9914056410569
20
6.11352993272288
30
0
41
1
10
24.4048523231285
20
6.22246224733178
30
0
41
1
10
24.1115756641643
20
6.26486998667724
30
0
41
1
10
23.5250223462361
20
6.32507254724032
30
0
41
1
10
23.2317456872719
20
6.34286723051247
30
0
41
1
10
22.6451923693436
20
6.3536352428487
30
0
41
1
10
22.3519157103794
20
6.34660854655309
30
0
41
1
10
21.7653623924511
20
6.30781594669625
30
0
41
1
10
21.4720857334869
20
6.27605013020562
30
0
41
1
10
20.8855324155586
20
6.18815106000315
30
0
41
1
10
20.5922557565945
20
6.13201800561473
30
0
41
1
10
20.0057024386662
20
5.99604149556038
30
0
41
1
10
19.712425779702
20
5.91619835085902
30
0
41
1
10
19.2417166892408
20
5.76977251866685
30
0
41
1
10
19.0642842577436
20
5.71040962120213
30
0
41
1
10
18.8868518262465
20
5.64701153388688
30
0
0
SPLINE
5
159
100
AcDbEntity
8
1
62
256
6
ByLayer
370
18
48
1
60
0
100
AcDbSpline
70
4
71
3
72
57
73
53
40
0
40
0
40
0
40
0
40
0.0294751931889476
40
0.0294751931889476
40
0.0654205564041718
40
0.0654205564041718
40
0.101365919619396
40
0.101365919619396
40
0.13731128283462
40
0.13731128283462
40
0.173256646049844
40
0.173256646049844
40
0.209202009265068
40
0.209202009265068
40
0.245147372480293
40
0.245147372480293
40
0.281092735695517
40
0.317038098910741
40
0.352983462125965
40
0.352983462125965
40
0.388928825341189
40
0.388928825341189
40
0.424874188556413
40
0.424874188556413
40
0.460819551771638
40
0.460819551771638
40
0.496764914986862
40
0.496764914986862
40
0.532710278202086
40
0.532710278202086
40
0.56865564141731
40
0.56865564141731
40
0.604601004632534
40
0.604601004632534
40
0.640546367847758
40
0.640546367847758
40
0.676491731062983
40
0.676491731062983
40
0.712437094278207
40
0.712437094278207
40
0.748382457493431
40
0.748382457493431
40
0.784327820708655
40
0.820273183923879
40
0.856218547139103
40
0.892163910354328
40
0.892163910354328
40
0.928109273569552
40
0.928109273569552
40
0.964054636784776
40
0.964054636784776
40
1
40
1
40
1
40
1
41
1
10
39.4968690796669
20
-6.30165040815919
30
0
41
1
10
39.2563822572353
20
-6.32479042699464
30
0
41
1
10
39.0158954348038
20
-6.3396539000214
30
0
41
1
10
38.482131953408
20
-6.35412793733568
30
0
41
1
10
38.1888552944439
20
-6.34967405623979
30
0
41
1
10
37.6023019765155
20
-6.31600509544714
30
0
41
1
10
37.3090253175514
20
-6.28679009237104
30
0
41
1
10
36.7224719996231
20
-6.20394079341466
30
0
41
1
10
36.4291953406589
20
-6.15030668714411
30
0
41
1
10
35.8426420227306
20
-6.01924696404313
30
0
41
1
10
35.5493653637664
20
-5.94182164652469
30
0
41
1
10
34.9628120458382
20
-5.76408581249882
30
0
41
1
10
34.669535386874
20
-5.66377570146582
30
0
41
1
10
34.0829820689457
20
-5.44144450579105
30
0
41
1
10
33.7897054099816
20
-5.31942392994429
30
0
41
1
10
33.2031520920532
20
-5.05510020123
30
0
41
1
10
32.616598774125
20
-4.77049510565271
30
0
41
1
10
31.7367687972325
20
-4.2877386576352
30
0
41
1
10
31.1502154793041
20
-3.93243638304
30
0
41
1
10
30.5636621613758
20
-3.56248162729614
30
0
41
1
10
30.2703855024117
20
-3.37017846839635
30
0
41
1
10
29.6838321844833
20
-2.97317012536814
30
0
41
1
10
29.3905555255193
20
-2.76846584873553
30
0
41
1
10
28.8040022075908
20
-2.34905169184998
30
0
41
1
10
28.5107255486267
20
-2.13434277016049
30
0
41
1
10
27.9241722306984
20
-1.69743287845859
30
0
41
1
10
27.6308955717342
20
-1.47523290746051
30
0
41
1
10
27.044342253806
20
-1.02594218346385
30
0
41
1
10
26.7510655948418
20
-0.798852457498015
30
0
41
1
10
26.1645122769135
20
-0.342440745521429
30
0
41
1
10
25.8712356179494
20
-0.113119803384393
30
0
41
1
10
25.284682300021
20
0.345069685894799
30
0
41
1
10
24.9914056410567
20
0.573937184802361
30
0
41
1
10
24.4048523231286
20
1.02854042808465
30
0
41
1
10
24.1115756641644
20
1.25427513251131
30
0
41
1
10
23.525022346236
20
1.69997009044206
30
0
41
1
10
23.2317456872719
20
1.91992932440624
30
0
41
1
10
22.6451923693436
20
2.35149824660863
30
0
41
1
10
22.3519157103794
20
2.56310694748416
30
0
41
1
10
21.7653623924511
20
2.97549745684716
30
0
41
1
10
21.4720857334869
20
3.17627832128059
30
0
41
1
10
20.8855324155586
20
3.56466256178189
30
0
41
1
10
20.2989790976304
20
3.93986753556013
30
0
41
1
10
19.4191491207379
20
4.45655189792186
30
0
41
1
10
18.5393191438454
20
4.92106411063631
30
0
41
1
10
17.9527658259171
20
5.192330801677
30
0
41
1
10
17.3662125079888
20
5.44280661329219
30
0
41
1
10
17.0729358490246
20
5.55764850930757
30
0
41
1
10
16.4863825310963
20
5.76519686940347
30
0
41
1
10
16.1931058721321
20
5.85790285921175
30
0
41
1
10
15.6065525542039
20
6.02009399721791
30
0
41
1
10
15.3132758952397
20
6.08957877193239
30
0
41
1
10
15.0199992362755
20
6.14704634215039
30
0
0
SPLINE
5
15A
100
AcDbEntity
8
1
62
256
6
ByLayer
370
18
48
1
60
0
100
AcDbSpline
70
4
71
1
72
4
73
2
40
0
40
0
40
1
40
1
41
1
10
43.5781505619684
20
-4.93209835988185
30
0
41
1
10
43.579161723715
20
-4.94733844970014
30
0
0
SPLINE
5
15B
100
AcDbEntity
8
1
62
256
6
ByLayer
370
18
48
1
60
0
100
AcDbSpline
70
4
71
1
72
4
73
2
40
0
40
0
40
1
40
1
41
1
10
43.5781505619673
20
1.93632266675866
30
0
41
1
10
43.5791617237148
20
1.94310239918025
30
0
0
SPLINE
5
15C
100
AcDbEntity
8
1
62
256
6
ByLayer
370
18
48
1
60
0
100
AcDbSpline
70
4
71
1
72
4
73
2
40
0
40
0
40
1
40
1
41
1
10
43.5781505619674
20
5.94523123953999
30
0
41
1
10
43.5791617237134
20
5.96408659651613
30
0
0
SPLINE
5
15D
100
AcDbEntity
8
1
62
256
6
ByLayer
370
13
48
1
60
0
100
AcDbSpline
70
4
71
3
72
9
73
5
40
0
40
0
40
0
40
0
40
0.0970560157992614
40
1
40
1
40
1
40
1
41
1
10
15.0200000000001
20
6.20008764362524
30
0
41
1
10
15.0200000000001
20
6.20008371287514
30
0
41
1
10
15.0200000000001
20
6.19832870157651
30
0
41
1
10
15.02
20
6.17889963944532
30
0
41
1
10
15.02
20
6.14704064362678
30
0
0
SPLINE
5
15E
100
AcDbEntity
8
1
62
256
6
ByLayer
370
18
48
1
60
0
100
AcDbSpline
70
4
71
1
72
4
73
2
40
0
40
0
40
1
40
1
41
1
10
43.5781505619688
20
-4.8727629925371
30
0
41
1
10
43.5791617237143
20
-4.88858959649079
30
0
0
SPLINE
5
15F
100
AcDbEntity
8
1
62
256
6
ByLayer
370
18
48
1
60
0
100
AcDbSpline
70
4
71
3
72
17
73
13
40
0
40
0
40
0
40
0
40
0.249999999999997
40
0.249999999999997
40
0.374999999999995
40
0.374999999999995
40
0.499999999999994
40
0.624999999999993
40
0.624999999999993
40
0.749999999999991
40
0.749999999999991
40
1
40
1
40
1
40
1
41
1
10
15.02
20
-5.9091701955536
30
0
41
1
10
14.93602796897
20
-5.87030354907179
30
0
41
1
10
14.853542105988
20
-5.82566168260448
30
0
41
1
10
14.73137463374
20
-5.75059336035514
30
0
41
1
10
14.6908724270714
20
-5.72418561797409
30
0
41
1
10
14.6104767744093
20
-5.66880947048116
30
0
41
1
10
14.5308660211995
20
-5.61100101861518
30
0
41
1
10
14.4526139800555
20
-5.54841823016599
30
0
41
1
10
14.3749440395168
20
-5.48344963197883
30
0
41
1
10
14.3363797085268
20
-5.44974857259047
30
0
41
1
10
14.2221404808693
20
-5.34569504775706
30
0
41
1
10
14.1476771689373
20
-5.27222502951852
30
0
41
1
10
14.0745384934828
20
-5.19458085620082
30
0
0
SPLINE
5
160
100
AcDbEntity
8
1
62
256
6
ByLayer
370
18
48
1
60
0
100
AcDbSpline
70
4
71
3
72
10
73
6
40
0
40
0
40
0
40
0
40
0.5
40
0.5
40
1
40
1
40
1
40
1
41
1
10
10.5356391618523
20
-6.00203242524282
30
0
41
1
10
10.5762803441297
20
-5.91929522680664
30
0
41
1
10
10.6209840581379
20
-5.83916907820861
30
0
41
1
10
10.7177906956166
20
-5.68367236347936
30
0
41
1
10
10.7698960250136
20
-5.60830334367304
30
0
41
1
10
10.8254513573551
20
-5.53515169230269
30
0
0
SPLINE
5
161
100
AcDbEntity
8
1
62
256
6
ByLayer
370
18
48
1
60
0
100
AcDbSpline
70
4
71
1
72
4
73
2
40
0
40
0
40
1
40
1
41
1
10
43.5781505619676
20
2.03507154258349
30
0
41
1
10
43.5791617237133
20
2.04087516890553
30
0
0
SPLINE
5
162
100
AcDbEntity
8
1
62
256
6
ByLayer
370
18
48
1
60
0
100
AcDbSpline
70
4
71
3
72
69
73
65
40
0
40
0
40
0
40
0
40
0.125000000000001
40
0.125000000000001
40
0.156250000000002
40
0.156250000000002
40
0.187500000000003
40
0.187500000000003
40
0.250000000000003
40
0.250000000000003
40
0.312500000000003
40
0.312500000000003
40
0.375000000000003
40
0.375000000000003
40
0.437500000000003
40
0.437500000000003
40
0.468750000000003
40
0.468750000000003
40
0.500000000000003
40
0.500000000000003
40
0.562500000000005
40
0.562500000000005
40
0.578125000000005
40
0.578125000000005
40
0.593750000000004
40
0.593750000000004
40
0.625000000000004
40
0.625000000000004
40
0.656250000000003
40
0.656250000000003
40
0.687500000000003
40
0.687500000000003
40
0.695312500000003
40
0.695312500000003
40
0.703125000000002
40
0.718750000000001
40
0.718750000000001
40
0.75
40
0.75
40
0.7578125
40
0.7578125
40
0.765624999999999
40
0.781249999999999
40
0.781249999999999
40
0.812499999999999
40
0.812499999999999
40
0.828124999999999
40
0.828124999999999
40
0.843749999999999
40
0.843749999999999
40
0.874999999999999
40
0.874999999999999
40
0.882812499999998
40
0.882812499999998
40
0.890624999999998
40
0.906249999999997
40
0.906249999999997
40
0.937499999999996
40
0.937499999999996
40
0.953124999999996
40
0.953124999999996
40
0.968749999999997
40
0.968749999999997
40
1
40
1
40
1
40
1
41
1
10
10.5356391618523
20
-6.00203242524282
30
0
41
1
10
10.3116946043831
20
-5.9808265965508
30
0
41
1
10
10.0897990451768
20
-5.94910061299478
30
0
41
1
10
9.81504781590181
20
-5.89469590895118
30
0
41
1
10
9.76023174876906
20
-5.88307441294069
30
0
41
1
10
9.65088384791406
20
-5.85829446886945
30
0
41
1
10
9.59629826724822
20
-5.84512140286225
30
0
41
1
10
9.43358880237619
20
-5.80335447822526
30
0
41
1
10
9.32641038521365
20
-5.77250291694557
30
0
41
1
10
9.11497913857579
20
-5.70441254399117
30
0
41
1
10
9.0107239602093
20
-5.66717636453345
30
0
41
1
10
8.80568196430022
20
-5.5857583720682
30
0
41
1
10
8.70489073636807
20
-5.54158113431666
30
0
41
1
10
8.50762480818997
20
-5.4454308679758
30
0
41
1
10
8.41114115301809
20
-5.39346670395958
30
0
41
1
10
8.27065939769003
20
-5.30867463355526
30
0
41
1
10
8.22454402008864
20
-5.27926514587517
30
0
41
1
10
8.13398392416573
20
-5.21791145686976
30
0
41
1
10
8.08972181961838
20
-5.18608968591229
30
0
41
1
10
7.96056658773284
20
-5.0869507339155
30
0
41
1
10
7.87918786114028
20
-5.0159765486616
30
0
41
1
10
7.78576676267204
20
-4.9196005753175
30
0
41
1
10
7.76750335262227
20
-4.89993877753898
30
0
41
1
10
7.7319055742494
20
-4.85978534062878
30
0
41
1
10
7.71460062761798
20
-4.83932438349225
30
0
41
1
10
7.6644880953468
20
-4.77694857974453
30
0
41
1
10
7.6333993815162
20
-4.73396093036658
30
0
41
1
10
7.57675038449463
20
-4.6448465595121
30
0
41
1
10
7.55118466728777
20
-4.59872175889046
30
0
41
1
10
7.50681014657451
20
-4.502875835558
30
0
41
1
10
7.48799082860592
20
-4.45315838503612
30
0
41
1
10
7.46981469212636
20
-4.38834852763955
30
0
41
1
10
7.46644401868315
20
-4.37523148682561
30
0
41
1
10
7.46030256018207
20
-4.34882233563448
30
0
41
1
10
7.45200064922125
20
-4.30900256693184
30
0
41
1
10
7.44652729414287
20
-4.26856212194568
30
0
41
1
10
7.43965468239048
20
-4.18684496187512
30
0
41
1
10
7.44048154611932
20
-4.13125273202431
30
0
41
1
10
7.44957549603441
20
-4.06032886906107
30
0
41
1
10
7.45180319643532
20
-4.04605089624457
30
0
41
1
10
7.4570911548654
20
-4.01744506619363
30
0
41
1
10
7.46623320982641
20
-3.97465284343895
30
0
41
1
10
7.47901941100417
20
-3.93223572908016
30
0
41
1
10
7.5095055612168
20
-3.84797262142479
30
0
41
1
10
7.53637314148676
20
-3.79255691505821
30
0
41
1
10
7.58684175648142
20
-3.71088257801927
30
0
41
1
10
7.60546388656545
20
-3.68378145030118
30
0
41
1
10
7.64536293829423
20
-3.63113806650571
30
0
41
1
10
7.66668251139399
20
-3.60549825331603
30
0
41
1
10
7.73449763624214
20
-3.53055463115533
30
0
41
1
10
7.78483795367262
20
-3.48322241503808
30
0
41
1
10
7.85353901485081
20
-3.42718520735119
30
0
41
1
10
7.86757902543516
20
-3.41612843741186
30
0
41
1
10
7.89599943177797
20
-3.39449176875709
30
0
41
1
10
7.93922040258809
20
-3.36268564592641
30
0
41
1
10
7.98411695610684
20
-3.33273709315793
30
0
41
1
10
8.07593600809483
20
-3.27512263146414
30
0
41
1
10
8.13984049659652
20
-3.2397475887295
30
0
41
1
10
8.23912710503521
20
-3.19067126312569
30
0
41
1
10
8.27279693760198
20
-3.17497935318025
30
0
41
1
10
8.34121005873612
20
-3.14485967101552
30
0
41
1
10
8.37603396791062
20
-3.130402535125
30
0
41
1
10
8.48111616703571
20
-3.08918440548763
30
0
41
1
10
8.55214795422501
20
-3.0644763118284
30
0
41
1
10
8.62399904165716
20
-3.04213646224829
30
0
0
SPLINE
5
163
100
AcDbEntity
8
1
62
256
6
ByLayer
370
18
48
1
60
0
100
AcDbSpline
70
4
71
3
72
30
73
26
40
0
40
0
40
0
40
0
40
0.0624999999999842
40
0.0624999999999842
40
0.0937499999999762
40
0.0937499999999762
40
0.124999999999968
40
0.124999999999968
40
0.249999999999982
40
0.249999999999982
40
0.312499999999988
40
0.312499999999988
40
0.374999999999995
40
0.374999999999995
40
0.499999999999993
40
0.499999999999993
40
0.624999999999992
40
0.624999999999992
40
0.74999999999999
40
0.74999999999999
40
0.812499999999989
40
0.812499999999989
40
0.874999999999988
40
0.874999999999988
40
1
40
1
40
1
40
1
41
1
10
8.62399904165716
20
-3.04213646224832
30
0
41
1
10
8.65092412026866
20
-3.03376495072902
30
0
41
1
10
8.67842024832933
20
-3.02669432207585
30
0
41
1
10
8.7204038768281
20
-3.01778339227926
30
0
41
1
10
8.73455383925102
20
-3.01509213592595
30
0
41
1
10
8.76284861039954
20
-3.010283328989
30
0
41
1
10
8.77701064620715
20
-3.0081606881424
30
0
41
1
10
8.8478876918889
20
-2.99883590582817
30
0
41
1
10
8.90480019117689
20
-2.99544139728448
30
0
41
1
10
8.99040978518281
20
-2.99500953492395
30
0
41
1
10
9.01898706840552
20
-2.99565355370814
30
0
41
1
10
9.07621583021273
20
-2.99837533173641
30
0
41
1
10
9.10494322047077
20
-3.00046160051525
30
0
41
1
10
9.19061780598838
20
-3.00865287000028
30
0
41
1
10
9.24694472268649
20
-3.01664498619266
30
0
41
1
10
9.35828856530577
20
-3.03679226759581
30
0
41
1
10
9.41330303598497
20
-3.04895518183935
30
0
41
1
10
9.52217224962484
20
-3.07691484646048
30
0
41
1
10
9.57602590621076
20
-3.09271505799791
30
0
41
1
10
9.65600394703665
20
-3.11888334775696
30
0
41
1
10
9.68252916292852
20
-3.12801863076879
30
0
41
1
10
9.73531889112144
20
-3.14708234877636
30
0
41
1
10
9.7615572533428
20
-3.15700308661215
30
0
41
1
10
9.83934589719237
20
-3.18768640284327
30
0
41
1
10
9.89015570031879
20
-3.20943260979681
30
0
41
1
10
9.94000000000028
20
-3.23232774069169
30
0
0
SPLINE
5
164
100
AcDbEntity
8
1
62
256
6
ByLayer
370
18
48
1
60
0
100
AcDbSpline
70
4
71
3
72
17
73
13
40
0
40
0
40
0
40
0
40
0.249999999999998
40
0.249999999999998
40
0.374999999999996
40
0.374999999999996
40
0.499999999999995
40
0.624999999999993
40
0.624999999999993
40
0.749999999999992
40
0.749999999999992
40
1
40
1
40
1
40
1
41
1
10
15.02
20
0.052632695071452
30
0
41
1
10
14.93602796897
20
0.12173198859827
30
0
41
1
10
14.853542105988
20
0.190378381731591
30
0
41
1
10
14.73137463374
20
0.29198085134243
30
0
41
1
10
14.6908724270715
20
0.325653739847354
30
0
41
1
10
14.6104767744093
20
0.392256400289114
30
0
41
1
10
14.5308660211996
20
0.457969893747929
30
0
41
1
10
14.4526139800555
20
0.521644432045235
30
0
41
1
10
14.3749440395168
20
0.584143756368576
30
0
41
1
10
14.3363797085269
20
0.61482062938353
30
0
41
1
10
14.2221404808693
20
0.704248659429084
30
0
41
1
10
14.1476771689373
20
0.76062134456771
30
0
41
1
10
14.0745384934828
20
0.812848233888531
30
0
0
SPLINE
5
165
100
AcDbEntity
8
1
62
256
6
ByLayer
370
18
48
1
60
0
100
AcDbSpline
70
4
71
3
72
17
73
13
40
0
40
0
40
0
40
0
40
0.249999999999997
40
0.249999999999997
40
0.374999999999996
40
0.374999999999996
40
0.499999999999995
40
0.624999999999993
40
0.624999999999993
40
0.749999999999992
40
0.749999999999992
40
1
40
1
40
1
40
1
41
1
10
15.02
20
6.14704064362832
30
0
41
1
10
14.93602796897
20
6.15033253790295
30
0
41
1
10
14.853542105988
20
6.14736397282911
30
0
41
1
10
14.73137463374
20
6.13366403054235
30
0
41
1
10
14.6908724270715
20
6.12754190870652
30
0
41
1
10
14.6104767744093
20
6.11218041542148
30
0
41
1
10
14.5308660211996
20
6.09374252425013
30
0
41
1
10
14.4526139800555
20
6.06908114914725
30
0
41
1
10
14.3749440395168
20
6.04121138556525
30
0
41
1
10
14.3363797085269
20
6.02565695695927
30
0
41
1
10
14.2221404808693
20
5.97430250651246
30
0
41
1
10
14.1476771689373
20
5.93377942564638
30
0
41
1
10
14.0745384934828
20
5.88632736292612
30
0
0
SPLINE
5
166
100
AcDbEntity
8
1
62
256
6
ByLayer
370
18
48
1
60
0
100
AcDbSpline
70
4
71
1
72
4
73
2
40
0
40
0
40
1
40
1
41
1
10
10.7644854266934
20
-5.6334074275332
30
0
41
1
10
12.2273579383995
20
-5.55706855628173
30
0
0
SPLINE
5
167
100
AcDbEntity
8
1
62
256
6
ByLayer
370
18
48
1
60
0
100
AcDbSpline
70
4
71
2
72
6
73
3
40
0
40
0
40
0
40
1
40
1
40
1
41
1
10
15.0200000000002
20
6.20006630177974
30
0
41
1
10
14.7051730010339
20
6.17957224470734
30
0
41
1
10
14.4221306461835
20
6.06327696244705
30
0
0
SPLINE
5
168
100
AcDbEntity
8
1
62
256
6
ByLayer
370
18
48
1
60
0
100
AcDbSpline
70
4
71
2
72
6
73
3
40
0
40
0
40
0
40
1
40
1
40
1
41
1
10
43.4300299727181
20
-5.55381828651124
30
0
41
1
10
43.4975404064407
20
-5.29357681937188
30
0
41
1
10
43.5650508401633
20
-5.03333535223257
30
0
0
SPLINE
5
169
100
AcDbEntity
8
1
62
256
6
ByLayer
370
18
48
1
60
0
100
AcDbSpline
70
4
71
3
72
14
73
10
40
0
40
0
40
0
40
0
40
0.180431867624994
40
0.331952302633602
40
0.497938347110996
40
0.617823256595406
40
0.709588661526602
40
0.826045881788617
40
1
40
1
40
1
40
1
41
1
10
19.068497813473
20
-6.30178605698049
30
0
41
1
10
19.2366469662885
20
-6.28544881283273
30
0
41
1
10
19.5466963660461
20
-6.25556037452205
30
0
41
1
10
20.0141923759165
20
-6.21141275874999
30
0
41
1
10
20.425539632291
20
-6.17261553905993
30
0
41
1
10
20.7806601455908
20
-6.13949177773597
30
0
41
1
10
21.0892174612672
20
-6.11102026919926
30
0
41
1
10
21.4487671808269
20
-6.07831378089
30
0
41
1
10
21.7212561387028
20
-6.053919615924
30
0
41
1
10
21.8843041252716
20
-6.03947499830898
30
0
0
SPLINE
5
16A
100
AcDbEntity
8
1
62
256
6
ByLayer
370
18
48
1
60
0
100
AcDbSpline
70
4
71
3
72
18
73
14
40
0
40
0
40
0
40
0
40
0.126031062917259
40
0.22437969337996
40
0.306235149794798
40
0.355647720529591
40
0.407363855667474
40
0.466500690633533
40
0.532285971057887
40
0.636144040332427
40
0.728491619488534
40
0.8420440373761
40
1
40
1
40
1
40
1
41
1
10
37.6268080121784
20
6.00277156763903
30
0
41
1
10
37.4904583479968
20
6.01454869724796
30
0
41
1
10
37.2477683955328
20
6.03574327601797
30
0
41
1
10
36.9168830107739
20
6.06523033373824
30
0
41
1
10
36.6686071378435
20
6.08766038624222
30
0
41
1
10
36.4725304119922
20
6.1054571421578
30
0
41
1
10
36.2994000382627
20
6.12127610095061
30
0
41
1
10
36.1083182559771
20
6.13890548217944
30
0
41
1
10
35.860985337266
20
6.16192409908365
30
0
41
1
10
35.5777963454577
20
6.18852623809474
30
0
41
1
10
35.2440960619551
20
6.21996573558104
30
0
41
1
10
34.849984551686
20
6.25751840779569
30
0
41
1
10
34.5575132373301
20
6.28557128939386
30
0
41
1
10
34.3875373549917
20
6.30196023493943
30
0
0
SPLINE
5
16B
100
AcDbEntity
8
1
62
256
6
ByLayer
370
18
48
1
60
0
100
AcDbSpline
70
4
71
3
72
8
73
4
40
0
40
0
40
0
40
0
40
1
40
1
40
1
40
1
41
1
10
36.976683621935
20
1.6402282034673
30
0
41
1
10
37.0623077842994
20
1.58040159149491
30
0
41
1
10
37.1469346912156
20
1.52038771970891
30
0
41
1
10
37.2297795576925
20
1.46051725675522
30
0
0
SPLINE
5
16C
100
AcDbEntity
8
1
62
256
6
ByLayer
370
18
48
1
60
0
100
AcDbSpline
70
4
71
1
72
4
73
2
40
0
40
0
40
1
40
1
41
1
10
37.2782327956408
20
1.42536758582676
30
0
41
1
10
37.3231869213369
20
1.39353161024027
30
0
0
SPLINE
5
16D
100
AcDbEntity
8
1
62
256
6
ByLayer
370
18
48
1
60
0
100
AcDbSpline
70
4
71
3
72
8
73
4
40
0
40
0
40
0
40
0
40
1
40
1
40
1
40
1
41
1
10
26.4824327372317
20
1.54064909456866
30
0
41
1
10
26.5878830421629
20
1.46556851931388
30
0
41
1
10
26.6895660974576
20
1.39190746461841
30
0
41
1
10
26.7865723156009
20
1.31980589243327
30
0
0
SPLINE
5
16E
100
AcDbEntity
8
1
62
256
6
ByLayer
370
18
48
1
60
0
100
AcDbSpline
70
4
71
1
72
4
73
2
40
0
40
0
40
1
40
1
41
1
10
26.8332465848302
20
1.28496189761836
30
0
41
1
10
26.8725170557761
20
1.25640246428935
30
0
0
SPLINE
5
16F
100
AcDbEntity
8
1
62
256
6
ByLayer
370
18
48
1
60
0
100
AcDbSpline
70
4
71
3
72
17
73
13
40
0
40
0
40
0
40
0
40
0.160412209997025
40
0.269346615611106
40
0.337928347903042
40
0.41412300758431
40
0.502766832465826
40
0.581392308511435
40
0.639360289890085
40
0.710155518196207
40
0.830322768181965
40
1
40
1
40
1
40
1
41
1
10
28.8564300199113
20
-6.301798396122
30
0
41
1
10
29.0521258884453
20
-6.28298164743663
30
0
41
1
10
29.3807765475344
20
-6.25151369213074
30
0
41
1
10
29.7932758048923
20
-6.21219826727679
30
0
41
1
10
30.1029848833033
20
-6.18293902780303
30
0
41
1
10
30.3879378631832
20
-6.15631804388207
30
0
41
1
10
30.684952389276
20
-6.12880080237824
30
0
41
1
10
30.9606332221328
20
-6.1033865897754
30
0
41
1
10
31.2119536885111
20
-6.08053507189121
30
0
41
1
10
31.5138754347861
20
-6.05318097765172
30
0
41
1
10
31.9548104370724
20
-6.01450801746449
30
0
41
1
10
32.3086032110379
20
-5.98413482068582
30
0
41
1
10
32.5160063764765
20
-5.96664284439183
30
0
0
SPLINE
5
170
100
AcDbEntity
8
1
62
256
6
ByLayer
370
18
48
1
60
0
100
AcDbSpline
70
4
71
3
72
13
73
9
40
0
40
0
40
0
40
0
40
0.211010502665742
40
0.379927577436388
40
0.506678138365947
40
0.591247067274224
40
0.782101394513445
40
1
40
1
40
1
40
1
41
1
10
16.7779958180579
20
6.03932403675697
30
0
41
1
10
16.654560539233
20
6.05025258748341
30
0
41
1
10
16.4323348434273
20
6.07009638235712
30
0
41
1
10
16.1360358874986
20
6.09700936786729
30
0
41
1
10
15.9136901673214
20
6.11737639712865
30
0
41
1
10
15.6787981895614
20
6.13905435754862
30
0
41
1
10
15.3914232526467
20
6.16576798258478
30
0
41
1
10
15.1529120376958
20
6.18821808822207
30
0
41
1
10
15.0257723065777
20
6.20026066315779
30
0
0
SPLINE
5
171
100
AcDbEntity
8
1
62
256
6
ByLayer
370
18
48
1
60
0
100
AcDbSpline
70
4
71
3
72
13
73
9
40
0
40
0
40
0
40
0
40
0.210631655886914
40
0.380672286053308
40
0.471908086248515
40
0.587570275900554
40
0.762715309605741
40
1
40
1
40
1
40
1
41
1
10
39.4948051387317
20
-6.30191260934342
30
0
41
1
10
39.6916846414665
20
-6.28283312194719
30
0
41
1
10
40.0479652945662
20
-6.24856809858153
30
0
41
1
10
40.4901659487171
20
-6.20686537662419
30
0
41
1
10
40.8445647361042
20
-6.17346818358425
30
0
41
1
10
41.2034367781624
20
-6.13996843271212
30
0
41
1
10
41.6995733930849
20
-6.09416974183989
30
0
41
1
10
42.0871306221459
20
-6.05939250687194
30
0
41
1
10
42.3101328834276
20
-6.03966962681315
30
0
0
SPLINE
5
172
100
AcDbEntity
8
1
62
256
6
ByLayer
370
18
48
1
60
0
100
AcDbSpline
70
4
71
3
72
18
73
14
40
0
40
0
40
0
40
0
40
0.107699896300206
40
0.194786249770894
40
0.286828500662541
40
0.349059176685103
40
0.421346932557403
40
0.50481352603635
40
0.583431020278587
40
0.64113734446881
40
0.711614564273865
40
0.831152819778289
40
1
40
1
40
1
40
1
41
1
10
27.4089902067037
20
5.96680043374491
30
0
41
1
10
27.2777028438537
20
5.97770699273411
30
0
41
1
10
27.0401959941563
20
5.99777014179381
30
0
41
1
10
26.6904100565548
20
6.02837516368112
30
0
41
1
10
26.3957583446201
20
6.05454282248903
30
0
41
1
10
26.119022704485
20
6.07941826598048
30
0
41
1
10
25.852790245138
20
6.1034669485594
30
0
41
1
10
25.5668218557516
20
6.12963135844922
30
0
41
1
10
25.2979039769357
20
6.15466700720199
30
0
41
1
10
25.0471218825308
20
6.17828672935565
30
0
41
1
10
24.7462934458585
20
6.20662408895603
30
0
41
1
10
24.3075737856481
20
6.24823768728737
30
0
41
1
10
23.9558238664262
20
6.28193576619822
30
0
41
1
10
23.7497152363341
20
6.3017969140096
30
0
0
SPLINE
5
173
100
AcDbEntity
8
1
62
256
6
ByLayer
370
18
48
1
60
0
100
AcDbSpline
70
4
71
1
72
4
73
2
40
0
40
0
40
1
40
1
41
1
10
33.5707965483479
20
1.50443343918965
30
0
41
1
10
33.5189707353044
20
1.5433359371263
30
0
0
SPLINE
5
174
100
AcDbEntity
8
1
62
256
6
ByLayer
370
18
48
1
60
0
100
AcDbSpline
70
4
71
1
72
4
73
2
40
0
40
0
40
1
40
1
41
1
10
23.7808249143367
20
1.50612455665666
30
0
41
1
10
23.7309942306729
20
1.54337986023211
30
0
0
SPLINE
5
175
100
AcDbEntity
8
1
62
256
6
ByLayer
370
18
48
1
60
0
100
AcDbSpline
70
4
71
2
72
6
73
3
40
0
40
0
40
0
40
1
40
1
40
1
41
1
10
43.5720380736245
20
2.06572501086424
30
0
41
1
10
43.5031024364015
20
2.55673882520244
30
0
41
1
10
43.4341667991785
20
3.04775263954065
30
0
0
LINE
5
79
100
AcDbEntity
8
80
62
256
6
ByLayer
370
18
48
1
60
0
100
AcDbLine
10
0
20
0
30
0
11
-5
21
0
31
0
39
0
210
0
220
0
230
1
0
LINE
5
7A
100
AcDbEntity
8
4
62
256
6
ByLayer
370
18
48
0.05
60
0
100
AcDbLine
10
0
20
0
30
0
11
43.6
21
0
31
0
39
0
210
0
220
0
230
1
0
LINE
5
7C
100
AcDbEntity
8
81
62
256
6
ByLayer
370
18
48
1
60
0
100
AcDbLine
10
43.6
20
0
30
0
11
48.6
21
0
31
0
39
0
210
0
220
0
230
1
0
LINE
5
7D
100
AcDbEntity
8
SK4
62
256
6
ByLayer
370
18
48
0.05
60
0
100
AcDbLine
10
-45.3
20
0
30
0
11
43.6
21
0
31
0
39
0
210
0
220
0
230
1
0
LINE
5
7F
100
AcDbEntity
8
1
62
256
6
ByLayer
370
18
48
1
60
0
100
AcDbLine
10
0
20
6.35
30
0
11
0
21
0
31
0
39
0
210
0
220
0
230
1
0
LINE
5
80
100
AcDbEntity
8
1
62
256
6
ByLayer
370
18
48
1
60
0
100
AcDbLine
10
0
20
0
30
0
11
0
21
-6.35
31
0
39
0
210
0
220
0
230
1
0
LINE
5
81
100
AcDbEntity
8
1
62
256
6
ByLayer
370
18
48
1
60
0
100
AcDbLine
10
43.445641
20
0.934722
30
0
11
43.287934
21
-0.119325
31
0
39
0
210
0
220
0
230
1
0
LINE
5
82
100
AcDbEntity
8
1
62
256
6
ByLayer
370
18
48
1
60
0
100
AcDbLine
10
43.38429
20
0.636509
30
0
11
43.578151
21
1.936323
31
0
39
0
210
0
220
0
230
1
0
LINE
5
83
100
AcDbEntity
8
1
62
256
6
ByLayer
370
18
48
1
60
0
100
AcDbLine
10
42.909954
20
-1.243963
30
0
11
43.287934
21
-0.119325
31
0
39
0
210
0
220
0
230
1
0
LINE
5
84
100
AcDbEntity
8
1
62
256
6
ByLayer
370
18
48
1
60
0
100
AcDbLine
10
43.287934
20
-0.119325
30
0
11
43.38429
21
0.636509
31
0
39
0
210
0
220
0
230
1
0
LINE
5
85
100
AcDbEntity
8
1
62
256
6
ByLayer
370
18
48
1
60
0
100
AcDbLine
10
43.122568
20
0.510809
30
0
11
43.38429
21
0.636509
31
0
39
0
210
0
220
0
230
1
0
LINE
5
86
100
AcDbEntity
8
1
62
256
6
ByLayer
370
18
48
1
60
0
100
AcDbLine
10
43.576359
20
-4.905092
30
0
11
43.578151
21
-4.932098
31
0
39
0
210
0
220
0
230
1
0
LINE
5
87
100
AcDbEntity
8
1
62
256
6
ByLayer
370
13
48
1
60
0
100
AcDbLine
10
42.740186
20
0.419081
30
0
11
42.595831
21
0.075172
31
0
39
0
210
0
220
0
230
1
0
LINE
5
88
100
AcDbEntity
8
1
62
256
6
ByLayer
370
13
48
1
60
0
100
AcDbLine
10
42.565744
20
0.003494
30
0
11
42.527987
21
-0.086457
31
0
39
0
210
0
220
0
230
1
0
LINE
5
89
100
AcDbEntity
8
1
62
256
6
ByLayer
370
18
48
1
60
0
100
AcDbLine
10
43.424752
20
3.084776
30
0
11
43.578151
21
5.945231
31
0
39
0
210
0
220
0
230
1
0
LINE
5
8A
100
AcDbEntity
8
1
62
256
6
ByLayer
370
18
48
1
60
0
100
AcDbLine
10
43.445641
20
-5.387811
30
0
11
43.428722
21
-5.125006
31
0
39
0
210
0
220
0
230
1
0
LINE
5
8B
100
AcDbEntity
8
1
62
256
6
ByLayer
370
13
48
1
60
0
100
AcDbLine
10
42.781877
20
0.785119
30
0
11
43.122568
21
0.510809
31
0
39
0
210
0
220
0
230
1
0
LINE
5
8C
100
AcDbEntity
8
1
62
256
6
ByLayer
370
18
48
1
60
0
100
AcDbLine
10
43.287934
20
-1.672552
30
0
11
43.382784
21
-1.835885
31
0
39
0
210
0
220
0
230
1
0
LINE
5
8D
100
AcDbEntity
8
1
62
256
6
ByLayer
370
18
48
1
60
0
100
AcDbLine
10
43.385285
20
-1.854044
30
0
11
43.578151
21
-4.872763
31
0
39
0
210
0
220
0
230
1
0
LINE
5
8E
100
AcDbEntity
8
1
62
256
6
ByLayer
370
18
48
1
60
0
100
AcDbLine
10
43.445641
20
-4.182013
30
0
11
43.287934
21
-1.672552
31
0
39
0
210
0
220
0
230
1
0
LINE
5
8F
100
AcDbEntity
8
1
62
256
6
ByLayer
370
18
48
1
60
0
100
AcDbLine
10
42.775918
20
-1.092001
30
0
11
43.287934
21
-1.672552
31
0
39
0
210
0
220
0
230
1
0
LINE
5
90
100
AcDbEntity
8
1
62
256
6
ByLayer
370
13
48
1
60
0
100
AcDbLine
10
42.315633
20
1.752841
30
0
11
43.101225
21
0.918374
31
0
39
0
210
0
220
0
230
1
0
LINE
5
91
100
AcDbEntity
8
1
62
256
6
ByLayer
370
18
48
1
60
0
100
AcDbLine
10
43.388982
20
0.949328
30
0
11
43.101225
21
0.918374
31
0
39
0
210
0
220
0
230
1
0
LINE
5
92
100
AcDbEntity
8
1
62
256
6
ByLayer
370
18
48
1
60
0
100
AcDbLine
10
43.388982
20
0.949328
30
0
11
43.578151
21
2.035072
31
0
39
0
210
0
220
0
230
1
0
LINE
5
93
100
AcDbEntity
8
1
62
256
6
ByLayer
370
18
48
1
60
0
100
AcDbLine
10
9.94
20
3.599536
30
0
11
9.94
21
5.060893
31
0
39
0
210
0
220
0
230
1
0
LINE
5
94
100
AcDbEntity
8
1
62
256
6
ByLayer
370
18
48
1
60
0
100
AcDbLine
10
9.94
20
5.060893
30
0
11
10.888778
21
5.060893
31
0
39
0
210
0
220
0
230
1
0
LINE
5
95
100
AcDbEntity
8
1
62
256
6
ByLayer
370
18
48
1
60
0
100
AcDbLine
10
9.94
20
-1.255616
30
0
11
10.192137
21
-1.255616
31
0
39
0
210
0
220
0
230
1
0
LINE
5
96
100
AcDbEntity
8
1
62
256
6
ByLayer
370
18
48
1
60
0
100
AcDbLine
10
9.94
20
-6.002032
30
0
11
9.94
21
-6.035
31
0
39
0
210
0
220
0
230
1
0
LINE
5
97
100
AcDbEntity
8
1
62
256
6
ByLayer
370
18
48
1
60
0
100
AcDbLine
10
9.94
20
-6.002032
30
0
11
10.535639
21
-6.002032
31
0
39
0
210
0
220
0
230
1
0
LINE
5
98
100
AcDbEntity
8
1
62
256
6
ByLayer
370
18
48
1
60
0
100
AcDbLine
10
9.94
20
-3.232328
30
0
11
9.94
21
-1.255616
31
0
39
0
210
0
220
0
230
1
0
LINE
5
99
100
AcDbEntity
8
1
62
256
6
ByLayer
370
13
48
1
60
0
100
AcDbLine
10
7.097679
20
-6.035
30
0
11
7.097679
21
0
31
0
39
0
210
0
220
0
230
1
0
LINE
5
9A
100
AcDbEntity
8
1
62
256
6
ByLayer
370
13
48
1
60
0
100
AcDbLine
10
7.097679
20
0
30
0
11
7.097679
21
6.035
31
0
39
0
210
0
220
0
230
1
0
LINE
5
9B
100
AcDbEntity
8
1
62
256
6
ByLayer
370
13
48
1
60
0
100
AcDbLine
10
6.597679
20
6.168975
30
0
11
6.597679
21
0
31
0
39
0
210
0
220
0
230
1
0
LINE
5
9C
100
AcDbEntity
8
1
62
256
6
ByLayer
370
13
48
1
60
0
100
AcDbLine
10
6.597679
20
0
30
0
11
6.597679
21
-6.168975
31
0
39
0
210
0
220
0
230
1
0
LINE
5
9D
100
AcDbEntity
8
1
62
256
6
ByLayer
370
18
48
1
60
0
100
AcDbLine
10
6.284134
20
6.35
30
0
11
6.284134
21
0
31
0
39
0
210
0
220
0
230
1
0
LINE
5
9E
100
AcDbEntity
8
1
62
256
6
ByLayer
370
18
48
1
60
0
100
AcDbLine
10
6.284134
20
0
30
0
11
6.284134
21
-6.35
31
0
39
0
210
0
220
0
230
1
0
LINE
5
9F
100
AcDbEntity
8
SK1
62
256
6
ByLayer
370
18
48
1
60
0
100
AcDbLine
10
0
20
6.35
30
0
11
0
21
0
31
0
39
0
210
0
220
0
230
1
0
LINE
5
A1
100
AcDbEntity
8
SK1
62
256
6
ByLayer
370
18
48
1
60
0
100
AcDbLine
10
0
20
0
30
0
11
0
21
-6.35
31
0
39
0
210
0
220
0
230
1
0
LINE
5
A2
100
AcDbEntity
8
SK1
62
256
6
ByLayer
370
18
48
1
60
0
100
AcDbLine
10
-26.87
20
4.826
30
0
11
-28.394
21
6.35
31
0
39
0
210
0
220
0
230
1
0
LINE
5
A3
100
AcDbEntity
8
SK1
62
256
6
ByLayer
370
18
48
1
60
0
100
AcDbLine
10
-18.49
20
4.826
30
0
11
-16.966
21
6.35
31
0
39
0
210
0
220
0
230
1
0
LINE
5
A4
100
AcDbEntity
8
SK1
62
256
6
ByLayer
370
18
48
1
60
0
100
AcDbLine
10
-26.87
20
4.826
30
0
11
-18.49
21
4.826
31
0
39
0
210
0
220
0
230
1
0
LINE
5
A5
100
AcDbEntity
8
SK1
62
256
6
ByLayer
370
18
48
1
60
0
100
AcDbLine
10
-44.5
20
6.35
30
0
11
-44.5
21
-6.35
31
0
39
0
210
0
220
0
230
1
0
LINE
5
A6
100
AcDbEntity
8
SK1
62
256
6
ByLayer
370
18
48
1
60
0
100
AcDbLine
10
-45.3
20
-5.55
30
0
11
-45.3
21
5.55
31
0
39
0
210
0
220
0
230
1
0
LINE
5
A7
100
AcDbEntity
8
1
62
256
6
ByLayer
370
18
48
1
60
0
100
AcDbLine
10
6.284134
20
6.35
30
0
11
0
21
6.35
31
0
39
0
210
0
220
0
230
1
0
LINE
5
A8
100
AcDbEntity
8
1
62
256
6
ByLayer
370
18
48
1
60
0
100
AcDbLine
10
0
20
-6.35
30
0
11
6.284134
21
-6.35
31
0
39
0
210
0
220
0
230
1
0
LINE
5
A9
100
AcDbEntity
8
1
62
256
6
ByLayer
370
18
48
1
60
0
100
AcDbLine
10
43.421378
20
-5.587169
30
0
11
43.422047
21
-5.584591
31
0
39
0
210
0
220
0
230
1
0
LINE
5
AA
100
AcDbEntity
8
1
62
256
6
ByLayer
370
18
48
1
60
0
100
AcDbLine
10
7.754352
20
6.035
30
0
11
7.097679
21
6.035
31
0
39
0
210
0
220
0
230
1
0
LINE
5
AB
100
AcDbEntity
8
1
62
256
6
ByLayer
370
18
48
1
60
0
100
AcDbLine
10
7.097679
20
-6.035
30
0
11
9.94
21
-6.035
31
0
39
0
210
0
220
0
230
1
0
LINE
5
AC
100
AcDbEntity
8
1
62
256
6
ByLayer
370
18
48
1
60
0
100
AcDbLine
10
6.597679
20
6.168975
30
0
11
6.284134
21
6.35
31
0
39
0
210
0
220
0
230
1
0
LINE
5
AD
100
AcDbEntity
8
1
62
256
6
ByLayer
370
18
48
1
60
0
100
AcDbLine
10
6.284134
20
-6.35
30
0
11
6.597679
21
-6.168975
31
0
39
0
210
0
220
0
230
1
0
LINE
5
AE
100
AcDbEntity
8
SK1
62
256
6
ByLayer
370
18
48
1
60
0
100
AcDbLine
10
0
20
6.35
30
0
11
-16.966
21
6.35
31
0
39
0
210
0
220
0
230
1
0
LINE
5
AF
100
AcDbEntity
8
SK1
62
256
6
ByLayer
370
18
48
1
60
0
100
AcDbLine
10
-28.394
20
6.35
30
0
11
-44.5
21
6.35
31
0
39
0
210
0
220
0
230
1
0
LINE
5
B0
100
AcDbEntity
8
SK1
62
256
6
ByLayer
370
18
48
1
60
0
100
AcDbLine
10
-44.5
20
-6.35
30
0
11
0
21
-6.35
31
0
39
0
210
0
220
0
230
1
0
LINE
5
B1
100
AcDbEntity
8
SK1
62
256
6
ByLayer
370
18
48
1
60
0
100
AcDbLine
10
-45.3
20
-5.55
30
0
11
-44.5
21
-6.35
31
0
39
0
210
0
220
0
230
1
0
LINE
5
B2
100
AcDbEntity
8
SK1
62
256
6
ByLayer
370
18
48
1
60
0
100
AcDbLine
10
-44.5
20
6.35
30
0
11
-45.3
21
5.55
31
0
39
0
210
0
220
0
230
1
0
LINE
5
B3
100
AcDbEntity
8
SK2
62
256
6
ByLayer
370
18
48
1
60
0
100
AcDbLine
10
-52.75
20
6.35
30
0
11
-52.75
21
-28.439532
31
0
39
0
210
0
220
0
230
1
0
LINE
5
B5
100
AcDbEntity
8
SK2
62
256
6
ByLayer
370
18
48
1
60
0
100
AcDbLine
10
-46.0875
20
6.35
30
0
11
-54.75
21
6.35
31
0
39
0
210
0
220
0
230
1
0
LINE
5
B6
100
AcDbEntity
8
SK2
62
256
6
ByLayer
370
18
48
1
60
0
100
AcDbLine
10
-46.0875
20
-6.35
30
0
11
-54.75
21
-6.35
31
0
39
0
210
0
220
0
230
1
0
LINE
5
B7
100
AcDbEntity
8
1
62
256
6
ByLayer
370
18
48
1
60
1
100
AcDbLine
10
-52.75
20
6.35
30
0
11
-52.289216
21
2.850002
31
0
39
0
210
0
220
0
230
1
0
LINE
5
B8
100
AcDbEntity
8
1
62
256
6
ByLayer
370
18
48
1
60
1
100
AcDbLine
10
-52.289216
20
2.850002
30
0
11
-53.210784
21
2.849998
31
0
39
0
210
0
220
0
230
1
0
LINE
5
B9
100
AcDbEntity
8
1
62
256
6
ByLayer
370
18
48
1
60
1
100
AcDbLine
10
-53.210784
20
2.849998
30
0
11
-52.75
21
6.35
31
0
39
0
210
0
220
0
230
1
0
LINE
5
BA
100
AcDbEntity
8
1
62
256
6
ByLayer
370
18
48
1
60
1
100
AcDbLine
10
-52.75
20
-6.35
30
0
11
-53.210784
21
-2.850002
31
0
39
0
210
0
220
0
230
1
0
LINE
5
BB
100
AcDbEntity
8
1
62
256
6
ByLayer
370
18
48
1
60
1
100
AcDbLine
10
-53.210784
20
-2.850002
30
0
11
-52.289216
21
-2.849998
31
0
39
0
210
0
220
0
230
1
0
LINE
5
BC
100
AcDbEntity
8
1
62
256
6
ByLayer
370
18
48
1
60
1
100
AcDbLine
10
-52.289216
20
-2.849998
30
0
11
-52.75
21
-6.35
31
0
39
0
210
0
220
0
230
1
0
LINE
5
BD
100
AcDbEntity
8
SK2
62
256
6
ByLayer
370
13
48
1
60
0
100
AcDbLine
10
12.102067
20
-6.035
30
0
11
12.102067
21
34.739998
31
0
39
0
210
0
220
0
230
1
0
LINE
5
BE
100
AcDbEntity
8
SK2
62
256
6
ByLayer
370
13
48
1
60
0
100
AcDbLine
10
12.618955
20
6.035
30
0
11
10.102067
21
6.035
31
0
39
0
210
0
220
0
230
1
0
LINE
5
BF
100
AcDbEntity
8
SK2
62
256
6
ByLayer
370
13
48
1
60
0
100
AcDbLine
10
12.618955
20
-6.035
30
0
11
10.102067
21
-6.035
31
0
39
0
210
0
220
0
230
1
0
LINE
5
C0
100
AcDbEntity
8
1
62
256
6
ByLayer
370
18
48
1
60
1
100
AcDbLine
10
12.102067
20
6.035
30
0
11
12.562851
21
2.535002
31
0
39
0
210
0
220
0
230
1
0
LINE
5
C1
100
AcDbEntity
8
1
62
256
6
ByLayer
370
18
48
1
60
1
100
AcDbLine
10
12.562851
20
2.535002
30
0
11
11.641283
21
2.534998
31
0
39
0
210
0
220
0
230
1
0
LINE
5
C2
100
AcDbEntity
8
1
62
256
6
ByLayer
370
18
48
1
60
1
100
AcDbLine
10
11.641283
20
2.534998
30
0
11
12.102067
21
6.035
31
0
39
0
210
0
220
0
230
1
0
LINE
5
C3
100
AcDbEntity
8
1
62
256
6
ByLayer
370
18
48
1
60
1
100
AcDbLine
10
12.102067
20
-6.035
30
0
11
11.641283
21
-2.535002
31
0
39
0
210
0
220
0
230
1
0
LINE
5
C4
100
AcDbEntity
8
1
62
256
6
ByLayer
370
18
48
1
60
1
100
AcDbLine
10
11.641283
20
-2.535002
30
0
11
12.562851
21
-2.534998
31
0
39
0
210
0
220
0
230
1
0
LINE
5
C5
100
AcDbEntity
8
1
62
256
6
ByLayer
370
18
48
1
60
1
100
AcDbLine
10
12.562851
20
-2.534998
30
0
11
12.102067
21
-6.035
31
0
39
0
210
0
220
0
230
1
0
LINE
5
C6
100
AcDbEntity
8
2
62
256
6
ByLayer
370
18
48
1
60
0
100
AcDbLine
10
55.6
20
-6.35
30
0
11
55.6
21
28.439532
31
0
39
0
210
0
220
0
230
1
0
LINE
5
C8
100
AcDbEntity
8
2
62
256
6
ByLayer
370
18
48
1
60
0
100
AcDbLine
10
45.1875
20
6.35
30
0
11
57.6
21
6.35
31
0
39
0
210
0
220
0
230
1
0
LINE
5
C9
100
AcDbEntity
8
2
62
256
6
ByLayer
370
18
48
1
60
0
100
AcDbLine
10
45.1875
20
-6.35
30
0
11
57.6
21
-6.35
31
0
39
0
210
0
220
0
230
1
0
LINE
5
CA
100
AcDbEntity
8
1
62
256
6
ByLayer
370
18
48
1
60
1
100
AcDbLine
10
55.6
20
6.35
30
0
11
56.060784
21
2.850002
31
0
39
0
210
0
220
0
230
1
0
LINE
5
CB
100
AcDbEntity
8
1
62
256
6
ByLayer
370
18
48
1
60
1
100
AcDbLine
10
56.060784
20
2.850002
30
0
11
55.139216
21
2.849998
31
0
39
0
210
0
220
0
230
1
0
LINE
5
CC
100
AcDbEntity
8
1
62
256
6
ByLayer
370
18
48
1
60
1
100
AcDbLine
10
55.139216
20
2.849998
30
0
11
55.6
21
6.35
31
0
39
0
210
0
220
0
230
1
0
LINE
5
CD
100
AcDbEntity
8
1
62
256
6
ByLayer
370
18
48
1
60
1
100
AcDbLine
10
55.6
20
-6.35
30
0
11
55.139216
21
-2.850002
31
0
39
0
210
0
220
0
230
1
0
LINE
5
CE
100
AcDbEntity
8
1
62
256
6
ByLayer
370
18
48
1
60
1
100
AcDbLine
10
55.139216
20
-2.850002
30
0
11
56.060784
21
-2.849998
31
0
39
0
210
0
220
0
230
1
0
LINE
5
CF
100
AcDbEntity
8
1
62
256
6
ByLayer
370
18
48
1
60
1
100
AcDbLine
10
56.060784
20
-2.849998
30
0
11
55.6
21
-6.35
31
0
39
0
210
0
220
0
230
1
0
LINE
5
D0
100
AcDbEntity
8
SK2
62
256
6
ByLayer
370
18
48
1
60
0
100
AcDbLine
10
43.6
20
-52.481683
30
0
11
-45.3
21
-52.481683
31
0
39
0
210
0
220
0
230
1
0
LINE
5
D1
100
AcDbEntity
8
SK2
62
256
6
ByLayer
370
18
48
1
60
0
100
AcDbLine
10
-45.3
20
-7.1375
30
0
11
-45.3
21
-54.481683
31
0
39
0
210
0
220
0
230
1
0
LINE
5
D2
100
AcDbEntity
8
SK2
62
256
6
ByLayer
370
18
48
1
60
0
100
AcDbLine
10
43.6
20
-7.9375
30
0
11
43.6
21
-54.481683
31
0
39
0
210
0
220
0
230
1
0
LINE
5
D3
100
AcDbEntity
8
1
62
256
6
ByLayer
370
18
48
1
60
1
100
AcDbLine
10
-45.3
20
-52.481683
30
0
11
-41.800002
21
-52.020899
31
0
39
0
210
0
220
0
230
1
0
LINE
5
D4
100
AcDbEntity
8
1
62
256
6
ByLayer
370
18
48
1
60
1
100
AcDbLine
10
-41.800002
20
-52.020899
30
0
11
-41.799998
21
-52.942467
31
0
39
0
210
0
220
0
230
1
0
LINE
5
D5
100
AcDbEntity
8
1
62
256
6
ByLayer
370
18
48
1
60
1
100
AcDbLine
10
-41.799998
20
-52.942467
30
0
11
-45.3
21
-52.481683
31
0
39
0
210
0
220
0
230
1
0
LINE
5
D6
100
AcDbEntity
8
1
62
256
6
ByLayer
370
18
48
1
60
1
100
AcDbLine
10
43.6
20
-52.481683
30
0
11
40.100002
21
-52.942467
31
0
39
0
210
0
220
0
230
1
0
LINE
5
D7
100
AcDbEntity
8
1
62
256
6
ByLayer
370
18
48
1
60
1
100
AcDbLine
10
40.100002
20
-52.942467
30
0
11
40.099998
21
-52.020899
31
0
39
0
210
0
220
0
230
1
0
LINE
5
D8
100
AcDbEntity
8
1
62
256
6
ByLayer
370
18
48
1
60
1
100
AcDbLine
10
40.099998
20
-52.020899
30
0
11
43.6
21
-52.481683
31
0
39
0
210
0
220
0
230
1
0
LINE
5
17A
100
AcDbEntity
8
1
62
256
6
ByLayer
370
18
48
1
60
1
100
AcDbLine
10
-52.75
20
6.35
30
0
11
-52.289216
21
2.850002
31
0
39
0
210
0
220
0
230
1
0
LINE
5
17B
100
AcDbEntity
8
1
62
256
6
ByLayer
370
18
48
1
60
1
100
AcDbLine
10
-52.289216
20
2.850002
30
0
11
-53.210784
21
2.849998
31
0
39
0
210
0
220
0
230
1
0
LINE
5
17C
100
AcDbEntity
8
1
62
256
6
ByLayer
370
18
48
1
60
1
100
AcDbLine
10
-53.210784
20
2.849998
30
0
11
-52.75
21
6.35
31
0
39
0
210
0
220
0
230
1
0
LINE
5
17E
100
AcDbEntity
8
1
62
256
6
ByLayer
370
18
48
1
60
1
100
AcDbLine
10
-52.75
20
-6.35
30
0
11
-53.210784
21
-2.850002
31
0
39
0
210
0
220
0
230
1
0
LINE
5
17F
100
AcDbEntity
8
1
62
256
6
ByLayer
370
18
48
1
60
1
100
AcDbLine
10
-53.210784
20
-2.850002
30
0
11
-52.289216
21
-2.849998
31
0
39
0
210
0
220
0
230
1
0
LINE
5
180
100
AcDbEntity
8
1
62
256
6
ByLayer
370
18
48
1
60
1
100
AcDbLine
10
-52.289216
20
-2.849998
30
0
11
-52.75
21
-6.35
31
0
39
0
210
0
220
0
230
1
0
LINE
5
184
100
AcDbEntity
8
1
62
256
6
ByLayer
370
18
48
1
60
1
100
AcDbLine
10
12.102067
20
6.035
30
0
11
12.562851
21
2.535002
31
0
39
0
210
0
220
0
230
1
0
LINE
5
185
100
AcDbEntity
8
1
62
256
6
ByLayer
370
18
48
1
60
1
100
AcDbLine
10
12.562851
20
2.535002
30
0
11
11.641283
21
2.534998
31
0
39
0
210
0
220
0
230
1
0
LINE
5
186
100
AcDbEntity
8
1
62
256
6
ByLayer
370
18
48
1
60
1
100
AcDbLine
10
11.641283
20
2.534998
30
0
11
12.102067
21
6.035
31
0
39
0
210
0
220
0
230
1
0
LINE
5
188
100
AcDbEntity
8
1
62
256
6
ByLayer
370
18
48
1
60
1
100
AcDbLine
10
12.102067
20
-6.035
30
0
11
11.641283
21
-2.535002
31
0
39
0
210
0
220
0
230
1
0
LINE
5
189
100
AcDbEntity
8
1
62
256
6
ByLayer
370
18
48
1
60
1
100
AcDbLine
10
11.641283
20
-2.535002
30
0
11
12.562851
21
-2.534998
31
0
39
0
210
0
220
0
230
1
0
LINE
5
18A
100
AcDbEntity
8
1
62
256
6
ByLayer
370
18
48
1
60
1
100
AcDbLine
10
12.562851
20
-2.534998
30
0
11
12.102067
21
-6.035
31
0
39
0
210
0
220
0
230
1
0
LINE
5
18E
100
AcDbEntity
8
1
62
256
6
ByLayer
370
18
48
1
60
1
100
AcDbLine
10
55.6
20
6.35
30
0
11
56.060784
21
2.850002
31
0
39
0
210
0
220
0
230
1
0
LINE
5
18F
100
AcDbEntity
8
1
62
256
6
ByLayer
370
18
48
1
60
1
100
AcDbLine
10
56.060784
20
2.850002
30
0
11
55.139216
21
2.849998
31
0
39
0
210
0
220
0
230
1
0
LINE
5
190
100
AcDbEntity
8
1
62
256
6
ByLayer
370
18
48
1
60
1
100
AcDbLine
10
55.139216
20
2.849998
30
0
11
55.6
21
6.35
31
0
39
0
210
0
220
0
230
1
0
LINE
5
192
100
AcDbEntity
8
1
62
256
6
ByLayer
370
18
48
1
60
1
100
AcDbLine
10
55.6
20
-6.35
30
0
11
55.139216
21
-2.850002
31
0
39
0
210
0
220
0
230
1
0
LINE
5
193
100
AcDbEntity
8
1
62
256
6
ByLayer
370
18
48
1
60
1
100
AcDbLine
10
55.139216
20
-2.850002
30
0
11
56.060784
21
-2.849998
31
0
39
0
210
0
220
0
230
1
0
LINE
5
194
100
AcDbEntity
8
1
62
256
6
ByLayer
370
18
48
1
60
1
100
AcDbLine
10
56.060784
20
-2.849998
30
0
11
55.6
21
-6.35
31
0
39
0
210
0
220
0
230
1
0
LINE
5
197
100
AcDbEntity
8
1
62
256
6
ByLayer
370
18
48
1
60
1
100
AcDbLine
10
-45.3
20
-52.481683
30
0
11
-41.800002
21
-52.020899
31
0
39
0
210
0
220
0
230
1
0
LINE
5
198
100
AcDbEntity
8
1
62
256
6
ByLayer
370
18
48
1
60
1
100
AcDbLine
10
-41.800002
20
-52.020899
30
0
11
-41.799998
21
-52.942467
31
0
39
0
210
0
220
0
230
1
0
LINE
5
199
100
AcDbEntity
8
1
62
256
6
ByLayer
370
18
48
1
60
1
100
AcDbLine
10
-41.799998
20
-52.942467
30
0
11
-45.3
21
-52.481683
31
0
39
0
210
0
220
0
230
1
0
LINE
5
19B
100
AcDbEntity
8
1
62
256
6
ByLayer
370
18
48
1
60
1
100
AcDbLine
10
43.6
20
-52.481683
30
0
11
40.100002
21
-52.942467
31
0
39
0
210
0
220
0
230
1
0
LINE
5
19C
100
AcDbEntity
8
1
62
256
6
ByLayer
370
18
48
1
60
1
100
AcDbLine
10
40.100002
20
-52.942467
30
0
11
40.099998
21
-52.020899
31
0
39
0
210
0
220
0
230
1
0
LINE
5
19D
100
AcDbEntity
8
1
62
256
6
ByLayer
370
18
48
1
60
1
100
AcDbLine
10
40.099998
20
-52.020899
30
0
11
43.6
21
-52.481683
31
0
39
0
210
0
220
0
230
1
0
MTEXT
5
176
100
AcDbEntity
8
SK2
62
256
6
ByLayer
370
18
48
1
60
0
100
AcDbMText
10
-54.314634
20
-26.504688
30
0
210
0
220
0
230
1
1
%%c
40
3.5
41
0
44
1.084337
50
90
71
7
72
5
7
iso_b_vert
0
MTEXT
5
179
100
AcDbEntity
8
SK2
62
256
6
ByLayer
370
18
48
1
60
0
100
AcDbMText
10
-54.314634
20
-19.532032
30
0
210
0
220
0
230
1
1
\W0.6563;12.7
40
3.5
41
0
44
1.084337
50
90
71
7
72
5
7
iso_b_vert
0
MTEXT
5
182
100
AcDbEntity
8
SK2
62
256
6
ByLayer
370
18
48
1
60
0
100
AcDbMText
10
10.537433
20
17.969844
30
0
210
0
220
0
230
1
1
%%c
40
3.5
41
0
44
1.084337
50
90
71
7
72
5
7
iso_b_vert
0
MTEXT
5
183
100
AcDbEntity
8
SK2
62
256
6
ByLayer
370
18
48
1
60
0
100
AcDbMText
10
10.537433
20
24.9425
30
0
210
0
220
0
230
1
1
\W0.6864;12.07
40
3.5
41
0
44
1.084337
50
90
71
7
72
5
7
iso_b_vert
0
MTEXT
5
18C
100
AcDbEntity
8
2
62
256
6
ByLayer
370
18
48
1
60
0
100
AcDbMText
10
54.035366
20
14.284844
30
0
210
0
220
0
230
1
1
%%c
40
3.5
41
0
44
1.084337
50
90
71
7
72
5
7
iso_b_vert
0
MTEXT
5
18D
100
AcDbEntity
8
2
62
256
6
ByLayer
370
18
48
1
60
0
100
AcDbMText
10
54.035366
20
21.2575
30
0
210
0
220
0
230
1
1
\W0.6563;12.7
40
3.5
41
0
44
1.084337
50
90
71
7
72
5
7
iso_b_vert
0
MTEXT
5
196
100
AcDbEntity
8
SK2
62
256
6
ByLayer
370
18
48
1
60
0
100
AcDbMText
10
-4.771699
20
-51.44905
30
0
210
0
220
0
230
1
1
\W0.7457;88.9
40
3.5
41
0
44
1.084337
50
0
71
7
72
5
7
iso_b_vert
0
MTEXT
5
19F
100
AcDbEntity
8
SK6
62
256
6
ByLayer
370
18
48
1
60
0
100
AcDbMText
10
-25.792073
20
-62.114644
30
0
210
0
220
0
230
1
1
\W0.7384;2F342-1270-038-PD   P2BM
40
3
41
0
44
1.084337
50
0
71
7
72
5
7
iso_b_vert
0
HATCH
5
17D
100
AcDbEntity
8
SK2
62
256
6
ByLayer
370
13
48
1
60
0
100
AcDbHatch
10
0
20
0
30
0
210
0
220
0
230
1
2
ANSI31
70
0
71
0
91
1
92
5
93
3
72
1
10
-52.75
20
6.34999999999999
11
-52.2892162584472
21
2.85000169255318
72
1
10
-52.2892162584472
20
2.85000169255318
11
-53.2107837415528
21
2.84999830744681
72
1
10
-53.2107837415528
20
2.84999830744681
11
-52.75
21
6.34999999999999
97
0
75
0
76
1
52
0
41
0.0062
77
0
78
1
53
45
43
0
44
0
45
-0.0139193969876572
46
0.0139193969876572
79
0
47
0
98
1
10
0
20
0
0
HATCH
5
181
100
AcDbEntity
8
SK2
62
256
6
ByLayer
370
13
48
1
60
0
100
AcDbHatch
10
0
20
0
30
0
210
0
220
0
230
1
2
ANSI31
70
0
71
0
91
1
92
5
93
3
72
1
10
-52.75
20
-6.35000000000002
11
-53.2107837415528
21
-2.85000169255321
72
1
10
-53.2107837415528
20
-2.85000169255321
11
-52.2892162584472
21
-2.84999830744684
72
1
10
-52.2892162584472
20
-2.84999830744684
11
-52.75
21
-6.35000000000002
97
0
75
0
76
1
52
0
41
0.0062
77
0
78
1
53
45
43
0
44
0
45
-0.0139193969876572
46
0.0139193969876572
79
0
47
0
98
1
10
0
20
0
0
HATCH
5
187
100
AcDbEntity
8
SK2
62
256
6
ByLayer
370
13
48
1
60
0
100
AcDbHatch
10
0
20
0
30
0
210
0
220
0
230
1
2
ANSI31
70
0
71
0
91
1
92
5
93
3
72
1
10
12.1020668626728
20
6.03499999999997
11
12.5628506042255
21
2.53500169255315
72
1
10
12.5628506042255
20
2.53500169255315
11
11.64128312112
21
2.53499830744678
72
1
10
11.64128312112
20
2.53499830744678
11
12.1020668626728
21
6.03499999999997
97
0
75
0
76
1
52
0
41
0.0062
77
0
78
1
53
45
43
0
44
0
45
-0.0139193969876572
46
0.0139193969876572
79
0
47
0
98
1
10
0
20
0
0
HATCH
5
18B
100
AcDbEntity
8
SK2
62
256
6
ByLayer
370
13
48
1
60
0
100
AcDbHatch
10
0
20
0
30
0
210
0
220
0
230
1
2
ANSI31
70
0
71
0
91
1
92
5
93
3
72
1
10
12.1020668626728
20
-6.03500000000003
11
11.64128312112
21
-2.53500169255321
72
1
10
11.64128312112
20
-2.53500169255321
11
12.5628506042255
21
-2.53499830744684
72
1
10
12.5628506042255
20
-2.53499830744684
11
12.1020668626728
21
-6.03500000000003
97
0
75
0
76
1
52
0
41
0.0062
77
0
78
1
53
45
43
0
44
0
45
-0.0139193969876572
46
0.0139193969876572
79
0
47
0
98
1
10
0
20
0
0
HATCH
5
191
100
AcDbEntity
8
2
62
256
6
ByLayer
370
13
48
1
60
0
100
AcDbHatch
10
0
20
0
30
0
210
0
220
0
230
1
2
ANSI31
70
0
71
0
91
1
92
5
93
3
72
1
10
55.6
20
6.34999999999985
11
56.0607837415528
21
2.85000169255304
72
1
10
56.0607837415528
20
2.85000169255304
11
55.1392162584472
21
2.84999830744667
72
1
10
55.1392162584472
20
2.84999830744667
11
55.6
21
6.34999999999985
97
0
75
0
76
1
52
0
41
0.0062
77
0
78
1
53
45
43
0
44
0
45
-0.0139193969876572
46
0.0139193969876572
79
0
47
0
98
1
10
0
20
0
0
HATCH
5
195
100
AcDbEntity
8
2
62
256
6
ByLayer
370
13
48
1
60
0
100
AcDbHatch
10
0
20
0
30
0
210
0
220
0
230
1
2
ANSI31
70
0
71
0
91
1
92
5
93
3
72
1
10
55.6
20
-6.35000000000016
11
55.1392162584472
21
-2.85000169255335
72
1
10
55.1392162584472
20
-2.85000169255335
11
56.0607837415528
21
-2.84999830744698
72
1
10
56.0607837415528
20
-2.84999830744698
11
55.6
21
-6.35000000000016
97
0
75
0
76
1
52
0
41
0.0062
77
0
78
1
53
45
43
0
44
0
45
-0.0139193969876572
46
0.0139193969876572
79
0
47
0
98
1
10
0
20
0
0
HATCH
5
19A
100
AcDbEntity
8
SK2
62
256
6
ByLayer
370
13
48
1
60
0
100
AcDbHatch
10
0
20
0
30
0
210
0
220
0
230
1
2
ANSI31
70
0
71
0
91
1
92
5
93
3
72
1
10
-45.3
20
-52.4816830723125
11
-41.8000016925532
21
-52.0208993307597
72
1
10
-41.8000016925532
20
-52.0208993307597
11
-41.7999983074468
21
-52.9424668138652
72
1
10
-41.7999983074468
20
-52.9424668138652
11
-45.3
21
-52.4816830723125
97
0
75
0
76
1
52
0
41
0.0062
77
0
78
1
53
45
43
0
44
0
45
-0.0139193969876572
46
0.0139193969876572
79
0
47
0
98
1
10
0
20
0
0
HATCH
5
19E
100
AcDbEntity
8
SK2
62
256
6
ByLayer
370
13
48
1
60
0
100
AcDbHatch
10
0
20
0
30
0
210
0
220
0
230
1
2
ANSI31
70
0
71
0
91
1
92
5
93
3
72
1
10
43.6
20
-52.4816830723125
11
40.1000016925532
21
-52.9424668138652
72
1
10
40.1000016925532
20
-52.9424668138652
11
40.0999983074468
21
-52.0208993307597
72
1
10
40.0999983074468
20
-52.0208993307597
11
43.6
21
-52.4816830723125
97
0
75
0
76
1
52
0
41
0.0062
77
0
78
1
53
45
43
0
44
0
45
-0.0139193969876572
46
0.0139193969876572
79
0
47
0
98
1
10
0
20
0
0
DIMENSION
5
1A2
100
AcDbEntity
8
2
62
256
6
ByLayer
370
18
48
1
60
0
100
AcDbDimension
2
_U0
10
15.02
20
-20.481683
30
0
11
29.31
21
-20.481683
31
0
70
32
71
1
72
1
41
1
210
0
220
0
230
1
3
Standard
100
AcDbAlignedDimension
13
43.6
23
-6.35
33
0
14
15.02
24
-6.35
34
0
50
0
100
AcDbRotatedDimension
1001
ACAD
1000
DSTYLE
1002
{
1070
   371
1070
    13
1070
   372
1070
    13
1070
   170
1070
     0
1070
   144
1040
1.0
1070
   277
1070
     2
1070
   284
1070
     8
1070
   278
1070
    46
1070
   146
1040
1.0
1070
   345
1005
16
1070
   347
1005
16
1070
   346
1005
16
1070
   344
1005
0
1070
   343
1005
0
1070
   172
1070
     1
1070
    76
1070
     0
1070
    75
1070
     0
1070
   282
1070
     0
1070
   281
1070
     0
1070
    71
1070
     0
1070
    74
1070
     0
1070
   279
1070
     0
1070
   173
1070
     1
1070
   340
1005
177
1070
   271
1070
     2
1070
   272
1070
     2
1070
    77
1070
     1
1070
    73
1070
     1
1070
   171
1070
     3
1070
   274
1070
     4
1070
   177
1070
     2
1070
   176
1070
     2
1070
   178
1070
     2
1070
    78
1070
     8
1070
    48
1040
-0.1
1070
    41
1040
3.5
1070
   147
1040
1.75
1070
    42
1040
1.5875
1070
    44
1040
2.0
1070
   140
1040
3.5
1002
}
1001
ACAD_DSTYLE_DIM_LINETYPE
1070
   380
1005
16
1001
ACAD_DSTYLE_DIM_EXT1_LINETYPE
1070
   381
1005
16
1001
ACAD_DSTYLE_DIM_EXT2_LINETYPE
1070
   382
1005
16
0
DIMENSION
5
1BB
100
AcDbEntity
8
SK2
62
256
6
ByLayer
370
18
48
1
60
0
100
AcDbDimension
2
_U1
10
7.097679
20
-35.481683
30
0
11
25.348839
21
-35.481683
31
0
70
32
71
1
72
1
41
1
210
0
220
0
230
1
3
Standard
100
AcDbAlignedDimension
13
43.6
23
-6.35
33
0
14
7.097679
24
-6.035
34
0
50
0
100
AcDbRotatedDimension
1001
ACAD
1000
DSTYLE
1002
{
1070
   371
1070
    13
1070
   372
1070
    13
1070
   170
1070
     0
1070
   144
1040
1.0
1070
   277
1070
     2
1070
   284
1070
     8
1070
   278
1070
    46
1070
   146
1040
1.0
1070
   345
1005
16
1070
   347
1005
16
1070
   346
1005
16
1070
   344
1005
0
1070
   343
1005
0
1070
   172
1070
     1
1070
    76
1070
     0
1070
    75
1070
     0
1070
   282
1070
     0
1070
   281
1070
     0
1070
    71
1070
     0
1070
    74
1070
     0
1070
   279
1070
     0
1070
   173
1070
     1
1070
   340
1005
177
1070
   271
1070
     2
1070
   272
1070
     2
1070
    77
1070
     1
1070
    73
1070
     1
1070
   171
1070
     3
1070
   274
1070
     4
1070
   177
1070
     2
1070
   176
1070
     2
1070
   178
1070
     2
1070
    78
1070
     8
1070
    48
1040
-0.1
1070
    41
1040
3.5
1070
   147
1040
1.75
1070
    42
1040
1.5875
1070
    44
1040
2.0
1070
   140
1040
3.5
1002
}
1001
ACAD_DSTYLE_DIM_LINETYPE
1070
   380
1005
16
1001
ACAD_DSTYLE_DIM_EXT1_LINETYPE
1070
   381
1005
16
1001
ACAD_DSTYLE_DIM_EXT2_LINETYPE
1070
   382
1005
16
0
ENDSEC
0
SECTION
2
OBJECTS
0
DICTIONARY
5
243
330
0
100
AcDbDictionary
280
0
281
1
3
ACAD_GROUP
350
244
3
ACAD_MLINESTYLE
350
245
0
DICTIONARY
5
244
330
0
100
AcDbDictionary
280
0
281
1
0
DICTIONARY
5
245
330
0
100
AcDbDictionary
280
0
281
1
3
Standard
350
18
0
MLINESTYLE
5
18
330
245
100
AcDbMlineStyle
2
Standard
70
0
3

62
256
51
90
52
90
71
2
49
-0.5
62
256
6
ByLayer
49
0.5
62
256
6
ByLayer
0
RASTERVARIABLES
5
231
330

100
AcDbRasterVariables
90
0
70
1
71
1
72
1
0
ENDSEC
0
EOF
