0
SECTION
2
HEADER
9
$ACADVER
1
AC1015
9
$DWGCODEPAGE
3
ANSI_1252
9
$HANDSEED
5
29d
9
$ANGBASE
50
0
9
$ANGDIR
70
0
9
$ATTMODE
70
1
9
$AUNITS
70
0
9
$AUPREC
70
0
9
$CECOLOR
62
256
9
$CELTSCALE
40
1
9
$CELTYPE
6
ByLayer
9
$CELWEIGHT
370
18
9
$CLAYER
8
0
9
$CMLJUST
70
0
9
$CMLSCALE
40
1
9
$CMLSTYLE
2
Standard
9
$DIMSTYLE
2
Standard
9
$TEXTSIZE
40
0.2
9
$TEXTSTYLE
7
Standard
9
$LUNITS
70
2
9
$LUPREC
70
4
9
$EXTNAMES
290
1
9
$INSUNITS
70
4
9
$LTSCALE
40
1
9
$LWDISPLAY
290
1
9
$PDMODE
70
0
9
$PDSIZE
40
0
9
$PLINEGEN
70
0
0
ENDSEC
0
SECTION
2
CLASSES
0
CLASS
1
RASTERVARIABLES
2
AcDbRasterVariables
3
ISM
90
0
280
0
281
0
0
ENDSEC
0
SECTION
2
TABLES
0
TABLE
2
VPORT
5
293
100
AcDbSymbolTable
0
VPORT
5
1
100
AcDbSymbolTableRecord
100
AcDbViewportTableRecord
2
*Active
70
0
10
0
20
0
11
1
21
1
12
-1
22
1
13
0
23
0
14
0.5
24
0.5
15
10
25
10
16
0
26
0
36
1
17
0
27
0
37
0
0
ENDTAB
0
TABLE
2
LTYPE
5
294
100
AcDbSymbolTable
0
LTYPE
5
14
100
AcDbSymbolTableRecord
100
AcDbLinetypeTableRecord
70
0
2
ByBlock
3

72
65
73
0
40
0
0
LTYPE
5
15
100
AcDbSymbolTableRecord
100
AcDbLinetypeTableRecord
70
0
2
ByLayer
3

72
65
73
0
40
0
0
LTYPE
5
16
100
AcDbSymbolTableRecord
100
AcDbLinetypeTableRecord
70
0
2
Continuous
3
Solid line
72
65
73
0
40
0
0
LTYPE
5
6E
100
AcDbSymbolTableRecord
100
AcDbLinetypeTableRecord
70
0
2
CENTER
3
____ _ ____ _ ____ _ ____
72
65
73
4
40
47.5
49
22
74
0
49
-8.5
74
0
49
8.5
74
0
49
-8.5
74
0
0
LTYPE
5
6F
100
AcDbSymbolTableRecord
100
AcDbLinetypeTableRecord
70
0
2
DASHED
3
__ __ __ __ __ __ __ __ __
72
65
73
2
40
25.72
49
12.86
74
0
49
-12.86
74
0
0
ENDTAB
0
TABLE
2
LAYER
5
295
100
AcDbSymbolTable
0
LAYER
5
10
100
AcDbSymbolTableRecord
100
AcDbLayerTableRecord
2
0
70
0
62
7
6
Continuous
290
1
370
-3
390
0
0
LAYER
5
71
100
AcDbSymbolTableRecord
100
AcDbLayerTableRecord
2
81
70
0
62
-3
6
Continuous
290
1
370
-3
390
0
0
LAYER
5
73
100
AcDbSymbolTableRecord
100
AcDbLayerTableRecord
2
80
70
0
62
-6
6
Continuous
290
1
370
-3
390
0
0
LAYER
5
75
100
AcDbSymbolTableRecord
100
AcDbLayerTableRecord
2
1
70
0
62
4
6
Continuous
290
1
370
-3
390
0
0
LAYER
5
7B
100
AcDbSymbolTableRecord
100
AcDbLayerTableRecord
2
4
70
0
62
-2
6
CENTER
290
1
370
-3
390
0
0
LAYER
5
D7
100
AcDbSymbolTableRecord
100
AcDbLayerTableRecord
2
2
70
0
62
7
6
Continuous
290
1
370
-3
390
0
0
LAYER
5
1F2
100
AcDbSymbolTableRecord
100
AcDbLayerTableRecord
2
Defpoints
70
0
62
7
6
Continuous
290
0
370
-3
390
0
0
LAYER
5
27f
100
AcDbSymbolTableRecord
100
AcDbLayerTableRecord
2
SK4
70
0
62
2
6
CENTER
290
1
370
-3
390
0
0
LAYER
5
280
100
AcDbSymbolTableRecord
100
AcDbLayerTableRecord
2
SK1
70
0
62
4
6
Continuous
290
1
370
-3
390
0
0
LAYER
5
281
100
AcDbSymbolTableRecord
100
AcDbLayerTableRecord
2
SK2
70
0
62
7
6
Continuous
290
1
370
-3
390
0
0
LAYER
5
282
100
AcDbSymbolTableRecord
100
AcDbLayerTableRecord
2
SK6
70
0
62
5
6
Continuous
290
1
370
-3
390
0
0
ENDTAB
0
TABLE
2
STYLE
5
296
100
AcDbSymbolTable
0
STYLE
5
11
100
AcDbSymbolTableRecord
100
AcDbTextStyleTableRecord
2
Standard
3
txt
70
0
71
0
40
0
41
1
42
0
50
0
0
STYLE
5
1C4
100
AcDbSymbolTableRecord
100
AcDbTextStyleTableRecord
2
iso_b_vert
3
simplex.shx
70
0
71
0
40
0
41
1
42
0
50
0
0
STYLE
5
1C5
100
AcDbSymbolTableRecord
100
AcDbTextStyleTableRecord
2
DWGDirectTextStyle
3
simplex
70
0
71
0
40
0
41
1
42
0
50
0
0
ENDTAB
0
TABLE
2
DIMSTYLE
5
297
100
AcDbSymbolTable
100
AcDbDimStyleTable
0
DIMSTYLE
105
27
100
AcDbSymbolTableRecord
100
AcDbDimStyleTableRecord
2
Standard
70
0
3
<>
41
0.18
42
0.0625
44
0.18
140
0.18
147
0.09
73
0
74
0
77
1
271
2
275
0
278
52
280
0
340
11
0
ENDTAB
0
TABLE
2
VIEW
5
298
100
AcDbSymbolTable
0
ENDTAB
0
TABLE
2
UCS
5
299
100
AcDbSymbolTable
0
ENDTAB
0
TABLE
2
APPID
5
29a
100
AcDbSymbolTable
0
APPID
5
12
100
AcDbSymbolTableRecord
100
AcDbRegAppTableRecord
2
ACAD
70
0
0
APPID
5
1EE
100
AcDbSymbolTableRecord
100
AcDbRegAppTableRecord
2
ACAD_DSTYLE_DIMBREAK
70
0
0
APPID
5
23E
100
AcDbSymbolTableRecord
100
AcDbRegAppTableRecord
2
ACAD_DSTYLE_DIM_LINETYPE
70
0
0
APPID
5
23F
100
AcDbSymbolTableRecord
100
AcDbRegAppTableRecord
2
ACAD_DSTYLE_DIM_EXT1_LINETYPE
70
0
0
APPID
5
240
100
AcDbSymbolTableRecord
100
AcDbRegAppTableRecord
2
ACAD_DSTYLE_DIM_EXT2_LINETYPE
70
0
0
APPID
5
27B
100
AcDbSymbolTableRecord
100
AcDbRegAppTableRecord
2
ACAD_MLEADERVER
70
0
0
ENDTAB
0
TABLE
2
BLOCK_RECORD
5
29b
100
AcDbSymbolTable
0
BLOCK_RECORD
5
1F
100
AcDbSymbolTableRecord
100
AcDbBlockTableRecord
2
*Model_Space
340
0
70
0
0
BLOCK_RECORD
5
1B
100
AcDbSymbolTableRecord
100
AcDbBlockTableRecord
2
*Paper_Space
340
0
70
0
0
BLOCK_RECORD
5
23
100
AcDbSymbolTableRecord
100
AcDbBlockTableRecord
2
*Paper_Space0
340
0
70
0
0
BLOCK_RECORD
5
1F3
100
AcDbSymbolTableRecord
100
AcDbBlockTableRecord
2
*D1
340
0
70
0
0
BLOCK_RECORD
5
1FF
100
AcDbSymbolTableRecord
100
AcDbBlockTableRecord
2
_U0
340
0
70
0
0
BLOCK_RECORD
5
20B
100
AcDbSymbolTableRecord
100
AcDbBlockTableRecord
2
*D3
340
0
70
0
0
BLOCK_RECORD
5
217
100
AcDbSymbolTableRecord
100
AcDbBlockTableRecord
2
_U1
340
0
70
0
0
ENDTAB
0
ENDSEC
0
SECTION
2
BLOCKS
0
BLOCK
5
20
100
AcDbEntity
8
0
100
AcDbBlockBegin
2
*Model_Space
70
0
10
0
20
0
30
0
3
*Model_Space
0
ENDBLK
5
21
100
AcDbEntity
8
0
100
AcDbBlockEnd
0
BLOCK
5
1C
100
AcDbEntity
8
0
100
AcDbBlockBegin
2
*Paper_Space
70
0
10
0
20
0
30
0
3
*Paper_Space
0
ENDBLK
5
1D
100
AcDbEntity
8
0
100
AcDbBlockEnd
0
BLOCK
5
24
100
AcDbEntity
8
0
100
AcDbBlockBegin
2
*Paper_Space0
70
0
10
0
20
0
30
0
3
*Paper_Space0
0
ENDBLK
5
25
100
AcDbEntity
8
0
100
AcDbBlockEnd
0
BLOCK
5
1F4
100
AcDbEntity
8
0
100
AcDbBlockBegin
2
*D1
70
1
10
0
20
0
30
0
3
*D1
0
LINE
5
1F6
100
AcDbEntity
8
0
62
256
6
ByLayer
370
-2
48
1
60
0
100
AcDbLine
10
49.2
20
-7.14375
30
0
11
49.2
21
-21.715123
31
0
39
0
210
0
220
0
230
1
0
LINE
5
1F7
100
AcDbEntity
8
0
62
256
6
ByLayer
370
-2
48
1
60
0
100
AcDbLine
10
23.8
20
-7.14375
30
0
11
23.8
21
-21.715123
31
0
39
0
210
0
220
0
230
1
0
LINE
5
1F8
100
AcDbEntity
8
0
62
256
6
ByLayer
370
-2
48
1
60
0
100
AcDbLine
10
45.7
20
-19.715123
30
0
11
27.3
21
-19.715123
31
0
39
0
210
0
220
0
230
1
0
SOLID
5
1F9
100
AcDbEntity
8
0
62
256
6
ByLayer
370
-1
48
1
60
0
100
AcDbTrace
10
45.7
20
-20.298457
30
0
11
45.7
21
-19.13179
31
0
12
49.2
22
-19.715123
32
0
13
49.2
23
-19.715123
33
0
39
0
210
0
220
0
230
1
0
SOLID
5
1FA
100
AcDbEntity
8
0
62
256
6
ByLayer
370
-1
48
1
60
0
100
AcDbTrace
10
27.3
20
-19.13179
30
0
11
27.3
21
-20.298457
31
0
12
23.8
22
-19.715123
32
0
13
23.8
23
-19.715123
33
0
39
0
210
0
220
0
230
1
0
MTEXT
5
1FB
100
AcDbEntity
8
0
62
256
6
ByLayer
370
18
48
1
60
0
100
AcDbMText
10
36.5
20
-12.715123
30
0
210
0
220
0
230
1
1
\A1;25.4
40
3.5
41
0
44
1
50
0
71
5
72
5
7
iso_b_vert
0
POINT
5
1FC
100
AcDbEntity
8
Defpoints
62
0
6
ByLayer
370
-1
48
1
60
0
100
AcDbPoint
10
49.2
20
-5.55625
30
0
39
0
210
0
220
0
230
1
50
360
0
POINT
5
1FD
100
AcDbEntity
8
Defpoints
62
0
6
ByLayer
370
-1
48
1
60
0
100
AcDbPoint
10
23.8
20
-5.55625
30
0
39
0
210
0
220
0
230
1
50
360
0
POINT
5
1FE
100
AcDbEntity
8
Defpoints
62
0
6
ByLayer
370
-1
48
1
60
0
100
AcDbPoint
10
23.8
20
-19.715123
30
0
39
0
210
0
220
0
230
1
50
360
0
ENDBLK
5
1F5
100
AcDbEntity
8
0
100
AcDbBlockEnd
0
BLOCK
5
206
100
AcDbEntity
8
0
100
AcDbBlockBegin
2
_U0
70
0
10
0
20
0
30
0
3
_U0
0
MTEXT
5
200
100
AcDbEntity
8
2
62
256
6
ByLayer
370
18
48
1
60
0
100
AcDbMText
10
32.394034
20
-18.68249
30
0
210
0
220
0
230
1
1
\W0.7528;25.4
40
3.5
41
0
44
1.084337
50
0
71
7
72
5
7
iso_b_vert
0
LINE
5
201
100
AcDbEntity
8
2
62
256
6
ByLayer
370
13
48
1
60
0
100
AcDbLine
10
49.2
20
-7.14375
30
0
11
49.2
21
-21.715123
31
0
39
0
210
0
220
0
230
1
0
LINE
5
202
100
AcDbEntity
8
2
62
256
6
ByLayer
370
13
48
1
60
0
100
AcDbLine
10
23.8
20
-7.14375
30
0
11
23.8
21
-21.715123
31
0
39
0
210
0
220
0
230
1
0
LINE
5
203
100
AcDbEntity
8
2
62
256
6
ByLayer
370
13
48
1
60
0
100
AcDbLine
10
49.2
20
-19.715123
30
0
11
23.8
21
-19.715123
31
0
39
0
210
0
220
0
230
1
0
SOLID
5
204
100
AcDbEntity
8
2
62
256
6
ByLayer
370
18
48
1
60
0
100
AcDbTrace
10
49.2
20
-19.715123
30
0
11
45.700002
21
-20.175907
31
0
12
45.699998
22
-19.25434
32
0
13
45.699998
23
-19.25434
33
0
39
0
210
0
220
0
230
1
0
SOLID
5
205
100
AcDbEntity
8
2
62
256
6
ByLayer
370
18
48
1
60
0
100
AcDbTrace
10
23.8
20
-19.715123
30
0
11
27.299998
21
-19.25434
31
0
12
27.300002
22
-20.175907
32
0
13
27.300002
23
-20.175907
33
0
39
0
210
0
220
0
230
1
0
ENDBLK
5
207
100
AcDbEntity
8
0
100
AcDbBlockEnd
0
BLOCK
5
20C
100
AcDbEntity
8
0
100
AcDbBlockBegin
2
*D3
70
1
10
0
20
0
30
0
3
*D3
0
LINE
5
20E
100
AcDbEntity
8
0
62
256
6
ByLayer
370
-2
48
1
60
0
100
AcDbLine
10
49.2
20
-7.14375
30
0
11
49.2
21
-36.715123
31
0
39
0
210
0
220
0
230
1
0
LINE
5
20F
100
AcDbEntity
8
0
62
256
6
ByLayer
370
-2
48
1
60
0
100
AcDbLine
10
12.697679
20
-6.8725
30
0
11
12.697679
21
-36.715123
31
0
39
0
210
0
220
0
230
1
0
LINE
5
210
100
AcDbEntity
8
0
62
256
6
ByLayer
370
-2
48
1
60
0
100
AcDbLine
10
45.7
20
-34.715123
30
0
11
16.197679
21
-34.715123
31
0
39
0
210
0
220
0
230
1
0
SOLID
5
211
100
AcDbEntity
8
0
62
256
6
ByLayer
370
-1
48
1
60
0
100
AcDbTrace
10
45.7
20
-35.298457
30
0
11
45.7
21
-34.13179
31
0
12
49.2
22
-34.715123
32
0
13
49.2
23
-34.715123
33
0
39
0
210
0
220
0
230
1
0
SOLID
5
212
100
AcDbEntity
8
0
62
256
6
ByLayer
370
-1
48
1
60
0
100
AcDbTrace
10
16.197679
20
-34.13179
30
0
11
16.197679
21
-35.298457
31
0
12
12.697679
22
-34.715123
32
0
13
12.697679
23
-34.715123
33
0
39
0
210
0
220
0
230
1
0
MTEXT
5
213
100
AcDbEntity
8
0
62
256
6
ByLayer
370
18
48
1
60
0
100
AcDbMText
10
30.948839
20
-27.715123
30
0
210
0
220
0
230
1
1
\A1;36.5
40
3.5
41
0
44
1
50
0
71
5
72
5
7
iso_b_vert
0
POINT
5
214
100
AcDbEntity
8
Defpoints
62
0
6
ByLayer
370
-1
48
1
60
0
100
AcDbPoint
10
49.2
20
-5.55625
30
0
39
0
210
0
220
0
230
1
50
360
0
POINT
5
215
100
AcDbEntity
8
Defpoints
62
0
6
ByLayer
370
-1
48
1
60
0
100
AcDbPoint
10
12.697679
20
-5.285
30
0
39
0
210
0
220
0
230
1
50
360
0
POINT
5
216
100
AcDbEntity
8
Defpoints
62
0
6
ByLayer
370
-1
48
1
60
0
100
AcDbPoint
10
12.697679
20
-34.715123
30
0
39
0
210
0
220
0
230
1
50
360
0
ENDBLK
5
20D
100
AcDbEntity
8
0
100
AcDbBlockEnd
0
BLOCK
5
21E
100
AcDbEntity
8
0
100
AcDbBlockBegin
2
_U1
70
0
10
0
20
0
30
0
3
_U1
0
MTEXT
5
218
100
AcDbEntity
8
SK2
62
256
6
ByLayer
370
18
48
1
60
0
100
AcDbMText
10
27.02714
20
-33.68249
30
0
210
0
220
0
230
1
1
\W0.7346;36.5
40
3.5
41
0
44
1.084337
50
0
71
7
72
5
7
iso_b_vert
0
LINE
5
219
100
AcDbEntity
8
SK2
62
256
6
ByLayer
370
13
48
1
60
0
100
AcDbLine
10
49.2
20
-7.14375
30
0
11
49.2
21
-36.715123
31
0
39
0
210
0
220
0
230
1
0
LINE
5
21A
100
AcDbEntity
8
SK2
62
256
6
ByLayer
370
13
48
1
60
0
100
AcDbLine
10
12.697679
20
-6.8725
30
0
11
12.697679
21
-36.715123
31
0
39
0
210
0
220
0
230
1
0
LINE
5
21B
100
AcDbEntity
8
SK2
62
256
6
ByLayer
370
13
48
1
60
0
100
AcDbLine
10
49.2
20
-34.715123
30
0
11
12.697679
21
-34.715123
31
0
39
0
210
0
220
0
230
1
0
SOLID
5
21C
100
AcDbEntity
8
SK2
62
256
6
ByLayer
370
18
48
1
60
0
100
AcDbTrace
10
49.2
20
-34.715123
30
0
11
45.700002
21
-35.175907
31
0
12
45.699998
22
-34.25434
32
0
13
45.699998
23
-34.25434
33
0
39
0
210
0
220
0
230
1
0
SOLID
5
21D
100
AcDbEntity
8
SK2
62
256
6
ByLayer
370
18
48
1
60
0
100
AcDbTrace
10
12.697679
20
-34.715123
30
0
11
16.197677
21
-34.25434
31
0
12
16.197681
22
-35.175907
32
0
13
16.197681
23
-35.175907
33
0
39
0
210
0
220
0
230
1
0
ENDBLK
5
21F
100
AcDbEntity
8
0
100
AcDbBlockEnd
0
ENDSEC
0
SECTION
2
ENTITIES
0
ARC
5
E9
100
AcDbEntity
8
1
62
256
6
ByLayer
370
18
48
1
60
0
100
AcDbCircle
39
0
10
12.697679
20
6.285
30
0
40
1
210
0
220
0
230
1
100
AcDbArc
50
240
51
270
0
ARC
5
EA
100
AcDbEntity
8
1
62
256
6
ByLayer
370
18
48
1
60
0
100
AcDbCircle
39
0
10
12.697679
20
-6.285
30
0
40
1
210
0
220
0
230
1
100
AcDbArc
50
90
51
120
0
ELLIPSE
5
EB
100
AcDbEntity
8
1
62
256
6
ByLayer
370
18
48
1
60
0
100
AcDbEllipse
10
48.827503
20
-0.678365
30
0
11
1.1183952326243
21
2.51949283422033
31
0
210
0
220
0
230
1
40
0.321037
41
1.29832902406362
42
1.33737407778555
0
ELLIPSE
5
EC
100
AcDbEntity
8
1
62
256
6
ByLayer
370
18
48
1
60
0
100
AcDbEllipse
10
49.210264
20
0.265361
30
0
11
0.95372217632419
21
0.593149105979298
31
0
210
0
220
0
230
1
40
0.654795
41
-3.1414133430108
42
-2.97800335065299
0
ELLIPSE
5
ED
100
AcDbEntity
8
1
62
256
6
ByLayer
370
18
48
1
60
0
100
AcDbEllipse
10
48.790628
20
1.095507
30
0
11
0.547501730409591
21
0.703051930011797
31
0
210
0
220
0
230
1
40
0.639396
41
-2.75355700269809
42
-2.27686324174239
0
ELLIPSE
5
EE
100
AcDbEntity
8
1
62
256
6
ByLayer
370
18
48
1
60
0
100
AcDbEllipse
10
48.710097
20
1.633648
30
0
11
1.38880987195103
21
-4.28308696587987
31
0
210
0
220
0
230
1
40
0.194885
41
-1.29005246202085
42
-1.25949546580382
0
ELLIPSE
5
EF
100
AcDbEntity
8
1
62
256
6
ByLayer
370
18
48
1
60
0
100
AcDbEllipse
10
48.684206
20
1.705177
30
0
11
0.406020112582395
21
-3.74338809011287
31
0
210
0
220
0
230
1
40
0.015742
41
-0.515008747370455
42
-0.490289135173018
0
ELLIPSE
5
F0
100
AcDbEntity
8
1
62
256
6
ByLayer
370
18
48
1
60
0
100
AcDbEllipse
10
49.210264
20
-0.674941
30
0
11
0.83440723924419
21
-0.779522860957224
31
0
210
0
220
0
230
1
40
0.774177
41
-3.08109821975915
42
-2.90233891522131
0
ELLIPSE
5
F1
100
AcDbEntity
8
1
62
256
6
ByLayer
370
18
48
1
60
0
100
AcDbEllipse
10
48.789522
20
-0.164097
30
0
11
0.0830291805572356
21
1.04937717635104
31
0
210
0
220
0
230
1
40
0.66769
41
0.161088555577281
42
0.659090733107813
0
ELLIPSE
5
127
100
AcDbEntity
8
1
62
256
6
ByLayer
370
18
48
1
60
0
100
AcDbEllipse
10
49.527562
20
-1.060187
30
0
11
1.1840122056577
21
-1.74802482752079
31
0
210
0
220
0
230
1
40
0.41237
41
-2.18892787546852
42
-2.11280606658272
0
ELLIPSE
5
128
100
AcDbEntity
8
1
62
256
6
ByLayer
370
13
48
1
60
0
100
AcDbEllipse
10
22.403229
20
69.222227
30
0
11
28.5064233164376
21
-66.3378707601782
31
0
210
0
220
0
230
1
40
0.664442
41
-0.568252697069496
42
-0.560763156828112
0
ELLIPSE
5
129
100
AcDbEntity
8
1
62
256
6
ByLayer
370
18
48
1
60
0
100
AcDbEllipse
10
21.01789
20
-74.091533
30
0
11
15.2504428635285
21
-68.9614904888274
31
0
210
0
220
0
230
1
40
0.710974
41
2.85548894886288
42
2.89506163697536
0
ELLIPSE
5
12A
100
AcDbEntity
8
1
62
256
6
ByLayer
370
13
48
1
60
0
100
AcDbEllipse
10
22.403229
20
-73.785173
30
0
11
15.5906906324504
21
-70.5000683183589
31
0
210
0
220
0
230
1
40
0.710974
41
2.88971012552255
42
2.91066904136287
0
ELLIPSE
5
12B
100
AcDbEntity
8
1
62
256
6
ByLayer
370
13
48
1
60
0
100
AcDbEllipse
10
22.403229
20
-11.307682
30
0
11
52.1885623191413
21
-49.8967256475929
31
0
210
0
220
0
230
1
40
0.113031
41
1.66513496377271
42
1.74908081510988
0
ELLIPSE
5
12C
100
AcDbEntity
8
1
62
256
6
ByLayer
370
18
48
1
60
0
100
AcDbEllipse
10
19.933732
20
0
30
0
11
4.77168696365399
21
-3.64103697695715
31
0
210
0
220
0
230
1
40
0.802793
41
-1.33735318734725
42
-0.970571045227841
0
ELLIPSE
5
12D
100
AcDbEntity
8
1
62
256
6
ByLayer
370
18
48
1
60
0
100
AcDbEllipse
10
19.933732
20
0
30
0
11
5.5806605167623
21
-5.26700469562862
31
0
210
0
220
0
230
1
40
0.078084
41
-1.81340267572023
42
-1.4989804112304
0
ELLIPSE
5
12E
100
AcDbEntity
8
1
62
256
6
ByLayer
370
18
48
1
60
0
100
AcDbEllipse
10
21.01789
20
-12.756652
30
0
11
51.0496107286725
21
-48.807790591517
31
0
210
0
220
0
230
1
40
0.113031
41
1.6992227629171
42
1.73347341072237
0
ELLIPSE
5
12F
100
AcDbEntity
8
1
62
256
6
ByLayer
370
18
48
1
60
0
100
AcDbEllipse
10
19.933732
20
0
30
0
11
4.87678710161475
21
-4.23792584223405
31
0
210
0
220
0
230
1
40
0.647501
41
1.98034736024228
42
2.39948937991989
0
POINT
5
70
100
AcDbEntity
8
81
62
256
6
ByLayer
370
18
48
1
60
0
100
AcDbPoint
10
49.2
20
0
30
0
39
0
210
0
220
0
230
1
50
360
0
POINT
5
72
100
AcDbEntity
8
80
62
256
6
ByLayer
370
18
48
1
60
0
100
AcDbPoint
10
0
20
0
30
0
39
0
210
0
220
0
230
1
50
360
0
POINT
5
74
100
AcDbEntity
8
1
62
256
6
ByLayer
370
18
48
1
60
1
100
AcDbPoint
10
49.2
20
-5.55625
30
0
39
0
210
0
220
0
230
1
50
360
0
POINT
5
76
100
AcDbEntity
8
1
62
256
6
ByLayer
370
18
48
1
60
1
100
AcDbPoint
10
23.8
20
-5.55625
30
0
39
0
210
0
220
0
230
1
50
360
0
POINT
5
77
100
AcDbEntity
8
1
62
256
6
ByLayer
370
18
48
1
60
1
100
AcDbPoint
10
49.2
20
-5.55625
30
0
39
0
210
0
220
0
230
1
50
360
0
POINT
5
78
100
AcDbEntity
8
1
62
256
6
ByLayer
370
18
48
1
60
1
100
AcDbPoint
10
12.697679
20
-5.285
30
0
39
0
210
0
220
0
230
1
50
360
0
SPLINE
5
130
100
AcDbEntity
8
1
62
256
6
ByLayer
370
18
48
1
60
0
100
AcDbSpline
70
4
71
3
72
8
73
4
40
0
40
0
40
0
40
0
40
1
40
1
40
1
40
1
41
1
10
49.045771938031
20
0.436256232302583
30
0
41
1
10
49.0834392078081
20
0.725573529476122
30
0
41
1
10
49.1211064775852
20
1.01489082664966
30
0
41
1
10
49.1587737473623
20
1.3042081238232
30
0
0
SPLINE
5
131
100
AcDbEntity
8
1
62
256
6
ByLayer
370
18
48
1
60
0
100
AcDbSpline
70
4
71
3
72
8
73
4
40
0
40
0
40
0
40
0
40
1
40
1
40
1
40
1
41
1
10
49.1514913689195
20
1.26298822627626
30
0
41
1
10
49.151201096354
20
1.26124092863012
30
0
41
1
10
49.1509063872115
20
1.25945906308166
30
0
41
1
10
49.1506071161294
20
1.2576416528598
30
0
0
SPLINE
5
132
100
AcDbEntity
8
1
62
256
6
ByLayer
370
18
48
1
60
0
100
AcDbSpline
70
4
71
3
72
12
73
8
40
0
40
0
40
0
40
0
40
0.263708592541191
40
0.263708592541191
40
0.527417185081482
40
0.527417185081482
40
1
40
1
40
1
40
1
41
1
10
49.0121278302052
20
0.4737569480628
30
0
41
1
10
49.0121498515407
20
0.473916956530076
30
0
41
1
10
49.0121718726546
20
0.474076965027848
30
0
41
1
10
49.0122159144387
20
0.474396982084443
30
0
41
1
10
49.0122379351089
20
0.474556990643265
30
0
41
1
10
49.0122994176215
20
0.475003744950129
30
0
41
1
10
49.0123388789729
20
0.47529049076573
30
0
41
1
10
49.0123783396103
20
0.475577236679584
30
0
0
SPLINE
5
133
100
AcDbEntity
8
1
62
256
6
ByLayer
370
18
48
1
60
0
100
AcDbSpline
70
4
71
3
72
8
73
4
40
0
40
0
40
0
40
0
40
1
40
1
40
1
40
1
41
1
10
49.1493091260861
20
1.25857410071956
30
0
41
1
10
49.1500767392829
20
1.26005259010918
30
0
41
1
10
49.150803868306
20
1.26152391481179
30
0
41
1
10
49.1514913689195
20
1.26298822627624
30
0
0
SPLINE
5
134
100
AcDbEntity
8
1
62
256
6
ByLayer
370
18
48
1
60
0
100
AcDbSpline
70
4
71
5
72
15
73
9
40
0
40
0
40
0
40
0
40
0
40
0
40
0.187304190036596
40
0.491951732112643
40
0.796378731409787
40
1
40
1
40
1
40
1
40
1
40
1
41
1
10
49.1587737473647
20
1.30420812384162
30
0
41
1
10
49.1588069199368
20
1.30774485235165
30
0
41
1
10
49.1582696417819
20
1.31692400005395
30
0
41
1
10
49.1547445899618
20
1.33129436506738
30
0
41
1
10
49.14498885464
20
1.3482434698839
30
0
41
1
10
49.1286152545249
20
1.36360346797241
30
0
41
1
10
49.1110905306889
20
1.37491568418167
30
0
41
1
10
49.0985339060348
20
1.38150371452011
30
0
41
1
10
49.0932475363501
20
1.38406488108092
30
0
0
SPLINE
5
135
100
AcDbEntity
8
1
62
256
6
ByLayer
370
18
48
1
60
0
100
AcDbSpline
70
4
71
3
72
12
73
8
40
0
40
0
40
0
40
0
40
0.421034607930467
40
0.421034607930467
40
0.71051729839929
40
0.71051729839929
40
1
40
1
40
1
40
1
41
1
10
49.010476100747
20
0.474238723420967
30
0
41
1
10
49.0107430064162
20
0.474426667527808
30
0
41
1
10
49.0110099389798
20
0.474614573446843
30
0
41
1
10
49.0114604465555
20
0.474931609843566
30
0
41
1
10
49.0116440074134
20
0.475060760441977
30
0
41
1
10
49.0120111544945
20
0.475319025591034
30
0
41
1
10
49.0121947407194
20
0.47544814014293
30
0
41
1
10
49.0123783396103
20
0.475577236679584
30
0
0
SPLINE
5
136
100
AcDbEntity
8
1
62
256
6
ByLayer
370
18
48
1
60
0
100
AcDbSpline
70
4
71
3
72
12
73
8
40
0
40
0
40
0
40
0
40
0.446087796142942
40
0.446087796142942
40
0.723043468779398
40
0.723043468779398
40
1
40
1
40
1
40
1
41
1
10
49.0121278302052
20
0.4737569480628
30
0
41
1
10
49.0118819990171
20
0.473827808625543
30
0
41
1
10
49.0116362672058
20
0.473899014871506
30
0
41
1
10
49.0112381359005
20
0.474014992527202
30
0
41
1
10
49.0110856739484
20
0.474059550653465
30
0
41
1
10
49.0107808283974
20
0.474148935442457
30
0
41
1
10
49.0106284446805
20
0.474193762140686
30
0
41
1
10
49.0104761007471
20
0.474238723420967
30
0
0
SPLINE
5
137
100
AcDbEntity
8
1
62
256
6
ByLayer
370
18
48
1
60
0
100
AcDbSpline
70
4
71
5
72
14
73
8
40
0
40
0
40
0
40
0
40
0
40
0
40
0.267186005174518
40
0.701760158256328
40
1
40
1
40
1
40
1
40
1
40
1
41
1
10
49.1587737473647
20
-4.1163081517131
30
0
41
1
10
49.1588069199367
20
-4.12647648199987
30
0
41
1
10
49.1582696417818
20
-4.15324665743915
30
0
41
1
10
49.1551666570487
20
-4.19157688157151
30
0
41
1
10
49.1487749670285
20
-4.22996176714119
30
0
41
1
10
49.1391266519355
20
-4.26811576159028
30
0
41
1
10
49.1303419339987
20
-4.29583972096339
30
0
41
1
10
49.1264855078669
20
-4.3070762745661
30
0
0
SPLINE
5
138
100
AcDbEntity
8
1
62
256
6
ByLayer
370
18
48
1
60
0
100
AcDbSpline
70
4
71
3
72
8
73
4
40
0
40
0
40
0
40
0
40
1
40
1
40
1
40
1
41
1
10
49.045771938031
20
-4.50544888423494
30
0
41
1
10
49.0834392078082
20
-4.37573530672998
30
0
41
1
10
49.1211064775855
20
-4.24602172922502
30
0
41
1
10
49.1587737473628
20
-4.11630815172009
30
0
0
SPLINE
5
139
100
AcDbEntity
8
1
62
256
6
ByLayer
370
18
48
1
60
0
100
AcDbSpline
70
4
71
3
72
8
73
4
40
0
40
0
40
0
40
0
40
1
40
1
40
1
40
1
41
1
10
49.151491368918
20
-4.00199637920434
30
0
41
1
10
49.1512010800556
20
-3.99842765253877
30
0
41
1
10
49.1509063702535
20
-3.99487905716401
30
0
41
1
10
49.1506071161294
20
-3.99135115491635
30
0
0
SPLINE
5
13A
100
AcDbEntity
8
1
62
256
6
ByLayer
370
18
48
1
60
0
100
AcDbSpline
70
4
71
3
72
8
73
4
40
0
40
0
40
0
40
0
40
1
40
1
40
1
40
1
41
1
10
49.1514913689195
20
4.63653752481699
30
0
41
1
10
49.1512010248148
20
4.6320241179113
30
0
41
1
10
49.1509063128032
20
4.6275100401989
30
0
41
1
10
49.1506071161294
20
4.6229952737489
30
0
0
SPLINE
5
13B
100
AcDbEntity
8
1
62
256
6
ByLayer
370
18
48
1
60
0
100
AcDbSpline
70
4
71
4
72
10
73
5
40
0
40
0
40
0
40
0
40
0
40
1
40
1
40
1
40
1
40
1
41
1
10
49.1506071161294
20
4.6229952737489
30
0
41
1
10
49.1502826186185
20
4.62295776060702
30
0
41
1
10
49.1499581211077
20
4.62292024746517
30
0
41
1
10
49.1496336235969
20
4.6228827343233
30
0
41
1
10
49.1493091260861
20
4.62284522118145
30
0
0
SPLINE
5
13C
100
AcDbEntity
8
1
62
256
6
ByLayer
370
18
48
1
60
0
100
AcDbSpline
70
4
71
3
72
8
73
4
40
0
40
0
40
0
40
0
40
1
40
1
40
1
40
1
41
1
10
49.1493091260861
20
4.62284522118145
30
0
41
1
10
49.1500767392829
20
4.62740980584738
30
0
41
1
10
49.150803868306
20
4.63197390362862
30
0
41
1
10
49.1514913689195
20
4.63653752481699
30
0
0
SPLINE
5
13D
100
AcDbEntity
8
1
62
256
6
ByLayer
370
18
48
1
60
0
100
AcDbSpline
70
4
71
1
72
4
73
2
40
0
40
0
40
1
40
1
41
1
10
49.1567553881597
20
4.73453124786917
30
0
41
1
10
49.1587737473659
20
4.77210454007076
30
0
0
SPLINE
5
13E
100
AcDbEntity
8
1
62
256
6
ByLayer
370
18
48
1
60
0
100
AcDbSpline
70
4
71
5
72
21
73
15
40
0
40
0
40
0
40
0
40
0
40
0
40
0.0548859414375526
40
0.144157127290711
40
0.233363687264172
40
0.321996008478012
40
0.345326605508353
40
0.459509449253741
40
0.588933382156593
40
0.855984026254248
40
0.945195271968894
40
1
40
1
40
1
40
1
40
1
40
1
41
1
10
49.1587737473648
20
4.77210454007101
30
0
41
1
10
49.1588069199364
20
4.78408453963843
30
0
41
1
10
49.1582696417809
20
4.81554397329327
30
0
41
1
10
49.1547445899604
20
4.8663743898916
30
0
41
1
10
49.1440245384539
20
4.93587189790642
30
0
41
1
10
49.123957943606
20
5.00846575596188
30
0
41
1
10
49.0917438717295
20
5.09031027285866
30
0
41
1
10
49.0463667926866
20
5.17545430362708
30
0
41
1
10
48.968061517189
20
5.28536768677279
30
0
41
1
10
48.8693913834787
20
5.37870618398406
30
0
41
1
10
48.7471693898141
20
5.45183143578882
30
0
41
1
10
48.63708366764
20
5.49130371712417
30
0
41
1
10
48.5504448257668
20
5.5086675190492
30
0
41
1
10
48.5198376162461
20
5.5131856910414
30
0
41
1
10
48.5081591925801
20
5.51467774680105
30
0
0
SPLINE
5
13F
100
AcDbEntity
8
1
62
256
6
ByLayer
370
18
48
1
60
0
100
AcDbSpline
70
4
71
5
72
12
73
6
40
0
40
0
40
0
40
0
40
0
40
0
40
1
40
1
40
1
40
1
40
1
40
1
41
1
10
48.3970432891253
20
5.52061248509622
30
0
41
1
10
48.3969527214748
20
5.52061064683414
30
0
41
1
10
48.396862153925
20
5.52060879508085
30
0
41
1
10
48.3967715864787
20
5.5206069298371
30
0
41
1
10
48.3966810191383
20
5.52060505110381
30
0
41
1
10
48.3965904519067
20
5.52060315888173
30
0
0
SPLINE
5
140
100
AcDbEntity
8
1
62
256
6
ByLayer
370
18
48
1
60
0
100
AcDbSpline
70
4
71
5
72
12
73
6
40
0
40
0
40
0
40
0
40
0
40
0
40
1
40
1
40
1
40
1
40
1
40
1
41
1
10
48.3965904519062
20
5.52060315888173
30
0
41
0.999999996886902
10
48.3962620802995
20
5.52059629821048
30
0
41
0.99999999384679
10
48.395933708894
20
5.5205894367096
30
0
41
0.999999990879664
10
48.3956053376896
20
5.52058257437903
30
0
41
0.999999987985523
10
48.3952769666865
20
5.52057571121881
30
0
41
0.999999985164369
10
48.3949485958847
20
5.52056884722895
30
0
0
SPLINE
5
141
100
AcDbEntity
8
1
62
256
6
ByLayer
370
18
48
1
60
0
100
AcDbSpline
70
4
71
3
72
8
73
4
40
0
40
0
40
0
40
0
40
1
40
1
40
1
40
1
41
1
10
48.2992830854093
20
0.253723102556819
30
0
41
1
10
48.2990265727391
20
0.245816782994808
30
0
41
1
10
48.2988694344335
20
0.237886420316954
30
0
41
1
10
48.2988121119857
20
0.229935465062312
30
0
0
SPLINE
5
142
100
AcDbEntity
8
1
62
256
6
ByLayer
370
18
48
1
60
0
100
AcDbSpline
70
4
71
3
72
28
73
24
40
0
40
0
40
0
40
0
40
0.249999999999984
40
0.249999999999984
40
0.374999999999983
40
0.374999999999983
40
0.499999999999982
40
0.499999999999982
40
0.624999999999981
40
0.624999999999981
40
0.687499999999985
40
0.687499999999985
40
0.749999999999989
40
0.749999999999989
40
0.812499999999994
40
0.812499999999994
40
0.874999999999998
40
0.874999999999998
40
0.937500000000002
40
0.937500000000002
40
0.968750000000001
40
0.968750000000001
40
1
40
1
40
1
40
1
41
1
10
48.8426923742879
20
-5.17147095686923
30
0
41
1
10
48.8622615451423
20
-5.12574755259959
30
0
41
1
10
48.8816529905587
20
-5.0789308772203
30
0
41
1
10
48.9103404575059
20
-5.00624711791659
30
0
41
1
10
48.9198355630512
20
-4.98160469155616
30
0
41
1
10
48.9386506354773
20
-4.93124248016488
30
0
41
1
10
48.9479712584705
20
-4.90552673118182
30
0
41
1
10
48.9663711318521
20
-4.85261043903307
30
0
41
1
10
48.9754522971608
20
-4.82542167542522
30
0
41
1
10
48.988798238174
20
-4.78294191430052
30
0
41
1
10
48.9932067482113
20
-4.76847210480949
30
0
41
1
10
49.0018354323225
20
-4.73900369949504
30
0
41
1
10
49.0060619926123
20
-4.72398907402979
30
0
41
1
10
49.0142779987159
20
-4.69320235021769
30
0
41
1
10
49.0182762551343
20
-4.67739489339726
30
0
41
1
10
49.0258345747294
20
-4.64511279303025
30
0
41
1
10
49.0294074833625
20
-4.62860992949788
30
0
41
1
10
49.0359208605821
20
-4.59449475294286
30
0
41
1
10
49.0388799123772
20
-4.57674458112737
30
0
41
1
10
49.0423416399464
20
-4.54994681039369
30
0
41
1
10
49.0433425706219
20
-4.54089966863805
30
0
41
1
10
49.0449126305615
20
-4.52288665083847
30
0
41
1
10
49.0454704697275
20
-4.51406401999347
30
0
41
1
10
49.045771938031
20
-4.50544888423497
30
0
0
SPLINE
5
143
100
AcDbEntity
8
1
62
256
6
ByLayer
370
18
48
1
60
0
100
AcDbSpline
70
4
71
3
72
8
73
4
40
0
40
0
40
0
40
0
40
1
40
1
40
1
40
1
41
1
10
48.2871564450168
20
-0.51456483607825
30
0
41
1
10
48.2649936231972
20
-0.454163025920366
30
0
41
1
10
48.246980849578
20
-0.393185358816879
30
0
41
1
10
48.2329442264761
20
-0.331655964653493
30
0
0
SPLINE
5
144
100
AcDbEntity
8
1
62
256
6
ByLayer
370
18
48
1
60
0
100
AcDbSpline
70
4
71
3
72
14
73
10
40
0
40
0
40
0
40
0
40
0.0981896560444742
40
0.0981896560444742
40
0.323642242033355
40
0.323642242033355
40
0.549094828022236
40
0.549094828022236
40
1
40
1
40
1
40
1
41
1
10
48.3345329393627
20
0.336913799055679
30
0
41
1
10
48.3370528505684
20
0.335970649303988
30
0
41
1
10
48.3396941137649
20
0.335027193878744
30
0
41
1
10
48.3488117423829
20
0.331927486826174
30
0
41
1
10
48.3558250809065
20
0.329784280673096
30
0
41
1
10
48.3713138521728
20
0.32561899451008
30
0
41
1
10
48.3798095227203
20
0.32359245507169
30
0
41
1
10
48.407631893892
20
0.317876156335274
30
0
41
1
10
48.4290553134362
20
0.314582258882552
30
0
41
1
10
48.4539193997205
20
0.312267272985196
30
0
0
SPLINE
5
145
100
AcDbEntity
8
1
62
256
6
ByLayer
370
18
48
1
60
0
100
AcDbSpline
70
4
71
3
72
12
73
8
40
0
40
0
40
0
40
0
40
0.5
40
0.5
40
0.75
40
0.75
40
1
40
1
40
1
40
1
41
1
10
48.347148621443
20
-0.600999088262597
30
0
41
1
10
48.3368574808769
20
-0.597771143360575
30
0
41
1
10
48.3277169494709
20
-0.594219543806901
30
0
41
1
10
48.3156625601219
20
-0.588426213824135
30
0
41
1
10
48.311921305549
20
-0.586417221649924
30
0
41
1
10
48.3049899982615
20
-0.582244189826099
30
0
41
1
10
48.3017927826156
20
-0.580074131370793
30
0
41
1
10
48.2988946298936
20
-0.577843978946504
30
0
0
SPLINE
5
146
100
AcDbEntity
8
1
62
256
6
ByLayer
370
18
48
1
60
0
100
AcDbSpline
70
4
71
3
72
8
73
4
40
0
40
0
40
0
40
0
40
1
40
1
40
1
40
1
41
1
10
48.2686770193152
20
-0.488496158587424
30
0
41
1
10
48.2527737114083
20
-0.436656259224264
30
0
41
1
10
48.2395293813124
20
-0.38439196202799
30
0
41
1
10
48.2288477038084
20
-0.331718641408259
30
0
0
SPLINE
5
147
100
AcDbEntity
8
1
62
256
6
ByLayer
370
18
48
1
60
0
100
AcDbSpline
70
4
71
3
72
8
73
4
40
0
40
0
40
0
40
0
40
1
40
1
40
1
40
1
41
1
10
20.178701312615
20
4.81820685906251
30
0
41
1
10
20.1234069213167
20
4.80449262020869
30
0
41
1
10
20.06676165491
20
4.79155624572351
30
0
41
1
10
20.0087713896724
20
4.77953332313817
30
0
0
SPLINE
5
148
100
AcDbEntity
8
1
62
256
6
ByLayer
370
18
48
1
60
0
100
AcDbSpline
70
4
71
3
72
10
73
6
40
0
40
0
40
0
40
0
40
0.771008750228374
40
0.771008750228374
40
1
40
1
40
1
40
1
41
1
10
48.3325287021839
20
-0.421574691420886
30
0
41
1
10
48.3189141651354
20
-0.458693226569295
30
0
41
1
10
48.3074088096374
20
-0.497007347785711
30
0
41
1
10
48.2948790075958
20
-0.547975060666914
30
0
41
1
10
48.2921728871715
20
-0.559732947868156
30
0
41
1
10
48.2896283452755
20
-0.571573712852597
30
0
0
SPLINE
5
149
100
AcDbEntity
8
1
62
256
6
ByLayer
370
18
48
1
60
0
100
AcDbSpline
70
4
71
3
72
8
73
4
40
0
40
0
40
0
40
0
40
1
40
1
40
1
40
1
41
1
10
48.2868411549405
20
-0.5232979755489
30
0
41
1
10
48.2867075282758
20
-0.520261151877804
30
0
41
1
10
48.2868107051426
20
-0.517357324924035
30
0
41
1
10
48.2871564450168
20
-0.514564836078335
30
0
0
SPLINE
5
14A
100
AcDbEntity
8
1
62
256
6
ByLayer
370
18
48
1
60
0
100
AcDbSpline
70
4
71
3
72
8
73
4
40
0
40
0
40
0
40
0
40
1
40
1
40
1
40
1
41
1
10
48.3471486214487
20
-0.600999088268566
30
0
41
1
10
48.3471569779015
20
-0.602437923445535
30
0
41
1
10
48.3471704122676
20
-0.603876412174799
30
0
41
1
10
48.3471889481753
20
-0.605314592799829
30
0
0
SPLINE
5
14B
100
AcDbEntity
8
1
62
256
6
ByLayer
370
18
48
1
60
0
100
AcDbSpline
70
4
71
5
72
12
73
6
40
0
40
0
40
0
40
0
40
0
40
0
40
1
40
1
40
1
40
1
40
1
40
1
41
1
10
48.3965904519062
20
-4.28823485881983
30
0
41
0.999999996886902
10
48.3962620802994
20
-4.28819613597385
30
0
41
0.99999999384679
10
48.3959337088938
20
-4.28815741248316
30
0
41
0.999999990879664
10
48.3956053376895
20
-4.28811868834781
30
0
41
0.999999987985523
10
48.3952769666864
20
-4.28807996356784
30
0
41
0.999999985164369
10
48.3949485958847
20
-4.28804123814322
30
0
0
SPLINE
5
14C
100
AcDbEntity
8
1
62
256
6
ByLayer
370
13
48
1
60
0
100
AcDbSpline
70
4
71
3
72
8
73
4
40
0
40
0
40
0
40
0
40
1
40
1
40
1
40
1
41
1
10
48.3965904519062
20
-4.28823485881983
30
0
41
1
10
48.3965630458932
20
-4.28808883625976
30
0
41
1
10
48.3965356398803
20
-4.28794281369969
30
0
41
1
10
48.3965082338673
20
-4.28779679113961
30
0
0
SPLINE
5
14D
100
AcDbEntity
8
1
62
256
6
ByLayer
370
18
48
1
60
0
100
AcDbSpline
70
4
71
3
72
8
73
4
40
0
40
0
40
0
40
0
40
1
40
1
40
1
40
1
41
1
10
48.3587183152275
20
-4.2688772558827
30
0
41
1
10
48.3577160438451
20
-4.26353703242711
30
0
41
1
10
48.3567137724627
20
-4.25819680897152
30
0
41
1
10
48.3557115010803
20
-4.25285658551593
30
0
0
SPLINE
5
14E
100
AcDbEntity
8
1
62
256
6
ByLayer
370
18
48
1
60
0
100
AcDbSpline
70
4
71
3
72
8
73
4
40
0
40
0
40
0
40
0
40
1
40
1
40
1
40
1
41
1
10
49.1514913689195
20
-3.65599039001808
30
0
41
1
10
49.151201076956
20
-3.65212982525841
30
0
41
1
10
49.1509063670281
20
-3.64824823094545
30
0
41
1
10
49.1506071161293
20
-3.64434502156553
30
0
0
SPLINE
5
14F
100
AcDbEntity
8
1
62
256
6
ByLayer
370
18
48
1
60
0
100
AcDbSpline
70
4
71
3
72
12
73
8
40
0
40
0
40
0
40
0
40
0.25
40
0.25
40
0.5
40
0.5
40
1
40
1
40
1
40
1
41
1
10
48.2736604919869
20
-0.200895906784666
30
0
41
1
10
48.2710295001482
20
-0.191222818904805
30
0
41
1
10
48.2686482068616
20
-0.181228227155088
30
0
41
1
10
48.2644548400299
20
-0.160562791930857
30
0
41
1
10
48.2626464298139
20
-0.149896076893015
30
0
41
1
10
48.2582387146031
20
-0.117232101229803
30
0
41
1
10
48.2566257488833
20
-0.0944549035750413
30
0
41
1
10
48.2566116620099
20
-0.0707048742866903
30
0
0
SPLINE
5
150
100
AcDbEntity
8
1
62
256
6
ByLayer
370
18
48
1
60
0
100
AcDbSpline
70
4
71
3
72
26
73
22
40
0
40
0
40
0
40
0
40
0.124999999999999
40
0.124999999999999
40
0.249999999999999
40
0.249999999999999
40
0.312499999999999
40
0.312499999999999
40
0.374999999999998
40
0.374999999999998
40
0.499999999999998
40
0.499999999999998
40
0.624999999999998
40
0.624999999999998
40
0.687499999999998
40
0.687499999999998
40
0.749999999999998
40
0.749999999999998
40
0.874999999999999
40
0.874999999999999
40
1
40
1
40
1
40
1
41
1
10
48.4260781641419
20
0.699437663278985
30
0
41
1
10
48.4016958115661
20
0.675294862762115
30
0
41
1
10
48.3812305837665
20
0.649463706240368
30
0
41
1
10
48.3463274911375
20
0.595605925672231
30
0
41
1
10
48.3319092697348
20
0.567566851272375
30
0
41
1
10
48.3141132486394
20
0.524419065773486
30
0
41
1
10
48.3088115572539
20
0.509810379384106
30
0
41
1
10
48.2994851172846
20
0.480509262225865
30
0
41
1
10
48.2954723013244
20
0.46586963041301
30
0
41
1
10
48.2851982778294
20
0.422070885656126
30
0
41
1
10
48.2806890794657
20
0.393031264109453
30
0
41
1
10
48.2757421504095
20
0.335719577260647
30
0
41
1
10
48.2753076417563
20
0.307444941704631
30
0
41
1
10
48.2775370202042
20
0.265977955331152
30
0
41
1
10
48.2787629099067
20
0.252313735459779
30
0
41
1
10
48.2821822234575
20
0.225374457295459
30
0
41
1
10
48.2843650068217
20
0.212190217034959
30
0
41
1
10
48.2922826312786
20
0.17368895236109
30
0
41
1
10
48.2993815905145
20
0.149376138072142
30
0
41
1
10
48.3172698835836
20
0.104066703553997
30
0
41
1
10
48.3280562022619
20
0.0830700924967687
30
0
41
1
10
48.3408978321062
20
0.0641020722571284
30
0
0
SPLINE
5
151
100
AcDbEntity
8
1
62
256
6
ByLayer
370
18
48
1
60
0
100
AcDbSpline
70
4
71
3
72
12
73
8
40
0
40
0
40
0
40
0
40
0.25
40
0.25
40
0.500000000000001
40
0.500000000000001
40
1
40
1
40
1
40
1
41
1
10
48.3471889481823
20
-0.605314592811396
30
0
41
1
10
48.3431637935263
20
-0.605032471192771
30
0
41
1
10
48.3391740671749
20
-0.604405100232356
30
0
41
1
10
48.3312438660637
20
-0.602315444900654
30
0
41
1
10
48.3272891630703
20
-0.600846120201282
30
0
41
1
10
48.3155709098305
20
-0.594949639391501
30
0
41
1
10
48.3080049999665
20
-0.589090964078423
30
0
41
1
10
48.3006946912762
20
-0.580623425672144
30
0
0
SPLINE
5
152
100
AcDbEntity
8
1
62
256
6
ByLayer
370
18
48
1
60
0
100
AcDbSpline
70
4
71
2
72
6
73
3
40
0
40
0
40
0
40
1
40
1
40
1
41
0.500000070458589
10
48.2996291179711
20
-0.577728623431735
30
0
41
0.499999929541411
10
48.3001610650281
20
-0.579175695530774
30
0
41
0.500000070458589
10
48.3006946912762
20
-0.580623425672122
30
0
0
SPLINE
5
153
100
AcDbEntity
8
1
62
256
6
ByLayer
370
18
48
1
60
0
100
AcDbSpline
70
4
71
3
72
8
73
4
40
0
40
0
40
0
40
0
40
1
40
1
40
1
40
1
41
1
10
48.2992830854053
20
-0.577571316108276
30
0
41
1
10
48.2992753763299
20
-0.577289083133735
30
0
41
1
10
48.2992677568357
20
-0.577006860137914
30
0
41
1
10
48.2992602269363
20
-0.576724647102736
30
0
0
SPLINE
5
154
100
AcDbEntity
8
1
62
256
6
ByLayer
370
18
48
1
60
0
100
AcDbSpline
70
4
71
3
72
14
73
10
40
0
40
0
40
0
40
0
40
0.25
40
0.25
40
0.5
40
0.5
40
0.75
40
0.75
40
1
40
1
40
1
40
1
41
1
10
48.2539589040616
20
-0.445089160059467
30
0
41
1
10
48.2516505733618
20
-0.425805349280211
30
0
41
1
10
48.2503744995753
20
-0.405940899175277
30
0
41
1
10
48.2497988566275
20
-0.365403017614511
30
0
41
1
10
48.2505171992709
20
-0.344601425062137
30
0
41
1
10
48.2538918390703
20
-0.303242161749409
30
0
41
1
10
48.2565349085315
20
-0.282632166354574
30
0
41
1
10
48.2636866838383
20
-0.241607322888086
30
0
41
1
10
48.2681961748211
20
-0.221192064427044
30
0
41
1
10
48.2736604919879
20
-0.200895906783359
30
0
0
SPLINE
5
155
100
AcDbEntity
8
1
62
256
6
ByLayer
370
18
48
1
60
0
100
AcDbSpline
70
4
71
3
72
8
73
4
40
0
40
0
40
0
40
0
40
1
40
1
40
1
40
1
41
1
10
20.4974311119825
20
4.28030272083558
30
0
41
1
10
20.517268010847
20
4.24916073802663
30
0
41
1
10
20.5380968034973
20
4.21843501563745
30
0
41
1
10
20.5598943831232
20
4.18811585661118
30
0
0
SPLINE
5
156
100
AcDbEntity
8
1
62
256
6
ByLayer
370
18
48
1
60
0
100
AcDbSpline
70
4
71
3
72
8
73
4
40
0
40
0
40
0
40
0
40
1
40
1
40
1
40
1
41
1
10
48.3970432891251
20
5.52061248509622
30
0
41
1
10
48.4340826114039
20
5.5186446878933
30
0
41
1
10
48.4711212461392
20
5.51666644560461
30
0
41
1
10
48.5081591925785
20
5.51467774680108
30
0
0
SPLINE
5
157
100
AcDbEntity
8
1
62
256
6
ByLayer
370
18
48
1
60
0
100
AcDbSpline
70
4
71
3
72
16
73
12
40
0
40
0
40
0
40
0
40
0.25
40
0.25
40
0.5
40
0.5
40
0.625
40
0.625
40
0.75
40
0.75
40
1
40
1
40
1
40
1
41
1
10
23.8000000000001
20
-5.04830754278532
30
0
41
1
10
23.800918657498
20
-4.96465570842761
30
0
41
1
10
23.8019088039372
20
-4.875527997728
30
0
41
1
10
23.8037995014349
20
-4.68646295070184
30
0
41
1
10
23.8047463580292
20
-4.58652219437195
30
0
41
1
10
23.8061086496829
20
-4.42841729797763
30
0
41
1
10
23.8065499122999
20
-4.37448424949096
30
0
41
1
10
23.8074287209325
20
-4.2643441258829
30
0
41
1
10
23.8078741721516
20
-4.20810947373516
30
0
41
1
10
23.8092223517588
20
-4.03592321908175
30
0
41
1
10
23.810093579123
20
-3.91649827268159
30
0
41
1
10
23.8109694877589
20
-3.79239004903803
30
0
0
SPLINE
5
158
100
AcDbEntity
8
1
62
256
6
ByLayer
370
18
48
1
60
0
100
AcDbSpline
70
4
71
3
72
8
73
4
40
0
40
0
40
0
40
0
40
1
40
1
40
1
40
1
41
1
10
22.5522565767789
20
-4.79136644429042
30
0
41
1
10
22.6767455136255
20
-4.77459743131357
30
0
41
1
10
22.8011405498656
20
-4.75571427482402
30
0
41
1
10
22.9254891338878
20
-4.73471324159723
30
0
0
SPLINE
5
159
100
AcDbEntity
8
1
62
256
6
ByLayer
370
18
48
1
60
0
100
AcDbSpline
70
4
71
3
72
14
73
10
40
0
40
0
40
0
40
0
40
0.400100218191839
40
0.400100218191839
40
0.600150327287739
40
0.600150327287739
40
0.800200436383639
40
0.800200436383639
40
1
40
1
40
1
40
1
41
1
10
22.9254891338878
20
-4.73471324159723
30
0
41
1
10
22.9907253914095
20
-4.76152670362632
30
0
41
1
10
23.0582784881678
20
-4.78365131888575
30
0
41
1
10
23.1628596031457
20
-4.80955933498245
30
0
41
1
10
23.1982636818207
20
-4.81698116616542
30
0
41
1
10
23.2701482733315
20
-4.82934080395395
30
0
41
1
10
23.3065248268141
20
-4.83425916710661
30
0
41
1
10
23.3799545906882
20
-4.84153868854304
30
0
41
1
10
23.4170273153844
20
-4.84390678220925
30
0
41
1
10
23.4544811550478
20
-4.84499452522292
30
0
0
SPLINE
5
15A
100
AcDbEntity
8
1
62
256
6
ByLayer
370
13
48
1
60
0
100
AcDbSpline
70
4
71
3
72
10
73
6
40
0
40
0
40
0
40
0
40
0.323458077825696
40
0.662790916917409
40
1
40
1
40
1
40
1
41
1
10
23.8000000000001
20
-3.7851654357512
30
0
41
1
10
23.8000000000001
20
-3.94633382082873
30
0
41
1
10
23.8000000000002
20
-4.26196026033963
30
0
41
1
10
23.8000000000002
20
-4.68692345103409
30
0
41
1
10
23.8
20
-4.93517773868501
30
0
41
1
10
23.8
20
-5.04830754278532
30
0
0
SPLINE
5
15B
100
AcDbEntity
8
1
62
256
6
ByLayer
370
18
48
1
60
0
100
AcDbSpline
70
4
71
3
72
8
73
4
40
0
40
0
40
0
40
0
40
1
40
1
40
1
40
1
41
1
10
49.1514913689181
20
1.83882863961301
30
0
41
1
10
49.1512010745277
20
1.83756684270452
30
0
41
1
10
49.1509063645025
20
1.83633916541228
30
0
41
1
10
49.1506071161294
20
1.83514655594118
30
0
0
SPLINE
5
15C
100
AcDbEntity
8
1
62
256
6
ByLayer
370
18
48
1
60
0
100
AcDbSpline
70
4
71
4
72
10
73
5
40
0
40
0
40
0
40
0
40
0
40
1
40
1
40
1
40
1
40
1
41
1
10
49.1506071161294
20
1.83514655594118
30
0
41
1
10
49.1502826186186
20
1.83488379289321
30
0
41
1
10
49.1499581211078
20
1.83462102984524
30
0
41
1
10
49.149633623597
20
1.8343582667973
30
0
41
1
10
49.1493091260862
20
1.83409550374932
30
0
0
SPLINE
5
15D
100
AcDbEntity
8
1
62
256
6
ByLayer
370
18
48
1
60
0
100
AcDbSpline
70
4
71
3
72
8
73
4
40
0
40
0
40
0
40
0
40
1
40
1
40
1
40
1
41
1
10
19.3550000000009
20
3.112742372181
30
0
41
1
10
19.3550000000009
20
3.17791319767986
30
0
41
1
10
19.3550000000008
20
3.24046157175979
30
0
41
1
10
19.3550000000008
20
3.29999050665361
30
0
0
SPLINE
5
15E
100
AcDbEntity
8
1
62
256
6
ByLayer
370
18
48
1
60
0
100
AcDbSpline
70
4
71
3
72
18
73
14
40
0
40
0
40
0
40
0
40
0.249999999999981
40
0.249999999999981
40
0.374999999999985
40
0.374999999999985
40
0.499999999999988
40
0.499999999999988
40
0.624999999999991
40
0.624999999999991
40
0.749999999999994
40
0.749999999999994
40
1
40
1
40
1
40
1
41
1
10
22.9254891338878
20
-3.01355182926815
30
0
41
1
10
22.9908215175546
20
-3.08878463525619
30
0
41
1
10
23.0584541658634
20
-3.16143658232301
30
0
41
1
10
23.163117861923
20
-3.26674016738241
30
0
41
1
10
23.1985437087816
20
-3.30122690428692
30
0
41
1
10
23.27045940986
20
-3.36897752607035
30
0
41
1
10
23.3068430420455
20
-3.40214016572958
30
0
41
1
10
23.3803214123683
20
-3.46694150042779
30
0
41
1
10
23.4174357467454
20
-3.49859875450852
30
0
41
1
10
23.492414833181
20
-3.56042047519188
30
0
41
1
10
23.5303184460899
20
-3.5906130319824
30
0
41
1
10
23.6446411859549
20
-3.67850029305217
30
0
41
1
10
23.7217952381675
20
-3.73363694358682
30
0
41
1
10
23.8000000000001
20
-3.78516543575117
30
0
0
SPLINE
5
15F
100
AcDbEntity
8
1
62
256
6
ByLayer
370
18
48
1
60
0
100
AcDbSpline
70
4
71
3
72
8
73
4
40
0
40
0
40
0
40
0
40
1
40
1
40
1
40
1
41
1
10
23.8000000000001
20
-3.78516543575117
30
0
41
1
10
23.8036566578917
20
-3.78757477839346
30
0
41
1
10
23.8073131532162
20
-3.78998298347551
30
0
41
1
10
23.8109694877591
20
-3.7923900490382
30
0
0
SPLINE
5
160
100
AcDbEntity
8
1
62
256
6
ByLayer
370
18
48
1
60
0
100
AcDbSpline
70
4
71
3
72
40
73
36
40
0
40
0
40
0
40
0
40
0.051098307821857
40
0.051098307821857
40
0.145988477039675
40
0.145988477039675
40
0.240878646257493
40
0.240878646257493
40
0.335768815475311
40
0.335768815475311
40
0.359491357779764
40
0.359491357779764
40
0.383213900084217
40
0.383213900084217
40
0.430658984693126
40
0.430658984693126
40
0.525549153910944
40
0.525549153910944
40
0.620439323128762
40
0.620439323128762
40
0.667884407737669
40
0.667884407737669
40
0.715329492346576
40
0.715329492346576
40
0.810219661564388
40
0.810219661564388
40
0.83394220386884
40
0.83394220386884
40
0.857664746173291
40
0.857664746173291
40
0.905109830782194
40
0.905109830782194
40
0.952554915391097
40
0.952554915391097
40
1
40
1
40
1
40
1
41
1
10
32.0527903673221
20
-4.94139407519026
30
0
41
1
10
31.912749529973
20
-4.98043619243779
30
0
41
1
10
31.772890261678
20
-5.01656650717055
30
0
41
1
10
31.3736107834774
20
-5.11119508979152
30
0
41
1
10
31.1144354794381
20
-5.16224451356692
30
0
41
1
10
30.5955831676763
20
-5.24436309842969
30
0
41
1
10
30.3359404393326
20
-5.27504598465819
30
0
41
1
10
29.8150887946381
20
-5.31512906831571
30
0
41
1
10
29.5538776034969
20
-5.32450396959325
30
0
41
1
10
29.2256582854541
20
-5.3227239894259
30
0
41
1
10
29.1598685552368
20
-5.32169320527836
30
0
41
1
10
29.0284547212993
20
-5.31828019520697
30
0
41
1
10
28.9628359005163
20
-5.31589996616663
30
0
41
1
10
28.7662184242289
20
-5.3067422273657
30
0
41
1
10
28.6354606190033
20
-5.29793850426185
30
0
41
1
10
28.2439419221213
20
-5.26345217869832
30
0
41
1
10
27.9839094618097
20
-5.22982726726545
30
0
41
1
10
27.4646384374724
20
-5.14224618997585
30
0
41
1
10
27.2054323586909
20
-5.08799866201434
30
0
41
1
10
26.8163965930971
20
-4.99164872375167
30
0
41
1
10
26.6866807688135
20
-4.95704364724574
30
0
41
1
10
26.427040055466
20
-4.88291049192085
30
0
41
1
10
26.2971159554612
20
-4.84338519158356
30
0
41
1
10
25.9068235972059
20
-4.71722661607936
30
0
41
1
10
25.6459263464619
20
-4.62307106622424
30
0
41
1
10
25.3182155181817
20
-4.49349275168038
30
0
41
1
10
25.252594004324
20
-4.46697847712477
30
0
41
1
10
25.1211737230284
20
-4.41275003488843
30
0
41
1
10
25.0553914814321
20
-4.3850425883999
30
0
41
1
10
24.8583425807734
20
-4.30036227792741
30
0
41
1
10
24.727184765077
20
-4.24173466203555
30
0
41
1
10
24.4651373521191
20
-4.12025529638368
30
0
41
1
10
24.3342442727522
20
-4.05742342851752
30
0
41
1
10
24.0725624911112
20
-3.92782172923711
30
0
41
1
10
23.9417731163789
20
-3.86106485166599
30
0
41
1
10
23.810969487759
20
-3.79239004903823
30
0
0
SPLINE
5
161
100
AcDbEntity
8
1
62
256
6
ByLayer
370
18
48
1
60
0
100
AcDbSpline
70
4
71
3
72
8
73
4
40
0
40
0
40
0
40
0
40
1
40
1
40
1
40
1
41
1
10
20.2243845447463
20
-4.87329728170775
30
0
41
1
10
20.2393637522362
20
-4.85004420646302
30
0
41
1
10
20.25479238193
20
-4.82701738934256
30
0
41
1
10
20.2706614144192
20
-4.80421228959497
30
0
0
SPLINE
5
162
100
AcDbEntity
8
1
62
256
6
ByLayer
370
18
48
1
60
0
100
AcDbSpline
70
4
71
3
72
16
73
12
40
0
40
0
40
0
40
0
40
0.249999999999993
40
0.249999999999993
40
0.374999999999993
40
0.374999999999993
40
0.499999999999992
40
0.499999999999992
40
0.749999999999996
40
0.749999999999996
40
1
40
1
40
1
40
1
41
1
10
20.2706614144192
20
-4.80421228959497
30
0
41
1
10
20.451240368603
20
-4.83364193591097
30
0
41
1
10
20.6341148521425
20
-4.85451447724347
30
0
41
1
10
20.9120770014988
20
-4.87394409074588
30
0
41
1
10
21.0053463397396
20
-4.87844125702878
30
0
41
1
10
21.1932226847118
20
-4.88365758369184
30
0
41
1
10
21.2879005368169
20
-4.88437347241731
30
0
41
1
10
21.5732892703459
20
-4.88111453177876
30
0
41
1
10
21.7655369299296
20
-4.87173671559995
30
0
41
1
10
22.1556122591841
20
-4.84030272727148
30
0
41
1
10
22.3534405585785
20
-4.8182483594087
30
0
41
1
10
22.5550988165043
20
-4.79093802613713
30
0
0
SPLINE
5
163
100
AcDbEntity
8
1
62
256
6
ByLayer
370
18
48
1
60
0
100
AcDbSpline
70
4
71
3
72
9
73
5
40
0
40
0
40
0
40
0
40
0.525117955400147
40
1
40
1
40
1
40
1
41
1
10
22.5771958248648
20
-4.21631070005671
30
0
41
1
10
22.5556465090273
20
-4.31244281000161
30
0
41
1
10
22.5298149310105
20
-4.50350458568604
30
0
41
1
10
22.5389707442404
20
-4.69971799303866
30
0
41
1
10
22.5523349722552
20
-4.79190796356011
30
0
0
SPLINE
5
164
100
AcDbEntity
8
1
62
256
6
ByLayer
370
18
48
1
60
0
100
AcDbSpline
70
4
71
5
72
21
73
15
40
0
40
0
40
0
40
0
40
0
40
0
40
0.0548859414572211
40
0.144157127308376
40
0.233363687279836
40
0.321996008491688
40
0.345326605521505
40
0.459509449264331
40
0.58893338216428
40
0.855984026255943
40
0.945195271968588
40
1
40
1
40
1
40
1
40
1
40
1
41
1
10
49.1587737473647
20
-3.76539098860067
30
0
41
1
10
49.1588069199367
20
-3.77499691779451
30
0
41
1
10
49.1582696417819
20
-3.8001588777399
30
0
41
1
10
49.1547445899618
20
-3.84054536176498
30
0
41
1
10
49.1440245384551
20
-3.89516649062321
30
0
41
1
10
49.1239579436059
20
-3.95132384420822
30
0
41
1
10
49.0917438717295
20
-4.01366702068555
30
0
41
1
10
49.0463667926865
20
-4.07732312935508
30
0
41
1
10
48.968061517189
20
-4.15750154318818
30
0
41
1
10
48.8693913834786
20
-4.22233389493621
30
0
41
1
10
48.7471693898138
20
-4.26858140482381
30
0
41
1
10
48.6370836676393
20
-4.28908227656285
30
0
41
1
10
48.5504448257658
20
-4.2942343751466
30
0
41
1
10
48.5198376162447
20
-4.29475917014148
30
0
41
1
10
48.5081591925785
20
-4.29477353943366
30
0
0
SPLINE
5
165
100
AcDbEntity
8
1
62
256
6
ByLayer
370
18
48
1
60
0
100
AcDbSpline
70
4
71
3
72
8
73
4
40
0
40
0
40
0
40
0
40
1
40
1
40
1
40
1
41
1
10
49.045771938031
20
-3.16330364647658
30
0
41
1
10
49.0834392078082
20
-3.3639994271808
30
0
41
1
10
49.1211064775853
20
-3.56469520788499
30
0
41
1
10
49.1587737473625
20
-3.76539098858922
30
0
0
SPLINE
5
166
100
AcDbEntity
8
1
62
256
6
ByLayer
370
18
48
1
60
0
100
AcDbSpline
70
4
71
3
72
26
73
22
40
0
40
0
40
0
40
0
40
0.249999999999999
40
0.249999999999999
40
0.374999999999998
40
0.374999999999998
40
0.499999999999997
40
0.499999999999997
40
0.624999999999996
40
0.624999999999996
40
0.749999999999995
40
0.749999999999995
40
0.812499999999994
40
0.812499999999994
40
0.874999999999994
40
0.874999999999994
40
0.937499999999993
40
0.937499999999993
40
0.968749999999997
40
0.968749999999997
40
1
40
1
40
1
40
1
41
1
10
48.835602592325
20
-2.9634315084746
30
0
41
1
10
48.8558297979214
20
-2.99652844573291
30
0
41
1
10
48.8759116377386
20
-3.02825445833798
30
0
41
1
10
48.9056602705708
20
-3.07266310588028
30
0
41
1
10
48.9155203178634
20
-3.08693960224048
30
0
41
1
10
48.9350525151066
20
-3.11405949290199
30
0
41
1
10
48.944722209244
20
-3.12690417860767
30
0
41
1
10
48.963794834354
20
-3.15061433791098
30
0
41
1
10
48.9732098741444
20
-3.16150156120816
30
0
41
1
10
48.9915171207552
20
-3.18017010949259
30
0
41
1
10
49.0004281964902
20
-3.18801593602555
30
0
41
1
10
49.0131465383893
20
-3.19580641109295
30
0
41
1
10
49.0172648875736
20
-3.19771601068737
30
0
41
1
10
49.0250783460588
20
-3.19954730267742
30
0
41
1
10
49.0287863213522
20
-3.19949214843553
30
0
41
1
10
49.0355761180215
20
-3.1963234337764
30
0
41
1
10
49.0386006905235
20
-3.19324890102493
30
0
41
1
10
49.0422039696129
20
-3.18504978877087
30
0
41
1
10
49.04325062154
20
-3.18167419996777
30
0
41
1
10
49.0448732256533
20
-3.17358075318657
30
0
41
1
10
49.045458761425
20
-3.16885299316382
30
0
41
1
10
49.0457719380309
20
-3.16330364647669
30
0
0
SPLINE
5
167
100
AcDbEntity
8
1
62
256
6
ByLayer
370
18
48
1
60
0
100
AcDbSpline
70
4
71
3
72
12
73
8
40
0
40
0
40
0
40
0
40
0.387340269460765
40
0.387340269460765
40
0.721027656910447
40
0.721027656910447
40
1
40
1
40
1
40
1
41
1
10
48.3587183152275
20
5.51602262444308
30
0
41
1
10
48.3633752423186
20
5.51660921015073
30
0
41
1
10
48.3680315762068
20
5.51719576457546
30
0
41
1
10
48.3766981467725
20
5.51828757159723
30
0
41
1
10
48.380708538646
20
5.5187928317643
30
0
41
1
10
48.3880709051404
20
5.5197204664976
30
0
41
1
10
48.3914230158131
20
5.52014284723623
30
0
41
1
10
48.3947748076346
20
5.52056521441059
30
0
0
SPLINE
5
168
100
AcDbEntity
8
1
62
256
6
ByLayer
370
18
48
1
60
0
100
AcDbSpline
70
4
71
3
72
8
73
4
40
0
40
0
40
0
40
0
40
1
40
1
40
1
40
1
41
1
10
48.3587183152275
20
5.51602262444308
30
0
41
1
10
48.3587439890235
20
5.51649026932014
30
0
41
1
10
48.3587696767482
20
5.51695789268993
30
0
41
1
10
48.3587953783871
20
5.51742549447695
30
0
0
SPLINE
5
169
100
AcDbEntity
8
1
62
256
6
ByLayer
370
18
48
1
60
0
100
AcDbSpline
70
4
71
5
72
18
73
12
40
0
40
0
40
0
40
0
40
0
40
0
40
0.0212197199003328
40
0.171706270229707
40
0.397436095723768
40
0.547922646053142
40
0.773652471547203
40
0.924139021876577
40
1
40
1
40
1
40
1
40
1
40
1
41
1
10
48.3587482868027
20
5.51741811653429
30
0
41
1
10
48.3478094463296
20
5.5164095092498
30
0
41
1
10
48.2592942582365
20
5.508115999502
30
0
41
1
10
48.0544145487133
20
5.48644739564222
30
0
41
1
10
47.77195849157
20
5.44870524591394
30
0
41
1
10
47.3731379129965
20
5.38021013016183
30
0
41
1
10
46.9076798272761
20
5.27624947868125
30
0
41
1
10
46.4806914873111
20
5.15931798613229
30
0
41
1
10
46.1700676687763
20
5.06198643141937
30
0
41
1
10
45.9370201978615
20
4.982226468314
30
0
41
1
10
45.8203372483768
20
4.94062632186785
30
0
41
1
10
45.7812306465122
20
4.92649771112968
30
0
0
SPLINE
5
16A
100
AcDbEntity
8
1
62
256
6
ByLayer
370
18
48
1
60
0
100
AcDbSpline
70
4
71
5
72
20
73
14
40
0
40
0
40
0
40
0
40
0
40
0
40
0.0466326700167564
40
0.194456331080503
40
0.293005438456334
40
0.44082909952008
40
0.539378206895912
40
0.687201867959659
40
0.78575097533549
40
0.933574636399236
40
1
40
1
40
1
40
1
40
1
40
1
41
1
10
27.7359237133452
20
-5.51396480074618
30
0
41
1
10
27.6992151898892
20
-5.51749623701036
30
0
41
1
10
27.5461421450031
20
-5.53145641671392
30
0
41
1
10
27.3154927524969
20
-5.54767487440014
30
0
41
1
10
26.9684788385606
20
-5.56111292765982
30
0
41
1
10
26.5438885770042
20
-5.55731230425374
30
0
41
1
10
26.0396423174736
20
-5.52594927629511
30
0
41
1
10
25.5741842317532
20
-5.4723403300182
30
0
41
1
10
25.0699379722226
20
-5.38783838586951
30
0
41
1
10
24.6297672054877
20
-5.29132660395618
30
0
41
1
10
24.2671727863728
20
-5.19467548232996
30
0
41
1
10
24.020942888688
20
-5.12129968336905
30
0
41
1
10
23.8522893386233
20
-5.06747098405904
30
0
41
1
10
23.8000003099888
20
-5.05044075116146
30
0
0
SPLINE
5
16B
100
AcDbEntity
8
1
62
256
6
ByLayer
370
18
48
1
60
0
100
AcDbSpline
70
4
71
3
72
32
73
28
40
0
40
0
40
0
40
0
40
0.131620087375653
40
0.131620087375653
40
0.197430131063482
40
0.197430131063482
40
0.263240174751311
40
0.263240174751311
40
0.394860262126967
40
0.394860262126967
40
0.526480349502623
40
0.526480349502623
40
0.559385371346538
40
0.559385371346538
40
0.592290393190453
40
0.658100436878285
40
0.723910480566116
40
0.723910480566116
40
0.756815502410032
40
0.756815502410032
40
0.789720524253948
40
0.789720524253948
40
0.921340611629629
40
0.921340611629629
40
0.987150655317469
40
0.987150655317469
40
1
40
1
40
1
40
1
41
1
10
48.3947376094669
20
5.52066885886671
30
0
41
1
10
48.4187438669402
20
5.45378479653164
30
0
41
1
10
48.4402175688016
20
5.38618548226177
30
0
41
1
10
48.4672503584952
20
5.2833241915078
30
0
41
1
10
48.4753934004611
20
5.24879198308287
30
0
41
1
10
48.4896348334046
20
5.17915010978203
30
0
41
1
10
48.4957380277278
20
5.14401135970607
30
0
41
1
10
48.5103792971238
20
5.03774780206487
30
0
41
1
10
48.5150909280912
20
4.96704000287718
30
0
41
1
10
48.5118241104369
20
4.82596262273239
30
0
41
1
10
48.5038608194859
20
4.75559263779036
30
0
41
1
10
48.4839005007159
20
4.66789684374854
30
0
41
1
10
48.4793953236844
20
4.6503495689372
30
0
41
1
10
48.4694817288575
20
4.61579296755005
30
0
41
1
10
48.4532194719055
20
4.56457727667384
30
0
41
1
10
48.4192169105259
20
4.48228692215972
30
0
41
1
10
48.3848347094852
20
4.41964893645201
30
0
41
1
10
48.3564393890448
20
4.37383098919045
30
0
41
1
10
48.3465129089178
20
4.35871637666534
30
0
41
1
10
48.3260372406699
20
4.32918721614877
30
0
41
1
10
48.3154705205125
20
4.31473981734874
30
0
41
1
10
48.2611049934092
20
4.2439802306375
30
0
41
1
10
48.21274384503
20
4.19206801706952
30
0
41
1
10
48.1346159013012
20
4.11958711239831
30
0
41
1
10
48.1076355153722
20
4.09633117612952
30
0
41
1
10
48.0743974045016
20
4.06948914686748
30
0
41
1
10
48.0689388854049
20
4.06513712298434
30
0
41
1
10
48.0634564386802
20
4.06082018531726
30
0
0
SPLINE
5
16C
100
AcDbEntity
8
1
62
256
6
ByLayer
370
18
48
1
60
0
100
AcDbSpline
70
4
71
3
72
16
73
12
40
0
40
0
40
0
40
0
40
0.250000000000006
40
0.250000000000006
40
0.500000000000012
40
0.500000000000012
40
0.625000000000014
40
0.625000000000014
40
0.750000000000016
40
0.750000000000016
40
1
40
1
40
1
40
1
41
1
10
20.178701312615
20
-2.9392977976587
30
0
41
1
10
20.1167424512582
20
-2.90322348268788
30
0
41
1
10
20.0530874569473
20
-2.86973416467097
30
0
41
1
10
19.9224017372316
20
-2.808129091859
30
0
41
1
10
19.8553723953514
20
-2.78001030742888
30
0
41
1
10
19.7521460525981
20
-2.74226989124043
30
0
41
1
10
19.7172884313069
20
-2.73043225674556
30
0
41
1
10
19.6466226424831
20
-2.70835618128473
30
0
41
1
10
19.6107861009068
20
-2.69811442625411
30
0
41
1
10
19.5026534670748
20
-2.67023536515271
30
0
41
1
10
19.4294710409894
20
-2.65531308147658
30
0
41
1
10
19.3550000000002
20
-2.64480442388302
30
0
0
SPLINE
5
16D
100
AcDbEntity
8
1
62
256
6
ByLayer
370
18
48
1
60
0
100
AcDbSpline
70
4
71
3
72
14
73
10
40
0
40
0
40
0
40
0
40
0.250000000000003
40
0.250000000000003
40
0.375000000000002
40
0.375000000000002
40
0.5
40
0.5
40
1
40
1
40
1
40
1
41
1
10
22.9254891338878
20
-4.37928758720153
30
0
41
1
10
22.6975360752979
20
-4.28081766858091
30
0
41
1
10
22.4695547782255
20
-4.17626186714008
30
0
41
1
10
22.1270254626951
20
-4.0109148955288
30
0
41
1
10
22.0127157692456
20
-3.95435725193389
30
0
41
1
10
21.7840155465951
20
-3.83859880625624
30
0
41
1
10
21.6697023737571
20
-3.77943821446993
30
0
41
1
10
21.0981165750823
20
-3.47751191018332
30
0
41
1
10
20.6407642194891
20
-3.21642294106556
30
0
41
1
10
20.1808912366577
20
-2.93904109883843
30
0
0
SPLINE
5
16E
100
AcDbEntity
8
1
62
256
6
ByLayer
370
18
48
1
60
0
100
AcDbSpline
70
4
71
3
72
11
73
7
40
0
40
0
40
0
40
0
40
0.0486237694567141
40
0.391220553396311
40
0.733817337335908
40
1
40
1
40
1
40
1
41
1
10
22.9254891338878
20
-3.01355182926818
30
0
41
1
10
22.9254891338878
20
-3.03867448381445
30
0
41
1
10
22.9254891338877
20
-3.23981964518271
30
0
41
1
10
22.9254891338877
20
-3.60176439576168
30
0
41
1
10
22.9254891338878
20
-4.0297946799225
30
0
41
1
10
22.9254891338878
20
-4.27694681508987
30
0
41
1
10
22.9254891338878
20
-4.37928758720108
30
0
0
SPLINE
5
16F
100
AcDbEntity
8
1
62
256
6
ByLayer
370
18
48
1
60
0
100
AcDbSpline
70
4
71
3
72
8
73
4
40
0
40
0
40
0
40
0
40
1
40
1
40
1
40
1
41
1
10
22.5564204532858
20
-2.79558345435427
30
0
41
1
10
22.6795209173707
20
-2.86931636257685
30
0
41
1
10
22.8025276796724
20
-2.94199593293595
30
0
41
1
10
22.9254891338878
20
-3.01355182926818
30
0
0
SPLINE
5
170
100
AcDbEntity
8
1
62
256
6
ByLayer
370
18
48
1
60
0
100
AcDbSpline
70
4
71
3
72
26
73
22
40
0
40
0
40
0
40
0
40
0.263947969774162
40
0.263947969774162
40
0.395921954661249
40
0.395921954661249
40
0.527895939548337
40
0.527895939548337
40
0.659869924435425
40
0.659869924435425
40
0.791843909322512
40
0.791843909322512
40
0.857830901766056
40
0.857830901766056
40
0.9238178942096
40
0.9238178942096
40
0.956811390431371
40
0.956811390431371
40
0.989804886653142
40
0.989804886653142
40
1
40
1
40
1
40
1
41
1
10
48.8356025923248
20
3.50192901158346
30
0
41
1
10
48.8558258205159
20
3.43259741713294
30
0
41
1
10
48.8759215836849
20
3.36282511019525
30
0
41
1
10
48.9056706855731
20
3.2575314694667
30
0
41
1
10
48.9155228106882
20
3.22231882605357
30
0
41
1
10
48.9350593466503
20
3.15159393204149
30
0
41
1
10
48.9447389995495
20
3.11610134200117
30
0
41
1
10
48.9638092809228
20
3.04491805152128
30
0
41
1
10
48.9732232732224
20
3.00914690660468
30
0
41
1
10
48.9915496374742
20
2.93756902841923
30
0
41
1
10
49.0004556884579
20
2.90181873284823
30
0
41
1
10
49.0131366086252
20
2.8482952077116
30
0
41
1
10
49.0172620740261
20
2.83041061047399
30
0
41
1
10
49.025104470785
20
2.79501123128176
30
0
41
1
10
49.0288174437418
20
2.77752874452423
30
0
41
1
10
49.0339018857593
20
2.751810942812
30
0
41
1
10
49.0355077033902
20
2.74335576500187
30
0
41
1
10
49.0384589058172
20
2.72694470930756
30
0
41
1
10
49.0398100258918
20
2.71896139913073
30
0
41
1
10
49.0413713228046
20
2.70888132158939
30
0
41
1
10
49.0417250580808
20
2.70652676988047
30
0
41
1
10
49.0420621801034
20
2.70420180199747
30
0
0
SPLINE
5
171
100
AcDbEntity
8
1
62
256
6
ByLayer
370
13
48
1
60
0
100
AcDbSpline
70
4
71
3
72
8
73
4
40
0
40
0
40
0
40
0
40
1
40
1
40
1
40
1
41
1
10
48.3965904519062
20
2.30269845042943
30
0
41
1
10
48.3965630458933
20
2.30288803376999
30
0
41
1
10
48.3965356398803
20
2.30307761711055
30
0
41
1
10
48.3965082338673
20
2.3032672004511
30
0
0
SPLINE
5
172
100
AcDbEntity
8
1
62
256
6
ByLayer
370
18
48
1
60
0
100
AcDbSpline
70
4
71
3
72
16
73
12
40
0
40
0
40
0
40
0
40
0.25
40
0.25
40
0.5
40
0.5
40
0.625
40
0.625
40
0.75
40
0.75
40
1
40
1
40
1
40
1
41
1
10
20.5598943831232
20
4.18811585661118
30
0
41
1
10
20.718412169264
20
4.11843266184738
30
0
41
1
10
20.878504622416
20
4.04479136929299
30
0
41
1
10
21.2023110397294
20
3.8905145170024
30
0
41
1
10
21.3660270362915
20
3.80988005871441
30
0
41
1
10
21.6149445995602
20
3.68472624721429
30
0
41
1
10
21.698375017711
20
3.642361374177
30
0
41
1
10
21.8661040747769
20
3.55663794582213
30
0
41
1
10
21.9504302444944
20
3.51326546679058
30
0
41
1
10
22.2050116150121
20
3.38196004893879
30
0
41
1
10
22.3768631002594
20
3.29282452139213
30
0
41
1
10
22.5515134121514
20
3.20317422389209
30
0
0
SPLINE
5
173
100
AcDbEntity
8
1
62
256
6
ByLayer
370
18
48
1
60
0
100
AcDbSpline
70
4
71
2
72
6
73
3
40
0
40
0
40
0
40
1
40
1
40
1
41
1
10
20.5598943831232
20
4.18811585661118
30
0
41
1
10
19.9574471915617
20
4.2164408574076
30
0
41
1
10
19.3550000000002
20
4.24476585820403
30
0
0
SPLINE
5
174
100
AcDbEntity
8
1
62
256
6
ByLayer
370
18
48
1
60
0
100
AcDbSpline
70
4
71
3
72
16
73
12
40
0
40
0
40
0
40
0
40
0.25
40
0.25
40
0.5
40
0.5
40
0.625
40
0.625
40
0.75
40
0.75
40
1
40
1
40
1
40
1
41
1
10
20.178701312615
20
2.82252736701332
30
0
41
1
10
20.1167424512582
20
2.8574016991185
30
0
41
1
10
20.0530874569473
20
2.88957927454464
30
0
41
1
10
19.9224017372316
20
2.94881234844954
30
0
41
1
10
19.8553723953514
20
2.97586905964485
30
0
41
1
10
19.7521460525981
20
3.01256415700146
30
0
41
1
10
19.7172884313069
20
3.02414485689155
30
0
41
1
10
19.6466226424832
20
3.04595622679469
30
0
41
1
10
19.6107861009068
20
3.05619092283089
30
0
41
1
10
19.5026534670749
20
3.08452511415501
30
0
41
1
10
19.4294710409894
20
3.10037801222049
30
0
41
1
10
19.3550000000002
20
3.11274237218103
30
0
0
SPLINE
5
175
100
AcDbEntity
8
1
62
256
6
ByLayer
370
18
48
1
60
0
100
AcDbSpline
70
4
71
3
72
8
73
4
40
0
40
0
40
0
40
0
40
1
40
1
40
1
40
1
41
1
10
49.1493091260861
20
1.83409550374932
30
0
41
1
10
49.1500767392817
20
1.83566629421878
30
0
41
1
10
49.1508038683037
20
1.83724405528827
30
0
41
1
10
49.1514913689162
20
1.83882863961159
30
0
0
SPLINE
5
176
100
AcDbEntity
8
1
62
256
6
ByLayer
370
18
48
1
60
0
100
AcDbSpline
70
4
71
5
72
21
73
15
40
0
40
0
40
0
40
0
40
0
40
0
40
0.0548859414558093
40
0.14415712730711
40
0.233363687278716
40
0.321996008490711
40
0.345326605520567
40
0.459509449263579
40
0.588933382163739
40
0.855984026255838
40
0.945195271968628
40
1
40
1
40
1
40
1
40
1
40
1
41
1
10
49.1587737473647
20
1.88822195759141
30
0
41
1
10
49.1588069199367
20
1.89269466203223
30
0
41
1
10
49.1582696417818
20
1.90455028211829
30
0
41
1
10
49.1547445899617
20
1.92417535977216
30
0
41
1
10
49.144024538455
20
1.95205007376546
30
0
41
1
10
49.123957943606
20
1.98273363515307
30
0
41
1
10
49.0917438717295
20
2.01902161141774
30
0
41
1
10
49.0463667926865
20
2.0588686659367
30
0
41
1
10
48.968061517189
20
2.11379306644773
30
0
41
1
10
48.8693913834787
20
2.16611916247547
30
0
41
1
10
48.7471693898138
20
2.21504987055542
30
0
41
1
10
48.6370836676393
20
2.24925566027952
30
0
41
1
10
48.5504448257659
20
2.27105396526315
30
0
41
1
10
48.5198376162449
20
2.27815060921773
30
0
41
1
10
48.5081591925786
20
2.2807717015225
30
0
0
SPLINE
5
177
100
AcDbEntity
8
1
62
256
6
ByLayer
370
18
48
1
60
0
100
AcDbSpline
70
4
71
5
72
12
73
6
40
0
40
0
40
0
40
0
40
0
40
0
40
1
40
1
40
1
40
1
40
1
40
1
41
1
10
48.3970432891252
20
2.30262193106725
30
0
41
1
10
48.3969527214746
20
2.30263724506264
30
0
41
1
10
48.3968621539249
20
2.30265255399669
30
0
41
1
10
48.3967715864786
20
2.3026678578693
30
0
41
1
10
48.3966810191383
20
2.30268315668022
30
0
41
1
10
48.3965904519066
20
2.30269845042938
30
0
0
SPLINE
5
178
100
AcDbEntity
8
1
62
256
6
ByLayer
370
18
48
1
60
0
100
AcDbSpline
70
4
71
5
72
12
73
6
40
0
40
0
40
0
40
0
40
0
40
0
40
1
40
1
40
1
40
1
40
1
40
1
41
1
10
48.3965904519062
20
2.30269845042943
30
0
41
0.999999996886902
10
48.3962620802995
20
2.3027539013126
30
0
41
0.99999999384679
10
48.3959337088939
20
2.30280935185004
30
0
41
0.999999990879664
10
48.3956053376895
20
2.30286480204179
30
0
41
0.999999987985523
10
48.3952769666864
20
2.30292025188785
30
0
41
0.999999985164369
10
48.3949485958847
20
2.30297570138816
30
0
0
SPLINE
5
179
100
AcDbEntity
8
1
62
256
6
ByLayer
370
18
48
1
60
0
100
AcDbSpline
70
4
71
3
72
12
73
8
40
0
40
0
40
0
40
0
40
0.387340269460858
40
0.387340269460858
40
0.721027656912264
40
0.721027656912264
40
1
40
1
40
1
40
1
41
1
10
48.3587183152274
20
2.32837732579753
30
0
41
1
10
48.3633752423185
20
2.32510334786554
30
0
41
1
10
48.3680315762068
20
2.32182863217289
30
0
41
1
10
48.3766981467725
20
2.3157314125813
30
0
41
1
10
48.380708538646
20
2.31290910104642
30
0
41
1
10
48.3880709051403
20
2.30772622806111
30
0
41
1
10
48.3914230158131
20
2.30536583498289
30
0
41
1
10
48.3947748076345
20
2.30300504766413
30
0
0
SPLINE
5
17A
100
AcDbEntity
8
1
62
256
6
ByLayer
370
18
48
1
60
0
100
AcDbSpline
70
4
71
3
72
8
73
4
40
0
40
0
40
0
40
0
40
1
40
1
40
1
40
1
41
1
10
48.3587183152275
20
2.3283773257975
30
0
41
1
10
48.3587439890234
20
2.32844370546491
30
0
41
1
10
48.3587696767483
20
2.32850996610412
30
0
41
1
10
48.3587953783872
20
2.32857610778581
30
0
0
SPLINE
5
17B
100
AcDbEntity
8
1
62
256
6
ByLayer
370
18
48
1
60
0
100
AcDbSpline
70
4
71
3
72
37
73
33
40
0
40
0
40
0
40
0
40
0.125000000000024
40
0.125000000000024
40
0.156250000000029
40
0.156250000000029
40
0.187500000000034
40
0.187500000000034
40
0.250000000000036
40
0.250000000000036
40
0.312500000000038
40
0.312500000000038
40
0.343750000000038
40
0.343750000000038
40
0.375000000000039
40
0.375000000000039
40
0.500000000000043
40
0.500000000000043
40
0.562500000000038
40
0.562500000000038
40
0.625000000000032
40
0.687500000000027
40
0.687500000000027
40
0.750000000000022
40
0.750000000000022
40
0.812500000000016
40
0.812500000000016
40
0.875000000000011
40
0.875000000000011
40
0.937500000000005
40
0.937500000000005
40
1
40
1
40
1
40
1
41
1
10
47.1500527520412
20
0.713974080212239
30
0
41
1
10
47.1519456238212
20
0.776317876513076
30
0
41
1
10
47.1608153111199
20
0.838566554002881
30
0
41
1
10
47.1793022713192
20
0.917225282602487
30
0
41
1
10
47.1833756331682
20
0.932997965736604
30
0
41
1
10
47.1922651736892
20
0.964643683523633
30
0
41
1
10
47.1971000250051
20
0.980572104854701
30
0
41
1
10
47.2125640737468
20
1.02806453810121
30
0
41
1
10
47.2241190981666
20
1.05929101479418
30
0
41
1
10
47.2495134174808
20
1.12096145912673
30
0
41
1
10
47.2633564354462
20
1.15140336867415
30
0
41
1
10
47.285785191753
20
1.19649934737663
30
0
41
1
10
47.2935394674325
20
1.21143663243441
30
0
41
1
10
47.3096024531925
20
1.24112307303901
30
0
41
1
10
47.3179240572739
20
1.25589048843881
30
0
41
1
10
47.3603718561219
20
1.32834779662059
30
0
41
1
10
47.3973652786058
20
1.3826741501866
30
0
41
1
10
47.4568116449734
20
1.45924246678143
30
0
41
1
10
47.477383848949
20
1.48402673043199
30
0
41
1
10
47.5190674371683
20
1.53101719544466
30
0
41
1
10
47.5614394787691
20
1.57564941913057
30
0
41
1
10
47.6053043474262
20
1.61575379367915
30
0
41
1
10
47.6500575429274
20
1.65357574787922
30
0
41
1
10
47.6729789309744
20
1.67140921967189
30
0
41
1
10
47.7191547238853
20
1.70411013457843
30
0
41
1
10
47.7424672677732
20
1.71904260231909
30
0
41
1
10
47.7898258297295
20
1.74598466891675
30
0
41
1
10
47.8138694180832
20
1.75799643681617
30
0
41
1
10
47.8631109784198
20
1.77880286928411
30
0
41
1
10
47.8883038420223
20
1.78760305385606
30
0
41
1
10
47.9405096597803
20
1.80137686364915
30
0
41
1
10
47.9671580997392
20
1.80625115042304
30
0
41
1
10
47.9946589293203
20
1.80872495829061
30
0
0
SPLINE
5
17C
100
AcDbEntity
8
1
62
256
6
ByLayer
370
18
48
1
60
0
100
AcDbSpline
70
4
71
3
72
34
73
30
40
0
40
0
40
0
40
0
40
0.124999999999998
40
0.124999999999998
40
0.187499999999996
40
0.187499999999996
40
0.249999999999995
40
0.249999999999995
40
0.374999999999996
40
0.374999999999996
40
0.499999999999996
40
0.499999999999996
40
0.531249999999993
40
0.531249999999993
40
0.56249999999999
40
0.624999999999983
40
0.687499999999975
40
0.687499999999975
40
0.718749999999979
40
0.718749999999979
40
0.749999999999982
40
0.749999999999982
40
0.874999999999991
40
0.874999999999991
40
0.937499999999995
40
0.937499999999995
40
0.968749999999998
40
0.968749999999998
40
1
40
1
40
1
40
1
41
1
10
48.3947376094669
20
2.30305036583516
30
0
41
1
10
48.4187438669401
20
2.27380528937005
30
0
41
1
10
48.4402175688015
20
2.24474026927666
30
0
41
1
10
48.4672503584952
20
2.20151086105773
30
0
41
1
10
48.475393400461
20
2.18716276229458
30
0
41
1
10
48.4896348334045
20
2.15861193272664
30
0
41
1
10
48.4957380277277
20
2.1443974801625
30
0
41
1
10
48.5103792971237
20
2.10208547375532
30
0
41
1
10
48.5150909280911
20
2.07481985702782
30
0
41
1
10
48.5118241104368
20
2.02265710505634
30
0
41
1
10
48.5038608194858
20
1.9977571407787
30
0
41
1
10
48.4839005007159
20
1.96849974751345
30
0
41
1
10
48.4793953236843
20
1.96273589002726
30
0
41
1
10
48.4694817288574
20
1.95156886164278
30
0
41
1
10
48.4532194719054
20
1.93529571327656
30
0
41
1
10
48.4192167297163
20
1.91054007342032
30
0
41
1
10
48.3848347094852
20
1.89319816265359
30
0
41
1
10
48.3564393890447
20
1.881086520948
30
0
41
1
10
48.3465129089177
20
1.87718990091113
30
0
41
1
10
48.3260372406698
20
1.86976838883027
30
0
41
1
10
48.3154705205125
20
1.86623431344816
30
0
41
1
10
48.2611049934092
20
1.84938690170728
30
0
41
1
10
48.2127438450299
20
1.83852449790967
30
0
41
1
10
48.1346159013012
20
1.82523186255588
30
0
41
1
10
48.1076355153722
20
1.82130474575399
30
0
41
1
10
48.0659227286252
20
1.81608139624802
30
0
41
1
10
48.0518287295054
20
1.81445405510058
30
0
41
1
10
48.0234293646095
20
1.81142673961801
30
0
41
1
10
48.0091029574253
20
1.8100242554728
30
0
41
1
10
47.99465892932
20
1.80872495829121
30
0
0
SPLINE
5
17D
100
AcDbEntity
8
1
62
256
6
ByLayer
370
18
48
1
60
0
100
AcDbSpline
70
4
71
3
72
8
73
4
40
0
40
0
40
0
40
0
40
1
40
1
40
1
40
1
41
1
10
48.397043289125
20
2.30262193106731
30
0
41
1
10
48.4340826114039
20
2.29534230588379
30
0
41
1
10
48.4711212461392
20
2.2880588974154
30
0
41
1
10
48.5081591925786
20
2.28077170152241
30
0
0
SPLINE
5
17E
100
AcDbEntity
8
1
62
256
6
ByLayer
370
18
48
1
60
0
100
AcDbSpline
70
4
71
3
72
25
73
21
40
0
40
0
40
0
40
0
40
0.0156250000000047
40
0.0156250000000047
40
0.0312500000000093
40
0.0312500000000093
40
0.0625000000000094
40
0.125000000000009
40
0.125000000000009
40
0.187500000000008
40
0.187500000000008
40
0.250000000000007
40
0.250000000000007
40
0.375000000000006
40
0.375000000000006
40
0.500000000000004
40
0.500000000000004
40
0.750000000000002
40
0.750000000000002
40
1
40
1
40
1
40
1
41
1
10
48.5081591925802
20
2.28077170152122
30
0
41
1
10
48.512552737664
20
2.28697331813302
30
0
41
1
10
48.5164402925053
20
2.29339927022153
30
0
41
1
10
48.5236767305354
20
2.30640016480282
30
0
41
1
10
48.5270232119763
20
2.31299480557118
30
0
41
1
10
48.5365746627501
20
2.33293501134398
30
0
41
1
10
48.5537587452117
20
2.37342723260775
30
0
41
1
10
48.5682635542017
20
2.41456815873826
30
0
41
1
10
48.5866675668938
20
2.46920985829186
30
0
41
1
10
48.5953605514223
20
2.49648337386674
30
0
41
1
10
48.6121794186886
20
2.55081457130089
30
0
41
1
10
48.6202947907475
20
2.57787506195262
30
0
41
1
10
48.6440175353444
20
2.65867033700664
30
0
41
1
10
48.6590123970134
20
2.71201631156737
30
0
41
1
10
48.6877700440897
20
2.81754849064254
30
0
41
1
10
48.7015214722173
20
2.86976060316402
30
0
41
1
10
48.7407467740949
20
3.02394780586914
30
0
41
1
10
48.7642763484082
20
3.12370408961166
30
0
41
1
10
48.8051022837098
20
3.31725757549924
30
0
41
1
10
48.8223929314697
20
3.4110572663522
30
0
41
1
10
48.8356025923252
20
3.50192901158331
30
0
0
SPLINE
5
17F
100
AcDbEntity
8
1
62
256
6
ByLayer
370
18
48
1
60
0
100
AcDbSpline
70
4
71
3
72
8
73
4
40
0
40
0
40
0
40
0
40
1
40
1
40
1
40
1
41
1
10
48.8356025923251
20
3.50192901158334
30
0
41
1
10
48.8027975746509
20
3.57945608554377
30
0
41
1
10
48.7701610586622
20
3.65467093332671
30
0
41
1
10
48.7376976875663
20
3.72750983957582
30
0
0
SPLINE
5
180
100
AcDbEntity
8
1
62
256
6
ByLayer
370
18
48
1
60
0
100
AcDbSpline
70
4
71
3
72
22
73
18
40
0
40
0
40
0
40
0
40
0.162906251377687
40
0.162906251377687
40
0.325812502755375
40
0.325812502755375
40
0.65162500551075
40
0.65162500551075
40
0.733078131199592
40
0.733078131199592
40
0.773804694044016
40
0.773804694044016
40
0.81453125688844
40
0.81453125688844
40
0.977437508266141
40
0.977437508266141
40
1
40
1
40
1
40
1
41
1
10
48.7376976875661
20
3.72750983957638
30
0
41
1
10
48.477085741178
20
3.8651654553386
30
0
41
1
10
48.2176080785212
20
3.99458675313562
30
0
41
1
10
47.6996920425354
20
4.23655752171788
30
0
41
1
10
47.4412535140766
20
4.34914162580887
30
0
41
1
10
46.6658817575936
20
4.66057987361569
30
0
41
1
10
46.1489319962532
20
4.83295360210209
30
0
41
1
10
45.4971531887492
20
4.99989698556931
30
0
41
1
10
45.366516305328
20
5.03084856103712
30
0
41
1
10
45.1700283984222
20
5.07351917793889
30
0
41
1
10
45.1045347963169
20
5.087096631924
30
0
41
1
10
44.9737891109489
20
5.11291062651941
30
0
41
1
10
44.9084977446153
20
5.12515576872136
30
0
41
1
10
44.5824013114403
20
5.18308896904003
30
0
41
1
10
44.3226715014178
20
5.21893065715804
30
0
41
1
10
44.0276518724686
20
5.24778096287136
30
0
41
1
10
43.9917739402258
20
5.25108870316581
30
0
41
1
10
43.9559060958591
20
5.25419467212126
30
0
0
SPLINE
5
181
100
AcDbEntity
8
1
62
256
6
ByLayer
370
18
48
1
60
0
100
AcDbSpline
70
4
71
3
72
8
73
4
40
0
40
0
40
0
40
0
40
1
40
1
40
1
40
1
41
1
10
48.3557115010802
20
2.34917720906663
30
0
41
1
10
48.3567326537379
20
2.34237707470982
30
0
41
1
10
48.3577537484344
20
2.33556799261891
30
0
41
1
10
48.3587747712182
20
2.32875005714109
30
0
0
SPLINE
5
182
100
AcDbEntity
8
1
62
256
6
ByLayer
370
18
48
1
60
0
100
AcDbSpline
70
4
71
3
72
8
73
4
40
0
40
0
40
0
40
0
40
1
40
1
40
1
40
1
41
1
10
48.3557115010802
20
2.34917720906668
30
0
41
1
10
48.3698671423691
20
2.33426644957214
30
0
41
1
10
48.3835066093008
20
2.31897532797541
30
0
41
1
10
48.3965082338669
20
2.30326720045082
30
0
0
SPLINE
5
183
100
AcDbEntity
8
1
62
256
6
ByLayer
370
18
48
1
60
0
100
AcDbSpline
70
4
71
3
72
8
73
4
40
0
40
0
40
0
40
0
40
1
40
1
40
1
40
1
41
1
10
48.3965082338673
20
2.30326720045119
30
0
41
1
10
48.3966863644836
20
2.30305198900402
30
0
41
1
10
48.3968647150728
20
2.30283689824444
30
0
41
1
10
48.3970432891223
20
2.30262193106569
30
0
0
SPLINE
5
184
100
AcDbEntity
8
1
62
256
6
ByLayer
370
18
48
1
60
0
100
AcDbSpline
70
4
71
3
72
8
73
4
40
0
40
0
40
0
40
0
40
1
40
1
40
1
40
1
41
1
10
19.951159751795
20
-0.782965873872826
30
0
41
1
10
19.96381444067
20
-0.781408752076004
30
0
41
1
10
19.9767216820396
20
-0.779864567664987
30
0
41
1
10
19.9898763066916
20
-0.778333055839028
30
0
0
SPLINE
5
185
100
AcDbEntity
8
1
62
256
6
ByLayer
370
18
48
1
60
0
100
AcDbSpline
70
4
71
3
72
18
73
14
40
0
40
0
40
0
40
0
40
0.250000000000007
40
0.250000000000007
40
0.375000000000008
40
0.375000000000008
40
0.50000000000001
40
0.50000000000001
40
0.750000000000007
40
0.750000000000007
40
0.875000000000004
40
0.875000000000004
40
1
40
1
40
1
40
1
41
1
10
19.9898763066916
20
-0.778333055839028
30
0
41
1
10
20.1908599188412
20
-0.972107449674752
30
0
41
1
10
20.3952558440788
20
-1.15979002134327
30
0
41
1
10
20.7066699940368
20
-1.43286369664295
30
0
41
1
10
20.8112913330739
20
-1.52246605696902
30
0
41
1
10
21.0222682419946
20
-1.6987773575693
30
0
41
1
10
21.1284934208016
20
-1.78537386152189
30
0
41
1
10
21.4491829832411
20
-2.03992438540149
30
0
41
1
10
21.6658286510474
20
-2.20282253343356
30
0
41
1
10
21.9967977514777
20
-2.4356342559465
30
0
41
1
10
22.1079591127976
20
-2.51118595623282
30
0
41
1
10
22.3321134791069
20
-2.6577937063847
30
0
41
1
10
22.4451368044262
20
-2.72887139497746
30
0
41
1
10
22.5592989446252
20
-2.79758367626118
30
0
0
SPLINE
5
186
100
AcDbEntity
8
1
62
256
6
ByLayer
370
18
48
1
60
0
100
AcDbSpline
70
4
71
3
72
14
73
10
40
0
40
0
40
0
40
0
40
0.0837916538120044
40
0.167583307624009
40
0.335166615248019
40
0.502749922872029
40
0.670333230496039
40
0.837916538120048
40
1
40
1
40
1
40
1
41
1
10
23.1111044302745
20
-0.758114849656266
30
0
41
1
10
23.0940391280028
20
-0.820971922508221
30
0
41
1
10
23.0405896055726
20
-0.940325586773383
30
0
41
1
10
22.9249101075042
20
-1.17173265835436
30
0
41
1
10
22.7942532567451
20
-1.46279292143197
30
0
41
1
10
22.6632949331037
20
-1.80771292512995
30
0
41
1
10
22.5705524508133
20
-2.14741890273811
30
0
41
1
10
22.5284670636928
20
-2.47701969030084
30
0
41
1
10
22.539895709849
20
-2.69160525376543
30
0
41
1
10
22.5565115619568
20
-2.79615744354314
30
0
0
SPLINE
5
187
100
AcDbEntity
8
1
62
256
6
ByLayer
370
18
48
1
60
0
100
AcDbSpline
70
4
71
3
72
55
73
51
40
0
40
0
40
0
40
0
40
0.125000000000008
40
0.125000000000008
40
0.156250000000009
40
0.156250000000009
40
0.187500000000011
40
0.187500000000011
40
0.250000000000013
40
0.250000000000013
40
0.312500000000016
40
0.312500000000016
40
0.375000000000018
40
0.375000000000018
40
0.390625000000019
40
0.390625000000019
40
0.406250000000019
40
0.437500000000021
40
0.437500000000021
40
0.468750000000024
40
0.468750000000024
40
0.484375000000025
40
0.484375000000025
40
0.500000000000026
40
0.500000000000026
40
0.562500000000031
40
0.562500000000031
40
0.593750000000035
40
0.593750000000035
40
0.609375000000037
40
0.609375000000037
40
0.625000000000038
40
0.625000000000038
40
0.687500000000048
40
0.687500000000048
40
0.703125000000051
40
0.703125000000051
40
0.718750000000053
40
0.750000000000053
40
0.750000000000053
40
0.812500000000054
40
0.812500000000054
40
0.828125000000051
40
0.828125000000051
40
0.843750000000049
40
0.875000000000039
40
0.875000000000039
40
0.937500000000019
40
0.937500000000019
40
1
40
1
40
1
40
1
41
1
10
18.1938461578951
20
-4.56904708679329
30
0
41
1
10
18.1021306873993
20
-4.50964486361107
30
0
41
1
10
18.0138396203473
20
-4.44539476675507
30
0
41
1
10
17.9098902197106
20
-4.35724559422439
30
0
41
1
10
17.8894266262283
20
-4.33921925166197
30
0
41
1
10
17.8492328325734
20
-4.30230617188096
30
0
41
1
10
17.8294774249513
20
-4.28339419109096
30
0
41
1
10
17.7716338468222
20
-4.22542342673361
30
0
41
1
10
17.7351198413736
20
-4.18530465102276
30
0
41
1
10
17.6671239779213
20
-4.10170522701728
30
0
41
1
10
17.63563460739
20
-4.05822781948973
30
0
41
1
10
17.5790344660107
20
-3.96730767086805
30
0
41
1
10
17.5539076502696
20
-3.91987176879823
30
0
41
1
10
17.5277943353044
20
-3.85751579470494
30
0
41
1
10
17.5228318444695
20
-3.84486893972314
30
0
41
1
10
17.5135400884607
20
-3.81939788682726
30
0
41
1
10
17.5005405303001
20
-3.78090319707843
30
0
41
1
10
17.4905013411862
20
-3.74152372921023
30
0
41
1
10
17.4800649479695
20
-3.68818673297036
30
0
41
1
10
17.4763205106213
20
-3.66110282248397
30
0
41
1
10
17.4732120297151
20
-3.61981217890065
30
0
41
1
10
17.4725945840211
20
-3.60593774022692
30
0
41
1
10
17.4722564525369
20
-3.57795881122814
30
0
41
1
10
17.4725390387476
20
-3.56381227948998
30
0
41
1
10
17.476316260427
20
-3.49314302366352
30
0
41
1
10
17.486829640673
20
-3.43673211624451
30
0
41
1
10
17.5149605243581
20
-3.35269569118694
30
0
41
1
10
17.5264015968717
20
-3.32478091793399
30
0
41
1
10
17.5468459697961
20
-3.28311268181381
30
0
41
1
10
17.5542332296521
20
-3.2692146882234
30
0
41
1
10
17.5700190772913
20
-3.24170306300121
30
0
41
1
10
17.5783839046382
20
-3.22814110036933
30
0
41
1
10
17.6224926310323
20
-3.16128826063607
30
0
41
1
10
17.6650625146007
20
-3.11086040914625
30
0
41
1
10
17.7264788942528
20
-3.05152943536237
30
0
41
1
10
17.7391981511044
20
-3.0398279233757
30
0
41
1
10
17.7653353665882
20
-3.01689010839957
30
0
41
1
10
17.8054174203486
20
-2.98332640656017
30
0
41
1
10
17.8479532695573
20
-2.95214887122492
30
0
41
1
10
17.9359321051892
20
-2.89267777900187
30
0
41
1
10
17.9984423630953
20
-2.8568603122076
30
0
41
1
10
18.0805751377242
20
-2.81620428923782
30
0
41
1
10
18.0972319674944
20
-2.80826708087514
30
0
41
1
10
18.1307759663095
20
-2.79286577052517
30
0
41
1
10
18.1814047531928
20
-2.77048536055
30
0
41
1
10
18.2329101202807
20
-2.75014050993099
30
0
41
1
10
18.3369600959372
20
-2.71189330801502
30
0
41
1
10
18.4077060716518
20
-2.68963872658728
30
0
41
1
10
18.5514798703412
20
-2.65061075527424
30
0
41
1
10
18.6245108583258
20
-2.63384390987616
30
0
41
1
10
18.6985337395644
20
-2.61949978208716
30
0
0
SPLINE
5
188
100
AcDbEntity
8
1
62
256
6
ByLayer
370
18
48
1
60
0
100
AcDbSpline
70
4
71
3
72
55
73
51
40
0
40
0
40
0
40
0
40
0.125000000000007
40
0.125000000000007
40
0.156250000000008
40
0.156250000000008
40
0.187500000000009
40
0.187500000000009
40
0.250000000000012
40
0.250000000000012
40
0.312500000000014
40
0.312500000000014
40
0.375000000000016
40
0.375000000000016
40
0.390625000000016
40
0.390625000000016
40
0.406250000000017
40
0.437500000000016
40
0.437500000000016
40
0.468750000000016
40
0.468750000000016
40
0.484375000000016
40
0.484375000000016
40
0.500000000000016
40
0.500000000000016
40
0.562500000000015
40
0.562500000000015
40
0.593750000000014
40
0.593750000000014
40
0.609375000000013
40
0.609375000000013
40
0.625000000000013
40
0.625000000000013
40
0.687500000000004
40
0.687500000000004
40
0.703125000000001
40
0.703125000000001
40
0.718749999999998
40
0.749999999999992
40
0.749999999999992
40
0.812499999999984
40
0.812499999999984
40
0.828124999999984
40
0.828124999999984
40
0.843749999999985
40
0.874999999999986
40
0.874999999999986
40
0.937499999999993
40
0.937499999999993
40
1
40
1
40
1
40
1
41
1
10
18.1938461578951
20
0.842312197460842
30
0
41
1
10
18.1021306873993
20
0.958996129194134
30
0
41
1
10
18.0138396203473
20
1.07791408938664
30
0
41
1
10
17.9098902197106
20
1.23092651588294
30
0
41
1
10
17.8894266262283
20
1.26175134387759
30
0
41
1
10
17.8492328325734
20
1.32390522685842
30
0
41
1
10
17.8294774249513
20
1.35527546054942
30
0
41
1
10
17.7716338468222
20
1.44996092734169
30
0
41
1
10
17.7351198413736
20
1.51357401509756
30
0
41
1
10
17.6671239779213
20
1.64210783885602
30
0
41
1
10
17.63563460739
20
1.7070258838157
30
0
41
1
10
17.5790344660107
20
1.83864252990938
30
0
41
1
10
17.5539076502695
20
1.90533534938626
30
0
41
1
10
17.5277943353044
20
1.99027537493265
30
0
41
1
10
17.5228318444695
20
2.00737157433528
30
0
41
1
10
17.5135400884607
20
2.04153744484009
30
0
41
1
10
17.5005405303001
20
2.09277786194738
30
0
41
1
10
17.4905013411862
20
2.14400620880522
30
0
41
1
10
17.4800649479695
20
2.21232834978005
30
0
41
1
10
17.4763205106213
20
2.24649817868138
30
0
41
1
10
17.4732120297151
20
2.29779270381849
30
0
41
1
10
17.4725945840211
20
2.31489757140432
30
0
41
1
10
17.472256452537
20
2.34912602655226
30
0
41
1
10
17.4725390387476
20
2.36629996752865
30
0
41
1
10
17.476316260427
20
2.45143723144551
30
0
41
1
10
17.486829640673
20
2.51731353098498
30
0
41
1
10
17.5149605243581
20
2.61272121612149
30
0
41
1
10
17.5264015968717
20
2.64395527901706
30
0
41
1
10
17.5468459697961
20
2.68993871184219
30
0
41
1
10
17.5542332296521
20
2.70516817273648
30
0
41
1
10
17.5700190772914
20
2.7351110160221
30
0
41
1
10
17.5783839046383
20
2.74976896844109
30
0
41
1
10
17.6224926310324
20
2.82155780333571
30
0
41
1
10
17.6650625146008
20
2.87420752625604
30
0
41
1
10
17.7264788942529
20
2.93487031826592
30
0
41
1
10
17.7391981511045
20
2.94676532711912
30
0
41
1
10
17.7653353665883
20
2.96995791235989
30
0
41
1
10
17.8054174203487
20
3.00370431404343
30
0
41
1
10
17.8479532695575
20
3.03455798971242
30
0
41
1
10
17.9359321051893
20
3.09289795498518
30
0
41
1
10
17.9984423630955
20
3.12732592950397
30
0
41
1
10
18.0805751377244
20
3.16589369144828
30
0
41
1
10
18.0972319674945
20
3.17339412817353
30
0
41
1
10
18.1307759663096
20
3.18789780810934
30
0
41
1
10
18.181404753193
20
3.20889646497119
30
0
41
1
10
18.2329101202808
20
3.22779022928293
30
0
41
1
10
18.3369600959374
20
3.26311751488777
30
0
41
1
10
18.407706071652
20
3.28340582869271
30
0
41
1
10
18.5514798703413
20
3.31872315682202
30
0
41
1
10
18.624510858326
20
3.33374359989165
30
0
41
1
10
18.6985337395645
20
3.34652626312629
30
0
0
SPLINE
5
189
100
AcDbEntity
8
1
62
256
6
ByLayer
370
18
48
1
60
0
100
AcDbSpline
70
4
71
3
72
20
73
16
40
0
40
0
40
0
40
0
40
0.125000000000019
40
0.125000000000019
40
0.250000000000039
40
0.250000000000039
40
0.375000000000058
40
0.375000000000058
40
0.437500000000052
40
0.437500000000052
40
0.500000000000046
40
0.500000000000046
40
0.750000000000023
40
0.750000000000023
40
1
40
1
40
1
40
1
41
1
10
18.6985337395645
20
3.34652626312627
30
0
41
1
10
18.7259190108358
20
3.35125529683034
30
0
41
1
10
18.753423344593
20
3.35474862016284
30
0
41
1
10
18.8086246217004
20
3.35974772450223
30
0
41
1
10
18.8363219206902
20
3.36124964272472
30
0
41
1
10
18.8918816848093
20
3.36255339406381
30
0
41
1
10
18.9197443173855
20
3.36235341425513
30
0
41
1
10
18.9616486583039
20
3.36091668966765
30
0
41
1
10
18.9756581220656
20
3.36024595731016
30
0
41
1
10
19.0035484881105
20
3.35855227734859
30
0
41
1
10
19.0174397144129
20
3.35752964711602
30
0
41
1
10
19.0866440947715
20
3.35159469310156
30
0
41
1
10
19.1412104271172
20
3.34424539694808
30
0
41
1
10
19.2490455530175
20
3.3252520967834
30
0
41
1
10
19.302310874104
20
3.31359656335957
30
0
41
1
10
19.355000000001
20
3.29999050665501
30
0
0
SPLINE
5
18A
100
AcDbEntity
8
1
62
256
6
ByLayer
370
18
48
1
60
0
100
AcDbSpline
70
4
71
3
72
8
73
4
40
0
40
0
40
0
40
0
40
1
40
1
40
1
40
1
41
1
10
22.548743258592
20
3.20489575420137
30
0
41
1
10
22.6744035928234
20
3.14072386653203
30
0
41
1
10
22.7999694398965
20
3.07503400680255
30
0
41
1
10
22.9254891338879
20
3.0078609139774
30
0
0
SPLINE
5
18B
100
AcDbEntity
8
1
62
256
6
ByLayer
370
18
48
1
60
0
100
AcDbSpline
70
4
71
3
72
26
73
22
40
0
40
0
40
0
40
0
40
0.0624999999999989
40
0.0624999999999989
40
0.124999999999998
40
0.124999999999998
40
0.249999999999998
40
0.249999999999998
40
0.374999999999999
40
0.374999999999999
40
0.499999999999998
40
0.499999999999998
40
0.562499999999999
40
0.562499999999999
40
0.625
40
0.625
40
0.75
40
0.75
40
0.875
40
0.875
40
1
40
1
40
1
40
1
41
1
10
48.5243344539143
20
-0.823996398641953
30
0
41
1
10
48.5294385294993
20
-0.860382572718862
30
0
41
1
10
48.5344373079137
20
-0.896665350397825
30
0
41
1
10
48.5441828493327
20
-0.968785155783479
30
0
41
1
10
48.5489335474328
20
-1.00464981722951
30
0
41
1
10
48.5628000748562
20
-1.11162713122792
30
0
41
1
10
48.571532857539
20
-1.18212714427096
30
0
41
1
10
48.5878241196049
20
-1.32124900586834
30
0
41
1
10
48.5953832233923
20
-1.3898718530867
30
0
41
1
10
48.6090933956068
20
-1.52486555520389
30
0
41
1
10
48.6152286544573
20
-1.59121112448364
30
0
41
1
10
48.6232152278163
20
-1.68878412111576
30
0
41
1
10
48.6256759270141
20
-1.72098618992825
30
0
41
1
10
48.6301675677007
20
-1.78470297900509
30
0
41
1
10
48.632199826563
20
-1.81625500013044
30
0
41
1
10
48.6375546157574
20
-1.90896000722862
30
0
41
1
10
48.6401599980847
20
-1.9684341916024
30
0
41
1
10
48.6432033015286
20
-2.08214827319634
30
0
41
1
10
48.643636013544
20
-2.13637559075391
30
0
41
1
10
48.641937432218
20
-2.23863830869232
30
0
41
1
10
48.6398216908028
20
-2.28671126602876
30
0
41
1
10
48.6362964984727
20
-2.33138048502965
30
0
0
SPLINE
5
18C
100
AcDbEntity
8
1
62
256
6
ByLayer
370
18
48
1
60
0
100
AcDbSpline
70
4
71
3
72
8
73
4
40
0
40
0
40
0
40
0
40
1
40
1
40
1
40
1
41
1
10
47.4602668375938
20
0.0790094283222516
30
0
41
1
10
47.814120559068
20
-0.217518144365499
30
0
41
1
10
48.1688266708019
20
-0.518610627028352
30
0
41
1
10
48.5243344539151
20
-0.823996398641782
30
0
0
SPLINE
5
18D
100
AcDbEntity
8
1
62
256
6
ByLayer
370
18
48
1
60
0
100
AcDbSpline
70
4
71
3
72
17
73
13
40
0
40
0
40
0
40
0
40
0.250000000000025
40
0.250000000000025
40
0.375000000000021
40
0.375000000000021
40
0.500000000000017
40
0.625000000000013
40
0.625000000000013
40
0.750000000000009
40
0.750000000000009
40
1
40
1
40
1
40
1
41
1
10
47.4602668375938
20
0.0790094283222516
30
0
41
1
10
47.4108275873012
20
0.120439262163472
30
0
41
1
10
47.3662312265189
20
0.165155670253654
30
0
41
1
10
47.3071471344229
20
0.23764797769752
30
0
41
1
10
47.2887498259744
20
0.262741941982711
30
0
41
1
10
47.2548391834641
20
0.314860346453429
30
0
41
1
10
47.2244484119293
20
0.367927065755992
30
0
41
1
10
47.2009637762625
20
0.422996859135935
30
0
41
1
10
47.180954930651
20
0.479164229680265
30
0
41
1
10
47.1726804107965
20
0.507824178705278
30
0
41
1
10
47.1532942586342
20
0.595496789168806
30
0
41
1
10
47.1479654321745
20
0.654366822502794
30
0
41
1
10
47.1500527520412
20
0.713974080212239
30
0
0
SPLINE
5
18E
100
AcDbEntity
8
1
62
256
6
ByLayer
370
18
48
1
60
0
100
AcDbSpline
70
4
71
5
72
24
73
18
40
0
40
0
40
0
40
0
40
0
40
0
40
0.0509861427509463
40
0.116548674215576
40
0.214892471412518
40
0.280455002877147
40
0.378798800074091
40
0.477142597271034
40
0.542705128735663
40
0.608267660200292
40
0.706611457397235
40
0.804955254594178
40
0.870517786058807
40
0.96886158325575
40
1
40
1
40
1
40
1
40
1
40
1
41
1
10
41.2338422361357
20
2.90590400100359
30
0
41
1
10
41.2941711869175
20
2.89163873701977
30
0
41
1
10
41.4320764853192
20
2.85843240161569
30
0
41
1
10
41.6863463051511
20
2.79470876731915
30
0
41
1
10
42.0181924726031
20
2.70565038243873
30
0
41
1
10
42.4664031614853
20
2.5753870806362
30
0
41
1
10
42.9706494210159
20
2.41635570470814
30
0
41
1
10
43.4748956805464
20
2.24446033343329
30
0
41
1
10
43.9403537662669
20
2.07577401115924
30
0
41
1
10
44.4446000257973
20
1.8830932595902
30
0
41
1
10
44.948846285328
20
1.68131490514435
30
0
41
1
10
45.4143043710484
20
1.4874643538235
30
0
41
1
10
45.918550630579
20
1.27027023239546
30
0
41
1
10
46.3820648282076
20
1.06444300441652
30
0
41
1
10
46.7292145044061
20
0.907207506268861
30
0
41
1
10
46.9599996591746
20
0.801545551103118
30
0
41
1
10
47.1132084663229
20
0.730970269544059
30
0
41
1
10
47.1500527520411
20
0.713974080212296
30
0
0
SPLINE
5
18F
100
AcDbEntity
8
1
62
256
6
ByLayer
370
18
48
1
60
0
100
AcDbSpline
70
4
71
3
72
8
73
4
40
0
40
0
40
0
40
0
40
1
40
1
40
1
40
1
41
1
10
48.8426923742879
20
-5.17147095686923
30
0
41
1
10
48.8397863052656
20
-5.1764124309193
30
0
41
1
10
48.8368468617173
20
-5.18133047464545
30
0
41
1
10
48.8338749720027
20
-5.18622574040086
30
0
0
SPLINE
5
190
100
AcDbEntity
8
1
62
256
6
ByLayer
370
18
48
1
60
0
100
AcDbSpline
70
4
71
3
72
20
73
16
40
0
40
0
40
0
40
0
40
0.165819178176254
40
0.165819178176254
40
0.374364383632179
40
0.374364383632179
40
0.478636986360144
40
0.478636986360144
40
0.530773287724128
40
0.530773287724128
40
0.582909589088113
40
0.582909589088113
40
0.791454794544057
40
0.791454794544057
40
1
40
1
40
1
40
1
41
1
10
48.7649173535538
20
-4.24408950973088
30
0
41
1
10
48.7725259001256
20
-4.2875686607984
30
0
41
1
10
48.7797074972266
20
-4.33221422848706
30
0
41
1
10
48.7948854524342
20
-4.43583852207075
30
0
41
1
10
48.8026179479336
20
-4.49553811484097
30
0
41
1
10
48.8129579240581
20
-4.58852642826352
30
0
41
1
10
48.8161939819408
20
-4.6200978895881
30
0
41
1
10
48.8207000619663
20
-4.6684058285428
30
0
41
1
10
48.8221448400329
20
-4.68467934357889
30
0
41
1
10
48.8248987348351
20
-4.71740319963598
30
0
41
1
10
48.8262095346478
20
-4.73387039971183
30
0
41
1
10
48.8324197086104
20
-4.81675358817537
30
0
41
1
10
48.8362780138315
20
-4.88482640880812
30
0
41
1
10
48.8414431271416
20
-5.0250326867947
30
0
41
1
10
48.8427664144896
20
-5.09713991786657
30
0
41
1
10
48.8426923742882
20
-5.17147095686914
30
0
0
SPLINE
5
191
100
AcDbEntity
8
1
62
256
6
ByLayer
370
18
48
1
60
0
100
AcDbSpline
70
4
71
3
72
8
73
4
40
0
40
0
40
0
40
0
40
1
40
1
40
1
40
1
41
1
10
23.8000000000002
20
2.60980023997303
30
0
41
1
10
23.8047017604711
20
2.60703903374576
30
0
41
1
10
23.8094032466278
20
2.60427521090188
30
0
41
1
10
23.8141044622038
20
2.60150877470957
30
0
0
SPLINE
5
192
100
AcDbEntity
8
1
62
256
6
ByLayer
370
18
48
1
60
0
100
AcDbSpline
70
4
71
3
72
12
73
8
40
0
40
0
40
0
40
0
40
0.0047794570263205
40
0.268277500275439
40
0.531775543524557
40
0.795273586773675
40
1
40
1
40
1
40
1
41
1
10
22.9254891338878
20
3.0078609139774
30
0
41
1
10
22.9254891338878
20
3.00519138417377
30
0
41
1
10
22.9254891338878
20
2.85519226817277
30
0
41
1
10
22.9254891338878
20
2.54068537956701
30
0
41
1
10
22.9254891338877
20
2.02934873848099
30
0
41
1
10
22.9254891338878
20
1.5219006039828
30
0
41
1
10
22.9254891338879
20
1.1816979303718
30
0
41
1
10
22.9254891338878
20
1.03090066942622
30
0
0
SPLINE
5
193
100
AcDbEntity
8
1
62
256
6
ByLayer
370
13
48
1
60
0
100
AcDbSpline
70
4
71
3
72
11
73
7
40
0
40
0
40
0
40
0
40
0.217130151093982
40
0.478632315138859
40
0.740134479183736
40
1
40
1
40
1
40
1
41
1
10
23.8000000000002
20
2.60980023997303
30
0
41
1
10
23.8000000000002
20
2.46528732316341
30
0
41
1
10
23.8000000000001
20
2.13537783983281
30
0
41
1
10
23.8000000000002
20
1.59176068963504
30
0
41
1
10
23.8000000000002
20
0.985892056177534
30
0
41
1
10
23.8
20
0.56738493812324
30
0
41
1
10
23.8
20
0.356457473952105
30
0
0
SPLINE
5
194
100
AcDbEntity
8
1
62
256
6
ByLayer
370
18
48
1
60
0
100
AcDbSpline
70
4
71
3
72
18
73
14
40
0
40
0
40
0
40
0
40
0.250000000000017
40
0.250000000000017
40
0.375000000000014
40
0.375000000000014
40
0.500000000000011
40
0.500000000000011
40
0.625000000000008
40
0.625000000000008
40
0.750000000000005
40
0.750000000000005
40
1
40
1
40
1
40
1
41
1
10
22.9254891338878
20
3.0078609139774
30
0
41
1
10
22.9906384927044
20
2.9879928701362
30
0
41
1
10
23.0581165318293
20
2.96493960643136
30
0
41
1
10
23.1626213938433
20
2.92522970355776
30
0
41
1
10
23.1980054712988
20
2.91113725148449
30
0
41
1
10
23.2698613507721
20
2.88117960992858
30
0
41
1
10
23.306230889218
20
2.86535622292504
30
0
41
1
10
23.3797034196748
20
2.83205715369746
30
0
41
1
10
23.4168275317785
20
2.81457277425159
30
0
41
1
10
23.4918527776186
20
2.77791483836822
30
0
41
1
10
23.5297933882527
20
2.75871954429439
30
0
41
1
10
23.6442692897905
20
2.69885606524667
30
0
41
1
10
23.7215793318292
20
2.65585440173689
30
0
41
1
10
23.8000000000002
20
2.60980023997303
30
0
0
SPLINE
5
195
100
AcDbEntity
8
1
62
256
6
ByLayer
370
18
48
1
60
0
100
AcDbSpline
70
4
71
3
72
86
73
82
40
0
40
0
40
0
40
0
40
0.0006883963184172
40
0.0006883963184172
40
0.0117918585815456
40
0.0117918585815456
40
0.0228953208446739
40
0.0673091698971902
40
0.0673091698971902
40
0.0895160944234484
40
0.0895160944234484
40
0.111723018949707
40
0.111723018949707
40
0.156136868002223
40
0.156136868002223
40
0.178343792528481
40
0.178343792528481
40
0.200550717054738
40
0.200550717054738
40
0.222757641580995
40
0.222757641580995
40
0.233861103844123
40
0.233861103844123
40
0.244964566107251
40
0.244964566107251
40
0.267171490633507
40
0.267171490633507
40
0.289378415159763
40
0.289378415159763
40
0.333792264212274
40
0.333792264212274
40
0.35599918873853
40
0.35599918873853
40
0.378206113264786
40
0.378206113264786
40
0.400413037791042
40
0.400413037791042
40
0.422619962317298
40
0.422619962317298
40
0.467033811369809
40
0.467033811369809
40
0.478137273632938
40
0.478137273632938
40
0.489240735896066
40
0.489240735896066
40
0.511447660422324
40
0.511447660422324
40
0.555861509474839
40
0.555861509474839
40
0.578068434001097
40
0.578068434001097
40
0.600275358527354
40
0.600275358527354
40
0.644689207579867
40
0.644689207579867
40
0.689103056632381
40
0.689103056632381
40
0.700206518895509
40
0.700206518895509
40
0.711309981158638
40
0.711309981158638
40
0.733516905684897
40
0.733516905684897
40
0.755723830211156
40
0.755723830211156
40
0.777930754737415
40
0.777930754737415
40
0.822344603789933
40
0.822344603789933
40
0.866758452842451
40
0.866758452842451
40
0.911172301894969
40
0.911172301894969
40
0.933379226421228
40
0.933379226421228
40
0.944482688684357
40
0.944482688684357
40
0.955586150947485
40
0.977793075473743
40
0.977793075473743
40
1
40
1
40
1
40
1
41
1
10
41.2823126230164
20
-4.90589218025127
30
0
41
1
10
41.2782719305923
20
-4.90696758751059
30
0
41
1
10
41.2742309149093
20
-4.90804071201953
30
0
41
1
10
41.2050049168521
20
-4.92638361380196
30
0
41
1
10
41.1397190143997
20
-4.94306381608098
30
0
41
1
10
41.0094328852022
20
-4.97510202339419
30
0
41
1
10
40.6841412128506
20
-5.05197159702635
30
0
41
1
10
40.3607533230627
20
-5.1126845020429
30
0
41
1
10
39.9736885436649
20
-5.16990449335984
30
0
41
1
10
39.8448338280539
20
-5.18637088891154
30
0
41
1
10
39.587319420603
20
-5.21406581023689
30
0
41
1
10
39.4586546996289
20
-5.22532098045312
30
0
41
1
10
39.0726936001793
20
-5.25185698664887
30
0
41
1
10
38.8154710102588
20
-5.25970803122453
30
0
41
1
10
38.4290608844044
20
-5.25545004717304
30
0
41
1
10
38.3001591335189
20
-5.25131196264644
30
0
41
1
10
38.0420050917065
20
-5.23775769503558
30
0
41
1
10
37.9127512571202
20
-5.22845686607758
30
0
41
1
10
37.6537674831894
20
-5.20486125875735
30
0
41
1
10
37.5240384304484
20
-5.19051619572627
30
0
41
1
10
37.3289819025733
20
-5.16499190366784
30
0
41
1
10
37.2638856878149
20
-5.15581591530432
30
0
41
1
10
37.1335184438861
20
-5.13610117243636
30
0
41
1
10
37.0682418252543
20
-5.12556025502829
30
0
41
1
10
36.8728648867132
20
-5.09199427823091
30
0
41
1
10
36.7429754193483
20
-5.06695863131293
30
0
41
1
10
36.4836642496172
20
-5.01224901436535
30
0
41
1
10
36.3542447722754
20
-4.98258162526449
30
0
41
1
10
35.9665794111999
20
-4.8863751168692
30
0
41
1
10
35.708930577116
20
-4.81261783335577
30
0
41
1
10
35.3228759914995
20
-4.68756189611668
30
0
41
1
10
35.194245191517
20
-4.64358659093759
30
0
41
1
10
34.9369435531391
20
-4.55142638554216
30
0
41
1
10
34.8082817797256
20
-4.50316414652468
30
0
41
1
10
34.5508234971904
20
-4.40213956304342
30
0
41
1
10
34.4220257393167
20
-4.34939116819962
30
0
41
1
10
34.1641564936971
20
-4.23938561007711
30
0
41
1
10
34.0350844374651
20
-4.18208166988737
30
0
41
1
10
33.6472316333923
20
-4.0038859151062
30
0
41
1
10
33.387834802831
20
-3.87699041529916
30
0
41
1
10
33.0618536665984
20
-3.70776722647
30
0
41
1
10
32.9965944427592
20
-3.67340893015143
30
0
41
1
10
32.8663660191792
20
-3.60390508888301
30
0
41
1
10
32.8013382925145
20
-3.56872871401421
30
0
41
1
10
32.6064877894225
20
-3.46195573881855
30
0
41
1
10
32.4768900131299
20
-3.38913805415993
30
0
41
1
10
32.0886967559795
20
-3.16644312619158
30
0
41
1
10
31.8307742067648
20
-3.01208230484829
30
0
41
1
10
31.4445029081479
20
-2.77218260020962
30
0
41
1
10
31.3158470215274
20
-2.69081539645236
30
0
41
1
10
31.0585778829657
20
-2.52556275072053
30
0
41
1
10
30.9299569915405
20
-2.44173132118979
30
0
41
1
10
30.5439633928918
20
-2.1867756650866
30
0
41
1
10
30.2864805657208
20
-2.01201605882145
30
0
41
1
10
29.7701105582849
20
-1.65420772954206
30
0
41
1
10
29.5112206246763
20
-1.47115222172684
30
0
41
1
10
29.1860396247617
20
-1.23806773558971
30
0
41
1
10
29.1209250417175
20
-1.19123615450729
30
0
41
1
10
28.9905210464957
20
-1.09715945765103
30
0
41
1
10
28.9252790011442
20
-1.04994837235739
30
0
41
1
10
28.7299618735744
20
-0.908228252852723
30
0
41
1
10
28.6000869589582
20
-0.813478038321222
30
0
41
1
10
28.3408690095487
20
-0.623630566114286
30
0
41
1
10
28.2115222773982
20
-0.528537158690398
30
0
41
1
10
27.9531986571292
20
-0.338213853036507
30
0
41
1
10
27.8242195122789
20
-0.242985589962188
30
0
41
1
10
27.4376559758875
20
0.0426510926781134
30
0
41
1
10
27.1804669108528
20
0.233024728816844
30
0
41
1
10
26.6659705449257
20
0.612140056827997
30
0
41
1
10
26.4086668291966
20
0.800897937915977
30
0
41
1
10
25.8929423951699
20
1.17536055619004
30
0
41
1
10
25.634504717703
20
1.36104189379554
30
0
41
1
10
25.2451637227272
20
1.6361652899312
30
0
41
1
10
25.115104802454
20
1.72730828016276
30
0
41
1
10
24.9194893809159
20
1.86301700365539
30
0
41
1
10
24.8542545503807
20
1.9080442263471
30
0
41
1
10
24.7239523211197
20
1.99748352239803
30
0
41
1
10
24.528642331567
20
2.13079369205576
30
0
41
1
10
24.3336597869969
20
2.26149586803035
30
0
41
1
10
24.0738152879399
20
2.43334757732026
30
0
41
1
10
23.9439578154946
20
2.51807393932933
30
0
41
1
10
23.8141044622035
20
2.60150877470963
30
0
0
SPLINE
5
196
100
AcDbEntity
8
1
62
256
6
ByLayer
370
18
48
1
60
0
100
AcDbSpline
70
4
71
3
72
18
73
14
40
0
40
0
40
0
40
0
40
0.25
40
0.25
40
0.375
40
0.375
40
0.5
40
0.5
40
0.625
40
0.625
40
0.75
40
0.75
40
1
40
1
40
1
40
1
41
1
10
23.8000000000001
20
0.356457473952105
30
0
41
1
10
23.8011914935431
20
0.558892356964151
30
0
41
1
10
23.8024759657941
20
0.758397559974327
30
0
41
1
10
23.8043057307885
20
1.05329056288517
30
0
41
1
10
23.8049203573426
20
1.15096709272683
30
0
41
1
10
23.8061028440417
20
1.34394510377893
30
0
41
1
10
23.8066704934628
20
1.43932460600286
30
0
41
1
10
23.807813019635
20
1.62786869953288
30
0
41
1
10
23.8084030471836
20
1.72103268595688
30
0
41
1
10
23.8095638638642
20
1.90513271410109
30
0
41
1
10
23.8101290049814
20
1.995761613144
30
0
41
1
10
23.8118206585365
20
2.26304783571186
30
0
41
1
10
23.8129882582475
20
2.43527965390337
30
0
41
1
10
23.8141044622035
20
2.60150877470966
30
0
0
SPLINE
5
197
100
AcDbEntity
8
1
62
256
6
ByLayer
370
18
48
1
60
0
100
AcDbSpline
70
4
71
3
72
97
73
93
40
0
40
0
40
0
40
0
40
0.0338129130009559
40
0.0338129130009559
40
0.0676258260019118
40
0.0676258260019118
40
0.135251652003824
40
0.135251652003824
40
0.152158108504302
40
0.152158108504302
40
0.160611336754541
40
0.160611336754541
40
0.16906456500478
40
0.16906456500478
40
0.202877478005738
40
0.202877478005738
40
0.236690391006696
40
0.236690391006696
40
0.270503304007654
40
0.270503304007654
40
0.304316217008613
40
0.304316217008613
40
0.321222673509091
40
0.321222673509091
40
0.32967590175933
40
0.32967590175933
40
0.338129130009569
40
0.371942043010523
40
0.371942043010523
40
0.388848499511001
40
0.388848499511001
40
0.405754956011478
40
0.405754956011478
40
0.439567869012432
40
0.439567869012432
40
0.456474325512909
40
0.456474325512909
40
0.473380782013385
40
0.473380782013385
40
0.490287238513862
40
0.490287238513862
40
0.498740466764101
40
0.498740466764101
40
0.507193695014339
40
0.507193695014339
40
0.524100151514816
40
0.524100151514816
40
0.541006608015292
40
0.541006608015292
40
0.574819521016246
40
0.574819521016246
40
0.591725977516724
40
0.591725977516724
40
0.608632434017201
40
0.608632434017201
40
0.625538890517678
40
0.625538890517678
40
0.642445347018155
40
0.642445347018155
40
0.659351803518633
40
0.659351803518633
40
0.67625826001911
40
0.67625826001911
40
0.684711488269348
40
0.684711488269348
40
0.693164716519586
40
0.693164716519586
40
0.710071173020062
40
0.710071173020062
40
0.743884086021011
40
0.743884086021011
40
0.77769699902196
40
0.77769699902196
40
0.811509912022909
40
0.811509912022909
40
0.845322825023858
40
0.845322825023858
40
0.853776053274095
40
0.853776053274095
40
0.862229281524332
40
0.862229281524332
40
0.879135738024807
40
0.879135738024807
40
0.912948651025757
40
0.912948651025757
40
0.946761564026707
40
0.946761564026707
40
0.963668020527182
40
0.963668020527182
40
0.980574477027658
40
0.980574477027658
40
1
40
1
40
1
40
1
41
1
10
48.8338749720032
20
-5.18622574040054
30
0
41
1
10
48.5719631398488
20
-5.2306278346673
30
0
41
1
10
48.3112739922108
20
-5.26405986404288
30
0
41
1
10
47.7910842995469
20
-5.30956836891943
30
0
41
1
10
47.5315842042307
20
-5.32167223600013
30
0
41
1
10
46.7531968990008
20
-5.32631584112093
30
0
41
1
10
46.2344689545906
20
-5.28692286138431
30
0
41
1
10
45.5806695882865
20
-5.18412543751177
30
0
41
1
10
45.449638856486
20
-5.16088052866405
30
0
41
1
10
45.2525738098685
20
-5.1219545734746
30
0
41
1
10
45.1867538339364
20
-5.10829266965524
30
0
41
1
10
45.055378065256
20
-5.07971907767913
30
0
41
1
10
44.9897762447291
20
-5.06479920724598
30
0
41
1
10
44.662149250946
20
-4.98708410382156
30
0
41
1
10
44.4012639393009
20
-4.91497207023571
30
0
41
1
10
43.8807927998301
20
-4.75177185129158
30
0
41
1
10
43.621211486364
20
-4.66065200163865
30
0
41
1
10
43.1022338325048
20
-4.46028134434101
30
0
41
1
10
42.8428387805628
20
-4.35104563491007
30
0
41
1
10
42.3231295180876
20
-4.11511805100062
30
0
41
1
10
42.0628130221957
20
-3.98841021744897
30
0
41
1
10
41.6707932747271
20
-3.78595577870379
30
0
41
1
10
41.5398629360607
20
-3.71640284931399
30
0
41
1
10
41.3429720133987
20
-3.60901836571236
30
0
41
1
10
41.2772163113761
20
-3.57269033821999
30
0
41
1
10
41.1457168144374
20
-3.49913329850619
30
0
41
1
10
40.8174222054989
20
-3.31322846168024
30
0
41
1
10
40.4911685724763
20
-3.11755149341079
30
0
41
1
10
40.1007612366678
20
-2.87440760708898
30
0
41
1
10
39.970808224147
20
-2.79197151895303
30
0
41
1
10
39.7111248426377
20
-2.6244935135187
30
0
41
1
10
39.5813960880731
20
-2.53943810512132
30
0
41
1
10
39.1922974401123
20
-2.28083041808642
30
0
41
1
10
38.9330215219611
20
-2.10388466910445
30
0
41
1
10
38.5435544786561
20
-1.83212361611254
30
0
41
1
10
38.4136376220288
20
-1.74048005947424
30
0
41
1
10
38.1534647788944
20
-1.55521377460985
30
0
41
1
10
38.0232063383314
20
-1.46162115985868
30
0
41
1
10
37.7622123358166
20
-1.27282527629086
30
0
41
1
10
37.6314782062776
20
-1.17759692720176
30
0
41
1
10
37.4349115527955
20
-1.03357331851461
30
0
41
1
10
37.3693116099301
20
-0.985369191905818
30
0
41
1
10
37.2379359671066
20
-0.888582666941574
30
0
41
1
10
37.1721191505339
20
-0.839969696780202
30
0
41
1
10
36.9750965694438
20
-0.69412636829847
30
0
41
1
10
36.8441180688439
20
-0.596734413423718
30
0
41
1
10
36.5826912236076
20
-0.401869234302694
30
0
41
1
10
36.4522314462354
20
-0.304402412497268
30
0
41
1
10
36.0614408578372
20
-0.0121454270086758
30
0
41
1
10
35.8017187735884
20
0.18251689299683
30
0
41
1
10
35.4125537282333
20
0.47311152476064
30
0
41
1
10
35.2828963000272
20
0.569737978986211
30
0
41
1
10
35.0235411161409
20
0.762340450157268
30
0
41
1
10
34.8938494570649
20
0.858319388646692
30
0
41
1
10
34.6343198116026
20
1.04944438513456
30
0
41
1
10
34.5044806790036
20
1.14459051279636
30
0
41
1
10
34.2445124717577
20
1.33384633762489
30
0
41
1
10
34.1143829489326
20
1.42795146754889
30
0
41
1
10
33.8536818016108
20
1.61492596876644
30
0
41
1
10
33.7231115475971
20
1.70780768745161
30
0
41
1
10
33.4613982517264
20
1.89218140429753
30
0
41
1
10
33.330253964408
20
1.983665492939
30
0
41
1
10
33.1329892412961
20
2.11966761424557
30
0
41
1
10
33.067277257944
20
2.1647049082637
30
0
41
1
10
32.9360722503463
20
2.25406029419094
30
0
41
1
10
32.870555073528
20
2.29839505074864
30
0
41
1
10
32.6742328920054
20
2.43033669589903
30
0
41
1
10
32.543658528203
20
2.51687152710264
30
0
41
1
10
32.1525488188053
20
2.77224266224994
30
0
41
1
10
31.8926613006133
20
2.9368065813816
30
0
41
1
10
31.3736107834774
20
3.25294785945701
30
0
41
1
10
31.1144354794381
20
3.40446153005683
30
0
41
1
10
30.5955831676763
20
3.69399816886343
30
0
41
1
10
30.3359404393327
20
3.83179651238433
30
0
41
1
10
29.8150887946382
20
4.09217407854425
30
0
41
1
10
29.5538776034969
20
4.2147348720076
30
0
41
1
10
29.2256582854541
20
4.35769723573964
30
0
41
1
10
29.1598685552368
20
4.38580441149279
30
0
41
1
10
29.0284547212993
20
4.4408243278688
30
0
41
1
10
28.9628359005164
20
4.46773636163564
30
0
41
1
10
28.7662184242289
20
4.54666165767378
30
0
41
1
10
28.6354606190033
20
4.5968565403891
30
0
41
1
10
28.2439419221213
20
4.74002292757129
30
0
41
1
10
27.9839094618097
20
4.82568662280553
30
0
41
1
10
27.4646384374725
20
4.9774124052685
30
0
41
1
10
27.2054323586909
20
5.04321122147101
30
0
41
1
10
26.8163965930971
20
5.1267903581934
30
0
41
1
10
26.6866807688135
20
5.152138657135
30
0
41
1
10
26.427040055466
20
5.19775366561149
30
0
41
1
10
26.2971159554612
20
5.21802380376997
30
0
41
1
10
26.0175364952289
20
5.25585911622716
30
0
41
1
10
25.86782267842
20
5.27258863762731
30
0
41
1
10
25.7177691492812
20
5.28583080060244
30
0
0
SPLINE
5
198
100
AcDbEntity
8
1
62
256
6
ByLayer
370
18
48
1
60
0
100
AcDbSpline
70
4
71
3
72
8
73
4
40
0
40
0
40
0
40
0
40
1
40
1
40
1
40
1
41
1
10
23.8000000000001
20
5.44764107786887
30
0
41
1
10
23.8008376472369
20
5.45832610221748
30
0
41
1
10
23.8017347310708
20
5.46332947894618
30
0
41
1
10
23.8026030953958
20
5.46271882154733
30
0
0
SPLINE
5
199
100
AcDbEntity
8
1
62
256
6
ByLayer
370
18
48
1
60
0
100
AcDbSpline
70
4
71
3
72
8
73
4
40
0
40
0
40
0
40
0
40
1
40
1
40
1
40
1
41
1
10
23.7999766316518
20
5.44734123841798
30
0
41
1
10
23.7999844211033
20
5.44744167564335
30
0
41
1
10
23.7999922105527
20
5.44754162212607
30
0
41
1
10
23.8
20
5.44764107786821
30
0
0
SPLINE
5
19A
100
AcDbEntity
8
1
62
256
6
ByLayer
370
18
48
1
60
0
100
AcDbSpline
70
4
71
3
72
8
73
4
40
0
40
0
40
0
40
0
40
1
40
1
40
1
40
1
41
1
10
48.397043289125
20
-4.28828815098717
30
0
41
1
10
48.4340826114039
20
-4.29045839204082
30
0
41
1
10
48.4711212461391
20
-4.29262019126867
30
0
41
1
10
48.5081591925784
20
-4.29477353943355
30
0
0
SPLINE
5
19B
100
AcDbEntity
8
1
62
256
6
ByLayer
370
18
48
1
60
0
100
AcDbSpline
70
4
71
3
72
27
73
23
40
0
40
0
40
0
40
0
40
0.0156250000000023
40
0.0156250000000023
40
0.0312500000000045
40
0.0312500000000045
40
0.0624999999999997
40
0.125
40
0.125
40
0.1875
40
0.1875
40
0.25
40
0.25
40
0.374999999999999
40
0.374999999999999
40
0.499999999999999
40
0.499999999999999
40
0.75
40
0.75
40
0.875
40
0.875
40
1
40
1
40
1
40
1
41
1
10
48.5081591925802
20
-4.29477353943443
30
0
41
1
10
48.5125434485498
20
-4.2890571081208
30
0
41
1
10
48.5164238090679
20
-4.28318882321676
30
0
41
1
10
48.523647307252
20
-4.27134629690994
30
0
41
1
10
48.5269881186487
20
-4.26535576170315
30
0
41
1
10
48.5365236564708
20
-4.24724473991139
30
0
41
1
10
48.5536800996009
20
-4.21047309973869
30
0
41
1
10
48.5681617540288
20
-4.17268556916648
30
0
41
1
10
48.5865358443154
20
-4.12190466093287
30
0
41
1
10
48.5952144610806
20
-4.09626982967336
30
0
41
1
10
48.6120054005735
20
-4.04456041611809
30
0
41
1
10
48.6201072317639
20
-4.01848467705597
30
0
41
1
10
48.6437906420569
20
-3.93962115372983
30
0
41
1
10
48.6587609961021
20
-3.88619855618546
30
0
41
1
10
48.6874740788949
20
-3.77768883336142
30
0
41
1
10
48.7012046182658
20
-3.72257910992335
30
0
41
1
10
48.7404226858855
20
-3.55525330041243
30
0
41
1
10
48.7640038608555
20
-3.44088451175151
30
0
41
1
10
48.7947408779135
20
-3.26495571707312
30
0
41
1
10
48.804205985262
20
-3.2055776410096
30
0
41
1
10
48.8213483205115
20
-3.08533119425505
30
0
41
1
10
48.828997559401
20
-3.02465834417484
30
0
41
1
10
48.8356025923253
20
-2.96343150847449
30
0
0
SPLINE
5
19C
100
AcDbEntity
8
1
62
256
6
ByLayer
370
18
48
1
60
0
100
AcDbSpline
70
4
71
3
72
8
73
4
40
0
40
0
40
0
40
0
40
1
40
1
40
1
40
1
41
1
10
48.835602592325
20
-2.96343150847457
30
0
41
1
10
48.7679556932637
20
-2.75966813267502
30
0
41
1
10
48.7015102951569
20
-2.54904176960011
30
0
41
1
10
48.6362964984722
20
-2.3313804850315
30
0
0
SPLINE
5
19D
100
AcDbEntity
8
1
62
256
6
ByLayer
370
18
48
1
60
0
100
AcDbSpline
70
4
71
3
72
61
73
57
40
0
40
0
40
0
40
0
40
0.0569119577738532
40
0.0569119577738532
40
0.113823915547706
40
0.113823915547706
40
0.17073587332156
40
0.17073587332156
40
0.227647831095413
40
0.227647831095413
40
0.241875820538876
40
0.241875820538876
40
0.256103809982338
40
0.256103809982338
40
0.284559788869264
40
0.284559788869264
40
0.341471746643117
40
0.341471746643117
40
0.398383704416971
40
0.398383704416971
40
0.455295662190824
40
0.455295662190824
40
0.512207619964677
40
0.512207619964677
40
0.540663598851603
40
0.540663598851603
40
0.554891588295066
40
0.554891588295066
40
0.569119577738528
40
0.626031535512381
40
0.626031535512381
40
0.654487514399307
40
0.654487514399307
40
0.682943493286233
40
0.682943493286233
40
0.739855451060084
40
0.739855451060084
40
0.76831142994701
40
0.76831142994701
40
0.796767408833936
40
0.796767408833936
40
0.825223387720861
40
0.825223387720861
40
0.839451377164324
40
0.839451377164324
40
0.853679366607787
40
0.853679366607787
40
0.882135345494713
40
0.882135345494713
40
0.910591324381639
40
0.910591324381639
40
0.967503282155488
40
0.967503282155488
40
0.995959261042413
40
0.995959261042413
40
1
40
1
40
1
40
1
41
1
10
48.6362964984564
20
-2.33138048502062
30
0
41
1
10
48.3770355753429
20
-2.15966013392335
30
0
41
1
10
48.1188166682688
20
-1.98385440664623
30
0
41
1
10
47.6032656754449
20
-1.62581398205145
30
0
41
1
10
47.3459334495328
20
-1.44359248855059
30
0
41
1
10
46.831117501822
20
-1.07410302338039
30
0
41
1
10
46.5736378587229
20
-0.886814623767549
30
0
41
1
10
46.0574548328355
20
-0.5085802868401
30
0
41
1
10
45.7987530737577
20
-0.317639510220943
30
0
41
1
10
45.4739204557594
20
-0.0775625235509381
30
0
41
1
10
45.4088809661459
20
-0.0294771365388726
30
0
41
1
10
45.2786378973756
20
0.0668108043311122
30
0
41
1
10
45.2133789859304
20
0.115054139370613
30
0
41
1
10
45.01775997581
20
0.259604927594012
30
0
41
1
10
44.8876917453025
20
0.355633557269698
30
0
41
1
10
44.4982977480193
20
0.642438882022134
30
0
41
1
10
44.2397797150412
20
0.831938261732773
30
0
41
1
10
43.7238403890051
20
1.20612897987843
30
0
41
1
10
43.4664188386475
20
1.39081691367159
30
0
41
1
10
42.9515896136486
20
1.75400880585008
30
0
41
1
10
42.6941860361997
20
1.93251625196544
30
0
41
1
10
42.1783330128116
20
2.2818877394227
30
0
41
1
10
41.9198787978746
20
2.45275739477705
30
0
41
1
10
41.5305896072776
20
2.70231460588002
30
0
41
1
10
41.400558887858
20
2.78437276198903
30
0
41
1
10
41.2050049168517
20
2.90561640995543
30
0
41
1
10
41.1397190143994
20
2.9457328731265
30
0
41
1
10
41.0094328852018
20
3.02503920436908
30
0
41
1
10
40.6841412128503
20
3.22117004687991
30
0
41
1
10
40.3607533230624
20
3.4064319860189
30
0
41
1
10
39.9736885436647
20
3.61754796834305
30
0
41
1
10
39.8448338280537
20
3.68605286675279
30
0
41
1
10
39.5873194206027
20
3.81919795288056
30
0
41
1
10
39.4586546996285
20
3.88385453815246
30
0
41
1
10
39.072693600179
20
4.07229930352213
30
0
41
1
10
38.8154710102586
20
4.19044159236066
30
0
41
1
10
38.4290608844042
20
4.3548761426888
30
0
41
1
10
38.3001591335186
20
4.40752037978018
30
0
41
1
10
38.0420050917062
20
4.50847245763154
30
0
41
1
10
37.9127512571199
20
4.5568676342908
30
0
41
1
10
37.6537674831891
20
4.64943834490632
30
0
41
1
10
37.5240384304482
20
4.69357598043683
30
0
41
1
10
37.328981902573
20
4.75633155418555
30
0
41
1
10
37.2638856878147
20
4.77667467626287
30
0
41
1
10
37.1335184438858
20
4.81617317782579
30
0
41
1
10
37.0682418252541
20
4.83532895189629
30
0
41
1
10
36.8728648867129
20
4.89075750325836
30
0
41
1
10
36.7429754193481
20
4.92503573012303
30
0
41
1
10
36.4836642496169
20
4.98877596624081
30
0
41
1
10
36.3542447722752
20
5.0182474634845
30
0
41
1
10
35.9665794111996
20
5.09905864666811
30
0
41
1
10
35.7089305771158
20
5.14278304603744
30
0
41
1
10
35.3228759914993
20
5.19244491625372
30
0
41
1
10
35.1942451915168
20
5.20645850297873
30
0
41
1
10
35.047326001414
20
5.21972237090563
30
0
41
1
10
35.0290574096203
20
5.22132167110027
30
0
41
1
10
35.0107884354194
20
5.22287063415106
30
0
0
SPLINE
5
19E
100
AcDbEntity
8
1
62
256
6
ByLayer
370
18
48
1
60
0
100
AcDbSpline
70
4
71
3
72
8
73
4
40
0
40
0
40
0
40
0
40
1
40
1
40
1
40
1
41
1
10
48.3557115010802
20
-4.25285658551596
30
0
41
1
10
48.3567326537379
20
-4.2586219096608
30
0
41
1
10
48.3577537484345
20
-4.26437542403642
30
0
41
1
10
48.3587747712182
20
-4.27011705163071
30
0
0
SPLINE
5
19F
100
AcDbEntity
8
1
62
256
6
ByLayer
370
18
48
1
60
0
100
AcDbSpline
70
4
71
3
72
8
73
4
40
0
40
0
40
0
40
0
40
1
40
1
40
1
40
1
41
1
10
48.3557115010802
20
-4.25285658551593
30
0
41
1
10
48.3698671423691
20
-4.26419483843588
30
0
41
1
10
48.3835066093008
20
-4.27583149031221
30
0
41
1
10
48.396508233867
20
-4.28779679113964
30
0
0
SPLINE
5
1A0
100
AcDbEntity
8
1
62
256
6
ByLayer
370
18
48
1
60
0
100
AcDbSpline
70
4
71
3
72
8
73
4
40
0
40
0
40
0
40
0
40
1
40
1
40
1
40
1
41
1
10
48.3965082338672
20
-4.28779679113927
30
0
41
1
10
48.3966863644836
20
-4.28796072345412
30
0
41
1
10
48.3968647150727
20
-4.28812451099375
30
0
41
1
10
48.3970432891222
20
-4.28828815098865
30
0
0
SPLINE
5
1A1
100
AcDbEntity
8
1
62
256
6
ByLayer
370
18
48
1
60
0
100
AcDbSpline
70
4
71
3
72
12
73
8
40
0
40
0
40
0
40
0
40
0.387340269461114
40
0.387340269461114
40
0.721027656911296
40
0.721027656911296
40
1
40
1
40
1
40
1
41
1
10
48.3587183152275
20
-4.2688772558827
30
0
41
1
10
48.3633752423186
20
-4.27134791291056
30
0
41
1
10
48.3680315762068
20
-4.27381896065791
30
0
41
1
10
48.3766981467725
20
-4.27841951627084
30
0
41
1
10
48.380708538646
20
-4.28054892166426
30
0
41
1
10
48.3880709051403
20
-4.28445912176687
30
0
41
1
10
48.3914230158131
20
-4.28623982632365
30
0
41
1
10
48.3947748076345
20
-4.28802074287282
30
0
0
SPLINE
5
1A2
100
AcDbEntity
8
1
62
256
6
ByLayer
370
18
48
1
60
0
100
AcDbSpline
70
4
71
3
72
8
73
4
40
0
40
0
40
0
40
0
40
1
40
1
40
1
40
1
41
1
10
48.3587183152274
20
-4.26887725588267
30
0
41
1
10
48.3587439890234
20
-4.26931419869223
30
0
41
1
10
48.3587696767482
20
-4.26975118782184
30
0
41
1
10
48.3587953783871
20
-4.27018822315432
30
0
0
SPLINE
5
1A3
100
AcDbEntity
8
1
62
256
6
ByLayer
370
18
48
1
60
0
100
AcDbSpline
70
4
71
5
72
40
73
34
40
0
40
0
40
0
40
0
40
0
40
0
40
0.0069179546167909
40
0.0354330846477436
40
0.0782057796941727
40
0.120978474740602
40
0.149493604771555
40
0.192266299817984
40
0.235038994864413
40
0.263554124895358
40
0.292069254926318
40
0.334841949972748
40
0.377614645019177
40
0.406129775050129
40
0.448902470096558
40
0.477417600127511
40
0.52019029517394
40
0.548705425204893
40
0.591478120251322
40
0.634250815297751
40
0.662765945328704
40
0.705538640375133
40
0.734053770406086
40
0.776826465452515
40
0.805341595483468
40
0.848114290529897
40
0.890886985576326
40
0.919402115607279
40
0.947917245638231
40
0.990689940684661
40
1
40
1
40
1
40
1
40
1
40
1
41
1
10
31.9382817930611
20
2.90268255898709
30
0
41
1
10
31.9571023157657
20
2.89821759585442
30
0
41
1
10
32.0534991860904
20
2.87521833803586
30
0
41
1
10
32.2662605778452
20
2.82298815910008
30
0
41
1
10
32.5953864910301
20
2.73724792232125
30
0
41
1
10
33.0020887518351
20
2.6221451440359
30
0
41
1
10
33.5063350113657
20
2.46676235852448
30
0
41
1
10
34.0493694447063
20
2.28533324260954
30
0
41
1
10
34.5536157042368
20
2.1046944102757
30
0
41
1
10
35.0190737899573
20
1.92856076738784
30
0
41
1
10
35.5233200494878
20
1.72852725871465
30
0
41
1
10
36.0275663090183
20
1.52014288666777
30
0
41
1
10
36.4930243947389
20
1.32091051741895
30
0
41
1
10
36.9972706542694
20
1.09869109747635
30
0
41
1
10
37.5015169138
20
0.870663626580352
30
0
41
1
10
38.0057631733305
20
0.638485891642745
30
0
41
1
10
38.471221259051
20
0.42126666929579
30
0
41
1
10
38.9754675185816
20
0.183968674338899
30
0
41
1
10
39.4797137781121
20
-0.054277105245518
30
0
41
1
10
39.9839600376427
20
-0.292266996787106
30
0
41
1
10
40.4882062971731
20
-0.528844274884392
30
0
41
1
10
40.9924525567037
20
-0.762578932537735
30
0
41
1
10
41.4966988162342
20
-0.992571329985623
30
0
41
1
10
41.9621569019548
20
-1.20049666166131
30
0
41
1
10
42.4664031614853
20
-1.4198931155081
30
0
41
1
10
42.9706494210158
20
-1.63248185045848
30
0
41
1
10
43.4748956805463
20
-1.83642347603723
30
0
41
1
10
43.9403537662669
20
-2.01648407131052
30
0
41
1
10
44.4446000257973
20
-2.20171154592992
30
0
41
1
10
44.857810085986
20
-2.34478167391134
30
0
41
1
10
45.1546556247445
20
-2.44242624712086
30
0
41
1
10
45.3739248158828
20
-2.51160927369986
30
0
41
1
10
45.5156176594012
20
-2.55505041420352
30
0
41
1
10
45.5409459814894
20
-2.56277510675579
30
0
0
SPLINE
5
1A4
100
AcDbEntity
8
1
62
256
6
ByLayer
370
18
48
1
60
0
100
AcDbSpline
70
4
71
3
72
14
73
10
40
0
40
0
40
0
40
0
40
0.250000000000002
40
0.250000000000002
40
0.375000000000001
40
0.375000000000001
40
0.5
40
0.5
40
1
40
1
40
1
40
1
41
1
10
22.9254891338879
20
1.03090066942642
30
0
41
1
10
22.697536075298
20
1.1932937795153
30
0
41
1
10
22.4695547782255
20
1.35310429778622
30
0
41
1
10
22.1270254626951
20
1.58835011303495
30
0
41
1
10
22.0127157692456
20
1.66604739401419
30
0
41
1
10
21.7840155465951
20
1.81973033488754
30
0
41
1
10
21.6697023737571
20
1.89566471522224
30
0
41
1
10
21.0981165750823
20
2.2706044083069
30
0
41
1
10
20.6407642194891
20
2.5554086258671
30
0
41
1
10
20.1808912366577
20
2.82262927513392
30
0
0
SPLINE
5
1A5
100
AcDbEntity
8
1
62
256
6
ByLayer
370
18
48
1
60
0
100
AcDbSpline
70
4
71
3
72
79
73
75
40
0
40
0
40
0
40
0
40
0.0102369868150991
40
0.0203116392518021
40
0.030223920692009
40
0.0399737973224383
40
0.0495612380405041
40
0.0589862143600867
40
0.0682487003165033
40
0.0773486723716291
40
0.0862861093193106
40
0.0950609921911364
40
0.103673304162633
40
0.112123030460778
40
0.120410158272166
40
0.128534676652461
40
0.136496576437561
40
0.144295850156058
40
0.151932491943617
40
0.159406497459295
40
0.166717863803906
40
0.173866589440819
40
0.180852674118972
40
0.187676118798835
40
0.194336925580887
40
0.200835097637323
40
0.207170639146914
40
0.213343555233391
40
0.219353851907569
40
0.225201536013576
40
0.230886615179503
40
0.236409097772968
40
0.241768992862051
40
0.246966310182271
40
0.252001060110354
40
0.256873253645583
40
0.261582902400261
40
0.266130018600215
40
0.270514615097448
40
0.27473670539729
40
0.278796303702668
40
0.282693424979607
40
0.286428085048673
40
0.290000300708984
40
0.293410089903392
40
0.296657471936681
40
0.299742467762527
40
0.302665100361951
40
0.320088424215584
40
0.337557388872215
40
0.355072379616179
40
0.372633784427398
40
0.390241993914296
40
0.407897401234971
40
0.425600402008323
40
0.443351394215983
40
0.461150778096248
40
0.478998956031138
40
0.496896332427326
40
0.514843313592129
40
0.532840307605334
40
0.550887724187819
40
0.56898597456744
40
0.587135471343443
40
0.605336628349538
40
0.643283241801349
40
0.682701300381678
40
0.723593197100542
40
0.765961052393953
40
0.809806759555199
40
0.85513202288989
40
0.901938389888582
40
0.950227278451622
40
1
40
1
40
1
40
1
41
1
10
23.1019518702112
20
-0.734752806297735
30
0
41
1
10
23.093320191455
20
-0.721214464274851
30
0
41
1
10
23.0761937119352
20
-0.694352466286233
30
0
41
1
10
23.0507204518506
20
-0.65440586135324
30
0
41
1
10
23.025662069369
20
-0.615124256078275
30
0
41
1
10
23.0010167342724
20
-0.576511185056063
30
0
41
1
10
22.9767815940698
20
-0.538568013064889
30
0
41
1
10
22.9529543471329
20
-0.501296324046194
30
0
41
1
10
22.9295328205054
20
-0.464697312620132
30
0
41
1
10
22.9065150692696
20
-0.428771958990637
30
0
41
1
10
22.8838993396704
20
-0.393520999034251
30
0
41
1
10
22.8616840678713
20
-0.358944947717163
30
0
41
1
10
22.8398678694791
20
-0.325044108403745
30
0
41
1
10
22.8184495315647
20
-0.291818585637117
30
0
41
1
10
22.7974280041396
20
-0.259268296783517
30
0
41
1
10
22.7768023918949
20
-0.227392983723718
30
0
41
1
10
22.7565719460077
20
-0.196192224266525
30
0
41
1
10
22.7367360560795
20
-0.165665443353191
30
0
41
1
10
22.7172942422019
20
-0.13581192402205
30
0
41
1
10
22.6982461471611
20
-0.106630818129503
30
0
41
1
10
22.6795915287899
20
-0.0781211568172182
30
0
41
1
10
22.6613302524718
20
-0.0502818607208155
30
0
41
1
10
22.6434622838072
20
-0.0231117499119193
30
0
41
1
10
22.625987681443
20
0.0033904464289094
30
0
41
1
10
22.6089065900742
20
0.029226080613995
30
0
41
1
10
22.5922192336202
20
0.0543965773268553
30
0
41
1
10
22.5759259085793
20
0.0789034247801226
30
0
41
1
10
22.5600269775658
20
0.102748166153759
30
0
41
1
10
22.5445228630314
20
0.125932391314905
30
0
41
1
10
22.5294140411735
20
0.148457728819238
30
0
41
1
10
22.5147010360336
20
0.170325838193463
30
0
41
1
10
22.5003844137847
20
0.19153840249831
30
0
41
1
10
22.4864647772111
20
0.212097121170302
30
0
41
1
10
22.4729427603814
20
0.23200370314126
30
0
41
1
10
22.4598190235152
20
0.251259860233148
30
0
41
1
10
22.4470942480405
20
0.269867300825012
30
0
41
1
10
22.4347691318596
20
0.287827723797676
30
0
41
1
10
22.422844384763
20
0.305142812721414
30
0
41
1
10
22.4113207242052
20
0.321814230404101
30
0
41
1
10
22.4001988706968
20
0.337843613370836
30
0
41
1
10
22.3894795454402
20
0.35323256778392
30
0
41
1
10
22.3791634609762
20
0.367982661483296
30
0
41
1
10
22.3692513372761
20
0.382095430833715
30
0
41
1
10
22.359743829658
20
0.395572336907947
30
0
41
1
10
22.3506417655649
20
0.408414899788028
30
0
41
1
10
22.3419453070806
20
0.420624213998991
30
0
41
1
10
22.3336568417586
20
0.432202612434111
30
0
41
1
10
22.3125830837261
20
0.461452254992281
30
0
41
1
10
22.2783404181775
20
0.508460621496511
30
0
41
1
10
22.2304688034856
20
0.573220477141916
30
0
41
1
10
22.1820242616682
20
0.637746901165684
30
0
41
1
10
22.1330182423952
20
0.702050901123954
30
0
41
1
10
22.0834508995576
20
0.766137416726707
30
0
41
1
10
22.033326240926
20
0.830013891798302
30
0
41
1
10
21.9826479793057
20
0.893687880278605
30
0
41
1
10
21.9314205774677
20
0.957167605322667
30
0
41
1
10
21.8796488982238
20
1.02046172717834
30
0
41
1
10
21.8273382319238
20
1.08357932710004
30
0
41
1
10
21.7744942257313
20
1.14652983680298
30
0
41
1
10
21.7211228386093
20
1.20932298461446
30
0
41
1
10
21.6672303039858
20
1.27196874534056
30
0
41
1
10
21.6128230476772
20
1.33447727425948
30
0
41
1
10
21.5579077898705
20
1.39685891694856
30
0
41
1
10
21.5024909649467
20
1.45912394617977
30
0
41
1
10
21.4264161721847
20
1.54370167504678
30
0
41
1
10
21.32767357748
20
1.65175193963211
30
0
41
1
10
21.2041651044737
20
1.78434874688986
30
0
41
1
10
21.0748084324053
20
1.92085824142183
30
0
41
1
10
20.9396357533388
20
2.06130967462116
30
0
41
1
10
20.7986796958975
20
2.20573186400497
30
0
41
1
10
20.6519781239724
20
2.35415784289734
30
0
41
1
10
20.4995502013116
20
2.50660233468312
30
0
41
1
10
20.3414898048186
20
2.66314924698312
30
0
41
1
10
20.2338586710855
20
2.76852635896202
30
0
41
1
10
20.1792287864329
20
2.8220121792146
30
0
0
SPLINE
5
1A6
100
AcDbEntity
8
1
62
256
6
ByLayer
370
18
48
1
60
0
100
AcDbSpline
70
4
71
5
72
19
73
13
40
0
40
0
40
0
40
0
40
0
40
0
40
0.343938551524293
40
0.429923189405366
40
0.558900146226976
40
0.644884784108049
40
0.773861740929659
40
0.859846378810732
40
0.988823335632342
40
1
40
1
40
1
40
1
40
1
40
1
41
1
10
23.1111044302745
20
-0.758114849656266
30
0
41
1
10
23.4214098207548
20
-0.900825267557906
30
0
41
1
10
23.8092915588553
20
-1.07695811077653
30
0
41
1
10
24.3135378183857
20
-1.30111617079265
30
0
41
1
10
24.8953604255364
20
-1.55043734539467
30
0
41
1
10
25.5935475541172
20
-1.83316739617652
30
0
41
1
10
26.0590056398376
20
-2.01352295706471
30
0
41
1
10
26.5632518993682
20
-2.19913135997086
30
0
41
1
10
26.9612173549975
20
-2.33726720478873
30
0
41
1
10
27.2816064630067
20
-2.44246712698066
30
0
41
1
10
27.4856310495859
20
-2.50690855799743
30
0
41
1
10
27.6120792885449
20
-2.54584215656826
30
0
41
1
10
27.6221630060738
20
-2.54894054230283
30
0
0
SPLINE
5
1A7
100
AcDbEntity
8
1
62
256
6
ByLayer
370
18
48
1
60
0
100
AcDbSpline
70
4
71
3
72
14
73
10
40
0
40
0
40
0
40
0
40
0.250000000000004
40
0.250000000000004
40
0.375000000000003
40
0.375000000000003
40
0.500000000000002
40
0.500000000000002
40
1
40
1
40
1
40
1
41
1
10
22.9254891338879
20
5.18007346130531
30
0
41
1
10
22.697536075298
20
5.18043512021154
30
0
41
1
10
22.4695547782255
20
5.17287403291922
30
0
41
1
10
22.1270254626951
20
5.14990987396425
30
0
41
1
10
22.0127157692456
20
5.14031115866857
30
0
41
1
10
21.7840155465951
20
5.11730135093575
30
0
41
1
10
21.6697023737571
20
5.10389957616937
30
0
41
1
10
21.0981165750823
20
5.02757578999103
30
0
41
1
10
20.6407642194891
20
4.93675462777412
30
0
41
1
10
20.1808912366577
20
4.8180054281795
30
0
0
SPLINE
5
1A8
100
AcDbEntity
8
1
62
256
6
ByLayer
370
18
48
1
60
0
100
AcDbSpline
70
4
71
3
72
79
73
75
40
0
40
0
40
0
40
0
40
0.0102369868150996
40
0.0203116392518021
40
0.0302239206920121
40
0.0399737973224398
40
0.0495612380405061
40
0.0589862143600869
40
0.0682487003165054
40
0.0773486723716313
40
0.0862861093193125
40
0.0950609921911402
40
0.103673304162635
40
0.112123030460781
40
0.120410158272168
40
0.128534676652464
40
0.136496576437565
40
0.144295850156062
40
0.151932491943621
40
0.159406497459299
40
0.166717863803909
40
0.173866589440824
40
0.180852674118978
40
0.18767611879884
40
0.194336925580894
40
0.200835097637328
40
0.207170639146921
40
0.213343555233398
40
0.219353851907575
40
0.225201536013583
40
0.23088661517951
40
0.236409097772973
40
0.241768992862057
40
0.246966310182277
40
0.25200106011036
40
0.25687325364559
40
0.261582902400268
40
0.266130018600223
40
0.270514615097457
40
0.274736705397297
40
0.278796303702677
40
0.282693424979614
40
0.286428085048681
40
0.290000300708993
40
0.2934100899034
40
0.296657471936688
40
0.299742467762536
40
0.302665100361959
40
0.320088424215595
40
0.337557388872225
40
0.35507237961619
40
0.372633784427409
40
0.390241993914308
40
0.407897401234982
40
0.425600402008335
40
0.443351394215996
40
0.461150778096261
40
0.47899895603115
40
0.496896332427338
40
0.514843313592144
40
0.532840307605349
40
0.550887724187835
40
0.568985974567458
40
0.58713547134346
40
0.605336628349554
40
0.643283241801366
40
0.682701300381698
40
0.723593197100564
40
0.765961052393962
40
0.809806759555207
40
0.8551320228899
40
0.901938389888581
40
0.950227278451621
40
1
40
1
40
1
40
1
41
1
10
23.1019518702112
20
2.97067151521387
30
0
41
1
10
23.093320191455
20
2.97546244208857
30
0
41
1
10
23.0761937119352
20
2.98496832307862
30
0
41
1
10
23.0507204518506
20
2.99940565356258
30
0
41
1
10
23.025662069369
20
3.01381536894499
30
0
41
1
10
23.0010167342724
20
3.02820618279861
30
0
41
1
10
22.9767815940698
20
3.04256069718778
30
0
41
1
10
22.9529543471329
20
3.05686862570212
30
0
41
1
10
22.9295328205054
20
3.07111811612265
30
0
41
1
10
22.9065150692696
20
3.08529802432349
30
0
41
1
10
22.8838993396704
20
3.09939732599315
30
0
41
1
10
22.8616840678713
20
3.11340527500335
30
0
41
1
10
22.839867869479
20
3.1273113660676
30
0
41
1
10
22.8184495315647
20
3.1411053477068
30
0
41
1
10
22.7974280041396
20
3.15477722137672
30
0
41
1
10
22.7768023918949
20
3.16831724352821
30
0
41
1
10
22.7565719460077
20
3.18171592626791
30
0
41
1
10
22.7367360560795
20
3.19496403778868
30
0
41
1
10
22.7172942422019
20
3.20805260230446
30
0
41
1
10
22.6982461471612
20
3.22097289959666
30
0
41
1
10
22.6795915287899
20
3.23371646418113
30
0
41
1
10
22.6613302524718
20
3.2462750841305
30
0
41
1
10
22.6434622838072
20
3.25864079957762
30
0
41
1
10
22.625987681443
20
3.27080590092777
30
0
41
1
10
22.6089065900742
20
3.28276292680633
30
0
41
1
10
22.5922192336202
20
3.29450466176647
30
0
41
1
10
22.5759259085793
20
3.30602413378267
30
0
41
1
10
22.5600269775659
20
3.317314611553
30
0
41
1
10
22.5445228630314
20
3.32836960163334
30
0
41
1
10
22.5294140411736
20
3.33918284542648
30
0
41
1
10
22.5147010360337
20
3.3497483160464
30
0
41
1
10
22.5003844137847
20
3.36006021507927
30
0
41
1
10
22.4864647772111
20
3.37011296926045
30
0
41
1
10
22.4729427603814
20
3.37990122708686
30
0
41
1
10
22.4598190235152
20
3.38941985538392
30
0
41
1
10
22.4470942480406
20
3.39866393584126
30
0
41
1
10
22.4347691318596
20
3.40762876154645
30
0
41
1
10
22.422844384763
20
3.41630983349245
30
0
41
1
10
22.4113207242052
20
3.42470285721902
30
0
41
1
10
22.4001988706968
20
3.43280373909548
30
0
41
1
10
22.3894795454402
20
3.44060858405456
30
0
41
1
10
22.3791634609762
20
3.44811368848127
30
0
41
1
10
22.3692513372761
20
3.4553155504407
30
0
41
1
10
22.359743829658
20
3.46221081959754
30
0
41
1
10
22.3506417655649
20
3.46879645822298
30
0
41
1
10
22.3419453070806
20
3.47506916791784
30
0
41
1
10
22.3336568417587
20
3.48102736470406
30
0
41
1
10
22.312583083726
20
3.49609134635026
30
0
41
1
10
22.2783404181776
20
3.52046107551607
30
0
41
1
10
22.2304688034856
20
3.55443077283201
30
0
41
1
10
22.1820242616682
20
3.58863318559691
30
0
41
1
10
22.1330182423952
20
3.62304826793906
30
0
41
1
10
22.0834508995576
20
3.65764908189672
30
0
41
1
10
22.033326240926
20
3.6924120980313
30
0
41
1
10
21.9826479793057
20
3.72731440814098
30
0
41
1
10
21.9314205774677
20
3.76233445398901
30
0
41
1
10
21.8796488982238
20
3.79745180591473
30
0
41
1
10
21.8273382319238
20
3.8326471928784
30
0
41
1
10
21.7744942257313
20
3.86790246261393
30
0
41
1
10
21.7211228386093
20
3.90320055319387
30
0
41
1
10
21.6672303039858
20
3.93852547538074
30
0
41
1
10
21.6128230476772
20
3.97386222818349
30
0
41
1
10
21.5579077898705
20
4.00919696165852
30
0
41
1
10
21.5024909649467
20
4.04451620541354
30
0
41
1
10
21.4264161721847
20
4.09253847110446
30
0
41
1
10
21.32767357748
20
4.15391938671769
30
0
41
1
10
21.2041651044737
20
4.22925075505449
30
0
41
1
10
21.0748084324053
20
4.30679040917096
30
0
41
1
10
20.9396357533388
20
4.38653760366174
30
0
41
1
10
20.7986796958975
20
4.4684995297867
30
0
41
1
10
20.6519781239725
20
4.55269225479498
30
0
41
1
10
20.4995502013117
20
4.6391288006011
30
0
41
1
10
20.3414898048187
20
4.72786618315251
30
0
41
1
10
20.2338586710856
20
4.78759733013615
30
0
41
1
10
20.179228786433
20
4.81791481873546
30
0
0
SPLINE
5
1A9
100
AcDbEntity
8
1
62
256
6
ByLayer
370
18
48
1
60
0
100
AcDbSpline
70
4
71
5
72
37
73
31
40
0
40
0
40
0
40
0
40
0
40
0
40
0.112006877299281
40
0.140008596624102
40
0.182011175611332
40
0.210012894936152
40
0.252015473923383
40
0.280017193248203
40
0.322019772235434
40
0.364022351222664
40
0.392024070547485
40
0.434026649534715
40
0.462028368859536
40
0.504030947846766
40
0.532032667171586
40
0.574035246158817
40
0.616037825146047
40
0.644039544470868
40
0.672041263795688
40
0.714043842782919
40
0.756046421770149
40
0.784048141094969
40
0.8260507200822
40
0.868053299069431
40
0.896055018394243
40
0.924056737719071
40
0.966059316706302
40
1
40
1
40
1
40
1
40
1
40
1
41
1
10
23.1111044302745
20
2.96302173162255
30
0
41
1
10
23.4214098207548
20
2.89413367141577
30
0
41
1
10
23.8092915588553
20
2.7992093647442
30
0
41
1
10
24.3135378183857
20
2.66203918526574
30
0
41
1
10
24.8953604255364
20
2.48436808105126
30
0
41
1
10
25.5935475541172
20
2.24697647894916
30
0
41
1
10
26.0590056398376
20
2.07865247806441
30
0
41
1
10
26.5632518993682
20
1.88630344300458
30
0
41
1
10
27.0674981588987
20
1.68479077309149
30
0
41
1
10
27.5717444184293
20
1.47429635975436
30
0
41
1
10
28.0759906779598
20
1.25667623321664
30
0
41
1
10
28.5802369374903
20
1.03240789545228
30
0
41
1
10
29.0844831970209
20
0.803206886393184
30
0
41
1
10
29.5499412827414
20
0.588001269311775
30
0
41
1
10
30.054187542272
20
0.352078552056952
30
0
41
1
10
30.5584338018025
20
0.114395956087151
30
0
41
1
10
31.062680061333
20
-0.123927124355902
30
0
41
1
10
31.5281381470535
20
-0.343364758815255
30
0
41
1
10
32.0323844065841
20
-0.579312212378341
30
0
41
1
10
32.5366306661146
20
-0.812460891939935
30
0
41
1
10
33.0020887518351
20
-1.02415703769697
30
0
41
1
10
33.5063350113657
20
-1.24854447316676
30
0
41
1
10
34.0493694447063
20
-1.48301432063272
30
0
41
1
10
34.5536157042367
20
-1.69288429211321
30
0
41
1
10
35.0190737899573
20
-1.87905760752835
30
0
41
1
10
35.5233200494878
20
-2.07156780537221
30
0
41
1
10
36.0052315225167
20
-2.24598620421796
30
0
41
1
10
36.3707784741156
20
-2.37090748665804
30
0
41
1
10
36.6587490780943
20
-2.46440015204124
30
0
41
1
10
36.8691433344529
20
-2.52995992691672
30
0
41
1
10
36.9631730693814
20
-2.55870087135557
30
0
0
SPLINE
5
1AA
100
AcDbEntity
8
1
62
256
6
ByLayer
370
18
48
1
60
0
100
AcDbSpline
70
4
71
5
72
12
73
6
40
0
40
0
40
0
40
0
40
0
40
0
40
1
40
1
40
1
40
1
40
1
40
1
41
1
10
48.3970432891252
20
-4.2882881509872
30
0
41
1
10
48.3969527214746
20
-4.28827751415929
30
0
41
1
10
48.3968621539249
20
-4.28826686652769
30
0
41
1
10
48.3967715864785
20
-4.28825620809329
30
0
41
1
10
48.3966810191382
20
-4.28824553885707
30
0
41
1
10
48.3965904519065
20
-4.28823485881989
30
0
0
SPLINE
5
1AB
100
AcDbEntity
8
1
62
256
6
ByLayer
370
18
48
1
60
0
100
AcDbSpline
70
4
71
5
72
36
73
30
40
0
40
0
40
0
40
0
40
0
40
0
40
0.0047313816441366
40
0.038285514557415
40
0.0886167139273324
40
0.122170846840611
40
0.172502046210528
40
0.206056179123806
40
0.256387378493724
40
0.306718577863641
40
0.340272710776929
40
0.373826843690197
40
0.424158043060115
40
0.474489242430032
40
0.508043375343311
40
0.558374574713228
40
0.608705774083145
40
0.642259906996424
40
0.675814039909702
40
0.726145239279619
40
0.776476438649537
40
0.810030571562815
40
0.860361770932732
40
0.89391590384601
40
0.944247103215928
40
0.977801236129206
40
1
40
1
40
1
40
1
40
1
40
1
41
1
10
48.3587482868026
20
2.32860896216565
30
0
41
1
10
48.3478094463296
20
2.33636854964595
30
0
41
1
10
48.2592942582365
20
2.39910205213735
30
0
41
1
10
48.0544145487133
20
2.54325725144773
30
0
41
1
10
47.77195849157
20
2.73849743320625
30
0
41
1
10
47.3731379129965
20
3.00669805589891
30
0
41
1
10
46.9076798272761
20
3.30637590434051
30
0
41
1
10
46.4034335677455
20
3.6149716470866
30
0
41
1
10
45.899187308215
20
3.90617345713758
30
0
41
1
10
45.3949410486844
20
4.17665487930782
30
0
41
1
10
44.929482962964
20
4.40769587027057
30
0
41
1
10
44.4252367034333
20
4.63657301010699
30
0
41
1
10
43.9209904439029
20
4.84304993172324
30
0
41
1
10
43.4555323581824
20
5.01213128013418
30
0
41
1
10
42.9512860986518
20
5.1710776197408
30
0
41
1
10
42.4082516653113
20
5.31263436227346
30
0
41
1
10
41.9040054057807
20
5.41586273176949
30
0
41
1
10
41.4385473200603
20
5.48698755705769
30
0
41
1
10
40.9343010605297
20
5.53749414450724
30
0
41
1
10
40.4300548009992
20
5.56124798223698
30
0
41
1
10
39.9645967152787
20
5.55837393876249
30
0
41
1
10
39.4603504557481
20
5.52839511718963
30
0
41
1
10
38.9561041962176
20
5.46904255265287
30
0
41
1
10
38.451857936687
20
5.38328065101226
30
0
41
1
10
37.9863998509665
20
5.28008138217157
30
0
41
1
10
37.5471951051393
20
5.16050653969927
30
0
41
1
10
37.2243548807421
20
5.05934993431262
30
0
41
1
10
36.979091003965
20
4.9750414782047
30
0
41
1
10
36.8501916486181
20
4.92870376034358
30
0
41
1
10
36.7988686408912
20
4.90993413272915
30
0
0
SPLINE
5
1AC
100
AcDbEntity
8
1
62
256
6
ByLayer
370
18
48
1
60
0
100
AcDbSpline
70
4
71
5
72
54
73
48
40
0
40
0
40
0
40
0
40
0
40
0
40
0.0026325749364439
40
0.0213023369564118
40
0.0493069799863635
40
0.0679767420063314
40
0.095981385036283
40
0.114651147056251
40
0.142655790086203
40
0.170660433116154
40
0.189330195136128
40
0.20799995715609
40
0.236004600186042
40
0.264009243215994
40
0.282679005235961
40
0.310683648265913
40
0.338688291295865
40
0.357358053315833
40
0.3760278153358
40
0.404032458365752
40
0.432037101395704
40
0.450706863415672
40
0.478711506445623
40
0.497381268465591
40
0.525385911495543
40
0.544055673515511
40
0.572060316545463
40
0.600064959575415
40
0.618734721595382
40
0.646739364625334
40
0.665409126645302
40
0.693413769675254
40
0.712083531695221
40
0.740088174725173
40
0.768092817755125
40
0.786762579775098
40
0.805432341795061
40
0.833436984825012
40
0.861441627854964
40
0.880111389874932
40
0.908116032904884
40
0.936120675934835
40
0.954790437954803
40
0.973460199974771
40
1
40
1
40
1
40
1
40
1
40
1
41
1
10
48.3587482868026
20
-4.27016191522975
30
0
41
1
10
48.3478094463296
20
-4.26469387629311
30
0
41
1
10
48.2592942582365
20
-4.22034527156424
30
0
41
1
10
48.0544145487133
20
-4.11578491050389
30
0
41
1
10
47.77195849157
20
-3.9656449988322
30
0
41
1
10
47.3731379129965
20
-3.74248924943456
30
0
41
1
10
46.9076798272761
20
-3.46528749763905
30
0
41
1
10
46.4034335677455
20
-3.14831712761941
30
0
41
1
10
45.899187308215
20
-2.8160532845115
30
0
41
1
10
45.3949410486844
20
-2.46877747772723
30
0
41
1
10
44.929482962964
20
-2.13720073016844
30
0
41
1
10
44.4252367034333
20
-1.76784611500744
30
0
41
1
10
43.9209904439029
20
-1.38995067909136
30
0
41
1
10
43.4555323581824
20
-1.03474977794301
30
0
41
1
10
42.9512860986518
20
-0.644947548530837
30
0
41
1
10
42.4082516653113
20
-0.221527049219873
30
0
41
1
10
41.9040054057807
20
0.17288024810469
30
0
41
1
10
41.4385473200603
20
0.536177216687406
30
0
41
1
10
40.9343010605297
20
0.926963538250675
30
0
41
1
10
40.4300548009992
20
1.31327151223232
30
0
41
1
10
39.9645967152787
20
1.66418124365461
30
0
41
1
10
39.4603504557481
20
2.03628996943573
30
0
41
1
10
38.9561041962176
20
2.39752699103451
30
0
41
1
10
38.451857936687
20
2.74709086271278
30
0
41
1
10
37.9863998509665
20
3.05759024667995
30
0
41
1
10
37.482153591436
20
3.37910844273443
30
0
41
1
10
36.9779073319054
20
3.68437577304599
30
0
41
1
10
36.473661072375
20
3.97010343109571
30
0
41
1
10
35.9694148128444
20
4.23664239743988
30
0
41
1
10
35.4651685533139
20
4.48063144090355
30
0
41
1
10
34.9609222937833
20
4.70291168737813
30
0
41
1
10
34.4954642080628
20
4.88716449562924
30
0
41
1
10
33.9912179485323
20
5.06310969615751
30
0
41
1
10
33.4869716890017
20
5.21462964565316
30
0
41
1
10
32.9827254294712
20
5.33845603121608
30
0
41
1
10
32.5172673437506
20
5.42893975998498
30
0
41
1
10
32.0130210842201
20
5.50068851593156
30
0
41
1
10
31.5087748246896
20
5.54586233755597
30
0
41
1
10
31.0433167389691
20
5.56283904005886
30
0
41
1
10
30.5390704794386
20
5.55434361231903
30
0
41
1
10
29.996036046098
20
5.51340976751359
30
0
41
1
10
29.4917897865674
20
5.44609235448567
30
0
41
1
10
29.0263317008469
20
5.35965543385439
30
0
41
1
10
28.5281721375486
20
5.24161220169643
30
0
41
1
10
28.1463770956804
20
5.13227484836497
30
0
41
1
10
27.8809465752424
20
5.04735963814122
30
0
41
1
10
27.6930924024243
20
4.9828934009478
30
0
41
1
10
27.5828145772264
20
4.94356329514971
30
0
0
SPLINE
5
1AD
100
AcDbEntity
8
1
62
256
6
ByLayer
370
18
48
1
60
0
100
AcDbSpline
70
4
71
5
72
37
73
31
40
0
40
0
40
0
40
0
40
0
40
0
40
0.0326544217354041
40
0.0636849134955477
40
0.110230651135763
40
0.141261142895907
40
0.187806880536123
40
0.218837372296267
40
0.265383109936482
40
0.311928847576698
40
0.342959339336851
40
0.373989831096985
40
0.420535568737201
40
0.467081306377417
40
0.49811179813756
40
0.544657535777776
40
0.591203273417992
40
0.622233765178136
40
0.65326425693828
40
0.699809994578495
40
0.746355732218711
40
0.777386223978854
40
0.82393196161907
40
0.854962453379214
40
0.901508191019429
40
0.932538682779573
40
0.979084420419789
40
1
40
1
40
1
40
1
40
1
40
1
41
1
10
36.3000193589497
20
-5.51399684259491
30
0
41
1
10
36.2183831802046
20
-5.52184744761351
30
0
41
1
10
36.0591706538394
20
-5.53538693924577
30
0
41
1
10
35.7835936060442
20
-5.55282858926296
30
0
41
1
10
35.4304402106288
20
-5.56183858919266
30
0
41
1
10
34.9609222937833
20
-5.55102956909781
30
0
41
1
10
34.4954642080628
20
-5.5155481810036
30
0
41
1
10
33.9912179485323
20
-5.4504708068398
30
0
41
1
10
33.4869716890017
20
-5.35903652906856
30
0
41
1
10
32.9827254294712
20
-5.23910798247707
30
0
41
1
10
32.5172673437506
20
-5.10503040009141
30
0
41
1
10
32.0130210842201
20
-4.93518981825412
30
0
41
1
10
31.5087748246895
20
-4.74150634019489
30
0
41
1
10
31.043316738969
20
-4.54147862697161
30
0
41
1
10
30.5390704794385
20
-4.30283162096416
30
0
41
1
10
29.9960360460979
20
-4.02123822154758
30
0
41
1
10
29.4917897865674
20
-3.73835113384013
30
0
41
1
10
29.0263317008469
20
-3.46054591761194
30
0
41
1
10
28.5220854413163
20
-3.14302195662327
30
0
41
1
10
28.0178391817858
20
-2.81031342340737
30
0
41
1
10
27.5523810960653
20
-2.49050724732416
30
0
41
1
10
27.0481348365348
20
-2.13201319458801
30
0
41
1
10
26.5438885770042
20
-1.76223865902733
30
0
41
1
10
26.0396423174737
20
-1.38404121987324
30
0
41
1
10
25.5741842317532
20
-1.02867530371853
30
0
41
1
10
25.0699379722226
20
-0.638820675488574
30
0
41
1
10
24.6297672054877
20
-0.295726430078361
30
0
41
1
10
24.2671727863728
20
-0.012268529155449
30
0
41
1
10
24.0209428886881
20
0.180123953004113
30
0
41
1
10
23.8522893386234
20
0.311701899664797
30
0
41
1
10
23.8000003099889
20
0.352472259758827
30
0
0
SPLINE
5
1AE
100
AcDbEntity
8
1
62
256
6
ByLayer
370
18
48
1
60
0
100
AcDbSpline
70
4
71
5
72
56
73
50
40
0
40
0
40
0
40
0
40
0
40
0
40
0.0098470913489836
40
0.0365243281036471
40
0.054309152606761
40
0.0720939771098649
40
0.0987712138645282
40
0.125448450619191
40
0.1432332751223
40
0.169910511876964
40
0.196587748631627
40
0.214372573134736
40
0.232157397637845
40
0.258834634392508
40
0.285511871147172
40
0.303296695650281
40
0.329973932404944
40
0.347758756908053
40
0.374435993662716
40
0.392220818165825
40
0.418898054920488
40
0.445575291675152
40
0.463360116178261
40
0.490037352932924
40
0.507822177436033
40
0.534499414190696
40
0.552284238693805
40
0.578961475448469
40
0.605638712203132
40
0.623423536706246
40
0.64120836120935
40
0.667885597964013
40
0.694562834718676
40
0.712347659221785
40
0.739024895976449
40
0.765702132731112
40
0.783486957234221
40
0.80127178173733
40
0.827949018491993
40
0.854626255246656
40
0.872411079749765
40
0.899088316504429
40
0.916873141007538
40
0.943550377762201
40
0.96133520226531
40
0.988012439019973
40
1
40
1
40
1
40
1
40
1
40
1
41
1
10
45.6097031851907
20
-5.51394661835624
30
0
41
1
10
45.5667507578895
20
-5.51807961612306
30
0
41
1
10
45.4074338091581
20
-5.53247695691553
30
0
41
1
10
45.1705405128066
20
-5.54873506413554
30
0
41
1
10
44.8560708688351
20
-5.56011107078569
30
0
41
1
10
44.4252367034333
20
-5.55708061312242
30
0
41
1
10
43.9209904439028
20
-5.52668640396399
30
0
41
1
10
43.4555323581823
20
-5.4739589454494
30
0
41
1
10
42.9512860986518
20
-5.3903802605837
30
0
41
1
10
42.4082516653113
20
-5.26953690204698
30
0
41
1
10
41.9040054057807
20
-5.12930376627548
30
0
41
1
10
41.4385473200602
20
-4.97697337857514
30
0
41
1
10
40.9343010605296
20
-4.78798736102371
30
0
41
1
10
40.4300548009991
20
-4.57586961200579
30
0
41
1
10
39.9645967152787
20
-4.35955619532103
30
0
41
1
10
39.4603504557481
20
-4.10414562902403
30
0
41
1
10
38.9561041962175
20
-3.82696059151411
30
0
41
1
10
38.451857936687
20
-3.53135391712323
30
0
41
1
10
37.9863998509665
20
-3.24266531539942
30
0
41
1
10
37.482153591436
20
-2.91432954826939
30
0
41
1
10
36.9779073319054
20
-2.57182830178041
30
0
41
1
10
36.4736610723749
20
-2.21561167826951
30
0
41
1
10
35.9694148128444
20
-1.84868634387945
30
0
41
1
10
35.4651685533139
20
-1.4719872761238
30
0
41
1
10
34.9609222937833
20
-1.08826938499507
30
0
41
1
10
34.4954642080628
20
-0.729125846326127
30
0
41
1
10
33.9912179485323
20
-0.336627097796395
30
0
41
1
10
33.4869716890017
20
0.0575955941650932
30
0
41
1
10
32.9827254294712
20
0.451566090301469
30
0
41
1
10
32.5172673437506
20
0.813216499519939
30
0
41
1
10
32.0130210842201
20
1.20088158351513
30
0
41
1
10
31.5087748246896
20
1.58274496670785
30
0
41
1
10
31.0433167389691
20
1.92834770584213
30
0
41
1
10
30.5390704794386
20
2.29343039506321
30
0
41
1
10
29.9960360460979
20
2.67341786019293
30
0
41
1
10
29.4917897865674
20
3.01210315284604
30
0
41
1
10
29.0263317008469
20
3.31129721663189
30
0
41
1
10
28.5220854413163
20
3.61926683169841
30
0
41
1
10
28.0178391817858
20
3.90975103961682
30
0
41
1
10
27.5523810960653
20
4.16057996850097
30
0
41
1
10
27.0481348365348
20
4.41220198741689
30
0
41
1
10
26.5438885770043
20
4.64034320095038
30
0
41
1
10
26.0396423174737
20
4.8460078796906
30
0
41
1
10
25.5741842317532
20
5.01428109375479
30
0
41
1
10
25.0699379722227
20
5.1723051767363
30
0
41
1
10
24.6297672054877
20
5.28846283367659
30
0
41
1
10
24.2671727863728
20
5.36692908812086
30
0
41
1
10
24.020942888688
20
5.41214199450405
30
0
41
1
10
23.8522893386234
20
5.43929021333517
30
0
41
1
10
23.8000003099888
20
5.44733909096499
30
0
0
SPLINE
5
1AF
100
AcDbEntity
8
1
62
256
6
ByLayer
370
13
48
1
60
0
100
AcDbSpline
70
4
71
3
72
8
73
4
40
0
40
0
40
0
40
0
40
1
40
1
40
1
40
1
41
1
10
23.8000000000001
20
5.46259507786974
30
0
41
1
10
23.8
20
5.46248467510802
30
0
41
1
10
23.8
20
5.45750039266065
30
0
41
1
10
23.8000000000001
20
5.44764107786887
30
0
0
SPLINE
5
1B0
100
AcDbEntity
8
1
62
256
6
ByLayer
370
18
48
1
60
0
100
AcDbSpline
70
4
71
3
72
8
73
4
40
0
40
0
40
0
40
0
40
1
40
1
40
1
40
1
41
1
10
23.7999766316518
20
-5.05043619778436
30
0
41
1
10
23.7999844211033
20
-5.04972706429075
30
0
41
1
10
23.7999922105527
20
-5.04901751255883
30
0
41
1
10
23.8
20
-5.04830754279018
30
0
0
SPLINE
5
1B1
100
AcDbEntity
8
1
62
256
6
ByLayer
370
18
48
1
60
0
100
AcDbSpline
70
4
71
3
72
18
73
14
40
0
40
0
40
0
40
0
40
0.249999999999975
40
0.249999999999975
40
0.374999999999976
40
0.374999999999976
40
0.499999999999976
40
0.499999999999976
40
0.624999999999976
40
0.624999999999976
40
0.749999999999977
40
0.749999999999977
40
1
40
1
40
1
40
1
41
1
10
23.8
20
-5.05044376811836
30
0
41
1
10
23.7229132692843
20
-5.01176291126964
30
0
41
1
10
23.6470913476601
20
-4.96822949008342
30
0
41
1
10
23.5346699948554
20
-4.89615563094733
30
0
41
1
10
23.4974156832463
20
-4.87099800532098
30
0
41
1
10
23.4232561451786
20
-4.81844834401349
30
0
41
1
10
23.3864855198412
20
-4.79115112468267
30
0
41
1
10
23.3135207260092
20
-4.73459931348194
30
0
41
1
10
23.2773180809205
20
-4.70533841299192
30
0
41
1
10
23.2053828376649
20
-4.64486613628227
30
0
41
1
10
23.1696158743636
20
-4.6136207954512
30
0
41
1
10
23.0634322081352
20
-4.51746067009472
30
0
41
1
10
22.9939765644857
20
-4.45002010395473
30
0
41
1
10
22.9254891338878
20
-4.37928758720122
30
0
0
SPLINE
5
1B2
100
AcDbEntity
8
1
62
256
6
ByLayer
370
18
48
1
60
0
100
AcDbSpline
70
4
71
3
72
12
73
8
40
0
40
0
40
0
40
0
40
0.689833832654464
40
0.689833832654464
40
0.862292290818076
40
0.862292290818076
40
1
40
1
40
1
40
1
41
1
10
18.1938461578951
20
5.25767157370092
30
0
41
1
10
18.1021306873993
20
5.26967584502404
30
0
41
1
10
18.0138396203474
20
5.27807083180463
30
0
41
1
10
17.9098902197106
20
5.28320470700447
30
0
41
1
10
17.8894266262284
20
5.28396122400619
30
0
41
1
10
17.8532824003615
20
5.28480678105535
30
0
41
1
10
17.8374528044389
20
5.28499947981953
30
0
41
1
10
17.821908515117
20
5.2849999558326
30
0
0
SPLINE
5
1B3
100
AcDbEntity
8
1
62
256
6
ByLayer
370
18
48
1
60
0
100
AcDbSpline
70
4
71
3
72
18
73
14
40
0
40
0
40
0
40
0
40
0.125
40
0.125
40
0.25
40
0.25
40
0.375
40
0.375
40
0.5
40
0.5
40
0.75
40
0.75
40
1
40
1
40
1
40
1
41
1
10
18.6985337395733
20
-2.61949978208548
30
0
41
1
10
18.7259358481562
20
-2.61418981116026
30
0
41
1
10
18.7534498901134
20
-2.6102577806767
30
0
41
1
10
18.8086587757789
20
-2.60462841478986
30
0
41
1
10
18.8363539579773
20
-2.60293511130035
30
0
41
1
10
18.8918991887894
20
-2.6014659616483
30
0
41
1
10
18.9197493963757
20
-2.60169201361308
30
0
41
1
10
18.9755876890671
20
-2.60385074084832
30
0
41
1
10
19.0035882139896
20
-2.60579191154605
30
0
41
1
10
19.0866749518292
20
-2.6138147321692
30
0
41
1
10
19.1412522519332
20
-2.62208235377307
30
0
41
1
10
19.2490842857105
20
-2.64331274047456
30
0
41
1
10
19.3023354383158
20
-2.65628818990956
30
0
41
1
10
19.3550000000012
20
-2.67131135237508
30
0
0
SPLINE
5
1B4
100
AcDbEntity
8
1
62
256
6
ByLayer
370
18
48
1
60
0
100
AcDbSpline
70
4
71
3
72
8
73
4
40
0
40
0
40
0
40
0
40
1
40
1
40
1
40
1
41
1
10
23.7999766316518
20
0.35248315326902
30
0
41
1
10
23.7999844211033
20
0.353808019079935
30
0
41
1
10
23.7999922105527
20
0.355132792747384
30
0
41
1
10
23.8
20
0.356457473943436
30
0
0
SPLINE
5
1B5
100
AcDbEntity
8
1
62
256
6
ByLayer
370
18
48
1
60
0
100
AcDbSpline
70
4
71
3
72
18
73
14
40
0
40
0
40
0
40
0
40
0.249999999999994
40
0.249999999999994
40
0.374999999999991
40
0.374999999999991
40
0.499999999999988
40
0.499999999999988
40
0.624999999999985
40
0.624999999999985
40
0.749999999999982
40
0.749999999999982
40
1
40
1
40
1
40
1
41
1
10
23.8
20
0.352471908636147
30
0
41
1
10
23.7229132692842
20
0.415158356073249
30
0
41
1
10
23.6470913476601
20
0.477123112528801
30
0
41
1
10
23.5346699948554
20
0.568397450923953
30
0
41
1
10
23.4974156832463
20
0.598542577009255
30
0
41
1
10
23.4232561451787
20
0.658158602056403
30
0
41
1
10
23.3864855198412
20
0.687521122854406
30
0
41
1
10
23.3135207260092
20
0.74519875657964
30
0
41
1
10
23.2773180809205
20
0.773521036348484
30
0
41
1
10
23.205382837665
20
0.82899678003858
30
0
41
1
10
23.1696158743636
20
0.856175147195074
30
0
41
1
10
23.0634322081351
20
0.935310527539627
30
0
41
1
10
22.9939765644857
20
0.985014633829195
30
0
41
1
10
22.9254891338879
20
1.03090066942607
30
0
0
SPLINE
5
1B6
100
AcDbEntity
8
1
62
256
6
ByLayer
370
18
48
1
60
0
100
AcDbSpline
70
4
71
3
72
18
73
14
40
0
40
0
40
0
40
0
40
0.249999999999994
40
0.249999999999994
40
0.374999999999991
40
0.374999999999991
40
0.499999999999988
40
0.499999999999988
40
0.624999999999985
40
0.624999999999985
40
0.749999999999981
40
0.749999999999981
40
1
40
1
40
1
40
1
41
1
10
23.8
20
5.44734199138119
30
0
41
1
10
23.7229132692843
20
5.44678856365675
30
0
41
1
10
23.6470913476601
20
5.4407600677026
30
0
41
1
10
23.5346699948555
20
5.42365571175719
30
0
41
1
10
23.4974156832463
20
5.41660592837235
30
0
41
1
10
23.4232561451787
20
5.39977004123233
30
0
41
1
10
23.3864855198412
20
5.39001380365085
30
0
41
1
10
23.3135207260093
20
5.36781668824091
30
0
41
1
10
23.2773180809205
20
5.35537379548671
30
0
41
1
10
23.205382837665
20
5.32773406663748
30
0
41
1
10
23.1696158743636
20
5.3125177683296
30
0
41
1
10
23.0634322081352
20
5.26284991141671
30
0
41
1
10
22.9939765644858
20
5.22436662395793
30
0
41
1
10
22.9254891338879
20
5.18007346130477
30
0
0
SPLINE
5
1B7
100
AcDbEntity
8
1
62
256
6
ByLayer
370
18
48
1
60
0
100
AcDbSpline
70
4
71
1
72
4
73
2
40
0
40
0
40
1
40
1
41
1
10
20.2227327142374
20
-4.95014949193464
30
0
41
1
10
21.656774312543
20
-4.8753123996741
30
0
0
SPLINE
5
1B8
100
AcDbEntity
8
1
62
256
6
ByLayer
370
18
48
1
60
0
100
AcDbSpline
70
4
71
3
72
14
73
10
40
0
40
0
40
0
40
0
40
0.196968565737519
40
0.34194758417847
40
0.434838663935831
40
0.496493853981403
40
0.62791297226705
40
0.822262081469359
40
1
40
1
40
1
40
1
41
1
10
25.7325132767742
20
5.28452437467644
30
0
41
1
10
25.6058298370583
20
5.29568042880052
30
0
41
1
10
25.3859322547298
20
5.31527512302341
30
0
41
1
10
25.1063596625161
20
5.34074306831181
30
0
41
1
10
24.9138274678301
20
5.35847119851391
30
0
41
1
10
24.7303197218093
20
5.37545724327299
30
0
41
1
10
24.4810403229849
20
5.39859057793814
30
0
41
1
10
24.1576155153681
20
5.42888649361561
30
0
41
1
10
23.9188193661892
20
5.45142001017896
30
0
41
1
10
23.8048194735231
20
5.46222080612637
30
0
0
SPLINE
5
1B9
100
AcDbEntity
8
1
62
256
6
ByLayer
370
18
48
1
60
0
100
AcDbSpline
70
4
71
2
72
6
73
3
40
0
40
0
40
0
40
1
40
1
40
1
41
1
10
48.9807946118794
20
-4.80875590815728
30
0
41
1
10
48.9845582165436
20
-4.7957953026185
30
0
41
1
10
48.9883218212078
20
-4.78283469707972
30
0
0
SPLINE
5
1BA
100
AcDbEntity
8
1
62
256
6
ByLayer
370
18
48
1
60
0
100
AcDbSpline
70
4
71
2
72
6
73
3
40
0
40
0
40
0
40
1
40
1
40
1
41
1
10
49.0060843581089
20
-4.72166641436004
30
0
41
1
10
49.0662553223194
20
-4.51445758091361
30
0
41
1
10
49.1264262865299
20
-4.30724874746718
30
0
0
SPLINE
5
1BB
100
AcDbEntity
8
1
62
256
6
ByLayer
370
18
48
1
60
0
100
AcDbSpline
70
4
71
1
72
4
73
2
40
0
40
0
40
1
40
1
41
1
10
48.2599508540843
20
-0.480473658753141
30
0
41
1
10
48.2632935945955
20
-0.498168757114854
30
0
0
SPLINE
5
1BC
100
AcDbEntity
8
1
62
256
6
ByLayer
370
18
48
1
60
0
100
AcDbSpline
70
4
71
2
72
6
73
3
40
0
40
0
40
0
40
1
40
1
40
1
41
1
10
23.8000000000002
20
5.46149376452533
30
0
41
1
10
23.6953520981155
20
5.45989346948988
30
0
41
1
10
23.5953008119811
20
5.44341371963796
30
0
0
SPLINE
5
1BD
100
AcDbEntity
8
1
62
256
6
ByLayer
370
18
48
1
60
0
100
AcDbSpline
70
4
71
3
72
13
73
9
40
0
40
0
40
0
40
0
40
0.185105981399454
40
0.333990232621963
40
0.498449430084575
40
0.654023557501595
40
0.787309299820695
40
1
40
1
40
1
40
1
41
1
10
27.7339962523213
20
-5.51415455382266
30
0
41
1
10
27.8848374158306
20
-5.49946653590092
30
0
41
1
10
28.1577612398443
20
-5.47313145638324
30
0
41
1
10
28.5674622797166
20
-5.43469099010548
30
0
41
1
10
28.9540071083736
20
-5.398106580513
30
0
41
1
10
29.3276480974206
20
-5.36338416002934
30
0
41
1
10
29.7413829736744
20
-5.32550749491202
30
0
41
1
10
30.025802835314
20
-5.30007271648228
30
0
41
1
10
30.200413443608
20
-5.28467254505509
30
0
0
SPLINE
5
1BE
100
AcDbEntity
8
1
62
256
6
ByLayer
370
18
48
1
60
0
100
AcDbSpline
70
4
71
2
72
6
73
3
40
0
40
0
40
0
40
1
40
1
40
1
41
1
10
49.1576180344365
20
1.90483440043843
30
0
41
1
10
49.099808743434
20
2.30472858949156
30
0
41
1
10
49.0418608247836
20
2.70559073276198
30
0
0
SPLINE
5
1BF
100
AcDbEntity
8
1
62
256
6
ByLayer
370
18
48
1
60
0
100
AcDbSpline
70
4
71
3
72
15
73
11
40
0
40
0
40
0
40
0
40
0.171863318630807
40
0.288200460289661
40
0.381040308377701
40
0.500060244939177
40
0.616605762580195
40
0.700391667179326
40
0.814039597701751
40
1
40
1
40
1
40
1
41
1
10
43.9726341418653
20
5.25275133130097
30
0
41
1
10
43.8108260811134
20
5.26670227191372
30
0
41
1
10
43.5391521816953
20
5.29048102890377
30
0
41
1
10
43.1788255633376
20
5.32282504170925
30
0
41
1
10
42.868614192214
20
5.35113324071293
30
0
41
1
10
42.5581698466914
20
5.37977718007116
30
0
41
1
10
42.2564014347693
20
5.40796044310648
30
0
41
1
10
41.9596182106353
20
5.43592094029742
30
0
41
1
10
41.5973157721109
20
5.47034502895121
30
0
41
1
10
41.3142357434345
20
5.49741212777099
30
0
41
1
10
41.1385587080476
20
5.51429387682762
30
0
0
SPLINE
5
1C0
100
AcDbEntity
8
1
62
256
6
ByLayer
370
18
48
1
60
0
100
AcDbSpline
70
4
71
3
72
15
73
11
40
0
40
0
40
0
40
0
40
0.16091119826653
40
0.309241245645529
40
0.419444875499274
40
0.49856760446107
40
0.577574306452213
40
0.687480496318346
40
0.836063891733048
40
1
40
1
40
1
40
1
41
1
10
36.2987321295699
20
-5.51413257231098
30
0
41
1
10
36.4677484262653
20
-5.49742923834864
30
0
41
1
10
36.7942160233857
20
-5.46563187604426
30
0
41
1
10
37.2446175643969
20
-5.423950737274
30
0
41
1
10
37.6054715294032
20
-5.39000722805054
30
0
41
1
10
37.8938613215156
20
-5.36314614336351
30
0
41
1
10
38.1818483014476
20
-5.33681487780035
30
0
41
1
10
38.5430395155555
20
-5.30437584173805
30
0
41
1
10
38.9984808146264
20
-5.26278805227687
30
0
41
1
10
39.327073869638
20
-5.23519833391452
30
0
41
1
10
39.4981502356397
20
-5.22124028009284
30
0
0
SPLINE
5
1C1
100
AcDbEntity
8
1
62
256
6
ByLayer
370
18
48
1
60
0
100
AcDbSpline
70
4
71
3
72
15
73
11
40
0
40
0
40
0
40
0
40
0.180934990081335
40
0.30128425911577
40
0.375783622567995
40
0.448334460538853
40
0.523634308785528
40
0.634396752226963
40
0.792675722141768
40
1
40
1
40
1
40
1
41
1
10
45.6073000682212
20
-5.51424738885567
30
0
41
1
10
45.7566124691276
20
-5.49990332565403
30
0
41
1
10
46.0052502475979
20
-5.47611040988605
30
0
41
1
10
46.3153728474829
20
-5.44659339726448
30
0
41
1
10
46.5360786071364
20
-5.42571477218186
30
0
41
1
10
46.7195928852323
20
-5.40843980130413
30
0
41
1
10
46.9330244499643
20
-5.38845841596779
30
0
41
1
10
47.2172019228945
20
-5.36205391923212
30
0
41
1
10
47.6103812086719
20
-5.32600500631835
30
0
41
1
10
47.9122283859842
20
-5.29904889819224
30
0
41
1
10
48.0834225631544
20
-5.28397088267187
30
0
0
SPLINE
5
1C2
100
AcDbEntity
8
1
62
256
6
ByLayer
370
18
48
1
60
0
100
AcDbSpline
70
4
71
3
72
17
73
13
40
0
40
0
40
0
40
0
40
0.150388599577615
40
0.258806780636262
40
0.333688597298952
40
0.410815113589323
40
0.494072214094373
40
0.567768443088394
40
0.624047377995842
40
0.696402420221132
40
0.821693827664713
40
1
40
1
40
1
40
1
41
1
10
35.0296315138728
20
5.22128002101891
30
0
41
1
10
34.8698794433966
20
5.23482746768207
30
0
41
1
10
34.5945493092173
20
5.2584731822528
30
0
41
1
10
34.2383437658104
20
5.28980128234443
30
0
41
1
10
33.9602428133453
20
5.31451942775695
30
0
41
1
10
33.7089526011637
20
5.33718883820535
30
0
41
1
10
33.4590829309748
20
5.36019234177348
30
0
41
1
10
33.2314430909096
20
5.38133412472865
30
0
41
1
10
33.0163217903013
20
5.40141148603593
30
0
41
1
10
32.7455059574764
20
5.42679426857768
30
0
41
1
10
32.3439973633074
20
5.464835764219
30
0
41
1
10
32.0200627195775
20
5.49584597341084
30
0
41
1
10
31.8298171599726
20
5.51418702240684
30
0
0
LINE
5
79
100
AcDbEntity
8
80
62
256
6
ByLayer
370
18
48
1
60
0
100
AcDbLine
10
0
20
0
30
0
11
-5
21
0
31
0
39
0
210
0
220
0
230
1
0
LINE
5
7A
100
AcDbEntity
8
4
62
256
6
ByLayer
370
18
48
0.05
60
0
100
AcDbLine
10
0
20
0
30
0
11
49.2
21
0
31
0
39
0
210
0
220
0
230
1
0
LINE
5
7C
100
AcDbEntity
8
81
62
256
6
ByLayer
370
18
48
1
60
0
100
AcDbLine
10
49.2
20
0
30
0
11
54.2
21
0
31
0
39
0
210
0
220
0
230
1
0
LINE
5
7D
100
AcDbEntity
8
SK4
62
256
6
ByLayer
370
18
48
0.05
60
0
100
AcDbLine
10
-39.7
20
0
30
0
11
49.2
21
0
31
0
39
0
210
0
220
0
230
1
0
LINE
5
7F
100
AcDbEntity
8
1
62
256
6
ByLayer
370
18
48
1
60
0
100
AcDbLine
10
0
20
5.55625
30
0
11
0
21
0
31
0
39
0
210
0
220
0
230
1
0
LINE
5
80
100
AcDbEntity
8
1
62
256
6
ByLayer
370
18
48
1
60
0
100
AcDbLine
10
0
20
0
30
0
11
0
21
-5.55625
31
0
39
0
210
0
220
0
230
1
0
LINE
5
81
100
AcDbEntity
8
1
62
256
6
ByLayer
370
18
48
1
60
0
100
AcDbLine
10
49.150756
20
1.258824
30
0
11
49.150607
21
1.257642
31
0
39
0
210
0
220
0
230
1
0
LINE
5
82
100
AcDbEntity
8
1
62
256
6
ByLayer
370
18
48
1
60
0
100
AcDbLine
10
49.045772
20
0.436256
30
0
11
48.927898
21
-0.22513
31
0
39
0
210
0
220
0
230
1
0
LINE
5
83
100
AcDbEntity
8
1
62
256
6
ByLayer
370
18
48
1
60
0
100
AcDbLine
10
49.149309
20
1.258574
30
0
11
49.150756
21
1.258824
31
0
39
0
210
0
220
0
230
1
0
LINE
5
84
100
AcDbEntity
8
1
62
256
6
ByLayer
370
18
48
1
60
0
100
AcDbLine
10
49.151491
20
1.262988
30
0
11
49.158774
21
1.304208
31
0
39
0
210
0
220
0
230
1
0
LINE
5
85
100
AcDbEntity
8
1
62
256
6
ByLayer
370
18
48
1
60
0
100
AcDbLine
10
49.012378
20
0.475577
30
0
11
49.150756
21
1.258824
31
0
39
0
210
0
220
0
230
1
0
LINE
5
86
100
AcDbEntity
8
1
62
256
6
ByLayer
370
18
48
1
60
0
100
AcDbLine
10
48.671162
20
-1.020684
30
0
11
48.927898
21
-0.22513
31
0
39
0
210
0
220
0
230
1
0
LINE
5
87
100
AcDbEntity
8
1
62
256
6
ByLayer
370
18
48
1
60
0
100
AcDbLine
10
48.927898
20
-0.22513
30
0
11
49.012128
21
0.473757
31
0
39
0
210
0
220
0
230
1
0
LINE
5
88
100
AcDbEntity
8
1
62
256
6
ByLayer
370
18
48
1
60
0
100
AcDbLine
10
48.777439
20
0.372959
30
0
11
49.010476
21
0.474239
31
0
39
0
210
0
220
0
230
1
0
LINE
5
89
100
AcDbEntity
8
1
62
256
6
ByLayer
370
18
48
1
60
0
100
AcDbLine
10
49.150756
20
-3.990449
30
0
11
49.150607
21
-3.991351
31
0
39
0
210
0
220
0
230
1
0
LINE
5
8A
100
AcDbEntity
8
1
62
256
6
ByLayer
370
18
48
1
60
0
100
AcDbLine
10
49.142312
20
-3.857907
30
0
11
49.150756
21
-3.990449
31
0
39
0
210
0
220
0
230
1
0
LINE
5
8B
100
AcDbEntity
8
1
62
256
6
ByLayer
370
18
48
1
60
0
100
AcDbLine
10
49.151491
20
-4.001996
30
0
11
49.158774
21
-4.116308
31
0
39
0
210
0
220
0
230
1
0
LINE
5
8C
100
AcDbEntity
8
1
62
256
6
ByLayer
370
18
48
1
60
0
100
AcDbLine
10
49.150756
20
4.622843
30
0
11
49.150607
21
4.622995
31
0
39
0
210
0
220
0
230
1
0
LINE
5
8D
100
AcDbEntity
8
1
62
256
6
ByLayer
370
13
48
1
60
0
100
AcDbLine
10
48.453919
20
0.312267
30
0
11
48.266228
21
-0.150496
31
0
39
0
210
0
220
0
230
1
0
LINE
5
8E
100
AcDbEntity
8
1
62
256
6
ByLayer
370
18
48
1
60
0
100
AcDbLine
10
49.046166
20
2.675823
30
0
11
49.150756
21
4.622843
31
0
39
0
210
0
220
0
230
1
0
LINE
5
8F
100
AcDbEntity
8
1
62
256
6
ByLayer
370
18
48
1
60
0
100
AcDbLine
10
49.151491
20
4.636538
30
0
11
49.156755
21
4.734531
31
0
39
0
210
0
220
0
230
1
0
LINE
5
90
100
AcDbEntity
8
1
62
256
6
ByLayer
370
18
48
1
60
0
100
AcDbLine
10
49.149309
20
4.622845
30
0
11
49.150756
21
4.622843
31
0
39
0
210
0
220
0
230
1
0
LINE
5
91
100
AcDbEntity
8
1
62
256
6
ByLayer
370
18
48
1
60
0
100
AcDbLine
10
49.045772
20
-4.505449
30
0
11
49.020753
21
-4.101049
31
0
39
0
210
0
220
0
230
1
0
LINE
5
92
100
AcDbEntity
8
1
62
256
6
ByLayer
370
13
48
1
60
0
100
AcDbLine
10
48.382367
20
0.627594
30
0
11
48.777439
21
0.372959
31
0
39
0
210
0
220
0
230
1
0
LINE
5
93
100
AcDbEntity
8
1
62
256
6
ByLayer
370
18
48
1
60
0
100
AcDbLine
10
20.508932
20
4.584109
30
0
11
20.497431
21
4.280303
31
0
39
0
210
0
220
0
230
1
0
LINE
5
94
100
AcDbEntity
8
1
62
256
6
ByLayer
370
18
48
1
60
0
100
AcDbLine
10
20.216834
20
-5.217667
30
0
11
20.224385
21
-4.873297
31
0
39
0
210
0
220
0
230
1
0
LINE
5
95
100
AcDbEntity
8
1
62
256
6
ByLayer
370
18
48
1
60
0
100
AcDbLine
10
49.150651
20
-3.644928
30
0
11
49.150756
21
-3.644939
31
0
39
0
210
0
220
0
230
1
0
LINE
5
96
100
AcDbEntity
8
1
62
256
6
ByLayer
370
18
48
1
60
0
100
AcDbLine
10
48.927898
20
-1.364647
30
0
11
49.008536
21
-1.555798
31
0
39
0
210
0
220
0
230
1
0
LINE
5
97
100
AcDbEntity
8
1
62
256
6
ByLayer
370
18
48
1
60
0
100
AcDbLine
10
49.151491
20
-3.65599
30
0
11
49.158774
21
-3.765391
31
0
39
0
210
0
220
0
230
1
0
LINE
5
98
100
AcDbEntity
8
1
62
256
6
ByLayer
370
18
48
1
60
0
100
AcDbLine
10
49.014648
20
-1.600237
30
0
11
49.150756
21
-3.644939
31
0
39
0
210
0
220
0
230
1
0
LINE
5
99
100
AcDbEntity
8
1
62
256
6
ByLayer
370
18
48
1
60
0
100
AcDbLine
10
49.150756
20
-3.644939
30
0
11
49.150607
21
-3.644345
31
0
39
0
210
0
220
0
230
1
0
LINE
5
9A
100
AcDbEntity
8
1
62
256
6
ByLayer
370
18
48
1
60
0
100
AcDbLine
10
49.150756
20
1.833839
30
0
11
49.150607
21
1.835147
31
0
39
0
210
0
220
0
230
1
0
LINE
5
9B
100
AcDbEntity
8
1
62
256
6
ByLayer
370
18
48
1
60
0
100
AcDbLine
10
49.045772
20
-3.163304
30
0
11
48.927898
21
-1.364647
31
0
39
0
210
0
220
0
230
1
0
LINE
5
9C
100
AcDbEntity
8
1
62
256
6
ByLayer
370
18
48
1
60
0
100
AcDbLine
10
48.524334
20
-0.823996
30
0
11
48.927898
21
-1.364647
31
0
39
0
210
0
220
0
230
1
0
LINE
5
9D
100
AcDbEntity
8
1
62
256
6
ByLayer
370
18
48
1
60
0
100
AcDbLine
10
49.149309
20
1.834096
30
0
11
49.150756
21
1.833839
31
0
39
0
210
0
220
0
230
1
0
LINE
5
9E
100
AcDbEntity
8
1
62
256
6
ByLayer
370
18
48
1
60
0
100
AcDbLine
10
49.151491
20
1.838829
30
0
11
49.158774
21
1.888222
31
0
39
0
210
0
220
0
230
1
0
LINE
5
9F
100
AcDbEntity
8
1
62
256
6
ByLayer
370
13
48
1
60
0
100
AcDbLine
10
47.994659
20
1.808725
30
0
11
48.759095
21
0.880586
31
0
39
0
210
0
220
0
230
1
0
LINE
5
A0
100
AcDbEntity
8
1
62
256
6
ByLayer
370
18
48
1
60
0
100
AcDbLine
10
49.016323
20
0.922037
30
0
11
48.759095
21
0.880586
31
0
39
0
210
0
220
0
230
1
0
LINE
5
A1
100
AcDbEntity
8
1
62
256
6
ByLayer
370
18
48
1
60
0
100
AcDbLine
10
49.016323
20
0.922037
30
0
11
49.150756
21
1.833839
31
0
39
0
210
0
220
0
230
1
0
LINE
5
A2
100
AcDbEntity
8
1
62
256
6
ByLayer
370
18
48
1
60
0
100
AcDbLine
10
19.355
20
-5.217667
30
0
11
19.355
21
-5.285
31
0
39
0
210
0
220
0
230
1
0
LINE
5
A3
100
AcDbEntity
8
1
62
256
6
ByLayer
370
18
48
1
60
0
100
AcDbLine
10
19.355
20
-5.217667
30
0
11
20.216834
21
-5.217667
31
0
39
0
210
0
220
0
230
1
0
LINE
5
A4
100
AcDbEntity
8
1
62
256
6
ByLayer
370
18
48
1
60
0
100
AcDbLine
10
19.355
20
-2.671311
30
0
11
19.355
21
-0.812566
31
0
39
0
210
0
220
0
230
1
0
LINE
5
A5
100
AcDbEntity
8
1
62
256
6
ByLayer
370
18
48
1
60
0
100
AcDbLine
10
19.355
20
-0.812566
30
0
11
19.92396
21
-0.812566
31
0
39
0
210
0
220
0
230
1
0
LINE
5
A6
100
AcDbEntity
8
1
62
256
6
ByLayer
370
18
48
1
60
0
100
AcDbLine
10
19.92396
20
-0.812566
30
0
11
19.95116
21
-0.782966
31
0
39
0
210
0
220
0
230
1
0
LINE
5
A7
100
AcDbEntity
8
1
62
256
6
ByLayer
370
18
48
1
60
0
100
AcDbLine
10
23.8
20
5.461489
30
0
11
23.8
21
5.46231
31
0
39
0
210
0
220
0
230
1
0
LINE
5
A8
100
AcDbEntity
8
1
62
256
6
ByLayer
370
18
48
1
60
0
100
AcDbLine
10
19.355
20
3.299991
30
0
11
19.355
21
4.584109
31
0
39
0
210
0
220
0
230
1
0
LINE
5
A9
100
AcDbEntity
8
1
62
256
6
ByLayer
370
18
48
1
60
0
100
AcDbLine
10
19.355
20
4.584109
30
0
11
20.508932
21
4.584109
31
0
39
0
210
0
220
0
230
1
0
LINE
5
AA
100
AcDbEntity
8
1
62
256
6
ByLayer
370
13
48
1
60
0
100
AcDbLine
10
12.697679
20
-5.285
30
0
11
12.697679
21
0
31
0
39
0
210
0
220
0
230
1
0
LINE
5
AB
100
AcDbEntity
8
1
62
256
6
ByLayer
370
13
48
1
60
0
100
AcDbLine
10
12.697679
20
0
30
0
11
12.697679
21
5.285
31
0
39
0
210
0
220
0
230
1
0
LINE
5
AC
100
AcDbEntity
8
1
62
256
6
ByLayer
370
13
48
1
60
0
100
AcDbLine
10
12.197679
20
5.418975
30
0
11
12.197679
21
0
31
0
39
0
210
0
220
0
230
1
0
LINE
5
AD
100
AcDbEntity
8
1
62
256
6
ByLayer
370
13
48
1
60
0
100
AcDbLine
10
12.197679
20
0
30
0
11
12.197679
21
-5.418975
31
0
39
0
210
0
220
0
230
1
0
LINE
5
AE
100
AcDbEntity
8
1
62
256
6
ByLayer
370
18
48
1
60
0
100
AcDbLine
10
11.959911
20
5.55625
30
0
11
11.959911
21
0
31
0
39
0
210
0
220
0
230
1
0
LINE
5
AF
100
AcDbEntity
8
1
62
256
6
ByLayer
370
18
48
1
60
0
100
AcDbLine
10
11.959911
20
0
30
0
11
11.959911
21
-5.55625
31
0
39
0
210
0
220
0
230
1
0
LINE
5
B0
100
AcDbEntity
8
SK1
62
256
6
ByLayer
370
18
48
1
60
0
100
AcDbLine
10
0
20
5.55625
30
0
11
0
21
0
31
0
39
0
210
0
220
0
230
1
0
LINE
5
B2
100
AcDbEntity
8
SK1
62
256
6
ByLayer
370
18
48
1
60
0
100
AcDbLine
10
0
20
0
30
0
11
0
21
-5.55625
31
0
39
0
210
0
220
0
230
1
0
LINE
5
B3
100
AcDbEntity
8
SK1
62
256
6
ByLayer
370
18
48
1
60
0
100
AcDbLine
10
-24.09
20
4.04375
30
0
11
-25.6025
21
5.55625
31
0
39
0
210
0
220
0
230
1
0
LINE
5
B4
100
AcDbEntity
8
SK1
62
256
6
ByLayer
370
18
48
1
60
0
100
AcDbLine
10
-15.71
20
4.04375
30
0
11
-14.1975
21
5.55625
31
0
39
0
210
0
220
0
230
1
0
LINE
5
B5
100
AcDbEntity
8
SK1
62
256
6
ByLayer
370
18
48
1
60
0
100
AcDbLine
10
-24.09
20
4.04375
30
0
11
-15.71
21
4.04375
31
0
39
0
210
0
220
0
230
1
0
LINE
5
B6
100
AcDbEntity
8
SK1
62
256
6
ByLayer
370
18
48
1
60
0
100
AcDbLine
10
-39.1
20
5.55625
30
0
11
-39.1
21
-5.55625
31
0
39
0
210
0
220
0
230
1
0
LINE
5
B7
100
AcDbEntity
8
SK1
62
256
6
ByLayer
370
18
48
1
60
0
100
AcDbLine
10
-39.7
20
-4.95625
30
0
11
-39.7
21
4.95625
31
0
39
0
210
0
220
0
230
1
0
LINE
5
B8
100
AcDbEntity
8
1
62
256
6
ByLayer
370
18
48
1
60
0
100
AcDbLine
10
11.959911
20
5.55625
30
0
11
0
21
5.55625
31
0
39
0
210
0
220
0
230
1
0
LINE
5
B9
100
AcDbEntity
8
1
62
256
6
ByLayer
370
18
48
1
60
0
100
AcDbLine
10
0
20
-5.55625
30
0
11
11.959911
21
-5.55625
31
0
39
0
210
0
220
0
230
1
0
LINE
5
BA
100
AcDbEntity
8
1
62
256
6
ByLayer
370
18
48
1
60
0
100
AcDbLine
10
17.822151
20
5.285
30
0
11
12.697679
21
5.285
31
0
39
0
210
0
220
0
230
1
0
LINE
5
BB
100
AcDbEntity
8
1
62
256
6
ByLayer
370
18
48
1
60
0
100
AcDbLine
10
12.697679
20
-5.285
30
0
11
19.355
21
-5.285
31
0
39
0
210
0
220
0
230
1
0
LINE
5
BC
100
AcDbEntity
8
1
62
256
6
ByLayer
370
18
48
1
60
0
100
AcDbLine
10
12.197679
20
5.418975
30
0
11
11.959911
21
5.55625
31
0
39
0
210
0
220
0
230
1
0
LINE
5
BD
100
AcDbEntity
8
1
62
256
6
ByLayer
370
18
48
1
60
0
100
AcDbLine
10
11.959911
20
-5.55625
30
0
11
12.197679
21
-5.418975
31
0
39
0
210
0
220
0
230
1
0
LINE
5
BE
100
AcDbEntity
8
SK1
62
256
6
ByLayer
370
18
48
1
60
0
100
AcDbLine
10
0
20
5.55625
30
0
11
-14.1975
21
5.55625
31
0
39
0
210
0
220
0
230
1
0
LINE
5
BF
100
AcDbEntity
8
SK1
62
256
6
ByLayer
370
18
48
1
60
0
100
AcDbLine
10
-25.6025
20
5.55625
30
0
11
-39.1
21
5.55625
31
0
39
0
210
0
220
0
230
1
0
LINE
5
C0
100
AcDbEntity
8
SK1
62
256
6
ByLayer
370
18
48
1
60
0
100
AcDbLine
10
-39.1
20
-5.55625
30
0
11
0
21
-5.55625
31
0
39
0
210
0
220
0
230
1
0
LINE
5
C1
100
AcDbEntity
8
SK1
62
256
6
ByLayer
370
18
48
1
60
0
100
AcDbLine
10
-39.7
20
-4.95625
30
0
11
-39.1
21
-5.55625
31
0
39
0
210
0
220
0
230
1
0
LINE
5
C2
100
AcDbEntity
8
SK1
62
256
6
ByLayer
370
18
48
1
60
0
100
AcDbLine
10
-39.1
20
5.55625
30
0
11
-39.7
21
4.95625
31
0
39
0
210
0
220
0
230
1
0
LINE
5
C3
100
AcDbEntity
8
SK2
62
256
6
ByLayer
370
18
48
1
60
0
100
AcDbLine
10
-47.35
20
5.55625
30
0
11
-47.35
21
-27.636648
31
0
39
0
210
0
220
0
230
1
0
LINE
5
C5
100
AcDbEntity
8
SK2
62
256
6
ByLayer
370
18
48
1
60
0
100
AcDbLine
10
-40.6875
20
5.55625
30
0
11
-49.35
21
5.55625
31
0
39
0
210
0
220
0
230
1
0
LINE
5
C6
100
AcDbEntity
8
SK2
62
256
6
ByLayer
370
18
48
1
60
0
100
AcDbLine
10
-40.6875
20
-5.55625
30
0
11
-49.35
21
-5.55625
31
0
39
0
210
0
220
0
230
1
0
LINE
5
C7
100
AcDbEntity
8
1
62
256
6
ByLayer
370
18
48
1
60
1
100
AcDbLine
10
-47.35
20
5.55625
30
0
11
-46.889216
21
2.056252
31
0
39
0
210
0
220
0
230
1
0
LINE
5
C8
100
AcDbEntity
8
1
62
256
6
ByLayer
370
18
48
1
60
1
100
AcDbLine
10
-46.889216
20
2.056252
30
0
11
-47.810784
21
2.056248
31
0
39
0
210
0
220
0
230
1
0
LINE
5
C9
100
AcDbEntity
8
1
62
256
6
ByLayer
370
18
48
1
60
1
100
AcDbLine
10
-47.810784
20
2.056248
30
0
11
-47.35
21
5.55625
31
0
39
0
210
0
220
0
230
1
0
LINE
5
CA
100
AcDbEntity
8
1
62
256
6
ByLayer
370
18
48
1
60
1
100
AcDbLine
10
-47.35
20
-5.55625
30
0
11
-47.810784
21
-2.056252
31
0
39
0
210
0
220
0
230
1
0
LINE
5
CB
100
AcDbEntity
8
1
62
256
6
ByLayer
370
18
48
1
60
1
100
AcDbLine
10
-47.810784
20
-2.056252
30
0
11
-46.889216
21
-2.056248
31
0
39
0
210
0
220
0
230
1
0
LINE
5
CC
100
AcDbEntity
8
1
62
256
6
ByLayer
370
18
48
1
60
1
100
AcDbLine
10
-46.889216
20
-2.056248
30
0
11
-47.35
21
-5.55625
31
0
39
0
210
0
220
0
230
1
0
LINE
5
CD
100
AcDbEntity
8
SK2
62
256
6
ByLayer
370
13
48
1
60
0
100
AcDbLine
10
19.329955
20
-5.285
30
0
11
19.329955
21
33.989998
31
0
39
0
210
0
220
0
230
1
0
LINE
5
CE
100
AcDbEntity
8
SK2
62
256
6
ByLayer
370
13
48
1
60
0
100
AcDbLine
10
21.474732
20
5.285
30
0
11
17.329955
21
5.285
31
0
39
0
210
0
220
0
230
1
0
LINE
5
CF
100
AcDbEntity
8
SK2
62
256
6
ByLayer
370
13
48
1
60
0
100
AcDbLine
10
21.474732
20
-5.285
30
0
11
17.329955
21
-5.285
31
0
39
0
210
0
220
0
230
1
0
LINE
5
D0
100
AcDbEntity
8
1
62
256
6
ByLayer
370
18
48
1
60
1
100
AcDbLine
10
19.329955
20
5.285
30
0
11
19.790739
21
1.785002
31
0
39
0
210
0
220
0
230
1
0
LINE
5
D1
100
AcDbEntity
8
1
62
256
6
ByLayer
370
18
48
1
60
1
100
AcDbLine
10
19.790739
20
1.785002
30
0
11
18.869172
21
1.784998
31
0
39
0
210
0
220
0
230
1
0
LINE
5
D2
100
AcDbEntity
8
1
62
256
6
ByLayer
370
18
48
1
60
1
100
AcDbLine
10
18.869172
20
1.784998
30
0
11
19.329955
21
5.285
31
0
39
0
210
0
220
0
230
1
0
LINE
5
D3
100
AcDbEntity
8
1
62
256
6
ByLayer
370
18
48
1
60
1
100
AcDbLine
10
19.329955
20
-5.285
30
0
11
18.869172
21
-1.785002
31
0
39
0
210
0
220
0
230
1
0
LINE
5
D4
100
AcDbEntity
8
1
62
256
6
ByLayer
370
18
48
1
60
1
100
AcDbLine
10
18.869172
20
-1.785002
30
0
11
19.790739
21
-1.784998
31
0
39
0
210
0
220
0
230
1
0
LINE
5
D5
100
AcDbEntity
8
1
62
256
6
ByLayer
370
18
48
1
60
1
100
AcDbLine
10
19.790739
20
-1.784998
30
0
11
19.329955
21
-5.285
31
0
39
0
210
0
220
0
230
1
0
LINE
5
D6
100
AcDbEntity
8
2
62
256
6
ByLayer
370
18
48
1
60
0
100
AcDbLine
10
61.2
20
-5.55625
30
0
11
61.2
21
27.636648
31
0
39
0
210
0
220
0
230
1
0
LINE
5
D8
100
AcDbEntity
8
2
62
256
6
ByLayer
370
18
48
1
60
0
100
AcDbLine
10
50.7875
20
5.55625
30
0
11
63.2
21
5.55625
31
0
39
0
210
0
220
0
230
1
0
LINE
5
D9
100
AcDbEntity
8
2
62
256
6
ByLayer
370
18
48
1
60
0
100
AcDbLine
10
50.7875
20
-5.55625
30
0
11
63.2
21
-5.55625
31
0
39
0
210
0
220
0
230
1
0
LINE
5
DA
100
AcDbEntity
8
1
62
256
6
ByLayer
370
18
48
1
60
1
100
AcDbLine
10
61.2
20
5.55625
30
0
11
61.660784
21
2.056252
31
0
39
0
210
0
220
0
230
1
0
LINE
5
DB
100
AcDbEntity
8
1
62
256
6
ByLayer
370
18
48
1
60
1
100
AcDbLine
10
61.660784
20
2.056252
30
0
11
60.739216
21
2.056248
31
0
39
0
210
0
220
0
230
1
0
LINE
5
DC
100
AcDbEntity
8
1
62
256
6
ByLayer
370
18
48
1
60
1
100
AcDbLine
10
60.739216
20
2.056248
30
0
11
61.2
21
5.55625
31
0
39
0
210
0
220
0
230
1
0
LINE
5
DD
100
AcDbEntity
8
1
62
256
6
ByLayer
370
18
48
1
60
1
100
AcDbLine
10
61.2
20
-5.55625
30
0
11
60.739216
21
-2.056252
31
0
39
0
210
0
220
0
230
1
0
LINE
5
DE
100
AcDbEntity
8
1
62
256
6
ByLayer
370
18
48
1
60
1
100
AcDbLine
10
60.739216
20
-2.056252
30
0
11
61.660784
21
-2.056248
31
0
39
0
210
0
220
0
230
1
0
LINE
5
DF
100
AcDbEntity
8
1
62
256
6
ByLayer
370
18
48
1
60
1
100
AcDbLine
10
61.660784
20
-2.056248
30
0
11
61.2
21
-5.55625
31
0
39
0
210
0
220
0
230
1
0
LINE
5
E0
100
AcDbEntity
8
SK2
62
256
6
ByLayer
370
18
48
1
60
0
100
AcDbLine
10
49.2
20
-51.715123
30
0
11
-39.7
21
-51.715123
31
0
39
0
210
0
220
0
230
1
0
LINE
5
E1
100
AcDbEntity
8
SK2
62
256
6
ByLayer
370
18
48
1
60
0
100
AcDbLine
10
-39.7
20
-6.54375
30
0
11
-39.7
21
-53.715123
31
0
39
0
210
0
220
0
230
1
0
LINE
5
E2
100
AcDbEntity
8
SK2
62
256
6
ByLayer
370
18
48
1
60
0
100
AcDbLine
10
49.2
20
-7.14375
30
0
11
49.2
21
-53.715123
31
0
39
0
210
0
220
0
230
1
0
LINE
5
E3
100
AcDbEntity
8
1
62
256
6
ByLayer
370
18
48
1
60
1
100
AcDbLine
10
-39.7
20
-51.715123
30
0
11
-36.200002
21
-51.25434
31
0
39
0
210
0
220
0
230
1
0
LINE
5
E4
100
AcDbEntity
8
1
62
256
6
ByLayer
370
18
48
1
60
1
100
AcDbLine
10
-36.200002
20
-51.25434
30
0
11
-36.199998
21
-52.175907
31
0
39
0
210
0
220
0
230
1
0
LINE
5
E5
100
AcDbEntity
8
1
62
256
6
ByLayer
370
18
48
1
60
1
100
AcDbLine
10
-36.199998
20
-52.175907
30
0
11
-39.7
21
-51.715123
31
0
39
0
210
0
220
0
230
1
0
LINE
5
E6
100
AcDbEntity
8
1
62
256
6
ByLayer
370
18
48
1
60
1
100
AcDbLine
10
49.2
20
-51.715123
30
0
11
45.700002
21
-52.175907
31
0
39
0
210
0
220
0
230
1
0
LINE
5
E7
100
AcDbEntity
8
1
62
256
6
ByLayer
370
18
48
1
60
1
100
AcDbLine
10
45.700002
20
-52.175907
30
0
11
45.699998
21
-51.25434
31
0
39
0
210
0
220
0
230
1
0
LINE
5
E8
100
AcDbEntity
8
1
62
256
6
ByLayer
370
18
48
1
60
1
100
AcDbLine
10
45.699998
20
-51.25434
30
0
11
49.2
21
-51.715123
31
0
39
0
210
0
220
0
230
1
0
LINE
5
1C7
100
AcDbEntity
8
1
62
256
6
ByLayer
370
18
48
1
60
1
100
AcDbLine
10
-47.35
20
5.55625
30
0
11
-46.889216
21
2.056252
31
0
39
0
210
0
220
0
230
1
0
LINE
5
1C8
100
AcDbEntity
8
1
62
256
6
ByLayer
370
18
48
1
60
1
100
AcDbLine
10
-46.889216
20
2.056252
30
0
11
-47.810784
21
2.056248
31
0
39
0
210
0
220
0
230
1
0
LINE
5
1C9
100
AcDbEntity
8
1
62
256
6
ByLayer
370
18
48
1
60
1
100
AcDbLine
10
-47.810784
20
2.056248
30
0
11
-47.35
21
5.55625
31
0
39
0
210
0
220
0
230
1
0
LINE
5
1CB
100
AcDbEntity
8
1
62
256
6
ByLayer
370
18
48
1
60
1
100
AcDbLine
10
-47.35
20
-5.55625
30
0
11
-47.810784
21
-2.056252
31
0
39
0
210
0
220
0
230
1
0
LINE
5
1CC
100
AcDbEntity
8
1
62
256
6
ByLayer
370
18
48
1
60
1
100
AcDbLine
10
-47.810784
20
-2.056252
30
0
11
-46.889216
21
-2.056248
31
0
39
0
210
0
220
0
230
1
0
LINE
5
1CD
100
AcDbEntity
8
1
62
256
6
ByLayer
370
18
48
1
60
1
100
AcDbLine
10
-46.889216
20
-2.056248
30
0
11
-47.35
21
-5.55625
31
0
39
0
210
0
220
0
230
1
0
LINE
5
1D1
100
AcDbEntity
8
1
62
256
6
ByLayer
370
18
48
1
60
1
100
AcDbLine
10
19.329955
20
5.285
30
0
11
19.790739
21
1.785002
31
0
39
0
210
0
220
0
230
1
0
LINE
5
1D2
100
AcDbEntity
8
1
62
256
6
ByLayer
370
18
48
1
60
1
100
AcDbLine
10
19.790739
20
1.785002
30
0
11
18.869172
21
1.784998
31
0
39
0
210
0
220
0
230
1
0
LINE
5
1D3
100
AcDbEntity
8
1
62
256
6
ByLayer
370
18
48
1
60
1
100
AcDbLine
10
18.869172
20
1.784998
30
0
11
19.329955
21
5.285
31
0
39
0
210
0
220
0
230
1
0
LINE
5
1D5
100
AcDbEntity
8
1
62
256
6
ByLayer
370
18
48
1
60
1
100
AcDbLine
10
19.329955
20
-5.285
30
0
11
18.869172
21
-1.785002
31
0
39
0
210
0
220
0
230
1
0
LINE
5
1D6
100
AcDbEntity
8
1
62
256
6
ByLayer
370
18
48
1
60
1
100
AcDbLine
10
18.869172
20
-1.785002
30
0
11
19.790739
21
-1.784998
31
0
39
0
210
0
220
0
230
1
0
LINE
5
1D7
100
AcDbEntity
8
1
62
256
6
ByLayer
370
18
48
1
60
1
100
AcDbLine
10
19.790739
20
-1.784998
30
0
11
19.329955
21
-5.285
31
0
39
0
210
0
220
0
230
1
0
LINE
5
1DB
100
AcDbEntity
8
1
62
256
6
ByLayer
370
18
48
1
60
1
100
AcDbLine
10
61.2
20
5.55625
30
0
11
61.660784
21
2.056252
31
0
39
0
210
0
220
0
230
1
0
LINE
5
1DC
100
AcDbEntity
8
1
62
256
6
ByLayer
370
18
48
1
60
1
100
AcDbLine
10
61.660784
20
2.056252
30
0
11
60.739216
21
2.056248
31
0
39
0
210
0
220
0
230
1
0
LINE
5
1DD
100
AcDbEntity
8
1
62
256
6
ByLayer
370
18
48
1
60
1
100
AcDbLine
10
60.739216
20
2.056248
30
0
11
61.2
21
5.55625
31
0
39
0
210
0
220
0
230
1
0
LINE
5
1DF
100
AcDbEntity
8
1
62
256
6
ByLayer
370
18
48
1
60
1
100
AcDbLine
10
61.2
20
-5.55625
30
0
11
60.739216
21
-2.056252
31
0
39
0
210
0
220
0
230
1
0
LINE
5
1E0
100
AcDbEntity
8
1
62
256
6
ByLayer
370
18
48
1
60
1
100
AcDbLine
10
60.739216
20
-2.056252
30
0
11
61.660784
21
-2.056248
31
0
39
0
210
0
220
0
230
1
0
LINE
5
1E1
100
AcDbEntity
8
1
62
256
6
ByLayer
370
18
48
1
60
1
100
AcDbLine
10
61.660784
20
-2.056248
30
0
11
61.2
21
-5.55625
31
0
39
0
210
0
220
0
230
1
0
LINE
5
1E4
100
AcDbEntity
8
1
62
256
6
ByLayer
370
18
48
1
60
1
100
AcDbLine
10
-39.7
20
-51.715123
30
0
11
-36.200002
21
-51.25434
31
0
39
0
210
0
220
0
230
1
0
LINE
5
1E5
100
AcDbEntity
8
1
62
256
6
ByLayer
370
18
48
1
60
1
100
AcDbLine
10
-36.200002
20
-51.25434
30
0
11
-36.199998
21
-52.175907
31
0
39
0
210
0
220
0
230
1
0
LINE
5
1E6
100
AcDbEntity
8
1
62
256
6
ByLayer
370
18
48
1
60
1
100
AcDbLine
10
-36.199998
20
-52.175907
30
0
11
-39.7
21
-51.715123
31
0
39
0
210
0
220
0
230
1
0
LINE
5
1E8
100
AcDbEntity
8
1
62
256
6
ByLayer
370
18
48
1
60
1
100
AcDbLine
10
49.2
20
-51.715123
30
0
11
45.700002
21
-52.175907
31
0
39
0
210
0
220
0
230
1
0
LINE
5
1E9
100
AcDbEntity
8
1
62
256
6
ByLayer
370
18
48
1
60
1
100
AcDbLine
10
45.700002
20
-52.175907
30
0
11
45.699998
21
-51.25434
31
0
39
0
210
0
220
0
230
1
0
LINE
5
1EA
100
AcDbEntity
8
1
62
256
6
ByLayer
370
18
48
1
60
1
100
AcDbLine
10
45.699998
20
-51.25434
30
0
11
49.2
21
-51.715123
31
0
39
0
210
0
220
0
230
1
0
POLYLINE
5
F2
100
AcDbEntity
8
1
62
256
6
ByLayer
370
18
48
1
60
0
100
AcDb3dPolyline
10
0
20
0
30
0
70
8
75
0
210
0
220
0
230
1
0
VERTEX
5
F3
100
AcDbEntity
8
1
62
256
100
AcDbVertex
100
AcDb3dPolylineVertex
10
48.299283
20
-0.577571
30
0
70
32
0
VERTEX
5
F4
100
AcDbEntity
8
1
62
256
100
AcDbVertex
100
AcDb3dPolylineVertex
10
48.29929
20
-0.577574
30
0
70
32
0
VERTEX
5
F5
100
AcDbEntity
8
1
62
256
100
AcDbVertex
100
AcDb3dPolylineVertex
10
48.299297
20
-0.577578
30
0
70
32
0
VERTEX
5
F6
100
AcDbEntity
8
1
62
256
100
AcDbVertex
100
AcDb3dPolylineVertex
10
48.299304
20
-0.577581
30
0
70
32
0
VERTEX
5
F7
100
AcDbEntity
8
1
62
256
100
AcDbVertex
100
AcDb3dPolylineVertex
10
48.299311
20
-0.577584
30
0
70
32
0
VERTEX
5
F8
100
AcDbEntity
8
1
62
256
100
AcDbVertex
100
AcDb3dPolylineVertex
10
48.299318
20
-0.577587
30
0
70
32
0
VERTEX
5
F9
100
AcDbEntity
8
1
62
256
100
AcDbVertex
100
AcDb3dPolylineVertex
10
48.299325
20
-0.57759
30
0
70
32
0
VERTEX
5
FA
100
AcDbEntity
8
1
62
256
100
AcDbVertex
100
AcDb3dPolylineVertex
10
48.299332
20
-0.577593
30
0
70
32
0
VERTEX
5
FB
100
AcDbEntity
8
1
62
256
100
AcDbVertex
100
AcDb3dPolylineVertex
10
48.299338
20
-0.577596
30
0
70
32
0
VERTEX
5
FC
100
AcDbEntity
8
1
62
256
100
AcDbVertex
100
AcDb3dPolylineVertex
10
48.299345
20
-0.5776
30
0
70
32
0
VERTEX
5
FD
100
AcDbEntity
8
1
62
256
100
AcDbVertex
100
AcDb3dPolylineVertex
10
48.299352
20
-0.577603
30
0
70
32
0
VERTEX
5
FE
100
AcDbEntity
8
1
62
256
100
AcDbVertex
100
AcDb3dPolylineVertex
10
48.299359
20
-0.577606
30
0
70
32
0
VERTEX
5
FF
100
AcDbEntity
8
1
62
256
100
AcDbVertex
100
AcDb3dPolylineVertex
10
48.299366
20
-0.577609
30
0
70
32
0
VERTEX
5
100
100
AcDbEntity
8
1
62
256
100
AcDbVertex
100
AcDb3dPolylineVertex
10
48.299373
20
-0.577612
30
0
70
32
0
VERTEX
5
101
100
AcDbEntity
8
1
62
256
100
AcDbVertex
100
AcDb3dPolylineVertex
10
48.29938
20
-0.577615
30
0
70
32
0
VERTEX
5
102
100
AcDbEntity
8
1
62
256
100
AcDbVertex
100
AcDb3dPolylineVertex
10
48.299387
20
-0.577619
30
0
70
32
0
VERTEX
5
103
100
AcDbEntity
8
1
62
256
100
AcDbVertex
100
AcDb3dPolylineVertex
10
48.299394
20
-0.577622
30
0
70
32
0
VERTEX
5
104
100
AcDbEntity
8
1
62
256
100
AcDbVertex
100
AcDb3dPolylineVertex
10
48.299401
20
-0.577625
30
0
70
32
0
VERTEX
5
105
100
AcDbEntity
8
1
62
256
100
AcDbVertex
100
AcDb3dPolylineVertex
10
48.299408
20
-0.577628
30
0
70
32
0
VERTEX
5
106
100
AcDbEntity
8
1
62
256
100
AcDbVertex
100
AcDb3dPolylineVertex
10
48.299415
20
-0.577631
30
0
70
32
0
VERTEX
5
107
100
AcDbEntity
8
1
62
256
100
AcDbVertex
100
AcDb3dPolylineVertex
10
48.299421
20
-0.577634
30
0
70
32
0
VERTEX
5
108
100
AcDbEntity
8
1
62
256
100
AcDbVertex
100
AcDb3dPolylineVertex
10
48.299428
20
-0.577637
30
0
70
32
0
VERTEX
5
109
100
AcDbEntity
8
1
62
256
100
AcDbVertex
100
AcDb3dPolylineVertex
10
48.299435
20
-0.577641
30
0
70
32
0
VERTEX
5
10A
100
AcDbEntity
8
1
62
256
100
AcDbVertex
100
AcDb3dPolylineVertex
10
48.299442
20
-0.577644
30
0
70
32
0
VERTEX
5
10B
100
AcDbEntity
8
1
62
256
100
AcDbVertex
100
AcDb3dPolylineVertex
10
48.299449
20
-0.577647
30
0
70
32
0
VERTEX
5
10C
100
AcDbEntity
8
1
62
256
100
AcDbVertex
100
AcDb3dPolylineVertex
10
48.299456
20
-0.57765
30
0
70
32
0
VERTEX
5
10D
100
AcDbEntity
8
1
62
256
100
AcDbVertex
100
AcDb3dPolylineVertex
10
48.299463
20
-0.577653
30
0
70
32
0
VERTEX
5
10E
100
AcDbEntity
8
1
62
256
100
AcDbVertex
100
AcDb3dPolylineVertex
10
48.29947
20
-0.577656
30
0
70
32
0
VERTEX
5
10F
100
AcDbEntity
8
1
62
256
100
AcDbVertex
100
AcDb3dPolylineVertex
10
48.299477
20
-0.577659
30
0
70
32
0
VERTEX
5
110
100
AcDbEntity
8
1
62
256
100
AcDbVertex
100
AcDb3dPolylineVertex
10
48.299484
20
-0.577663
30
0
70
32
0
VERTEX
5
111
100
AcDbEntity
8
1
62
256
100
AcDbVertex
100
AcDb3dPolylineVertex
10
48.299491
20
-0.577666
30
0
70
32
0
VERTEX
5
112
100
AcDbEntity
8
1
62
256
100
AcDbVertex
100
AcDb3dPolylineVertex
10
48.299498
20
-0.577669
30
0
70
32
0
VERTEX
5
113
100
AcDbEntity
8
1
62
256
100
AcDbVertex
100
AcDb3dPolylineVertex
10
48.299505
20
-0.577672
30
0
70
32
0
VERTEX
5
114
100
AcDbEntity
8
1
62
256
100
AcDbVertex
100
AcDb3dPolylineVertex
10
48.299511
20
-0.577675
30
0
70
32
0
VERTEX
5
115
100
AcDbEntity
8
1
62
256
100
AcDbVertex
100
AcDb3dPolylineVertex
10
48.299518
20
-0.577678
30
0
70
32
0
VERTEX
5
116
100
AcDbEntity
8
1
62
256
100
AcDbVertex
100
AcDb3dPolylineVertex
10
48.299525
20
-0.577681
30
0
70
32
0
VERTEX
5
117
100
AcDbEntity
8
1
62
256
100
AcDbVertex
100
AcDb3dPolylineVertex
10
48.299532
20
-0.577685
30
0
70
32
0
VERTEX
5
118
100
AcDbEntity
8
1
62
256
100
AcDbVertex
100
AcDb3dPolylineVertex
10
48.299539
20
-0.577688
30
0
70
32
0
VERTEX
5
119
100
AcDbEntity
8
1
62
256
100
AcDbVertex
100
AcDb3dPolylineVertex
10
48.299546
20
-0.577691
30
0
70
32
0
VERTEX
5
11A
100
AcDbEntity
8
1
62
256
100
AcDbVertex
100
AcDb3dPolylineVertex
10
48.299553
20
-0.577694
30
0
70
32
0
VERTEX
5
11B
100
AcDbEntity
8
1
62
256
100
AcDbVertex
100
AcDb3dPolylineVertex
10
48.29956
20
-0.577697
30
0
70
32
0
VERTEX
5
11C
100
AcDbEntity
8
1
62
256
100
AcDbVertex
100
AcDb3dPolylineVertex
10
48.299567
20
-0.5777
30
0
70
32
0
VERTEX
5
11D
100
AcDbEntity
8
1
62
256
100
AcDbVertex
100
AcDb3dPolylineVertex
10
48.299574
20
-0.577703
30
0
70
32
0
VERTEX
5
11E
100
AcDbEntity
8
1
62
256
100
AcDbVertex
100
AcDb3dPolylineVertex
10
48.299581
20
-0.577707
30
0
70
32
0
VERTEX
5
11F
100
AcDbEntity
8
1
62
256
100
AcDbVertex
100
AcDb3dPolylineVertex
10
48.299588
20
-0.57771
30
0
70
32
0
VERTEX
5
120
100
AcDbEntity
8
1
62
256
100
AcDbVertex
100
AcDb3dPolylineVertex
10
48.299595
20
-0.577713
30
0
70
32
0
VERTEX
5
121
100
AcDbEntity
8
1
62
256
100
AcDbVertex
100
AcDb3dPolylineVertex
10
48.299601
20
-0.577716
30
0
70
32
0
VERTEX
5
122
100
AcDbEntity
8
1
62
256
100
AcDbVertex
100
AcDb3dPolylineVertex
10
48.299608
20
-0.577719
30
0
70
32
0
VERTEX
5
123
100
AcDbEntity
8
1
62
256
100
AcDbVertex
100
AcDb3dPolylineVertex
10
48.299615
20
-0.577722
30
0
70
32
0
VERTEX
5
124
100
AcDbEntity
8
1
62
256
100
AcDbVertex
100
AcDb3dPolylineVertex
10
48.299622
20
-0.577725
30
0
70
32
0
VERTEX
5
125
100
AcDbEntity
8
1
62
256
100
AcDbVertex
100
AcDb3dPolylineVertex
10
48.299629
20
-0.577729
30
0
70
32
0
SEQEND
5
126
100
AcDbEntity
8
1
0
MTEXT
5
1C3
100
AcDbEntity
8
SK2
62
256
6
ByLayer
370
18
48
1
60
0
100
AcDbMText
10
-48.914634
20
-25.701805
30
0
210
0
220
0
230
1
1
%%c
40
3.5
41
0
44
1.084337
50
90
71
7
72
5
7
iso_b_vert
0
MTEXT
5
1C6
100
AcDbEntity
8
SK2
62
256
6
ByLayer
370
18
48
1
60
0
100
AcDbMText
10
-48.914634
20
-18.729148
30
0
210
0
220
0
230
1
1
\W0.5428;11.11
40
3.5
41
0
44
1.084337
50
90
71
7
72
5
7
iso_b_vert
0
MTEXT
5
1CF
100
AcDbEntity
8
SK2
62
256
6
ByLayer
370
18
48
1
60
0
100
AcDbMText
10
17.765322
20
17.219844
30
0
210
0
220
0
230
1
1
%%c
40
3.5
41
0
44
1.084337
50
90
71
7
72
5
7
iso_b_vert
0
MTEXT
5
1D0
100
AcDbEntity
8
SK2
62
256
6
ByLayer
370
18
48
1
60
0
100
AcDbMText
10
17.765322
20
24.1925
30
0
210
0
220
0
230
1
1
\W0.6864;10.57
40
3.5
41
0
44
1.084337
50
90
71
7
72
5
7
iso_b_vert
0
MTEXT
5
1D9
100
AcDbEntity
8
2
62
256
6
ByLayer
370
18
48
1
60
0
100
AcDbMText
10
59.635366
20
13.491094
30
0
210
0
220
0
230
1
1
%%c
40
3.5
41
0
44
1.084337
50
90
71
7
72
5
7
iso_b_vert
0
MTEXT
5
1DA
100
AcDbEntity
8
2
62
256
6
ByLayer
370
18
48
1
60
0
100
AcDbMText
10
59.635366
20
20.46375
30
0
210
0
220
0
230
1
1
\W0.5428;11.11
40
3.5
41
0
44
1.084337
50
90
71
7
72
5
7
iso_b_vert
0
MTEXT
5
1E3
100
AcDbEntity
8
SK2
62
256
6
ByLayer
370
18
48
1
60
0
100
AcDbMText
10
0.828301
20
-50.68249
30
0
210
0
220
0
230
1
1
\W0.7457;88.9
40
3.5
41
0
44
1.084337
50
0
71
7
72
5
7
iso_b_vert
0
MTEXT
5
1EC
100
AcDbEntity
8
SK6
62
256
6
ByLayer
370
18
48
1
60
0
100
AcDbMText
10
-19.062068
20
-62.114741
30
0
210
0
220
0
230
1
1
\W0.7071;2F342-1111-076-PD   P2BM
40
3
41
0
44
1.084337
50
0
71
7
72
5
7
iso_b_vert
0
HATCH
5
1CA
100
AcDbEntity
8
SK2
62
256
6
ByLayer
370
13
48
1
60
0
100
AcDbHatch
10
0
20
0
30
0
210
0
220
0
230
1
2
ANSI31
70
0
71
0
91
1
92
5
93
3
72
1
10
-47.35
20
5.55624999999995
11
-46.8892162584472
21
2.05625169255313
72
1
10
-46.8892162584472
20
2.05625169255313
11
-47.8107837415528
21
2.05624830744677
72
1
10
-47.8107837415528
20
2.05624830744677
11
-47.35
21
5.55624999999995
97
0
75
0
76
1
52
0
41
0.0062
77
0
78
1
53
45
43
0
44
0
45
-0.0139193969876572
46
0.0139193969876572
79
0
47
0
98
1
10
0
20
0
0
HATCH
5
1CE
100
AcDbEntity
8
SK2
62
256
6
ByLayer
370
13
48
1
60
0
100
AcDbHatch
10
0
20
0
30
0
210
0
220
0
230
1
2
ANSI31
70
0
71
0
91
1
92
5
93
3
72
1
10
-47.35
20
-5.55625000000006
11
-47.8107837415528
21
-2.05625169255325
72
1
10
-47.8107837415528
20
-2.05625169255325
11
-46.8892162584472
21
-2.05624830744688
72
1
10
-46.8892162584472
20
-2.05624830744688
11
-47.35
21
-5.55625000000006
97
0
75
0
76
1
52
0
41
0.0062
77
0
78
1
53
45
43
0
44
0
45
-0.0139193969876572
46
0.0139193969876572
79
0
47
0
98
1
10
0
20
0
0
HATCH
5
1D4
100
AcDbEntity
8
SK2
62
256
6
ByLayer
370
13
48
1
60
0
100
AcDbHatch
10
0
20
0
30
0
210
0
220
0
230
1
2
ANSI31
70
0
71
0
91
1
92
5
93
3
72
1
10
19.3299554740883
20
5.28499999999991
11
19.7907392156411
21
1.78500169255309
72
1
10
19.7907392156411
20
1.78500169255309
11
18.8691717325356
21
1.78499830744673
72
1
10
18.8691717325356
20
1.78499830744673
11
19.3299554740883
21
5.28499999999991
97
0
75
0
76
1
52
0
41
0.0062
77
0
78
1
53
45
43
0
44
0
45
-0.0139193969876572
46
0.0139193969876572
79
0
47
0
98
1
10
0
20
0
0
HATCH
5
1D8
100
AcDbEntity
8
SK2
62
256
6
ByLayer
370
13
48
1
60
0
100
AcDbHatch
10
0
20
0
30
0
210
0
220
0
230
1
2
ANSI31
70
0
71
0
91
1
92
5
93
3
72
1
10
19.3299554740883
20
-5.28500000000008
11
18.8691717325356
21
-1.78500169255327
72
1
10
18.8691717325356
20
-1.78500169255327
11
19.7907392156411
21
-1.7849983074469
72
1
10
19.7907392156411
20
-1.7849983074469
11
19.3299554740883
21
-5.28500000000008
97
0
75
0
76
1
52
0
41
0.0062
77
0
78
1
53
45
43
0
44
0
45
-0.0139193969876572
46
0.0139193969876572
79
0
47
0
98
1
10
0
20
0
0
HATCH
5
1DE
100
AcDbEntity
8
2
62
256
6
ByLayer
370
13
48
1
60
0
100
AcDbHatch
10
0
20
0
30
0
210
0
220
0
230
1
2
ANSI31
70
0
71
0
91
1
92
5
93
3
72
1
10
61.2
20
5.55624999999981
11
61.6607837415528
21
2.05625169255299
72
1
10
61.6607837415528
20
2.05625169255299
11
60.7392162584472
21
2.05624830744662
72
1
10
60.7392162584472
20
2.05624830744662
11
61.2
21
5.55624999999981
97
0
75
0
76
1
52
0
41
0.0062
77
0
78
1
53
45
43
0
44
0
45
-0.0139193969876572
46
0.0139193969876572
79
0
47
0
98
1
10
0
20
0
0
HATCH
5
1E2
100
AcDbEntity
8
2
62
256
6
ByLayer
370
13
48
1
60
0
100
AcDbHatch
10
0
20
0
30
0
210
0
220
0
230
1
2
ANSI31
70
0
71
0
91
1
92
5
93
3
72
1
10
61.2
20
-5.5562500000002
11
60.7392162584472
21
-2.05625169255339
72
1
10
60.7392162584472
20
-2.05625169255339
11
61.6607837415528
21
-2.05624830744702
72
1
10
61.6607837415528
20
-2.05624830744702
11
61.2
21
-5.5562500000002
97
0
75
0
76
1
52
0
41
0.0062
77
0
78
1
53
45
43
0
44
0
45
-0.0139193969876572
46
0.0139193969876572
79
0
47
0
98
1
10
0
20
0
0
HATCH
5
1E7
100
AcDbEntity
8
SK2
62
256
6
ByLayer
370
13
48
1
60
0
100
AcDbHatch
10
0
20
0
30
0
210
0
220
0
230
1
2
ANSI31
70
0
71
0
91
1
92
5
93
3
72
1
10
-39.7
20
-51.7151233329168
11
-36.2000016925532
21
-51.254339591364
72
1
10
-36.2000016925532
20
-51.254339591364
11
-36.1999983074468
21
-52.1759070744696
72
1
10
-36.1999983074468
20
-52.1759070744696
11
-39.7
21
-51.7151233329168
97
0
75
0
76
1
52
0
41
0.0062
77
0
78
1
53
45
43
0
44
0
45
-0.0139193969876572
46
0.0139193969876572
79
0
47
0
98
1
10
0
20
0
0
HATCH
5
1EB
100
AcDbEntity
8
SK2
62
256
6
ByLayer
370
13
48
1
60
0
100
AcDbHatch
10
0
20
0
30
0
210
0
220
0
230
1
2
ANSI31
70
0
71
0
91
1
92
5
93
3
72
1
10
49.2
20
-51.7151233329168
11
45.7000016925532
21
-52.1759070744696
72
1
10
45.7000016925532
20
-52.1759070744696
11
45.6999983074468
21
-51.254339591364
72
1
10
45.6999983074468
20
-51.254339591364
11
49.2
21
-51.7151233329168
97
0
75
0
76
1
52
0
41
0.0062
77
0
78
1
53
45
43
0
44
0
45
-0.0139193969876572
46
0.0139193969876572
79
0
47
0
98
1
10
0
20
0
0
DIMENSION
5
1EF
100
AcDbEntity
8
2
62
256
6
ByLayer
370
18
48
1
60
0
100
AcDbDimension
2
_U0
10
23.8
20
-19.715123
30
0
11
36.5
21
-19.715123
31
0
70
32
71
1
72
1
41
1
210
0
220
0
230
1
3
Standard
100
AcDbAlignedDimension
13
49.2
23
-5.55625
33
0
14
23.8
24
-5.55625
34
0
50
0
100
AcDbRotatedDimension
1001
ACAD
1000
DSTYLE
1002
{
1070
   371
1070
    13
1070
   372
1070
    13
1070
   170
1070
     0
1070
   144
1040
1.0
1070
   277
1070
     2
1070
   284
1070
     8
1070
   278
1070
    46
1070
   146
1040
1.0
1070
   345
1005
16
1070
   347
1005
16
1070
   346
1005
16
1070
   344
1005
0
1070
   343
1005
0
1070
   172
1070
     1
1070
    76
1070
     0
1070
    75
1070
     0
1070
   282
1070
     0
1070
   281
1070
     0
1070
    71
1070
     0
1070
    74
1070
     0
1070
   279
1070
     0
1070
   173
1070
     1
1070
   340
1005
1C4
1070
   271
1070
     2
1070
   272
1070
     2
1070
    77
1070
     1
1070
    73
1070
     1
1070
   171
1070
     3
1070
   274
1070
     4
1070
   177
1070
     2
1070
   176
1070
     2
1070
   178
1070
     2
1070
    78
1070
     8
1070
    48
1040
-0.1
1070
    41
1040
3.5
1070
   147
1040
1.75
1070
    42
1040
1.5875
1070
    44
1040
2.0
1070
   140
1040
3.5
1002
}
1001
ACAD_DSTYLE_DIM_LINETYPE
1070
   380
1005
16
1001
ACAD_DSTYLE_DIM_EXT1_LINETYPE
1070
   381
1005
16
1001
ACAD_DSTYLE_DIM_EXT2_LINETYPE
1070
   382
1005
16
0
DIMENSION
5
208
100
AcDbEntity
8
SK2
62
256
6
ByLayer
370
18
48
1
60
0
100
AcDbDimension
2
_U1
10
12.697679
20
-34.715123
30
0
11
30.948839
21
-34.715123
31
0
70
32
71
1
72
1
41
1
210
0
220
0
230
1
3
Standard
100
AcDbAlignedDimension
13
49.2
23
-5.55625
33
0
14
12.697679
24
-5.285
34
0
50
0
100
AcDbRotatedDimension
1001
ACAD
1000
DSTYLE
1002
{
1070
   371
1070
    13
1070
   372
1070
    13
1070
   170
1070
     0
1070
   144
1040
1.0
1070
   277
1070
     2
1070
   284
1070
     8
1070
   278
1070
    46
1070
   146
1040
1.0
1070
   345
1005
16
1070
   347
1005
16
1070
   346
1005
16
1070
   344
1005
0
1070
   343
1005
0
1070
   172
1070
     1
1070
    76
1070
     0
1070
    75
1070
     0
1070
   282
1070
     0
1070
   281
1070
     0
1070
    71
1070
     0
1070
    74
1070
     0
1070
   279
1070
     0
1070
   173
1070
     1
1070
   340
1005
1C4
1070
   271
1070
     2
1070
   272
1070
     2
1070
    77
1070
     1
1070
    73
1070
     1
1070
   171
1070
     3
1070
   274
1070
     4
1070
   177
1070
     2
1070
   176
1070
     2
1070
   178
1070
     2
1070
    78
1070
     8
1070
    48
1040
-0.1
1070
    41
1040
3.5
1070
   147
1040
1.75
1070
    42
1040
1.5875
1070
    44
1040
2.0
1070
   140
1040
3.5
1002
}
1001
ACAD_DSTYLE_DIM_LINETYPE
1070
   380
1005
16
1001
ACAD_DSTYLE_DIM_EXT1_LINETYPE
1070
   381
1005
16
1001
ACAD_DSTYLE_DIM_EXT2_LINETYPE
1070
   382
1005
16
0
ENDSEC
0
SECTION
2
OBJECTS
0
DICTIONARY
5
290
330
0
100
AcDbDictionary
280
0
281
1
3
ACAD_GROUP
350
291
3
ACAD_MLINESTYLE
350
292
0
DICTIONARY
5
291
330
0
100
AcDbDictionary
280
0
281
1
0
DICTIONARY
5
292
330
0
100
AcDbDictionary
280
0
281
1
3
Standard
350
18
0
MLINESTYLE
5
18
330
292
100
AcDbMlineStyle
2
Standard
70
0
3

62
256
51
90
52
90
71
2
49
-0.5
62
256
6
ByLayer
49
0.5
62
256
6
ByLayer
0
RASTERVARIABLES
5
27e
330

100
AcDbRasterVariables
90
0
70
1
71
1
72
1
0
ENDSEC
0
EOF
