0
SECTION
2
HEADER
9
$ACADVER
1
AC1015
9
$DWGCODEPAGE
3
ANSI_1252
9
$HANDSEED
5
257
9
$ANGBASE
50
0
9
$ANGDIR
70
0
9
$ATTMODE
70
1
9
$AUNITS
70
0
9
$AUPREC
70
0
9
$CECOLOR
62
256
9
$CELTSCALE
40
1
9
$CELTYPE
6
ByLayer
9
$CELWEIGHT
370
18
9
$CLAYER
8
0
9
$CMLJUST
70
0
9
$CMLSCALE
40
1
9
$CMLSTYLE
2
Standard
9
$DIMSTYLE
2
Standard
9
$TEXTSIZE
40
0.2
9
$TEXTSTYLE
7
Standard
9
$LUNITS
70
2
9
$LUPREC
70
4
9
$EXTNAMES
290
1
9
$INSUNITS
70
4
9
$LTSCALE
40
1
9
$LWDISPLAY
290
1
9
$PDMODE
70
0
9
$PDSIZE
40
0
9
$PLINEGEN
70
0
0
ENDSEC
0
SECTION
2
CLASSES
0
CLASS
1
RASTERVARIABLES
2
AcDbRasterVariables
3
ISM
90
0
280
0
281
0
0
ENDSEC
0
SECTION
2
TABLES
0
TABLE
2
VPORT
5
24d
100
AcDbSymbolTable
0
VPORT
5
1
100
AcDbSymbolTableRecord
100
AcDbViewportTableRecord
2
*Active
70
0
10
0
20
0
11
1
21
1
12
-1
22
1
13
0
23
0
14
0.5
24
0.5
15
10
25
10
16
0
26
0
36
1
17
0
27
0
37
0
0
ENDTAB
0
TABLE
2
LTYPE
5
24e
100
AcDbSymbolTable
0
LTYPE
5
14
100
AcDbSymbolTableRecord
100
AcDbLinetypeTableRecord
70
0
2
ByBlock
3

72
65
73
0
40
0
0
LTYPE
5
15
100
AcDbSymbolTableRecord
100
AcDbLinetypeTableRecord
70
0
2
ByLayer
3

72
65
73
0
40
0
0
LTYPE
5
16
100
AcDbSymbolTableRecord
100
AcDbLinetypeTableRecord
70
0
2
Continuous
3
Solid line
72
65
73
0
40
0
0
LTYPE
5
6E
100
AcDbSymbolTableRecord
100
AcDbLinetypeTableRecord
70
0
2
CENTER
3
____ _ ____ _ ____ _ ____
72
65
73
4
40
47.5
49
22
74
0
49
-8.5
74
0
49
8.5
74
0
49
-8.5
74
0
0
LTYPE
5
6F
100
AcDbSymbolTableRecord
100
AcDbLinetypeTableRecord
70
0
2
DASHED
3
__ __ __ __ __ __ __ __ __
72
65
73
2
40
25.72
49
12.86
74
0
49
-12.86
74
0
0
ENDTAB
0
TABLE
2
LAYER
5
24f
100
AcDbSymbolTable
0
LAYER
5
10
100
AcDbSymbolTableRecord
100
AcDbLayerTableRecord
2
0
70
0
62
7
6
Continuous
290
1
370
-3
390
0
0
LAYER
5
71
100
AcDbSymbolTableRecord
100
AcDbLayerTableRecord
2
80
70
0
62
-6
6
Continuous
290
1
370
-3
390
0
0
LAYER
5
73
100
AcDbSymbolTableRecord
100
AcDbLayerTableRecord
2
81
70
0
62
-3
6
Continuous
290
1
370
-3
390
0
0
LAYER
5
75
100
AcDbSymbolTableRecord
100
AcDbLayerTableRecord
2
1
70
0
62
4
6
Continuous
290
1
370
-3
390
0
0
LAYER
5
7B
100
AcDbSymbolTableRecord
100
AcDbLayerTableRecord
2
4
70
0
62
-2
6
CENTER
290
1
370
-3
390
0
0
LAYER
5
C4
100
AcDbSymbolTableRecord
100
AcDbLayerTableRecord
2
2
70
0
62
7
6
Continuous
290
1
370
-3
390
0
0
LAYER
5
1AB
100
AcDbSymbolTableRecord
100
AcDbLayerTableRecord
2
Defpoints
70
0
62
7
6
Continuous
290
0
370
-3
390
0
0
LAYER
5
239
100
AcDbSymbolTableRecord
100
AcDbLayerTableRecord
2
SK4
70
0
62
2
6
CENTER
290
1
370
-3
390
0
0
LAYER
5
23a
100
AcDbSymbolTableRecord
100
AcDbLayerTableRecord
2
SK1
70
0
62
4
6
Continuous
290
1
370
-3
390
0
0
LAYER
5
23b
100
AcDbSymbolTableRecord
100
AcDbLayerTableRecord
2
SK2
70
0
62
7
6
Continuous
290
1
370
-3
390
0
0
LAYER
5
23c
100
AcDbSymbolTableRecord
100
AcDbLayerTableRecord
2
SK6
70
0
62
5
6
Continuous
290
1
370
-3
390
0
0
ENDTAB
0
TABLE
2
STYLE
5
250
100
AcDbSymbolTable
0
STYLE
5
11
100
AcDbSymbolTableRecord
100
AcDbTextStyleTableRecord
2
Standard
3
txt
70
0
71
0
40
0
41
1
42
0
50
0
0
STYLE
5
17D
100
AcDbSymbolTableRecord
100
AcDbTextStyleTableRecord
2
iso_b_vert
3
simplex.shx
70
0
71
0
40
0
41
1
42
0
50
0
0
STYLE
5
17E
100
AcDbSymbolTableRecord
100
AcDbTextStyleTableRecord
2
DWGDirectTextStyle
3
simplex
70
0
71
0
40
0
41
1
42
0
50
0
0
ENDTAB
0
TABLE
2
DIMSTYLE
5
251
100
AcDbSymbolTable
100
AcDbDimStyleTable
0
DIMSTYLE
105
27
100
AcDbSymbolTableRecord
100
AcDbDimStyleTableRecord
2
Standard
70
0
3
<>
41
0.18
42
0.0625
44
0.18
140
0.18
147
0.09
73
0
74
0
77
1
271
2
275
0
278
52
280
0
340
11
0
ENDTAB
0
TABLE
2
VIEW
5
252
100
AcDbSymbolTable
0
ENDTAB
0
TABLE
2
UCS
5
253
100
AcDbSymbolTable
0
ENDTAB
0
TABLE
2
APPID
5
254
100
AcDbSymbolTable
0
APPID
5
12
100
AcDbSymbolTableRecord
100
AcDbRegAppTableRecord
2
ACAD
70
0
0
APPID
5
1A7
100
AcDbSymbolTableRecord
100
AcDbRegAppTableRecord
2
ACAD_DSTYLE_DIMBREAK
70
0
0
APPID
5
1F8
100
AcDbSymbolTableRecord
100
AcDbRegAppTableRecord
2
ACAD_DSTYLE_DIM_LINETYPE
70
0
0
APPID
5
1F9
100
AcDbSymbolTableRecord
100
AcDbRegAppTableRecord
2
ACAD_DSTYLE_DIM_EXT1_LINETYPE
70
0
0
APPID
5
1FA
100
AcDbSymbolTableRecord
100
AcDbRegAppTableRecord
2
ACAD_DSTYLE_DIM_EXT2_LINETYPE
70
0
0
APPID
5
235
100
AcDbSymbolTableRecord
100
AcDbRegAppTableRecord
2
ACAD_MLEADERVER
70
0
0
ENDTAB
0
TABLE
2
BLOCK_RECORD
5
255
100
AcDbSymbolTable
0
BLOCK_RECORD
5
1F
100
AcDbSymbolTableRecord
100
AcDbBlockTableRecord
2
*Model_Space
340
0
70
0
0
BLOCK_RECORD
5
1B
100
AcDbSymbolTableRecord
100
AcDbBlockTableRecord
2
*Paper_Space
340
0
70
0
0
BLOCK_RECORD
5
23
100
AcDbSymbolTableRecord
100
AcDbBlockTableRecord
2
*Paper_Space0
340
0
70
0
0
BLOCK_RECORD
5
1AC
100
AcDbSymbolTableRecord
100
AcDbBlockTableRecord
2
*D1
340
0
70
0
0
BLOCK_RECORD
5
1B9
100
AcDbSymbolTableRecord
100
AcDbBlockTableRecord
2
_U0
340
0
70
0
0
BLOCK_RECORD
5
1C5
100
AcDbSymbolTableRecord
100
AcDbBlockTableRecord
2
*D3
340
0
70
0
0
BLOCK_RECORD
5
1D1
100
AcDbSymbolTableRecord
100
AcDbBlockTableRecord
2
_U1
340
0
70
0
0
ENDTAB
0
ENDSEC
0
SECTION
2
BLOCKS
0
BLOCK
5
20
100
AcDbEntity
8
0
100
AcDbBlockBegin
2
*Model_Space
70
0
10
0
20
0
30
0
3
*Model_Space
0
ENDBLK
5
21
100
AcDbEntity
8
0
100
AcDbBlockEnd
0
BLOCK
5
1C
100
AcDbEntity
8
0
100
AcDbBlockBegin
2
*Paper_Space
70
0
10
0
20
0
30
0
3
*Paper_Space
0
ENDBLK
5
1D
100
AcDbEntity
8
0
100
AcDbBlockEnd
0
BLOCK
5
24
100
AcDbEntity
8
0
100
AcDbBlockBegin
2
*Paper_Space0
70
0
10
0
20
0
30
0
3
*Paper_Space0
0
ENDBLK
5
25
100
AcDbEntity
8
0
100
AcDbBlockEnd
0
BLOCK
5
1AD
100
AcDbEntity
8
0
100
AcDbBlockBegin
2
*D1
70
1
10
0
20
0
30
0
3
*D1
0
LINE
5
1AF
100
AcDbEntity
8
0
62
256
6
ByLayer
370
-2
48
1
60
0
100
AcDbLine
10
21
20
-4.5875
30
0
11
21
21
-19.107684
31
0
39
0
210
0
220
0
230
1
0
LINE
5
1B0
100
AcDbEntity
8
0
62
256
6
ByLayer
370
-2
48
1
60
0
100
AcDbLine
10
8
20
-4.5875
30
0
11
8
21
-19.107684
31
0
39
0
210
0
220
0
230
1
0
LINE
5
1B1
100
AcDbEntity
8
0
62
256
6
ByLayer
370
-2
48
1
60
0
100
AcDbLine
10
24.5
20
-17.107684
30
0
11
28
21
-17.107684
31
0
39
0
210
0
220
0
230
1
0
LINE
5
1B2
100
AcDbEntity
8
0
62
256
6
ByLayer
370
-2
48
1
60
0
100
AcDbLine
10
4.5
20
-17.107684
30
0
11
1
21
-17.107684
31
0
39
0
210
0
220
0
230
1
0
SOLID
5
1B3
100
AcDbEntity
8
0
62
256
6
ByLayer
370
-1
48
1
60
0
100
AcDbTrace
10
24.5
20
-16.524351
30
0
11
24.5
21
-17.691018
31
0
12
21
22
-17.107684
32
0
13
21
23
-17.107684
33
0
39
0
210
0
220
0
230
1
0
SOLID
5
1B4
100
AcDbEntity
8
0
62
256
6
ByLayer
370
-1
48
1
60
0
100
AcDbTrace
10
4.5
20
-17.691018
30
0
11
4.5
21
-16.524351
31
0
12
8
22
-17.107684
32
0
13
8
23
-17.107684
33
0
39
0
210
0
220
0
230
1
0
MTEXT
5
1B5
100
AcDbEntity
8
0
62
256
6
ByLayer
370
18
48
1
60
0
100
AcDbMText
10
14.5
20
-10.107684
30
0
210
0
220
0
230
1
1
\A1;13
40
3.5
41
0
44
1
50
0
71
5
72
5
7
iso_b_vert
0
POINT
5
1B6
100
AcDbEntity
8
Defpoints
62
0
6
ByLayer
370
-1
48
1
60
0
100
AcDbPoint
10
21
20
-3
30
0
39
0
210
0
220
0
230
1
50
360
0
POINT
5
1B7
100
AcDbEntity
8
Defpoints
62
0
6
ByLayer
370
-1
48
1
60
0
100
AcDbPoint
10
8
20
-3
30
0
39
0
210
0
220
0
230
1
50
360
0
POINT
5
1B8
100
AcDbEntity
8
Defpoints
62
0
6
ByLayer
370
-1
48
1
60
0
100
AcDbPoint
10
8
20
-17.107684
30
0
39
0
210
0
220
0
230
1
50
360
0
ENDBLK
5
1AE
100
AcDbEntity
8
0
100
AcDbBlockEnd
0
BLOCK
5
1C0
100
AcDbEntity
8
0
100
AcDbBlockBegin
2
_U0
70
0
10
0
20
0
30
0
3
_U0
0
MTEXT
5
1BA
100
AcDbEntity
8
2
62
256
6
ByLayer
370
18
48
1
60
0
100
AcDbMText
10
13.032467
20
-16.075051
30
0
210
0
220
0
230
1
1
\W0.5321;13
40
3.5
41
0
44
1.084337
50
0
71
7
72
5
7
iso_b_vert
0
LINE
5
1BB
100
AcDbEntity
8
2
62
256
6
ByLayer
370
13
48
1
60
0
100
AcDbLine
10
21
20
-4.5875
30
0
11
21
21
-19.107684
31
0
39
0
210
0
220
0
230
1
0
LINE
5
1BC
100
AcDbEntity
8
2
62
256
6
ByLayer
370
13
48
1
60
0
100
AcDbLine
10
8
20
-4.5875
30
0
11
8
21
-19.107684
31
0
39
0
210
0
220
0
230
1
0
LINE
5
1BD
100
AcDbEntity
8
2
62
256
6
ByLayer
370
13
48
1
60
0
100
AcDbLine
10
21
20
-17.107684
30
0
11
8
21
-17.107684
31
0
39
0
210
0
220
0
230
1
0
SOLID
5
1BE
100
AcDbEntity
8
2
62
256
6
ByLayer
370
18
48
1
60
0
100
AcDbTrace
10
21
20
-17.107684
30
0
11
17.500002
21
-17.568468
31
0
12
17.499998
22
-16.646901
32
0
13
17.499998
23
-16.646901
33
0
39
0
210
0
220
0
230
1
0
SOLID
5
1BF
100
AcDbEntity
8
2
62
256
6
ByLayer
370
18
48
1
60
0
100
AcDbTrace
10
8
20
-17.107684
30
0
11
11.499998
21
-16.646901
31
0
12
11.500002
22
-17.568468
32
0
13
11.500002
23
-17.568468
33
0
39
0
210
0
220
0
230
1
0
ENDBLK
5
1C1
100
AcDbEntity
8
0
100
AcDbBlockEnd
0
BLOCK
5
1C6
100
AcDbEntity
8
0
100
AcDbBlockBegin
2
*D3
70
1
10
0
20
0
30
0
3
*D3
0
LINE
5
1C8
100
AcDbEntity
8
0
62
256
6
ByLayer
370
-2
48
1
60
0
100
AcDbLine
10
21
20
-4.5875
30
0
11
21
21
-34.107684
31
0
39
0
210
0
220
0
230
1
0
LINE
5
1C9
100
AcDbEntity
8
0
62
256
6
ByLayer
370
-2
48
1
60
0
100
AcDbLine
10
0.997679
20
-4.4375
30
0
11
0.997679
21
-34.107684
31
0
39
0
210
0
220
0
230
1
0
LINE
5
1CA
100
AcDbEntity
8
0
62
256
6
ByLayer
370
-2
48
1
60
0
100
AcDbLine
10
17.5
20
-32.107684
30
0
11
4.497679
21
-32.107684
31
0
39
0
210
0
220
0
230
1
0
SOLID
5
1CB
100
AcDbEntity
8
0
62
256
6
ByLayer
370
-1
48
1
60
0
100
AcDbTrace
10
17.5
20
-32.691018
30
0
11
17.5
21
-31.524351
31
0
12
21
22
-32.107684
32
0
13
21
23
-32.107684
33
0
39
0
210
0
220
0
230
1
0
SOLID
5
1CC
100
AcDbEntity
8
0
62
256
6
ByLayer
370
-1
48
1
60
0
100
AcDbTrace
10
4.497679
20
-31.524351
30
0
11
4.497679
21
-32.691018
31
0
12
0.997679
22
-32.107684
32
0
13
0.997679
23
-32.107684
33
0
39
0
210
0
220
0
230
1
0
MTEXT
5
1CD
100
AcDbEntity
8
0
62
256
6
ByLayer
370
18
48
1
60
0
100
AcDbMText
10
10.998839
20
-25.107684
30
0
210
0
220
0
230
1
1
\A1;20
40
3.5
41
0
44
1
50
0
71
5
72
5
7
iso_b_vert
0
POINT
5
1CE
100
AcDbEntity
8
Defpoints
62
0
6
ByLayer
370
-1
48
1
60
0
100
AcDbPoint
10
21
20
-3
30
0
39
0
210
0
220
0
230
1
50
360
0
POINT
5
1CF
100
AcDbEntity
8
Defpoints
62
0
6
ByLayer
370
-1
48
1
60
0
100
AcDbPoint
10
0.997679
20
-2.85
30
0
39
0
210
0
220
0
230
1
50
360
0
POINT
5
1D0
100
AcDbEntity
8
Defpoints
62
0
6
ByLayer
370
-1
48
1
60
0
100
AcDbPoint
10
0.997679
20
-32.107684
30
0
39
0
210
0
220
0
230
1
50
360
0
ENDBLK
5
1C7
100
AcDbEntity
8
0
100
AcDbBlockEnd
0
BLOCK
5
1D8
100
AcDbEntity
8
0
100
AcDbBlockBegin
2
_U1
70
0
10
0
20
0
30
0
3
_U1
0
MTEXT
5
1D2
100
AcDbEntity
8
SK2
62
256
6
ByLayer
370
18
48
1
60
0
100
AcDbMText
10
9.093873
20
-31.075051
30
0
210
0
220
0
230
1
1
\W0.6740;20
40
3.5
41
0
44
1.084337
50
0
71
7
72
5
7
iso_b_vert
0
LINE
5
1D3
100
AcDbEntity
8
SK2
62
256
6
ByLayer
370
13
48
1
60
0
100
AcDbLine
10
21
20
-4.5875
30
0
11
21
21
-34.107684
31
0
39
0
210
0
220
0
230
1
0
LINE
5
1D4
100
AcDbEntity
8
SK2
62
256
6
ByLayer
370
13
48
1
60
0
100
AcDbLine
10
0.997679
20
-4.4375
30
0
11
0.997679
21
-34.107684
31
0
39
0
210
0
220
0
230
1
0
LINE
5
1D5
100
AcDbEntity
8
SK2
62
256
6
ByLayer
370
13
48
1
60
0
100
AcDbLine
10
21
20
-32.107684
30
0
11
0.997679
21
-32.107684
31
0
39
0
210
0
220
0
230
1
0
SOLID
5
1D6
100
AcDbEntity
8
SK2
62
256
6
ByLayer
370
18
48
1
60
0
100
AcDbTrace
10
21
20
-32.107684
30
0
11
17.500002
21
-32.568468
31
0
12
17.499998
22
-31.646901
32
0
13
17.499998
23
-31.646901
33
0
39
0
210
0
220
0
230
1
0
SOLID
5
1D7
100
AcDbEntity
8
SK2
62
256
6
ByLayer
370
18
48
1
60
0
100
AcDbTrace
10
0.997679
20
-32.107684
30
0
11
4.497677
21
-31.646901
31
0
12
4.497681
22
-32.568468
32
0
13
4.497681
23
-32.568468
33
0
39
0
210
0
220
0
230
1
0
ENDBLK
5
1D9
100
AcDbEntity
8
0
100
AcDbBlockEnd
0
ENDSEC
0
SECTION
2
ENTITIES
0
ARC
5
D6
100
AcDbEntity
8
1
62
256
6
ByLayer
370
18
48
1
60
0
100
AcDbCircle
39
0
10
0.997679
20
3.85
30
0
40
1
210
0
220
0
230
1
100
AcDbArc
50
240
51
270
0
ARC
5
D7
100
AcDbEntity
8
1
62
256
6
ByLayer
370
18
48
1
60
0
100
AcDbCircle
39
0
10
0.997679
20
-3.85
30
0
40
1
210
0
220
0
230
1
100
AcDbArc
50
90
51
120
0
ELLIPSE
5
D8
100
AcDbEntity
8
1
62
256
6
ByLayer
370
18
48
1
60
0
100
AcDbEllipse
10
21.28474
20
0.252832
30
0
11
0.651929745268135
21
0.333883645619336
31
0
210
0
220
0
230
1
40
0.292466
41
2.04712979273197
42
2.05631473490531
0
ELLIPSE
5
D9
100
AcDbEntity
8
1
62
256
6
ByLayer
370
18
48
1
60
0
100
AcDbEllipse
10
21.562768
20
0.845252
30
0
11
0.716070139484483
21
0.547734182497331
31
0
210
0
220
0
230
1
40
0.299353
41
-2.93963354354515
42
-2.92594117661442
0
ELLIPSE
5
DA
100
AcDbEntity
8
1
62
256
6
ByLayer
370
18
48
1
60
0
100
AcDbEllipse
10
20.780623
20
-0.40469
30
0
11
0.63350061895238
21
1.43266469820729
31
0
210
0
220
0
230
1
40
0.305097
41
1.28074662205234
42
1.32171348866448
0
ELLIPSE
5
DB
100
AcDbEntity
8
1
62
256
6
ByLayer
370
18
48
1
60
0
100
AcDbEllipse
10
21.004312
20
0.145007
30
0
11
0.516469597911113
21
0.311565283779585
31
0
210
0
220
0
230
1
40
0.654765
41
-3.12337147697372
42
-2.95821401222575
0
ELLIPSE
5
DC
100
AcDbEntity
8
1
62
256
6
ByLayer
370
18
48
1
60
0
100
AcDbEllipse
10
20.778352
20
0.599354
30
0
11
0.297685683944226
21
0.377803064184246
31
0
210
0
220
0
230
1
40
0.6357
41
-2.74075608626648
42
-2.26828277018454
0
ELLIPSE
5
DD
100
AcDbEntity
8
1
62
256
6
ByLayer
370
18
48
1
60
0
100
AcDbEllipse
10
20.709041
20
0.953755
30
0
11
0.798525052454185
21
-2.4516122153483
31
0
210
0
220
0
230
1
40
0.183699
41
-1.27639117042652
42
-1.24463746376948
0
ELLIPSE
5
DE
100
AcDbEntity
8
1
62
256
6
ByLayer
370
18
48
1
60
0
100
AcDbEllipse
10
20.720354
20
0.922304
30
0
11
0.219196859598771
21
-2.0226767303566
31
0
210
0
220
0
230
1
40
0.015886
41
-0.506388468251498
42
-0.477805584788969
0
ELLIPSE
5
DF
100
AcDbEntity
8
1
62
256
6
ByLayer
370
18
48
1
60
0
100
AcDbEllipse
10
21.004312
20
-0.368289
30
0
11
0.452672751790214
21
-0.413052291315846
31
0
210
0
220
0
230
1
40
0.778664
41
-3.09874841998953
42
-2.91825143441894
0
ELLIPSE
5
E0
100
AcDbEntity
8
1
62
256
6
ByLayer
370
18
48
1
60
0
100
AcDbEllipse
10
20.777797
20
-0.096754
30
0
11
0.0425150442777245
21
0.565915008101121
31
0
210
0
220
0
230
1
40
0.668962
41
0.154971097916546
42
0.648958056024708
0
ELLIPSE
5
E1
100
AcDbEntity
8
1
62
256
6
ByLayer
370
18
48
1
60
0
100
AcDbEllipse
10
21.173723
20
-0.571371
30
0
11
0.626061777679581
21
-0.917170684867455
31
0
210
0
220
0
230
1
40
0.42338
41
-2.20766670557594
42
-2.13087093519169
0
ELLIPSE
5
E2
100
AcDbEntity
8
1
62
256
6
ByLayer
370
13
48
1
60
0
100
AcDbEllipse
10
8.54216
20
63.193404
30
0
11
34.8557732647205
21
-62.0817687273089
31
0
210
0
220
0
230
1
40
0.658849
41
-0.773000747925218
42
-0.722126726102557
0
ELLIPSE
5
E3
100
AcDbEntity
8
1
62
256
6
ByLayer
370
13
48
1
60
0
100
AcDbEllipse
10
8.54216
20
-18.942735
30
0
11
53.0137471590032
21
-47.5248729651532
31
0
210
0
220
0
230
1
40
0.185216
41
1.75171042265929
42
1.80258444448195
0
ELLIPSE
5
E4
100
AcDbEntity
8
1
62
256
6
ByLayer
370
13
48
1
60
0
100
AcDbEllipse
10
8.54216
20
-72.604317
30
0
11
9.60508429024354
21
-70.5465328274181
31
0
210
0
220
0
230
1
40
0.749494
41
3.0228257148635
42
3.02914283595909
0
POINT
5
70
100
AcDbEntity
8
80
62
256
6
ByLayer
370
18
48
1
60
0
100
AcDbPoint
10
0
20
0
30
0
39
0
210
0
220
0
230
1
50
360
0
POINT
5
72
100
AcDbEntity
8
81
62
256
6
ByLayer
370
18
48
1
60
0
100
AcDbPoint
10
21
20
0
30
0
39
0
210
0
220
0
230
1
50
360
0
POINT
5
74
100
AcDbEntity
8
1
62
256
6
ByLayer
370
18
48
1
60
1
100
AcDbPoint
10
21
20
-3
30
0
39
0
210
0
220
0
230
1
50
360
0
POINT
5
76
100
AcDbEntity
8
1
62
256
6
ByLayer
370
18
48
1
60
1
100
AcDbPoint
10
8
20
-3
30
0
39
0
210
0
220
0
230
1
50
360
0
POINT
5
77
100
AcDbEntity
8
1
62
256
6
ByLayer
370
18
48
1
60
1
100
AcDbPoint
10
21
20
-3
30
0
39
0
210
0
220
0
230
1
50
360
0
POINT
5
78
100
AcDbEntity
8
1
62
256
6
ByLayer
370
18
48
1
60
1
100
AcDbPoint
10
0.997679
20
-2.85
30
0
39
0
210
0
220
0
230
1
50
360
0
SPLINE
5
E5
100
AcDbEntity
8
1
62
256
6
ByLayer
370
18
48
1
60
0
100
AcDbSpline
70
4
71
3
72
12
73
8
40
0
40
0
40
0
40
0
40
0.480892938603394
40
0.480892938603394
40
0.740446469301697
40
0.740446469301697
40
1
40
1
40
1
40
1
41
1
10
20.9381136272515
20
0.735204004570107
30
0
41
1
10
20.9481821386312
20
0.730967979309071
30
0
41
1
10
20.956107860385
20
0.725940401963101
30
0
41
1
10
20.9649238113893
20
0.717028772621887
30
0
41
1
10
20.9673667426666
20
0.713678681224991
30
0
41
1
10
20.9708537945978
20
0.706664685964284
30
0
41
1
10
20.9719111222401
20
0.702984472399464
30
0
41
1
10
20.9722845225117
20
0.6991569429251
30
0
0
SPLINE
5
E6
100
AcDbEntity
8
1
62
256
6
ByLayer
370
13
48
1
60
0
100
AcDbSpline
70
4
71
3
72
8
73
4
40
0
40
0
40
0
40
0
40
1
40
1
40
1
40
1
41
1
10
20.9716356251229
20
0.687967595309544
30
0
41
1
10
20.9513433805809
20
0.532294729431243
30
0
41
1
10
20.9310511360389
20
0.376621863552941
30
0
41
1
10
20.910758891497
20
0.22094899767464
30
0
0
SPLINE
5
E7
100
AcDbEntity
8
1
62
256
6
ByLayer
370
18
48
1
60
0
100
AcDbSpline
70
4
71
3
72
12
73
8
40
0
40
0
40
0
40
0
40
0.263320559211975
40
0.263320559211975
40
0.526641118422962
40
0.526641118422962
40
1
40
1
40
1
40
1
41
1
10
20.8983697064766
20
0.264335317063569
30
0
41
1
10
20.8984280926564
20
0.264760633185318
30
0
41
1
10
20.8984864760631
20
0.265185949687748
30
0
41
1
10
20.8986032373078
20
0.266036583457037
30
0
41
1
10
20.8986616151457
20
0.266461900723868
30
0
41
1
10
20.898824928233
20
0.26765179174447
30
0
41
1
10
20.8989298572435
20
0.268416366354558
30
0
41
1
10
20.8990347771531
20
0.269180942213524
30
0
0
SPLINE
5
E8
100
AcDbEntity
8
1
62
256
6
ByLayer
370
18
48
1
60
0
100
AcDbSpline
70
4
71
3
72
8
73
4
40
0
40
0
40
0
40
0
40
1
40
1
40
1
40
1
41
1
10
20.9716356251348
20
0.68796759537949
30
0
41
1
10
20.9722986253637
20
0.691792008655028
30
0
41
1
10
20.9725100767369
20
0.695520764206634
30
0
41
1
10
20.9722845225117
20
0.699156942925185
30
0
0
SPLINE
5
E9
100
AcDbEntity
8
1
62
256
6
ByLayer
370
18
48
1
60
0
100
AcDbSpline
70
4
71
3
72
12
73
8
40
0
40
0
40
0
40
0
40
0.400621745147045
40
0.400621745147045
40
0.801243490294091
40
0.801243490294091
40
1
40
1
40
1
40
1
41
1
10
20.9722845225116
20
0.699156942925157
30
0
41
1
10
20.9703404999758
20
0.705685072125192
30
0
41
1
10
20.9667450914182
20
0.711890645821711
30
0
41
1
10
20.955967118394
20
0.723601135182548
30
0
41
1
10
20.9489149936041
20
0.728971277082849
30
0
41
1
10
20.9360025262791
20
0.736240062603343
30
0
41
1
10
20.9313296510488
20
0.738527942766922
30
0
41
1
10
20.9262608385881
20
0.740691808451743
30
0
0
SPLINE
5
EA
100
AcDbEntity
8
1
62
256
6
ByLayer
370
18
48
1
60
0
100
AcDbSpline
70
4
71
3
72
8
73
4
40
0
40
0
40
0
40
0
40
1
40
1
40
1
40
1
41
1
10
20.9716356251348
20
-2.11670993777068
30
0
41
1
10
20.9722986253636
20
-2.12707623404165
30
0
41
1
10
20.9725100767368
20
-2.13744291798236
30
0
41
1
10
20.9722845225117
20
-2.14780997708769
30
0
0
SPLINE
5
EB
100
AcDbEntity
8
1
62
256
6
ByLayer
370
18
48
1
60
0
100
AcDbSpline
70
4
71
3
72
12
73
8
40
0
40
0
40
0
40
0
40
0.306639919846672
40
0.306639919846672
40
0.653319959923337
40
0.653319959923337
40
1
40
1
40
1
40
1
41
1
10
20.9521353088076
20
-2.26266856142223
30
0
41
1
10
20.9558652963868
20
-2.25110795756791
30
0
41
1
10
20.9591001042006
20
-2.23945387468581
30
0
41
1
10
20.9649238113893
20
-2.21441715257441
30
0
41
1
10
20.9673667426666
20
-2.20099103806791
30
0
41
1
10
20.9708537945978
20
-2.17433984102718
30
0
41
1
10
20.9719111222401
20
-2.16105896435843
30
0
41
1
10
20.9722845225117
20
-2.14780997708772
30
0
0
SPLINE
5
EC
100
AcDbEntity
8
1
62
256
6
ByLayer
370
18
48
1
60
0
100
AcDbSpline
70
4
71
3
72
18
73
14
40
0
40
0
40
0
40
0
40
0.0891198232465299
40
0.179215672708899
40
0.270232702196969
40
0.361893505910643
40
0.453976611098907
40
0.546511572685546
40
0.639677611391871
40
0.73370310188039
40
0.82881233691706
40
0.925124500701749
40
1
40
1
40
1
40
1
41
1
10
20.9074146848169
20
-2.3922509802631
30
0
41
1
10
20.9068227957299
20
-2.39822522038185
30
0
41
1
10
20.9056325352801
20
-2.41023912955265
30
0
41
1
10
20.9027412060464
20
-2.42843619674699
30
0
41
1
10
20.8990150683807
20
-2.44682016739674
30
0
41
1
10
20.8943704851966
20
-2.46532636627703
30
0
41
1
10
20.8888290558888
20
-2.48388365520012
30
0
41
1
10
20.8823829546911
20
-2.50245365671322
30
0
41
1
10
20.8750239721717
20
-2.52102659486741
30
0
41
1
10
20.8667324548258
20
-2.53960406221637
30
0
41
1
10
20.857485623661
20
-2.55818084729279
30
0
41
1
10
20.8480664233572
20
-2.57528022779914
30
0
41
1
10
20.8415714511391
20
-2.58612054404492
30
0
41
1
10
20.8386485650933
20
-2.59083005260428
30
0
0
SPLINE
5
ED
100
AcDbEntity
8
1
62
256
6
ByLayer
370
13
48
1
60
0
100
AcDbSpline
70
4
71
3
72
8
73
4
40
0
40
0
40
0
40
0
40
1
40
1
40
1
40
1
41
1
10
20.9716356251392
20
-2.11670993774902
30
0
41
1
10
20.9513433805925
20
-2.18745721685039
30
0
41
1
10
20.9310511360457
20
-2.25820449595176
30
0
41
1
10
20.910758891499
20
-2.3289517750531
30
0
0
SPLINE
5
EE
100
AcDbEntity
8
1
62
256
6
ByLayer
370
18
48
1
60
0
100
AcDbSpline
70
4
71
3
72
30
73
26
40
0
40
0
40
0
40
0
40
0.124999999999959
40
0.124999999999959
40
0.187499999999939
40
0.187499999999939
40
0.249999999999919
40
0.249999999999919
40
0.374999999999903
40
0.374999999999903
40
0.437499999999905
40
0.437499999999905
40
0.499999999999908
40
0.499999999999908
40
0.624999999999932
40
0.624999999999932
40
0.687499999999943
40
0.687499999999943
40
0.749999999999955
40
0.749999999999955
40
0.874999999999977
40
0.874999999999977
40
0.937499999999989
40
0.937499999999989
40
1
40
1
40
1
40
1
41
1
10
20.5338021323223
20
2.97152893918761
30
0
41
1
10
20.5626169931962
20
2.9692398885451
30
0
41
1
10
20.5909542915112
20
2.96439848185327
30
0
41
1
10
20.6327483262079
20
2.95326951009983
30
0
41
1
10
20.6465839821481
20
2.94890482090381
30
0
41
1
10
20.6739161862305
20
2.93886592022673
30
0
41
1
10
20.687256909861
20
2.93324943956151
30
0
41
1
10
20.7263233793387
20
2.91464718194689
30
0
41
1
10
20.7511071713305
20
2.89992101364774
30
0
41
1
10
20.7863438491945
20
2.87428925481993
30
0
41
1
10
20.7978050179497
20
2.86512148731828
30
0
41
1
10
20.8198716192233
20
2.84570929720454
30
0
41
1
10
20.830393554845
20
2.83554290036494
30
0
41
1
10
20.860456355962
20
2.80367372923075
30
0
41
1
10
20.8785031182886
20
2.78062894592372
30
0
41
1
10
20.9025162828737
20
2.74334821944746
30
0
41
1
10
20.9100449878894
20
2.730392185299
30
0
41
1
10
20.9238106645325
20
2.70395195962229
30
0
41
1
10
20.9300548675151
20
2.69047289871165
30
0
41
1
10
20.9469086120002
20
2.64928003525478
30
0
41
1
10
20.9556528729575
20
2.62081549220218
30
0
41
1
10
20.9649238113892
20
2.57659064497881
30
0
41
1
10
20.9673667426666
20
2.56157552515356
30
0
41
1
10
20.9708537945978
20
2.53154862444916
30
0
41
1
10
20.9719111222401
20
2.51647299300103
30
0
41
1
10
20.9722845225117
20
2.5013385384014
30
0
0
SPLINE
5
EF
100
AcDbEntity
8
1
62
256
6
ByLayer
370
18
48
1
60
0
100
AcDbSpline
70
4
71
3
72
8
73
4
40
0
40
0
40
0
40
0
40
1
40
1
40
1
40
1
41
1
10
20.9716356251348
20
2.46447098556149
30
0
41
1
10
20.9722986253637
20
2.47681738390077
30
0
41
1
10
20.9725100767369
20
2.48910594727835
30
0
41
1
10
20.9722845225117
20
2.50133853840143
30
0
0
SPLINE
5
F0
100
AcDbEntity
8
1
62
256
6
ByLayer
370
18
48
1
60
0
100
AcDbSpline
70
4
71
3
72
26
73
22
40
0
40
0
40
0
40
0
40
0.124999999999988
40
0.124999999999988
40
0.249999999999976
40
0.249999999999976
40
0.374999999999964
40
0.374999999999964
40
0.437499999999968
40
0.437499999999968
40
0.499999999999972
40
0.499999999999972
40
0.624999999999979
40
0.624999999999979
40
0.749999999999986
40
0.749999999999986
40
0.874999999999994
40
0.874999999999994
40
0.937499999999997
40
0.937499999999997
40
1
40
1
40
1
40
1
41
1
10
20.9722845225116
20
2.50133853840143
30
0
41
1
10
20.9703404999758
20
2.52418809597015
30
0
41
1
10
20.9667450914181
20
2.54691693909695
30
0
41
1
10
20.9559671183939
20
2.59211240832937
30
0
41
1
10
20.9489149936069
20
2.61405519676873
30
0
41
1
10
20.9316537227752
20
2.65635604971092
30
0
41
1
10
20.9214343533683
20
2.67676693891121
30
0
41
1
10
20.9036620827599
20
2.70624598372316
30
0
41
1
10
20.8972977839562
20
2.71592477142968
30
0
41
1
10
20.88390245964
20
2.73462997247975
30
0
41
1
10
20.8768779756168
20
2.74365952363343
30
0
41
1
10
20.8548639995446
20
2.76981850953155
30
0
41
1
10
20.8389408789367
20
2.7860250925616
30
0
41
1
10
20.8046058721345
20
2.8159782207747
30
0
41
1
10
20.7860467067617
20
2.82977640655409
30
0
41
1
10
20.7475832652862
20
2.85412822265278
30
0
41
1
10
20.7275850775004
20
2.86479514884894
30
0
41
1
10
20.6964656178253
20
2.8785862504273
30
0
41
1
10
20.6859047284056
20
2.88281367868905
30
0
41
1
10
20.6644139130366
20
2.89054199461657
30
0
41
1
10
20.6534664667062
20
2.89404382874494
30
0
41
1
10
20.6424913074281
20
2.89713320695148
30
0
0
SPLINE
5
F1
100
AcDbEntity
8
1
62
256
6
ByLayer
370
18
48
1
60
0
100
AcDbSpline
70
4
71
3
72
8
73
4
40
0
40
0
40
0
40
0
40
1
40
1
40
1
40
1
41
1
10
20.5131782230899
20
0.135798526321679
30
0
41
1
10
20.5130675398601
20
0.131115856008279
30
0
41
1
10
20.5130209850345
20
0.126419658340268
30
0
41
1
10
20.5130389957469
20
0.12171224754627
30
0
0
SPLINE
5
F2
100
AcDbEntity
8
1
62
256
6
ByLayer
370
18
48
1
60
0
100
AcDbSpline
70
4
71
3
72
8
73
4
40
0
40
0
40
0
40
0
40
1
40
1
40
1
40
1
41
1
10
20.7865827317728
20
-2.60968212781046
30
0
41
1
10
20.8268521847946
20
-2.53726704228094
30
0
41
1
10
20.8671137081163
20
-2.46470841009113
30
0
41
1
10
20.907369566045
20
-2.39204847123679
30
0
0
SPLINE
5
F3
100
AcDbEntity
8
1
62
256
6
ByLayer
370
18
48
1
60
0
100
AcDbSpline
70
4
71
3
72
14
73
10
40
0
40
0
40
0
40
0
40
0.25
40
0.25
40
0.5
40
0.5
40
0.75
40
0.75
40
1
40
1
40
1
40
1
41
1
10
20.9073966234623
20
-2.39246186959983
30
0
41
1
10
20.9081442391916
20
-2.38699981866702
30
0
41
1
10
20.9088066636311
20
-2.38151524585982
30
0
41
1
10
20.9099195513127
20
-2.37049006442959
30
0
41
1
10
20.9103682397336
20
-2.36493541260742
30
0
41
1
10
20.910980811542
20
-2.35417290954354
30
0
41
1
10
20.9111504580783
20
-2.34891722777016
30
0
41
1
10
20.9111879716826
20
-2.33868319553355
30
0
41
1
10
20.9110520226833
20
-2.33367171711058
30
0
41
1
10
20.9107588915008
20
-2.32895177505321
30
0
0
SPLINE
5
F4
100
AcDbEntity
8
1
62
256
6
ByLayer
370
18
48
1
60
0
100
AcDbSpline
70
4
71
3
72
12
73
8
40
0
40
0
40
0
40
0
40
0.0116105303610135
40
0.0116105303610135
40
0.505805265180507
40
0.505805265180507
40
1
40
1
40
1
40
1
41
1
10
20.5366774453634
20
0.188635996125356
30
0
41
1
10
20.5368378705268
20
0.188584914223384
30
0
41
1
10
20.5369990934192
20
0.188533847402852
30
0
41
1
10
20.5440575237977
20
0.186309913715803
30
0
41
1
10
20.5524132710411
20
0.184162006136262
30
0
41
1
10
20.5726602585652
20
0.180360726697131
30
0
41
1
10
20.5843688164732
20
0.178740477992051
30
0
41
1
10
20.5979743566973
20
0.177658429025712
30
0
0
SPLINE
5
F5
100
AcDbEntity
8
1
62
256
6
ByLayer
370
18
48
1
60
0
100
AcDbSpline
70
4
71
3
72
8
73
4
40
0
40
0
40
0
40
0
40
1
40
1
40
1
40
1
41
1
10
20.5427402597238
20
-0.324727202646329
30
0
41
1
10
20.5307288302662
20
-0.321115528652626
30
0
41
1
10
20.5213785113259
20
-0.316737140020763
30
0
41
1
10
20.5145803353015
20
-0.31165772123245
30
0
0
SPLINE
5
F6
100
AcDbEntity
8
1
62
256
6
ByLayer
370
18
48
1
60
0
100
AcDbSpline
70
4
71
3
72
8
73
4
40
0
40
0
40
0
40
0
40
1
40
1
40
1
40
1
41
1
10
20.5131583256036
20
-0.309975111210292
30
0
41
1
10
20.497272667979
20
-0.267092790444508
30
0
41
1
10
20.4849158016911
20
-0.223644005530929
30
0
41
1
10
20.4758968944496
20
-0.179659390089029
30
0
0
SPLINE
5
F7
100
AcDbEntity
8
1
62
256
6
ByLayer
370
18
48
1
60
0
100
AcDbSpline
70
4
71
3
72
9
73
5
40
0
40
0
40
0
40
0
40
0.29165115943673
40
1
40
1
40
1
40
1
41
1
10
7.4433085892214
20
2.7329305589565
30
0
41
1
10
7.44330858913659
20
2.7329250500386
30
0
41
1
10
7.44330858876722
20
2.73180195310445
30
0
41
1
10
7.44330858808448
20
2.72688558956909
30
0
41
1
10
7.44330858755288
20
2.72143055895606
30
0
0
SPLINE
5
F8
100
AcDbEntity
8
1
62
256
6
ByLayer
370
18
48
1
60
0
100
AcDbSpline
70
4
71
3
72
12
73
8
40
0
40
0
40
0
40
0
40
0.5
40
0.5
40
0.75
40
0.75
40
1
40
1
40
1
40
1
41
1
10
20.4797812244607
20
2.97247619752685
30
0
41
1
10
20.5079748818896
20
2.96534722022764
30
0
41
1
10
20.5356438481645
20
2.95549397331928
30
0
41
1
10
20.5763553930506
20
2.93669834702248
30
0
41
1
10
20.5897928263855
20
2.92976154390698
30
0
41
1
10
20.616380126866
20
2.91449893543088
30
0
41
1
10
20.629570769815
20
2.90614389834781
30
0
41
1
10
20.6424913074276
20
2.89713320695165
30
0
0
SPLINE
5
F9
100
AcDbEntity
8
1
62
256
6
ByLayer
370
18
48
1
60
0
100
AcDbSpline
70
4
71
3
72
8
73
4
40
0
40
0
40
0
40
0
40
1
40
1
40
1
40
1
41
1
10
20.6424913074275
20
2.89713320695171
30
0
41
1
10
20.6469048707595
20
2.88660130765842
30
0
41
1
10
20.6511849260682
20
2.87601062986352
30
0
41
1
10
20.6553179101813
20
2.86535520428254
30
0
0
SPLINE
5
FA
100
AcDbEntity
8
1
62
256
6
ByLayer
370
18
48
1
60
0
100
AcDbSpline
70
4
71
3
72
10
73
6
40
0
40
0
40
0
40
0
40
0.5
40
0.5
40
1
40
1
40
1
40
1
41
1
10
5.86035110418118
20
2.67882167080194
30
0
41
1
10
5.8195021756361
20
2.67231653170276
30
0
41
1
10
5.77738627165661
20
2.66615661982217
30
0
41
1
10
5.6906335815861
20
2.654868447204
30
0
41
1
10
5.64599853626294
20
2.64973775557564
30
0
41
1
10
5.60000000441212
20
2.64533848794247
30
0
0
SPLINE
5
FB
100
AcDbEntity
8
1
62
256
6
ByLayer
370
18
48
1
60
0
100
AcDbSpline
70
4
71
3
72
12
73
8
40
0
40
0
40
0
40
0
40
0.25
40
0.25
40
0.5
40
0.5
40
1
40
1
40
1
40
1
41
1
10
5.60000000841819
20
2.64533848878284
30
0
41
1
10
5.60000000838852
20
2.65428027220909
30
0
41
1
10
5.60000000835788
20
2.66338764547885
30
0
41
1
10
5.60000000829461
20
2.68195765393298
30
0
41
1
10
5.60000000826187
20
2.69145898865983
30
0
41
1
10
5.60000000816146
20
2.72023653978294
30
0
41
1
10
5.60000000809188
20
2.7397071148601
30
0
41
1
10
5.60000000801949
20
2.75949009412005
30
0
0
SPLINE
5
FC
100
AcDbEntity
8
1
62
256
6
ByLayer
370
18
48
1
60
0
100
AcDbSpline
70
4
71
3
72
10
73
6
40
0
40
0
40
0
40
0
40
0.620782055373642
40
0.620782055373642
40
1
40
1
40
1
40
1
41
1
10
20.5337024558918
20
-0.22300029493158
30
0
41
1
10
20.5260933726489
20
-0.243053531038868
30
0
41
1
10
20.5196644775617
20
-0.263778219660594
30
0
41
1
10
20.5109567190203
20
-0.298048844696524
30
0
41
1
10
20.5080373609194
20
-0.311250242206455
30
0
41
1
10
20.5054919368944
20
-0.324637772106115
30
0
0
SPLINE
5
FD
100
AcDbEntity
8
1
62
256
6
ByLayer
370
18
48
1
60
0
100
AcDbSpline
70
4
71
3
72
8
73
4
40
0
40
0
40
0
40
0
40
1
40
1
40
1
40
1
41
1
10
20.5427402597235
20
-0.324727202646017
30
0
41
1
10
20.5427418687174
20
-0.324859345830731
30
0
41
1
10
20.5427435537549
20
-0.324991485021854
30
0
41
1
10
20.5427453148953
20
-0.325123620312183
30
0
0
SPLINE
5
FE
100
AcDbEntity
8
1
62
256
6
ByLayer
370
18
48
1
60
0
100
AcDbSpline
70
4
71
3
72
10
73
6
40
0
40
0
40
0
40
0
40
0.581987576507176
40
0.581987576507176
40
1
40
1
40
1
40
1
41
1
10
20.4801892195891
20
2.97255363410719
30
0
41
1
10
20.2201852219375
20
2.94513846744982
30
0
41
1
10
19.960181224286
20
2.89721044328971
30
0
41
1
10
19.5134294238233
20
2.78130056304889
30
0
41
1
10
19.3266816210121
20
2.72277553200908
30
0
41
1
10
19.1399338182009
20
2.65483813704526
30
0
0
SPLINE
5
FF
100
AcDbEntity
8
1
62
256
6
ByLayer
370
18
48
1
60
0
100
AcDbSpline
70
4
71
3
72
10
73
6
40
0
40
0
40
0
40
0
40
0.445676269903058
40
0.445676269903058
40
1
40
1
40
1
40
1
41
1
10
9.40713895480889
20
-2.97753452437564
30
0
41
1
10
9.19809574496298
20
-2.99747812058843
30
0
41
1
10
8.98905253511708
20
-3.00418195737842
30
0
41
1
10
8.52000532761977
20
-2.98922042822207
30
0
41
1
10
8.26000132996819
20
-2.96024125266195
30
0
41
1
10
7.99999733231675
20
-2.91117065040979
30
0
0
SPLINE
5
100
100
AcDbEntity
8
1
62
256
6
ByLayer
370
18
48
1
60
0
100
AcDbSpline
70
4
71
3
72
8
73
4
40
0
40
0
40
0
40
0
40
1
40
1
40
1
40
1
41
1
10
20.4808220462824
20
2.97247245725927
30
0
41
1
10
20.4983432219111
20
2.97240478296197
30
0
41
1
10
20.51600696637
20
2.97207920754943
30
0
41
1
10
20.5338021323221
20
2.97152893918741
30
0
0
SPLINE
5
101
100
AcDbEntity
8
1
62
256
6
ByLayer
370
18
48
1
60
0
100
AcDbSpline
70
4
71
3
72
14
73
10
40
0
40
0
40
0
40
0
40
0.25
40
0.25
40
0.5
40
0.5
40
0.75
40
0.75
40
1
40
1
40
1
40
1
41
1
10
8.00009399761592
20
-2.9111597553628
30
0
41
1
10
8.00137017317655
20
-2.88161392753111
30
0
41
1
10
8.0027254737717
20
-2.84900702258375
30
0
41
1
10
8.00536295762566
20
-2.77775269121696
30
0
41
1
10
8.00664419496312
20
-2.73909723992642
30
0
41
1
10
8.00915483574192
20
-2.65571592093636
30
0
41
1
10
8.01038360241492
20
-2.61125733148876
30
0
41
1
10
8.01305704615393
20
-2.51684578748615
30
0
41
1
10
8.01445829502757
20
-2.46689587422031
30
0
41
1
10
8.01582233899052
20
-2.41418191245671
30
0
0
SPLINE
5
102
100
AcDbEntity
8
1
62
256
6
ByLayer
370
13
48
1
60
0
100
AcDbSpline
70
4
71
3
72
9
73
5
40
0
40
0
40
0
40
0
40
0.298748336329321
40
1
40
1
40
1
40
1
41
1
10
8.00000000543929
20
-2.40484892992694
30
0
41
1
10
8.00000000549502
20
-2.46896305234415
30
0
41
1
10
8.00000000504619
20
-2.67096521717096
30
0
41
1
10
8.00000000000165
20
-2.82714136531396
30
0
41
1
10
8
20
-2.91115384657209
30
0
0
SPLINE
5
103
100
AcDbEntity
8
1
62
256
6
ByLayer
370
18
48
1
60
0
100
AcDbSpline
70
4
71
3
72
10
73
6
40
0
40
0
40
0
40
0
40
0.5
40
0.5
40
1
40
1
40
1
40
1
41
1
10
20.5006236255145
20
-0.107651041747886
30
0
41
1
10
20.4980421621447
20
-0.0980579894533093
30
0
41
1
10
20.4959159089014
20
-0.0878888305136911
30
0
41
1
10
20.4928272480478
20
-0.0663973157860482
30
0
41
1
10
20.4918824036001
20
-0.0552005770457527
30
0
41
1
10
20.4916452948667
20
-0.0435664355752579
30
0
0
SPLINE
5
104
100
AcDbEntity
8
1
62
256
6
ByLayer
370
18
48
1
60
0
100
AcDbSpline
70
4
71
3
72
22
73
18
40
0
40
0
40
0
40
0
40
0.148834352766282
40
0.148834352766282
40
0.297668705532564
40
0.297668705532564
40
0.372085881915706
40
0.372085881915706
40
0.446503058298847
40
0.446503058298847
40
0.595337411065135
40
0.595337411065135
40
0.744171763831424
40
0.744171763831424
40
0.893006116597713
40
0.893006116597713
40
1
40
1
40
1
40
1
41
1
10
20.5828750888186
20
0.371307243415231
30
0
41
1
10
20.569519783208
20
0.358276544109657
30
0
41
1
10
20.5583310718164
20
0.344306791700745
30
0
41
1
10
20.5392806310809
20
0.315153622957581
30
0
41
1
10
20.5314300099147
20
0.299963090197792
30
0
41
1
10
20.5217689105256
20
0.276579664737596
30
0
41
1
10
20.5188956185448
20
0.268657318946566
30
0
41
1
10
20.5138629093758
20
0.252798804889579
30
0
41
1
10
20.5117044435159
20
0.244875974728075
30
0
41
1
10
20.5062002766905
20
0.221176066383094
30
0
41
1
10
20.5038188759482
20
0.205467163900266
30
0
41
1
10
20.5013015155591
20
0.174485132417004
30
0
41
1
10
20.5011672689293
20
0.15921052925944
30
0
41
1
10
20.5030259521916
20
0.129376913215197
30
0
41
1
10
20.505041637236
20
0.114772684254831
30
0
41
1
10
20.5102245468319
20
0.0911569260217391
30
0
41
1
10
20.5129074603793
20
0.081683100984435
30
0
41
1
10
20.5161088235832
20
0.0726725460086186
30
0
0
SPLINE
5
105
100
AcDbEntity
8
1
62
256
6
ByLayer
370
18
48
1
60
0
100
AcDbSpline
70
4
71
3
72
10
73
6
40
0
40
0
40
0
40
0
40
0.5
40
0.5
40
1
40
1
40
1
40
1
41
1
10
20.5427453148985
20
-0.325123620317299
30
0
41
1
10
20.5378259418522
20
-0.325069438507455
30
0
41
1
10
20.5330240404884
20
-0.324194109437428
30
0
41
1
10
20.5235480466135
20
-0.319964029293857
30
0
41
1
10
20.5189578421731
20
-0.316628661018399
30
0
41
1
10
20.5145803353015
20
-0.311657721232478
30
0
0
SPLINE
5
106
100
AcDbEntity
8
1
62
256
6
ByLayer
370
18
48
1
60
0
100
AcDbSpline
70
4
71
2
72
6
73
3
40
0
40
0
40
0
40
1
40
1
40
1
41
0.500000111555
10
20.5145803353016
20
-0.311657721232435
30
0
41
0.499999888445
10
20.5138790276795
20
-0.311330967840533
30
0
41
0.500000111555
10
20.5131782230899
20
-0.311003816173741
30
0
0
SPLINE
5
107
100
AcDbEntity
8
1
62
256
6
ByLayer
370
18
48
1
60
0
100
AcDbSpline
70
4
71
3
72
8
73
4
40
0
40
0
40
0
40
0
40
1
40
1
40
1
40
1
41
1
10
20.5131782230899
20
-0.311003816173752
30
0
41
1
10
20.5131713437825
20
-0.310660919744322
30
0
41
1
10
20.5131647111845
20
-0.31031801811065
30
0
41
1
10
20.5131583256097
20
-0.309975111210264
30
0
0
SPLINE
5
108
100
AcDbEntity
8
1
62
256
6
ByLayer
370
18
48
1
60
0
100
AcDbSpline
70
4
71
3
72
8
73
4
40
0
40
0
40
0
40
0
40
1
40
1
40
1
40
1
41
1
10
20.5131583256092
20
-0.309975111223082
30
0
41
1
10
20.5128180905126
20
-0.309555937553199
30
0
41
1
10
20.5124801626574
20
-0.309127436845927
30
0
41
1
10
20.512144562477
20
-0.308689543032642
30
0
0
SPLINE
5
109
100
AcDbEntity
8
1
62
256
6
ByLayer
370
18
48
1
60
0
100
AcDbSpline
70
4
71
3
72
12
73
8
40
0
40
0
40
0
40
0
40
0.250000000000003
40
0.250000000000003
40
0.500000000000006
40
0.500000000000006
40
1
40
1
40
1
40
1
41
1
10
20.4892279597798
20
-0.239045623906634
30
0
41
1
10
20.4880080842337
20
-0.228713193149588
30
0
41
1
10
20.4873532393582
20
-0.218050737928422
30
0
41
1
10
20.4871302517212
20
-0.196261794093886
30
0
41
1
10
20.4875724556031
20
-0.18506464024108
30
0
41
1
10
20.4904963102692
20
-0.151662223278123
30
0
41
1
10
20.4945208976552
20
-0.129528700159113
30
0
41
1
10
20.5006236255236
20
-0.107651041738677
30
0
0
SPLINE
5
10A
100
AcDbEntity
8
1
62
256
6
ByLayer
370
18
48
1
60
0
100
AcDbSpline
70
4
71
3
72
8
73
4
40
0
40
0
40
0
40
0
40
1
40
1
40
1
40
1
41
1
10
6.57636416890295
20
-2.57453853494852
30
0
41
1
10
6.77318667973583
20
-2.54902749797731
30
0
41
1
10
6.96915864389314
20
-2.51401537693806
30
0
41
1
10
7.1648779741725
20
-2.46950518650578
30
0
0
SPLINE
5
10B
100
AcDbEntity
8
1
62
256
6
ByLayer
370
18
48
1
60
0
100
AcDbSpline
70
4
71
3
72
29
73
25
40
0
40
0
40
0
40
0
40
0.139324281906791
40
0.139324281906791
40
0.278648563813582
40
0.278648563813582
40
0.348310704766978
40
0.348310704766978
40
0.417972845720374
40
0.417972845720374
40
0.557297127627164
40
0.557297127627164
40
0.592128198103866
40
0.592128198103866
40
0.626959268580568
40
0.696621409533972
40
0.696621409533972
40
0.766283550487377
40
0.766283550487377
40
0.835945691440781
40
0.835945691440781
40
0.97526997334759
40
0.97526997334759
40
1
40
1
40
1
40
1
41
1
10
20.6553179415231
20
2.8653552204342
30
0
41
1
10
20.6691463945529
20
2.82914159349352
30
0
41
1
10
20.6814539645571
20
2.79258796793681
30
0
41
1
10
20.7017334050619
20
2.71851146112021
30
0
41
1
10
20.7097187231252
20
2.68099158511294
30
0
41
1
10
20.7169890633304
20
2.62365936578746
30
0
41
1
10
20.7186216633633
20
2.6043718300333
30
0
41
1
10
20.7199505729986
20
2.5653638954162
30
0
41
1
10
20.7196268688063
20
2.5455177099235
30
0
41
1
10
20.71524836278
20
2.48685737208922
30
0
41
1
10
20.7078516523769
20
2.44855567047782
30
0
41
1
10
20.6920780836192
20
2.40185236430594
30
0
41
1
10
20.6885847204093
20
2.39254709590529
30
0
41
1
10
20.681048751977
20
2.37433958637683
30
0
41
1
10
20.6688936874602
20
2.34753566519879
30
0
41
1
10
20.6542885413023
20
2.32219222423998
30
0
41
1
10
20.6328177563889
20
2.2895915233907
30
0
41
1
10
20.6210639674633
20
2.27386259962691
30
0
41
1
10
20.5958151671732
20
2.24359057440321
30
0
41
1
10
20.5825127398049
20
2.2292669447699
30
0
41
1
10
20.5409269000048
20
2.18830723131145
30
0
41
1
10
20.5109825890738
20
2.16366116444064
30
0
41
1
10
20.473864502464
20
2.13686740204523
30
0
41
1
10
20.4682139102584
20
2.1328856676829
30
0
41
1
10
20.4625164225636
20
2.12896190990711
30
0
0
SPLINE
5
10C
100
AcDbEntity
8
1
62
256
6
ByLayer
370
18
48
1
60
0
100
AcDbSpline
70
4
71
5
72
16
73
10
40
0
40
0
40
0
40
0
40
0
40
0
40
0.188297913771168
40
0.424915428320466
40
0.582660438019997
40
0.819277952569295
40
1
40
1
40
1
40
1
40
1
40
1
41
1
10
19.3276692221915
20
2.59657567498795
30
0
41
1
10
19.377667918939
20
2.61280633923806
30
0
41
1
10
19.4904956036353
20
2.64819082822237
30
0
41
1
10
19.6452092802975
20
2.69282870781393
30
0
41
1
10
19.8627519449084
20
2.7479453771646
30
0
41
1
10
20.1282816884207
20
2.80177553702546
30
0
41
1
10
20.3438127351853
20
2.83443475738017
30
0
41
1
10
20.4965147940012
20
2.85195753881482
30
0
41
1
10
20.6073308608513
20
2.86169706744837
30
0
41
1
10
20.6553179397526
20
2.86535522102574
30
0
0
SPLINE
5
10D
100
AcDbEntity
8
1
62
256
6
ByLayer
370
18
48
1
60
0
100
AcDbSpline
70
4
71
3
72
8
73
4
40
0
40
0
40
0
40
0
40
1
40
1
40
1
40
1
41
1
10
5.9385431273424
20
2.16697525702904
30
0
41
1
10
6.00102169578491
20
2.09872802639814
30
0
41
1
10
6.07050268280966
20
2.03548426002959
30
0
41
1
10
6.14589167482808
20
1.97646196250088
30
0
0
SPLINE
5
10E
100
AcDbEntity
8
1
62
256
6
ByLayer
370
18
48
1
60
0
100
AcDbSpline
70
4
71
3
72
30
73
26
40
0
40
0
40
0
40
0
40
0.124999999999962
40
0.124999999999962
40
0.187499999999942
40
0.187499999999942
40
0.249999999999923
40
0.249999999999923
40
0.374999999999908
40
0.374999999999908
40
0.437499999999913
40
0.437499999999913
40
0.499999999999917
40
0.499999999999917
40
0.624999999999943
40
0.624999999999943
40
0.687499999999957
40
0.687499999999957
40
0.74999999999997
40
0.74999999999997
40
0.874999999999986
40
0.874999999999986
40
0.937499999999993
40
0.937499999999993
40
1
40
1
40
1
40
1
41
1
10
20.5338021323223
20
-2.28056251589803
30
0
41
1
10
20.5626169931962
20
-2.2837156105694
30
0
41
1
10
20.5909542915112
20
-2.2847614043587
30
0
41
1
10
20.632748326208
20
-2.28311840425565
30
0
41
1
10
20.6465839821483
20
-2.28202959855673
30
0
41
1
10
20.6739161862306
20
-2.27874115513524
30
0
41
1
10
20.687256909861
20
-2.27656234812886
30
0
41
1
10
20.7263233793386
20
-2.26845708847253
30
0
41
1
10
20.7511071713304
20
-2.26096235698003
30
0
41
1
10
20.7863438491946
20
-2.24656093807732
30
0
41
1
10
20.7978050179498
20
-2.24121688127536
30
0
41
1
10
20.8198716192234
20
-2.22952024755904
30
0
41
1
10
20.8303935548451
20
-2.22321773676976
30
0
41
1
10
20.860456355962
20
-2.20293307442603
30
0
41
1
10
20.8785031182885
20
-2.18763102363124
30
0
41
1
10
20.9025162828738
20
-2.16205706737978
30
0
41
1
10
20.9100449878895
20
-2.15303515714294
30
0
41
1
10
20.9238106645324
20
-2.13435898213487
30
0
41
1
10
20.9300548675151
20
-2.12471367404416
30
0
41
1
10
20.9469086120002
20
-2.09489610416597
30
0
41
1
10
20.9556528729574
20
-2.07384668063401
30
0
41
1
10
20.9649238113892
20
-2.0405353272667
30
0
41
1
10
20.9673667426666
20
-2.02912735829264
30
0
41
1
10
20.9708537945978
20
-2.00613044832423
30
0
41
1
10
20.97191112224
20
-1.99449179193175
30
0
41
1
10
20.9722845225116
20
-1.98273015805117
30
0
0
SPLINE
5
10F
100
AcDbEntity
8
1
62
256
6
ByLayer
370
18
48
1
60
0
100
AcDbSpline
70
4
71
3
72
8
73
4
40
0
40
0
40
0
40
0
40
1
40
1
40
1
40
1
41
1
10
20.9716356251348
20
-1.95299050358833
30
0
41
1
10
20.9722986253638
20
-1.96299495029138
30
0
41
1
10
20.9725100767369
20
-1.97290717840335
30
0
41
1
10
20.9722845225117
20
-1.9827301580512
30
0
0
SPLINE
5
110
100
AcDbEntity
8
1
62
256
6
ByLayer
370
13
48
1
60
0
100
AcDbSpline
70
4
71
3
72
8
73
4
40
0
40
0
40
0
40
0
40
1
40
1
40
1
40
1
41
1
10
20.9716356251392
20
-1.95299050362524
30
0
41
1
10
20.9513433805925
20
-1.8455817042788
30
0
41
1
10
20.9310511360457
20
-1.73817290493233
30
0
41
1
10
20.910758891499
20
-1.63076410558588
30
0
0
SPLINE
5
111
100
AcDbEntity
8
1
62
256
6
ByLayer
370
18
48
1
60
0
100
AcDbSpline
70
4
71
3
72
8
73
4
40
0
40
0
40
0
40
0
40
1
40
1
40
1
40
1
41
1
10
20.7411732693081
20
1.94613190334468
30
0
41
1
10
20.7944224831846
20
1.77957947788619
30
0
41
1
10
20.8476557422298
20
1.61289810041129
30
0
41
1
10
20.9008791064371
20
1.44613674971251
30
0
0
SPLINE
5
112
100
AcDbEntity
8
1
62
256
6
ByLayer
370
18
48
1
60
0
100
AcDbSpline
70
4
71
3
72
16
73
12
40
0
40
0
40
0
40
0
40
0.124999999999999
40
0.124999999999999
40
0.249999999999996
40
0.249999999999996
40
0.499999999999997
40
0.499999999999997
40
0.749999999999999
40
0.749999999999999
40
1
40
1
40
1
40
1
41
1
10
20.7411732693071
20
1.94613190334928
30
0
41
1
10
20.7406408534955
20
1.94847675781176
30
0
41
1
10
20.7399062254271
20
1.95095850522077
30
0
41
1
10
20.7380235213185
20
1.95620939023473
30
0
41
1
10
20.7368689134289
20
1.95899084725457
30
0
41
1
10
20.7328317208668
20
1.9676472733583
30
0
41
1
10
20.7293756994782
20
1.97385725703194
30
0
41
1
10
20.7209633524889
20
1.98717780085093
30
0
41
1
10
20.7159700929539
20
1.99432619281123
30
0
41
1
10
20.704619915268
20
2.00940605675999
30
0
41
1
10
20.698372031773
20
2.01720105605733
30
0
41
1
10
20.6916272658947
20
2.02522350669759
30
0
0
SPLINE
5
113
100
AcDbEntity
8
1
62
256
6
ByLayer
370
18
48
1
60
0
100
AcDbSpline
70
4
71
3
72
8
73
4
40
0
40
0
40
0
40
0
40
1
40
1
40
1
40
1
41
1
10
5.75392885715098
20
-2.84901603737464
30
0
41
1
10
5.81672159395043
20
-2.76839373878809
30
0
41
1
10
5.88578666647615
20
-2.69299023490649
30
0
41
1
10
5.9602953537015
20
-2.62211600190739
30
0
0
SPLINE
5
114
100
AcDbEntity
8
1
62
256
6
ByLayer
370
18
48
1
60
0
100
AcDbSpline
70
4
71
3
72
12
73
8
40
0
40
0
40
0
40
0
40
0.5
40
0.5
40
0.75
40
0.75
40
1
40
1
40
1
40
1
41
1
10
5.96029535370167
20
-2.62211600190753
30
0
41
1
10
6.05993296557446
20
-2.62050368887793
30
0
41
1
10
6.16091211928605
20
-2.61546668440116
30
0
41
1
10
6.31442207614015
20
-2.60342177888086
30
0
41
1
10
6.36593443316931
20
-2.59865664742148
30
0
41
1
10
6.46967018817165
20
-2.58772082776136
30
0
41
1
10
6.52189942065098
20
-2.58154851172893
30
0
41
1
10
6.57439940819188
20
-2.57473517548468
30
0
0
SPLINE
5
115
100
AcDbEntity
8
1
62
256
6
ByLayer
370
18
48
1
60
0
100
AcDbSpline
70
4
71
3
72
24
73
20
40
0
40
0
40
0
40
0
40
0.0548728743655796
40
0.109993824915145
40
0.165367469657908
40
0.220998364320448
40
0.276891002433382
40
0.333049815465208
40
0.389479173003591
40
0.4461833829771
40
0.503166691921326
40
0.560433285282495
40
0.61798728775803
40
0.675832763672897
40
0.733973717387212
40
0.803062079199093
40
0.873608754190474
40
0.945619749794656
40
1
40
1
40
1
40
1
41
1
10
6.57499825588289
20
-2.57420346283968
30
0
41
1
10
6.58010603775676
20
-2.56967452357873
30
0
41
1
10
6.59034469340651
20
-2.56059617005928
30
0
41
1
10
6.60573231988553
20
-2.54694497857051
30
0
41
1
10
6.62118710267396
20
-2.53323540712066
30
0
41
1
10
6.63671032730869
20
-2.51947065167982
30
0
41
1
10
6.65230380246521
20
-2.50565466625378
30
0
41
1
10
6.6679691705707
20
-2.49179130880708
30
0
41
1
10
6.68370809211365
20
-2.47788457279273
30
0
41
1
10
6.69952219374628
20
-2.46393852532674
30
0
41
1
10
6.71541308172891
20
-2.44995732599807
30
0
41
1
10
6.73138233155407
20
-2.43594521818679
30
0
41
1
10
6.74743150710336
20
-2.42190654915521
30
0
41
1
10
6.76356208479859
20
-2.40784570187674
30
0
41
1
10
6.78076550192884
20
-2.39290793222375
30
0
41
1
10
6.79915001574449
20
-2.3770176537916
30
0
41
1
10
6.8188295289537
20
-2.360109840815
30
0
41
1
10
6.83715242150132
20
-2.34447990416237
30
0
41
1
10
6.84892070176855
20
-2.33451313374621
30
0
41
1
10
6.85398604891063
20
-2.33023752799505
30
0
0
SPLINE
5
116
100
AcDbEntity
8
1
62
256
6
ByLayer
370
18
48
1
60
0
100
AcDbSpline
70
4
71
3
72
10
73
6
40
0
40
0
40
0
40
0
40
0.5
40
0.5
40
1
40
1
40
1
40
1
41
1
10
5.86035110418118
20
-1.85497926514031
30
0
41
1
10
5.81950217563608
20
-1.83347086516977
30
0
41
1
10
5.77738627165661
20
-1.81354676486552
30
0
41
1
10
5.6906335815861
20
-1.77708122111756
30
0
41
1
10
5.64599853626294
20
-1.76053629335686
30
0
41
1
10
5.60000000441212
20
-1.74593686683957
30
0
0
SPLINE
5
117
100
AcDbEntity
8
1
62
256
6
ByLayer
370
18
48
1
60
0
100
AcDbSpline
70
4
71
3
72
16
73
12
40
0
40
0
40
0
40
0
40
0.249999999999995
40
0.249999999999995
40
0.374999999999993
40
0.374999999999993
40
0.499999999999991
40
0.499999999999991
40
0.749999999999995
40
0.749999999999995
40
1
40
1
40
1
40
1
41
1
10
7.44330858755288
20
-2.5594208008969
30
0
41
1
10
7.31203194716397
20
-2.51594481313376
30
0
41
1
10
7.18074940337544
20
-2.46813289841364
30
0
41
1
10
6.98342875575921
20
-2.39052208123047
30
0
41
1
10
6.91757265843796
20
-2.36365776745188
30
0
41
1
10
6.78586172900526
20
-2.30810433846162
30
0
41
1
10
6.71998765361934
20
-2.2794080658509
30
0
41
1
10
6.52223109931725
20
-2.19065902550605
30
0
41
1
10
6.39011648672988
20
-2.12789918285793
30
0
41
1
10
6.12578239071914
20
-1.99603137455699
30
0
41
1
10
5.99353431531429
20
-1.92692113857385
30
0
41
1
10
5.86100971451313
20
-1.85490910953354
30
0
0
SPLINE
5
118
100
AcDbEntity
8
1
62
256
6
ByLayer
370
18
48
1
60
0
100
AcDbSpline
70
4
71
3
72
10
73
6
40
0
40
0
40
0
40
0
40
0.133125249942108
40
0.815017695936051
40
1
40
1
40
1
40
1
41
1
10
7.44330858863108
20
-1.92767406314366
30
0
41
1
10
7.44330858866616
20
-1.96104670481014
30
0
41
1
10
7.44330858898184
20
-2.16154613765451
30
0
41
1
10
7.44330859035094
20
-2.37698819894354
30
0
41
1
10
7.44330858808445
20
-2.52859433732007
30
0
41
1
10
7.44330858755288
20
-2.55942080089687
30
0
0
SPLINE
5
119
100
AcDbEntity
8
1
62
256
6
ByLayer
370
18
48
1
60
0
100
AcDbSpline
70
4
71
3
72
10
73
6
40
0
40
0
40
0
40
0
40
0.5
40
0.5
40
1
40
1
40
1
40
1
41
1
10
6.56037835091757
20
-1.43502245958851
30
0
41
1
10
6.70818566993398
20
-1.52314589167673
30
0
41
1
10
6.85549847100381
20
-1.60848479388849
30
0
41
1
10
7.14963453255027
20
-1.77294399520389
30
0
41
1
10
7.29645395720567
20
-1.85207243962367
30
0
41
1
10
7.44330858863148
20
-1.92767406314366
30
0
0
SPLINE
5
11A
100
AcDbEntity
8
1
62
256
6
ByLayer
370
18
48
1
60
0
100
AcDbSpline
70
4
71
3
72
16
73
12
40
0
40
0
40
0
40
0
40
0.250000000000009
40
0.250000000000009
40
0.500000000000018
40
0.500000000000018
40
0.625000000000014
40
0.625000000000014
40
0.750000000000009
40
0.750000000000009
40
1
40
1
40
1
40
1
41
1
10
7.44330858863111
20
-1.92767406314346
30
0
41
1
10
7.48518181966045
20
-1.97613730784278
30
0
41
1
10
7.52827578352932
20
-2.02263150663751
30
0
41
1
10
7.61694424464471
20
-2.11162229242825
30
0
41
1
10
7.66260407596599
20
-2.15418347557741
30
0
41
1
10
7.73248344703961
20
-2.21437678259105
30
0
41
1
10
7.75602669378486
20
-2.2338519846393
30
0
41
1
10
7.803636182704
20
-2.27159990479785
30
0
41
1
10
7.82772127517475
20
-2.28988527791378
30
0
41
1
10
7.90050074477273
20
-2.34267047519009
30
0
41
1
10
7.949794562991
20
-2.37517762135104
30
0
41
1
10
8.00000000543923
20
-2.40484892992694
30
0
0
SPLINE
5
11B
100
AcDbEntity
8
1
62
256
6
ByLayer
370
18
48
1
60
0
100
AcDbSpline
70
4
71
3
72
8
73
4
40
0
40
0
40
0
40
0
40
1
40
1
40
1
40
1
41
1
10
8.00000000543926
20
-2.40484892992697
30
0
41
1
10
8.00527493538581
20
-2.4079664021875
30
0
41
1
10
8.01054903895891
20
-2.41107740426227
30
0
41
1
10
8.01582233899052
20
-2.41418191245671
30
0
0
SPLINE
5
11C
100
AcDbEntity
8
1
62
256
6
ByLayer
370
18
48
1
60
0
100
AcDbSpline
70
4
71
3
72
36
73
32
40
0
40
0
40
0
40
0
40
0.0365573728593723
40
0.0365573728593723
40
0.14360655365278
40
0.14360655365278
40
0.197131144049484
40
0.197131144049484
40
0.250655734446189
40
0.250655734446189
40
0.357704915239597
40
0.357704915239597
40
0.384467210437948
40
0.384467210437948
40
0.411229505636298
40
0.411229505636298
40
0.464754096032998
40
0.464754096032998
40
0.518278686429699
40
0.518278686429699
40
0.571803276826399
40
0.571803276826399
40
0.6788524576198
40
0.6788524576198
40
0.785901638413201
40
0.785901638413201
40
0.892950819206603
40
0.892950819206603
40
0.946475409603302
40
0.946475409603302
40
1
40
1
40
1
40
1
41
1
10
11.7145921043589
20
-2.66720311871805
30
0
41
1
10
11.669653122166
20
-2.67992369546067
30
0
41
1
10
11.6247344757058
20
-2.6921084154483
30
0
41
1
10
11.4483460819593
20
-2.7377905167447
30
0
41
1
10
11.3170016291581
20
-2.76707104681734
30
0
41
1
10
11.1198574204593
20
-2.80346884823427
30
0
41
1
10
11.0541225964633
20
-2.81433718539938
30
0
41
1
10
10.9225417726725
20
-2.83352289613291
30
0
41
1
10
10.856691755461
20
-2.84185893725518
30
0
41
1
10
10.6588311282769
20
-2.8633595459512
30
0
41
1
10
10.5265283021585
20
-2.87297596243363
30
0
41
1
10
10.3603990008368
20
-2.87843736001241
30
0
41
1
10
10.3271348273711
20
-2.87920488287719
30
0
41
1
10
10.2605213865979
20
-2.88008016318688
30
0
41
1
10
10.2272041586933
20
-2.88018694995176
30
0
41
1
10
10.1274538218095
20
-2.87950998399413
30
0
41
1
10
10.0611272428863
20
-2.87772700584316
30
0
41
1
10
9.92875668268965
20
-2.87150700452156
30
0
41
1
10
9.86270747389301
20
-2.8670850585759
30
0
41
1
10
9.7307687376977
20
-2.8558268886774
30
0
41
1
10
9.66487817055298
20
-2.84899847638548
30
0
41
1
10
9.46738447488019
20
-2.82485427381309
30
0
41
1
10
9.33596719910264
20
-2.80385858272055
30
0
41
1
10
9.07321587926793
20
-2.75180542327027
30
0
41
1
10
8.94186192619685
20
-2.72082180550782
30
0
41
1
10
8.67865025198728
20
-2.64938342608627
30
0
41
1
10
8.54679069051929
20
-2.60896471523932
30
0
41
1
10
8.3482629716874
20
-2.54131841527897
30
0
41
1
10
8.28196617189434
20
-2.5175768357864
30
0
41
1
10
8.14906674024633
20
-2.46764710859011
30
0
41
1
10
8.08238867377031
20
-2.44143996254547
30
0
41
1
10
8.01582233899052
20
-2.41418191245671
30
0
0
SPLINE
5
11D
100
AcDbEntity
8
1
62
256
6
ByLayer
370
18
48
1
60
0
100
AcDbSpline
70
4
71
3
72
34
73
30
40
0
40
0
40
0
40
0
40
0.0453048764518083
40
0.0911059247485745
40
0.137375263328396
40
0.183971870418085
40
0.230783158321049
40
0.277824151552791
40
0.325185958604631
40
0.372984675822879
40
0.421334324484577
40
0.470295492966725
40
0.51977837811435
40
0.569561313779461
40
0.619522293495485
40
0.669704005309278
40
0.72022533385758
40
0.771220596829057
40
0.788589190401963
40
0.806654825877751
40
0.825422406273893
40
0.844894025843376
40
0.865066295431534
40
0.885928925841748
40
0.907465649699156
40
0.929656702931561
40
0.952483006969351
40
0.975931866838355
40
1
40
1
40
1
40
1
41
1
10
20.907414684817
20
-1.66653578743748
30
0
41
1
10
20.9068227957299
20
-1.67186812563645
30
0
41
1
10
20.9056325352801
20
-1.68259120095934
30
0
41
1
10
20.9027412060464
20
-1.69843075636925
30
0
41
1
10
20.8990150683807
20
-1.71413508838572
30
0
41
1
10
20.8943704851966
20
-1.7296133483666
30
0
41
1
10
20.8888290558887
20
-1.74480763818016
30
0
41
1
10
20.8823829546912
20
-1.75967939356184
30
0
41
1
10
20.8750239721716
20
-1.77421630739093
30
0
41
1
10
20.8667324548258
20
-1.78841226205222
30
0
41
1
10
20.857485623661
20
-1.80225356065591
30
0
41
1
10
20.8472718856242
20
-1.8157036529943
30
0
41
1
10
20.836110862113
20
-1.82869887524171
30
0
41
1
10
20.824041980705
20
-1.84116296032221
30
0
41
1
10
20.811102473909
20
-1.85303526988804
30
0
41
1
10
20.7973087573254
20
-1.8642875783172
30
0
41
1
10
20.7826530433529
20
-1.87490867452809
30
0
41
1
10
20.7705879779613
20
-1.88265764742582
30
0
41
1
10
20.7615490426362
20
-1.88800317034497
30
0
41
1
10
20.7557946122971
20
-1.89126191702491
30
0
41
1
10
20.7497261031817
20
-1.8945449670554
30
0
41
1
10
20.7433348239072
20
-1.89784012403456
30
0
41
1
10
20.7366140044361
20
-1.90113386312726
30
0
41
1
10
20.7295592586256
20
-1.90441147513428
30
0
41
1
10
20.7221681412622
20
-1.90765672380485
30
0
41
1
10
20.7144404126782
20
-1.91085389210411
30
0
41
1
10
20.7063725218638
20
-1.91398204529406
30
0
41
1
10
20.6979724762179
20
-1.91704052321657
30
0
41
1
10
20.6921971419228
20
-1.91895713951467
30
0
41
1
10
20.689271840762
20
-1.91992793697767
30
0
0
SPLINE
5
11E
100
AcDbEntity
8
1
62
256
6
ByLayer
370
18
48
1
60
0
100
AcDbSpline
70
4
71
3
72
8
73
4
40
0
40
0
40
0
40
0
40
1
40
1
40
1
40
1
41
1
10
20.7068907996409
20
-1.26238375501964
30
0
41
1
10
20.7070509387036
20
-1.28119860482269
30
0
41
1
10
20.706800187003
20
-1.29899217040517
30
0
41
1
10
20.7063016534572
20
-1.3161698650234
30
0
0
SPLINE
5
11F
100
AcDbEntity
8
1
62
256
6
ByLayer
370
18
48
1
60
0
100
AcDbSpline
70
4
71
3
72
8
73
4
40
0
40
0
40
0
40
0
40
1
40
1
40
1
40
1
41
1
10
20.7068907996389
20
-1.26238375500947
30
0
41
1
10
20.7737405941944
20
-1.39742640935089
30
0
41
1
10
20.840562530853
20
-1.53200101709939
30
0
41
1
10
20.907369566045
20
-1.66632687827899
30
0
0
SPLINE
5
120
100
AcDbEntity
8
1
62
256
6
ByLayer
370
18
48
1
60
0
100
AcDbSpline
70
4
71
3
72
14
73
10
40
0
40
0
40
0
40
0
40
0.25
40
0.25
40
0.5
40
0.5
40
0.75
40
0.75
40
1
40
1
40
1
40
1
41
1
10
20.9073966234622
20
-1.66672506364691
30
0
41
1
10
20.9081442391916
20
-1.66516953447638
30
0
41
1
10
20.9088066636311
20
-1.66331160286512
30
0
41
1
10
20.9099195513127
20
-1.6588433436745
30
0
41
1
10
20.9103682397336
20
-1.65621662054085
30
0
41
1
10
20.910980811542
20
-1.65026613278056
30
0
41
1
10
20.9111504580783
20
-1.6469261189948
30
0
41
1
10
20.9111879716826
20
-1.63944046658918
30
0
41
1
10
20.9110520226832
20
-1.63525739392085
30
0
41
1
10
20.9107588915007
20
-1.6307641055817
30
0
0
SPLINE
5
121
100
AcDbEntity
8
1
62
256
6
ByLayer
370
18
48
1
60
0
100
AcDbSpline
70
4
71
3
72
35
73
31
40
0
40
0
40
0
40
0
40
0.125000000000002
40
0.125000000000002
40
0.156250000000001
40
0.156250000000001
40
0.187499999999999
40
0.187499999999999
40
0.249999999999996
40
0.249999999999996
40
0.312499999999992
40
0.312499999999992
40
0.343749999999997
40
0.343749999999997
40
0.375000000000002
40
0.375000000000002
40
0.500000000000005
40
0.500000000000005
40
0.562500000000007
40
0.562500000000007
40
0.625000000000009
40
0.687500000000011
40
0.687500000000011
40
0.750000000000013
40
0.750000000000013
40
0.875000000000016
40
0.875000000000016
40
0.937500000000008
40
0.937500000000008
40
1
40
1
40
1
40
1
41
1
10
19.8865614100097
20
0.402831013490299
30
0
41
1
10
19.8913948009852
20
0.43173611246192
30
0
41
1
10
19.8992518213599
20
0.460817323629243
30
0
41
1
10
19.9124903912401
20
0.497944132032274
30
0
41
1
10
19.9153121894134
20
0.505406940011085
30
0
41
1
10
19.921307792463
20
0.520416090075628
30
0
41
1
10
19.9244931291883
20
0.527988047506909
30
0
41
1
10
19.9345003513738
20
0.550636676737525
30
0
41
1
10
19.9417419480189
20
0.565593343063995
30
0
41
1
10
19.9573314518316
20
0.595225316292016
30
0
41
1
10
19.9656809523697
20
0.609899091653034
30
0
41
1
10
19.9790451350346
20
0.631687748581697
30
0
41
1
10
19.983640090722
20
0.638913613862201
30
0
41
1
10
19.9931147991538
20
0.653289509770786
30
0
41
1
10
19.9980077013997
20
0.660456963962304
30
0
41
1
10
20.0228841184707
20
0.695663415753501
30
0
41
1
10
20.044269879043
20
0.722119892345063
30
0
41
1
10
20.0784152412674
20
0.759415848675388
30
0
41
1
10
20.0902045886312
20
0.771496512995725
30
0
41
1
10
20.1140411136516
20
0.794364460295128
30
0
41
1
10
20.1382134769649
20
0.816039650966161
30
0
41
1
10
20.163159070628
20
0.835380301066806
30
0
41
1
10
20.1885786022096
20
0.853521101356279
30
0
41
1
10
20.2015748369461
20
0.862015410277735
30
0
41
1
10
20.2407344066615
20
0.88514403715385
30
0
41
1
10
20.2672307364311
20
0.897634659330606
30
0
41
1
10
20.308598994497
20
0.91132757568036
30
0
41
1
10
20.3227192366832
20
0.915050005576433
30
0
41
1
10
20.3515560587347
20
0.920444315603703
30
0
41
1
10
20.3661766526678
20
0.92210560948044
30
0
41
1
10
20.3811316864823
20
0.92258071158264
30
0
0
SPLINE
5
122
100
AcDbEntity
8
1
62
256
6
ByLayer
370
18
48
1
60
0
100
AcDbSpline
70
4
71
3
72
31
73
27
40
0
40
0
40
0
40
0
40
0.124999999999989
40
0.124999999999989
40
0.249999999999978
40
0.249999999999978
40
0.312499999999972
40
0.312499999999972
40
0.374999999999965
40
0.374999999999965
40
0.499999999999953
40
0.499999999999953
40
0.531249999999955
40
0.531249999999955
40
0.562499999999958
40
0.624999999999964
40
0.624999999999964
40
0.68749999999997
40
0.68749999999997
40
0.749999999999976
40
0.749999999999976
40
0.874999999999988
40
0.874999999999988
40
0.937499999999994
40
0.937499999999994
40
1
40
1
40
1
40
1
41
1
10
20.6553179415231
20
1.16383457688934
30
0
41
1
10
20.6691463945529
20
1.14806506797652
30
0
41
1
10
20.6814539645571
20
1.13243904072732
30
0
41
1
10
20.701733405062
20
1.10159597665287
30
0
41
1
10
20.7097187231252
20
1.08637768030329
30
0
41
1
10
20.7169890633304
20
1.06399433104823
30
0
41
1
10
20.7186216633633
20
1.05660781921105
30
0
41
1
10
20.7199505729986
20
1.04201745563597
30
0
41
1
10
20.7196268688062
20
1.03477084657465
30
0
41
1
10
20.71524836278
20
1.0139559895353
30
0
41
1
10
20.7078516523769
20
1.00116653701133
30
0
41
1
10
20.6920780836192
20
0.986764542711171
30
0
41
1
10
20.6885847204093
20
0.983956976887299
30
0
41
1
10
20.6810487519769
20
0.978587166884836
30
0
41
1
10
20.6688936874602
20
0.970869476025712
30
0
41
1
10
20.6542885413022
20
0.964121970988941
30
0
41
1
10
20.6328177563888
20
0.95591617335117
30
0
41
1
10
20.6210639674632
20
0.952203426249298
30
0
41
1
10
20.5958151671731
20
0.945521849131779
30
0
41
1
10
20.5825127398048
20
0.942599777322471
30
0
41
1
10
20.5409269000048
20
0.934870157768586
30
0
41
1
10
20.5109825890737
20
0.931088300433686
30
0
41
1
10
20.463698392687
20
0.926877709711903
30
0
41
1
10
20.4474981655937
20
0.925718820433417
30
0
41
1
10
20.4145959127964
20
0.923836132014316
30
0
41
1
10
20.3979475594314
20
0.923114930139889
30
0
41
1
10
20.3811316864823
20
0.92258071158264
30
0
0
SPLINE
5
123
100
AcDbEntity
8
1
62
256
6
ByLayer
370
18
48
1
60
0
100
AcDbSpline
70
4
71
3
72
8
73
4
40
0
40
0
40
0
40
0
40
1
40
1
40
1
40
1
41
1
10
20.9716356251348
20
0.960437638075916
30
0
41
1
10
20.9722986253634
20
0.964864259440645
30
0
41
1
10
20.9725100767368
20
0.969349343030103
30
0
41
1
10
20.9722845225117
20
0.973891005902914
30
0
0
SPLINE
5
124
100
AcDbEntity
8
1
62
256
6
ByLayer
370
18
48
1
60
0
100
AcDbSpline
70
4
71
3
72
8
73
4
40
0
40
0
40
0
40
0
40
1
40
1
40
1
40
1
41
1
10
20.9652777842503
20
1.00455954443672
30
0
41
1
10
20.9471048199999
20
1.1306756020403
30
0
41
1
10
20.9289318557494
20
1.25679165964385
30
0
41
1
10
20.910758891499
20
1.38290771724741
30
0
0
SPLINE
5
125
100
AcDbEntity
8
1
62
256
6
ByLayer
370
18
48
1
60
0
100
AcDbSpline
70
4
71
3
72
14
73
10
40
0
40
0
40
0
40
0
40
0.25
40
0.25
40
0.5
40
0.5
40
0.75
40
0.75
40
1
40
1
40
1
40
1
41
1
10
20.9073966234623
20
1.42597708610424
30
0
41
1
10
20.9081442391916
20
1.4213051597969
30
0
41
1
10
20.9088066636312
20
1.41680032486187
30
0
41
1
10
20.9099195513127
20
1.40820638865716
30
0
41
1
10
20.9103682397336
20
1.40411308033285
30
0
41
1
10
20.910980811542
20
1.39672413930572
30
0
41
1
10
20.9111504580783
20
1.39338924942831
30
0
41
1
10
20.9111879716826
20
1.38751363357255
30
0
41
1
10
20.9110520226833
20
1.38496220046042
30
0
41
1
10
20.9107588915008
20
1.38290771725011
30
0
0
SPLINE
5
126
100
AcDbEntity
8
1
62
256
6
ByLayer
370
18
48
1
60
0
100
AcDbSpline
70
4
71
3
72
34
73
30
40
0
40
0
40
0
40
0
40
0.0453048764611135
40
0.0911059247674537
40
0.1373752633601
40
0.183971870466962
40
0.230783158388573
40
0.277824151638306
40
0.325185958706929
40
0.372984675941059
40
0.421334324618483
40
0.47029549311762
40
0.519778378285266
40
0.569561313972884
40
0.619522293712139
40
0.66970400554905
40
0.720225334120854
40
0.771220597116635
40
0.788589190667725
40
0.806654826120825
40
0.825422406493387
40
0.84489402603844
40
0.865066295601218
40
0.885928925985156
40
0.907465649815542
40
0.929656703019976
40
0.952483007029117
40
0.975931866868647
40
1
40
1
40
1
40
1
41
1
10
20.9074146848591
20
1.42587805884716
30
0
41
1
10
20.906822795779
20
1.42870202879831
30
0
41
1
10
20.905632535343
20
1.43438089637306
30
0
41
1
10
20.9027412061266
20
1.44323579506783
30
0
41
1
10
20.8990150684756
20
1.45236920987659
30
0
41
1
10
20.894370485303
20
1.46177142339576
30
0
41
1
10
20.8888290560035
20
1.47140528559063
30
0
41
1
10
20.8823829548112
20
1.4812553695449
30
0
41
1
10
20.8750239722941
20
1.49131930920873
30
0
41
1
10
20.8667324549477
20
1.50160260398272
30
0
41
1
10
20.8574856237794
20
1.51210848544605
30
0
41
1
10
20.8472718857358
20
1.52282443763775
30
0
41
1
10
20.8361108622142
20
1.53371119969805
30
0
41
1
10
20.8240419807921
20
1.54471427101055
30
0
41
1
10
20.8111024739789
20
1.55578802469077
30
0
41
1
10
20.7973087573751
20
1.56691195375993
30
0
41
1
10
20.7826530433793
20
1.57808393914016
30
0
41
1
10
20.7705879779705
20
1.58679955434775
30
0
41
1
10
20.7615490426363
20
1.59310577453971
30
0
41
1
10
20.7557946122972
20
1.5970498073379
30
0
41
1
10
20.7497261031819
20
1.60113440079937
30
0
41
1
10
20.7433348239074
20
1.60535731546429
30
0
41
1
10
20.7366140044364
20
1.60971491746673
30
0
41
1
10
20.729559258626
20
1.61420194516177
30
0
41
1
10
20.7221681412626
20
1.61881156082225
30
0
41
1
10
20.7144404126787
20
1.62353623751477
30
0
41
1
10
20.7063725218644
20
1.62836728073233
30
0
41
1
10
20.6979724762186
20
1.63330108042942
30
0
41
1
10
20.6921971419235
20
1.63660313981884
30
0
41
1
10
20.6892718407628
20
1.63827568683882
30
0
0
SPLINE
5
127
100
AcDbEntity
8
1
62
256
6
ByLayer
370
18
48
1
60
0
100
AcDbSpline
70
4
71
3
72
26
73
22
40
0
40
0
40
0
40
0
40
0.125000000000004
40
0.125000000000004
40
0.250000000000008
40
0.250000000000008
40
0.375000000000013
40
0.375000000000013
40
0.437500000000015
40
0.437500000000015
40
0.500000000000017
40
0.500000000000017
40
0.625000000000021
40
0.625000000000021
40
0.750000000000026
40
0.750000000000026
40
0.87500000000003
40
0.87500000000003
40
0.937500000000015
40
0.937500000000015
40
1
40
1
40
1
40
1
41
1
10
20.9722845225116
20
0.973891005902914
30
0
41
1
10
20.9703404999758
20
0.982643409507006
30
0
41
1
10
20.9667450914181
20
0.991643033861607
30
0
41
1
10
20.955967118394
20
1.01017929775941
30
0
41
1
10
20.9489149936069
20
1.0195001184502
30
0
41
1
10
20.9316537227752
20
1.03811610237145
30
0
41
1
10
20.9214343533683
20
1.04743251162031
30
0
41
1
10
20.9036620827599
20
1.06142006992883
30
0
41
1
10
20.8972977839562
20
1.06610602807112
30
0
41
1
10
20.88390245964
20
1.07535560652437
30
0
41
1
10
20.8768779756168
20
1.07991922633855
30
0
41
1
10
20.8548639995446
20
1.09343405318691
30
0
41
1
10
20.8389408789367
20
1.10221051820872
30
0
41
1
10
20.8046058721345
20
1.11929763997838
30
0
41
1
10
20.7860467067617
20
1.12765331196016
30
0
41
1
10
20.7475832652862
20
1.14340815288833
30
0
41
1
10
20.7275850775004
20
1.15086560233431
30
0
41
1
10
20.6964656178253
20
1.16143690044598
30
0
41
1
10
20.6859047284056
20
1.16485780001113
30
0
41
1
10
20.6644139130366
20
1.1714973926056
30
0
41
1
10
20.6534664667062
20
1.17471952816939
30
0
41
1
10
20.6424913074281
20
1.17779476632717
30
0
0
SPLINE
5
128
100
AcDbEntity
8
1
62
256
6
ByLayer
370
18
48
1
60
0
100
AcDbSpline
70
4
71
3
72
30
73
26
40
0
40
0
40
0
40
0
40
0.125000000000009
40
0.125000000000009
40
0.187500000000001
40
0.187500000000001
40
0.249999999999993
40
0.249999999999993
40
0.375000000000001
40
0.375000000000001
40
0.437500000000005
40
0.437500000000005
40
0.500000000000009
40
0.500000000000009
40
0.625000000000018
40
0.625000000000018
40
0.687500000000014
40
0.687500000000014
40
0.750000000000011
40
0.750000000000011
40
0.875000000000005
40
0.875000000000005
40
0.937500000000003
40
0.937500000000003
40
1
40
1
40
1
40
1
41
1
10
20.5338021323224
20
1.28770187091735
30
0
41
1
10
20.5626169931963
20
1.27813622462307
30
0
41
1
10
20.5909542915114
20
1.26772373416128
30
0
41
1
10
20.6327483262081
20
1.2508553595282
30
0
41
1
10
20.6465839821482
20
1.24501580331071
30
0
41
1
10
20.6739161862305
20
1.23295398352786
30
0
41
1
10
20.687256909861
20
1.22679773156892
30
0
41
1
10
20.7263233793387
20
1.20795985843605
30
0
41
1
10
20.7511071713306
20
1.19493017711989
30
0
41
1
10
20.7863438491947
20
1.17461981773954
30
0
41
1
10
20.7978050179497
20
1.16769250788511
30
0
41
1
10
20.8198716192234
20
1.15368951586529
30
0
41
1
10
20.8303935548451
20
1.14666478743686
30
0
41
1
10
20.8604563559621
20
1.12556568432581
30
0
41
1
10
20.8785031182886
20
1.11141606275814
30
0
41
1
10
20.9025162828738
20
1.08995572291025
30
0
41
1
10
20.9100449878894
20
1.08273218361686
30
0
41
1
10
20.9238106645325
20
1.06845263625962
30
0
41
1
10
20.9300548675152
20
1.06139008714172
30
0
41
1
10
20.9469086120002
20
1.0404017704694
30
0
41
1
10
20.9556528729576
20
1.02667626536783
30
0
41
1
10
20.9649238113892
20
1.00641157315746
30
0
41
1
10
20.9673667426666
20
0.999702783374516
30
0
41
1
10
20.9708537945978
20
0.986607141426163
30
0
41
1
10
20.9719111222401
20
0.980193863023857
30
0
41
1
10
20.9722845225117
20
0.973891005902971
30
0
0
SPLINE
5
129
100
AcDbEntity
8
1
62
256
6
ByLayer
370
18
48
1
60
0
100
AcDbSpline
70
4
71
5
72
34
73
28
40
0
40
0
40
0
40
0
40
0
40
0
40
0.0426991523337208
40
0.0937177215897018
40
0.127730101093689
40
0.17874867034967
40
0.212761049853658
40
0.263779619109639
40
0.297791998613626
40
0.348810567869607
40
0.399829137125589
40
0.433841516629576
40
0.484860085885557
40
0.518872465389545
40
0.569891034645526
40
0.603903414149514
40
0.654921983405495
40
0.705940552661476
40
0.739952932165463
40
0.77396531166945
40
0.824983880925432
40
0.876002450181413
40
0.9100148296854
40
0.961033398941381
40
1
40
1
40
1
40
1
40
1
40
1
41
1
10
14.497855189912
20
2.59509755311234
30
0
41
1
10
14.5504388779009
20
2.61220946375451
30
0
41
1
10
14.6658515538386
20
2.64843213806384
30
0
41
1
10
14.8231502217421
20
2.69376287940727
30
0
41
1
10
15.0432778775944
20
2.74932744355692
30
0
41
1
10
15.3052915254126
20
2.80203137758912
30
0
41
1
10
15.5775504731906
20
2.84324441557382
30
0
41
1
10
15.8288664249857
20
2.86861289965532
30
0
41
1
10
16.1011253727637
20
2.88222874589488
30
0
41
1
10
16.3733843205417
20
2.88191884874979
30
0
41
1
10
16.6456432683198
20
2.86629232451258
30
0
41
1
10
16.9179022160978
20
2.83681215619106
30
0
41
1
10
17.1901611638758
20
2.79226122449356
30
0
41
1
10
17.4624201116538
20
2.73423032945053
30
0
41
1
10
17.7137360634489
20
2.66845267666292
30
0
41
1
10
17.9859950112269
20
2.58431838468189
30
0
41
1
10
18.2582539590049
20
2.48767389362726
30
0
41
1
10
18.530512906783
20
2.37779490268207
30
0
41
1
10
18.781828858578
20
2.26575959692957
30
0
41
1
10
19.0540878063561
20
2.13350254356985
30
0
41
1
10
19.3263467541341
20
1.99093810961443
30
0
41
1
10
19.5776627059292
20
1.85039229524719
30
0
41
1
10
19.8499216537072
20
1.68919083351682
30
0
41
1
10
20.1282816884207
20
1.51522202435822
30
0
41
1
10
20.3438127351853
20
1.37457486803413
30
0
41
1
10
20.4965147940012
20
1.2722711704271
30
0
41
1
10
20.6073308608512
20
1.19676045411919
30
0
41
1
10
20.6553179397525
20
1.16383456800392
30
0
0
SPLINE
5
12A
100
AcDbEntity
8
1
62
256
6
ByLayer
370
18
48
1
60
0
100
AcDbSpline
70
4
71
3
72
8
73
4
40
0
40
0
40
0
40
0
40
1
40
1
40
1
40
1
41
1
10
20.6424913074275
20
1.17779476632734
30
0
41
1
10
20.6469048707594
20
1.17313935986542
30
0
41
1
10
20.6511849260681
20
1.16848590020936
30
0
41
1
10
20.6553179101812
20
1.16383458589621
30
0
0
SPLINE
5
12B
100
AcDbEntity
8
1
62
256
6
ByLayer
370
18
48
1
60
0
100
AcDbSpline
70
4
71
3
72
8
73
4
40
0
40
0
40
0
40
0
40
1
40
1
40
1
40
1
41
1
10
6.14589167482808
20
1.97646196250088
30
0
41
1
10
6.2914500191502
20
1.90409578970042
30
0
41
1
10
6.43930982059953
20
1.82927366697976
30
0
41
1
10
6.58978192904328
20
1.75311650699135
30
0
0
SPLINE
5
12C
100
AcDbEntity
8
1
62
256
6
ByLayer
370
18
48
1
60
0
100
AcDbSpline
70
4
71
2
72
6
73
3
40
0
40
0
40
0
40
1
40
1
40
1
41
1
10
6.14589167482808
20
1.97646196250088
30
0
41
1
10
5.872945839724
20
1.9879278775484
30
0
41
1
10
5.60000000461989
20
1.99939379259592
30
0
0
SPLINE
5
12D
100
AcDbEntity
8
1
62
256
6
ByLayer
370
18
48
1
60
0
100
AcDbSpline
70
4
71
3
72
10
73
6
40
0
40
0
40
0
40
0
40
0.5
40
0.5
40
1
40
1
40
1
40
1
41
1
10
5.86035110418118
20
1.20643227393305
30
0
41
1
10
5.81950217563608
20
1.23144557329994
30
0
41
1
10
5.77738627165661
20
1.25440366868622
30
0
41
1
10
5.6906335815861
20
1.29639960746203
30
0
41
1
10
5.64599853626294
20
1.31543931574979
30
0
41
1
10
5.60000000441212
20
1.33244364331645
30
0
0
SPLINE
5
12E
100
AcDbEntity
8
1
62
256
6
ByLayer
370
18
48
1
60
0
100
AcDbSpline
70
4
71
3
72
8
73
4
40
0
40
0
40
0
40
0
40
1
40
1
40
1
40
1
41
1
10
20.4808220462822
20
1.30355962007709
30
0
41
1
10
20.4983432219109
20
1.29755666154918
30
0
41
1
10
20.5160069663699
20
1.29228975660539
30
0
41
1
10
20.5338021323221
20
1.28770187091652
30
0
0
SPLINE
5
12F
100
AcDbEntity
8
1
62
256
6
ByLayer
370
18
48
1
60
0
100
AcDbSpline
70
4
71
3
72
24
73
20
40
0
40
0
40
0
40
0
40
0.031250000000001
40
0.031250000000001
40
0.062500000000002
40
0.062500000000002
40
0.125000000000003
40
0.125000000000003
40
0.187500000000003
40
0.187500000000003
40
0.250000000000004
40
0.250000000000004
40
0.375000000000007
40
0.375000000000007
40
0.500000000000009
40
0.500000000000009
40
0.750000000000005
40
0.750000000000005
40
1
40
1
40
1
40
1
41
1
10
20.5338021323223
20
1.28770187091743
30
0
41
1
10
20.538045927754
20
1.28975655418515
30
0
41
1
10
20.5418646964389
20
1.29244865738636
30
0
41
1
10
20.5487115762334
20
1.29827746112457
30
0
41
1
10
20.5517809671949
20
1.30143722524667
30
0
41
1
10
20.5603842850712
20
1.31132624889011
30
0
41
1
10
20.5653312588625
20
1.31847378541187
30
0
41
1
10
20.574357365744
20
1.33291423273653
30
0
41
1
10
20.578451303259
20
1.34027356441987
30
0
41
1
10
20.5861864068939
20
1.35511691752313
30
0
41
1
10
20.5898199663121
20
1.36260395252029
30
0
41
1
10
20.6002769797756
20
1.38515786045355
30
0
41
1
10
20.6066673691003
20
1.40031329926046
30
0
41
1
10
20.6188583184245
20
1.43063308096316
30
0
41
1
10
20.6246393051896
20
1.44578684949411
30
0
41
1
10
20.6413422617151
20
1.49103958190682
30
0
41
1
10
20.6516456425979
20
1.52096444789819
30
0
41
1
10
20.6712241943725
20
1.58013333061848
30
0
41
1
10
20.6804841431795
20
1.60938191942023
30
0
41
1
10
20.6892916302745
20
1.63826444104339
30
0
0
SPLINE
5
130
100
AcDbEntity
8
1
62
256
6
ByLayer
370
18
48
1
60
0
100
AcDbSpline
70
4
71
3
72
10
73
6
40
0
40
0
40
0
40
0
40
0.5
40
0.5
40
1
40
1
40
1
40
1
41
1
10
20.6892376374182
20
1.6382958899176
30
0
41
1
10
20.6859298221057
20
1.70939057353863
30
0
41
1
10
20.6879985685591
20
1.776905869643
30
0
41
1
10
20.692288467464
20
1.9056386694175
30
0
41
1
10
20.6943741100852
20
1.96686516822464
30
0
41
1
10
20.6916272658948
20
2.02522350669753
30
0
0
SPLINE
5
131
100
AcDbEntity
8
1
62
256
6
ByLayer
370
18
48
1
60
0
100
AcDbSpline
70
4
71
3
72
18
73
14
40
0
40
0
40
0
40
0
40
0.308618167660324
40
0.308618167660324
40
0.617236335320648
40
0.617236335320648
40
0.694390877235729
40
0.694390877235729
40
0.77154541915081
40
0.77154541915081
40
0.925854502980977
40
0.925854502980977
40
1
40
1
40
1
40
1
41
1
10
20.6916272658948
20
2.02522350669753
30
0
41
1
10
20.4265985550444
20
2.16514530974831
30
0
41
1
10
20.1638593074168
20
2.28900559919765
30
0
41
1
10
19.6379716453507
20
2.5029779087152
30
0
41
1
10
19.374844979316
20
2.59326803491933
30
0
41
1
10
19.0432649808036
20
2.68324524593021
30
0
41
1
10
18.9768156770081
20
2.7000884642147
30
0
41
1
10
18.8435862030706
20
2.73138238702052
30
0
41
1
10
18.777060805941
20
2.74577266235244
30
0
41
1
10
18.5780147566203
20
2.78512858103377
30
0
41
1
10
18.4458598035247
20
2.80633144308459
30
0
41
1
10
18.2506370254143
20
2.83028296394349
30
0
41
1
10
18.1873451162855
20
2.83689418317292
30
0
41
1
10
18.1240936507446
20
2.84234333000921
30
0
0
SPLINE
5
132
100
AcDbEntity
8
1
62
256
6
ByLayer
370
18
48
1
60
0
100
AcDbSpline
70
4
71
3
72
26
73
22
40
0
40
0
40
0
40
0
40
0.0312499999999864
40
0.0312499999999864
40
0.0624999999999728
40
0.0624999999999728
40
0.124999999999975
40
0.124999999999975
40
0.187499999999976
40
0.187499999999976
40
0.249999999999978
40
0.249999999999978
40
0.374999999999982
40
0.374999999999982
40
0.499999999999986
40
0.499999999999986
40
0.624999999999989
40
0.624999999999989
40
0.749999999999993
40
0.749999999999993
40
1
40
1
40
1
40
1
41
1
10
4.93091205950009
20
2.71819901899548
30
0
41
1
10
4.93798808994515
20
2.71754180613135
30
0
41
1
10
4.94518015200038
20
2.71694668311909
30
0
41
1
10
4.95959227809735
20
2.71588479705551
30
0
41
1
10
4.96681844077585
20
2.71541697095191
30
0
41
1
10
4.98855015287342
20
2.71418284888443
30
0
41
1
10
5.00310857904466
20
2.71358499753208
30
0
41
1
10
5.03234095077522
20
2.7127639112594
30
0
41
1
10
5.04701508019687
20
2.71254115966593
30
0
41
1
10
5.0764629239832
20
2.71242073825925
30
0
41
1
10
5.09127567382504
20
2.71252405642869
30
0
41
1
10
5.13556768141245
20
2.71326270693837
30
0
41
1
10
5.16470831275194
20
2.7143146061793
30
0
41
1
10
5.22238714971652
20
2.71725740104353
30
0
41
1
10
5.25092313300499
20
2.71915120209729
30
0
41
1
10
5.30747686916018
20
2.72360854109988
30
0
41
1
10
5.33549379392292
20
2.72617321924113
30
0
41
1
10
5.3910553593368
20
2.73184763705638
30
0
41
1
10
5.41839860621906
20
2.73493792454232
30
0
41
1
10
5.49872213393277
20
2.74472068140634
30
0
41
1
10
5.55025403254587
20
2.75194481377144
30
0
41
1
10
5.60000000802037
20
2.75949009412017
30
0
0
SPLINE
5
133
100
AcDbEntity
8
1
62
256
6
ByLayer
370
18
48
1
60
0
100
AcDbSpline
70
4
71
3
72
23
73
19
40
0
40
0
40
0
40
0
40
0.12500000000004
40
0.12500000000004
40
0.187500000000045
40
0.187500000000045
40
0.250000000000051
40
0.250000000000051
40
0.375000000000062
40
0.375000000000062
40
0.500000000000072
40
0.500000000000072
40
0.562500000000063
40
0.562500000000063
40
0.625000000000054
40
0.750000000000036
40
0.750000000000036
40
1
40
1
40
1
40
1
41
1
10
4.93091205950006
20
1.53100733040441
30
0
41
1
10
4.95927123006919
20
1.53839829926125
30
0
41
1
10
4.98822243443661
20
1.542668922426
30
0
41
1
10
5.03222443993212
20
1.54607369532829
30
0
41
1
10
5.04702498514069
20
1.54668987524889
30
0
41
1
10
5.07664795125424
20
1.54701743929525
30
0
41
1
10
5.09138156034953
20
1.54673026558052
30
0
41
1
10
5.1353839568396
20
1.54471891456728
30
0
41
1
10
5.16445623393696
20
1.54185636397895
30
0
41
1
10
5.22218290605843
20
1.53369282350911
30
0
41
1
10
5.2508359794316
20
1.52838401861956
30
0
41
1
10
5.29354149832486
20
1.51879904347877
30
0
41
1
10
5.30775445800464
20
1.51532497886427
30
0
41
1
10
5.33587313097769
20
1.50791402438401
30
0
41
1
10
5.377656058469
20
1.49608980610191
30
0
41
1
10
5.41833841167536
20
1.48227358160028
30
0
41
1
10
5.49837904367612
20
1.45218846447128
30
0
41
1
10
5.54998597188319
20
1.42888416003063
30
0
41
1
10
5.60000000802006
20
1.40247017164765
30
0
0
SPLINE
5
134
100
AcDbEntity
8
1
62
256
6
ByLayer
370
18
48
1
60
0
100
AcDbSpline
70
4
71
3
72
58
73
54
40
0
40
0
40
0
40
0
40
0.124999999999988
40
0.124999999999988
40
0.249999999999976
40
0.249999999999976
40
0.281249999999973
40
0.281249999999973
40
0.31249999999997
40
0.31249999999997
40
0.374999999999968
40
0.374999999999968
40
0.437499999999966
40
0.437499999999966
40
0.499999999999964
40
0.499999999999964
40
0.515624999999964
40
0.515624999999964
40
0.531249999999964
40
0.531249999999964
40
0.562499999999968
40
0.562499999999968
40
0.593749999999971
40
0.593749999999971
40
0.624999999999974
40
0.624999999999974
40
0.656249999999978
40
0.656249999999978
40
0.687499999999981
40
0.687499999999981
40
0.703124999999982
40
0.703124999999982
40
0.718749999999984
40
0.718749999999984
40
0.749999999999987
40
0.749999999999987
40
0.78124999999999
40
0.78124999999999
40
0.796874999999994
40
0.796874999999994
40
0.812499999999997
40
0.812499999999997
40
0.843750000000003
40
0.843750000000003
40
0.875000000000009
40
0.875000000000009
40
0.89062500000001
40
0.89062500000001
40
0.906250000000011
40
0.906250000000011
40
0.937500000000007
40
0.937500000000007
40
1
40
1
40
1
40
1
41
1
10
5.6000000104826
20
-0.971122866009409
30
0
41
1
10
5.48999306285558
20
-0.883436263276479
30
0
41
1
10
5.38174564330998
20
-0.792635312224292
30
0
41
1
10
5.16926374674711
20
-0.603941218759161
30
0
41
1
10
5.06500785594886
20
-0.5060784510421
30
0
41
1
10
4.93806187225113
20
-0.378034789858617
30
0
41
1
10
4.91284473164211
20
-0.352135721688967
30
0
41
1
10
4.86279334728277
20
-0.299701386690941
30
0
41
1
10
4.83792446398786
20
-0.273127966345015
30
0
41
1
10
4.76427612650704
20
-0.192691928791788
30
0
41
1
10
4.7164475848748
20
-0.138128688678307
30
0
41
1
10
4.62391682569796
20
-0.0266860204474995
30
0
41
1
10
4.57920763002698
20
0.0301881870129819
30
0
41
1
10
4.49384428415462
20
0.146947193763111
30
0
41
1
10
4.45317337580789
20
0.206819451489054
30
0
41
1
10
4.40587067686616
20
0.284290427558034
30
0
41
1
10
4.39658945636123
20
0.299918042886873
30
0
41
1
10
4.37842346807855
20
0.331468399775218
30
0
41
1
10
4.36952552399651
20
0.34741594713762
30
0
41
1
10
4.34360674095066
20
0.395539727739589
30
0
41
1
10
4.32736388982315
20
0.427974662422457
30
0
41
1
10
4.29735301845096
20
0.493704781160062
30
0
41
1
10
4.28358241667138
20
0.526998954423703
30
0
41
1
10
4.25907737737708
20
0.594664830401371
30
0
41
1
10
4.24832802419834
20
0.629153080287637
30
0
41
1
10
4.23098584812317
20
0.698062036010668
30
0
41
1
10
4.22432914329713
20
0.73262191224822
30
0
41
1
10
4.21581747645158
20
0.802040524875252
30
0
41
1
10
4.2139570024658
20
0.836898605172564
30
0
41
1
10
4.21558761423574
20
0.889503460160881
30
0
41
1
10
4.21687606590854
20
0.906994933400597
30
0
41
1
10
4.22097105352097
20
0.941418506176689
30
0
41
1
10
4.22377898382877
20
0.958420396299772
30
0
41
1
10
4.23455089700281
20
1.00879276255336
30
0
41
1
10
4.24487920726764
20
1.04157799669633
30
0
41
1
10
4.2721509039425
20
1.10523224430057
30
0
41
1
10
4.28869511182799
20
1.13520462499216
30
0
41
1
10
4.31745840295187
20
1.17771235904615
30
0
41
1
10
4.32770539362326
20
1.19147209076922
30
0
41
1
10
4.349463333708
20
1.21821684900831
30
0
41
1
10
4.36102509403747
20
1.23125268331273
30
0
41
1
10
4.39712170363669
20
1.26883545781445
30
0
41
1
10
4.42297563662459
20
1.29182658105586
30
0
41
1
10
4.47762420136306
20
1.33448976596446
30
0
41
1
10
4.50642226634284
20
1.35415743397405
30
0
41
1
10
4.55150434326438
20
1.38157586188453
30
0
41
1
10
4.56687119335177
20
1.39037947743364
30
0
41
1
10
4.59808729224579
20
1.40728454510642
30
0
41
1
10
4.61386798497699
20
1.41535086884468
30
0
41
1
10
4.66167653241897
20
1.43851639016765
30
0
41
1
10
4.69416862822538
20
1.45258759620688
30
0
41
1
10
4.79319803367449
20
1.49142604570599
30
0
41
1
10
4.86127219116744
20
1.51285778344365
30
0
41
1
10
4.93091205949975
20
1.53100733040532
30
0
0
SPLINE
5
135
100
AcDbEntity
8
1
62
256
6
ByLayer
370
18
48
1
60
0
100
AcDbSpline
70
4
71
3
72
8
73
4
40
0
40
0
40
0
40
0
40
1
40
1
40
1
40
1
41
1
10
5.60000000496393
20
-0.943902098163647
30
0
41
1
10
5.65716169539326
20
-0.926149729695084
30
0
41
1
10
5.71813611707398
20
-0.909433820129522
30
0
41
1
10
5.78241291419181
20
-0.893615633534012
30
0
0
SPLINE
5
136
100
AcDbEntity
8
1
62
256
6
ByLayer
370
18
48
1
60
0
100
AcDbSpline
70
4
71
3
72
12
73
8
40
0
40
0
40
0
40
0
40
0.500000000000008
40
0.500000000000008
40
0.750000000000004
40
0.750000000000004
40
1
40
1
40
1
40
1
41
1
10
5.78241291419187
20
-0.89361563353404
30
0
41
1
10
5.90702379349648
20
-0.993821743304323
30
0
41
1
10
6.03405060225961
20
-1.08869170629038
30
0
41
1
10
6.22805377408793
20
-1.22377330847996
30
0
41
1
10
6.29330603562494
20
-1.26758488777787
30
0
41
1
10
6.42502128663091
20
-1.35280601456756
30
0
41
1
10
6.49138295988899
20
-1.39414806123244
30
0
41
1
10
6.55820853995181
20
-1.43419033331256
30
0
0
SPLINE
5
137
100
AcDbEntity
8
1
62
256
6
ByLayer
370
18
48
1
60
0
100
AcDbSpline
70
4
71
3
72
54
73
50
40
0
40
0
40
0
40
0
40
0.0141916804395688
40
0.028446797234964
40
0.0427665772451497
40
0.0571522309381375
40
0.0716049523999337
40
0.0861259193568071
40
0.100716293210282
40
0.115377219084286
40
0.130109825883871
40
0.144915226364784
40
0.159794517213592
40
0.174748779137459
40
0.189779076963266
40
0.204886459745462
40
0.222766131202478
40
0.24102320573936
40
0.259659238045369
40
0.278675689090727
40
0.298073933100785
40
0.317855263921201
40
0.33802090083327
40
0.358571993872213
40
0.379509628696235
40
0.400834831048599
40
0.422548570851542
40
0.444651765965718
40
0.46714528564671
40
0.490029953725904
40
0.513306551540948
40
0.536975820638191
40
0.561038465267627
40
0.585495154688051
40
0.610346525299743
40
0.63559318261896
40
0.661235703107998
40
0.687274635873057
40
0.713710504240955
40
0.740543807224742
40
0.767775020887274
40
0.795404599611269
40
0.823432977282999
40
0.851860568397017
40
0.88068776908763
40
0.90991495809331
40
0.939542497659009
40
0.969570734381182
40
1
40
1
40
1
40
1
41
1
10
6.55887503362089
20
-1.43398828803387
30
0
41
1
10
6.56398121075389
20
-1.4324335255979
30
0
41
1
10
6.57421638946769
20
-1.42931705098775
30
0
41
1
10
6.58959774817484
20
-1.42434347249855
30
0
41
1
10
6.60504501521712
20
-1.4191373813081
30
0
41
1
10
6.62055946703799
20
-1.41367691669748
30
0
41
1
10
6.63614296567249
20
-1.40796683907183
30
0
41
1
10
6.65179719153883
20
-1.40200477784387
30
0
41
1
10
6.66752384861303
20
-1.39579033969125
30
0
41
1
10
6.68332460733964
20
-1.38932265343715
30
0
41
1
10
6.69920111783398
20
-1.38260103412091
30
0
41
1
10
6.71515500573236
20
-1.37562480879541
30
0
41
1
10
6.73118786648539
20
-1.36839335578423
30
0
41
1
10
6.74730128337256
20
-1.36090613446393
30
0
41
1
10
6.76349675133048
20
-1.35316253672556
30
0
41
1
10
6.78074364970885
20
-1.34468691444493
30
0
41
1
10
6.79915001572726
20
-1.33537609663728
30
0
41
1
10
6.81882952895847
20
-1.32512758639217
30
0
41
1
10
6.83892953115696
20
-1.31437341267932
30
0
41
1
10
6.85945781307703
20
-1.30310985235764
30
0
41
1
10
6.8804222076395
20
-1.29133355649455
30
0
41
1
10
6.90183045215937
20
-1.27904139251643
30
0
41
1
10
6.92369019992645
20
-1.26623052041594
30
0
41
1
10
6.94600898952282
20
-1.25289840520856
30
0
41
1
10
6.96879422478173
20
-1.23904284786559
30
0
41
1
10
6.99205315077884
20
-1.2246620120126
30
0
41
1
10
7.01579282988234
20
-1.20975445264264
30
0
41
1
10
7.04002011674595
20
-1.19431914509613
30
0
41
1
10
7.06474163255481
20
-1.17835551476784
30
0
41
1
10
7.08996373843877
20
-1.1618634673826
30
0
41
1
10
7.1156925080827
20
-1.14484341985252
30
0
41
1
10
7.14193369953261
20
-1.1272963316741
30
0
41
1
10
7.16869272621045
20
-1.10922373683829
30
0
41
1
10
7.19597462714592
20
-1.09062777621142
30
0
41
1
10
7.22378403644487
20
-1.07151123035379
30
0
41
1
10
7.25212515200639
20
-1.05187755272627
30
0
41
1
10
7.28100170351843
20
-1.0317309032385
30
0
41
1
10
7.31041691973428
20
-1.01107618209846
30
0
41
1
10
7.34037349513611
20
-0.989919063855297
30
0
41
1
10
7.37087355572436
20
-0.968266031775528
30
0
41
1
10
7.40191862508343
20
-0.946124411723304
30
0
41
1
10
7.4335095865145
20
-0.923502408390362
30
0
41
1
10
7.46564665748724
20
-0.900409132686804
30
0
41
1
10
7.4983293146492
20
-0.876854662586084
30
0
41
1
10
7.53155640509604
20
-0.85284997582113
30
0
41
1
10
7.56532554581923
20
-0.828407369916221
30
0
41
1
10
7.59963523356018
20
-0.803539023981955
30
0
41
1
10
7.63447662922462
20
-0.778262636691409
30
0
41
1
10
7.65791310878581
20
-0.761253838679352
30
0
41
1
10
7.66970907841943
20
-0.752693027985487
30
0
0
SPLINE
5
138
100
AcDbEntity
8
1
62
256
6
ByLayer
370
18
48
1
60
0
100
AcDbSpline
70
4
71
3
72
32
73
28
40
0
40
0
40
0
40
0
40
0.0157348258975874
40
0.0495623516366559
40
0.0840062026228454
40
0.119067834830872
40
0.154748627134662
40
0.191049886353093
40
0.22797285189855
40
0.265518700063649
40
0.303688547978928
40
0.342483457269432
40
0.381904437437754
40
0.421952448996078
40
0.462628406369173
40
0.503933180587649
40
0.545867601789082
40
0.588432461542794
40
0.631628515012987
40
0.675456482973235
40
0.719917053684285
40
0.765010884646328
40
0.8107386042353
40
0.857100813232597
40
0.904098086256495
40
0.951730973102478
40
1
40
1
40
1
40
1
41
1
10
6.95786117199162
20
1.53832731958835
30
0
41
1
10
6.96145961814298
20
1.53673456073716
30
0
41
1
10
6.9727999500669
20
1.53176460899093
30
0
41
1
10
6.99205315077887
20
1.52359220581624
30
0
41
1
10
7.01579282988234
20
1.51396750108236
30
0
41
1
10
7.04002011674598
20
1.50461533642201
30
0
41
1
10
7.06474163255484
20
1.49556078829121
30
0
41
1
10
7.08996373843877
20
1.48682946787625
30
0
41
1
10
7.1156925080827
20
1.4784475099506
30
0
41
1
10
7.14193369953261
20
1.47044156021249
30
0
41
1
10
7.16869272621045
20
1.46283876102751
30
0
41
1
10
7.19597462714592
20
1.45566673550198
30
0
41
1
10
7.22378403644487
20
1.44895356981533
30
0
41
1
10
7.25212515200641
20
1.44272779371767
30
0
41
1
10
7.28100170351846
20
1.43701835919575
30
0
41
1
10
7.31041691973431
20
1.43185461693415
30
0
41
1
10
7.34037349513613
20
1.42726629163781
30
0
41
1
10
7.37087355572436
20
1.42328345179536
30
0
41
1
10
7.40191862508343
20
1.41993649040592
30
0
41
1
10
7.43350958651453
20
1.41725605328315
30
0
41
1
10
7.46564665748727
20
1.41527315639118
30
0
41
1
10
7.4983293146492
20
1.41401857111936
30
0
41
1
10
7.53155640509604
20
1.41352498870771
30
0
41
1
10
7.56532554581923
20
1.41381858126283
30
0
41
1
10
7.59963523356021
20
1.41495095015594
30
0
41
1
10
7.63447662922462
20
1.41687722452494
30
0
41
1
10
7.65791310878583
20
1.41889237960618
30
0
41
1
10
7.66970907841943
20
1.41990664064664
30
0
0
SPLINE
5
139
100
AcDbEntity
8
1
62
256
6
ByLayer
370
18
48
1
60
0
100
AcDbSpline
70
4
71
3
72
8
73
4
40
0
40
0
40
0
40
0
40
1
40
1
40
1
40
1
41
1
10
6.59154940449224
20
1.75256696171374
30
0
41
1
10
6.87660055535824
20
1.60888743792344
30
0
41
1
10
7.15991641017422
20
1.45136052903459
30
0
41
1
10
7.44330858859158
20
1.28149824012721
30
0
0
SPLINE
5
13A
100
AcDbEntity
8
1
62
256
6
ByLayer
370
18
48
1
60
0
100
AcDbSpline
70
4
71
3
72
15
73
11
40
0
40
0
40
0
40
0
40
0.25
40
0.25
40
0.499999999999999
40
0.499999999999999
40
0.749999999999999
40
0.749999999999999
40
0.874999999999999
40
1
40
1
40
1
40
1
41
1
10
20.6118213320104
20
-0.43022167518231
30
0
41
1
10
20.6212287874797
20
-0.505224841821558
30
0
41
1
10
20.6302443451838
20
-0.579738614244292
30
0
41
1
10
20.6473147150979
20
-0.727337563120955
30
0
41
1
10
20.6553617184192
20
-0.800282608604846
30
0
41
1
10
20.6699811634847
20
-0.94359188125847
30
0
41
1
10
20.6765059579622
20
-1.01387271486871
30
0
41
1
10
20.6851086657569
20
-1.11722084887751
30
0
41
1
10
20.6904446871191
20
-1.18542105901605
30
0
41
1
10
20.6948897582504
20
-1.25206190350377
30
0
41
1
10
20.6968185117682
20
-1.28486814031027
30
0
0
SPLINE
5
13B
100
AcDbEntity
8
1
62
256
6
ByLayer
370
18
48
1
60
0
100
AcDbSpline
70
4
71
3
72
12
73
8
40
0
40
0
40
0
40
0
40
0.5
40
0.5
40
0.75
40
0.75
40
1
40
1
40
1
40
1
41
1
10
20.0367596455995
20
0.0559310794182011
30
0
41
1
10
20.1318833123697
20
-0.0233852840007387
30
0
41
1
10
20.2273753599361
20
-0.103574603803679
30
0
41
1
10
20.3711485460959
20
-0.225126651473374
30
0
41
1
10
20.4191621970215
20
-0.265855510615211
30
0
41
1
10
20.515365886938
20
-0.347731217808786
30
0
41
1
10
20.5635971505916
20
-0.388913403082398
30
0
41
1
10
20.6118213320096
20
-0.430221675182651
30
0
0
SPLINE
5
13C
100
AcDbEntity
8
1
62
256
6
ByLayer
370
18
48
1
60
0
100
AcDbSpline
70
4
71
3
72
20
73
16
40
0
40
0
40
0
40
0
40
0.250000000000015
40
0.250000000000015
40
0.375000000000008
40
0.375000000000008
40
0.500000000000002
40
0.624999999999996
40
0.624999999999996
40
0.687499999999998
40
0.687499999999998
40
0.75
40
0.875
40
0.875
40
1
40
1
40
1
40
1
41
1
10
20.0367596455988
20
0.0559310794168368
30
0
41
1
10
20.0087919455626
20
0.0792512092581603
30
0
41
1
10
19.9838710545639
20
0.104435428325274
30
0
41
1
10
19.9515696592943
20
0.145362662937686
30
0
41
1
10
19.941603102237
20
0.159642547147826
30
0
41
1
10
19.9240344366224
20
0.188553784760074
30
0
41
1
10
19.9087035753179
20
0.217930135468322
30
0
41
1
10
19.8978179898426
20
0.248316172995942
30
0
41
1
10
19.8913666102058
20
0.271536085040793
30
0
41
1
10
19.8895108939217
20
0.279325533721618
30
0
41
1
10
19.8864171713311
20
0.294827530370014
30
0
41
1
10
19.8826816576674
20
0.318044432023584
30
0
41
1
10
19.8815716196885
20
0.341191106472081
30
0
41
1
10
19.8823630018492
20
0.37204865587185
30
0
41
1
10
19.8839084823633
20
0.38752625226121
30
0
41
1
10
19.8865614100097
20
0.402831013490299
30
0
0
SPLINE
5
13D
100
AcDbEntity
8
1
62
256
6
ByLayer
370
18
48
1
60
0
100
AcDbSpline
70
4
71
5
72
24
73
18
40
0
40
0
40
0
40
0
40
0
40
0
40
0.0698678142617176
40
0.163809044919621
40
0.22643653202489
40
0.320377762682793
40
0.383005249788062
40
0.476946480445966
40
0.539573967551234
40
0.633515198209138
40
0.727456428867041
40
0.79008391597231
40
0.884025146630213
40
0.946652633735482
40
1
40
1
40
1
40
1
40
1
40
1
41
1
10
16.5425032414736
20
1.62541136024399
30
0
41
1
10
16.5892316484735
20
1.61516270251516
30
0
41
1
10
16.6987890434221
20
1.59042868322484
30
0
41
1
10
16.8502324303367
20
1.55397602994341
30
0
41
1
10
17.0645048052001
20
1.49809233801287
30
0
41
1
10
17.3206631720292
20
1.42430476312757
30
0
41
1
10
17.5929221198073
20
1.33901712460227
30
0
41
1
10
17.8442380716024
20
1.2542972318538
30
0
41
1
10
18.1164970193804
20
1.1564798346804
30
0
41
1
10
18.3887559671584
20
1.05304925061546
30
0
41
1
10
18.6610149149364
20
0.94400786339429
30
0
41
1
10
18.9332738627144
20
0.830403805124433
30
0
41
1
10
19.2055328104924
20
0.712402521454209
30
0
41
1
10
19.450642109507
20
0.603095817221856
30
0
41
1
10
19.6329224205728
20
0.520125947200086
30
0
41
1
10
19.7733167396728
20
0.455402335258839
30
0
41
1
10
19.850882070824
20
0.419424131729016
30
0
41
1
10
19.8865614100094
20
0.40283101349047
30
0
0
SPLINE
5
13E
100
AcDbEntity
8
1
62
256
6
ByLayer
370
18
48
1
60
0
100
AcDbSpline
70
4
71
3
72
16
73
12
40
0
40
0
40
0
40
0
40
0.249999999999998
40
0.249999999999998
40
0.375000000000001
40
0.375000000000001
40
0.500000000000004
40
0.500000000000004
40
0.750000000000002
40
0.750000000000002
40
1
40
1
40
1
40
1
41
1
10
7.44330858755291
20
0.11647731840489
30
0
41
1
10
7.31203194716397
20
0.21261029559497
30
0
41
1
10
7.18074940337544
20
0.307915532417496
30
0
41
1
10
6.98342875575921
20
0.449173812765451
30
0
41
1
10
6.91757265843796
20
0.495990000622299
30
0
41
1
10
6.78586172900529
20
0.588859384765669
30
0
41
1
10
6.71998765361937
20
0.634926653724165
30
0
41
1
10
6.52223109931725
20
0.771934336765696
30
0
41
1
10
6.39011648672988
20
0.861745354010992
30
0
41
1
10
6.12578239071914
20
1.03725633194998
30
0
41
1
10
5.99353431531432
20
1.12297800646701
30
0
41
1
10
5.86100971451316
20
1.20646597830301
30
0
0
SPLINE
5
13F
100
AcDbEntity
8
1
62
256
6
ByLayer
370
18
48
1
60
0
100
AcDbSpline
70
4
71
3
72
53
73
49
40
0
40
0
40
0
40
0
40
0.0132901286351301
40
0.0265645400295691
40
0.0398231919715974
40
0.0530660422360757
40
0.0662930486163831
40
0.0795041689565448
40
0.0926993611830574
40
0.105878583336679
40
0.119041793603955
40
0.13218895034886
40
0.145320012143624
40
0.158434937800028
40
0.171533686399919
40
0.184616217325682
40
0.197682490290413
40
0.21073246536765
40
0.223766103020919
40
0.236783364132748
40
0.24978421003347
40
0.262768602529462
40
0.275736503931031
40
0.289701638584568
40
0.304098001888746
40
0.318926960102966
40
0.33418975358001
40
0.349887510401907
40
0.36602125829506
40
0.382591935075099
40
0.39960039783078
40
0.417047431023462
40
0.434933753650137
40
0.453260025596527
40
0.472026853286256
40
0.491234794717029
40
0.510884363961586
40
0.530976035199371
40
0.55151024633617
40
0.592848154283539
40
0.636298813233948
40
0.681867826883339
40
0.729560027797152
40
0.779379621969176
40
0.831330304368007
40
0.885415351995895
40
0.941637699350617
40
1
40
1
40
1
40
1
41
1
10
7.6621749693827
20
-0.732887791804842
30
0
41
1
10
7.6551700835042
20
-0.723011545443399
30
0
41
1
10
7.64116859590152
20
-0.703270732618108
30
0
41
1
10
7.62023461425844
20
-0.673707146194261
30
0
41
1
10
7.59936125554395
20
-0.644207393744466
30
0
41
1
10
7.57854876249357
20
-0.614778575410327
30
0
41
1
10
7.55779193131227
20
-0.585425514804058
30
0
41
1
10
7.53708699465241
20
-0.556153606312932
30
0
41
1
10
7.51642978419025
20
-0.526968048527181
30
0
41
1
10
7.49581622565952
20
-0.497874044306201
30
0
41
1
10
7.47524221005142
20
-0.468876742327723
30
0
41
1
10
7.45470363162272
20
-0.439981247848948
30
0
41
1
10
7.43419638149422
20
-0.411192614894162
30
0
41
1
10
7.41371635238605
20
-0.382515843845567
30
0
41
1
10
7.39325944314382
20
-0.353955876191577
30
0
41
1
10
7.37282155300284
20
-0.325517595478914
30
0
41
1
10
7.35239861702087
20
-0.297205806586049
30
0
41
1
10
7.33198648734052
20
-0.269025295642024
30
0
41
1
10
7.31158138892962
20
-0.240980589853933
30
0
41
1
10
7.29117823526835
20
-0.213076835409851
30
0
41
1
10
7.27077691574118
20
-0.1853165107905
30
0
41
1
10
7.25035888841677
20
-0.157711653425679
30
0
41
1
10
7.22944319973283
20
-0.129522392382455
30
0
41
1
10
7.2075685239935
20
-0.100563945125657
30
0
41
1
10
7.18427840992916
20
-0.0706453820108095
30
0
41
1
10
7.15992988768596
20
-0.0401342008789527
30
0
41
1
10
7.13450437928861
20
-0.0090397450460671
30
0
41
1
10
7.10800478938114
20
0.0226400918632237
30
0
41
1
10
7.0804283949023
20
0.0549045782678093
30
0
41
1
10
7.05177441764494
20
0.0877541252521894
30
0
41
1
10
7.02204189427621
20
0.121189156581465
30
0
41
1
10
6.99123025523787
20
0.155210405927136
30
0
41
1
10
6.95933915712729
20
0.189818819679942
30
0
41
1
10
6.92636848558314
20
0.225015554631028
30
0
41
1
10
6.8923184566361
20
0.260802008424974
30
0
41
1
10
6.85718912635588
20
0.297179612768417
30
0
41
1
10
6.82098224623502
20
0.33415057524769
30
0
41
1
10
6.78369404434562
20
0.371714950335075
30
0
41
1
10
6.73266742644185
20
0.422496636086464
30
0
41
1
10
6.66634525570049
20
0.487137299820546
30
0
41
1
10
6.58308102650057
20
0.566232321999763
30
0
41
1
10
6.49471617448987
20
0.648369745045329
30
0
41
1
10
6.40127418854203
20
0.733592897904003
30
0
41
1
10
6.30279200476852
20
0.821949273419591
30
0
41
1
10
6.19930660484294
20
0.913485680640434
30
0
41
1
10
6.09084276020661
20
1.00823781628395
30
0
41
1
10
5.97747718882565
20
1.10627721368891
30
0
41
1
10
5.89999234477182
20
1.17253508715842
30
0
41
1
10
5.86052637927639
20
1.20628273136009
30
0
0
SPLINE
5
140
100
AcDbEntity
8
1
62
256
6
ByLayer
370
18
48
1
60
0
100
AcDbSpline
70
4
71
5
72
16
73
10
40
0
40
0
40
0
40
0
40
0
40
0
40
0.495390706445898
40
0.619238383057373
40
0.805009897974585
40
0.928857574586059
40
1
40
1
40
1
40
1
40
1
40
1
41
1
10
7.66594202390107
20
-0.74279040989515
30
0
41
1
10
7.83348599176446
20
-0.815795815662113
30
0
41
1
10
8.0429159515937
20
-0.904842971907726
30
0
41
1
10
8.3151748993717
20
-1.01642533140748
30
0
41
1
10
8.6293198391156
20
-1.13785680223867
30
0
41
1
10
8.96752555368255
20
-1.25796299651876
30
0
41
1
10
9.13818730038622
20
-1.31544255407181
30
0
41
1
10
9.26696305512402
20
-1.35693393094491
30
0
41
1
10
9.33290982191301
20
-1.37767578466813
30
0
41
1
10
9.35697059673615
20
-1.38517549580359
30
0
0
SPLINE
5
141
100
AcDbEntity
8
1
62
256
6
ByLayer
370
18
48
1
60
0
100
AcDbSpline
70
4
71
3
72
8
73
4
40
0
40
0
40
0
40
0
40
1
40
1
40
1
40
1
41
1
10
7.61718252013605
20
2.77390845675927
30
0
41
1
10
7.55827202672342
20
2.76181466764535
30
0
41
1
10
7.50049262837442
20
2.74449085143755
30
0
41
1
10
7.44330858755288
20
2.72143055895606
30
0
0
SPLINE
5
142
100
AcDbEntity
8
1
62
256
6
ByLayer
370
18
48
1
60
0
100
AcDbSpline
70
4
71
3
72
16
73
12
40
0
40
0
40
0
40
0
40
0.249999999999996
40
0.249999999999996
40
0.374999999999994
40
0.374999999999994
40
0.499999999999991
40
0.499999999999991
40
0.749999999999996
40
0.749999999999996
40
1
40
1
40
1
40
1
41
1
10
7.44330858755291
20
2.72143055895606
30
0
41
1
10
7.31203194716397
20
2.73697390844751
30
0
41
1
10
7.18074940337544
20
2.74750995778928
30
0
41
1
10
6.98342875575921
20
2.75614685827176
30
0
41
1
10
6.91757265843796
20
2.757827410115
30
0
41
1
10
6.78586172900532
20
2.75882010722182
30
0
41
1
10
6.71998765361934
20
2.75813370730643
30
0
41
1
10
6.52223109931725
20
2.75257029312436
30
0
41
1
10
6.39011648672991
20
2.74418134106924
30
0
41
1
10
6.12578239071917
20
2.71824703850797
30
0
41
1
10
5.99353431531432
20
2.7007130101056
30
0
41
1
10
5.86100971451316
20
2.67877030492122
30
0
0
SPLINE
5
143
100
AcDbEntity
8
1
62
256
6
ByLayer
370
18
48
1
60
0
100
AcDbSpline
70
4
71
3
72
53
73
49
40
0
40
0
40
0
40
0
40
0.0132901286351329
40
0.0265645400295686
40
0.0398231919715975
40
0.0530660422360752
40
0.0662930486163806
40
0.0795041689565437
40
0.0926993611830556
40
0.105878583336679
40
0.119041793603952
40
0.132188950348858
40
0.145320012143622
40
0.158434937800024
40
0.171533686399917
40
0.184616217325678
40
0.197682490290411
40
0.210732465367643
40
0.223766103020914
40
0.23678336413274
40
0.249784210033463
40
0.262768602529457
40
0.275736503931026
40
0.289701638584565
40
0.304098001888742
40
0.31892696010296
40
0.334189753580002
40
0.349887510401898
40
0.36602125829505
40
0.382591935075094
40
0.399600397830774
40
0.417047431023452
40
0.43493375365013
40
0.453260025596518
40
0.472026853286248
40
0.491234794717014
40
0.510884363961577
40
0.530976035199361
40
0.551510246336157
40
0.592848154283548
40
0.636298813233933
40
0.681867826883348
40
0.72956002779716
40
0.779379621969181
40
0.83133030436801
40
0.88541535199592
40
0.941637699350619
40
1
40
1
40
1
40
1
41
1
10
7.66217496938273
20
1.42789527607684
30
0
41
1
10
7.65517008350417
20
1.43241414657658
30
0
41
1
10
7.64116859590152
20
1.44144654344609
30
0
41
1
10
7.62023461425841
20
1.45529925293684
30
0
41
1
10
7.59936125554398
20
1.46936265009705
30
0
41
1
10
7.57854876249354
20
1.48365742812385
30
0
41
1
10
7.55779193131227
20
1.49817568770334
30
0
41
1
10
7.53708699465244
20
1.51291697007312
30
0
41
1
10
7.51642978419028
20
1.52787862111828
30
0
41
1
10
7.49581622565955
20
1.54305837070746
30
0
41
1
10
7.47524221005142
20
1.55845364499427
30
0
41
1
10
7.45470363162272
20
1.57406175265191
30
0
41
1
10
7.43419638149422
20
1.58987983763768
30
0
41
1
10
7.41371635238602
20
1.60590489405146
30
0
41
1
10
7.39325944314385
20
1.62213376636342
30
0
41
1
10
7.37282155300286
20
1.63856314685089
30
0
41
1
10
7.35239861702087
20
1.65518959940684
30
0
41
1
10
7.33198648734049
20
1.67200948147845
30
0
41
1
10
7.31158138892962
20
1.68901924708084
30
0
41
1
10
7.29117823526838
20
1.70621433047901
30
0
41
1
10
7.27077691574118
20
1.72359331746341
30
0
41
1
10
7.25035888841677
20
1.74114242082069
30
0
41
1
10
7.22944319973286
20
1.75935587995906
30
0
41
1
10
7.2075685239935
20
1.77830879078559
30
0
41
1
10
7.18427840992916
20
1.79805904791254
30
0
41
1
10
7.15992988768596
20
1.81837674579893
30
0
41
1
10
7.13450437928864
20
1.83924212765524
30
0
41
1
10
7.10800478938114
20
1.86064985542924
30
0
41
1
10
7.0804283949023
20
1.88259094591302
30
0
41
1
10
7.05177441764494
20
1.90505783613312
30
0
41
1
10
7.02204189427619
20
1.92804297748867
30
0
41
1
10
6.99123025523789
20
1.95153923364632
30
0
41
1
10
6.95933915712726
20
1.97553978680924
30
0
41
1
10
6.92636848558314
20
2.00003812892655
30
0
41
1
10
6.89231845663613
20
2.02502822543795
30
0
41
1
10
6.85718912635588
20
2.05050386671036
30
0
41
1
10
6.82098224623505
20
2.07646119381704
30
0
41
1
10
6.78369404434562
20
2.10288895147522
30
0
41
1
10
6.73266742644182
20
2.13870263083038
30
0
41
1
10
6.66634525570049
20
2.18425627925646
30
0
41
1
10
6.58308102650057
20
2.23974063730663
30
0
41
1
10
6.49471617448984
20
2.29709109217154
30
0
41
1
10
6.401274188542
20
2.35627503729464
30
0
41
1
10
6.30279200476849
20
2.41728582470589
30
0
41
1
10
6.19930660484289
20
2.48012330132295
30
0
41
1
10
6.09084276020653
20
2.54478013412901
30
0
41
1
10
5.97747718882556
20
2.61131796913403
30
0
41
1
10
5.89999234477179
20
2.6559753398088
30
0
41
1
10
5.86052637927634
20
2.67872102990719
30
0
0
SPLINE
5
144
100
AcDbEntity
8
1
62
256
6
ByLayer
370
18
48
1
60
0
100
AcDbSpline
70
4
71
5
72
35
73
29
40
0
40
0
40
0
40
0
40
0
40
0
40
0.124184241465796
40
0.155230301832245
40
0.201799392381918
40
0.232845452748367
40
0.279414543298041
40
0.31046060366449
40
0.357029694214163
40
0.403598784763836
40
0.434644845130285
40
0.481213935679959
40
0.512259996046408
40
0.558829086596081
40
0.58987514696253
40
0.636444237512204
40
0.683013328061877
40
0.714059388428326
40
0.760628478977999
40
0.791674539344448
40
0.838243629894122
40
0.869289690260571
40
0.915858780810244
40
0.962427871359918
40
0.993473931726367
40
1
40
1
40
1
40
1
40
1
40
1
41
1
10
7.66594202390107
20
1.42390095836174
30
0
41
1
10
7.83348599176446
20
1.37369976646599
30
0
41
1
10
8.04291595159373
20
1.30671253364753
30
0
41
1
10
8.3151748993717
20
1.21315028918488
30
0
41
1
10
8.6293198391156
20
1.0963369603808
30
0
41
1
10
9.00629376680823
20
0.945632854645254
30
0
41
1
10
9.25760971860331
20
0.840920119140605
30
0
41
1
10
9.52986866638133
20
0.723446423429351
30
0
41
1
10
9.80212761415936
20
0.602447423135686
30
0
41
1
10
10.0743865619374
20
0.478230038670546
30
0
41
1
10
10.3466455097154
20
0.351701226064336
30
0
41
1
10
10.6189044574934
20
0.223320776413885
30
0
41
1
10
10.8911634052714
20
0.0938930927185595
30
0
41
1
10
11.1424793570665
20
-0.0260270309776161
30
0
41
1
10
11.4147383048445
20
-0.155782613744719
30
0
41
1
10
11.6869972526226
20
-0.284817439142898
30
0
41
1
10
11.9592562004006
20
-0.412356185409038
30
0
41
1
10
12.2315151481786
20
-0.537901891497683
30
0
41
1
10
12.5037740959566
20
-0.66057202611978
30
0
41
1
10
12.7760330437346
20
-0.780020224466625
30
0
41
1
10
13.0273489955297
20
-0.886827703271422
30
0
41
1
10
13.2996079433077
20
-0.99822242280689
30
0
41
1
10
13.5718668910857
20
-1.10482053520681
30
0
41
1
10
13.8441258388638
20
-1.20556141540882
30
0
41
1
10
14.0623604856662
20
-1.28164167977923
30
0
41
1
10
14.2387091405028
20
-1.33968682588301
30
0
41
1
10
14.3522288073906
20
-1.37556251120611
30
0
41
1
10
14.4029194863297
20
-1.39127963026596
30
0
41
1
10
14.4117241733029
20
-1.39400044406364
30
0
0
SPLINE
5
145
100
AcDbEntity
8
1
62
256
6
ByLayer
370
18
48
1
60
0
100
AcDbSpline
70
4
71
3
72
18
73
14
40
0
40
0
40
0
40
0
40
0.124999999999994
40
0.124999999999994
40
0.249999999999989
40
0.249999999999989
40
0.499999999999977
40
0.499999999999977
40
0.624999999999972
40
0.624999999999972
40
0.749999999999966
40
0.749999999999966
40
1
40
1
40
1
40
1
41
1
10
20.7865827317727
20
-2.60968212781066
30
0
41
1
10
20.7861404740431
20
-2.6177303581288
30
0
41
1
10
20.7852398425999
20
-2.6259830880982
30
0
41
1
10
20.7824691951986
20
-2.64293837674063
30
0
41
1
10
20.7806045523883
20
-2.65157553803141
30
0
41
1
10
20.7736694214171
20
-2.67754424646259
30
0
41
1
10
20.7672270362857
20
-2.69510579563047
30
0
41
1
10
20.7547512387855
20
-2.72188553472708
30
0
41
1
10
20.7501601161806
20
-2.73080979052438
30
0
41
1
10
20.740333411644
20
-2.74836508881072
30
0
41
1
10
20.7350759938299
20
-2.75704325013947
30
0
41
1
10
20.7183376483766
20
-2.78280129484941
30
0
41
1
10
20.7057986396708
20
-2.79970578661013
30
0
41
1
10
20.692517983777
20
-2.8156877341988
30
0
0
SPLINE
5
146
100
AcDbEntity
8
1
62
256
6
ByLayer
370
18
48
1
60
0
100
AcDbSpline
70
4
71
3
72
12
73
8
40
0
40
0
40
0
40
0
40
0.256971966716147
40
0.256971966716147
40
0.628485983358074
40
0.628485983358074
40
1
40
1
40
1
40
1
41
1
10
20.7205512729061
20
-2.26124795516284
30
0
41
1
10
20.7268075272868
20
-2.28946549656124
30
0
41
1
10
20.7329481749406
20
-2.31801304602015
30
0
41
1
10
20.7476100733677
20
-2.38876451481221
30
0
41
1
10
20.7559593558802
20
-2.43144714907709
30
0
41
1
10
20.7718439541996
20
-2.51901461914426
30
0
41
1
10
20.7794109223914
20
-2.56381381884941
30
0
41
1
10
20.7865827317727
20
-2.6096821278108
30
0
0
SPLINE
5
147
100
AcDbEntity
8
1
62
256
6
ByLayer
370
18
48
1
60
0
100
AcDbSpline
70
4
71
5
72
40
73
34
40
0
40
0
40
0
40
0
40
0
40
0
40
0.0107747820557037
40
0.0528696305502706
40
0.0949644790448377
40
0.123027711374549
40
0.165122559869116
40
0.193185792198827
40
0.235280640693394
40
0.263343873023106
40
0.305438721517673
40
0.347533570012239
40
0.375596802341951
40
0.403660034671662
40
0.445754883166229
40
0.487849731660796
40
0.515912963990507
40
0.558007812485074
40
0.600102660979641
40
0.628165893309353
40
0.656229125639064
40
0.698323974133631
40
0.740418822628198
40
0.768482054957909
40
0.810576903452476
40
0.838640135782188
40
0.880734984276755
40
0.908798216606466
40
0.950893065101033
40
0.9929879135956
40
1
40
1
40
1
40
1
40
1
40
1
41
1
10
11.5647013439877
20
1.61464092784169
30
0
41
1
10
11.5807833273215
20
1.61102803273829
30
0
41
1
10
11.659694298604
20
1.59312658639374
30
0
41
1
10
11.8014342578354
20
1.55944663952536
30
0
41
1
10
11.9850602090326
20
1.51233080805392
30
0
41
1
10
12.2315151481786
20
1.44326469464758
30
0
41
1
10
12.5037740959566
20
1.35930824619044
30
0
41
1
10
12.7760330437346
20
1.26880498200427
30
0
41
1
10
13.0273489955297
20
1.17958269114791
30
0
41
1
10
13.2996079433077
20
1.07724989056132
30
0
41
1
10
13.5718668910858
20
0.969685684903567
30
0
41
1
10
13.8441258388638
20
0.85695316470688
30
0
41
1
10
14.0954417906589
20
0.749069075556321
30
0
41
1
10
14.3677007384369
20
0.628633925708584
30
0
41
1
10
14.6399596862149
20
0.505161718714106
30
0
41
1
10
14.89127563801
20
0.388877042945438
30
0
41
1
10
15.163534585788
20
0.261022419208672
30
0
41
1
10
15.456736529549
20
0.121857881917634
30
0
41
1
10
15.728995477327
20
-0.0080316425471665
30
0
41
1
10
15.9803114291221
20
-0.127893832005753
30
0
41
1
10
16.2525703769001
20
-0.257062300833354
30
0
41
1
10
16.5248293246781
20
-0.384988849903067
30
0
41
1
10
16.7761452764732
20
-0.501415853883174
30
0
41
1
10
17.0484042242512
20
-0.625121616127018
30
0
41
1
10
17.3206631720292
20
-0.745488573710873
30
0
41
1
10
17.5929221198073
20
-0.862223885044699
30
0
41
1
10
17.8442380716024
20
-0.966159829931939
30
0
41
1
10
18.1164970193804
20
-1.0740611923172
30
0
41
1
10
18.3887559671584
20
-1.17679857298526
30
0
41
1
10
18.629594866143
20
-1.26215940363869
30
0
41
1
10
18.8076047771789
20
-1.3218315669655
30
0
41
1
10
18.9437286962489
20
-1.36534543407797
30
0
41
1
10
19.0170236273701
20
-1.38814392092516
30
0
41
1
10
19.0274895705426
20
-1.39138644574823
30
0
0
SPLINE
5
148
100
AcDbEntity
8
1
62
256
6
ByLayer
370
18
48
1
60
0
100
AcDbSpline
70
4
71
3
72
8
73
4
40
0
40
0
40
0
40
0
40
1
40
1
40
1
40
1
41
1
10
8.00000000543929
20
2.87404683898311
30
0
41
1
10
8.00527493538584
20
2.87473192278222
30
0
41
1
10
8.01054903895894
20
2.87540742573063
30
0
41
1
10
8.01582233899055
20
2.87607333749887
30
0
0
SPLINE
5
149
100
AcDbEntity
8
1
62
256
6
ByLayer
370
18
48
1
60
0
100
AcDbSpline
70
4
71
3
72
16
73
12
40
0
40
0
40
0
40
0
40
0.249999999999996
40
0.249999999999996
40
0.499999999999991
40
0.499999999999991
40
0.624999999999998
40
0.624999999999998
40
0.750000000000006
40
0.750000000000006
40
1
40
1
40
1
40
1
41
1
10
7.44330858859158
20
1.28149824012721
30
0
41
1
10
7.48513628661976
20
1.25604477257744
30
0
41
1
10
7.52819626576783
20
1.22905152956096
30
0
41
1
10
7.61680825121712
20
1.17193657072136
30
0
41
1
10
7.66244696882819
20
1.14175513260571
30
0
41
1
10
7.73231407822078
20
1.09452651420614
30
0
41
1
10
7.75585600984036
20
1.07844735631784
30
0
41
1
10
7.80347004728475
20
1.04562810531704
30
0
41
1
10
7.82756167170885
20
1.02887408948905
30
0
41
1
10
7.90037820654359
20
0.977852737074926
30
0
41
1
10
7.94971985710853
20
0.942771492599775
30
0
41
1
10
8.00000000488149
20
0.906726071450805
30
0
0
SPLINE
5
14A
100
AcDbEntity
8
1
62
256
6
ByLayer
370
18
48
1
60
0
100
AcDbSpline
70
4
71
3
72
10
73
6
40
0
40
0
40
0
40
0
40
0.336325696809645
40
0.858378616121885
40
1
40
1
40
1
40
1
41
1
10
7.44330858859158
20
1.28149824012721
30
0
41
1
10
7.44330858854195
20
1.16523981257015
30
0
41
1
10
7.44330858856264
20
0.852326176948395
30
0
41
1
10
7.44330859035097
20
0.450859654164276
30
0
41
1
10
7.44330858808448
20
0.175799642284744
30
0
41
1
10
7.44330858755288
20
0.11647731840489
30
0
0
SPLINE
5
14B
100
AcDbEntity
8
1
62
256
6
ByLayer
370
18
48
1
60
0
100
AcDbSpline
70
4
71
3
72
68
73
64
40
0
40
0
40
0
40
0
40
0.0889627790060823
40
0.0889627790060823
40
0.180066501105484
40
0.180066501105484
40
0.225618362155185
40
0.225618362155185
40
0.237006327417609
40
0.237006327417609
40
0.248394292680034
40
0.248394292680034
40
0.271170223204882
40
0.271170223204882
40
0.316722084254579
40
0.316722084254579
40
0.339498014779428
40
0.339498014779428
40
0.362273945304277
40
0.362273945304277
40
0.407825806353974
40
0.407825806353974
40
0.453377667403671
40
0.453377667403671
40
0.476153597928519
40
0.476153597928519
40
0.487541563190943
40
0.487541563190943
40
0.498929528453368
40
0.498929528453368
40
0.544481389503063
40
0.544481389503063
40
0.56725732002791
40
0.56725732002791
40
0.590033250552758
40
0.590033250552758
40
0.635585111602453
40
0.635585111602453
40
0.658361042127301
40
0.658361042127301
40
0.681136972652149
40
0.681136972652149
40
0.726688833701845
40
0.726688833701845
40
0.738076798964269
40
0.738076798964269
40
0.749464764226692
40
0.749464764226692
40
0.772240694751538
40
0.772240694751538
40
0.795016625276384
40
0.795016625276384
40
0.81779255580123
40
0.81779255580123
40
0.863344416850922
40
0.863344416850922
40
0.908896277900614
40
0.908896277900614
40
0.954448138950306
40
0.954448138950306
40
0.977224069475153
40
0.977224069475153
40
1
40
1
40
1
40
1
41
1
10
16.7152481145331
20
-2.64645410778979
30
0
41
1
10
16.4554712320125
20
-2.71680207869321
30
0
41
1
10
16.1981006181501
20
-2.7683663285255
30
0
41
1
10
15.6782427706826
20
-2.83471994916255
30
0
41
1
10
15.4157987053885
20
-2.84860884571361
30
0
41
1
10
15.0201040820098
20
-2.83916973183779
30
0
41
1
10
14.8878680169188
20
-2.83096459990696
30
0
41
1
10
14.7218284377594
20
-2.81423677828818
30
0
41
1
10
14.6885831955518
20
-2.810567507896
30
0
41
1
10
14.6220095624384
20
-2.80257733695359
30
0
41
1
10
14.5886665895456
20
-2.79825377698242
30
0
41
1
10
14.4888448354901
20
-2.78435093777438
30
0
41
1
10
14.4224652602984
20
-2.77382907397151
30
0
41
1
10
14.2237226040191
20
-2.73860529296829
30
0
41
1
10
14.0917633614808
20
-2.7102110193716
30
0
41
1
10
13.8941815363934
20
-2.66078651150465
30
0
41
1
10
13.8283728244229
20
-2.64320473418928
30
0
41
1
10
13.6967951355086
20
-2.60591973234864
30
0
41
1
10
13.6310320095685
20
-2.58619461032177
30
0
41
1
10
13.433781413159
20
-2.5236133447232
30
0
41
1
10
13.3023314840515
20
-2.47737085805818
30
0
41
1
10
13.0391047143465
20
-2.37554109338797
30
0
41
1
10
12.9073388493609
20
-2.319751142585
30
0
41
1
10
12.7088699988731
20
-2.23055284884546
30
0
41
1
10
12.6425862644701
20
-2.19986344627176
30
0
41
1
10
12.5429408760104
20
-2.15228401929699
30
0
41
1
10
12.509688937004
20
-2.13616666398133
30
0
41
1
10
12.443104031462
20
-2.10341133027239
30
0
41
1
10
12.4097485524052
20
-2.08676163680252
30
0
41
1
10
12.2432985452686
20
-2.00247636862108
30
0
41
1
10
12.1108653194533
20
-1.93151197157104
30
0
41
1
10
11.9129220032785
20
-1.82015489569901
30
0
41
1
10
11.8470410615849
20
-1.7822654745695
30
0
41
1
10
11.7153552408301
20
-1.70522327893255
30
0
41
1
10
11.649559007409
20
-1.66604776133309
30
0
41
1
10
11.452292408545
20
-1.54645931467883
30
0
41
1
10
11.3209495510251
20
-1.46396869177357
30
0
41
1
10
11.1238677260458
20
-1.33630204372366
30
0
41
1
10
11.0581638727486
20
-1.29308341684339
30
0
41
1
10
10.9266650557805
20
-1.20540477895884
30
0
41
1
10
10.8608645978998
20
-1.16096482709835
30
0
41
1
10
10.6631624695862
20
-1.02623708045286
30
0
41
1
10
10.5309818598175
20
-0.934493210987597
30
0
41
1
10
10.3650669731554
20
-0.81727014683355
30
0
41
1
10
10.3318484664946
20
-0.793702134483226
30
0
41
1
10
10.2653322157498
20
-0.746324568388246
30
0
41
1
10
10.2320059254215
20
-0.722494492100822
30
0
41
1
10
10.132121537578
20
-0.650812340769562
30
0
41
1
10
10.0657174119812
20
-0.602809394099495
30
0
41
1
10
9.93321782936073
20
-0.506459728356759
30
0
41
1
10
9.8671157465526
20
-0.458121597197049
30
0
41
1
10
9.73507677059791
20
-0.361290273941904
30
0
41
1
10
9.66913756855752
20
-0.312799866307216
30
0
41
1
10
9.47151794338333
20
-0.167166491705928
30
0
41
1
10
9.34004716906145
20
-0.0698462595093474
30
0
41
1
10
9.07729205369537
20
0.124741462923424
30
0
41
1
10
8.94598291752965
20
0.221977237890229
30
0
41
1
10
8.68293159174118
20
0.415564649494826
30
0
41
1
10
8.55118513914746
20
0.511912263672599
30
0
41
1
10
8.35290355758525
20
0.655306774689166
30
0
41
1
10
8.28670197265365
20
0.702919941108433
30
0
41
1
10
8.15402309289226
20
0.797690697832849
30
0
41
1
10
8.08750440971838
20
0.844873720810909
30
0
41
1
10
8.02089359176978
20
0.891716237798136
30
0
0
SPLINE
5
14C
100
AcDbEntity
8
1
62
256
6
ByLayer
370
18
48
1
60
0
100
AcDbSpline
70
4
71
3
72
81
73
77
40
0
40
0
40
0
40
0
40
0.0638304659616643
40
0.0638304659616643
40
0.127660931923329
40
0.127660931923329
40
0.143618548413745
40
0.143618548413745
40
0.159576164904161
40
0.159576164904161
40
0.191491397884992
40
0.191491397884992
40
0.255321863846653
40
0.255321863846653
40
0.287237096827483
40
0.287237096827483
40
0.303194713317899
40
0.311173521563107
40
0.311173521563107
40
0.319152329808314
40
0.319152329808314
40
0.382982795769976
40
0.382982795769976
40
0.446813261731637
40
0.446813261731637
40
0.478728494712467
40
0.478728494712467
40
0.486707302957675
40
0.486707302957675
40
0.494686111202883
40
0.494686111202883
40
0.510643727693299
40
0.510643727693299
40
0.542558960674132
40
0.542558960674132
40
0.574474193654965
40
0.574474193654965
40
0.606389426635797
40
0.606389426635797
40
0.63830465961663
40
0.63830465961663
40
0.654262276107046
40
0.654262276107046
40
0.670219892597463
40
0.670219892597463
40
0.702135125578294
40
0.702135125578294
40
0.71809274206871
40
0.71809274206871
40
0.734050358559126
40
0.734050358559126
40
0.765965591539957
40
0.765965591539957
40
0.781923208030372
40
0.781923208030372
40
0.797880824520787
40
0.797880824520787
40
0.829796057501618
40
0.829796057501618
40
0.837774865746825
40
0.837774865746825
40
0.845753673992032
40
0.845753673992032
40
0.861711290482447
40
0.861711290482447
40
0.877668906972863
40
0.877668906972863
40
0.893626523463278
40
0.893626523463278
40
0.925541756444108
40
0.925541756444108
40
0.957456989424939
40
0.957456989424939
40
0.98937222240577
40
0.98937222240577
40
1
40
1
40
1
40
1
41
1
10
20.6925179837791
20
-2.81568773419849
30
0
41
1
10
20.4274640616092
20
-2.85818435793448
30
0
41
1
10
20.1646567603595
20
-2.8793179099215
30
0
41
1
10
19.6386673770036
20
-2.88099477983502
30
0
41
1
10
19.3755038980825
20
-2.86171495136944
30
0
41
1
10
19.0438615772304
20
-2.8122141153336
30
0
41
1
10
18.9773988582106
20
-2.8010350787776
30
0
41
1
10
18.8441396861256
20
-2.77607441471
30
0
41
1
10
18.7775890499352
20
-2.76233849878858
30
0
41
1
10
18.578488081534
20
-2.71755792073367
30
0
41
1
10
18.4463038612182
20
-2.68292048060823
30
0
41
1
10
18.0506400540927
20
-2.56524807821265
30
0
41
1
10
17.7880595277563
20
-2.46841850713236
30
0
41
1
10
17.3929650909785
20
-2.29782653499626
30
0
41
1
10
17.2610649257183
20
-2.2367317204413
30
0
41
1
10
17.0625349015847
20
-2.13893009428065
30
0
41
1
10
16.9630997733746
20
-2.08848743875507
30
0
41
1
10
16.8633346148088
20
-2.03577405417798
30
0
41
1
10
16.796742616898
20
-2.00013231534467
30
0
41
1
10
16.763401212006
20
-1.98205872829385
30
0
41
1
10
16.4639548106471
20
-1.81774544828514
30
0
41
1
10
16.2003797661899
20
-1.65903330266232
30
0
41
1
10
15.6743327460277
20
-1.32149531605035
30
0
41
1
10
15.4118786703473
20
-1.14265145694199
30
0
41
1
10
15.0161001064627
20
-0.862669947516054
30
0
41
1
10
14.8838242995176
20
-0.767384770404078
30
0
41
1
10
14.717714554625
20
-0.646178388715867
30
0
41
1
10
14.6844542581713
20
-0.62183217060516
30
0
41
1
10
14.6178483404188
20
-0.572938812428248
30
0
41
1
10
14.584515663653
20
-0.548401002741315
30
0
41
1
10
14.4847275250981
20
-0.474760383619156
30
0
41
1
10
14.4183681033527
20
-0.425547683544607
30
0
41
1
10
14.2196798904094
20
-0.277695114784621
30
0
41
1
10
14.0877470443353
20
-0.17883500690391
30
0
41
1
10
13.8243486343512
20
0.0187090527752503
30
0
41
1
10
13.692842968445
20
0.117353984646002
30
0
41
1
10
13.4298759055291
20
0.313892761863031
30
0
41
1
10
13.2984222317463
20
0.41179399591087
30
0
41
1
10
13.0351210166585
20
0.606208785197765
30
0
41
1
10
12.9032792765419
20
0.702716875419554
30
0
41
1
10
12.7046965969571
20
0.845810804316642
30
0
41
1
10
12.6383726800203
20
0.893237690805165
30
0
41
1
10
12.505417720334
20
0.987473021687123
30
0
41
1
10
12.4386755754747
20
1.03435708493186
30
0
41
1
10
12.2391068751957
20
1.17309887313755
30
0
41
1
10
12.1067519293692
20
1.26318544845725
30
0
41
1
10
11.9088693126102
20
1.39423746150794
30
0
41
1
10
11.843002967393
20
1.43725360662836
30
0
41
1
10
11.7113523953951
20
1.52195298082236
30
0
41
1
10
11.6455748912136
20
1.56363114554031
30
0
41
1
10
11.4483460819594
20
1.68650104414974
30
0
41
1
10
11.3170016291582
20
1.76552553162765
30
0
41
1
10
11.1198574204593
20
1.87921754970273
30
0
41
1
10
11.0541225964633
20
1.91630183549068
30
0
41
1
10
10.9225417726725
20
1.98877120652733
30
0
41
1
10
10.856691755461
20
2.02416471451116
30
0
41
1
10
10.658831128277
20
2.12787791096787
30
0
41
1
10
10.5265283021585
20
2.19371992068972
30
0
41
1
10
10.3603990008368
20
2.27126732071562
30
0
41
1
10
10.3271348273711
20
2.28654041712872
30
0
41
1
10
10.2605213865979
20
2.31660035331865
30
0
41
1
10
10.2272041586933
20
2.33137228933202
30
0
41
1
10
10.1274538218096
20
2.37479364947939
30
0
41
1
10
10.0611272428864
20
2.40258971777294
30
0
41
1
10
9.92875668268968
20
2.45583455454141
30
0
41
1
10
9.86270747389301
20
2.48129367227628
30
0
41
1
10
9.73076873769773
20
2.52999639680152
30
0
41
1
10
9.66487817055298
20
2.55324674099322
30
0
41
1
10
9.46738447488019
20
2.61958730059408
30
0
41
1
10
9.33596719910264
20
2.65925315781087
30
0
41
1
10
9.07321587926793
20
2.72887157628429
30
0
41
1
10
8.94186192619685
20
2.75887952469489
30
0
41
1
10
8.67865025198728
20
2.80927251903069
30
0
41
1
10
8.54679069051934
20
2.82969109615283
30
0
41
1
10
8.37036570360095
20
2.85030485591756
30
0
41
1
10
8.32623890614235
20
2.85489587220721
30
0
41
1
10
8.2820490258589
20
2.8589117811824
30
0
0
SPLINE
5
14D
100
AcDbEntity
8
1
62
256
6
ByLayer
370
18
48
1
60
0
100
AcDbSpline
70
4
71
3
72
14
73
10
40
0
40
0
40
0
40
0
40
0.311395126778938
40
0.311395126778938
40
0.622790253557875
40
0.622790253557875
40
0.934185380336813
40
0.934185380336813
40
1
40
1
40
1
40
1
41
1
10
8.00009399761595
20
2.78114461905727
30
0
41
1
10
8.00137017317655
20
2.80238428005066
30
0
41
1
10
8.00272547377173
20
2.82028027982409
30
0
41
1
10
8.00536295762566
20
2.8494764985951
30
0
41
1
10
8.00664419496314
20
2.8607782369499
30
0
41
1
10
8.00915483574195
20
2.87671151894244
30
0
41
1
10
8.01038360241498
20
2.88129252353699
30
0
41
1
10
8.01200284585872
20
2.88276939458888
30
0
41
1
10
8.01228824988863
20
2.88287709000178
30
0
41
1
10
8.01257557589284
20
2.88283458124295
30
0
0
SPLINE
5
14E
100
AcDbEntity
8
1
62
256
6
ByLayer
370
18
48
1
60
0
100
AcDbSpline
70
4
71
5
72
27
73
21
40
0
40
0
40
0
40
0
40
0
40
0
40
0.0319669768723023
40
0.110614201759613
40
0.189261426646923
40
0.24169290990513
40
0.32034013479244
40
0.372771618050647
40
0.451418842937957
40
0.503850326196164
40
0.582497551083474
40
0.661144775970784
40
0.713576259228991
40
0.792223484116302
40
0.844654967374508
40
0.923302192261819
40
0.975733675520026
40
1
40
1
40
1
40
1
40
1
40
1
41
1
10
7.61718252013605
20
2.77390845675924
30
0
41
1
10
7.64272001122421
20
2.76875094905921
30
0
41
1
10
7.73108649026113
20
2.75037391205987
30
0
41
1
10
7.88228195724685
20
2.71579845440689
30
0
41
1
10
8.07536341619843
20
2.66487846722598
30
0
41
1
10
8.33127386309874
20
2.58620633721776
30
0
41
1
10
8.60353281087677
20
2.48877670907976
30
0
41
1
10
8.8757917586548
20
2.37934650072276
30
0
41
1
10
9.12710771044988
20
2.26769472915669
30
0
41
1
10
9.3993666582279
20
2.13581205382698
30
0
41
1
10
9.6716256060059
20
1.99357488875961
30
0
41
1
10
9.94388455378393
20
1.84072298572605
30
0
41
1
10
10.216143501562
20
1.6789743205054
30
0
41
1
10
10.48840244934
20
1.50832571657554
30
0
41
1
10
10.760661397118
20
1.33043175255796
30
0
41
1
10
11.0119773489131
20
1.16024624816365
30
0
41
1
10
11.2407929718792
20
1.00062448069502
30
0
41
1
10
11.4067796068965
20
0.882543639425535
30
0
41
1
10
11.530880249948
20
0.793173652137511
30
0
41
1
10
11.5921519050507
20
0.748808095909823
30
0
41
1
10
11.6115375681875
20
0.734747923262233
30
0
0
SPLINE
5
14F
100
AcDbEntity
8
1
62
256
6
ByLayer
370
18
48
1
60
0
100
AcDbSpline
70
4
71
5
72
37
73
31
40
0
40
0
40
0
40
0
40
0
40
0
40
0.0224634548344325
40
0.0696566051364014
40
0.11684975543837
40
0.148311855639683
40
0.195505005941652
40
0.226967106142964
40
0.274160256444933
40
0.305622356646246
40
0.352815506948215
40
0.400008657250184
40
0.431470757451496
40
0.462932857652809
40
0.510126007954778
40
0.557319158256747
40
0.588781258458059
40
0.635974408760029
40
0.683167559061997
40
0.71462965926331
40
0.746091759464623
40
0.793284909766591
40
0.84047806006856
40
0.871940160269873
40
0.919133310571842
40
0.950595410773155
40
0.997788561075123
40
1
40
1
40
1
40
1
40
1
40
1
41
1
10
9.48020984922783
20
2.59791354486774
30
0
41
1
10
9.51011580219028
20
2.60759993204755
30
0
41
1
10
9.6028507431015
20
2.63702549164324
30
0
41
1
10
9.75841467196148
20
2.68319011749102
30
0
41
1
10
9.95586459278732
20
2.7348524344911
30
0
41
1
10
10.216143501562
20
2.79105122212681
30
0
41
1
10
10.48840244934
20
2.83499705196817
30
0
41
1
10
10.760661397118
20
2.86523454855117
30
0
41
1
10
11.0119773489131
20
2.88037115863787
30
0
41
1
10
11.2842362966911
20
2.88284840605041
30
0
41
1
10
11.5564952444691
20
2.87139415938836
30
0
41
1
10
11.8287541922471
20
2.84467769745268
30
0
41
1
10
12.0800701440422
20
2.80732480307549
30
0
41
1
10
12.3523290918203
20
2.75331732539021
30
0
41
1
10
12.6245880395983
20
2.68600801704596
30
0
41
1
10
12.8759039913934
20
2.61186187973851
30
0
41
1
10
13.1481629391714
20
2.51891299248621
30
0
41
1
10
13.4413648829323
20
2.40441274352395
30
0
41
1
10
13.7136238307103
20
2.28529776961861
30
0
41
1
10
13.9649397825054
20
2.16514961773743
30
0
41
1
10
14.2371987302834
20
2.02459404304454
30
0
41
1
10
14.5094576780615
20
1.8742572466806
30
0
41
1
10
14.7607736298565
20
1.72705395668683
30
0
41
1
10
15.0330325776346
20
1.55923636054689
30
0
41
1
10
15.3052915254126
20
1.38315594175032
30
0
41
1
10
15.5775504731906
20
1.20043627186794
30
0
41
1
10
15.7899245566622
20
1.05334618013012
30
0
41
1
10
15.9604126481679
20
0.932762157886003
30
0
41
1
10
16.0680717517249
20
0.855743004033883
30
0
41
1
10
16.133844863316
20
0.808392017527297
30
0
41
1
10
16.1367889869583
20
0.806271909091151
30
0
0
SPLINE
5
150
100
AcDbEntity
8
1
62
256
6
ByLayer
370
18
48
1
60
0
100
AcDbSpline
70
4
71
3
72
24
73
20
40
0
40
0
40
0
40
0
40
0.0312500000000014
40
0.0312500000000014
40
0.0625000000000028
40
0.0625000000000028
40
0.125000000000009
40
0.125000000000009
40
0.187500000000015
40
0.187500000000015
40
0.25000000000002
40
0.25000000000002
40
0.375000000000017
40
0.375000000000017
40
0.500000000000014
40
0.500000000000014
40
0.750000000000007
40
0.750000000000007
40
1
40
1
40
1
40
1
41
1
10
20.5338021323223
20
-2.28056251589803
30
0
41
1
10
20.538045927754
20
-2.2783098628459
30
0
41
1
10
20.5418646964389
20
-2.27554296981731
30
0
41
1
10
20.5487115762333
20
-2.26968917467616
30
0
41
1
10
20.5517809671948
20
-2.26657793135274
30
0
41
1
10
20.5603842850713
20
-2.25691958037416
30
0
41
1
10
20.5653312588626
20
-2.25003728926237
30
0
41
1
10
20.5743573657439
20
-2.23614274104833
30
0
41
1
10
20.5784513032589
20
-2.22907102309824
30
0
41
1
10
20.5861864068937
20
-2.21476635090758
30
0
41
1
10
20.589819966312
20
-2.20753165006516
30
0
41
1
10
20.6002769797756
20
-2.18563878531577
30
0
41
1
10
20.6066673691004
20
-2.17079425372859
30
0
41
1
10
20.6188583184246
20
-2.14073435243225
30
0
41
1
10
20.6246393051897
20
-2.12553151943754
30
0
41
1
10
20.6413422617151
20
-2.07953853563859
30
0
41
1
10
20.6516456425979
20
-2.04832888310855
30
0
41
1
10
20.6712241943725
20
-1.98489066082775
30
0
41
1
10
20.6804841431795
20
-1.95266020330229
30
0
41
1
10
20.6892916302745
20
-1.91992151216075
30
0
0
SPLINE
5
151
100
AcDbEntity
8
1
62
256
6
ByLayer
370
18
48
1
60
0
100
AcDbSpline
70
4
71
3
72
12
73
8
40
0
40
0
40
0
40
0
40
0.499999999999999
40
0.499999999999999
40
0.749999999999999
40
0.749999999999999
40
1
40
1
40
1
40
1
41
1
10
20.6892376374182
20
-1.9198934924807
30
0
41
1
10
20.6852370136287
20
-1.82605215576285
30
0
41
1
10
20.6891179342019
20
-1.72858604914464
30
0
41
1
10
20.6926399487603
20
-1.57756387198313
30
0
41
1
10
20.6933728263338
20
-1.52658239791907
30
0
41
1
10
20.6919795804992
20
-1.42345718433233
30
0
41
1
10
20.6899030230425
20
-1.37130986604794
30
0
41
1
10
20.6851324976868
20
-1.31864500564788
30
0
0
SPLINE
5
152
100
AcDbEntity
8
1
62
256
6
ByLayer
370
18
48
1
60
0
100
AcDbSpline
70
4
71
3
72
8
73
4
40
0
40
0
40
0
40
0
40
1
40
1
40
1
40
1
41
1
10
20.7063016534585
20
-1.3161698650224
30
0
41
1
10
20.6992499021459
20
-1.31704356034314
30
0
41
1
10
20.6921937469903
20
-1.31787106138111
30
0
41
1
10
20.6851324976874
20
-1.31864500564782
30
0
0
SPLINE
5
153
100
AcDbEntity
8
1
62
256
6
ByLayer
370
18
48
1
60
0
100
AcDbSpline
70
4
71
3
72
8
73
4
40
0
40
0
40
0
40
0
40
1
40
1
40
1
40
1
41
1
10
20.7063016534583
20
-1.31616986502306
30
0
41
1
10
20.7031353697842
20
-1.30576692782341
30
0
41
1
10
20.6999743149821
20
-1.29533306437105
30
0
41
1
10
20.6968185117672
20
-1.2848681403166
30
0
0
SPLINE
5
154
100
AcDbEntity
8
1
62
256
6
ByLayer
370
18
48
1
60
0
100
AcDbSpline
70
4
71
3
72
47
73
43
40
0
40
0
40
0
40
0
40
0.107092182640764
40
0.107092182640764
40
0.160638273961144
40
0.160638273961144
40
0.214184365281525
40
0.214184365281525
40
0.240957410941716
40
0.240957410941716
40
0.267730456601908
40
0.267730456601908
40
0.32127654792229
40
0.32127654792229
40
0.428368730563056
40
0.428368730563056
40
0.481914821883438
40
0.481914821883438
40
0.508687867543631
40
0.522074390373727
40
0.522074390373727
40
0.535460913203823
40
0.535460913203823
40
0.642553095844583
40
0.642553095844583
40
0.749645278485343
40
0.749645278485343
40
0.803191369805722
40
0.803191369805722
40
0.816577892635816
40
0.816577892635816
40
0.82996441546591
40
0.82996441546591
40
0.856737461126097
40
0.856737461126097
40
0.910283552446474
40
0.910283552446474
40
0.937056598106661
40
0.937056598106661
40
0.963829643766848
40
0.963829643766848
40
1
40
1
40
1
40
1
41
1
10
20.6968185117689
20
-1.28486814032223
30
0
41
1
10
20.4316508855215
20
-1.11068301261162
30
0
41
1
10
20.1688408532593
20
-0.927543406556651
30
0
41
1
10
19.7743166540475
20
-0.645069120279572
30
0
41
1
10
19.6427650801642
20
-0.549613513977135
30
0
41
1
10
19.3790824063192
20
-0.356776816668315
30
0
41
1
10
19.2469540920876
20
-0.259390319802066
30
0
41
1
10
19.047969749261
20
-0.11230831281614
30
0
41
1
10
18.9815099510436
20
-0.0631122698714535
30
0
41
1
10
18.8482638263413
20
0.0355482126552431
30
0
41
1
10
18.7817091857798
20
0.084839663987708
30
0
41
1
10
18.5826009674001
20
0.232121085023408
30
0
41
1
10
18.4504015393116
20
0.329661421570194
30
0
41
1
10
18.0546776336264
20
0.619379666998356
30
0
41
1
10
17.7920407711697
20
0.808659928083983
30
0
41
1
10
17.3968780667876
20
1.08292113675108
30
0
41
1
10
17.2649581404325
20
1.17273307175867
30
0
41
1
10
17.0664105088976
20
1.30452865528176
30
0
41
1
10
16.9669696011014
20
1.36969493736231
30
0
41
1
10
16.8672042093963
20
1.43366428349049
30
0
41
1
10
16.8006133965496
20
1.47603329392067
30
0
41
1
10
16.7672759206348
20
1.49707994641773
30
0
41
1
10
16.4678590992534
20
1.68456857333507
30
0
41
1
10
16.2042815905198
20
1.83866955945712
30
0
41
1
10
15.6782427706827
20
2.11850424812198
30
0
41
1
10
15.4157987053885
20
2.24426261244466
30
0
41
1
10
15.0201040820099
20
2.40876415662268
30
0
41
1
10
14.8878680169188
20
2.4595656038471
30
0
41
1
10
14.7218284377594
20
2.51765613167504
30
0
41
1
10
14.6885831955518
20
2.52900349015934
30
0
41
1
10
14.6220095624384
20
2.5511467002467
30
0
41
1
10
14.5886665895456
20
2.5619465885506
30
0
41
1
10
14.4888448354902
20
2.59339823486283
30
0
41
1
10
14.4224652602984
20
2.61313975454203
30
0
41
1
10
14.2237226040191
20
2.66869984779035
30
0
41
1
10
14.0917633614808
20
2.70082338070424
30
0
41
1
10
13.8941815363934
20
2.74182053547378
30
0
41
1
10
13.8283728244229
20
2.75431646549123
30
0
41
1
10
13.6967951355086
20
2.7770128640548
30
0
41
1
10
13.6310320095685
20
2.78719451901824
30
0
41
1
10
13.47645336206
20
2.80822597452411
30
0
41
1
10
13.3876479421071
20
2.81806520893156
30
0
41
1
10
13.2987996130173
20
2.82554777461354
30
0
0
SPLINE
5
155
100
AcDbEntity
8
1
62
256
6
ByLayer
370
13
48
1
60
0
100
AcDbSpline
70
4
71
3
72
9
73
5
40
0
40
0
40
0
40
0
40
0.467963899289973
40
1
40
1
40
1
40
1
41
1
10
8.00000000488149
20
0.906726071450692
30
0
41
1
10
8.00000000531566
20
0.721055426042454
30
0
41
1
10
8.00000000665062
20
0.305085364026553
30
0
41
1
10
8.00000000000165
20
-0.13337388389499
30
0
41
1
10
8
20
-0.366702885139347
30
0
0
SPLINE
5
156
100
AcDbEntity
8
1
62
256
6
ByLayer
370
18
48
1
60
0
100
AcDbSpline
70
4
71
3
72
8
73
4
40
0
40
0
40
0
40
0
40
1
40
1
40
1
40
1
41
1
10
8.00000000488149
20
0.906726071450805
30
0
41
1
10
8.00696596948046
20
0.901732229173064
30
0
41
1
10
8.01393048227936
20
0.896728935281686
30
0
41
1
10
8.02089359177015
20
0.89171623779788
30
0
0
SPLINE
5
157
100
AcDbEntity
8
1
62
256
6
ByLayer
370
18
48
1
60
0
100
AcDbSpline
70
4
71
3
72
32
73
28
40
0
40
0
40
0
40
0
40
0.18212870337804
40
0.18212870337804
40
0.364257406756079
40
0.364257406756079
40
0.455321758445099
40
0.455321758445099
40
0.546386110134119
40
0.546386110134119
40
0.591918285978632
40
0.591918285978632
40
0.637450461823144
40
0.637450461823144
40
0.728514813512169
40
0.728514813512169
40
0.819579165201193
40
0.819579165201193
40
0.865111341045705
40
0.865111341045705
40
0.910643516890217
40
0.910643516890217
40
0.933409604812472
40
0.933409604812472
40
0.956175692734727
40
0.956175692734727
40
1
40
1
40
1
40
1
41
1
10
5.93854312734237
20
2.16697525702904
30
0
41
1
10
5.81062131074683
20
2.23301297543543
30
0
41
1
10
5.68495357338858
20
2.29599704588423
30
0
41
1
10
5.43812172970141
20
2.41477907089941
30
0
41
1
10
5.31694105947361
20
2.47058794021368
30
0
41
1
10
5.13918975971686
20
2.54810495834209
30
0
41
1
10
5.08061720771357
20
2.57291029511168
30
0
41
1
10
4.96508530463438
20
2.62028026027826
30
0
41
1
10
4.90812296860213
20
2.64284609859001
30
0
41
1
10
4.82420790116089
20
2.67484320602443
30
0
41
1
10
4.79654596885018
20
2.68517876048782
30
0
41
1
10
4.74214617402129
20
2.70507811987719
30
0
41
1
10
4.71537508469231
20
2.71465462832435
30
0
41
1
10
4.63651040512175
20
2.74221410888919
30
0
41
1
10
4.58584172326118
20
2.75903349231189
30
0
41
1
10
4.48962084728839
20
2.78917573793782
30
0
41
1
10
4.44403813260362
20
2.80250619157172
30
0
41
1
10
4.38127252993519
20
2.81937587096496
30
0
41
1
10
4.36124158313166
20
2.8244870190118
30
0
41
1
10
4.32406223442536
20
2.83341304838552
30
0
41
1
10
4.3068661959143
20
2.83724201590047
30
0
41
1
10
4.28365838960485
20
2.8419383630652
30
0
41
1
10
4.27635529995641
20
2.84332896167581
30
0
41
1
10
4.26272618855296
20
2.84573929532047
30
0
41
1
10
4.25638434282234
20
2.84676111706162
30
0
41
1
10
4.23959379918759
20
2.8491524929679
30
0
41
1
10
4.23076836491151
20
2.84997234508501
30
0
41
1
10
4.22461086231667
20
2.84999931403604
30
0
0
SPLINE
5
158
100
AcDbEntity
8
1
62
256
6
ByLayer
370
18
48
1
60
0
100
AcDbSpline
70
4
71
3
72
12
73
8
40
0
40
0
40
0
40
0
40
0.0533285120364675
40
0.0533285120364675
40
0.368885674690995
40
0.368885674690995
40
1
40
1
40
1
40
1
41
1
10
4.57605037474511
20
2.761529729503
30
0
41
1
10
4.58196462046337
20
2.76060721650754
30
0
41
1
10
4.58791254521137
20
2.75969137513269
30
0
41
1
10
4.6292268181117
20
2.75341240963203
30
0
41
1
10
4.66541641361292
20
2.74832428450426
30
0
41
1
10
4.77603422021767
20
2.73392599234845
30
0
41
1
10
4.85248530182452
20
2.72548319823088
30
0
41
1
10
4.93091205949972
20
2.71819901899568
30
0
0
SPLINE
5
159
100
AcDbEntity
8
1
62
256
6
ByLayer
370
13
48
1
60
0
100
AcDbSpline
70
4
71
3
72
9
73
5
40
0
40
0
40
0
40
0
40
0.298748336329317
40
1
40
1
40
1
40
1
41
1
10
8.00000000543929
20
2.87404683898311
30
0
41
1
10
8.00000000549505
20
2.88126492106602
30
0
41
1
10
8.00000000504622
20
2.88897429596725
30
0
41
1
10
8.00000000000168
20
2.84111961010612
30
0
41
1
10
8
20
2.78113814638175
30
0
0
SPLINE
5
15A
100
AcDbEntity
8
1
62
256
6
ByLayer
370
18
48
1
60
0
100
AcDbSpline
70
4
71
3
72
12
73
8
40
0
40
0
40
0
40
0
40
0.500000000000039
40
0.500000000000039
40
0.750000000000019
40
0.750000000000019
40
1
40
1
40
1
40
1
41
1
10
20.4797812244607
20
1.30391718638558
30
0
41
1
10
20.5079748818895
20
1.28276986199745
30
0
41
1
10
20.5356438481645
20
1.26170194753735
30
0
41
1
10
20.5763553930505
20
1.23019093555922
30
0
41
1
10
20.5897928263854
20
1.21970154761206
30
0
41
1
10
20.6163801268659
20
1.19873483590416
30
0
41
1
10
20.629570769815
20
1.18822461753189
30
0
41
1
10
20.6424913074275
20
1.17779476632734
30
0
0
SPLINE
5
15B
100
AcDbEntity
8
1
62
256
6
ByLayer
370
18
48
1
60
0
100
AcDbSpline
70
4
71
3
72
22
73
18
40
0
40
0
40
0
40
0
40
0.125786158757415
40
0.125786158757415
40
0.251572317514829
40
0.251572317514829
40
0.377358476272244
40
0.377358476272244
40
0.503144635029659
40
0.503144635029659
40
0.628930793787074
40
0.628930793787074
40
0.754716952544488
40
0.754716952544488
40
0.880503111301903
40
0.880503111301903
40
1
40
1
40
1
40
1
41
1
10
20.480189219589
20
1.30363456026998
30
0
41
1
10
20.2201852219375
20
1.48659038000949
30
0
41
1
10
19.960181224286
20
1.66054468216345
30
0
41
1
10
19.440173228983
20
1.98331621028109
30
0
41
1
10
19.1801692313315
20
2.13212429499444
30
0
41
1
10
18.6601612360284
20
2.39848232999199
30
0
41
1
10
18.400157238377
20
2.51602473593633
30
0
41
1
10
17.8801492430738
20
2.71501578252796
30
0
41
1
10
17.6201452454225
20
2.79645878635216
30
0
41
1
10
17.1001372501194
20
2.919899677334
30
0
41
1
10
16.840133252468
20
2.96189406853068
30
0
41
1
10
16.3201252571649
20
3.00470848818139
30
0
41
1
10
16.0601212595134
20
3.00552730314718
30
0
41
1
10
15.5401132642104
20
2.96595453699038
30
0
41
1
10
15.2801092665589
20
2.92556407694227
30
0
41
1
10
14.7731013928422
20
2.80823972323495
30
0
41
1
10
14.5260975167772
20
2.73323704092351
30
0
41
1
10
14.279093640712
20
2.64179508842767
30
0
0
SPLINE
5
15C
100
AcDbEntity
8
1
62
256
6
ByLayer
370
18
48
1
60
0
100
AcDbSpline
70
4
71
3
72
22
73
18
40
0
40
0
40
0
40
0
40
0.0948471078205227
40
0.0948471078205227
40
0.224154663846162
40
0.224154663846162
40
0.353462219871802
40
0.353462219871802
40
0.482769775897442
40
0.482769775897442
40
0.612077331923081
40
0.612077331923081
40
0.741384887948721
40
0.741384887948721
40
0.87069244397436
40
0.87069244397436
40
1
40
1
40
1
40
1
41
1
10
14.0322201731834
20
-2.97744321512073
30
0
41
1
10
13.8415072097884
20
-2.99567178980036
30
0
41
1
10
13.6507942463933
20
-3.00288966943316
30
0
41
1
10
13.2000772853468
20
-2.99363232078611
30
0
41
1
10
12.9400732876952
20
-2.96759626359156
30
0
41
1
10
12.4200652923923
20
-2.87520029716907
30
0
41
1
10
12.1600612947408
20
-2.80884300525363
30
0
41
1
10
11.6400532994377
20
-2.63853115111351
30
0
41
1
10
11.3800493017862
20
-2.5345814137477
30
0
41
1
10
10.8600413064833
20
-2.29335736559878
30
0
41
1
10
10.6000373088317
20
-2.15608988853535
30
0
41
1
10
10.0800293135288
20
-1.85387347345642
30
0
41
1
10
9.82002531587725
20
-1.68893309418516
30
0
41
1
10
9.30001732057423
20
-1.33815233470605
30
0
41
1
10
9.04001332292276
20
-1.15232188949594
30
0
41
1
10
8.52000532761969
20
-0.767401933250994
30
0
41
1
10
8.26000132996819
20
-0.568323324886251
30
0
41
1
10
7.99999733231675
20
-0.366708281268842
30
0
0
SPLINE
5
15D
100
AcDbEntity
8
1
62
256
6
ByLayer
370
18
48
1
60
0
100
AcDbSpline
70
4
71
3
72
36
73
32
40
0
40
0
40
0
40
0
40
0.0124153831036162
40
0.0124153831036162
40
0.0829571414533579
40
0.0829571414533579
40
0.1534988998031
40
0.1534988998031
40
0.224040658152841
40
0.224040658152841
40
0.294582416502583
40
0.294582416502583
40
0.365124174852325
40
0.365124174852325
40
0.435665933202066
40
0.435665933202066
40
0.506207691551808
40
0.506207691551808
40
0.57674944990155
40
0.57674944990155
40
0.647291208251291
40
0.647291208251291
40
0.717832966601033
40
0.717832966601033
40
0.788374724950775
40
0.788374724950775
40
0.858916483300517
40
0.858916483300517
40
0.929458241650258
40
0.929458241650258
40
1
40
1
40
1
40
1
41
1
10
19.0574477163468
20
-2.97754510820528
30
0
41
1
10
19.0116868887912
20
-2.98191344164206
30
0
41
1
10
18.9659260612355
20
-2.98564716818515
30
0
41
1
10
18.6601612360284
20
-3.00632633278795
30
0
41
1
10
18.4001572383769
20
-3.00328481498153
30
0
41
1
10
17.8801492430738
20
-2.95607482081684
30
0
41
1
10
17.6201452454223
20
-2.91190768094904
30
0
41
1
10
17.1001372501193
20
-2.78426042336935
30
0
41
1
10
16.8401332524679
20
-2.70078392153269
30
0
41
1
10
16.3201252571648
20
-2.49794859544988
30
0
41
1
10
16.0601212595133
20
-2.37859551559998
30
0
41
1
10
15.5401132642103
20
-2.10891328028077
30
0
41
1
10
15.2801092665589
20
-1.95859176342131
30
0
41
1
10
14.7601012712557
20
-1.63315273520081
30
0
41
1
10
14.5000972736043
20
-1.4580444414147
30
0
41
1
10
13.9800892783013
20
-1.09023163288853
30
0
41
1
10
13.7200852806498
20
-0.897537535862995
30
0
41
1
10
13.2000772853468
20
-0.502476508557862
30
0
41
1
10
12.9400732876953
20
-0.300120768081285
30
0
41
1
10
12.4200652923923
20
0.105942376053179
30
0
41
1
10
12.1600612947407
20
0.309638278493821
30
0
41
1
10
11.6400532994378
20
0.710004986533761
30
0
41
1
10
11.3800493017862
20
0.906664452452219
30
0
41
1
10
10.8600413064833
20
1.28487041471712
30
0
41
1
10
10.6000373088318
20
1.46640619928482
30
0
41
1
10
10.0800293135288
20
1.80689841476777
30
0
41
1
10
9.82002531587725
20
1.96584520048108
30
0
41
1
10
9.30001732057431
20
2.25462156029636
30
0
41
1
10
9.04001332292276
20
2.38444295452399
30
0
41
1
10
8.5200053276198
20
2.60962805559865
30
0
41
1
10
8.2600013299683
20
2.70498538467166
30
0
41
1
10
7.99999733231678
20
2.78115213499493
30
0
0
SPLINE
5
15E
100
AcDbEntity
8
1
62
256
6
ByLayer
370
18
48
1
60
0
100
AcDbSpline
70
4
71
3
72
36
73
32
40
0
40
0
40
0
40
0
40
0.0698970775962217
40
0.0698970775962217
40
0.139794155192443
40
0.139794155192443
40
0.209691232788665
40
0.209691232788665
40
0.279588310384887
40
0.279588310384887
40
0.349485387981109
40
0.349485387981109
40
0.41938246557733
40
0.41938246557733
40
0.489279543173552
40
0.489279543173552
40
0.559176620769774
40
0.559176620769774
40
0.629073698365995
40
0.629073698365995
40
0.698970775962217
40
0.698970775962217
40
0.768867853558439
40
0.768867853558439
40
0.83876493115466
40
0.83876493115466
40
0.908662008750882
40
0.908662008750882
40
0.978559086347104
40
0.978559086347104
40
1
40
1
40
1
40
1
41
1
10
20.480189219589
20
-2.27247910010138
30
0
41
1
10
20.2201852219374
20
-2.13986248220468
30
0
41
1
10
19.960181224286
20
-1.99156717358255
30
0
41
1
10
19.4401732289829
20
-1.66970088045287
30
0
41
1
10
19.1801692313314
20
-1.49613901349653
30
0
41
1
10
18.6601612360284
20
-1.13087575423216
30
0
41
1
10
18.4001572383769
20
-0.939184707827138
30
0
41
1
10
17.8801492430739
20
-0.545545197706105
30
0
41
1
10
17.6201452454223
20
-0.343607883263303
30
0
41
1
10
17.1001372501195
20
0.0622202341840818
30
0
41
1
10
16.8401332524678
20
0.266099542466833
30
0
41
1
10
16.3201252571649
20
0.6674273797762
30
0
41
1
10
16.0601212595134
20
0.864864541471775
30
0
41
1
10
15.5401132642103
20
1.24518826549843
30
0
41
1
10
15.2801092665588
20
1.42806405566867
30
0
41
1
10
14.7601012712559
20
1.77174357634925
30
0
41
1
10
14.5000972736042
20
1.93253757229243
30
0
41
1
10
13.9800892783013
20
2.22543971046301
30
0
41
1
10
13.7200852806498
20
2.35753955651245
30
0
41
1
10
13.2000772853467
20
2.58761924511739
30
0
41
1
10
12.9400732876953
20
2.68559257186078
30
0
41
1
10
12.4200652923923
20
2.84338818901284
30
0
41
1
10
12.1600612947407
20
2.90320601036811
30
0
41
1
10
11.6400532994378
20
2.98222846839926
30
0
41
1
10
11.3800493017863
20
3.00143086794333
30
0
41
1
10
10.8600413064832
20
2.99843046902552
30
0
41
1
10
10.6000373088318
20
2.97622775711417
30
0
41
1
10
10.0800293135288
20
2.89132783553572
30
0
41
1
10
9.8200253158773
20
2.82863302871215
30
0
41
1
10
9.4802651473704
20
2.72193157968661
30
0
41
1
10
9.40050897651506
20
2.69510066302047
30
0
41
1
10
9.32075280565971
20
2.66654574708764
30
0
0
SPLINE
5
15F
100
AcDbEntity
8
1
62
256
6
ByLayer
370
18
48
1
60
0
100
AcDbSpline
70
4
71
3
72
8
73
4
40
0
40
0
40
0
40
0
40
1
40
1
40
1
40
1
41
1
10
20.480822046282
20
-2.27243956989582
30
0
41
1
10
20.4983432219109
20
-2.27580853602294
30
0
41
1
10
20.5160069663699
20
-2.27849405500416
30
0
41
1
10
20.5338021323221
20
-2.28056251589831
30
0
0
SPLINE
5
160
100
AcDbEntity
8
1
62
256
6
ByLayer
370
18
48
1
60
0
100
AcDbSpline
70
4
71
3
72
18
73
14
40
0
40
0
40
0
40
0
40
0.25
40
0.25
40
0.375
40
0.375
40
0.5
40
0.5
40
0.625
40
0.625
40
0.75
40
0.75
40
1
40
1
40
1
40
1
41
1
10
8.00009399761595
20
-0.36670231467653
30
0
41
1
10
8.00177557370739
20
-0.25827326928902
30
0
41
1
10
8.00358127872028
20
-0.150340102953066
30
0
41
1
10
8.00614600538341
20
0.0108310342002085
30
0
41
1
10
8.00698252458625
20
0.0644329052364583
30
0
41
1
10
8.0086374070132
20
0.171390505031866
30
0
41
1
10
8.00945324388519
20
0.224591658296589
30
0
41
1
10
8.01113409088089
20
0.330256402640515
30
0
41
1
10
8.01201690897702
20
0.382748841231518
30
0
41
1
10
8.01382236485136
20
0.487054630507373
30
0
41
1
10
8.01473806480078
20
0.538921109494623
30
0
41
1
10
8.01743616994398
20
0.692822569199706
30
0
41
1
10
8.01914331556338
20
0.793325087394948
30
0
41
1
10
8.02089359177015
20
0.89171623779788
30
0
0
SPLINE
5
161
100
AcDbEntity
8
1
62
256
6
ByLayer
370
18
48
1
60
0
100
AcDbSpline
70
4
71
3
72
12
73
8
40
0
40
0
40
0
40
0
40
0.25
40
0.25
40
0.5
40
0.5
40
1
40
1
40
1
40
1
41
1
10
8
20
-2.9111538465753
30
0
41
1
10
7.96706140337506
20
-2.89887311669139
30
0
41
1
10
7.93443828805465
20
-2.88518023552604
30
0
41
1
10
7.86966489580684
20
-2.85506932471412
30
0
41
1
10
7.83746660441204
20
-2.83862353434259
30
0
41
1
10
7.74177524519268
20
-2.78551925815103
30
0
41
1
10
7.67919061135979
20
-2.74515076147719
30
0
41
1
10
7.617182520136
20
-2.69995738929927
30
0
0
SPLINE
5
162
100
AcDbEntity
8
1
62
256
6
ByLayer
370
18
48
1
60
0
100
AcDbSpline
70
4
71
3
72
8
73
4
40
0
40
0
40
0
40
0
40
1
40
1
40
1
40
1
41
1
10
7.617182520136
20
-2.69995738929927
30
0
41
1
10
7.55827202672339
20
-2.65706500861279
30
0
41
1
10
7.50049262837445
20
-2.6102154732682
30
0
41
1
10
7.44330858755288
20
-2.5594208008969
30
0
0
SPLINE
5
163
100
AcDbEntity
8
1
62
256
6
ByLayer
370
18
48
1
60
0
100
AcDbSpline
70
4
71
3
72
12
73
8
40
0
40
0
40
0
40
0
40
0.499999999999997
40
0.499999999999997
40
0.749999999999999
40
0.749999999999999
40
1
40
1
40
1
40
1
41
1
10
5.60000000841819
20
1.3324436420277
30
0
41
1
10
5.60000000835856
20
1.34631839429363
30
0
41
1
10
5.60000000829575
20
1.35917426960484
30
0
41
1
10
5.60000000819628
20
1.37676664022592
30
0
41
1
10
5.60000000816226
20
1.38234759668404
30
0
41
1
10
5.60000000809225
20
1.39289609677183
30
0
41
1
10
5.60000000805616
20
1.39788339714093
30
0
41
1
10
5.60000000801949
20
1.40247017164779
30
0
0
SPLINE
5
164
100
AcDbEntity
8
1
62
256
6
ByLayer
370
18
48
1
60
0
100
AcDbSpline
70
4
71
3
72
65
73
61
40
0
40
0
40
0
40
0
40
0.124999999999996
40
0.124999999999996
40
0.249999999999992
40
0.249999999999992
40
0.312499999999993
40
0.312499999999993
40
0.343749999999991
40
0.343749999999991
40
0.374999999999989
40
0.374999999999989
40
0.437499999999985
40
0.437499999999985
40
0.499999999999981
40
0.499999999999981
40
0.53124999999998
40
0.53124999999998
40
0.546874999999981
40
0.546874999999981
40
0.562499999999983
40
0.562499999999983
40
0.593749999999985
40
0.593749999999985
40
0.624999999999988
40
0.624999999999988
40
0.640624999999988
40
0.640624999999988
40
0.656249999999988
40
0.656249999999988
40
0.687499999999988
40
0.687499999999988
40
0.703124999999988
40
0.703124999999988
40
0.710937499999987
40
0.710937499999987
40
0.718749999999987
40
0.749999999999985
40
0.749999999999985
40
0.757812499999984
40
0.757812499999984
40
0.765624999999983
40
0.765624999999983
40
0.781249999999981
40
0.781249999999981
40
0.812499999999979
40
0.812499999999979
40
0.82812499999998
40
0.82812499999998
40
0.843749999999981
40
0.843749999999981
40
0.874999999999983
40
0.874999999999983
40
0.890624999999984
40
0.890624999999984
40
0.906249999999985
40
0.906249999999985
40
0.937499999999991
40
0.937499999999991
40
1
40
1
40
1
40
1
41
1
10
5.75392885715112
20
-2.84901603737467
30
0
41
1
10
5.63585556427302
20
-2.85156707270258
30
0
41
1
10
5.51973052765027
20
-2.849220987878
30
0
41
1
10
5.29165847053903
20
-2.83351175588706
30
0
41
1
10
5.1796926926815
20
-2.82017510870446
30
0
41
1
10
5.01573622065013
20
-2.79039112692575
30
0
41
1
10
4.96175749091458
20
-2.77882501984624
30
0
41
1
10
4.88202799650921
20
-2.75869241773305
30
0
41
1
10
4.85563801625352
20
-2.75151020698002
30
0
41
1
10
4.80341974023622
20
-2.7361689685138
30
0
41
1
10
4.77766105980533
20
-2.72803121773839
30
0
41
1
10
4.70154728663735
20
-2.70213193867198
30
0
41
1
10
4.65234076296076
20
-2.68289427414439
30
0
41
1
10
4.55785218503306
20
-2.63983609964134
30
0
41
1
10
4.5125563327704
20
-2.61602530518425
30
0
41
1
10
4.44862806741776
20
-2.57608139925299
30
0
41
1
10
4.42799350122311
20
-2.56205812656762
30
0
41
1
10
4.39827047329294
20
-2.53980306066066
30
0
41
1
10
4.38856831338506
20
-2.53218084418541
30
0
41
1
10
4.36962202622232
20
-2.5164948550929
30
0
41
1
10
4.36037604601674
20
-2.50842759422315
30
0
41
1
10
4.33358344538141
20
-2.48367374630169
30
0
41
1
10
4.31691581330608
20
-2.46638932053762
30
0
41
1
10
4.28647880285851
20
-2.43004090472712
30
0
41
1
10
4.27270543779903
20
-2.41097849562422
30
0
41
1
10
4.2547693812906
20
-2.3808193696415
30
0
41
1
10
4.24925509806243
20
-2.37051048818054
30
0
41
1
10
4.23935879402217
20
-2.3495593664654
30
0
41
1
10
4.2349607063511
20
-2.33889162235459
30
0
41
1
10
4.22356648976606
20
-2.30628873165747
30
0
41
1
10
4.21835796579657
20
-2.28375582533735
30
0
41
1
10
4.21490915321553
20
-2.24863910248769
30
0
41
1
10
4.21448964644995
20
-2.23671354035764
30
0
41
1
10
4.21508630980213
20
-2.2184751463661
30
0
41
1
10
4.21549194711395
20
-2.21232229475737
30
0
41
1
10
4.21672358636667
20
-2.20001366248056
30
0
41
1
10
4.22085123913587
20
-2.1691930483828
30
0
41
1
10
4.2302797220033
20
-2.13816098180996
30
0
41
1
10
4.24423267345361
20
-2.1070810162301
30
0
41
1
10
4.2472498382906
20
-2.10086267926013
30
0
41
1
10
4.25374592411103
20
-2.08842457979344
30
0
41
1
10
4.25723542492898
20
-2.08218774155861
30
0
41
1
10
4.26831981822599
20
-2.06362817070476
30
0
41
1
10
4.27651887449574
20
-2.0514639253656
30
0
41
1
10
4.30341470027574
20
-2.01559992118948
30
0
41
1
10
4.32440468433188
20
-1.99252838133637
30
0
41
1
10
4.36007433669093
20
-1.95919601858327
30
0
41
1
10
4.37268926571014
20
-1.94828382716528
30
0
41
1
10
4.39878726432164
20
-1.92724605156067
30
0
41
1
10
4.41232062311849
20
-1.91706990234937
30
0
41
1
10
4.45422912807828
20
-1.8874917915432
30
0
41
1
10
4.48390626461591
20
-1.86903666986518
30
0
41
1
10
4.53060353815113
20
-1.8430201329854
30
0
41
1
10
4.54653469730266
20
-1.83462662180077
30
0
41
1
10
4.57907463562057
20
-1.81836838839931
30
0
41
1
10
4.59567053400576
20
-1.81051255299278
30
0
41
1
10
4.64589888009874
20
-1.78791360366824
30
0
41
1
10
4.68013589132022
20
-1.77404937320065
30
0
41
1
10
4.78470833989419
20
-1.73552778507136
30
0
41
1
10
4.85688419067105
20
-1.71391321437088
30
0
41
1
10
4.93091205950003
20
-1.69552757046233
30
0
0
SPLINE
5
165
100
AcDbEntity
8
1
62
256
6
ByLayer
370
18
48
1
60
0
100
AcDbSpline
70
4
71
3
72
23
73
19
40
0
40
0
40
0
40
0
40
0.0624999999999983
40
0.0624999999999983
40
0.124999999999997
40
0.124999999999997
40
0.249999999999993
40
0.249999999999993
40
0.37499999999999
40
0.37499999999999
40
0.499999999999987
40
0.499999999999987
40
0.74999999999998
40
0.74999999999998
40
0.812499999999985
40
0.812499999999985
40
0.87499999999999
40
1
40
1
40
1
40
1
41
1
10
4.93091205950003
20
-1.6955275704623
30
0
41
1
10
4.94497069790867
20
-1.69203595137736
30
0
41
1
10
4.95933104711045
20
-1.68924730185316
30
0
41
1
10
4.98853752688234
20
-1.68484430541756
30
0
41
1
10
5.00315535943628
20
-1.68326354231974
30
0
41
1
10
5.04704387302985
20
-1.68001702668732
30
0
41
1
10
5.07634911470655
20
-1.67982838481697
30
0
41
1
10
5.13502811512708
20
-1.68238214524962
30
0
41
1
10
5.16452821248026
20
-1.68516630952951
30
0
41
1
10
5.22244592972467
20
-1.69301124069526
30
0
41
1
10
5.25098935274553
20
-1.69807225072168
30
0
41
1
10
5.33557751924999
20
-1.7160626683783
30
0
41
1
10
5.39059263328048
20
-1.73176753008738
30
0
41
1
10
5.45792485932046
20
-1.7550624695387
30
0
41
1
10
5.47132663717176
20
-1.75991188125681
30
0
41
1
10
5.49779830714564
20
-1.769895801491
30
0
41
1
10
5.53707969818288
20
-1.78532387814536
30
0
41
1
10
5.57513892182106
20
-1.80201901130096
30
0
41
1
10
5.60000000801963
20
-1.81365339618173
30
0
0
SPLINE
5
166
100
AcDbEntity
8
1
62
256
6
ByLayer
370
18
48
1
60
0
100
AcDbSpline
70
4
71
3
72
8
73
4
40
0
40
0
40
0
40
0
40
1
40
1
40
1
40
1
41
1
10
5.60000001048263
20
-0.971122866009409
30
0
41
1
10
5.60000001052649
20
-0.962117144532073
30
0
41
1
10
5.60000001057048
20
-0.953043379551104
30
0
41
1
10
5.60000001061462
20
-0.943902096408749
30
0
0
SPLINE
5
167
100
AcDbEntity
8
1
62
256
6
ByLayer
370
18
48
1
60
0
100
AcDbSpline
70
4
71
3
72
8
73
4
40
0
40
0
40
0
40
0
40
1
40
1
40
1
40
1
41
1
10
7.61718252013603
20
-0.0311200936180285
30
0
41
1
10
7.55827202672339
20
0.020157704420626
30
0
41
1
10
7.50049262837442
20
0.0696315561406777
30
0
41
1
10
7.44330858755288
20
0.11647731840489
30
0
0
SPLINE
5
168
100
AcDbEntity
8
1
62
256
6
ByLayer
370
18
48
1
60
0
100
AcDbSpline
70
4
71
3
72
12
73
8
40
0
40
0
40
0
40
0
40
0.25
40
0.25
40
0.5
40
0.5
40
1
40
1
40
1
40
1
41
1
10
8
20
-0.366702885148243
30
0
41
1
10
7.96706140337506
20
-0.338545930725871
30
0
41
1
10
7.93443828805462
20
-0.310275532838546
30
0
41
1
10
7.86966489580681
20
-0.253682962046895
30
0
41
1
10
7.83746660441204
20
-0.225317958636197
30
0
41
1
10
7.74177524519268
20
-0.140790442468529
30
0
41
1
10
7.67919061135979
20
-0.085191894591901
30
0
41
1
10
7.617182520136
20
-0.0311200936180285
30
0
0
SPLINE
5
169
100
AcDbEntity
8
1
62
256
6
ByLayer
370
18
48
1
60
0
100
AcDbSpline
70
4
71
3
72
12
73
8
40
0
40
0
40
0
40
0
40
0.25
40
0.25
40
0.5
40
0.5
40
1
40
1
40
1
40
1
41
1
10
8.00000000000003
20
2.78113814637945
30
0
41
1
10
7.96706140337508
20
2.78615964025974
30
0
41
1
10
7.93443828805465
20
2.7897914809715
30
0
41
1
10
7.86966489580684
20
2.79426819446692
30
0
41
1
10
7.83746660441204
20
2.79511131093562
30
0
41
1
10
7.74177524519268
20
2.79338594866601
30
0
41
1
10
7.67919061135979
20
2.78662384565294
30
0
41
1
10
7.617182520136
20
2.77390845675927
30
0
0
SPLINE
5
16A
100
AcDbEntity
8
1
62
256
6
ByLayer
370
18
48
1
60
0
100
AcDbSpline
70
4
71
1
72
4
73
2
40
0
40
0
40
1
40
1
41
1
10
5.95747741895011
20
-2.62520967542272
30
0
41
1
10
6.13527141783584
20
-2.61593006033254
30
0
0
SPLINE
5
16B
100
AcDbEntity
8
1
62
256
6
ByLayer
370
18
48
1
60
0
100
AcDbSpline
70
4
71
2
72
6
73
3
40
0
40
0
40
0
40
1
40
1
40
1
41
1
10
8.28943752179819
20
2.85826581314723
30
0
41
1
10
8.15148091794174
20
2.87036424871008
30
0
41
1
10
8.01356427692951
20
2.88277709474815
30
0
0
SPLINE
5
16C
100
AcDbEntity
8
1
62
256
6
ByLayer
370
18
48
1
60
0
100
AcDbSpline
70
4
71
1
72
4
73
2
40
0
40
0
40
1
40
1
41
1
10
20.9480630900494
20
0.730582300023002
30
0
41
1
10
20.9379140416554
20
0.735288230929456
30
0
0
SPLINE
5
16D
100
AcDbEntity
8
1
62
256
6
ByLayer
370
18
48
1
60
0
100
AcDbSpline
70
4
71
2
72
6
73
3
40
0
40
0
40
0
40
1
40
1
40
1
41
1
10
20.9110391026617
20
0.222744027852144
30
0
41
1
10
20.9427678987379
20
0.466153432141823
30
0
41
1
10
20.9745156756628
20
0.709707384748498
30
0
0
SPLINE
5
16E
100
AcDbEntity
8
1
62
256
6
ByLayer
370
18
48
1
60
0
100
AcDbSpline
70
4
71
2
72
6
73
3
40
0
40
0
40
0
40
1
40
1
40
1
41
1
10
20.888210058411
20
-2.4855083189733
30
0
41
1
10
20.9214592654468
20
-2.36958763190251
30
0
41
1
10
20.9547084724828
20
-2.25366694483171
30
0
0
SPLINE
5
16F
100
AcDbEntity
8
1
62
256
6
ByLayer
370
18
48
1
60
0
100
AcDbSpline
70
4
71
1
72
4
73
2
40
0
40
0
40
1
40
1
41
1
10
20.7315120948965
20
-2.76255213807679
30
0
41
1
10
20.8387113834938
20
-2.590632262024
30
0
0
SPLINE
5
170
100
AcDbEntity
8
1
62
256
6
ByLayer
370
18
48
1
60
0
100
AcDbSpline
70
4
71
1
72
4
73
2
40
0
40
0
40
1
40
1
41
1
10
7.44330858947245
20
2.7302631387094
30
0
41
1
10
6.99458291031152
20
2.75361714801312
30
0
0
SPLINE
5
171
100
AcDbEntity
8
1
62
256
6
ByLayer
370
18
48
1
60
0
100
AcDbSpline
70
4
71
1
72
4
73
2
40
0
40
0
40
1
40
1
41
1
10
6.94143073689176
20
2.75638346251262
30
0
41
1
10
6.92371571301717
20
2.75730544414103
30
0
0
SPLINE
5
172
100
AcDbEntity
8
1
62
256
6
ByLayer
370
18
48
1
60
0
100
AcDbSpline
70
4
71
1
72
4
73
2
40
0
40
0
40
1
40
1
41
1
10
8.00000000516448
20
2.88197934715487
30
0
41
1
10
7.44330858921901
20
2.73293031258211
30
0
0
SPLINE
5
173
100
AcDbEntity
8
1
62
256
6
ByLayer
370
18
48
1
60
0
100
AcDbSpline
70
4
71
3
72
11
73
7
40
0
40
0
40
0
40
0
40
0.31102830498416
40
0.497752148824331
40
0.685902225458251
40
1
40
1
40
1
40
1
41
1
10
9.40460333123801
20
-2.97775809874187
30
0
41
1
10
9.5378326363678
20
-2.96503290781237
30
0
41
1
10
9.75104316640079
20
-2.94488098879299
30
0
41
1
10
10.044841228629
20
-2.91765082422378
30
0
41
1
10
10.3399530158989
20
-2.89051262407204
30
0
41
1
10
10.5550823314154
20
-2.8710980677491
30
0
41
1
10
10.6896201393173
20
-2.85908367536896
30
0
0
SPLINE
5
174
100
AcDbEntity
8
1
62
256
6
ByLayer
370
18
48
1
60
0
100
AcDbSpline
70
4
71
1
72
4
73
2
40
0
40
0
40
1
40
1
41
1
10
20.8974451319725
20
1.45533803777837
30
0
41
1
10
20.733419249936
20
1.96849124606069
30
0
0
SPLINE
5
175
100
AcDbEntity
8
1
62
256
6
ByLayer
370
18
48
1
60
0
100
AcDbSpline
70
4
71
2
72
6
73
3
40
0
40
0
40
0
40
1
40
1
40
1
41
1
10
20.9659783359255
20
0.991472186093688
30
0
41
1
10
20.9327291288896
20
1.22221378950192
30
0
41
1
10
20.8994799218536
20
1.45295539291018
30
0
0
SPLINE
5
176
100
AcDbEntity
8
1
62
256
6
ByLayer
370
18
48
1
60
0
100
AcDbSpline
70
4
71
3
72
13
73
9
40
0
40
0
40
0
40
0
40
0.206564513972547
40
0.35976222517213
40
0.461119418856185
40
0.531064012495864
40
0.72632850879913
40
1
40
1
40
1
40
1
41
1
10
18.1316627698658
20
2.84169656121071
30
0
41
1
10
18.0290555658122
20
2.85050050709339
30
0
41
1
10
17.8503766556219
20
2.86607626199293
30
0
41
1
10
17.6214329664115
20
2.88661052208317
30
0
41
1
10
17.4603312355401
20
2.90129623845104
30
0
41
1
10
17.2783086851644
20
2.91804243817282
30
0
41
1
10
17.0107313458585
20
2.94298166012172
30
0
41
1
10
16.7778797281827
20
2.96494416101277
30
0
41
1
10
16.641987661399
20
2.97787354615272
30
0
0
SPLINE
5
177
100
AcDbEntity
8
1
62
256
6
ByLayer
370
18
48
1
60
0
100
AcDbSpline
70
4
71
3
72
8
73
4
40
0
40
0
40
0
40
0
40
1
40
1
40
1
40
1
41
1
10
17.1096584805141
20
1.27061903978938
30
0
41
1
10
17.1496751299034
20
1.24565896100015
30
0
41
1
10
17.1901648139762
20
1.21960653454994
30
0
41
1
10
17.2311170242583
20
1.19249298294437
30
0
0
SPLINE
5
178
100
AcDbEntity
8
1
62
256
6
ByLayer
370
18
48
1
60
0
100
AcDbSpline
70
4
71
1
72
4
73
2
40
0
40
0
40
1
40
1
41
1
10
17.2838205614703
20
1.15718823881278
30
0
41
1
10
17.3242895287881
20
1.13181749504514
30
0
0
SPLINE
5
179
100
AcDbEntity
8
1
62
256
6
ByLayer
370
18
48
1
60
0
100
AcDbSpline
70
4
71
3
72
12
73
8
40
0
40
0
40
0
40
0
40
0.256628151338488
40
0.425761884741177
40
0.524497088560408
40
0.720254934097022
40
1
40
1
40
1
40
1
41
1
10
14.0297172270742
20
-2.97770089038954
30
0
41
1
10
14.1744444895346
20
-2.96394303867163
30
0
41
1
10
14.4145435848182
20
-2.94135388757849
30
0
41
1
10
14.7102675577896
20
-2.91396927553404
30
0
41
1
10
14.9716986419031
20
-2.89008594938474
30
0
41
1
10
15.2954768958712
20
-2.86097497120156
30
0
41
1
10
15.563627939022
20
-2.83789330299393
30
0
41
1
10
15.7213923469965
20
-2.82462855886615
30
0
0
SPLINE
5
17A
100
AcDbEntity
8
1
62
256
6
ByLayer
370
18
48
1
60
0
100
AcDbSpline
70
4
71
3
72
11
73
7
40
0
40
0
40
0
40
0
40
0.31510352330939
40
0.503470923992464
40
0.691099825706776
40
1
40
1
40
1
40
1
41
1
10
19.0547302482144
20
-2.97782765527785
30
0
41
1
10
19.1883094534082
20
-2.96509544967526
30
0
41
1
10
19.4017349873214
20
-2.94496045990061
30
0
41
1
10
19.69479022701
20
-2.91766244333655
30
0
41
1
10
19.984992623264
20
-2.89117835707799
30
0
41
1
10
20.195405866403
20
-2.87245608209221
30
0
41
1
10
20.3262924676478
20
-2.86100064129985
30
0
0
SPLINE
5
17B
100
AcDbEntity
8
1
62
256
6
ByLayer
370
18
48
1
60
0
100
AcDbSpline
70
4
71
3
72
13
73
9
40
0
40
0
40
0
40
0
40
0.226334543050867
40
0.388577314764928
40
0.510253701480233
40
0.631691102406467
40
0.788424838306985
40
1
40
1
40
1
40
1
41
1
10
13.3089037465345
20
2.82469861073369
30
0
41
1
10
13.1810656998511
20
2.83518838088213
30
0
41
1
10
12.9617021771816
20
2.85371872401578
30
0
41
1
10
12.6737719495634
20
2.87912747412486
30
0
41
1
10
12.4453616183485
20
2.90013257332578
30
0
41
1
10
12.219833293896
20
2.92101679187004
30
0
41
1
10
11.9434872553515
20
2.94674161666481
30
0
41
1
10
11.735668490472
20
2.96638525803917
30
0
41
1
10
11.61627704662
20
2.97775266746845
30
0
0
LINE
5
79
100
AcDbEntity
8
80
62
256
6
ByLayer
370
18
48
1
60
0
100
AcDbLine
10
0
20
0
30
0
11
-5
21
0
31
0
39
0
210
0
220
0
230
1
0
LINE
5
7A
100
AcDbEntity
8
4
62
256
6
ByLayer
370
18
48
0.05
60
0
100
AcDbLine
10
0
20
0
30
0
11
21
21
0
31
0
39
0
210
0
220
0
230
1
0
LINE
5
7C
100
AcDbEntity
8
81
62
256
6
ByLayer
370
18
48
1
60
0
100
AcDbLine
10
21
20
0
30
0
11
26
21
0
31
0
39
0
210
0
220
0
230
1
0
LINE
5
7D
100
AcDbEntity
8
SK4
62
256
6
ByLayer
370
18
48
0.05
60
0
100
AcDbLine
10
-36
20
0
30
0
11
21
21
0
31
0
39
0
210
0
220
0
230
1
0
LINE
5
7F
100
AcDbEntity
8
1
62
256
6
ByLayer
370
18
48
1
60
0
100
AcDbLine
10
0
20
3
30
0
11
0
21
0
31
0
39
0
210
0
220
0
230
1
0
LINE
5
80
100
AcDbEntity
8
1
62
256
6
ByLayer
370
18
48
1
60
0
100
AcDbLine
10
0
20
0
30
0
11
0
21
-3
31
0
39
0
210
0
220
0
230
1
0
LINE
5
81
100
AcDbEntity
8
1
62
256
6
ByLayer
370
18
48
1
60
0
100
AcDbLine
10
20.91109
20
0.223163
30
0
11
20.910759
21
0.220949
31
0
39
0
210
0
220
0
230
1
0
LINE
5
82
100
AcDbEntity
8
1
62
256
6
ByLayer
370
18
48
1
60
0
100
AcDbLine
10
20.910759
20
0.220949
30
0
11
20.853206
21
-0.108365
31
0
39
0
210
0
220
0
230
1
0
LINE
5
83
100
AcDbEntity
8
1
62
256
6
ByLayer
370
18
48
1
60
0
100
AcDbLine
10
20.899035
20
0.269181
30
0
11
20.971636
21
0.687968
31
0
39
0
210
0
220
0
230
1
0
LINE
5
84
100
AcDbEntity
8
1
62
256
6
ByLayer
370
18
48
1
60
0
100
AcDbLine
10
20.707889
20
-0.556898
30
0
11
20.853206
21
-0.108365
31
0
39
0
210
0
220
0
230
1
0
LINE
5
85
100
AcDbEntity
8
1
62
256
6
ByLayer
370
18
48
1
60
0
100
AcDbLine
10
20.853206
20
-0.108365
30
0
11
20.89837
21
0.264335
31
0
39
0
210
0
220
0
230
1
0
LINE
5
86
100
AcDbEntity
8
1
62
256
6
ByLayer
370
18
48
1
60
0
100
AcDbLine
10
20.771231
20
0.21165
30
0
11
20.894141
21
0.265652
31
0
39
0
210
0
220
0
230
1
0
LINE
5
87
100
AcDbEntity
8
1
62
256
6
ByLayer
370
18
48
1
60
0
100
AcDbLine
10
20.966127
20
-2.030578
30
0
11
20.971636
21
-2.11671
31
0
39
0
210
0
220
0
230
1
0
LINE
5
88
100
AcDbEntity
8
1
62
256
6
ByLayer
370
13
48
1
60
0
100
AcDbLine
10
20.597974
20
0.177658
30
0
11
20.537942
21
0.030134
31
0
39
0
210
0
220
0
230
1
0
LINE
5
89
100
AcDbEntity
8
1
62
256
6
ByLayer
370
13
48
1
60
0
100
AcDbLine
10
20.536907
20
0.027591
30
0
11
20.495105
21
-0.075133
31
0
39
0
210
0
220
0
230
1
0
LINE
5
8A
100
AcDbEntity
8
1
62
256
6
ByLayer
370
18
48
1
60
0
100
AcDbLine
10
20.912797
20
1.368781
30
0
11
20.971636
21
2.464471
31
0
39
0
210
0
220
0
230
1
0
LINE
5
8B
100
AcDbEntity
8
1
62
256
6
ByLayer
370
18
48
1
60
0
100
AcDbLine
10
20.910759
20
-2.328952
30
0
11
20.900303
21
-2.160594
31
0
39
0
210
0
220
0
230
1
0
LINE
5
8C
100
AcDbEntity
8
1
62
256
6
ByLayer
370
13
48
1
60
0
100
AcDbLine
10
20.567471
20
0.346359
30
0
11
20.771231
21
0.21165
31
0
39
0
210
0
220
0
230
1
0
LINE
5
8D
100
AcDbEntity
8
1
62
256
6
ByLayer
370
18
48
1
60
0
100
AcDbLine
10
20.853206
20
-0.748557
30
0
11
20.896457
21
-0.84822
31
0
39
0
210
0
220
0
230
1
0
LINE
5
8E
100
AcDbEntity
8
1
62
256
6
ByLayer
370
18
48
1
60
0
100
AcDbLine
10
20.900226
20
-0.875447
30
0
11
20.971636
21
-1.952991
31
0
39
0
210
0
220
0
230
1
0
LINE
5
8F
100
AcDbEntity
8
1
62
256
6
ByLayer
370
18
48
1
60
0
100
AcDbLine
10
20.910759
20
-1.630764
30
0
11
20.853206
21
-0.748557
31
0
39
0
210
0
220
0
230
1
0
LINE
5
90
100
AcDbEntity
8
1
62
256
6
ByLayer
370
18
48
1
60
0
100
AcDbLine
10
20.611821
20
-0.430222
30
0
11
20.853206
21
-0.748557
31
0
39
0
210
0
220
0
230
1
0
LINE
5
91
100
AcDbEntity
8
1
62
256
6
ByLayer
370
13
48
1
60
0
100
AcDbLine
10
20.381132
20
0.922581
30
0
11
20.761369
21
0.466769
31
0
39
0
210
0
220
0
230
1
0
LINE
5
92
100
AcDbEntity
8
1
62
256
6
ByLayer
370
18
48
1
60
0
100
AcDbLine
10
20.900951
20
0.488499
30
0
11
20.761369
21
0.466769
31
0
39
0
210
0
220
0
230
1
0
LINE
5
93
100
AcDbEntity
8
1
62
256
6
ByLayer
370
18
48
1
60
0
100
AcDbLine
10
20.900951
20
0.488499
30
0
11
20.971636
21
0.960438
31
0
39
0
210
0
220
0
230
1
0
LINE
5
94
100
AcDbEntity
8
1
62
256
6
ByLayer
370
18
48
1
60
0
100
AcDbLine
10
5.6
20
1.40247
30
0
11
5.6
21
2.166975
31
0
39
0
210
0
220
0
230
1
0
LINE
5
95
100
AcDbEntity
8
1
62
256
6
ByLayer
370
18
48
1
60
0
100
AcDbLine
10
5.6
20
2.166975
30
0
11
5.938543
21
2.166975
31
0
39
0
210
0
220
0
230
1
0
LINE
5
96
100
AcDbEntity
8
1
62
256
6
ByLayer
370
18
48
1
60
0
100
AcDbLine
10
5.6
20
-1.813653
30
0
11
5.6
21
-0.971123
31
0
39
0
210
0
220
0
230
1
0
LINE
5
97
100
AcDbEntity
8
1
62
256
6
ByLayer
370
13
48
1
60
0
100
AcDbLine
10
0.997679
20
-2.85
30
0
11
0.997679
21
0
31
0
39
0
210
0
220
0
230
1
0
LINE
5
98
100
AcDbEntity
8
1
62
256
6
ByLayer
370
13
48
1
60
0
100
AcDbLine
10
0.997679
20
0
30
0
11
0.997679
21
2.85
31
0
39
0
210
0
220
0
230
1
0
LINE
5
99
100
AcDbEntity
8
1
62
256
6
ByLayer
370
13
48
1
60
0
100
AcDbLine
10
0.497679
20
2.983975
30
0
11
0.497679
21
0
31
0
39
0
210
0
220
0
230
1
0
LINE
5
9A
100
AcDbEntity
8
1
62
256
6
ByLayer
370
13
48
1
60
0
100
AcDbLine
10
0.497679
20
0
30
0
11
0.497679
21
-2.983975
31
0
39
0
210
0
220
0
230
1
0
LINE
5
9B
100
AcDbEntity
8
1
62
256
6
ByLayer
370
18
48
1
60
0
100
AcDbLine
10
0.469922
20
3
30
0
11
0.469922
21
0
31
0
39
0
210
0
220
0
230
1
0
LINE
5
9C
100
AcDbEntity
8
1
62
256
6
ByLayer
370
18
48
1
60
0
100
AcDbLine
10
0.469922
20
0
30
0
11
0.469922
21
-3
31
0
39
0
210
0
220
0
230
1
0
LINE
5
9D
100
AcDbEntity
8
SK1
62
256
6
ByLayer
370
18
48
1
60
0
100
AcDbLine
10
0
20
3
30
0
11
0
21
0
31
0
39
0
210
0
220
0
230
1
0
LINE
5
9F
100
AcDbEntity
8
SK1
62
256
6
ByLayer
370
18
48
1
60
0
100
AcDbLine
10
0
20
0
30
0
11
0
21
-3
31
0
39
0
210
0
220
0
230
1
0
LINE
5
A0
100
AcDbEntity
8
SK1
62
256
6
ByLayer
370
18
48
1
60
0
100
AcDbLine
10
-21
20
3
30
0
11
-20.1
21
2.1
31
0
39
0
210
0
220
0
230
1
0
LINE
5
A1
100
AcDbEntity
8
SK1
62
256
6
ByLayer
370
18
48
1
60
0
100
AcDbLine
10
-15
20
3
30
0
11
-15.9
21
2.1
31
0
39
0
210
0
220
0
230
1
0
LINE
5
A2
100
AcDbEntity
8
SK1
62
256
6
ByLayer
370
18
48
1
60
0
100
AcDbLine
10
-20.1
20
2.1
30
0
11
-15.9
21
2.1
31
0
39
0
210
0
220
0
230
1
0
LINE
5
A3
100
AcDbEntity
8
SK1
62
256
6
ByLayer
370
18
48
1
60
0
100
AcDbLine
10
-35.6
20
3
30
0
11
-35.6
21
-3
31
0
39
0
210
0
220
0
230
1
0
LINE
5
A4
100
AcDbEntity
8
SK1
62
256
6
ByLayer
370
18
48
1
60
0
100
AcDbLine
10
-36
20
-2.6
30
0
11
-36
21
2.6
31
0
39
0
210
0
220
0
230
1
0
LINE
5
A5
100
AcDbEntity
8
1
62
256
6
ByLayer
370
18
48
1
60
0
100
AcDbLine
10
0.469922
20
3
30
0
11
0
21
3
31
0
39
0
210
0
220
0
230
1
0
LINE
5
A6
100
AcDbEntity
8
1
62
256
6
ByLayer
370
18
48
1
60
0
100
AcDbLine
10
0
20
-3
30
0
11
0.469922
21
-3
31
0
39
0
210
0
220
0
230
1
0
LINE
5
A7
100
AcDbEntity
8
1
62
256
6
ByLayer
370
18
48
1
60
0
100
AcDbLine
10
4.236695
20
2.85
30
0
11
0.997679
21
2.85
31
0
39
0
210
0
220
0
230
1
0
LINE
5
A8
100
AcDbEntity
8
1
62
256
6
ByLayer
370
18
48
1
60
0
100
AcDbLine
10
0.997679
20
-2.85
30
0
11
5.667355
21
-2.85
31
0
39
0
210
0
220
0
230
1
0
LINE
5
A9
100
AcDbEntity
8
1
62
256
6
ByLayer
370
18
48
1
60
0
100
AcDbLine
10
0.497679
20
2.983975
30
0
11
0.469922
21
3
31
0
39
0
210
0
220
0
230
1
0
LINE
5
AA
100
AcDbEntity
8
1
62
256
6
ByLayer
370
18
48
1
60
0
100
AcDbLine
10
0.469922
20
-3
30
0
11
0.497679
21
-2.983975
31
0
39
0
210
0
220
0
230
1
0
LINE
5
AB
100
AcDbEntity
8
SK1
62
256
6
ByLayer
370
18
48
1
60
0
100
AcDbLine
10
0
20
3
30
0
11
-15
21
3
31
0
39
0
210
0
220
0
230
1
0
LINE
5
AC
100
AcDbEntity
8
SK1
62
256
6
ByLayer
370
18
48
1
60
0
100
AcDbLine
10
-21
20
3
30
0
11
-35.6
21
3
31
0
39
0
210
0
220
0
230
1
0
LINE
5
AD
100
AcDbEntity
8
SK1
62
256
6
ByLayer
370
18
48
1
60
0
100
AcDbLine
10
-35.6
20
-3
30
0
11
0
21
-3
31
0
39
0
210
0
220
0
230
1
0
LINE
5
AE
100
AcDbEntity
8
SK1
62
256
6
ByLayer
370
18
48
1
60
0
100
AcDbLine
10
-36
20
-2.6
30
0
11
-35.6
21
-3
31
0
39
0
210
0
220
0
230
1
0
LINE
5
AF
100
AcDbEntity
8
SK1
62
256
6
ByLayer
370
18
48
1
60
0
100
AcDbLine
10
-35.6
20
3
30
0
11
-36
21
2.6
31
0
39
0
210
0
220
0
230
1
0
LINE
5
B0
100
AcDbEntity
8
SK2
62
256
6
ByLayer
370
18
48
1
60
0
100
AcDbLine
10
-43.85
20
11.75
30
0
11
-43.85
21
-19.315466
31
0
39
0
210
0
220
0
230
1
0
LINE
5
B2
100
AcDbEntity
8
SK2
62
256
6
ByLayer
370
18
48
1
60
0
100
AcDbLine
10
-37.1875
20
3
30
0
11
-45.85
21
3
31
0
39
0
210
0
220
0
230
1
0
LINE
5
B3
100
AcDbEntity
8
SK2
62
256
6
ByLayer
370
18
48
1
60
0
100
AcDbLine
10
-37.1875
20
-3
30
0
11
-45.85
21
-3
31
0
39
0
210
0
220
0
230
1
0
LINE
5
B4
100
AcDbEntity
8
1
62
256
6
ByLayer
370
18
48
1
60
1
100
AcDbLine
10
-43.85
20
3
30
0
11
-44.310784
21
6.499998
31
0
39
0
210
0
220
0
230
1
0
LINE
5
B5
100
AcDbEntity
8
1
62
256
6
ByLayer
370
18
48
1
60
1
100
AcDbLine
10
-44.310784
20
6.499998
30
0
11
-43.389216
21
6.500002
31
0
39
0
210
0
220
0
230
1
0
LINE
5
B6
100
AcDbEntity
8
1
62
256
6
ByLayer
370
18
48
1
60
1
100
AcDbLine
10
-43.389216
20
6.500002
30
0
11
-43.85
21
3
31
0
39
0
210
0
220
0
230
1
0
LINE
5
B7
100
AcDbEntity
8
1
62
256
6
ByLayer
370
18
48
1
60
1
100
AcDbLine
10
-43.85
20
-3
30
0
11
-43.389216
21
-6.499998
31
0
39
0
210
0
220
0
230
1
0
LINE
5
B8
100
AcDbEntity
8
1
62
256
6
ByLayer
370
18
48
1
60
1
100
AcDbLine
10
-43.389216
20
-6.499998
30
0
11
-44.310784
21
-6.500002
31
0
39
0
210
0
220
0
230
1
0
LINE
5
B9
100
AcDbEntity
8
1
62
256
6
ByLayer
370
18
48
1
60
1
100
AcDbLine
10
-44.310784
20
-6.500002
30
0
11
-43.85
21
-3
31
0
39
0
210
0
220
0
230
1
0
LINE
5
BA
100
AcDbEntity
8
SK2
62
256
6
ByLayer
370
13
48
1
60
0
100
AcDbLine
10
5.684961
20
27.198932
30
0
11
5.684961
21
-11.6
31
0
39
0
210
0
220
0
230
1
0
LINE
5
BB
100
AcDbEntity
8
SK2
62
256
6
ByLayer
370
13
48
1
60
0
100
AcDbLine
10
5.884743
20
2.85
30
0
11
3.684961
21
2.85
31
0
39
0
210
0
220
0
230
1
0
LINE
5
BC
100
AcDbEntity
8
SK2
62
256
6
ByLayer
370
13
48
1
60
0
100
AcDbLine
10
5.884743
20
-2.85
30
0
11
3.684961
21
-2.85
31
0
39
0
210
0
220
0
230
1
0
LINE
5
BD
100
AcDbEntity
8
1
62
256
6
ByLayer
370
18
48
1
60
1
100
AcDbLine
10
5.684961
20
2.85
30
0
11
5.224177
21
6.349998
31
0
39
0
210
0
220
0
230
1
0
LINE
5
BE
100
AcDbEntity
8
1
62
256
6
ByLayer
370
18
48
1
60
1
100
AcDbLine
10
5.224177
20
6.349998
30
0
11
6.145745
21
6.350002
31
0
39
0
210
0
220
0
230
1
0
LINE
5
BF
100
AcDbEntity
8
1
62
256
6
ByLayer
370
18
48
1
60
1
100
AcDbLine
10
6.145745
20
6.350002
30
0
11
5.684961
21
2.85
31
0
39
0
210
0
220
0
230
1
0
LINE
5
C0
100
AcDbEntity
8
1
62
256
6
ByLayer
370
18
48
1
60
1
100
AcDbLine
10
5.684961
20
-2.85
30
0
11
6.145745
21
-6.349998
31
0
39
0
210
0
220
0
230
1
0
LINE
5
C1
100
AcDbEntity
8
1
62
256
6
ByLayer
370
18
48
1
60
1
100
AcDbLine
10
6.145745
20
-6.349998
30
0
11
5.224177
21
-6.350002
31
0
39
0
210
0
220
0
230
1
0
LINE
5
C2
100
AcDbEntity
8
1
62
256
6
ByLayer
370
18
48
1
60
1
100
AcDbLine
10
5.224177
20
-6.350002
30
0
11
5.684961
21
-2.85
31
0
39
0
210
0
220
0
230
1
0
LINE
5
C3
100
AcDbEntity
8
2
62
256
6
ByLayer
370
18
48
1
60
0
100
AcDbLine
10
33
20
19.315466
30
0
11
33
21
-11.75
31
0
39
0
210
0
220
0
230
1
0
LINE
5
C5
100
AcDbEntity
8
2
62
256
6
ByLayer
370
18
48
1
60
0
100
AcDbLine
10
22.5875
20
3
30
0
11
35
21
3
31
0
39
0
210
0
220
0
230
1
0
LINE
5
C6
100
AcDbEntity
8
2
62
256
6
ByLayer
370
18
48
1
60
0
100
AcDbLine
10
22.5875
20
-3
30
0
11
35
21
-3
31
0
39
0
210
0
220
0
230
1
0
LINE
5
C7
100
AcDbEntity
8
1
62
256
6
ByLayer
370
18
48
1
60
1
100
AcDbLine
10
33
20
3
30
0
11
32.539216
21
6.499998
31
0
39
0
210
0
220
0
230
1
0
LINE
5
C8
100
AcDbEntity
8
1
62
256
6
ByLayer
370
18
48
1
60
1
100
AcDbLine
10
32.539216
20
6.499998
30
0
11
33.460784
21
6.500002
31
0
39
0
210
0
220
0
230
1
0
LINE
5
C9
100
AcDbEntity
8
1
62
256
6
ByLayer
370
18
48
1
60
1
100
AcDbLine
10
33.460784
20
6.500002
30
0
11
33
21
3
31
0
39
0
210
0
220
0
230
1
0
LINE
5
CA
100
AcDbEntity
8
1
62
256
6
ByLayer
370
18
48
1
60
1
100
AcDbLine
10
33
20
-3
30
0
11
33.460784
21
-6.499998
31
0
39
0
210
0
220
0
230
1
0
LINE
5
CB
100
AcDbEntity
8
1
62
256
6
ByLayer
370
18
48
1
60
1
100
AcDbLine
10
33.460784
20
-6.499998
30
0
11
32.539216
21
-6.500002
31
0
39
0
210
0
220
0
230
1
0
LINE
5
CC
100
AcDbEntity
8
1
62
256
6
ByLayer
370
18
48
1
60
1
100
AcDbLine
10
32.539216
20
-6.500002
30
0
11
33
21
-3
31
0
39
0
210
0
220
0
230
1
0
LINE
5
CD
100
AcDbEntity
8
SK2
62
256
6
ByLayer
370
18
48
1
60
0
100
AcDbLine
10
21
20
-49.107684
30
0
11
-36
21
-49.107684
31
0
39
0
210
0
220
0
230
1
0
LINE
5
CE
100
AcDbEntity
8
SK2
62
256
6
ByLayer
370
18
48
1
60
0
100
AcDbLine
10
-36
20
-4.1875
30
0
11
-36
21
-51.107684
31
0
39
0
210
0
220
0
230
1
0
LINE
5
CF
100
AcDbEntity
8
SK2
62
256
6
ByLayer
370
18
48
1
60
0
100
AcDbLine
10
21
20
-4.5875
30
0
11
21
21
-51.107684
31
0
39
0
210
0
220
0
230
1
0
LINE
5
D0
100
AcDbEntity
8
1
62
256
6
ByLayer
370
18
48
1
60
1
100
AcDbLine
10
-36
20
-49.107684
30
0
11
-32.500002
21
-48.646901
31
0
39
0
210
0
220
0
230
1
0
LINE
5
D1
100
AcDbEntity
8
1
62
256
6
ByLayer
370
18
48
1
60
1
100
AcDbLine
10
-32.500002
20
-48.646901
30
0
11
-32.499998
21
-49.568468
31
0
39
0
210
0
220
0
230
1
0
LINE
5
D2
100
AcDbEntity
8
1
62
256
6
ByLayer
370
18
48
1
60
1
100
AcDbLine
10
-32.499998
20
-49.568468
30
0
11
-36
21
-49.107684
31
0
39
0
210
0
220
0
230
1
0
LINE
5
D3
100
AcDbEntity
8
1
62
256
6
ByLayer
370
18
48
1
60
1
100
AcDbLine
10
21
20
-49.107684
30
0
11
17.500002
21
-49.568468
31
0
39
0
210
0
220
0
230
1
0
LINE
5
D4
100
AcDbEntity
8
1
62
256
6
ByLayer
370
18
48
1
60
1
100
AcDbLine
10
17.500002
20
-49.568468
30
0
11
17.499998
21
-48.646901
31
0
39
0
210
0
220
0
230
1
0
LINE
5
D5
100
AcDbEntity
8
1
62
256
6
ByLayer
370
18
48
1
60
1
100
AcDbLine
10
17.499998
20
-48.646901
30
0
11
21
21
-49.107684
31
0
39
0
210
0
220
0
230
1
0
LINE
5
180
100
AcDbEntity
8
1
62
256
6
ByLayer
370
18
48
1
60
1
100
AcDbLine
10
-43.85
20
3
30
0
11
-44.310784
21
6.499998
31
0
39
0
210
0
220
0
230
1
0
LINE
5
181
100
AcDbEntity
8
1
62
256
6
ByLayer
370
18
48
1
60
1
100
AcDbLine
10
-44.310784
20
6.499998
30
0
11
-43.389216
21
6.500002
31
0
39
0
210
0
220
0
230
1
0
LINE
5
182
100
AcDbEntity
8
1
62
256
6
ByLayer
370
18
48
1
60
1
100
AcDbLine
10
-43.389216
20
6.500002
30
0
11
-43.85
21
3
31
0
39
0
210
0
220
0
230
1
0
LINE
5
184
100
AcDbEntity
8
1
62
256
6
ByLayer
370
18
48
1
60
1
100
AcDbLine
10
-43.85
20
-3
30
0
11
-43.389216
21
-6.499998
31
0
39
0
210
0
220
0
230
1
0
LINE
5
185
100
AcDbEntity
8
1
62
256
6
ByLayer
370
18
48
1
60
1
100
AcDbLine
10
-43.389216
20
-6.499998
30
0
11
-44.310784
21
-6.500002
31
0
39
0
210
0
220
0
230
1
0
LINE
5
186
100
AcDbEntity
8
1
62
256
6
ByLayer
370
18
48
1
60
1
100
AcDbLine
10
-44.310784
20
-6.500002
30
0
11
-43.85
21
-3
31
0
39
0
210
0
220
0
230
1
0
LINE
5
18A
100
AcDbEntity
8
1
62
256
6
ByLayer
370
18
48
1
60
1
100
AcDbLine
10
5.684961
20
2.85
30
0
11
5.224177
21
6.349998
31
0
39
0
210
0
220
0
230
1
0
LINE
5
18B
100
AcDbEntity
8
1
62
256
6
ByLayer
370
18
48
1
60
1
100
AcDbLine
10
5.224177
20
6.349998
30
0
11
6.145745
21
6.350002
31
0
39
0
210
0
220
0
230
1
0
LINE
5
18C
100
AcDbEntity
8
1
62
256
6
ByLayer
370
18
48
1
60
1
100
AcDbLine
10
6.145745
20
6.350002
30
0
11
5.684961
21
2.85
31
0
39
0
210
0
220
0
230
1
0
LINE
5
18E
100
AcDbEntity
8
1
62
256
6
ByLayer
370
18
48
1
60
1
100
AcDbLine
10
5.684961
20
-2.85
30
0
11
6.145745
21
-6.349998
31
0
39
0
210
0
220
0
230
1
0
LINE
5
18F
100
AcDbEntity
8
1
62
256
6
ByLayer
370
18
48
1
60
1
100
AcDbLine
10
6.145745
20
-6.349998
30
0
11
5.224177
21
-6.350002
31
0
39
0
210
0
220
0
230
1
0
LINE
5
190
100
AcDbEntity
8
1
62
256
6
ByLayer
370
18
48
1
60
1
100
AcDbLine
10
5.224177
20
-6.350002
30
0
11
5.684961
21
-2.85
31
0
39
0
210
0
220
0
230
1
0
LINE
5
194
100
AcDbEntity
8
1
62
256
6
ByLayer
370
18
48
1
60
1
100
AcDbLine
10
33
20
3
30
0
11
32.539216
21
6.499998
31
0
39
0
210
0
220
0
230
1
0
LINE
5
195
100
AcDbEntity
8
1
62
256
6
ByLayer
370
18
48
1
60
1
100
AcDbLine
10
32.539216
20
6.499998
30
0
11
33.460784
21
6.500002
31
0
39
0
210
0
220
0
230
1
0
LINE
5
196
100
AcDbEntity
8
1
62
256
6
ByLayer
370
18
48
1
60
1
100
AcDbLine
10
33.460784
20
6.500002
30
0
11
33
21
3
31
0
39
0
210
0
220
0
230
1
0
LINE
5
198
100
AcDbEntity
8
1
62
256
6
ByLayer
370
18
48
1
60
1
100
AcDbLine
10
33
20
-3
30
0
11
33.460784
21
-6.499998
31
0
39
0
210
0
220
0
230
1
0
LINE
5
199
100
AcDbEntity
8
1
62
256
6
ByLayer
370
18
48
1
60
1
100
AcDbLine
10
33.460784
20
-6.499998
30
0
11
32.539216
21
-6.500002
31
0
39
0
210
0
220
0
230
1
0
LINE
5
19A
100
AcDbEntity
8
1
62
256
6
ByLayer
370
18
48
1
60
1
100
AcDbLine
10
32.539216
20
-6.500002
30
0
11
33
21
-3
31
0
39
0
210
0
220
0
230
1
0
LINE
5
19D
100
AcDbEntity
8
1
62
256
6
ByLayer
370
18
48
1
60
1
100
AcDbLine
10
-36
20
-49.107684
30
0
11
-32.500002
21
-48.646901
31
0
39
0
210
0
220
0
230
1
0
LINE
5
19E
100
AcDbEntity
8
1
62
256
6
ByLayer
370
18
48
1
60
1
100
AcDbLine
10
-32.500002
20
-48.646901
30
0
11
-32.499998
21
-49.568468
31
0
39
0
210
0
220
0
230
1
0
LINE
5
19F
100
AcDbEntity
8
1
62
256
6
ByLayer
370
18
48
1
60
1
100
AcDbLine
10
-32.499998
20
-49.568468
30
0
11
-36
21
-49.107684
31
0
39
0
210
0
220
0
230
1
0
LINE
5
1A1
100
AcDbEntity
8
1
62
256
6
ByLayer
370
18
48
1
60
1
100
AcDbLine
10
21
20
-49.107684
30
0
11
17.500002
21
-49.568468
31
0
39
0
210
0
220
0
230
1
0
LINE
5
1A2
100
AcDbEntity
8
1
62
256
6
ByLayer
370
18
48
1
60
1
100
AcDbLine
10
17.500002
20
-49.568468
30
0
11
17.499998
21
-48.646901
31
0
39
0
210
0
220
0
230
1
0
LINE
5
1A3
100
AcDbEntity
8
1
62
256
6
ByLayer
370
18
48
1
60
1
100
AcDbLine
10
17.499998
20
-48.646901
30
0
11
21
21
-49.107684
31
0
39
0
210
0
220
0
230
1
0
MTEXT
5
17C
100
AcDbEntity
8
SK2
62
256
6
ByLayer
370
18
48
1
60
0
100
AcDbMText
10
-45.414634
20
-17.380622
30
0
210
0
220
0
230
1
1
%%c
40
3.5
41
0
44
1.084337
50
90
71
7
72
5
7
iso_b_vert
0
MTEXT
5
17F
100
AcDbEntity
8
SK2
62
256
6
ByLayer
370
18
48
1
60
0
100
AcDbMText
10
-45.414634
20
-10.407966
30
0
210
0
220
0
230
1
1
\W0.5404;6
40
3.5
41
0
44
1.084337
50
90
71
7
72
5
7
iso_b_vert
0
MTEXT
5
188
100
AcDbEntity
8
SK2
62
256
6
ByLayer
370
18
48
1
60
0
100
AcDbMText
10
4.120328
20
14.784844
30
0
210
0
220
0
230
1
1
%%c
40
3.5
41
0
44
1.084337
50
90
71
7
72
5
7
iso_b_vert
0
MTEXT
5
189
100
AcDbEntity
8
SK2
62
256
6
ByLayer
370
18
48
1
60
0
100
AcDbMText
10
4.120328
20
21.7575
30
0
210
0
220
0
230
1
1
\W0.7121;5.7
40
3.5
41
0
44
1.084337
50
90
71
7
72
5
7
iso_b_vert
0
MTEXT
5
192
100
AcDbEntity
8
2
62
256
6
ByLayer
370
18
48
1
60
0
100
AcDbMText
10
31.435366
20
10.934844
30
0
210
0
220
0
230
1
1
%%c
40
3.5
41
0
44
1.084337
50
90
71
7
72
5
7
iso_b_vert
0
MTEXT
5
193
100
AcDbEntity
8
2
62
256
6
ByLayer
370
18
48
1
60
0
100
AcDbMText
10
31.435366
20
17.9075
30
0
210
0
220
0
230
1
1
\W0.5404;6
40
3.5
41
0
44
1.084337
50
90
71
7
72
5
7
iso_b_vert
0
MTEXT
5
19C
100
AcDbEntity
8
SK2
62
256
6
ByLayer
370
18
48
1
60
0
100
AcDbMText
10
-9.404966
20
-48.075051
30
0
210
0
220
0
230
1
1
\W0.6740;57
40
3.5
41
0
44
1.084337
50
0
71
7
72
5
7
iso_b_vert
0
MTEXT
5
1A5
100
AcDbEntity
8
SK6
62
256
6
ByLayer
370
18
48
1
60
0
100
AcDbMText
10
-33.378931
20
-62.114181
30
0
210
0
220
0
230
1
1
\W0.7489;2F342-0600-050-PD   P2BM
40
3
41
0
44
1.084337
50
0
71
7
72
5
7
iso_b_vert
0
HATCH
5
183
100
AcDbEntity
8
SK2
62
256
6
ByLayer
370
13
48
1
60
0
100
AcDbHatch
10
0
20
0
30
0
210
0
220
0
230
1
2
ANSI31
70
0
71
0
91
1
92
5
93
3
72
1
10
-43.85
20
3.00000000000003
11
-44.3107837415528
21
6.49999830744684
72
1
10
-44.3107837415528
20
6.49999830744684
11
-43.3892162584472
21
6.50000169255321
72
1
10
-43.3892162584472
20
6.50000169255321
11
-43.85
21
3.00000000000003
97
0
75
0
76
1
52
0
41
0.0062
77
0
78
1
53
45
43
0
44
0
45
-0.0139193969876572
46
0.0139193969876572
79
0
47
0
98
1
10
0
20
0
0
HATCH
5
187
100
AcDbEntity
8
SK2
62
256
6
ByLayer
370
13
48
1
60
0
100
AcDbHatch
10
0
20
0
30
0
210
0
220
0
230
1
2
ANSI31
70
0
71
0
91
1
92
5
93
3
72
1
10
-43.85
20
-2.99999999999997
11
-43.3892162584472
21
-6.49999830744679
72
1
10
-43.3892162584472
20
-6.49999830744679
11
-44.3107837415528
21
-6.50000169255316
72
1
10
-44.3107837415528
20
-6.50000169255316
11
-43.85
21
-2.99999999999997
97
0
75
0
76
1
52
0
41
0.0062
77
0
78
1
53
45
43
0
44
0
45
-0.0139193969876572
46
0.0139193969876572
79
0
47
0
98
1
10
0
20
0
0
HATCH
5
18D
100
AcDbEntity
8
SK2
62
256
6
ByLayer
370
13
48
1
60
0
100
AcDbHatch
10
0
20
0
30
0
210
0
220
0
230
1
2
ANSI31
70
0
71
0
91
1
92
5
93
3
72
1
10
5.68496105429716
20
2.84999999999999
11
5.22417731274439
21
6.34999830744681
72
1
10
5.22417731274439
20
6.34999830744681
11
6.14574479584994
21
6.35000169255318
72
1
10
6.14574479584994
20
6.35000169255318
11
5.68496105429716
21
2.84999999999999
97
0
75
0
76
1
52
0
41
0.0062
77
0
78
1
53
45
43
0
44
0
45
-0.0139193969876572
46
0.0139193969876572
79
0
47
0
98
1
10
0
20
0
0
HATCH
5
191
100
AcDbEntity
8
SK2
62
256
6
ByLayer
370
13
48
1
60
0
100
AcDbHatch
10
0
20
0
30
0
210
0
220
0
230
1
2
ANSI31
70
0
71
0
91
1
92
5
93
3
72
1
10
5.68496105429716
20
-2.84999999999999
11
6.14574479584994
21
-6.34999830744681
72
1
10
6.14574479584994
20
-6.34999830744681
11
5.22417731274439
21
-6.35000169255318
72
1
10
5.22417731274439
20
-6.35000169255318
11
5.68496105429716
21
-2.84999999999999
97
0
75
0
76
1
52
0
41
0.0062
77
0
78
1
53
45
43
0
44
0
45
-0.0139193969876572
46
0.0139193969876572
79
0
47
0
98
1
10
0
20
0
0
HATCH
5
197
100
AcDbEntity
8
2
62
256
6
ByLayer
370
13
48
1
60
0
100
AcDbHatch
10
0
20
0
30
0
210
0
220
0
230
1
2
ANSI31
70
0
71
0
91
1
92
5
93
3
72
1
10
33
20
2.99999999999994
11
32.5392162584472
21
6.49999830744676
72
1
10
32.5392162584472
20
6.49999830744676
11
33.4607837415528
21
6.50000169255313
72
1
10
33.4607837415528
20
6.50000169255313
11
33
21
2.99999999999994
97
0
75
0
76
1
52
0
41
0.0062
77
0
78
1
53
45
43
0
44
0
45
-0.0139193969876572
46
0.0139193969876572
79
0
47
0
98
1
10
0
20
0
0
HATCH
5
19B
100
AcDbEntity
8
2
62
256
6
ByLayer
370
13
48
1
60
0
100
AcDbHatch
10
0
20
0
30
0
210
0
220
0
230
1
2
ANSI31
70
0
71
0
91
1
92
5
93
3
72
1
10
33
20
-3.00000000000006
11
33.4607837415528
21
-6.49999830744687
72
1
10
33.4607837415528
20
-6.49999830744687
11
32.5392162584472
21
-6.50000169255324
72
1
10
32.5392162584472
20
-6.50000169255324
11
33
21
-3.00000000000006
97
0
75
0
76
1
52
0
41
0.0062
77
0
78
1
53
45
43
0
44
0
45
-0.0139193969876572
46
0.0139193969876572
79
0
47
0
98
1
10
0
20
0
0
HATCH
5
1A0
100
AcDbEntity
8
SK2
62
256
6
ByLayer
370
13
48
1
60
0
100
AcDbHatch
10
0
20
0
30
0
210
0
220
0
230
1
2
ANSI31
70
0
71
0
91
1
92
5
93
3
72
1
10
-36
20
-49.1076842554485
11
-32.5000016925532
21
-48.6469005138957
72
1
10
-32.5000016925532
20
-48.6469005138957
11
-32.4999983074468
21
-49.5684679970013
72
1
10
-32.4999983074468
20
-49.5684679970013
11
-36
21
-49.1076842554485
97
0
75
0
76
1
52
0
41
0.0062
77
0
78
1
53
45
43
0
44
0
45
-0.0139193969876572
46
0.0139193969876572
79
0
47
0
98
1
10
0
20
0
0
HATCH
5
1A4
100
AcDbEntity
8
SK2
62
256
6
ByLayer
370
13
48
1
60
0
100
AcDbHatch
10
0
20
0
30
0
210
0
220
0
230
1
2
ANSI31
70
0
71
0
91
1
92
5
93
3
72
1
10
21
20
-49.1076842554485
11
17.5000016925532
21
-49.5684679970013
72
1
10
17.5000016925532
20
-49.5684679970013
11
17.4999983074468
21
-48.6469005138957
72
1
10
17.4999983074468
20
-48.6469005138957
11
21
21
-49.1076842554485
97
0
75
0
76
1
52
0
41
0.0062
77
0
78
1
53
45
43
0
44
0
45
-0.0139193969876572
46
0.0139193969876572
79
0
47
0
98
1
10
0
20
0
0
DIMENSION
5
1A8
100
AcDbEntity
8
2
62
256
6
ByLayer
370
18
48
1
60
0
100
AcDbDimension
2
_U0
10
8
20
-17.107684
30
0
11
14.5
21
-17.107684
31
0
70
32
71
1
72
1
41
1
210
0
220
0
230
1
3
Standard
100
AcDbAlignedDimension
13
21
23
-3
33
0
14
8
24
-3
34
0
50
0
100
AcDbRotatedDimension
1001
ACAD
1000
DSTYLE
1002
{
1070
   371
1070
    13
1070
   372
1070
    13
1070
   170
1070
     0
1070
   144
1040
1.0
1070
   277
1070
     2
1070
   284
1070
     8
1070
   278
1070
    46
1070
   146
1040
1.0
1070
   345
1005
16
1070
   347
1005
16
1070
   346
1005
16
1070
   344
1005
0
1070
   343
1005
0
1070
   172
1070
     1
1070
    76
1070
     0
1070
    75
1070
     0
1070
   282
1070
     0
1070
   281
1070
     0
1070
    71
1070
     0
1070
    74
1070
     0
1070
   279
1070
     0
1070
   173
1070
     1
1070
   340
1005
17D
1070
   271
1070
     2
1070
   272
1070
     2
1070
    77
1070
     1
1070
    73
1070
     1
1070
   171
1070
     3
1070
   274
1070
     4
1070
   177
1070
     2
1070
   176
1070
     2
1070
   178
1070
     2
1070
    78
1070
     8
1070
    48
1040
-0.1
1070
    41
1040
3.5
1070
   147
1040
1.75
1070
    42
1040
1.5875
1070
    44
1040
2.0
1070
   140
1040
3.5
1002
}
1001
ACAD_DSTYLE_DIM_LINETYPE
1070
   380
1005
16
1001
ACAD_DSTYLE_DIM_EXT1_LINETYPE
1070
   381
1005
16
1001
ACAD_DSTYLE_DIM_EXT2_LINETYPE
1070
   382
1005
16
0
DIMENSION
5
1C2
100
AcDbEntity
8
SK2
62
256
6
ByLayer
370
18
48
1
60
0
100
AcDbDimension
2
_U1
10
0.997679
20
-32.107684
30
0
11
10.998839
21
-32.107684
31
0
70
32
71
1
72
1
41
1
210
0
220
0
230
1
3
Standard
100
AcDbAlignedDimension
13
21
23
-3
33
0
14
0.997679
24
-2.85
34
0
50
0
100
AcDbRotatedDimension
1001
ACAD
1000
DSTYLE
1002
{
1070
   371
1070
    13
1070
   372
1070
    13
1070
   170
1070
     0
1070
   144
1040
1.0
1070
   277
1070
     2
1070
   284
1070
     8
1070
   278
1070
    46
1070
   146
1040
1.0
1070
   345
1005
16
1070
   347
1005
16
1070
   346
1005
16
1070
   344
1005
0
1070
   343
1005
0
1070
   172
1070
     1
1070
    76
1070
     0
1070
    75
1070
     0
1070
   282
1070
     0
1070
   281
1070
     0
1070
    71
1070
     0
1070
    74
1070
     0
1070
   279
1070
     0
1070
   173
1070
     1
1070
   340
1005
17D
1070
   271
1070
     2
1070
   272
1070
     2
1070
    77
1070
     1
1070
    73
1070
     1
1070
   171
1070
     3
1070
   274
1070
     4
1070
   177
1070
     2
1070
   176
1070
     2
1070
   178
1070
     2
1070
    78
1070
     8
1070
    48
1040
-0.1
1070
    41
1040
3.5
1070
   147
1040
1.75
1070
    42
1040
1.5875
1070
    44
1040
2.0
1070
   140
1040
3.5
1002
}
1001
ACAD_DSTYLE_DIM_LINETYPE
1070
   380
1005
16
1001
ACAD_DSTYLE_DIM_EXT1_LINETYPE
1070
   381
1005
16
1001
ACAD_DSTYLE_DIM_EXT2_LINETYPE
1070
   382
1005
16
0
ENDSEC
0
SECTION
2
OBJECTS
0
DICTIONARY
5
24a
330
0
100
AcDbDictionary
280
0
281
1
3
ACAD_GROUP
350
24b
3
ACAD_MLINESTYLE
350
24c
0
DICTIONARY
5
24b
330
0
100
AcDbDictionary
280
0
281
1
0
DICTIONARY
5
24c
330
0
100
AcDbDictionary
280
0
281
1
3
Standard
350
18
0
MLINESTYLE
5
18
330
24c
100
AcDbMlineStyle
2
Standard
70
0
3

62
256
51
90
52
90
71
2
49
-0.5
62
256
6
ByLayer
49
0.5
62
256
6
ByLayer
0
RASTERVARIABLES
5
238
330

100
AcDbRasterVariables
90
0
70
1
71
1
72
1
0
ENDSEC
0
EOF
