0
SECTION
2
HEADER
9
$ACADVER
1
AC1015
9
$DWGCODEPAGE
3
ANSI_1252
9
$HANDSEED
5
238
9
$ANGBASE
50
0
9
$ANGDIR
70
0
9
$ATTMODE
70
1
9
$AUNITS
70
0
9
$AUPREC
70
0
9
$CECOLOR
62
256
9
$CELTSCALE
40
1
9
$CELTYPE
6
ByLayer
9
$CELWEIGHT
370
18
9
$CLAYER
8
0
9
$CMLJUST
70
0
9
$CMLSCALE
40
1
9
$CMLSTYLE
2
Standard
9
$DIMSTYLE
2
Standard
9
$TEXTSIZE
40
0.2
9
$TEXTSTYLE
7
Standard
9
$LUNITS
70
2
9
$LUPREC
70
4
9
$EXTNAMES
290
1
9
$INSUNITS
70
4
9
$LTSCALE
40
1
9
$LWDISPLAY
290
1
9
$PDMODE
70
0
9
$PDSIZE
40
0
9
$PLINEGEN
70
0
0
ENDSEC
0
SECTION
2
CLASSES
0
CLASS
1
RASTERVARIABLES
2
AcDbRasterVariables
3
ISM
90
0
280
0
281
0
0
ENDSEC
0
SECTION
2
TABLES
0
TABLE
2
VPORT
5
22e
100
AcDbSymbolTable
0
VPORT
5
1
100
AcDbSymbolTableRecord
100
AcDbViewportTableRecord
2
*Active
70
0
10
0
20
0
11
1
21
1
12
-1
22
1
13
0
23
0
14
0.5
24
0.5
15
10
25
10
16
0
26
0
36
1
17
0
27
0
37
0
0
ENDTAB
0
TABLE
2
LTYPE
5
22f
100
AcDbSymbolTable
0
LTYPE
5
14
100
AcDbSymbolTableRecord
100
AcDbLinetypeTableRecord
70
0
2
ByBlock
3

72
65
73
0
40
0
0
LTYPE
5
15
100
AcDbSymbolTableRecord
100
AcDbLinetypeTableRecord
70
0
2
ByLayer
3

72
65
73
0
40
0
0
LTYPE
5
16
100
AcDbSymbolTableRecord
100
AcDbLinetypeTableRecord
70
0
2
Continuous
3
Solid line
72
65
73
0
40
0
0
LTYPE
5
6E
100
AcDbSymbolTableRecord
100
AcDbLinetypeTableRecord
70
0
2
CENTER
3
____ _ ____ _ ____ _ ____
72
65
73
4
40
47.5
49
22
74
0
49
-8.5
74
0
49
8.5
74
0
49
-8.5
74
0
0
LTYPE
5
6F
100
AcDbSymbolTableRecord
100
AcDbLinetypeTableRecord
70
0
2
DASHED
3
__ __ __ __ __ __ __ __ __
72
65
73
2
40
25.72
49
12.86
74
0
49
-12.86
74
0
0
ENDTAB
0
TABLE
2
LAYER
5
230
100
AcDbSymbolTable
0
LAYER
5
10
100
AcDbSymbolTableRecord
100
AcDbLayerTableRecord
2
0
70
0
62
7
6
Continuous
290
1
370
-3
390
0
0
LAYER
5
71
100
AcDbSymbolTableRecord
100
AcDbLayerTableRecord
2
81
70
0
62
-3
6
Continuous
290
1
370
-3
390
0
0
LAYER
5
73
100
AcDbSymbolTableRecord
100
AcDbLayerTableRecord
2
80
70
0
62
-6
6
Continuous
290
1
370
-3
390
0
0
LAYER
5
75
100
AcDbSymbolTableRecord
100
AcDbLayerTableRecord
2
1
70
0
62
4
6
Continuous
290
1
370
-3
390
0
0
LAYER
5
7B
100
AcDbSymbolTableRecord
100
AcDbLayerTableRecord
2
4
70
0
62
-2
6
CENTER
290
1
370
-3
390
0
0
LAYER
5
D2
100
AcDbSymbolTableRecord
100
AcDbLayerTableRecord
2
2
70
0
62
7
6
Continuous
290
1
370
-3
390
0
0
LAYER
5
18D
100
AcDbSymbolTableRecord
100
AcDbLayerTableRecord
2
Defpoints
70
0
62
7
6
Continuous
290
0
370
-3
390
0
0
LAYER
5
21a
100
AcDbSymbolTableRecord
100
AcDbLayerTableRecord
2
SK4
70
0
62
2
6
CENTER
290
1
370
-3
390
0
0
LAYER
5
21b
100
AcDbSymbolTableRecord
100
AcDbLayerTableRecord
2
SK1
70
0
62
4
6
Continuous
290
1
370
-3
390
0
0
LAYER
5
21c
100
AcDbSymbolTableRecord
100
AcDbLayerTableRecord
2
SK2
70
0
62
7
6
Continuous
290
1
370
-3
390
0
0
LAYER
5
21d
100
AcDbSymbolTableRecord
100
AcDbLayerTableRecord
2
SK6
70
0
62
5
6
Continuous
290
1
370
-3
390
0
0
ENDTAB
0
TABLE
2
STYLE
5
231
100
AcDbSymbolTable
0
STYLE
5
11
100
AcDbSymbolTableRecord
100
AcDbTextStyleTableRecord
2
Standard
3
txt
70
0
71
0
40
0
41
1
42
0
50
0
0
STYLE
5
15F
100
AcDbSymbolTableRecord
100
AcDbTextStyleTableRecord
2
iso_b_vert
3
simplex.shx
70
0
71
0
40
0
41
1
42
0
50
0
0
STYLE
5
160
100
AcDbSymbolTableRecord
100
AcDbTextStyleTableRecord
2
DWGDirectTextStyle
3
simplex
70
0
71
0
40
0
41
1
42
0
50
0
0
ENDTAB
0
TABLE
2
DIMSTYLE
5
232
100
AcDbSymbolTable
100
AcDbDimStyleTable
0
DIMSTYLE
105
27
100
AcDbSymbolTableRecord
100
AcDbDimStyleTableRecord
2
Standard
70
0
3
<>
41
0.18
42
0.0625
44
0.18
140
0.18
147
0.09
73
0
74
0
77
1
271
2
275
0
278
52
280
0
340
11
0
ENDTAB
0
TABLE
2
VIEW
5
233
100
AcDbSymbolTable
0
ENDTAB
0
TABLE
2
UCS
5
234
100
AcDbSymbolTable
0
ENDTAB
0
TABLE
2
APPID
5
235
100
AcDbSymbolTable
0
APPID
5
12
100
AcDbSymbolTableRecord
100
AcDbRegAppTableRecord
2
ACAD
70
0
0
APPID
5
189
100
AcDbSymbolTableRecord
100
AcDbRegAppTableRecord
2
ACAD_DSTYLE_DIMBREAK
70
0
0
APPID
5
1D9
100
AcDbSymbolTableRecord
100
AcDbRegAppTableRecord
2
ACAD_DSTYLE_DIM_LINETYPE
70
0
0
APPID
5
1DA
100
AcDbSymbolTableRecord
100
AcDbRegAppTableRecord
2
ACAD_DSTYLE_DIM_EXT1_LINETYPE
70
0
0
APPID
5
1DB
100
AcDbSymbolTableRecord
100
AcDbRegAppTableRecord
2
ACAD_DSTYLE_DIM_EXT2_LINETYPE
70
0
0
APPID
5
216
100
AcDbSymbolTableRecord
100
AcDbRegAppTableRecord
2
ACAD_MLEADERVER
70
0
0
ENDTAB
0
TABLE
2
BLOCK_RECORD
5
236
100
AcDbSymbolTable
0
BLOCK_RECORD
5
1F
100
AcDbSymbolTableRecord
100
AcDbBlockTableRecord
2
*Model_Space
340
0
70
0
0
BLOCK_RECORD
5
1B
100
AcDbSymbolTableRecord
100
AcDbBlockTableRecord
2
*Paper_Space
340
0
70
0
0
BLOCK_RECORD
5
23
100
AcDbSymbolTableRecord
100
AcDbBlockTableRecord
2
*Paper_Space0
340
0
70
0
0
BLOCK_RECORD
5
18E
100
AcDbSymbolTableRecord
100
AcDbBlockTableRecord
2
*D1
340
0
70
0
0
BLOCK_RECORD
5
19A
100
AcDbSymbolTableRecord
100
AcDbBlockTableRecord
2
_U0
340
0
70
0
0
BLOCK_RECORD
5
1A6
100
AcDbSymbolTableRecord
100
AcDbBlockTableRecord
2
*D3
340
0
70
0
0
BLOCK_RECORD
5
1B2
100
AcDbSymbolTableRecord
100
AcDbBlockTableRecord
2
_U1
340
0
70
0
0
ENDTAB
0
ENDSEC
0
SECTION
2
BLOCKS
0
BLOCK
5
20
100
AcDbEntity
8
0
100
AcDbBlockBegin
2
*Model_Space
70
0
10
0
20
0
30
0
3
*Model_Space
0
ENDBLK
5
21
100
AcDbEntity
8
0
100
AcDbBlockEnd
0
BLOCK
5
1C
100
AcDbEntity
8
0
100
AcDbBlockBegin
2
*Paper_Space
70
0
10
0
20
0
30
0
3
*Paper_Space
0
ENDBLK
5
1D
100
AcDbEntity
8
0
100
AcDbBlockEnd
0
BLOCK
5
24
100
AcDbEntity
8
0
100
AcDbBlockBegin
2
*Paper_Space0
70
0
10
0
20
0
30
0
3
*Paper_Space0
0
ENDBLK
5
25
100
AcDbEntity
8
0
100
AcDbBlockEnd
0
BLOCK
5
18F
100
AcDbEntity
8
0
100
AcDbBlockBegin
2
*D1
70
1
10
0
20
0
30
0
3
*D1
0
LINE
5
191
100
AcDbEntity
8
0
62
256
6
ByLayer
370
-2
48
1
60
0
100
AcDbLine
10
47.6
20
-9.525
30
0
11
47.6
21
-24.105233
31
0
39
0
210
0
220
0
230
1
0
LINE
5
192
100
AcDbEntity
8
0
62
256
6
ByLayer
370
-2
48
1
60
0
100
AcDbLine
10
14.2
20
-9.525
30
0
11
14.2
21
-24.105233
31
0
39
0
210
0
220
0
230
1
0
LINE
5
193
100
AcDbEntity
8
0
62
256
6
ByLayer
370
-2
48
1
60
0
100
AcDbLine
10
44.1
20
-22.105233
30
0
11
17.7
21
-22.105233
31
0
39
0
210
0
220
0
230
1
0
SOLID
5
194
100
AcDbEntity
8
0
62
256
6
ByLayer
370
-1
48
1
60
0
100
AcDbTrace
10
44.1
20
-22.688566
30
0
11
44.1
21
-21.521899
31
0
12
47.6
22
-22.105233
32
0
13
47.6
23
-22.105233
33
0
39
0
210
0
220
0
230
1
0
SOLID
5
195
100
AcDbEntity
8
0
62
256
6
ByLayer
370
-1
48
1
60
0
100
AcDbTrace
10
17.7
20
-21.521899
30
0
11
17.7
21
-22.688566
31
0
12
14.2
22
-22.105233
32
0
13
14.2
23
-22.105233
33
0
39
0
210
0
220
0
230
1
0
MTEXT
5
196
100
AcDbEntity
8
0
62
256
6
ByLayer
370
18
48
1
60
0
100
AcDbMText
10
30.9
20
-15.105233
30
0
210
0
220
0
230
1
1
\A1;33.4
40
3.5
41
0
44
1
50
0
71
5
72
5
7
iso_b_vert
0
POINT
5
197
100
AcDbEntity
8
Defpoints
62
0
6
ByLayer
370
-1
48
1
60
0
100
AcDbPoint
10
47.6
20
-7.9375
30
0
39
0
210
0
220
0
230
1
50
360
0
POINT
5
198
100
AcDbEntity
8
Defpoints
62
0
6
ByLayer
370
-1
48
1
60
0
100
AcDbPoint
10
14.2
20
-7.9375
30
0
39
0
210
0
220
0
230
1
50
360
0
POINT
5
199
100
AcDbEntity
8
Defpoints
62
0
6
ByLayer
370
-1
48
1
60
0
100
AcDbPoint
10
14.2
20
-22.105233
30
0
39
0
210
0
220
0
230
1
50
360
0
ENDBLK
5
190
100
AcDbEntity
8
0
100
AcDbBlockEnd
0
BLOCK
5
1A1
100
AcDbEntity
8
0
100
AcDbBlockBegin
2
_U0
70
0
10
0
20
0
30
0
3
_U0
0
MTEXT
5
19B
100
AcDbEntity
8
2
62
256
6
ByLayer
370
18
48
1
60
0
100
AcDbMText
10
26.794034
20
-21.072599
30
0
210
0
220
0
230
1
1
\W0.7528;33.4
40
3.5
41
0
44
1.084337
50
0
71
7
72
5
7
iso_b_vert
0
LINE
5
19C
100
AcDbEntity
8
2
62
256
6
ByLayer
370
13
48
1
60
0
100
AcDbLine
10
47.6
20
-9.525
30
0
11
47.6
21
-24.105233
31
0
39
0
210
0
220
0
230
1
0
LINE
5
19D
100
AcDbEntity
8
2
62
256
6
ByLayer
370
13
48
1
60
0
100
AcDbLine
10
14.2
20
-9.525
30
0
11
14.2
21
-24.105233
31
0
39
0
210
0
220
0
230
1
0
LINE
5
19E
100
AcDbEntity
8
2
62
256
6
ByLayer
370
13
48
1
60
0
100
AcDbLine
10
47.6
20
-22.105233
30
0
11
14.2
21
-22.105233
31
0
39
0
210
0
220
0
230
1
0
SOLID
5
19F
100
AcDbEntity
8
2
62
256
6
ByLayer
370
18
48
1
60
0
100
AcDbTrace
10
47.6
20
-22.105233
30
0
11
44.100002
21
-22.566017
31
0
12
44.099998
22
-21.644449
32
0
13
44.099998
23
-21.644449
33
0
39
0
210
0
220
0
230
1
0
SOLID
5
1A0
100
AcDbEntity
8
2
62
256
6
ByLayer
370
18
48
1
60
0
100
AcDbTrace
10
14.2
20
-22.105233
30
0
11
17.699998
21
-21.644449
31
0
12
17.700002
22
-22.566017
32
0
13
17.700002
23
-22.566017
33
0
39
0
210
0
220
0
230
1
0
ENDBLK
5
1A2
100
AcDbEntity
8
0
100
AcDbBlockEnd
0
BLOCK
5
1A7
100
AcDbEntity
8
0
100
AcDbBlockBegin
2
*D3
70
1
10
0
20
0
30
0
3
*D3
0
LINE
5
1A9
100
AcDbEntity
8
0
62
256
6
ByLayer
370
-2
48
1
60
0
100
AcDbLine
10
47.6
20
-9.525
30
0
11
47.6
21
-39.105233
31
0
39
0
210
0
220
0
230
1
0
LINE
5
1AA
100
AcDbEntity
8
0
62
256
6
ByLayer
370
-2
48
1
60
0
100
AcDbLine
10
6.397679
20
-9.1325
30
0
11
6.397679
21
-39.105233
31
0
39
0
210
0
220
0
230
1
0
LINE
5
1AB
100
AcDbEntity
8
0
62
256
6
ByLayer
370
-2
48
1
60
0
100
AcDbLine
10
44.1
20
-37.105233
30
0
11
9.897679
21
-37.105233
31
0
39
0
210
0
220
0
230
1
0
SOLID
5
1AC
100
AcDbEntity
8
0
62
256
6
ByLayer
370
-1
48
1
60
0
100
AcDbTrace
10
44.1
20
-37.688566
30
0
11
44.1
21
-36.521899
31
0
12
47.6
22
-37.105233
32
0
13
47.6
23
-37.105233
33
0
39
0
210
0
220
0
230
1
0
SOLID
5
1AD
100
AcDbEntity
8
0
62
256
6
ByLayer
370
-1
48
1
60
0
100
AcDbTrace
10
9.897679
20
-36.521899
30
0
11
9.897679
21
-37.688566
31
0
12
6.397679
22
-37.105233
32
0
13
6.397679
23
-37.105233
33
0
39
0
210
0
220
0
230
1
0
MTEXT
5
1AE
100
AcDbEntity
8
0
62
256
6
ByLayer
370
18
48
1
60
0
100
AcDbMText
10
26.998839
20
-30.105233
30
0
210
0
220
0
230
1
1
\A1;41.2
40
3.5
41
0
44
1
50
0
71
5
72
5
7
iso_b_vert
0
POINT
5
1AF
100
AcDbEntity
8
Defpoints
62
0
6
ByLayer
370
-1
48
1
60
0
100
AcDbPoint
10
47.6
20
-7.9375
30
0
39
0
210
0
220
0
230
1
50
360
0
POINT
5
1B0
100
AcDbEntity
8
Defpoints
62
0
6
ByLayer
370
-1
48
1
60
0
100
AcDbPoint
10
6.397679
20
-7.545
30
0
39
0
210
0
220
0
230
1
50
360
0
POINT
5
1B1
100
AcDbEntity
8
Defpoints
62
0
6
ByLayer
370
-1
48
1
60
0
100
AcDbPoint
10
6.397679
20
-37.105233
30
0
39
0
210
0
220
0
230
1
50
360
0
ENDBLK
5
1A8
100
AcDbEntity
8
0
100
AcDbBlockEnd
0
BLOCK
5
1B9
100
AcDbEntity
8
0
100
AcDbBlockBegin
2
_U1
70
0
10
0
20
0
30
0
3
_U1
0
MTEXT
5
1B3
100
AcDbEntity
8
SK2
62
256
6
ByLayer
370
18
48
1
60
0
100
AcDbMText
10
23.330307
20
-36.072599
30
0
210
0
220
0
230
1
1
\W0.6856;41.2
40
3.5
41
0
44
1.084337
50
0
71
7
72
5
7
iso_b_vert
0
LINE
5
1B4
100
AcDbEntity
8
SK2
62
256
6
ByLayer
370
13
48
1
60
0
100
AcDbLine
10
47.6
20
-9.525
30
0
11
47.6
21
-39.105233
31
0
39
0
210
0
220
0
230
1
0
LINE
5
1B5
100
AcDbEntity
8
SK2
62
256
6
ByLayer
370
13
48
1
60
0
100
AcDbLine
10
6.397679
20
-9.1325
30
0
11
6.397679
21
-39.105233
31
0
39
0
210
0
220
0
230
1
0
LINE
5
1B6
100
AcDbEntity
8
SK2
62
256
6
ByLayer
370
13
48
1
60
0
100
AcDbLine
10
47.6
20
-37.105233
30
0
11
6.397679
21
-37.105233
31
0
39
0
210
0
220
0
230
1
0
SOLID
5
1B7
100
AcDbEntity
8
SK2
62
256
6
ByLayer
370
18
48
1
60
0
100
AcDbTrace
10
47.6
20
-37.105233
30
0
11
44.100002
21
-37.566017
31
0
12
44.099998
22
-36.644449
32
0
13
44.099998
23
-36.644449
33
0
39
0
210
0
220
0
230
1
0
SOLID
5
1B8
100
AcDbEntity
8
SK2
62
256
6
ByLayer
370
18
48
1
60
0
100
AcDbTrace
10
6.397679
20
-37.105233
30
0
11
9.897677
21
-36.644449
31
0
12
9.897681
22
-37.566017
32
0
13
9.897681
23
-37.566017
33
0
39
0
210
0
220
0
230
1
0
ENDBLK
5
1BA
100
AcDbEntity
8
0
100
AcDbBlockEnd
0
ENDSEC
0
SECTION
2
ENTITIES
0
ARC
5
E4
100
AcDbEntity
8
1
62
256
6
ByLayer
370
18
48
1
60
0
100
AcDbCircle
39
0
10
6.397679
20
-8.545
30
0
40
1
210
0
220
0
230
1
100
AcDbArc
50
90
51
120
0
ELLIPSE
5
E5
100
AcDbEntity
8
1
62
256
6
ByLayer
370
18
48
1
60
0
100
AcDbEllipse
10
46.570991
20
-2.050633
30
0
11
2.88574891640793
21
6.63403511651099
31
0
210
0
220
0
230
1
40
0.175059
41
1.24820212066466
42
1.2775855967216
0
ELLIPSE
5
E6
100
AcDbEntity
8
1
62
256
6
ByLayer
370
18
48
1
60
0
100
AcDbEllipse
10
47.567354
20
0.32577
30
0
11
1.39420335970707
21
0.649424264941396
31
0
210
0
220
0
230
1
40
0.647162
41
-2.97441276513672
42
-2.84211082599052
0
ELLIPSE
5
E7
100
AcDbEntity
8
1
62
256
6
ByLayer
370
18
48
1
60
0
100
AcDbEllipse
10
47.567354
20
1.203315
30
0
11
1.45357454250735
21
0.117931694347279
31
0
210
0
220
0
230
1
40
0.737363
41
-2.6628033091795
42
-2.57874471038158
0
ELLIPSE
5
E8
100
AcDbEntity
8
1
62
256
6
ByLayer
370
18
48
1
60
0
100
AcDbEllipse
10
47.016282
20
1.644306
30
0
11
0.829446548115036
21
0.962435723494244
31
0
210
0
220
0
230
1
40
0.602431
41
-2.67903212661814
42
-2.19948481474696
0
ELLIPSE
5
E9
100
AcDbEntity
8
1
62
256
6
ByLayer
370
18
48
1
60
0
100
AcDbEllipse
10
45.962282
20
4.898933
30
0
11
4.50588879845035
21
-13.2530901065449
31
0
210
0
220
0
230
1
40
0.089281
41
-1.24459434512295
42
-1.22599872516287
0
ELLIPSE
5
EA
100
AcDbEntity
8
1
62
256
6
ByLayer
370
18
48
1
60
0
100
AcDbEllipse
10
43.973979
20
-8.959381
30
0
11
9.93118383902337
21
23.333003846216
31
0
210
0
220
0
230
1
40
0.045918
41
1.2222098749912
42
1.22758857161866
0
ELLIPSE
5
EB
100
AcDbEntity
8
1
62
256
6
ByLayer
370
18
48
1
60
0
100
AcDbEllipse
10
47.567354
20
-0.944487
30
0
11
1.25371158215734
21
-0.91261175887268
31
0
210
0
220
0
230
1
40
0.811635
41
3.06776632208327
42
-3.06792312758949
0
ELLIPSE
5
EC
100
AcDbEntity
8
1
62
256
6
ByLayer
370
18
48
1
60
0
100
AcDbEllipse
10
47.014625
20
-0.354746
30
0
11
0.058479453905315
21
1.48037375040029
31
0
210
0
220
0
230
1
40
0.679724
41
0.101188127938055
42
0.601905398134463
0
ELLIPSE
5
ED
100
AcDbEntity
8
1
62
256
6
ByLayer
370
18
48
1
60
0
100
AcDbEllipse
10
46.570992
20
0.118599
30
0
11
3.06925632074358
21
-1.97469367340244
31
0
210
0
220
0
230
1
40
0.256214
41
-1.49682292554015
42
-1.46743950024245
0
ELLIPSE
5
EE
100
AcDbEntity
8
1
62
256
6
ByLayer
370
18
48
1
60
0
100
AcDbEllipse
10
46.865075
20
2.378559
30
0
11
0.57894389544079
21
-5.37396194137702
31
0
210
0
220
0
230
1
40
0.017123
41
-0.506242995050002
42
-0.484136232885852
0
ELLIPSE
5
EF
100
AcDbEntity
8
1
62
256
6
ByLayer
370
13
48
1
60
0
100
AcDbEllipse
10
12.635814
20
59.074809
30
0
11
41.3790126636473
21
-60.3320110849375
31
0
210
0
220
0
230
1
40
0.543369
41
-0.998525887574984
42
-0.889463110976601
0
ELLIPSE
5
F0
100
AcDbEntity
8
1
62
256
6
ByLayer
370
13
48
1
60
0
100
AcDbEllipse
10
12.635814
20
-33.793443
30
0
11
49.9830539964595
21
-53.4216113923786
31
0
210
0
220
0
230
1
40
0.31801
41
1.88709887333501
42
1.99616164993339
0
POINT
5
70
100
AcDbEntity
8
81
62
256
6
ByLayer
370
18
48
1
60
0
100
AcDbPoint
10
47.6
20
0
30
0
39
0
210
0
220
0
230
1
50
360
0
POINT
5
72
100
AcDbEntity
8
80
62
256
6
ByLayer
370
18
48
1
60
0
100
AcDbPoint
10
0
20
0
30
0
39
0
210
0
220
0
230
1
50
360
0
POINT
5
74
100
AcDbEntity
8
1
62
256
6
ByLayer
370
18
48
1
60
1
100
AcDbPoint
10
47.6
20
-7.9375
30
0
39
0
210
0
220
0
230
1
50
360
0
POINT
5
76
100
AcDbEntity
8
1
62
256
6
ByLayer
370
18
48
1
60
1
100
AcDbPoint
10
14.2
20
-7.9375
30
0
39
0
210
0
220
0
230
1
50
360
0
POINT
5
77
100
AcDbEntity
8
1
62
256
6
ByLayer
370
18
48
1
60
1
100
AcDbPoint
10
47.6
20
-7.9375
30
0
39
0
210
0
220
0
230
1
50
360
0
POINT
5
78
100
AcDbEntity
8
1
62
256
6
ByLayer
370
18
48
1
60
1
100
AcDbPoint
10
6.397679
20
-7.545
30
0
39
0
210
0
220
0
230
1
50
360
0
SPLINE
5
F1
100
AcDbEntity
8
1
62
256
6
ByLayer
370
18
48
1
60
0
100
AcDbSpline
70
4
71
3
72
10
73
6
40
0
40
0
40
0
40
0
40
0.5
40
0.5
40
1
40
1
40
1
40
1
41
1
10
46.2767633731295
20
-0.296637180272995
30
0
41
1
10
46.2729602924532
20
-0.324114498790209
30
0
41
1
10
46.2697916871186
20
-0.351993273159735
30
0
41
1
10
46.2649612940035
20
-0.40834531464796
30
0
41
1
10
46.2633224651245
20
-0.436537926073242
30
0
41
1
10
46.2625251624081
20
-0.464740882331739
30
0
0
SPLINE
5
F2
100
AcDbEntity
8
1
62
256
6
ByLayer
370
18
48
1
60
0
100
AcDbSpline
70
4
71
3
72
22
73
18
40
0
40
0
40
0
40
0
40
0.163409337277923
40
0.163409337277923
40
0.267983170118189
40
0.267983170118189
40
0.372557002958455
40
0.372557002958455
40
0.581704668638987
40
0.581704668638987
40
0.686278501479261
40
0.686278501479261
40
0.738565417899388
40
0.738565417899388
40
0.790852334319515
40
0.790852334319515
40
1
40
1
40
1
40
1
41
1
10
46.3011137895056
20
0.590207090006572
30
0
41
1
10
46.3012266747495
20
0.590488358228868
30
0
41
1
10
46.3030575156056
20
0.590007303746546
30
0
41
1
10
46.3090686098024
20
0.588319245824181
30
0
41
1
10
46.3121693037121
20
0.587434811260408
30
0
41
1
10
46.3199933685174
20
0.585318075263615
30
0
41
1
10
46.3247159479601
20
0.58408655786792
30
0
41
1
10
46.3413226313419
20
0.58007537874775
30
0
41
1
10
46.3556608217874
20
0.576967714241931
30
0
41
1
10
46.3828149250101
20
0.572338228531066
30
0
41
1
10
46.3928121115554
20
0.570800414670032
30
0
41
1
10
46.409375484616
20
0.568594607850457
30
0
41
1
10
46.4151583336296
20
0.567876250891345
30
0
41
1
10
46.4272787955946
20
0.566490413871009
30
0
41
1
10
46.4336280868556
20
0.565821860556895
30
0
41
1
10
46.4666893387593
20
0.562667760030791
30
0
41
1
10
46.4972482717257
20
0.560736765850066
30
0
41
1
10
46.5327307119533
20
0.560030491789803
30
0
0
SPLINE
5
F3
100
AcDbEntity
8
1
62
256
6
ByLayer
370
18
48
1
60
0
100
AcDbSpline
70
4
71
3
72
8
73
4
40
0
40
0
40
0
40
0
40
1
40
1
40
1
40
1
41
1
10
46.293810494884
20
-0.74335179812357
30
0
41
1
10
46.2703759725536
20
-0.677665039521997
30
0
41
1
10
46.2502403240311
20
-0.611512912670122
30
0
41
1
10
46.2333020742839
20
-0.544909732531494
30
0
0
SPLINE
5
F4
100
AcDbEntity
8
1
62
256
6
ByLayer
370
18
48
1
60
0
100
AcDbSpline
70
4
71
3
72
13
73
9
40
0
40
0
40
0
40
0
40
0.169937915298959
40
0.169937915298959
40
0.339875830597917
40
0.679751661195876
40
0.679751661195876
40
1
40
1
40
1
40
1
41
1
10
46.3592018418882
20
-0.560942339207969
30
0
41
1
10
46.3543713527694
20
-0.573806222805416
30
0
41
1
10
46.3497109628164
20
-0.586839862653846
30
0
41
1
10
46.3407751153636
20
-0.613071971432817
30
0
41
1
10
46.3279228849291
20
-0.652737051478937
30
0
41
1
10
46.3166575843658
20
-0.693301774556403
30
0
41
1
10
46.3033630911528
20
-0.746527084329131
30
0
41
1
10
46.297500729425
20
-0.772667547402477
30
0
41
1
10
46.2922147955485
20
-0.799102107141493
30
0
0
SPLINE
5
F5
100
AcDbEntity
8
1
62
256
6
ByLayer
370
18
48
1
60
0
100
AcDbSpline
70
4
71
3
72
20
73
16
40
0
40
0
40
0
40
0
40
0.250000000000013
40
0.250000000000013
40
0.500000000000027
40
0.500000000000027
40
0.562500000000023
40
0.562500000000023
40
0.62500000000002
40
0.62500000000002
40
0.750000000000013
40
0.750000000000013
40
0.875000000000007
40
0.875000000000007
40
1
40
1
40
1
40
1
41
1
10
9.21786217206449
20
7.27555337833098
30
0
41
1
10
9.11707690259038
20
7.27115189613932
30
0
41
1
10
9.01256221707774
20
7.26703275519401
30
0
41
1
10
8.79616360156484
20
7.26038196942241
30
0
41
1
10
8.68429079134083
20
7.25784072677925
30
0
41
1
10
8.53928610456205
20
7.25639650725344
30
0
41
1
10
8.50998476521715
20
7.25619540551645
30
0
41
1
10
8.45130428203314
20
7.25599204193873
30
0
41
1
10
8.42187541213818
20
7.25598903195788
30
0
41
1
10
8.33331587531461
20
7.2563029628194
30
0
41
1
10
8.27391380700524
20
7.25694151782105
30
0
41
1
10
8.15431662332927
20
7.25924543260032
30
0
41
1
10
8.09412271318922
20
7.26090938749491
30
0
41
1
10
7.97281251873088
20
7.26548963542999
30
0
41
1
10
7.91169940085828
20
7.26840248338613
30
0
41
1
10
7.85000000127459
20
7.27211643306222
30
0
0
SPLINE
5
F6
100
AcDbEntity
8
1
62
256
6
ByLayer
370
18
48
1
60
0
100
AcDbSpline
70
4
71
3
72
12
73
8
40
0
40
0
40
0
40
0
40
0.5
40
0.5
40
0.75
40
0.75
40
1
40
1
40
1
40
1
41
1
10
7.85000000227714
20
7.27211643301899
30
0
41
1
10
7.85000000226884
20
7.30697403875072
30
0
41
1
10
7.85000000225969
20
7.3434638842088
30
0
41
1
10
7.8500000022446
20
7.40064679813079
30
0
41
1
10
7.85000000223937
20
7.42011706383082
30
0
41
1
10
7.85000000222837
20
7.4598919940349
30
0
41
1
10
7.85000000222266
20
7.48022683907493
30
0
41
1
10
7.85000000221677
20
7.50087491612285
30
0
0
SPLINE
5
F7
100
AcDbEntity
8
1
62
256
6
ByLayer
370
18
48
1
60
0
100
AcDbSpline
70
4
71
3
72
14
73
10
40
0
40
0
40
0
40
0
40
0.250000000000043
40
0.250000000000043
40
0.375000000000064
40
0.375000000000064
40
0.500000000000085
40
0.500000000000085
40
1
40
1
40
1
40
1
41
1
10
7.48485994424556
20
7.50070699867885
30
0
41
1
10
7.51506154232507
20
7.50024875165118
30
0
41
1
10
7.54550013127169
20
7.49992418903324
30
0
41
1
10
7.59147430928874
20
7.49962152657938
30
0
41
1
10
7.60687057150517
20
7.49955140944545
30
0
41
1
10
7.63754657018092
20
7.49947041955846
30
0
41
1
10
7.65285076878132
20
7.49945930972024
30
0
41
1
10
7.72921447962108
20
7.4995406541484
30
0
41
1
10
7.78980755598354
20
7.50004113003641
30
0
41
1
10
7.85000000221677
20
7.50087491612285
30
0
0
SPLINE
5
F8
100
AcDbEntity
8
1
62
256
6
ByLayer
370
18
48
1
60
0
100
AcDbSpline
70
4
71
3
72
9
73
5
40
0
40
0
40
0
40
0
40
0.513959379121556
40
1
40
1
40
1
40
1
41
1
10
13.1430251002596
20
7.14492610862817
30
0
41
1
10
13.1430251002338
20
7.14218059696518
30
0
41
1
10
13.143025100138
20
7.10411750482248
30
0
41
1
10
13.1430251006126
20
7.0028795538924
30
0
41
1
10
13.1430251003695
20
6.93928010862911
30
0
0
SPLINE
5
F9
100
AcDbEntity
8
1
62
256
6
ByLayer
370
13
48
1
60
0
100
AcDbSpline
70
4
71
3
72
10
73
6
40
0
40
0
40
0
40
0
40
0.31235347274462
40
0.65617673637231
40
1
40
1
40
1
40
1
41
1
10
14.2000000012622
20
7.53467395826647
30
0
41
1
10
14.2000000012347
20
7.52933786510806
30
0
41
1
10
14.2000000011602
20
7.48689255894161
30
0
41
1
10
14.2000000019433
20
7.32291277322946
30
0
41
1
10
14.2000000000007
20
7.14013330175928
30
0
41
1
10
14.2
20
7.03185343598295
30
0
0
SPLINE
5
FA
100
AcDbEntity
8
1
62
256
6
ByLayer
370
18
48
1
60
0
100
AcDbSpline
70
4
71
3
72
14
73
10
40
0
40
0
40
0
40
0
40
0.25
40
0.25
40
0.5
40
0.5
40
0.75
40
0.75
40
1
40
1
40
1
40
1
41
1
10
14.1999966225965
20
-7.85309974834456
30
0
41
1
10
14.2006837151013
20
-7.79327039285567
30
0
41
1
10
14.2013950626529
20
-7.72448846042093
30
0
41
1
10
14.2027325157446
20
-7.56922326837798
30
0
41
1
10
14.2034351401811
20
-7.48271092244181
30
0
41
1
10
14.2048096128339
20
-7.29187372996034
30
0
41
1
10
14.2054515756666
20
-7.18820078879034
30
0
41
1
10
14.2068450960545
20
-6.96451008552123
30
0
41
1
10
14.2075161248451
20
-6.84449865585106
30
0
41
1
10
14.2081872700341
20
-6.71623224141598
30
0
0
SPLINE
5
FB
100
AcDbEntity
8
1
62
256
6
ByLayer
370
18
48
1
60
0
100
AcDbSpline
70
4
71
3
72
8
73
4
40
0
40
0
40
0
40
0
40
1
40
1
40
1
40
1
41
1
10
47.2043968897876
20
7.93156280287451
30
0
41
1
10
47.2569468586378
20
7.92803317150157
30
0
41
1
10
47.3094958109996
20
7.92448848260628
30
0
41
1
10
47.3620437585207
20
7.92092890841951
30
0
0
SPLINE
5
FC
100
AcDbEntity
8
1
62
256
6
ByLayer
370
13
48
1
60
0
100
AcDbSpline
70
4
71
3
72
10
73
6
40
0
40
0
40
0
40
0
40
0.312353472744616
40
0.656176736372308
40
1
40
1
40
1
40
1
41
1
10
14.2000000012621
20
-6.71210724557633
30
0
41
1
10
14.2000000012347
20
-6.87261281941889
30
0
41
1
10
14.2000000011602
20
-7.18417597926191
30
0
41
1
10
14.2000000019432
20
-7.57132754352747
30
0
41
1
10
14.2000000000006
20
-7.77075916163324
30
0
41
1
10
14.2
20
-7.8530998236607
30
0
0
SPLINE
5
FD
100
AcDbEntity
8
1
62
256
6
ByLayer
370
18
48
1
60
0
100
AcDbSpline
70
4
71
3
72
19
73
15
40
0
40
0
40
0
40
0
40
0.250000000000006
40
0.250000000000006
40
0.375000000000009
40
0.375000000000009
40
0.500000000000012
40
0.625000000000015
40
0.625000000000015
40
0.687500000000011
40
0.687500000000011
40
0.750000000000006
40
0.750000000000006
40
1
40
1
40
1
40
1
41
1
10
13.1430251002859
20
-5.83989125082579
30
0
41
1
10
13.218810679806
20
-5.93384840056061
30
0
41
1
10
13.2984831960995
20
-6.02286364777464
30
0
41
1
10
13.4233976811199
20
-6.14915307700264
30
0
41
1
10
13.4660182240764
20
-6.19010867390031
30
0
41
1
10
13.5525376497344
20
-6.26913488051028
30
0
41
1
10
13.6403635056323
20
-6.34532242936169
30
0
41
1
10
13.7307164738966
20
-6.41588788413665
30
0
41
1
10
13.7994217805355
20
-6.46669102468954
30
0
41
1
10
13.8224994819423
20
-6.48328422117146
30
0
41
1
10
13.8688141357626
20
-6.51564874913524
30
0
41
1
10
13.8920637764115
20
-6.53143024648435
30
0
41
1
10
14.008772250047
20
-6.6083398092768
30
0
41
1
10
14.1035927591125
20
-6.66351302047698
30
0
41
1
10
14.2000000012621
20
-6.71210724557631
30
0
0
SPLINE
5
FE
100
AcDbEntity
8
1
62
256
6
ByLayer
370
18
48
1
60
0
100
AcDbSpline
70
4
71
3
72
8
73
4
40
0
40
0
40
0
40
0
40
1
40
1
40
1
40
1
41
1
10
14.2000000012621
20
-6.71210724557631
30
0
41
1
10
14.2027291524554
20
-6.71348287861443
30
0
41
1
10
14.20545824193
20
-6.7148578773303
30
0
41
1
10
14.2081872700353
20
-6.71623224141518
30
0
0
SPLINE
5
FF
100
AcDbEntity
8
1
62
256
6
ByLayer
370
18
48
1
60
0
100
AcDbSpline
70
4
71
3
72
37
73
33
40
0
40
0
40
0
40
0
40
0.0777566255790252
40
0.0777566255790252
40
0.135396836480335
40
0.135396836480335
40
0.164216941930991
40
0.164216941930991
40
0.193037047381648
40
0.250677258282961
40
0.250677258282961
40
0.308317469184274
40
0.308317469184274
40
0.365957680085587
40
0.365957680085587
40
0.4235978909869
40
0.4235978909869
40
0.481238101888213
40
0.481238101888213
40
0.538878312789526
40
0.538878312789526
40
0.654158734592149
40
0.654158734592149
40
0.769439156394772
40
0.769439156394772
40
0.798259261845427
40
0.798259261845427
40
0.827079367296082
40
0.827079367296082
40
0.884719578197389
40
0.884719578197389
40
1
40
1
40
1
40
1
41
1
10
23.0905712606921
20
-7.05132086536256
30
0
41
1
10
22.860813765142
20
-7.11594382354033
30
0
41
1
10
22.6306133780703
20
-7.17526988819577
30
0
41
1
10
22.2286619365103
20
-7.26914133565171
30
0
41
1
10
22.0571965315642
20
-7.30611463356126
30
0
41
1
10
21.7993499911194
20
-7.35696673427833
30
0
41
1
10
21.7134088246893
20
-7.37312740412352
30
0
41
1
10
21.5418212277854
20
-7.4038120117041
30
0
41
1
10
21.2847441792484
20
-7.44740918125086
30
0
41
1
10
21.0284888925538
20
-7.48371251198765
30
0
41
1
10
20.6873639076308
20
-7.52582504896759
30
0
41
1
10
20.5170833153103
20
-7.54369307383581
30
0
41
1
10
20.1769503139034
20
-7.57288743616778
30
0
41
1
10
20.0070918831034
20
-7.58425340709499
30
0
41
1
10
19.6676221872025
20
-7.60068369965589
30
0
41
1
10
19.4980104370527
20
-7.60576269232641
30
0
41
1
10
19.1588914425852
20
-7.60958862231954
30
0
41
1
10
18.9893850173709
20
-7.60832573211127
30
0
41
1
10
18.6503295222968
20
-7.59935623037128
30
0
41
1
10
18.4807794456521
20
-7.59165332830898
30
0
41
1
10
17.9718259806908
20
-7.55906909272437
30
0
41
1
10
17.6321255293377
20
-7.52490825224655
30
0
41
1
10
16.9507050529458
20
-7.43069932401031
30
0
41
1
10
16.6089792766326
20
-7.37076241933457
30
0
41
1
10
16.1797570157919
20
-7.27986072600828
30
0
41
1
10
16.0937536710091
20
-7.26086716833339
30
0
41
1
10
15.9218885888731
20
-7.22136398673979
30
0
41
1
10
15.8360121896266
20
-7.20085430540561
30
0
41
1
10
15.5785261126084
20
-7.13703241878744
30
0
41
1
10
15.407063912156
20
-7.09138270672202
30
0
41
1
10
14.8929928517458
20
-6.9455177537063
30
0
41
1
10
14.5506823645652
20
-6.83666118952235
30
0
41
1
10
14.2081872700375
20
-6.71623224141573
30
0
0
SPLINE
5
100
100
AcDbEntity
8
1
62
256
6
ByLayer
370
18
48
1
60
0
100
AcDbSpline
70
4
71
3
72
8
73
4
40
0
40
0
40
0
40
0
40
1
40
1
40
1
40
1
41
1
10
46.2804938664503
20
-0.246128536963511
30
0
41
1
10
46.2707543992613
20
-0.20364939479245
30
0
41
1
10
46.2643852383627
20
-0.158019548885193
30
0
41
1
10
46.2625251624081
20
-0.109245675873069
30
0
0
SPLINE
5
101
100
AcDbEntity
8
1
62
256
6
ByLayer
370
18
48
1
60
0
100
AcDbSpline
70
4
71
3
72
28
73
24
40
0
40
0
40
0
40
0
40
0.125000000000025
40
0.125000000000025
40
0.25000000000005
40
0.25000000000005
40
0.28125000000005
40
0.28125000000005
40
0.31250000000005
40
0.31250000000005
40
0.375000000000043
40
0.375000000000043
40
0.500000000000034
40
0.500000000000034
40
0.625000000000024
40
0.625000000000024
40
0.68750000000002
40
0.68750000000002
40
0.750000000000016
40
0.750000000000016
40
0.875000000000008
40
0.875000000000008
40
1
40
1
40
1
40
1
41
1
10
46.4930767984125
20
0.887970812741003
30
0
41
1
10
46.4583309304716
20
0.855524143805923
30
0
41
1
10
46.4291698342238
20
0.820744167267407
30
0
41
1
10
46.3794395437198
20
0.74819640523566
30
0
41
1
10
46.3588983570809
20
0.710410968236658
30
0
41
1
10
46.3377717442648
20
0.661979172110136
30
0
41
1
10
46.3337759100944
20
0.652232027135284
30
0
41
1
10
46.3262290516594
20
0.63263083434731
30
0
41
1
10
46.3226725303703
20
0.622759500358654
30
0
41
1
10
46.3127059127305
20
0.593170698959369
30
0
41
1
10
46.3069884452588
20
0.573467405228172
30
0
41
1
10
46.2923504741208
20
0.514554145978167
30
0
41
1
10
46.285926730406
20
0.475539673869548
30
0
41
1
10
46.2788797044958
20
0.398698377248763
30
0
41
1
10
46.2782610217986
20
0.360867729875764
30
0
41
1
10
46.2814356987767
20
0.305564327585415
30
0
41
1
10
46.2831813682114
20
0.28737123959408
30
0
41
1
10
46.2880500336149
20
0.251577250200626
30
0
41
1
10
46.2911606868494
20
0.234081098694418
30
0
41
1
10
46.3024406857741
20
0.183140074532929
30
0
41
1
10
46.3125544184641
20
0.151150689869326
30
0
41
1
10
46.3380370285724
20
0.0920154552774477
30
0
41
1
10
46.3534015973977
20
0.0648696593819409
30
0
41
1
10
46.3716919684765
20
0.0406931183865709
30
0
0
SPLINE
5
102
100
AcDbEntity
8
1
62
256
6
ByLayer
370
18
48
1
60
0
100
AcDbSpline
70
4
71
3
72
12
73
8
40
0
40
0
40
0
40
0
40
0.369241512955682
40
0.369241512955682
40
0.738483025911364
40
0.738483025911364
40
1
40
1
40
1
40
1
41
1
10
46.3844107066928
20
-0.867327345850811
30
0
41
1
10
46.3670513406904
20
-0.910314365029222
30
0
41
1
10
46.3525394312134
20
-0.951671940659594
30
0
41
1
10
46.328771487451
20
-1.03178716836686
30
0
41
1
10
46.3195136311384
20
-1.07057112314672
30
0
41
1
10
46.308253882861
20
-1.13508981235552
30
0
41
1
10
46.3049677052574
20
-1.161066415992
30
0
41
1
10
46.3030657762772
20
-1.18642635670244
30
0
0
SPLINE
5
103
100
AcDbEntity
8
1
62
256
6
ByLayer
370
18
48
1
60
0
100
AcDbSpline
70
4
71
3
72
8
73
4
40
0
40
0
40
0
40
0
40
1
40
1
40
1
40
1
41
1
10
46.2932665811738
20
-0.811580093464443
30
0
41
1
10
46.2930070218435
20
-0.788793937482865
30
0
41
1
10
46.2931836348382
20
-0.766052716395194
30
0
41
1
10
46.2938104948847
20
-0.743351798123484
30
0
0
SPLINE
5
104
100
AcDbEntity
8
1
62
256
6
ByLayer
370
18
48
1
60
0
100
AcDbSpline
70
4
71
3
72
26
73
22
40
0
40
0
40
0
40
0
40
0.12499999999999
40
0.12499999999999
40
0.187499999999985
40
0.187499999999985
40
0.24999999999998
40
0.24999999999998
40
0.374999999999984
40
0.374999999999984
40
0.499999999999987
40
0.499999999999987
40
0.62499999999999
40
0.62499999999999
40
0.749999999999994
40
0.749999999999994
40
0.812499999999995
40
0.812499999999995
40
0.874999999999997
40
0.874999999999997
40
1
40
1
40
1
40
1
41
1
10
46.2938104948845
20
-0.743351798123115
30
0
41
1
10
46.2860467769061
20
-0.731886209519615
30
0
41
1
10
46.2788960073948
20
-0.718592220678232
30
0
41
1
10
46.2692317830216
20
-0.695814779738924
30
0
41
1
10
46.266188300866
20
-0.687749944861451
30
0
41
1
10
46.2604929634186
20
-0.670663920625913
30
0
41
1
10
46.2578348372966
20
-0.661606366259434
30
0
41
1
10
46.2506518256826
20
-0.633591278577427
30
0
41
1
10
46.2468561463893
20
-0.61364781985975
30
0
41
1
10
46.24130274062
20
-0.571627346096307
30
0
41
1
10
46.2395500926402
20
-0.549393958536399
30
0
41
1
10
46.2382185178129
20
-0.504296664943041
30
0
41
1
10
46.2386123210163
20
-0.48134677887856
30
0
41
1
10
46.2414657920158
20
-0.43486433224453
30
0
41
1
10
46.24392620963
20
-0.411330652344986
30
0
41
1
10
46.2491916519276
20
-0.375702317257208
30
0
41
1
10
46.2512163919524
20
-0.363740708663698
30
0
41
1
10
46.2557576927772
20
-0.339943468050592
30
0
41
1
10
46.2582749814368
20
-0.328093215789636
30
0
41
1
10
46.2665548016388
20
-0.292695253636566
30
0
41
1
10
46.2730434710347
20
-0.269300354584402
30
0
41
1
10
46.2804938664503
20
-0.246128536963539
30
0
0
SPLINE
5
105
100
AcDbEntity
8
1
62
256
6
ByLayer
370
18
48
1
60
0
100
AcDbSpline
70
4
71
3
72
39
73
35
40
0
40
0
40
0
40
0
40
0.145040497484757
40
0.145040497484757
40
0.217560746227135
40
0.217560746227135
40
0.290080994969513
40
0.290080994969513
40
0.326341119340702
40
0.326341119340702
40
0.36260124371189
40
0.36260124371189
40
0.435121492454266
40
0.435121492454266
40
0.471381616825455
40
0.471381616825455
40
0.507641741196644
40
0.507641741196644
40
0.580161989939022
40
0.580161989939022
40
0.6526822386814
40
0.6526822386814
40
0.670812300866997
40
0.670812300866997
40
0.688942363052593
40
0.725202487423778
40
0.725202487423778
40
0.797722736166148
40
0.797722736166148
40
0.870242984908517
40
0.870242984908517
40
0.942763233650887
40
0.942763233650887
40
1
40
1
40
1
40
1
41
1
10
47.2042516317157
20
7.93147870939185
30
0
41
1
10
47.2540542403639
20
7.80467959304974
30
0
41
1
10
47.2979259945291
20
7.67638376145297
30
0
41
1
10
47.350487226286
20
7.48059714192283
30
0
41
1
10
47.3657804424687
20
7.41477287882418
30
0
41
1
10
47.3908378663722
20
7.28172904756053
30
0
41
1
10
47.4006076639569
20
7.21451089005808
30
0
41
1
10
47.4100268421643
20
7.11236241418658
30
0
41
1
10
47.4122921864962
20
7.07804225356824
30
0
41
1
10
47.4148272848821
20
7.00911150504874
30
0
41
1
10
47.4150890644243
20
6.97475813856681
30
0
41
1
10
47.412650529332
20
6.87205706659196
30
0
41
1
10
47.4067319822265
20
6.80406776032973
30
0
41
1
10
47.3904910396822
20
6.7029037967697
30
0
41
1
10
47.383849151404
20
6.66931925891006
30
0
41
1
10
47.3679423162938
20
6.60244230073556
30
0
41
1
10
47.358626530776
20
6.56901796823101
30
0
41
1
10
47.3270669920294
20
6.47087462797856
30
0
41
1
10
47.3011614200672
20
6.4078993602277
30
0
41
1
10
47.2400810475114
20
6.28662284475146
30
0
41
1
10
47.2049074263763
20
6.22832100228274
30
0
41
1
10
47.1554837280441
20
6.15819523277213
30
0
41
1
10
47.145318432428
20
6.14429939984009
30
0
41
1
10
47.1246221822591
20
6.11699503972372
30
0
41
1
10
47.0929709004581
20
6.07668435455457
30
0
41
1
10
47.05959327667
20
6.03821080002368
30
0
41
1
10
46.9907570403935
20
5.96347822790182
30
0
41
1
10
46.9421019272621
20
5.91659820139265
30
0
41
1
10
46.8402035525321
20
5.82772074300857
30
0
41
1
10
46.7869374440206
20
5.78573346380185
30
0
41
1
10
46.6764704571661
20
5.70600306912505
30
0
41
1
10
46.6199794334485
20
5.6687604404303
30
0
41
1
10
46.5170938018124
20
5.60589651954544
30
0
41
1
10
46.4710793690868
20
5.57948237524863
30
0
41
1
10
46.4245236035504
20
5.55419717588939
30
0
0
SPLINE
5
106
100
AcDbEntity
8
1
62
256
6
ByLayer
370
18
48
1
60
0
100
AcDbSpline
70
4
71
5
72
18
73
12
40
0
40
0
40
0
40
0
40
0
40
0
40
0.12004506679235
40
0.243155843184475
40
0.427822007772661
40
0.612488172360846
40
0.735598948752971
40
0.858709725145094
40
1
40
1
40
1
40
1
40
1
40
1
41
1
10
47.204303878453
20
7.93147997252262
30
0
41
1
10
47.0962402524073
20
7.92819245883928
30
0
41
1
10
46.8773532726187
20
7.9192614354796
30
0
41
1
10
46.4922312622156
20
7.89545609063586
30
0
41
1
10
45.9408742211981
20
7.84104132785981
30
0
41
1
10
45.2786938264376
20
7.74099096459781
30
0
41
1
10
44.6137537039797
20
7.60598715550984
30
0
41
1
10
43.9324485398249
20
7.43297724431858
30
0
41
1
10
43.4173784062845
20
7.27834533927285
30
0
41
1
10
43.0685433033585
20
7.16294278652117
30
0
41
1
10
42.8305315541755
20
7.0793252353503
30
0
41
1
10
42.7033431587356
20
7.03326391326783
30
0
0
SPLINE
5
107
100
AcDbEntity
8
1
62
256
6
ByLayer
370
18
48
1
60
0
100
AcDbSpline
70
4
71
5
72
15
73
9
40
0
40
0
40
0
40
0
40
0
40
0
40
0.274307710425166
40
0.476625699645649
40
0.780102683476375
40
1
40
1
40
1
40
1
40
1
40
1
41
1
10
16.9388486251104
20
-7.87692176064945
30
0
41
1
10
16.7885915938697
20
-7.89139763129802
30
0
41
1
10
16.5275112088859
20
-7.91280809680879
30
0
41
1
10
16.1001957932877
20
-7.93717598449632
30
0
41
1
10
15.5524276280841
20
-7.94593217107942
30
0
41
1
10
15.0046594628806
20
-7.92582557813947
30
0
41
1
10
14.6071483289178
20
-7.89607974893246
30
0
41
1
10
14.320460548698
20
-7.86678747695393
30
0
41
1
10
14.2000077990927
20
-7.85310037353264
30
0
0
SPLINE
5
108
100
AcDbEntity
8
1
62
256
6
ByLayer
370
18
48
1
60
0
100
AcDbSpline
70
4
71
3
72
19
73
15
40
0
40
0
40
0
40
0
40
0.249999999999998
40
0.249999999999998
40
0.374999999999992
40
0.374999999999992
40
0.499999999999985
40
0.624999999999979
40
0.624999999999979
40
0.687499999999981
40
0.687499999999981
40
0.749999999999982
40
0.749999999999982
40
1
40
1
40
1
40
1
41
1
10
14.1999999996484
20
-7.85309982356657
30
0
41
1
10
14.1044350968887
20
-7.82522850013495
30
0
41
1
10
14.010863617308
20
-7.78954687674064
30
0
41
1
10
13.8726878019264
20
-7.72488702493317
30
0
41
1
10
13.8269181955334
20
-7.70142243835693
30
0
41
1
10
13.7365142435163
20
-7.65104360764624
30
0
41
1
10
13.6471937763339
20
-7.59720676369142
30
0
41
1
10
13.5597973962641
20
-7.5364789707192
30
0
41
1
10
13.4948937939771
20
-7.48829828564408
30
0
41
1
10
13.4733494527153
20
-7.47178398611439
30
0
41
1
10
13.4306164864908
20
-7.43798301862665
30
0
41
1
10
13.4094138405984
20
-7.42068678386303
30
0
41
1
10
13.3041872948293
20
-7.33221568445592
30
0
41
1
10
13.2225114399931
20
-7.25512287334416
30
0
41
1
10
13.1430251003695
20
-7.17118938367059
30
0
0
SPLINE
5
109
100
AcDbEntity
8
1
62
256
6
ByLayer
370
18
48
1
60
0
100
AcDbSpline
70
4
71
3
72
10
73
6
40
0
40
0
40
0
40
0
40
0.5
40
0.5
40
1
40
1
40
1
40
1
41
1
10
8.94924598423094
20
-7.48684992825858
30
0
41
1
10
8.98319731623423
20
-7.38147594537327
30
0
41
1
10
9.02348389354785
20
-7.27905425044355
30
0
41
1
10
9.11549269775557
20
-7.079539988166
30
0
41
1
10
9.1672202055874
20
-6.9824498817882
30
0
41
1
10
9.22427885500275
20
-6.88784414094258
30
0
0
SPLINE
5
10A
100
AcDbEntity
8
1
62
256
6
ByLayer
370
18
48
1
60
0
100
AcDbSpline
70
4
71
3
72
14
73
10
40
0
40
0
40
0
40
0
40
0.233256506885813
40
0.233256506885813
40
0.466513013771626
40
0.466513013771626
40
0.933026027543253
40
0.933026027543253
40
1
40
1
40
1
40
1
41
1
10
9.22427885500272
20
-6.88784414094258
30
0
41
1
10
9.36212768808832
20
-6.87353729283538
30
0
41
1
10
9.50088598165291
20
-6.85587060448867
30
0
41
1
10
9.78018577711441
20
-6.81411023649065
30
0
41
1
10
9.92072845184077
20
-6.79001338087835
30
0
41
1
10
10.3451955277875
20
-6.70855495827169
30
0
41
1
10
10.6318930808275
20
-6.64204068564828
30
0
41
1
10
10.9653496954921
20
-6.55374767800862
30
0
41
1
10
11.0073261844928
20
-6.54243971829959
30
0
41
1
10
11.0493978786866
20
-6.53091982163147
30
0
0
SPLINE
5
10B
100
AcDbEntity
8
1
62
256
6
ByLayer
370
18
48
1
60
0
100
AcDbSpline
70
4
71
3
72
20
73
16
40
0
40
0
40
0
40
0
40
0.250000000000013
40
0.250000000000013
40
0.500000000000027
40
0.500000000000027
40
0.562500000000023
40
0.562500000000023
40
0.62500000000002
40
0.62500000000002
40
0.750000000000013
40
0.750000000000013
40
0.875000000000007
40
0.875000000000007
40
1
40
1
40
1
40
1
41
1
10
9.21786217206446
20
-5.78330541440985
30
0
41
1
10
9.11707690259033
20
-5.73888022178519
30
0
41
1
10
9.01256221707774
20
-5.69896338810148
30
0
41
1
10
8.79616360156484
20
-5.62883685901829
30
0
41
1
10
8.68429079134077
20
-5.59860692877626
30
0
41
1
10
8.53928610456202
20
-5.5681023109845
30
0
41
1
10
8.50998476521713
20
-5.56236436365052
30
0
41
1
10
8.45130428203308
20
-5.55175678043895
30
0
41
1
10
8.42187541213812
20
-5.54687551759849
30
0
41
1
10
8.33331587531455
20
-5.53355002034846
30
0
41
1
10
8.27391380700521
20
-5.52641711892753
30
0
41
1
10
8.15431662332924
20
-5.51606113381561
30
0
41
1
10
8.09412271318919
20
-5.51283224773496
30
0
41
1
10
7.97281251873082
20
-5.51097397763263
30
0
41
1
10
7.91169940085823
20
-5.51232956971921
30
0
41
1
10
7.85000000127454
20
-5.51661327046313
30
0
0
SPLINE
5
10C
100
AcDbEntity
8
1
62
256
6
ByLayer
370
18
48
1
60
0
100
AcDbSpline
70
4
71
3
72
16
73
12
40
0
40
0
40
0
40
0
40
0.249999999999998
40
0.249999999999998
40
0.312499999999998
40
0.312499999999998
40
0.374999999999997
40
0.374999999999997
40
0.499999999999996
40
0.499999999999996
40
1
40
1
40
1
40
1
41
1
10
13.1430251003695
20
-7.17118938367059
30
0
41
1
10
12.817209353505
20
-7.09464739799859
30
0
41
1
10
12.4913608023115
20
-7.00752561623744
30
0
41
1
10
12.0833760986537
20
-6.88604109618896
30
0
41
1
10
12.0017457923525
20
-6.8611130492244
30
0
41
1
10
11.8384033503418
20
-6.81000663046973
30
0
41
1
10
11.7566707451537
20
-6.78382190287596
30
0
41
1
10
11.5115003125523
20
-6.70347255839999
30
0
41
1
10
11.3481066191189
20
-6.64752054401251
30
0
41
1
10
10.5311057239879
20
-6.35619084957722
30
0
41
1
10
9.8773749348332
20
-6.08615704503237
30
0
41
1
10
9.21997384556539
20
-5.78307200071347
30
0
0
SPLINE
5
10D
100
AcDbEntity
8
1
62
256
6
ByLayer
370
18
48
1
60
0
100
AcDbSpline
70
4
71
3
72
10
73
6
40
0
40
0
40
0
40
0
40
0.32207865763294
40
0.67210993998204
40
1
40
1
40
1
40
1
41
1
10
13.1430251002859
20
-5.83989125082579
30
0
41
1
10
13.1430251002857
20
-6.01946001503086
30
0
41
1
10
13.1430251002818
20
-6.37157278015422
30
0
41
1
10
13.1430251001356
20
-6.81893139636796
30
0
41
1
10
13.1430251006126
20
-7.06588178466671
30
0
41
1
10
13.1430251003695
20
-7.17118938367057
30
0
0
SPLINE
5
10E
100
AcDbEntity
8
1
62
256
6
ByLayer
370
18
48
1
60
0
100
AcDbSpline
70
4
71
3
72
8
73
4
40
0
40
0
40
0
40
0
40
1
40
1
40
1
40
1
41
1
10
12.7440959588753
20
-5.6638318915474
30
0
41
1
10
12.8771319078949
20
-5.72383323812966
30
0
41
1
10
13.0100981321021
20
-5.78253264607034
30
0
41
1
10
13.1430251002859
20
-5.83989125082579
30
0
0
SPLINE
5
10F
100
AcDbEntity
8
1
62
256
6
ByLayer
370
18
48
1
60
0
100
AcDbSpline
70
4
71
3
72
14
73
10
40
0
40
0
40
0
40
0
40
0.124999999999997
40
0.124999999999997
40
0.249999999999995
40
0.249999999999995
40
0.499999999999992
40
0.499999999999992
40
1
40
1
40
1
40
1
41
1
10
9.36295316313812
20
5.23000162778195
30
0
41
1
10
9.37035161855673
20
5.20985449634205
30
0
41
1
10
9.37822156773291
20
5.18975552029963
30
0
41
1
10
9.39490427232121
20
5.14965386049505
30
0
41
1
10
9.40370124434688
20
5.12969260673228
30
0
41
1
10
9.43130733517475
20
5.07034137019721
30
0
41
1
10
9.45137561402862
20
5.03137339926823
30
0
41
1
10
9.51631755966872
20
4.91617598861436
30
0
41
1
10
9.56591451297561
20
4.84164807156677
30
0
41
1
10
9.62133070481428
20
4.76921648432759
30
0
0
SPLINE
5
110
100
AcDbEntity
8
1
62
256
6
ByLayer
370
18
48
1
60
0
100
AcDbSpline
70
4
71
3
72
14
73
10
40
0
40
0
40
0
40
0
40
0.25
40
0.25
40
0.5
40
0.5
40
0.75
40
0.75
40
1
40
1
40
1
40
1
41
1
10
6.39767892216088
20
7.52942901411112
30
0
41
1
10
6.48307233778411
20
7.52649658938503
30
0
41
1
10
6.57013432166201
20
7.52353150598393
30
0
41
1
10
6.74690991956726
20
7.51785964494709
30
0
41
1
10
6.83662886521944
20
7.51514989419468
30
0
41
1
10
7.01830258407048
20
7.51016662648192
30
0
41
1
10
7.11025987821955
20
7.50789176850037
30
0
41
1
10
7.29613502488763
20
7.50388152650598
30
0
41
1
10
7.39005420465372
20
7.50214548045255
30
0
41
1
10
7.4848599442455
20
7.50070699867894
30
0
0
SPLINE
5
111
100
AcDbEntity
8
1
62
256
6
ByLayer
370
18
48
1
60
0
100
AcDbSpline
70
4
71
3
72
17
73
13
40
0
40
0
40
0
40
0
40
0.250000000000026
40
0.250000000000026
40
0.375000000000022
40
0.375000000000022
40
0.500000000000017
40
0.625000000000013
40
0.625000000000013
40
0.750000000000008
40
0.750000000000008
40
1
40
1
40
1
40
1
41
1
10
5.89767892216079
20
7.66965412355231
30
0
41
1
10
5.93673401256746
20
7.6475724236108
30
0
41
1
10
5.97729919577108
20
7.62783579022687
30
0
41
1
10
6.04045240194947
20
7.60191843260446
30
0
41
1
10
6.0620049764795
20
7.59386315538032
30
0
41
1
10
6.10481219318473
20
7.57936998355495
30
0
41
1
10
6.14753136476648
20
7.56639067834323
30
0
41
1
10
6.19016093785763
20
7.55621333204238
30
0
41
1
10
6.23278385809161
20
7.54735858920549
30
0
41
1
10
6.25385470012731
20
7.54364151153092
30
0
41
1
10
6.31641944194917
20
7.53441781704413
30
0
41
1
10
6.35731474595926
20
7.53081512693106
30
0
41
1
10
6.39767892216148
20
7.52942901410867
30
0
0
SPLINE
5
112
100
AcDbEntity
8
1
62
256
6
ByLayer
370
18
48
1
60
0
100
AcDbSpline
70
4
71
3
72
14
73
10
40
0
40
0
40
0
40
0
40
0.25
40
0.25
40
0.5
40
0.5
40
0.75
40
0.75
40
1
40
1
40
1
40
1
41
1
10
6.39767892216082
20
-5.80666410183514
30
0
41
1
10
6.48307233778405
20
-5.77750440999046
30
0
41
1
10
6.57013432166198
20
-5.75170509713857
30
0
41
1
10
6.74690991956723
20
-5.70568168761523
30
0
41
1
10
6.83662886521938
20
-5.68546615501458
30
0
41
1
10
7.01830258407045
20
-5.6499015456979
30
0
41
1
10
7.1102598782193
20
-5.6345565673891
30
0
41
1
10
7.29613502488735
20
-5.60825282934087
30
0
41
1
10
7.39005420465367
20
-5.59729626068659
30
0
41
1
10
7.48485994424544
20
-5.58836375003182
30
0
0
SPLINE
5
113
100
AcDbEntity
8
1
62
256
6
ByLayer
370
18
48
1
60
0
100
AcDbSpline
70
4
71
3
72
12
73
8
40
0
40
0
40
0
40
0
40
0.249999999999986
40
0.249999999999986
40
0.499999999999972
40
0.499999999999972
40
1
40
1
40
1
40
1
41
1
10
7.4848599442455
20
-5.58836375003185
30
0
41
1
10
7.51538670255511
20
-5.58548754659702
30
0
41
1
10
7.54597087403741
20
-5.58349590812236
30
0
41
1
10
7.60696346306233
20
-5.58103699282614
30
0
41
1
10
7.63742082643284
20
-5.5805664711157
30
0
41
1
10
7.72869063694966
20
-5.58115070865497
30
0
41
1
10
7.78940163317037
20
-5.58418617795121
30
0
41
1
10
7.85000000221677
20
-5.58940733228565
30
0
0
SPLINE
5
114
100
AcDbEntity
8
1
62
256
6
ByLayer
370
18
48
1
60
0
100
AcDbSpline
70
4
71
3
72
10
73
6
40
0
40
0
40
0
40
0
40
0.5
40
0.5
40
1
40
1
40
1
40
1
41
1
10
47.3699257694833
20
3.93926428263416
30
0
41
1
10
47.3446295185667
20
3.74872055192051
30
0
41
1
10
47.3312786399687
20
3.55135010295126
30
0
41
1
10
47.3285313139145
20
3.14291937199485
30
0
41
1
10
47.339132451602
20
2.9318604700855
30
0
41
1
10
47.3620437585207
20
2.71376637037912
30
0
0
SPLINE
5
115
100
AcDbEntity
8
1
62
256
6
ByLayer
370
18
48
1
60
0
100
AcDbSpline
70
4
71
3
72
14
73
10
40
0
40
0
40
0
40
0
40
0.124999999999999
40
0.124999999999999
40
0.249999999999999
40
0.249999999999999
40
0.499999999999997
40
0.499999999999997
40
1
40
1
40
1
40
1
41
1
10
47.3699257694833
20
3.93926428263416
30
0
41
1
10
47.3453498524595
20
4.00582804093813
30
0
41
1
10
47.3208091947643
20
4.07166815214333
30
0
41
1
10
47.271798900093
20
4.20189077625449
30
0
41
1
10
47.2473548988303
20
4.26620422476825
30
0
41
1
10
47.1743694453996
20
4.45632729402425
30
0
41
1
10
47.1261086527489
20
4.57949697540593
30
0
41
1
10
46.9825121817643
20
4.93829261164055
30
0
41
1
10
46.8883574417291
20
5.1632500452196
30
0
41
1
10
46.7958295241004
20
5.37351086893136
30
0
0
SPLINE
5
116
100
AcDbEntity
8
1
62
256
6
ByLayer
370
18
48
1
60
0
100
AcDbSpline
70
4
71
3
72
24
73
20
40
0
40
0
40
0
40
0
40
0.150988972553859
40
0.150988972553859
40
0.301977945107719
40
0.301977945107719
40
0.452966917661578
40
0.452966917661578
40
0.603955890215437
40
0.603955890215437
40
0.679450376492369
40
0.679450376492369
40
0.717197619630835
40
0.717197619630835
40
0.754944862769301
40
0.754944862769301
40
0.905933835323164
40
0.905933835323164
40
1
40
1
40
1
40
1
41
1
10
46.7958295240826
20
5.37351086894103
30
0
41
1
10
46.4557888725338
20
5.55148934043717
30
0
41
1
10
46.116967421035
20
5.71981219915386
30
0
41
1
10
45.4405420400471
20
6.03648523646379
30
0
41
1
10
45.1029457347078
20
6.18482403269715
30
0
41
1
10
44.4278232134654
20
6.46034440581488
30
0
41
1
10
44.090286974417
20
6.58759973182958
30
0
41
1
10
43.4140728801635
20
6.82035569838351
30
0
41
1
10
43.0753992950395
20
6.92574069212205
30
0
41
1
10
42.5656149230315
20
7.06659130298851
30
0
41
1
10
42.3953915266524
20
7.11068947342852
30
0
41
1
10
42.1394997249201
20
7.17248475940184
30
0
41
1
10
42.0541095652001
20
7.19235575941772
30
0
41
1
10
41.8831233057647
20
7.23061890849922
30
0
41
1
10
41.7974787952331
20
7.24901994781771
30
0
41
1
10
41.3700664293476
20
7.33699242550534
30
0
41
1
10
41.0297894509972
20
7.39466328857611
30
0
41
1
10
40.4791648477816
20
7.46790204274009
30
0
41
1
10
40.2682009382752
20
7.49113481487623
30
0
41
1
10
40.057490931849
20
7.50944268373232
30
0
0
SPLINE
5
117
100
AcDbEntity
8
1
62
256
6
ByLayer
370
18
48
1
60
0
100
AcDbSpline
70
4
71
3
72
8
73
4
40
0
40
0
40
0
40
0
40
1
40
1
40
1
40
1
41
1
10
47.2043968897875
20
2.74494812488916
30
0
41
1
10
47.2569468586377
20
2.73455881317463
30
0
41
1
10
47.3094958109996
20
2.72416487733858
30
0
41
1
10
47.3620437585208
20
2.71376637037909
30
0
0
SPLINE
5
118
100
AcDbEntity
8
1
62
256
6
ByLayer
370
18
48
1
60
0
100
AcDbSpline
70
4
71
3
72
41
73
37
40
0
40
0
40
0
40
0
40
0.124999999999982
40
0.124999999999982
40
0.187499999999973
40
0.187499999999973
40
0.249999999999964
40
0.249999999999964
40
0.281249999999959
40
0.281249999999959
40
0.312499999999955
40
0.312499999999955
40
0.374999999999947
40
0.374999999999947
40
0.406249999999944
40
0.406249999999944
40
0.437499999999941
40
0.437499999999941
40
0.499999999999931
40
0.499999999999931
40
0.562499999999921
40
0.562499999999921
40
0.578124999999923
40
0.578124999999923
40
0.593749999999926
40
0.624999999999932
40
0.624999999999932
40
0.687499999999944
40
0.687499999999944
40
0.749999999999955
40
0.749999999999955
40
0.812499999999966
40
0.812499999999966
40
0.874999999999977
40
0.874999999999977
40
1
40
1
40
1
40
1
41
1
10
47.2042516317157
20
2.74494690531273
30
0
41
1
10
47.2540542403638
20
2.69571973955917
30
0
41
1
10
47.2979259945289
20
2.64706060833618
30
0
41
1
10
47.3504872262859
20
2.57534060091862
30
0
41
1
10
47.3657804424686
20
2.55164724393049
30
0
41
1
10
47.3908378663721
20
2.50479007721165
30
0
41
1
10
47.4006076639568
20
2.48162573210519
30
0
41
1
10
47.4100268421642
20
2.44738065232676
30
0
41
1
10
47.4122921864961
20
2.43603341813522
30
0
41
1
10
47.414827284882
20
2.41359808323853
30
0
41
1
10
47.4150890644242
20
2.40259344019651
30
0
41
1
10
47.412650529332
20
2.37026233519845
30
0
41
1
10
47.4067319822263
20
2.34961750254044
30
0
41
1
10
47.390491039682
20
2.32020978029757
30
0
41
1
10
47.3838491514038
20
2.31066735053457
30
0
41
1
10
47.3679423162936
20
2.29213806105369
30
0
41
1
10
47.3586265307758
20
2.28311808394011
30
0
41
1
10
47.3270669920293
20
2.25737424603204
30
0
41
1
10
47.301161420067
20
2.24185212342067
30
0
41
1
10
47.2400810475112
20
2.2139328171516
30
0
41
1
10
47.2049074263761
20
2.20153523586259
30
0
41
1
10
47.1554837280438
20
2.18787786935252
30
0
41
1
10
47.1453184324278
20
2.18523710431705
30
0
41
1
10
47.1246221822588
20
2.18017547904461
30
0
41
1
10
47.0929709004579
20
2.17289604865206
30
0
41
1
10
47.0595932766697
20
2.16650696623699
30
0
41
1
10
46.9907570403932
20
2.15480205577694
30
0
41
1
10
46.9421019272618
20
2.14842444350222
30
0
41
1
10
46.8402035525318
20
2.13803552223413
30
0
41
1
10
46.7869374440202
20
2.13403147927409
30
0
41
1
10
46.6764704571657
20
2.12807086537245
30
0
41
1
10
46.6199794334481
20
2.12614881493624
30
0
41
1
10
46.5049753761645
20
2.12400630734686
30
0
41
1
10
46.4464606481428
20
2.12378727613853
30
0
41
1
10
46.2684244782064
20
2.12522727735299
30
0
41
1
10
46.146440503738
20
2.12895861860045
30
0
41
1
10
46.0221301831212
20
2.13464766296332
30
0
0
SPLINE
5
119
100
AcDbEntity
8
1
62
256
6
ByLayer
370
18
48
1
60
0
100
AcDbSpline
70
4
71
3
72
34
73
30
40
0
40
0
40
0
40
0
40
0.125000000000022
40
0.125000000000022
40
0.187500000000039
40
0.187500000000039
40
0.218750000000048
40
0.218750000000048
40
0.250000000000057
40
0.250000000000057
40
0.375000000000061
40
0.375000000000061
40
0.437500000000054
40
0.437500000000054
40
0.500000000000048
40
0.500000000000048
40
0.625000000000035
40
0.625000000000035
40
0.687500000000029
40
0.687500000000029
40
0.718750000000026
40
0.718750000000026
40
0.750000000000023
40
0.750000000000023
40
0.875000000000011
40
0.875000000000011
40
0.937500000000006
40
0.937500000000006
40
1
40
1
40
1
40
1
41
1
10
44.7783503867078
20
1.23488317839656
30
0
41
1
10
44.8089479330545
20
1.29626200675185
30
0
41
1
10
44.8434498079304
20
1.35600063339263
30
0
41
1
10
44.9005291128177
20
1.44359812144805
30
0
41
1
10
44.9204517899045
20
1.47245634145139
30
0
41
1
10
44.9516906111307
20
1.51523484972054
30
0
41
1
10
44.9623298890144
20
1.52940917017867
30
0
41
1
10
44.9840695880896
20
1.55758313561748
30
0
41
1
10
44.9951849016882
20
1.57159906829466
30
0
41
1
10
45.0513510054599
20
1.64051099712634
30
0
41
1
10
45.0985707772839
20
1.69249498625916
30
0
41
1
10
45.1730515217489
20
1.76574361890144
30
0
41
1
10
45.198490074724
20
1.7893674921267
30
0
41
1
10
45.2506719499397
20
1.83497238546934
30
0
41
1
10
45.2774716291584
20
1.85698470127465
30
0
41
1
10
45.358564167658
20
1.91936767750312
30
0
41
1
10
45.4139670178625
20
1.95651713461186
30
0
41
1
10
45.4996341583658
20
2.00543960732097
30
0
41
1
10
45.5286192331189
20
2.02060679302821
30
0
41
1
10
45.5728603940992
20
2.04154986312202
30
0
41
1
10
45.5877597879235
20
2.04823813211311
30
0
41
1
10
45.6175848903995
20
2.06088362695181
30
0
41
1
10
45.6325359174141
20
2.06685401915453
30
0
41
1
10
45.7075290847668
20
2.09493452688889
30
0
41
1
10
45.7682659917827
20
2.11178612832654
30
0
41
1
10
45.8615637194733
20
2.12780834463609
30
0
41
1
10
45.8930319828817
20
2.13159589073385
30
0
41
1
10
45.9569485737828
20
2.13577062030211
30
0
41
1
10
45.9894772612519
20
2.1361420193463
30
0
41
1
10
46.0221301831309
20
2.13464766296283
30
0
0
SPLINE
5
11A
100
AcDbEntity
8
1
62
256
6
ByLayer
370
18
48
1
60
0
100
AcDbSpline
70
4
71
3
72
24
73
20
40
0
40
0
40
0
40
0
40
0.124999999999999
40
0.124999999999999
40
0.249999999999998
40
0.249999999999998
40
0.499999999999997
40
0.499999999999997
40
0.562499999999997
40
0.562499999999997
40
0.624999999999998
40
0.624999999999998
40
0.749999999999998
40
0.749999999999998
40
0.874999999999998
40
0.874999999999998
40
0.937499999999999
40
0.937499999999999
40
1
40
1
40
1
40
1
41
1
10
46.5940323940167
20
-1.42098355687
30
0
41
1
10
46.6046311275038
20
-1.51281231417062
30
0
41
1
10
46.6145547759585
20
-1.60361864248191
30
0
41
1
10
46.632876301907
20
-1.78292049026243
30
0
41
1
10
46.6412767610987
20
-1.87141991976191
30
0
41
1
10
46.6638024687803
20
-2.13286585583973
30
0
41
1
10
46.6751639408885
20
-2.30162657106163
30
0
41
1
10
46.683593868975
20
-2.50383579564038
30
0
41
1
10
46.684992070884
20
-2.54393665356253
30
0
41
1
10
46.6871475994689
20
-2.62251058421882
30
0
41
1
10
46.6879079019291
20
-2.6610205576786
30
0
41
1
10
46.6892013618555
20
-2.77413368786449
30
0
41
1
10
46.6887522057134
20
-2.8463326195515
30
0
41
1
10
46.6849418330766
20
-2.98360317820664
30
0
41
1
10
46.6815735858453
20
-3.04865759735651
30
0
41
1
10
46.67401911187
20
-3.14011529687991
30
0
41
1
10
46.6710844552687
20
-3.16958181108228
30
0
41
1
10
46.6643334307282
20
-3.22635683978095
30
0
41
1
10
46.660532334839
20
-3.25352607188802
30
0
41
1
10
46.6563098293107
20
-3.2793845936823
30
0
0
SPLINE
5
11B
100
AcDbEntity
8
1
62
256
6
ByLayer
370
18
48
1
60
0
100
AcDbSpline
70
4
71
3
72
14
73
10
40
0
40
0
40
0
40
0
40
0.499999999999992
40
0.499999999999992
40
0.624999999999994
40
0.624999999999994
40
0.749999999999996
40
0.749999999999996
40
1
40
1
40
1
40
1
41
1
10
45.0760791292465
20
-0.129207744653343
30
0
41
1
10
45.3271113748519
20
-0.341298017826972
30
0
41
1
10
45.5793305350221
20
-0.555173510610445
30
0
41
1
10
45.8960746502288
20
-0.824729128730695
30
0
41
1
10
45.9594969477202
20
-0.878750764124334
30
0
41
1
10
46.08648801708
20
-0.987014344728209
30
0
41
1
10
46.1500703530466
20
-1.04126793809328
30
0
41
1
10
46.3405683542198
20
-1.20395798032203
30
0
41
1
10
46.4673874457454
20
-1.3124535401999
30
0
41
1
10
46.5940323940167
20
-1.42098355686997
30
0
0
SPLINE
5
11C
100
AcDbEntity
8
1
62
256
6
ByLayer
370
18
48
1
60
0
100
AcDbSpline
70
4
71
3
72
34
73
30
40
0
40
0
40
0
40
0
40
0.124999999999979
40
0.124999999999979
40
0.187499999999969
40
0.187499999999969
40
0.218749999999971
40
0.218749999999971
40
0.249999999999974
40
0.249999999999974
40
0.374999999999982
40
0.374999999999982
40
0.437499999999987
40
0.437499999999987
40
0.468749999999986
40
0.468749999999986
40
0.499999999999985
40
0.499999999999985
40
0.624999999999986
40
0.624999999999986
40
0.687499999999987
40
0.687499999999987
40
0.718749999999988
40
0.718749999999988
40
0.749999999999989
40
0.749999999999989
40
0.874999999999995
40
0.874999999999995
40
1
40
1
40
1
40
1
41
1
10
45.0760791292457
20
-0.129207744653655
30
0
41
1
10
45.0247068399842
20
-0.0858047035952154
30
0
41
1
10
44.9771874957517
20
-0.039807204671007
30
0
41
1
10
44.9119602934188
20
0.0333305353163382
30
0
41
1
10
44.891230014051
20
0.0584031653283432
30
0
41
1
10
44.8617214835615
20
0.0971148884889033
30
0
41
1
10
44.8521500472506
20
0.110202829368376
30
0
41
1
10
44.8335515041538
20
0.136760338267265
30
0
41
1
10
44.8245056049799
20
0.150259645583446
30
0
41
1
10
44.7809091594721
20
0.218388730170517
30
0
41
1
10
44.751552614201
20
0.274356328984936
30
0
41
1
10
44.7155781720065
20
0.360725163696344
30
0
41
1
10
44.7049349998442
20
0.389919680069824
30
0
41
1
10
44.6910105789353
20
0.434365883326763
30
0
41
1
10
44.6867094850095
20
0.449290499327702
30
0
41
1
10
44.6787951618999
20
0.479367873772503
30
0
41
1
10
44.6751749636302
20
0.494556866525841
30
0
41
1
10
44.6589401249173
20
0.570496357871946
30
0
41
1
10
44.6518122597988
20
0.631385457155687
30
0
41
1
10
44.6493321123819
20
0.72328091675621
30
0
41
1
10
44.6498830796522
20
0.754004197485926
30
0
41
1
10
44.6527790582941
20
0.800257529998675
30
0
41
1
10
44.6540897132833
20
0.81570340857121
30
0
41
1
10
44.6574071668052
20
0.846657130850332
30
0
41
1
10
44.6594133694807
20
0.862143335480283
30
0
41
1
10
44.6710752946508
20
0.939053514662419
30
0
41
1
10
44.6856434767065
20
0.999449142130771
30
0
41
1
10
44.7246019323698
20
1.11843411749871
30
0
41
1
10
44.7489944928155
20
1.17701959977254
30
0
41
1
10
44.7783503867078
20
1.23488317839653
30
0
0
SPLINE
5
11D
100
AcDbEntity
8
1
62
256
6
ByLayer
370
18
48
1
60
0
100
AcDbSpline
70
4
71
5
72
25
73
19
40
0
40
0
40
0
40
0
40
0
40
0
40
0.0138355425225446
40
0.0758675455891508
40
0.16891555018906
40
0.261963554788969
40
0.323995557855576
40
0.417043562455485
40
0.479075565522092
40
0.572123570122001
40
0.634155573188607
40
0.727203577788517
40
0.820251582388426
40
0.882283585455033
40
0.975331590054942
40
1
40
1
40
1
40
1
40
1
40
1
41
1
10
35.8455940460831
20
4.33468050466613
30
0
41
1
10
35.870311952122
20
4.32984944305349
30
0
41
1
10
36.0058532119038
20
4.30318232078705
30
0
41
1
10
36.3076295023001
20
4.24166598895494
30
0
41
1
10
36.7756408233108
20
4.13893922122543
30
0
41
1
10
37.3544754980646
20
3.99818946206796
30
0
41
1
10
38.0748272973939
20
3.80370388204685
30
0
41
1
10
38.7951790967233
20
3.58903204541289
30
0
41
1
10
39.5155308960526
20
3.35707267612136
30
0
41
1
10
40.1804710185105
20
3.12792743814288
30
0
41
1
10
40.9008228178398
20
2.86463538985481
30
0
41
1
10
41.6211746171691
20
2.5874341141652
30
0
41
1
10
42.3415264164985
20
2.29644345053688
30
0
41
1
10
43.0618782158278
20
1.99435339202282
30
0
41
1
10
43.7154780404841
20
1.71067832082156
30
0
41
1
10
44.202842834526
20
1.49436347097722
30
0
41
1
10
44.5239725979534
20
1.35004969392082
30
0
41
1
10
44.7342790076378
20
1.254859985172
30
0
41
1
10
44.7783503867078
20
1.23488317839656
30
0
0
SPLINE
5
11E
100
AcDbEntity
8
1
62
256
6
ByLayer
370
18
48
1
60
0
100
AcDbSpline
70
4
71
3
72
13
73
9
40
0
40
0
40
0
40
0
40
0.18393123261495
40
0.378240375682483
40
0.572549518750018
40
0.766858661817552
40
0.961167804885086
40
1
40
1
40
1
40
1
41
1
10
13.2432870851631
20
3.56887179786517
30
0
41
1
10
13.1993892435245
20
3.45515604794204
30
0
41
1
10
13.0414198391165
20
3.25491268364183
30
0
41
1
10
12.845929331542
20
3.02497570593653
30
0
41
1
10
12.6883336429552
20
2.86439085446372
30
0
41
1
10
12.5999550508152
20
2.76447303420718
30
0
41
1
10
12.603415590844
20
2.72440480579866
30
0
41
1
10
12.6294250305464
20
2.70647879148268
30
0
41
1
10
12.6344317461276
20
2.70356455233002
30
0
0
SPLINE
5
11F
100
AcDbEntity
8
1
62
256
6
ByLayer
370
18
48
1
60
0
100
AcDbSpline
70
4
71
3
72
8
73
4
40
0
40
0
40
0
40
0
40
1
40
1
40
1
40
1
41
1
10
12.7172442097781
20
2.67247012960937
30
0
41
1
10
12.8592373098909
20
2.58227590778216
30
0
41
1
10
13.0011528975821
20
2.49121394707896
30
0
41
1
10
13.1430251002859
20
2.39932329116152
30
0
0
SPLINE
5
120
100
AcDbEntity
8
1
62
256
6
ByLayer
370
18
48
1
60
0
100
AcDbSpline
70
4
71
3
72
16
73
12
40
0
40
0
40
0
40
0
40
0.250000000000001
40
0.250000000000001
40
0.500000000000002
40
0.500000000000002
40
0.625000000000002
40
0.625000000000002
40
0.750000000000003
40
0.750000000000003
40
1
40
1
40
1
40
1
41
1
10
9.62133070481428
20
4.76921648432759
30
0
41
1
10
9.86640726119032
20
4.60593703942951
30
0
41
1
10
10.1139966860557
20
4.43807937567433
30
0
41
1
10
10.6150951036945
20
4.09484083160683
30
0
41
1
10
10.8686069885243
20
3.91946975371116
30
0
41
1
10
11.2547641181338
20
3.65294177814542
30
0
41
1
10
11.3845411827014
20
3.56348150351906
30
0
41
1
10
11.6455888052585
20
3.3844336943541
30
0
41
1
10
11.7769474332731
20
3.29478470275637
30
0
41
1
10
12.174049982341
20
3.02626453542214
30
0
41
1
10
12.442799792333
20
2.84778812880595
30
0
41
1
10
12.7171994276221
20
2.67239544347618
30
0
0
SPLINE
5
121
100
AcDbEntity
8
1
62
256
6
ByLayer
370
18
48
1
60
0
100
AcDbSpline
70
4
71
2
72
6
73
3
40
0
40
0
40
0
40
1
40
1
40
1
41
1
10
9.62133070481428
20
4.76921648432759
30
0
41
1
10
8.73566535304457
20
4.80355421413799
30
0
41
1
10
7.85000000127482
20
4.83789194394842
30
0
0
SPLINE
5
122
100
AcDbEntity
8
1
62
256
6
ByLayer
370
18
48
1
60
0
100
AcDbSpline
70
4
71
3
72
20
73
16
40
0
40
0
40
0
40
0
40
0.25
40
0.25
40
0.500000000000001
40
0.500000000000001
40
0.562500000000001
40
0.562500000000001
40
0.625000000000001
40
0.625000000000001
40
0.75
40
0.75
40
0.875
40
0.875
40
1
40
1
40
1
40
1
41
1
10
9.21786217206449
20
2.05188912131712
30
0
41
1
10
9.11707690259038
20
2.11790354260611
30
0
41
1
10
9.01256221707774
20
2.17695768025743
30
0
41
1
10
8.79616360156484
20
2.28163533573158
30
0
41
1
10
8.68429079134077
20
2.32727686187133
30
0
41
1
10
8.53928610456197
20
2.37511219451298
30
0
41
1
10
8.5099847652171
20
2.38422213194937
30
0
41
1
10
8.45130428203308
20
2.40133090132341
30
0
41
1
10
8.42187541213815
20
2.40934765193921
30
0
41
1
10
8.33331587531455
20
2.43174447390473
30
0
41
1
10
8.27391380700521
20
2.44448041125671
30
0
41
1
10
8.15431662332924
20
2.46515803658178
30
0
41
1
10
8.09412271318922
20
2.47310702842432
30
0
41
1
10
7.97281251873088
20
2.48343559805252
30
0
41
1
10
7.91169940085825
20
2.48583439323386
30
0
41
1
10
7.85000000127457
20
2.48469372756486
30
0
0
SPLINE
5
123
100
AcDbEntity
8
1
62
256
6
ByLayer
370
18
48
1
60
0
100
AcDbSpline
70
4
71
3
72
19
73
15
40
0
40
0
40
0
40
0
40
0.0080289556294107
40
0.0080289556294107
40
0.256021716722057
40
0.256021716722057
40
0.504014477814703
40
0.504014477814703
40
0.75200723890735
40
0.75200723890735
40
0.814005429180512
40
0.814005429180512
40
0.876003619453675
40
1
40
1
40
1
40
1
41
1
10
46.9165709833816
20
-6.33916446696708
30
0
41
1
10
46.9168156552997
20
-6.341756253087
30
0
41
1
10
46.9170590740956
20
-6.34435006584653
30
0
41
1
10
46.9247806710525
20
-6.42712172718515
30
0
41
1
10
46.9310900808612
20
-6.50944365604292
30
0
41
1
10
46.9411353603128
20
-6.67880778400345
30
0
41
1
10
46.944874330998
20
-6.76584429531508
30
0
41
1
10
46.9493950946675
20
-6.94534123869022
30
0
41
1
10
46.9501654931968
20
-7.03782256994427
30
0
41
1
10
46.9489694815359
20
-7.15738419156696
30
0
41
1
10
46.9486222965096
20
-7.18147027251743
30
0
41
1
10
46.947710765834
20
-7.22982249199927
30
0
41
1
10
46.9460171980627
20
-7.30269455169636
30
0
41
1
10
46.9433334925985
20
-7.37660973109377
30
0
41
1
10
46.9410972624355
20
-7.42635753438458
30
0
0
SPLINE
5
124
100
AcDbEntity
8
1
62
256
6
ByLayer
370
18
48
1
60
0
100
AcDbSpline
70
4
71
3
72
8
73
4
40
0
40
0
40
0
40
0
40
1
40
1
40
1
40
1
41
1
10
14.0580926183014
20
7.52105942260624
30
0
41
1
10
14.1050176109791
20
7.52751701017388
30
0
41
1
10
14.1523147070322
20
7.53206267727748
30
0
41
1
10
14.2000000012622
20
7.53467395826647
30
0
0
SPLINE
5
125
100
AcDbEntity
8
1
62
256
6
ByLayer
370
18
48
1
60
0
100
AcDbSpline
70
4
71
3
72
8
73
4
40
0
40
0
40
0
40
0
40
1
40
1
40
1
40
1
41
1
10
14.2000000012622
20
7.53467395826644
30
0
41
1
10
14.2027291524555
20
7.53482340854754
30
0
41
1
10
14.2054582419301
20
7.53497199333805
30
0
41
1
10
14.2081872700354
20
7.53511971257751
30
0
0
SPLINE
5
126
100
AcDbEntity
8
1
62
256
6
ByLayer
370
18
48
1
60
0
100
AcDbSpline
70
4
71
3
72
17
73
13
40
0
40
0
40
0
40
0
40
0.249999999999973
40
0.249999999999973
40
0.374999999999978
40
0.374999999999978
40
0.499999999999983
40
0.624999999999987
40
0.624999999999987
40
0.749999999999992
40
0.749999999999992
40
1
40
1
40
1
40
1
41
1
10
5.89767892216074
20
-5.98256364424398
30
0
41
1
10
5.9367340125674
20
-5.97058918394612
30
0
41
1
10
5.97729919577108
20
-5.9571332238622
30
0
41
1
10
6.04045240194944
20
-5.9351782909311
30
0
41
1
10
6.06200497647944
20
-5.92752452353812
30
0
41
1
10
6.1048121931847
20
-5.91212725913863
30
0
41
1
10
6.14753136476645
20
-5.8965709056844
30
0
41
1
10
6.19016093785757
20
-5.88091404928647
30
0
41
1
10
6.23278385809152
20
-5.8653039768441
30
0
41
1
10
6.25385470012725
20
-5.85760966600256
30
0
41
1
10
6.31641944194917
20
-5.83496740962318
30
0
41
1
10
6.3573147459592
20
-5.82044744720159
30
0
41
1
10
6.39767892216145
20
-5.80666410183434
30
0
0
SPLINE
5
127
100
AcDbEntity
8
1
62
256
6
ByLayer
370
18
48
1
60
0
100
AcDbSpline
70
4
71
3
72
19
73
15
40
0
40
0
40
0
40
0
40
0.250000000000013
40
0.250000000000013
40
0.375000000000015
40
0.375000000000015
40
0.500000000000017
40
0.625000000000019
40
0.625000000000019
40
0.687500000000014
40
0.687500000000014
40
0.750000000000009
40
0.750000000000009
40
1
40
1
40
1
40
1
41
1
10
13.1430251002859
20
2.39932329116152
30
0
41
1
10
13.2185370764693
20
2.35411366515888
30
0
41
1
10
13.2979780446412
20
2.30604550122081
30
0
41
1
10
13.4226376478877
20
2.22894257136301
30
0
41
1
10
13.4651886051108
20
2.20235931316668
30
0
41
1
10
13.5516155063995
20
2.14772982315816
30
0
41
1
10
13.6393861140909
20
2.09162821770658
30
0
41
1
10
13.7297634450814
20
2.03247679087514
30
0
41
1
10
13.7985189940799
20
1.98693338789678
30
0
41
1
10
13.8216193314823
20
1.97154250001833
30
0
41
1
10
13.8679919107202
20
1.94046616268804
30
0
41
1
10
13.89127589457
20
1.92477309198202
30
0
41
1
10
14.0081834141446
20
1.84553511837132
30
0
41
1
10
14.1032497971545
20
1.77966940014497
30
0
41
1
10
14.2000000012969
20
1.71137930771658
30
0
0
SPLINE
5
128
100
AcDbEntity
8
1
62
256
6
ByLayer
370
18
48
1
60
0
100
AcDbSpline
70
4
71
3
72
11
73
7
40
0
40
0
40
0
40
0
40
0.213151032366112
40
0.481083373345351
40
0.749015714324591
40
1
40
1
40
1
40
1
41
1
10
13.1430251002859
20
2.39932329116152
30
0
41
1
10
13.1430251002859
20
2.19039107764809
30
0
41
1
10
13.1430251002859
20
1.70790654431704
30
0
41
1
10
13.1430251002859
20
0.925587563906475
30
0
41
1
10
13.1430251001357
20
0.0785089343688696
30
0
41
1
10
13.1430251006126
20
-0.488896956095459
30
0
41
1
10
13.1430251003695
20
-0.762967335010046
30
0
0
SPLINE
5
129
100
AcDbEntity
8
1
62
256
6
ByLayer
370
13
48
1
60
0
100
AcDbSpline
70
4
71
3
72
11
73
7
40
0
40
0
40
0
40
0
40
0.206820595011534
40
0.471213730007689
40
0.735606865003845
40
1
40
1
40
1
40
1
41
1
10
14.2000000012967
20
1.71137930771647
30
0
41
1
10
14.2000000012957
20
1.48408960287776
30
0
41
1
10
14.2000000012853
20
0.957755313724817
30
0
41
1
10
14.2000000011355
20
0.113683219902782
30
0
41
1
10
14.2000000019432
20
-0.811202359524742
30
0
41
1
10
14.2000000000007
20
-1.42924353361036
30
0
41
1
10
14.2
20
-1.73653762541363
30
0
0
SPLINE
5
12A
100
AcDbEntity
8
1
62
256
6
ByLayer
370
18
48
1
60
0
100
AcDbSpline
70
4
71
3
72
8
73
4
40
0
40
0
40
0
40
0
40
1
40
1
40
1
40
1
41
1
10
14.2000000012968
20
1.7113793077167
30
0
41
1
10
14.2035556518749
20
1.70886958994632
30
0
41
1
10
14.2071111962736
20
1.70635917706272
30
0
41
1
10
14.2106666352597
20
1.70384806991922
30
0
0
SPLINE
5
12B
100
AcDbEntity
8
1
62
256
6
ByLayer
370
18
48
1
60
0
100
AcDbSpline
70
4
71
3
72
82
73
78
40
0
40
0
40
0
40
0
40
0.010037747610315
40
0.010037747610315
40
0.0330601255728658
40
0.0330601255728658
40
0.0560825035354166
40
0.0560825035354166
40
0.0791048814979674
40
0.0791048814979674
40
0.125149637423069
40
0.125149637423069
40
0.14817201538562
40
0.14817201538562
40
0.171194393348171
40
0.171194393348171
40
0.217239149273272
40
0.217239149273272
40
0.240261527235823
40
0.240261527235823
40
0.263283905198374
40
0.263283905198374
40
0.274795094179649
40
0.274795094179649
40
0.286306283160925
40
0.286306283160925
40
0.309328661123475
40
0.309328661123475
40
0.355373417048575
40
0.355373417048575
40
0.378395795011126
40
0.378395795011126
40
0.401418172973677
40
0.401418172973677
40
0.424440550936228
40
0.424440550936228
40
0.447462928898778
40
0.447462928898778
40
0.470485306861329
40
0.470485306861329
40
0.49350768482388
40
0.49350768482388
40
0.53955244074898
40
0.53955244074898
40
0.585597196674081
40
0.585597196674081
40
0.631641952599181
40
0.631641952599181
40
0.654664330561732
40
0.654664330561732
40
0.666175519543007
40
0.666175519543007
40
0.677686708524283
40
0.677686708524283
40
0.700709086486835
40
0.700709086486835
40
0.723731464449386
40
0.723731464449386
40
0.746753842411938
40
0.746753842411938
40
0.769776220374489
40
0.769776220374489
40
0.79279859833704
40
0.79279859833704
40
0.815820976299592
40
0.815820976299592
40
0.861865732224694
40
0.861865732224694
40
0.907910488149796
40
0.907910488149796
40
0.919421677131071
40
0.919421677131071
40
0.930932866112346
40
0.930932866112346
40
0.953955244074897
40
0.953955244074897
40
1
40
1
40
1
40
1
41
1
10
36.2467535053527
20
-7.0071596342047
30
0
41
1
10
36.172574187378
20
-7.0269025574535
30
0
41
1
10
36.0983071194268
20
-7.04612202220568
30
0
41
1
10
35.8535841040866
20
-7.10765455853115
30
0
41
1
10
35.6835658180742
20
-7.14751865281721
30
0
41
1
10
35.3442149425235
20
-7.22114622718598
30
0
41
1
10
35.1748832841545
20
-7.25490573316762
30
0
41
1
10
34.8367840658767
20
-7.31613508089436
30
0
41
1
10
34.6680199274142
20
-7.34356789849494
30
0
41
1
10
34.1622719443217
20
-7.4169139164095
30
0
41
1
10
33.8258427886788
20
-7.45393960959356
30
0
41
1
10
33.3215545410394
20
-7.49052025996974
30
0
41
1
10
33.1535178096708
20
-7.49950404260053
30
0
41
1
10
32.8173883819001
20
-7.51132079557232
30
0
41
1
10
32.6492916063464
20
-7.51424696926284
30
0
41
1
10
32.144709390828
20
-7.51393975996967
30
0
41
1
10
31.8079448517766
20
-7.50149713428519
30
0
41
1
10
31.3013251595426
20
-7.46352080714405
30
0
41
1
10
31.1322050762104
20
-7.44778010483424
30
0
41
1
10
30.7933347378516
20
-7.41027373374658
30
0
41
1
10
30.6235835905666
20
-7.38844148209412
30
0
41
1
10
30.3683601499112
20
-7.35089967637435
30
0
41
1
10
30.2831363295611
20
-7.33757944451455
30
0
41
1
10
30.1127196398038
20
-7.30935820391258
30
0
41
1
10
30.0275650810437
20
-7.29446402313837
30
0
41
1
10
29.7722347127999
20
-7.24742187740446
30
0
41
1
10
29.6021851397071
20
-7.21295627078553
30
0
41
1
10
29.0922538994287
20
-7.10106003548066
30
0
41
1
10
28.7526433716125
20
-7.01476365754982
30
0
41
1
10
28.2428978437458
20
-6.86726441835583
30
0
41
1
10
28.0729246566458
20
-6.81505726999802
30
0
41
1
10
27.732692297225
20
-6.70512886399481
30
0
41
1
10
27.5624292907146
20
-6.64739811095566
30
0
41
1
10
27.2215117463813
20
-6.52618081639366
30
0
41
1
10
27.0514825723924
20
-6.46293287441159
30
0
41
1
10
26.7121416056947
20
-6.3312402313806
30
0
41
1
10
26.5428368797185
20
-6.26275428448827
30
0
41
1
10
26.2047478049649
20
-6.12094748039843
30
0
41
1
10
26.0359517787603
20
-6.04770238946631
30
0
41
1
10
25.6987579460653
20
-5.89643365895415
30
0
41
1
10
25.530361186199
20
-5.8183965853614
30
0
41
1
10
25.025541766524
20
-5.57733668868482
30
0
41
1
10
24.689493356014
20
-5.40731964457069
30
0
41
1
10
24.017187204415
20
-5.05016256904227
30
0
41
1
10
23.6809353292501
20
-4.86304674350583
30
0
41
1
10
23.0070854382679
20
-4.47245400017258
30
0
41
1
10
22.6694815787102
20
-4.2690341411525
30
0
41
1
10
22.1611622814463
20
-3.95263678423507
30
0
41
1
10
21.9914027208867
20
-3.84527274373704
30
0
41
1
10
21.736165791179
20
-3.68147695935374
30
0
41
1
10
21.650917020252
20
-3.62637528726714
30
0
41
1
10
21.4805908142765
20
-3.51552764024666
30
0
41
1
10
21.3955322506648
20
-3.4597945694525
30
0
41
1
10
21.1406399591712
20
-3.2917098384595
30
0
41
1
10
20.97108568289
20
-3.17848196353933
30
0
41
1
10
20.6325623813035
20
-2.94992265633584
30
0
41
1
10
20.4636050281461
20
-2.83456154032453
30
0
41
1
10
20.1261607129462
20
-2.60183852672932
30
0
41
1
10
19.9576664678474
20
-2.48449570447716
30
0
41
1
10
19.620964930276
20
-2.248113667632
30
0
41
1
10
19.4527566700469
20
-2.1290798539429
30
0
41
1
10
19.1164979213387
20
-1.88947096950543
30
0
41
1
10
18.9484482160331
20
-1.76889297121798
30
0
41
1
10
18.6123676588024
20
-1.52635281403985
30
0
41
1
10
18.4443347885322
20
-1.40439615353472
30
0
41
1
10
17.9400243254537
20
-1.0368349824212
30
0
41
1
10
17.6035393423396
20
-0.789575430139081
30
0
41
1
10
16.9288749179158
20
-0.29186555622374
30
0
41
1
10
16.590684753108
20
-0.0414662363810407
30
0
41
1
10
16.1661194617728
20
0.272431083642772
30
0
41
1
10
16.0811149893131
20
0.335255719132789
30
0
41
1
10
15.9109039660823
20
0.460970088580836
30
0
41
1
10
15.8256472417459
20
0.523896755163491
30
0
41
1
10
15.5701105700659
20
0.712321724613844
30
0
41
1
10
15.399968248528
20
0.837537205163557
30
0
41
1
10
14.889907335245
20
1.21168340094877
30
0
41
1
10
14.5503275340271
20
1.45915342311281
30
0
41
1
10
14.2106666352596
20
1.70384806991928
30
0
0
SPLINE
5
12C
100
AcDbEntity
8
1
62
256
6
ByLayer
370
18
48
1
60
0
100
AcDbSpline
70
4
71
3
72
18
73
14
40
0
40
0
40
0
40
0
40
0.25
40
0.25
40
0.375
40
0.375
40
0.5
40
0.5
40
0.625
40
0.625
40
0.75
40
0.75
40
1
40
1
40
1
40
1
41
1
10
14.1999966225965
20
-1.73653816801576
30
0
41
1
10
14.2008896523984
20
-1.44611535541173
30
0
41
1
10
14.2017878740027
20
-1.15547337163446
30
0
41
1
10
14.2031045348027
20
-0.719184668239848
30
0
41
1
10
14.203569697272
20
-0.573700743093895
30
0
41
1
10
14.2044672106051
20
-0.282623048846773
30
0
41
1
10
14.2048956241787
20
-0.137583879042637
30
0
41
1
10
14.2057613146062
20
0.151339174111939
30
0
41
1
10
14.2062208328751
20
0.295249541828042
30
0
41
1
10
14.2071221987854
20
0.581966813439919
30
0
41
1
10
14.207557168085
20
0.724915533911513
30
0
41
1
10
14.2088552535367
20
1.15008433149489
30
0
41
1
10
14.209796232625
20
1.42915851180686
30
0
41
1
10
14.2106666352596
20
1.70384806991928
30
0
0
SPLINE
5
12D
100
AcDbEntity
8
1
62
256
6
ByLayer
370
18
48
1
60
0
100
AcDbSpline
70
4
71
3
72
8
73
4
40
0
40
0
40
0
40
0
40
1
40
1
40
1
40
1
41
1
10
5.45615409283369
20
-6.12446977215376
30
0
41
1
10
5.60395080212709
20
-6.07464501333504
30
0
41
1
10
5.75111804907678
20
-6.02749984430625
30
0
41
1
10
5.89767892216076
20
-5.98256364424398
30
0
0
SPLINE
5
12E
100
AcDbEntity
8
1
62
256
6
ByLayer
370
18
48
1
60
0
100
AcDbSpline
70
4
71
3
72
8
73
4
40
0
40
0
40
0
40
0
40
1
40
1
40
1
40
1
41
1
10
5.45615409283374
20
7.91932847262316
30
0
41
1
10
5.60395080212714
20
7.83568306085365
30
0
41
1
10
5.75111804907684
20
7.75251946041124
30
0
41
1
10
5.89767892216079
20
7.66965412355231
30
0
0
SPLINE
5
12F
100
AcDbEntity
8
1
62
256
6
ByLayer
370
18
48
1
60
0
100
AcDbSpline
70
4
71
3
72
12
73
8
40
0
40
0
40
0
40
0
40
0.249999999999998
40
0.249999999999998
40
0.499999999999996
40
0.499999999999996
40
1
40
1
40
1
40
1
41
1
10
47.3699257694833
20
-7.10739503279467
30
0
41
1
10
47.3336041252205
20
-7.14498330471139
30
0
41
1
10
47.2973519580553
20
-7.17991100193183
30
0
41
1
10
47.2250523315151
20
-7.24432903393168
30
0
41
1
10
47.1890965267781
20
-7.27373921607699
30
0
41
1
10
47.0818104475361
20
-7.35358322421905
30
0
41
1
10
47.0110602050748
20
-7.39564930837128
30
0
41
1
10
46.9410972624356
20
-7.42635753438628
30
0
0
SPLINE
5
130
100
AcDbEntity
8
1
62
256
6
ByLayer
370
18
48
1
60
0
100
AcDbSpline
70
4
71
3
72
106
73
102
40
0
40
0
40
0
40
0
40
0.0312979253488926
40
0.0312979253488926
40
0.0625958506977853
40
0.0625958506977853
40
0.0938937760466779
40
0.0938937760466779
40
0.125191701395571
40
0.125191701395571
40
0.140840664070017
40
0.140840664070017
40
0.14866514540724
40
0.14866514540724
40
0.156489626744463
40
0.156489626744463
40
0.187787552093357
40
0.187787552093357
40
0.21908547744225
40
0.21908547744225
40
0.250383402791144
40
0.250383402791144
40
0.281681328140037
40
0.281681328140037
40
0.312979253488931
40
0.312979253488931
40
0.328628216163378
40
0.328628216163378
40
0.336452697500601
40
0.336452697500601
40
0.344277178837824
40
0.359926141512271
40
0.359926141512271
40
0.375575104186718
40
0.375575104186718
40
0.391224066861165
40
0.391224066861165
40
0.406873029535612
40
0.406873029535612
40
0.422521992210058
40
0.422521992210058
40
0.438170954884505
40
0.438170954884505
40
0.469468880233399
40
0.469468880233399
40
0.485117842907845
40
0.485117842907845
40
0.500766805582291
40
0.500766805582291
40
0.508591286919515
40
0.508591286919515
40
0.516415768256738
40
0.516415768256738
40
0.532064730931185
40
0.532064730931185
40
0.56336265628008
40
0.56336265628008
40
0.579011618954528
40
0.579011618954528
40
0.586836100291752
40
0.586836100291752
40
0.594660581628977
40
0.594660581628977
40
0.625958506977877
40
0.625958506977877
40
0.657256432326777
40
0.657256432326777
40
0.688554357675677
40
0.688554357675677
40
0.719852283024577
40
0.719852283024577
40
0.751150208373477
40
0.751150208373477
40
0.766799171047928
40
0.766799171047928
40
0.774623652385153
40
0.774623652385153
40
0.782448133722378
40
0.798097096396829
40
0.798097096396829
40
0.81374605907128
40
0.81374605907128
40
0.829395021745732
40
0.829395021745732
40
0.845043984420183
40
0.845043984420183
40
0.860692947094634
40
0.860692947094634
40
0.876341909769085
40
0.876341909769085
40
0.907639835117988
40
0.907639835117988
40
0.93893776046689
40
0.93893776046689
40
0.946762241804115
40
0.946762241804115
40
0.954586723141341
40
0.954586723141341
40
0.970235685815792
40
0.970235685815792
40
1
40
1
40
1
40
1
41
1
10
46.9410972624353
20
-7.42635753438637
30
0
41
1
10
46.5991796696674
20
-7.48201438461388
30
0
41
1
10
46.2585890113249
20
-7.52485001409045
30
0
41
1
10
45.5788010455696
20
-7.58519255485658
30
0
41
1
10
45.2396068446757
20
-7.60272070274212
30
0
41
1
10
44.5614334201557
20
-7.61215504012384
30
0
41
1
10
44.2224476343201
20
-7.60409153891564
30
0
41
1
10
43.5434542289914
20
-7.56267399238109
30
0
41
1
10
43.2034525193846
20
-7.52922332920349
30
0
41
1
10
42.6917515240794
20
-7.45972459969056
30
0
41
1
10
42.5209012976423
20
-7.43335697718311
30
0
41
1
10
42.2640852330058
20
-7.38903210327362
30
0
41
1
10
42.1783897456536
20
-7.37346051655712
30
0
41
1
10
42.0067981474641
20
-7.34071426323874
30
0
41
1
10
41.9208531304339
20
-7.32352929155769
30
0
41
1
10
41.4911292169486
20
-7.23368698909596
30
0
41
1
10
41.1490835365183
20
-7.14962305999305
30
0
41
1
10
40.467157479954
20
-6.95830233633333
30
0
41
1
10
40.1272781288299
20
-6.85107411151009
30
0
41
1
10
39.4484860123978
20
-6.61401233805913
30
0
41
1
10
39.1095558426054
20
-6.48426689914268
30
0
41
1
10
38.4313814082602
20
-6.20391013952889
30
0
41
1
10
38.0921509614837
20
-6.05321327402575
30
0
41
1
10
37.4122097677134
20
-5.73126355386944
30
0
41
1
10
37.0715015912405
20
-5.5600156712643
30
0
41
1
10
36.5583437486985
20
-5.28798299435732
30
0
41
1
10
36.3869366554467
20
-5.19474485630604
30
0
41
1
10
36.1291851375466
20
-5.05132268714445
30
0
41
1
10
36.04318599879
20
-5.00294037859848
30
0
41
1
10
35.8715236470188
20
-4.90533536822576
30
0
41
1
10
35.6143259364359
20
-4.75754966965627
30
0
41
1
10
35.3579412652045
20
-4.60570208078715
30
0
41
1
10
35.016683011772
20
-4.39973926595391
30
0
41
1
10
34.8463515645758
20
-4.29498987981836
30
0
41
1
10
34.5061102446864
20
-4.08221337099275
30
0
41
1
10
34.3361925438231
20
-3.97422494241593
30
0
41
1
10
33.9966153355418
20
-3.75524112128252
30
0
41
1
10
33.8269578190076
20
-3.6442383012168
30
0
41
1
10
33.4877685667211
20
-3.41929721478522
30
0
41
1
10
33.3182369343971
20
-3.30535440654592
30
0
41
1
10
32.9791399209214
20
-3.07470670017989
30
0
41
1
10
32.8095701517454
20
-2.95803822283685
30
0
41
1
10
32.3005682401851
20
-2.60441303176336
30
0
41
1
10
31.9608614643544
20
-2.36373915756076
30
0
41
1
10
31.4498061533844
20
-1.99607970666921
30
0
41
1
10
31.2792012421468
20
-1.87242727550472
30
0
41
1
10
30.9373456733381
20
-1.62326197834386
30
0
41
1
10
30.7660950430774
20
-1.49772693764194
30
0
41
1
10
30.5086073131192
20
-1.30807755670531
30
0
41
1
10
30.4226230208266
20
-1.24459829662419
30
0
41
1
10
30.2507085294044
20
-1.11741904076157
30
0
41
1
10
30.1648049020855
20
-1.05373892183579
30
0
41
1
10
29.9072260598659
20
-0.862465175674203
30
0
41
1
10
29.7356853803727
20
-0.734633873636341
30
0
41
1
10
29.2212979300301
20
-0.350611747037391
30
0
41
1
10
28.878706050533
20
-0.0938647696087287
30
0
41
1
10
28.3644355310158
20
0.291193424834859
30
0
41
1
10
28.192945638782
20
0.4195329679591
30
0
41
1
10
27.935484918942
20
0.611849095279183
30
0
41
1
10
27.8496271649761
20
0.675922138901029
30
0
41
1
10
27.6778182898568
20
0.803979028391268
30
0
41
1
10
27.5918185024028
20
0.867999251916615
30
0
41
1
10
27.1621475304732
20
1.18736045732288
30
0
41
1
10
26.8201393259385
20
1.43997618442847
30
0
41
1
10
26.1382977150489
20
1.9378389083727
30
0
41
1
10
25.7983976035642
20
2.18320793842469
30
0
41
1
10
25.1195359669223
20
2.66512846275109
30
0
41
1
10
24.78055837656
20
2.90169714208122
30
0
41
1
10
24.1022804418331
20
3.36456252043618
30
0
41
1
10
23.7629790600545
20
3.5909142065606
30
0
41
1
10
23.0828461011826
20
4.03176548701637
30
0
41
1
10
22.7420099540685
20
4.24625608846009
30
0
41
1
10
22.2286619365104
20
4.55795030112299
30
0
41
1
10
22.0571965315642
20
4.66016875660944
30
0
41
1
10
21.7993499911194
20
4.81080507817674
30
0
41
1
10
21.7134088246894
20
4.86050127361608
30
0
41
1
10
21.5418212277854
20
4.95867261165668
30
0
41
1
10
21.2847441792485
20
5.10417799495499
30
0
41
1
10
21.0284888925539
20
5.24435210287041
30
0
41
1
10
20.6873639076309
20
5.42652457184872
30
0
41
1
10
20.5170833153104
20
5.51521892713396
30
0
41
1
10
20.1769503139034
20
5.68758042946058
30
0
41
1
10
20.0070918831034
20
5.77127530750735
30
0
41
1
10
19.6676221872025
20
5.93369080923813
30
0
41
1
10
19.4980104370528
20
6.01242308552338
30
0
41
1
10
19.1588914425853
20
6.16477493771757
30
0
41
1
10
18.989385017371
20
6.23838710118545
30
0
41
1
10
18.6503295222969
20
6.38029003035371
30
0
41
1
10
18.4807794456522
20
6.44858303893423
30
0
41
1
10
17.9718259806909
20
6.64544556330759
30
0
41
1
10
17.6321255293378
20
6.76616433649417
30
0
41
1
10
16.9507050529459
20
6.98475308603037
30
0
41
1
10
16.6089792766326
20
7.08270971941579
30
0
41
1
10
16.179757015792
20
7.19039958845602
30
0
41
1
10
16.0937536710092
20
7.2112113997787
30
0
41
1
10
15.9218885888732
20
7.25125515958197
30
0
41
1
10
15.8360121896268
20
7.27049375454629
30
0
41
1
10
15.5785261126085
20
7.32581706465399
30
0
41
1
10
15.4070639121562
20
7.35946407768213
30
0
41
1
10
14.9097859801275
20
7.4479036137221
30
0
41
1
10
14.5842300417418
20
7.49465308716904
30
0
41
1
10
14.2585332093377
20
7.52978221623059
30
0
0
SPLINE
5
131
100
AcDbEntity
8
1
62
256
6
ByLayer
370
18
48
1
60
0
100
AcDbSpline
70
4
71
3
72
14
73
10
40
0
40
0
40
0
40
0
40
0.256032291609341
40
0.256032291609341
40
0.512064583218683
40
0.512064583218683
40
0.768096874828024
40
0.768096874828024
40
1
40
1
40
1
40
1
41
1
10
14.1999966225965
20
7.03185301643333
30
0
41
1
10
14.2006837151014
20
7.11063549735348
30
0
41
1
10
14.2013950626529
20
7.18023206470284
30
0
41
1
10
14.2027325157446
20
7.30126276797631
30
0
41
1
10
14.2034351401812
20
7.35269885836786
30
0
41
1
10
14.204809612834
20
7.43716506412568
30
0
41
1
10
14.2054515756667
20
7.46991579755559
30
0
41
1
10
14.2067794315144
20
7.51443864007143
30
0
41
1
10
14.2073894172191
20
7.52790305306405
30
0
41
1
10
14.207997499959
20
7.53359538602561
30
0
0
SPLINE
5
132
100
AcDbEntity
8
1
62
256
6
ByLayer
370
18
48
1
60
0
100
AcDbSpline
70
4
71
3
72
10
73
6
40
0
40
0
40
0
40
0
40
0.5
40
0.5
40
1
40
1
40
1
40
1
41
1
10
47.3699257694832
20
-5.42306289297957
30
0
41
1
10
47.3446295185666
20
-5.61692302696264
30
0
41
1
10
47.3312786399687
20
-5.80285195425222
30
0
41
1
10
47.3285313139144
20
-6.1588051103804
30
0
41
1
10
47.339132451602
20
-6.32883094257835
30
0
41
1
10
47.3620437585207
20
-6.49068335882902
30
0
0
SPLINE
5
133
100
AcDbEntity
8
1
62
256
6
ByLayer
370
18
48
1
60
0
100
AcDbSpline
70
4
71
3
72
18
73
14
40
0
40
0
40
0
40
0
40
0.124999999999999
40
0.124999999999999
40
0.249999999999998
40
0.249999999999998
40
0.500000000000001
40
0.500000000000001
40
0.625000000000001
40
0.625000000000001
40
0.750000000000001
40
0.750000000000001
40
1
40
1
40
1
40
1
41
1
10
47.3699257694832
20
-5.42306289297957
30
0
41
1
10
47.3391298576794
20
-5.34295440903236
30
0
41
1
10
47.308380260285
20
-5.26147505895784
30
0
41
1
10
47.2470309238376
20
-5.09590111454912
30
0
41
1
10
47.2164899764232
20
-5.01196609651316
30
0
41
1
10
47.1252678295414
20
-4.75672091486086
30
0
41
1
10
47.0649866876509
20
-4.58197609932893
30
0
41
1
10
46.9753748741199
20
-4.31290557141784
30
0
41
1
10
46.9456213731316
20
-4.22199674850995
30
0
41
1
10
46.8865897804949
20
-4.03846423796458
30
0
41
1
10
46.8572898292771
20
-3.94577686345011
30
0
41
1
10
46.7700385434102
20
-3.66494697604716
30
0
41
1
10
46.7127347071223
20
-3.47404126307603
30
0
41
1
10
46.6563098293107
20
-3.27938459368363
30
0
0
SPLINE
5
134
100
AcDbEntity
8
1
62
256
6
ByLayer
370
18
48
1
60
0
100
AcDbSpline
70
4
71
3
72
68
73
64
40
0
40
0
40
0
40
0
40
0.0523327328374609
40
0.0523327328374609
40
0.104665465674922
40
0.104665465674922
40
0.156998198512383
40
0.156998198512383
40
0.209330931349844
40
0.209330931349844
40
0.235497297768575
40
0.235497297768575
40
0.24858048097794
40
0.24858048097794
40
0.261663664187306
40
0.261663664187306
40
0.313996397024768
40
0.313996397024768
40
0.36632912986223
40
0.36632912986223
40
0.392495496280961
40
0.392495496280961
40
0.418661862699693
40
0.418661862699693
40
0.470994595537155
40
0.470994595537155
40
0.523327328374617
40
0.523327328374617
40
0.536410511583983
40
0.536410511583983
40
0.54949369479335
40
0.54949369479335
40
0.575660061212082
40
0.575660061212082
40
0.601826427630815
40
0.601826427630815
40
0.627992794049547
40
0.627992794049547
40
0.680325526887012
40
0.680325526887012
40
0.706491893305745
40
0.706491893305745
40
0.732658259724477
40
0.732658259724477
40
0.784990992561942
40
0.784990992561942
40
0.811157358980674
40
0.811157358980674
40
0.837323725399406
40
0.837323725399406
40
0.850406908608772
40
0.850406908608772
40
0.863490091818138
40
0.863490091818138
40
0.889656458236869
40
0.889656458236869
40
0.941989191074334
40
0.941989191074334
40
0.968155557493067
40
0.968155557493067
40
0.994321923911799
40
0.994321923911799
40
1
40
1
40
1
40
1
41
1
10
46.6563098293105
20
-3.27938459368306
30
0
41
1
10
46.3180435875993
20
-3.05421682250454
30
0
41
1
10
45.9808959670873
20
-2.82438821177939
30
0
41
1
10
45.3076589779228
20
-2.35702810671097
30
0
41
1
10
44.9715816389436
20
-2.11946236500242
30
0
41
1
10
44.2993580583657
20
-1.63801421387737
30
0
41
1
10
43.963200744618
20
-1.3941836232116
30
0
41
1
10
43.2896350825317
20
-0.901844241860601
30
0
41
1
10
42.9522283479815
20
-0.65329071567038
30
0
41
1
10
42.4442760239885
20
-0.278114701245812
30
0
41
1
10
42.2746525728564
20
-0.152669740282278
30
0
41
1
10
42.0196455286195
20
0.0359331194155175
30
0
41
1
10
41.9345477458669
20
0.0988736517917914
30
0
41
1
10
41.7641413249341
20
0.224877086352592
30
0
41
1
10
41.6789617229168
20
0.287844514805954
30
0
41
1
10
41.2537492888561
20
0.601994220158815
30
0
41
1
10
40.9151549856215
20
0.851564965423108
30
0
41
1
10
40.2398701867113
20
1.3456789503683
30
0
41
1
10
39.9031992272278
20
1.5902157828921
30
0
41
1
10
39.3987594979711
20
1.95203913474194
30
0
41
1
10
39.2307028857807
20
2.07182175982973
30
0
41
1
10
38.8946141823584
20
2.30958306214541
30
0
41
1
10
38.7265827475277
20
2.42756346343194
30
0
41
1
10
38.2223254707093
20
2.77851597669209
30
0
41
1
10
37.8859404962305
20
3.00850600629011
30
0
41
1
10
37.2115937765714
20
3.45885135021607
30
0
41
1
10
36.8736347422578
20
3.67921250723023
30
0
41
1
10
36.4493903626358
20
3.9474187141638
30
0
41
1
10
36.3644513047533
20
4.00069867690178
30
0
41
1
10
36.1943767439747
20
4.10653610159122
30
0
41
1
10
36.1092140657552
20
4.15911274825086
30
0
41
1
10
35.8535841040868
20
4.31563492197608
30
0
41
1
10
35.6835658180744
20
4.41800551132081
30
0
41
1
10
35.3442149425236
20
4.61859729608997
30
0
41
1
10
35.1748832841547
20
4.71681617959419
30
0
41
1
10
34.8367840658769
20
4.90886065499714
30
0
41
1
10
34.6680199274143
20
5.00266046719321
30
0
41
1
10
34.1622719443218
20
5.2775980240547
30
0
41
1
10
33.8258427886789
20
5.45233222111426
30
0
41
1
10
33.3215545410396
20
5.70010596976832
30
0
41
1
10
33.1535178096709
20
5.78027074180119
30
0
41
1
10
32.8173883819003
20
5.93581348680462
30
0
41
1
10
32.6492916063465
20
6.01126001672733
30
0
41
1
10
32.1447093908281
20
6.2303598481972
30
0
41
1
10
31.8079448517767
20
6.36668850115788
30
0
41
1
10
31.3013251595428
20
6.55510469753423
30
0
41
1
10
31.1322050762105
20
6.61533498691085
30
0
41
1
10
30.7933347378518
20
6.73064225082953
30
0
41
1
10
30.6235835905668
20
6.78566717678916
30
0
41
1
10
30.3683601499114
20
6.86402763986845
30
0
41
1
10
30.2831363295613
20
6.88946659276056
30
0
41
1
10
30.1127196398039
20
6.93884183029667
30
0
41
1
10
30.0275650810438
20
6.96276749129734
30
0
41
1
10
29.7722347128
20
7.03222549689255
30
0
41
1
10
29.6021851397072
20
7.07547609691397
30
0
41
1
10
29.0922538994288
20
7.19665092704614
30
0
41
1
10
28.7526433716126
20
7.26566625456988
30
0
41
1
10
28.2428978437459
20
7.35029508789955
30
0
41
1
10
28.072924656646
20
7.37532046751912
30
0
41
1
10
27.7326922972251
20
7.41944282217833
30
0
41
1
10
27.5624292907147
20
7.4385364095441
30
0
41
1
10
27.3549811306149
20
7.45793587094792
30
0
41
1
10
27.3180119718491
20
7.46124441619901
30
0
41
1
10
27.2810623177052
20
7.46440221239089
30
0
0
SPLINE
5
135
100
AcDbEntity
8
1
62
256
6
ByLayer
370
18
48
1
60
0
100
AcDbSpline
70
4
71
3
72
8
73
4
40
0
40
0
40
0
40
0
40
1
40
1
40
1
40
1
41
1
10
47.2043968897875
20
-6.48362673571216
30
0
41
1
10
47.2569468586377
20
-6.48599154008261
30
0
41
1
10
47.3094958109996
20
-6.4883436995971
30
0
41
1
10
47.3620437585207
20
-6.49068335882902
30
0
0
SPLINE
5
136
100
AcDbEntity
8
1
62
256
6
ByLayer
370
18
48
1
60
0
100
AcDbSpline
70
4
71
5
72
51
73
45
40
0
40
0
40
0
40
0
40
0
40
0
40
0.0281859310057192
40
0.0477841368422431
40
0.0771814455970288
40
0.0967796514335526
40
0.126176960188338
40
0.145775166024862
40
0.175172474779648
40
0.204569783534434
40
0.224167989370958
40
0.253565298125744
40
0.273163503962268
40
0.302560812717053
40
0.322159018553577
40
0.351556327308363
40
0.380953636063149
40
0.400551841899673
40
0.420150047736197
40
0.449547356490982
40
0.478944665245768
40
0.498542871082292
40
0.527940179837078
40
0.557337488591864
40
0.576935694428388
40
0.596533900264911
40
0.625931209019697
40
0.655328517774483
40
0.674926723611007
40
0.704324032365793
40
0.723922238202316
40
0.753319546957102
40
0.772917752793626
40
0.802315061548412
40
0.831712370303198
40
0.851310576139722
40
0.880707884894508
40
0.900306090731031
40
0.929703399485817
40
0.949301605322341
40
0.978698914077127
40
1
40
1
40
1
40
1
40
1
40
1
41
1
10
42.4738596678289
20
-7.87679545600341
30
0
41
1
10
42.3144747002213
20
-7.89216665698436
30
0
41
1
10
42.0442663788707
20
-7.91411748229422
30
0
41
1
10
41.6078230269056
20
-7.93828646644639
30
0
41
1
10
41.0605563211976
20
-7.94564797302144
30
0
41
1
10
40.3470545848752
20
-7.91768708511597
30
0
41
1
10
39.6821144624173
20
-7.8563019417949
30
0
41
1
10
38.9617626630879
20
-7.7518596087346
30
0
41
1
10
38.2414108637586
20
-7.60992858095798
30
0
41
1
10
37.5210590644293
20
-7.42753352288486
30
0
41
1
10
36.8007072650999
20
-7.2092389842052
30
0
41
1
10
36.0803554657705
20
-6.95266446226501
30
0
41
1
10
35.3600036664413
20
-6.66256117342826
30
0
41
1
10
34.6950635439834
20
-6.36498554056692
30
0
41
1
10
33.974711744654
20
-6.01193885439201
30
0
41
1
10
33.2543599453247
20
-5.62975058148641
30
0
41
1
10
32.5340081459954
20
-5.21758951077453
30
0
41
1
10
31.8690680235376
20
-4.81385483409488
30
0
41
1
10
31.1487162242082
20
-4.35343724243245
30
0
41
1
10
30.4283644248789
20
-3.871987318474
30
0
41
1
10
29.763424302421
20
-3.41007661076029
30
0
41
1
10
29.0430725030917
20
-2.89319142989041
30
0
41
1
10
28.2673090268908
20
-2.32006492073003
30
0
41
1
10
27.5469572275615
20
-1.77547275381139
30
0
41
1
10
26.8820171051037
20
-1.26485101064577
30
0
41
1
10
26.1616653057743
20
-0.705841407751393
30
0
41
1
10
25.441313506445
20
-0.143421742889188
30
0
41
1
10
24.7763733839871
20
0.376632329229409
30
0
41
1
10
24.0560215846578
20
0.938203863967971
30
0
41
1
10
23.3356697853285
20
1.49471300959928
30
0
41
1
10
22.6153179859991
20
2.0438627072414
30
0
41
1
10
21.9503778635413
20
2.54177784742558
30
0
41
1
10
21.2300260642119
20
3.06877173925716
30
0
41
1
10
20.5096742648826
20
3.58106538333018
30
0
41
1
10
19.7893224655533
20
4.07439673078702
30
0
41
1
10
19.068970666224
20
4.54803530583686
30
0
41
1
10
18.3486188668946
20
4.99744090295636
30
0
41
1
10
17.6282670675652
20
5.42258989702225
30
0
41
1
10
16.9633269451074
20
5.79094200605653
30
0
41
1
10
16.2429751457781
20
6.16191212745349
30
0
41
1
10
15.5684056274579
20
6.48150461735474
30
0
41
1
10
15.0046594628807
20
6.72360881082622
30
0
41
1
10
14.607148328918
20
6.88135528899903
30
0
41
1
10
14.3204605486982
20
6.98819633165223
30
0
41
1
10
14.2000077990929
20
7.03185035920242
30
0
0
SPLINE
5
137
100
AcDbEntity
8
1
62
256
6
ByLayer
370
18
48
1
60
0
100
AcDbSpline
70
4
71
3
72
16
73
12
40
0
40
0
40
0
40
0
40
0.249999999999995
40
0.249999999999995
40
0.312499999999995
40
0.312499999999995
40
0.374999999999995
40
0.374999999999995
40
0.499999999999995
40
0.499999999999995
40
1
40
1
40
1
40
1
41
1
10
13.1430251003695
20
6.93928010862913
30
0
41
1
10
12.8172093535051
20
7.01152438260016
30
0
41
1
10
12.4913608023116
20
7.07261986395369
30
0
41
1
10
12.0833760986537
20
7.135180849509
30
0
41
1
10
12.0017457923526
20
7.14700078632754
30
0
41
1
10
11.8384033503419
20
7.16925564919711
30
0
41
1
10
11.7566707451537
20
7.17969332971236
30
0
41
1
10
11.5115003125524
20
7.20891345298841
30
0
41
1
10
11.3481066191189
20
7.22560332426491
30
0
41
1
10
10.531105723988
20
7.29524035991489
30
0
41
1
10
9.87737493483326
20
7.30678791836346
30
0
41
1
10
9.21997384556545
20
7.27541351929281
30
0
0
SPLINE
5
138
100
AcDbEntity
8
1
62
256
6
ByLayer
370
18
48
1
60
0
100
AcDbSpline
70
4
71
3
72
66
73
62
40
0
40
0
40
0
40
0
40
0.0095853723445932
40
0.0190650709214624
40
0.028439070902804
40
0.037707349568714
40
0.04686988625682
40
0.0559266623116913
40
0.0648776610342351
40
0.0737228676314353
40
0.0824622691661705
40
0.0910958545077138
40
0.0996236142825342
40
0.108045540826004
40
0.116361628134681
40
0.124571871819739
40
0.132676269061341
40
0.140674818564029
40
0.148567520513754
40
0.156354376535908
40
0.164035389655104
40
0.171610564256636
40
0.179079906049523
40
0.18644342203162
40
0.193701120456685
40
0.200853010803683
40
0.207899103748317
40
0.214839411137212
40
0.221673945964616
40
0.228402722351992
40
0.235025755530669
40
0.241543061827754
40
0.247954658655462
40
0.254260564504367
40
0.260460798940488
40
0.266555382606836
40
0.272544337229723
40
0.278427685630087
40
0.284205451740336
40
0.289877660627421
40
0.295444338522289
40
0.30090551285674
40
0.333263029339574
40
0.365886021478794
40
0.398776148138562
40
0.431935086474467
40
0.465364531898046
40
0.499066197676377
40
0.533041814226877
40
0.567293128163432
40
0.601821901145067
40
0.636445818705639
40
0.672221726460263
40
0.709150604632541
40
0.747233327396526
40
0.786470680700223
40
0.82686337757879
40
0.868412071346349
40
0.911117366987269
40
0.95497983101215
40
1
40
1
40
1
40
1
41
1
10
13.2342020717152
20
3.61180488357391
30
0
41
1
10
13.2230169233455
20
3.62266757730254
30
0
41
1
10
13.2007699370763
20
3.64427320918506
30
0
41
1
10
13.1675495535358
20
3.67674973015437
30
0
41
1
10
13.1346706228744
20
3.70903663815622
30
0
41
1
10
13.1021289224467
20
3.74114197304959
30
0
41
1
10
13.0699232474559
20
3.77305136129968
30
0
41
1
10
13.03805180371
20
3.80475661517946
30
0
41
1
10
13.0065131507844
20
3.8362481992566
30
0
41
1
10
12.9753059464978
20
3.86751721474292
30
0
41
1
10
12.9444290071165
20
3.89855487665608
30
0
41
1
10
12.9138812844524
20
3.92935265076923
30
0
41
1
10
12.8836618648835
20
3.95990221647858
30
0
41
1
10
12.8537699626551
20
3.99019547512972
30
0
41
1
10
12.824204914745
20
4.02022454604364
30
0
41
1
10
12.7949661753848
20
4.0499817654613
30
0
41
1
10
12.7660533107447
20
4.07945968442417
30
0
41
1
10
12.7374659936564
20
4.10865106665958
30
0
41
1
10
12.7092039984118
20
4.13754888620784
30
0
41
1
10
12.6812671956348
20
4.16614632488145
30
0
41
1
10
12.65365554723
20
4.19443676955026
30
0
41
1
10
12.6263691014137
20
4.22241380927269
30
0
41
1
10
12.5994079878291
20
4.25007123228534
30
0
41
1
10
12.5727724127491
20
4.27740302286483
30
0
41
1
10
12.5464626543697
20
4.30440335807492
30
0
41
1
10
12.520479058196
20
4.33106660441055
30
0
41
1
10
12.4948220325231
20
4.35738731435242
30
0
41
1
10
12.4694920440132
20
4.3833602228421
30
0
41
1
10
12.4444896133716
20
4.40898024369034
30
0
41
1
10
12.4198153111208
20
4.43424246592707
30
0
41
1
10
12.3954697534812
20
4.45914215011007
30
0
41
1
10
12.371453598332
20
4.48367472457898
30
0
41
1
10
12.3477675413508
20
4.50783578174818
30
0
41
1
10
12.3244123119802
20
4.53162107414218
30
0
41
1
10
12.3013886705012
20
4.55502651129396
30
0
41
1
10
12.2786974015585
20
4.5780481534689
30
0
41
1
10
12.2563393210704
20
4.60068221693908
30
0
41
1
10
12.2343152349596
20
4.6229250373062
30
0
41
1
10
12.2126260734379
20
4.6447731853454
30
0
41
1
10
12.191272388132
20
4.66622302898011
30
0
41
1
10
12.1702561628044
20
4.68727230614249
30
0
41
1
10
12.1154882276525
20
4.74193474601344
30
0
41
1
10
12.0258050952964
20
4.83070546335256
30
0
41
1
10
11.8995427934491
20
4.95402381126817
30
0
41
1
10
11.7706066913629
20
5.07819223464193
30
0
41
1
10
11.6390323622324
20
5.20311448244516
30
0
41
1
10
11.5048518415269
20
5.32870069043753
30
0
41
1
10
11.3681034167088
20
5.45487513566374
30
0
41
1
10
11.2288282212026
20
5.58157369291814
30
0
41
1
10
11.0870685688169
20
5.7087413726467
30
0
41
1
10
10.9431294110237
20
5.83611314104556
30
0
41
1
10
10.7958267794203
20
5.96470562147942
30
0
41
1
10
10.6440018522205
20
6.09561328086065
30
0
41
1
10
10.4862036021908
20
6.23015727861767
30
0
41
1
10
10.3224588753815
20
6.36836278323921
30
0
41
1
10
10.152796929362
20
6.51026168896607
30
0
41
1
10
9.9772460819039
20
6.65588949251713
30
0
41
1
10
9.79583948769297
20
6.80528729745285
30
0
41
1
10
9.60859381551373
20
6.95849554137132
30
0
41
1
10
9.41559104159313
20
7.11557663733845
30
0
41
1
10
9.28467627245712
20
7.2214963286298
30
0
41
1
10
9.21836629907165
20
7.27514598142974
30
0
0
SPLINE
5
139
100
AcDbEntity
8
1
62
256
6
ByLayer
370
18
48
1
60
0
100
AcDbSpline
70
4
71
3
72
29
73
25
40
0
40
0
40
0
40
0
40
0.0191269419290597
40
0.0398084976086676
40
0.0623705053239985
40
0.0870644798621689
40
0.114082463371151
40
0.143571130381352
40
0.175643277965804
40
0.210386551583331
40
0.247869865684872
40
0.288148074346951
40
0.331265367278423
40
0.377257752749424
40
0.426154888878223
40
0.477981448303241
40
0.532758146375776
40
0.590502524449814
40
0.651229553110039
40
0.71495210161543
40
0.781681306882252
40
0.851426866258169
40
0.924197271902576
40
1
40
1
40
1
40
1
41
1
10
13.2665900462215
20
3.56474955969864
30
0
41
1
10
13.2667666993141
20
3.56505373463736
30
0
41
1
10
13.2671343636404
20
3.56568680747071
30
0
41
1
10
13.2674120218267
20
3.56673735005893
30
0
41
1
10
13.2675214341047
20
3.56789591270933
30
0
41
1
10
13.2674381058996
20
3.56916997793582
30
0
41
1
10
13.2671706263416
20
3.5705578878582
30
0
41
1
10
13.2667168616185
20
3.57206074308877
30
0
41
1
10
13.2660776104911
20
3.57367868456939
30
0
41
1
10
13.2652526052621
20
3.5754120284106
30
0
41
1
10
13.2642418307493
20
3.57726094278018
30
0
41
1
10
13.2630451736679
20
3.57922557164787
30
0
41
1
10
13.261662551676
20
3.58130601840799
30
0
41
1
10
13.2600938840391
20
3.58350236624682
30
0
41
1
10
13.2583391032933
20
3.58581468294386
30
0
41
1
10
13.2563981513029
20
3.58824302678846
30
0
41
1
10
13.2542709804116
20
3.59078745042325
30
0
41
1
10
13.2519575460141
20
3.59344800118782
30
0
41
1
10
13.2494578288597
20
3.59622473150301
30
0
41
1
10
13.2467717394009
20
3.59911766490981
30
0
41
1
10
13.2438994957868
20
3.60212693770387
30
0
41
1
10
13.2408401083967
20
3.60525223657754
30
0
41
1
10
13.2375974168213
20
3.60849504288294
30
0
41
1
10
13.2353491488989
20
3.61068669310373
30
0
41
1
10
13.2342020717813
20
3.61180488359742
30
0
0
SPLINE
5
13A
100
AcDbEntity
8
1
62
256
6
ByLayer
370
18
48
1
60
0
100
AcDbSpline
70
4
71
5
72
32
73
26
40
0
40
0
40
0
40
0
40
0
40
0
40
0.13615691654067
40
0.170196145675837
40
0.221254989378589
40
0.27231383308134
40
0.306353062216508
40
0.340392291351675
40
0.391451135054426
40
0.442509978757178
40
0.476549207892345
40
0.527608051595096
40
0.561647280730264
40
0.612706124433015
40
0.646745353568183
40
0.697804197270934
40
0.748863040973685
40
0.782902270108853
40
0.833961113811604
40
0.868000342946772
40
0.919059186649523
40
0.95309841578469
40
1
40
1
40
1
40
1
40
1
40
1
41
1
10
13.2503960589674
20
3.58827722163485
30
0
41
1
10
13.6936894739394
20
3.45128993296961
30
0
41
1
10
14.2478062426542
20
3.26938160885166
30
0
41
1
10
14.9681580419836
20
3.01665832060021
30
0
41
1
10
15.8547448719274
20
2.68211054885643
30
0
41
1
10
16.8521550556142
20
2.27816010625048
30
0
41
1
10
17.517095178072
20
1.99869578524204
30
0
41
1
10
18.2374469774013
20
1.68643740709692
30
0
41
1
10
18.9577987767307
20
1.36603150963998
30
0
41
1
10
19.6227388991885
20
1.06403091996288
30
0
41
1
10
20.3430906985179
20
0.731720836750668
30
0
41
1
10
21.0634424978472
20
0.395567831668472
30
0
41
1
10
21.7837942971765
20
0.0575867615817742
30
0
41
1
10
22.4487344196344
20
-0.254729845813301
30
0
41
1
10
23.1690862189637
20
-0.591758406919553
30
0
41
1
10
23.889438018293
20
-0.926010525861585
30
0
41
1
10
24.6097898176224
20
-1.25538686834108
30
0
41
1
10
25.3301416169518
20
-1.57869555242436
30
0
41
1
10
26.0504934162811
20
-1.89357085709696
30
0
41
1
10
26.7708452156104
20
-2.19921937466475
30
0
41
1
10
27.4357853380683
20
-2.47161553758187
30
0
41
1
10
28.1426021235185
20
-2.74937768961772
30
0
41
1
10
28.6831838783543
20
-2.95211827952389
30
0
41
1
10
29.1129422794471
20
-3.10656833075129
30
0
41
1
10
29.3764656499254
20
-3.19861481873804
30
0
41
1
10
29.5291656666608
20
-3.2510336045639
30
0
0
SPLINE
5
13B
100
AcDbEntity
8
1
62
256
6
ByLayer
370
18
48
1
60
0
100
AcDbSpline
70
4
71
3
72
16
73
12
40
0
40
0
40
0
40
0
40
0.249999999999999
40
0.249999999999999
40
0.312499999999999
40
0.312499999999999
40
0.374999999999999
40
0.374999999999999
40
0.499999999999998
40
0.499999999999998
40
1
40
1
40
1
40
1
41
1
10
13.1430251003695
20
-0.762967335010046
30
0
41
1
10
12.817209353505
20
-0.522437787338561
30
0
41
1
10
12.4913608023116
20
-0.282229779356385
30
0
41
1
10
12.0833760986537
20
0.0167752506278021
30
0
41
1
10
12.0017457923525
20
0.0765139151848189
30
0
41
1
10
11.8384033503418
20
0.19584612683883
30
0
41
1
10
11.7566707451537
20
0.255454493546892
30
0
41
1
10
11.5115003125524
20
0.433905452797774
30
0
41
1
10
11.3481066191188
20
0.552361696132692
30
0
41
1
10
10.531105723988
20
1.14171749897224
30
0
41
1
10
9.87737493483326
20
1.6038134757988
30
0
41
1
10
9.21997384556542
20
2.05205055894533
30
0
0
SPLINE
5
13C
100
AcDbEntity
8
1
62
256
6
ByLayer
370
18
48
1
60
0
100
AcDbSpline
70
4
71
3
72
66
73
62
40
0
40
0
40
0
40
0
40
0.0095853723445944
40
0.0190650709214645
40
0.0284390709028051
40
0.0377073495687157
40
0.046869886256822
40
0.055926662311694
40
0.0648776610342374
40
0.0737228676314377
40
0.0824622691661734
40
0.0910958545077165
40
0.0996236142825374
40
0.108045540826006
40
0.116361628134683
40
0.124571871819742
40
0.132676269061343
40
0.140674818564032
40
0.148567520513757
40
0.156354376535911
40
0.164035389655107
40
0.17161056425664
40
0.17907990604953
40
0.186443422031626
40
0.19370112045669
40
0.200853010803687
40
0.207899103748322
40
0.214839411137217
40
0.221673945964624
40
0.228402722351998
40
0.235025755530675
40
0.241543061827759
40
0.247954658655468
40
0.254260564504374
40
0.260460798940493
40
0.266555382606843
40
0.272544337229729
40
0.278427685630094
40
0.284205451740344
40
0.289877660627428
40
0.295444338522296
40
0.300905512856747
40
0.333263029339583
40
0.365886021478802
40
0.398776148138572
40
0.431935086474476
40
0.465364531898056
40
0.499066197676387
40
0.533041814226889
40
0.567293128163445
40
0.60182190114508
40
0.636445818705663
40
0.672221726460268
40
0.709150604632557
40
0.747233327396533
40
0.78647068070024
40
0.826863377578798
40
0.868412071346368
40
0.911117366987278
40
0.954979831012159
40
1
40
1
40
1
40
1
41
1
10
13.2342020717151
20
-2.06980220429261
30
0
41
1
10
13.2230169233455
20
-2.05435456311045
30
0
41
1
10
13.2007699370763
20
-2.02362958299287
30
0
41
1
10
13.1675495535358
20
-1.97796218066605
30
0
41
1
10
13.1346706228744
20
-1.93292467198128
30
0
41
1
10
13.1021289224466
20
-1.88852666038352
30
0
41
1
10
13.0699232474559
20
-1.84476298643341
30
0
41
1
10
13.03805180371
20
-1.80163217161728
30
0
41
1
10
13.0065131507844
20
-1.75913157202115
30
0
41
1
10
12.9753059464978
20
-1.71725866701732
30
0
41
1
10
12.9444290071165
20
-1.67601073190991
30
0
41
1
10
12.9138812844524
20
-1.63538493587359
30
0
41
1
10
12.8836618648835
20
-1.59537832767478
30
0
41
1
10
12.853769962655
20
-1.55598785067332
30
0
41
1
10
12.824204914745
20
-1.51721034985573
30
0
41
1
10
12.7949661753848
20
-1.47904258069883
30
0
41
1
10
12.7660533107447
20
-1.44148121728179
30
0
41
1
10
12.7374659936564
20
-1.40452286032294
30
0
41
1
10
12.7092039984118
20
-1.36816404496241
30
0
41
1
10
12.6812671956348
20
-1.33240124833523
30
0
41
1
10
12.65365554723
20
-1.29723089692348
30
0
41
1
10
12.6263691014137
20
-1.26264937369007
30
0
41
1
10
12.5994079878291
20
-1.22865302499403
30
0
41
1
10
12.572772412749
20
-1.19523816728892
30
0
41
1
10
12.5464626543696
20
-1.16240109360459
30
0
41
1
10
12.520479058196
20
-1.13013807981571
30
0
41
1
10
12.4948220325231
20
-1.09844539069709
30
0
41
1
10
12.4694920440132
20
-1.06731928577
30
0
41
1
10
12.4444896133715
20
-1.03675602494104
30
0
41
1
10
12.4198153111208
20
-1.00675187393688
30
0
41
1
10
12.3954697534811
20
-0.977303109536479
30
0
41
1
10
12.371453598332
20
-0.948406024613007
30
0
41
1
10
12.3477675413508
20
-0.920056932952861
30
0
41
1
10
12.3244123119802
20
-0.892252173989391
30
0
41
1
10
12.3013886705012
20
-0.864988116967197
30
0
41
1
10
12.2786974015585
20
-0.838261166316897
30
0
41
1
10
12.2563393210704
20
-0.812067761785045
30
0
41
1
10
12.2343152349595
20
-0.786404396808763
30
0
41
1
10
12.2126260734378
20
-0.76126756978735
30
0
41
1
10
12.191272388132
20
-0.736653978300978
30
0
41
1
10
12.1702561628044
20
-0.712559830578471
30
0
41
1
10
12.1154882276524
20
-0.650126853930487
30
0
41
1
10
12.0258050952964
20
-0.549578855318714
30
0
41
1
10
11.8995427934491
20
-0.411682578580837
30
0
41
1
10
11.7706066913629
20
-0.274373161582048
30
0
41
1
10
11.6390323622324
20
-0.137557617114368
30
0
41
1
10
11.5048518415269
20
-0.0011440022431941
30
0
41
1
10
11.3681034167088
20
0.134961029182989
30
0
41
1
10
11.2288282212026
20
0.270850368499993
30
0
41
1
10
11.0870685688169
20
0.406615740741557
30
0
41
1
10
10.9431294110236
20
0.542106192896142
30
0
41
1
10
10.7958267794203
20
0.678546972301234
30
0
41
1
10
10.6440018522204
20
0.817127446296894
30
0
41
1
10
10.4862036021908
20
0.959230532680664
30
0
41
1
10
10.3224588753816
20
1.10486422223647
30
0
41
1
10
10.1527969293619
20
1.25403514952805
30
0
41
1
10
9.97724608190384
20
1.4067466035381
30
0
41
1
10
9.795839487693
20
1.56300505882075
30
0
41
1
10
9.60859381551373
20
1.72279424211158
30
0
41
1
10
9.41559104159316
20
1.88617533540815
30
0
41
1
10
9.28467627245718
20
1.99589376362044
30
0
41
1
10
9.2183662990717
20
2.05146752434027
30
0
0
SPLINE
5
13D
100
AcDbEntity
8
1
62
256
6
ByLayer
370
18
48
1
60
0
100
AcDbSpline
70
4
71
5
72
14
73
8
40
0
40
0
40
0
40
0
40
0
40
0
40
0.741358541050227
40
0.926698176312783
40
1
40
1
40
1
40
1
40
1
40
1
41
1
10
13.2503960589674
20
-2.10382587840021
30
0
41
1
10
13.6936894739394
20
-2.29051396948245
30
0
41
1
10
14.2478062426542
20
-2.51761576566719
30
0
41
1
10
14.8457536465432
20
-2.75299075173598
30
0
41
1
10
15.4437010504322
20
-2.97631563347457
30
0
41
1
10
16.0416484543211
20
-3.18604414171412
30
0
41
1
10
16.1963024432382
20
-3.23935322978286
30
0
41
1
10
16.2401330784123
20
-3.25438589367209
30
0
0
SPLINE
5
13E
100
AcDbEntity
8
1
62
256
6
ByLayer
370
18
48
1
60
0
100
AcDbSpline
70
4
71
5
72
39
73
33
40
0
40
0
40
0
40
0
40
0
40
0
40
0.0309699695320668
40
0.0599304827154434
40
0.103371252490508
40
0.146812022265573
40
0.175772535448949
40
0.219213305224014
40
0.248173818407391
40
0.291614588182456
40
0.320575101365832
40
0.364015871140897
40
0.407456640915962
40
0.436417154099338
40
0.465377667282715
40
0.508818437057779
40
0.552259206832844
40
0.581219720016221
40
0.624660489791285
40
0.66810125956635
40
0.697061772749727
40
0.726022285933103
40
0.769463055708168
40
0.812903825483233
40
0.841864338666609
40
0.885305108441674
40
0.914265621625051
40
0.957706391400115
40
0.986666904583492
40
1
40
1
40
1
40
1
40
1
40
1
41
1
10
22.631933139277
20
4.31788775197455
30
0
41
1
10
22.7504460905887
20
4.29430171185584
30
0
41
1
10
22.9797823956433
20
4.24723873345837
30
0
41
1
10
23.3753537313123
20
4.1613613665356
30
0
41
1
10
23.9371600975959
20
4.02809710704906
30
0
41
1
10
24.6097898176224
20
3.85004224497018
30
0
41
1
10
25.3301416169518
20
3.64074625462746
30
0
41
1
10
26.0504934162811
20
3.41213198832625
30
0
41
1
10
26.7708452156104
20
3.16708834167474
30
0
41
1
10
27.4357853380683
20
2.92670984212717
30
0
41
1
10
28.1561371373976
20
2.65222363283704
30
0
41
1
10
28.876488936727
20
2.36485196077865
30
0
41
1
10
29.5968407360563
20
2.06487247147817
30
0
41
1
10
30.2617808585142
20
1.77875588754489
30
0
41
1
10
30.9821326578435
20
1.46035697196263
30
0
41
1
10
31.7024844571728
20
1.13490277762452
30
0
41
1
10
32.3674245796307
20
0.829271091611247
30
0
41
1
10
33.08777637896
20
0.494161984828196
30
0
41
1
10
33.8635398551609
20
0.130496627626741
30
0
41
1
10
34.5838916544902
20
-0.207932363361664
30
0
41
1
10
35.2488317769481
20
-0.519400663933823
30
0
41
1
10
35.9691835762774
20
-0.854148151762416
30
0
41
1
10
36.6895353756067
20
-1.18476907780928
30
0
41
1
10
37.3544754980646
20
-1.48482319077951
30
0
41
1
10
38.0748272973939
20
-1.80270522076827
30
0
41
1
10
38.7951790967232
20
-2.11096422812415
30
0
41
1
10
39.5155308960526
20
-2.40894773508774
30
0
41
1
10
40.1804710185104
20
-2.67333115380276
30
0
41
1
10
40.7856096161713
20
-2.903027164648
30
0
41
1
10
41.2245131832179
20
-3.06278424392733
30
0
41
1
10
41.5525933965214
20
-3.17812427683319
30
0
41
1
10
41.7144385792104
20
-3.23400045593971
30
0
41
1
10
41.7654604081565
20
-3.25151295958702
30
0
0
SPLINE
5
13F
100
AcDbEntity
8
1
62
256
6
ByLayer
370
18
48
1
60
0
100
AcDbSpline
70
4
71
3
72
20
73
16
40
0
40
0
40
0
40
0
40
0.124999999999996
40
0.124999999999996
40
0.187499999999993
40
0.187499999999993
40
0.249999999999991
40
0.249999999999991
40
0.499999999999993
40
0.499999999999993
40
0.749999999999994
40
0.749999999999994
40
0.874999999999997
40
0.874999999999997
40
1
40
1
40
1
40
1
41
1
10
8.54206736063497
20
-3.2027397323728
30
0
41
1
10
8.44756678457952
20
-3.118955660193
30
0
41
1
10
8.35321226289551
20
-3.03399423608326
30
0
41
1
10
8.2119570231099
20
-2.90466996991947
30
0
41
1
10
8.16488957954613
20
-2.86122068683329
30
0
41
1
10
8.07108062863557
20
-2.77387408381378
30
0
41
1
10
8.02432362538644
20
-2.72996305470372
30
0
41
1
10
7.791322372015
20
-2.50917385193665
30
0
41
1
10
7.60738800653661
20
-2.32863604028177
30
0
41
1
10
7.24625166566167
20
-1.95796056307825
30
0
41
1
10
7.06902252977005
20
-1.76785165056575
30
0
41
1
10
6.81062145749496
20
-1.47306586773456
30
0
41
1
10
6.72574122176746
20
-1.37318663635605
30
0
41
1
10
6.5591284528191
20
-1.16953775844311
30
0
41
1
10
6.47739174927051
20
-1.06577241461648
30
0
41
1
10
6.3976789221615
20
-0.959599267483071
30
0
0
SPLINE
5
140
100
AcDbEntity
8
1
62
256
6
ByLayer
370
18
48
1
60
0
100
AcDbSpline
70
4
71
3
72
13
73
9
40
0
40
0
40
0
40
0
40
0.250000000000006
40
0.375000000000002
40
0.375000000000002
40
0.499999999999998
40
0.499999999999998
40
1
40
1
40
1
40
1
41
1
10
8.54206736063497
20
-3.20273973237315
30
0
41
1
10
8.56128852457886
20
-3.18459781505066
30
0
41
1
10
8.59232253956174
20
-3.15763860991834
30
0
41
1
10
8.62656444513303
20
-3.13104890928889
30
0
41
1
10
8.65009718896602
20
-3.11340362616872
30
0
41
1
10
8.66222904081781
20
-3.10461265066155
30
0
41
1
10
8.72438813458467
20
-3.06102570268183
30
0
41
1
10
8.77898704263612
20
-3.02725347673908
30
0
41
1
10
8.8379840109211
20
-2.99447191124514
30
0
0
SPLINE
5
141
100
AcDbEntity
8
1
62
256
6
ByLayer
370
18
48
1
60
0
100
AcDbSpline
70
4
71
3
72
23
73
19
40
0
40
0
40
0
40
0
40
0.125
40
0.125
40
0.249999999999999
40
0.249999999999999
40
0.374999999999999
40
0.374999999999999
40
0.437499999999999
40
0.437499999999999
40
0.499999999999999
40
0.499999999999999
40
0.624999999999999
40
0.624999999999999
40
0.749999999999999
40
0.749999999999999
40
0.875
40
1
40
1
40
1
40
1
41
1
10
8.83798401092145
20
-2.9944719112452
30
0
41
1
10
8.99026377199831
20
-3.13440265957803
30
0
41
1
10
9.14394144989706
20
-3.27058609444265
30
0
41
1
10
9.45378802563036
20
-3.53602738573386
30
0
41
1
10
9.60995995846534
20
-3.66527877884857
30
0
41
1
10
9.92477250821682
20
-3.9171195038235
30
0
41
1
10
10.0834124332029
20
-4.03971294154749
30
0
41
1
10
10.3233794577552
20
-4.21863512724505
30
0
41
1
10
10.4037048606599
20
-4.277445696912
30
0
41
1
10
10.5650760313712
20
-4.39338677063296
30
0
41
1
10
10.646173991814
20
-4.45055281512325
30
0
41
1
10
10.8901740884247
20
-4.61916149649628
30
0
41
1
10
11.0537722236236
20
-4.72771949146198
30
0
41
1
10
11.3833770742157
20
-4.93696859380577
30
0
41
1
10
11.5493842364049
20
-5.03765804406456
30
0
41
1
10
11.8844936721773
20
-5.23088585077542
30
0
41
1
10
12.2227000547658
20
-5.41595448857365
30
0
41
1
10
12.568714473692
20
-5.58408248586235
30
0
41
1
10
12.7441352189022
20
-5.66374669339098
30
0
0
SPLINE
5
142
100
AcDbEntity
8
1
62
256
6
ByLayer
370
18
48
1
60
0
100
AcDbSpline
70
4
71
3
72
14
73
10
40
0
40
0
40
0
40
0
40
0.163860566972036
40
0.327721133944072
40
0.491581700916109
40
0.655442267888145
40
0.819302834860182
40
0.983163401832218
40
1
40
1
40
1
40
1
41
1
10
13.2503960589674
20
-2.10382587840021
30
0
41
1
10
13.208079463178
20
-2.28739487864129
30
0
41
1
10
13.0449632583588
20
-2.64541774958536
30
0
41
1
10
12.845929331542
20
-3.21724020605217
30
0
41
1
10
12.6883336429552
20
-3.80935580656174
30
0
41
1
10
12.5999550508152
20
-4.41274614843536
30
0
41
1
10
12.6046742961807
20
-5.01696834754492
30
0
41
1
10
12.6784478994102
20
-5.43177719387697
30
0
41
1
10
12.7383296175061
20
-5.64407174809958
30
0
41
1
10
12.744088506816
20
-5.66380635514099
30
0
0
SPLINE
5
143
100
AcDbEntity
8
1
62
256
6
ByLayer
370
18
48
1
60
0
100
AcDbSpline
70
4
71
3
72
29
73
25
40
0
40
0
40
0
40
0
40
0.0191269419289758
40
0.0398084976086086
40
0.0623705053239495
40
0.0870644798621164
40
0.114082463371182
40
0.143571130381324
40
0.175643277965603
40
0.210386551583215
40
0.247869865684866
40
0.288148074346961
40
0.33126536727846
40
0.377257752749464
40
0.426154888878258
40
0.47798144830331
40
0.532758146375786
40
0.590502524449737
40
0.651229553110069
40
0.714952101615377
40
0.781681306882354
40
0.851426866258441
40
0.924197271902593
40
1
40
1
40
1
40
1
41
1
10
13.2665900462214
20
-2.13784955251009
30
0
41
1
10
13.2667666993141
20
-2.13738825988563
30
0
41
1
10
13.2671343636404
20
-2.13642818135321
30
0
41
1
10
13.2674120218267
20
-2.13485312994234
30
0
41
1
10
13.2675214341046
20
-2.13312688174528
30
0
41
1
10
13.2674381058995
20
-2.13123968162589
30
0
41
1
10
13.2671706263415
20
-2.12919354747783
30
0
41
1
10
13.2667168616185
20
-2.12698698996746
30
0
41
1
10
13.266077610491
20
-2.1246197891524
30
0
41
1
10
13.2652526052621
20
-2.12209152739808
30
0
41
1
10
13.2642418307493
20
-2.11940199725899
30
0
41
1
10
13.2630451736678
20
-2.11655103684725
30
0
41
1
10
13.261662551676
20
-2.11353854711493
30
0
41
1
10
13.260093884039
20
-2.11036446321
30
0
41
1
10
13.2583391032933
20
-2.10702874670883
30
0
41
1
10
13.2563981513029
20
-2.10353137705121
30
0
41
1
10
13.2542709804115
20
-2.09987234574425
30
0
41
1
10
13.251957546014
20
-2.09605165636049
30
0
41
1
10
13.2494578288597
20
-2.09206930748385
30
0
41
1
10
13.2467717394009
20
-2.08792535003522
30
0
41
1
10
13.2438994957868
20
-2.08361964960582
30
0
41
1
10
13.2408401083967
20
-2.07915283108923
30
0
41
1
10
13.2375974168212
20
-2.07452250955973
30
0
41
1
10
13.2353491488989
20
-2.07139690350948
30
0
41
1
10
13.2342020717813
20
-2.0698022042553
30
0
0
SPLINE
5
144
100
AcDbEntity
8
1
62
256
6
ByLayer
370
18
48
1
60
0
100
AcDbSpline
70
4
71
3
72
8
73
4
40
0
40
0
40
0
40
0
40
1
40
1
40
1
40
1
41
1
10
5.89767892214903
20
-0.427084112315413
30
0
41
1
10
5.74943601081958
20
-0.327164493076253
30
0
41
1
10
5.60231069042277
20
-0.223448512895061
30
0
41
1
10
5.45615409283391
20
-0.116016683704004
30
0
0
SPLINE
5
145
100
AcDbEntity
8
1
62
256
6
ByLayer
370
18
48
1
60
0
100
AcDbSpline
70
4
71
3
72
18
73
14
40
0
40
0
40
0
40
0
40
0.250000000000001
40
0.250000000000001
40
0.500000000000001
40
0.500000000000001
40
0.625000000000001
40
0.625000000000001
40
0.750000000000001
40
0.750000000000001
40
0.875
40
0.875
40
1
40
1
40
1
40
1
41
1
10
6.39767892216207
20
-0.95959926748219
30
0
41
1
10
6.35978770866657
20
-0.909130233432847
30
0
41
1
10
6.32138198532388
20
-0.85947659431298
30
0
41
1
10
6.24303011721702
20
-0.762382178149949
30
0
41
1
10
6.20309322852913
20
-0.714929551828874
30
0
41
1
10
6.14136517798201
20
-0.646209457111979
30
0
41
1
10
6.12048167856221
20
-0.623717271108859
30
0
41
1
10
6.07791565224099
20
-0.579788905462351
30
0
41
1
10
6.05616716645838
20
-0.558292461792519
30
0
41
1
10
6.0121260992907
20
-0.517155938030243
30
0
41
1
10
5.98980501412277
20
-0.497478765166335
30
0
41
1
10
5.94438446217802
20
-0.460400487105545
30
0
41
1
10
5.92128581734272
20
-0.442995780238903
30
0
41
1
10
5.89767892215284
20
-0.427084112304158
30
0
0
SPLINE
5
146
100
AcDbEntity
8
1
62
256
6
ByLayer
370
18
48
1
60
0
100
AcDbSpline
70
4
71
5
72
36
73
30
40
0
40
0
40
0
40
0
40
0
40
0
40
0.0311571698518046
40
0.0631100311657325
40
0.111039323136624
40
0.158968615107516
40
0.190921476421444
40
0.222874337735372
40
0.270803629706263
40
0.318732921677155
40
0.350685782991083
40
0.398615074961975
40
0.430567936275903
40
0.478497228246794
40
0.510450089560722
40
0.558379381531614
40
0.606308673502506
40
0.638261534816434
40
0.686190826787325
40
0.718143688101253
40
0.766072980072145
40
0.798025841386073
40
0.845955133356964
40
0.893884425327856
40
0.925837286641784
40
0.957790147955712
40
1
40
1
40
1
40
1
40
1
40
1
41
1
10
47.2043038784529
20
2.74490857183628
30
0
41
1
10
47.0962402524073
20
2.82412810523061
30
0
41
1
10
46.8773532726187
20
2.98380397733621
30
0
41
1
10
46.4922312622156
20
3.26180959864266
30
0
41
1
10
45.940874221198
20
3.65173510707183
30
0
41
1
10
45.2786938264376
20
4.10413181126125
30
0
41
1
10
44.6137537039797
20
4.54010333531207
30
0
41
1
10
43.8934019046504
20
4.99023880973647
30
0
41
1
10
43.173050105321
20
5.41626543514229
30
0
41
1
10
42.5081099828632
20
5.78555119547082
30
0
41
1
10
41.7877581835339
20
6.15764747860234
30
0
41
1
10
41.0674063842045
20
6.49697120331803
30
0
41
1
10
40.3470545848752
20
6.80482047879929
30
0
41
1
10
39.6821144624173
20
7.05870299739121
30
0
41
1
10
38.961762663088
20
7.29956980215661
30
0
41
1
10
38.2414108637586
20
7.50521915020136
30
0
41
1
10
37.5210590644293
20
7.67100849965413
30
0
41
1
10
36.8007072651
20
7.79972158139401
30
0
41
1
10
36.0803554657706
20
7.8869694150043
30
0
41
1
10
35.3600036664413
20
7.93608928708218
30
0
41
1
10
34.6950635439835
20
7.94603897838292
30
0
41
1
10
33.9747117446541
20
7.91842336585248
30
0
41
1
10
33.2543599453248
20
7.85253310312859
30
0
41
1
10
32.5340081459954
20
7.74489983369944
30
0
41
1
10
31.8690680235376
20
7.61099213460037
30
0
41
1
10
31.1685531805287
20
7.43423480525001
30
0
41
1
10
30.6342733681343
20
7.27375480130175
30
0
41
1
10
30.2662285863543
20
7.15132506412664
30
0
41
1
10
30.0090071583173
20
7.06007489835918
30
0
41
1
10
29.8626090840233
20
7.00632114906037
30
0
0
SPLINE
5
147
100
AcDbEntity
8
1
62
256
6
ByLayer
370
18
48
1
60
0
100
AcDbSpline
70
4
71
5
72
33
73
27
40
0
40
0
40
0
40
0
40
0
40
0
40
0.0162229722105172
40
0.0532253084344731
40
0.108728812770407
40
0.164232317106341
40
0.201234653330296
40
0.238236989554253
40
0.293740493890186
40
0.34924399822612
40
0.386246334450076
40
0.44174983878601
40
0.478752175009965
40
0.534255679345899
40
0.571258015569855
40
0.626761519905789
40
0.682265024241723
40
0.719267360465679
40
0.774770864801613
40
0.811773201025568
40
0.867276705361502
40
0.904279041585458
40
0.959782545921392
40
1
40
1
40
1
40
1
40
1
40
1
41
1
10
29.1751911324126
20
-7.87678254033875
30
0
41
1
10
29.1266027357998
20
-7.88146893690703
30
0
41
1
10
28.967190985444
20
-7.89610548719958
30
0
41
1
10
28.6415442044738
20
-7.92104819193625
30
0
41
1
10
28.1496623928891
20
-7.94338364204143
30
0
41
1
10
27.5469572275615
20
-7.9422498966203
30
0
41
1
10
26.8820171051037
20
-7.9055646914274
30
0
41
1
10
26.1616653057743
20
-7.8276510904434
30
0
41
1
10
25.441313506445
20
-7.71192053017981
30
0
41
1
10
24.7763733839871
20
-7.570632537053
30
0
41
1
10
24.0560215846578
20
-7.380979425379
30
0
41
1
10
23.3356697853284
20
-7.15212978711446
30
0
41
1
10
22.6153179859991
20
-6.88878079469561
30
0
41
1
10
21.9503778635412
20
-6.61489837906851
30
0
41
1
10
21.2300260642119
20
-6.28630552591022
30
0
41
1
10
20.5096742648826
20
-5.92725118910332
30
0
41
1
10
19.7893224655533
20
-5.53664608620053
30
0
41
1
10
19.0689706662239
20
-5.11928072461384
30
0
41
1
10
18.3486188668946
20
-4.67476861751251
30
0
41
1
10
17.6282670675652
20
-4.20778002362241
30
0
41
1
10
16.9633269451074
20
-3.75783604650641
30
0
41
1
10
16.242975145778
20
-3.25236108614081
30
0
41
1
10
15.5684056274579
20
-2.76417578872636
30
0
41
1
10
15.0046594628807
20
-2.34563564498859
30
0
41
1
10
14.6071483289179
20
-2.04620436742596
30
0
41
1
10
14.3204605486981
20
-1.82837163398636
30
0
41
1
10
14.2000077990928
20
-1.73654341589173
30
0
0
SPLINE
5
148
100
AcDbEntity
8
1
62
256
6
ByLayer
370
18
48
1
60
0
100
AcDbSpline
70
4
71
5
72
55
73
49
40
0
40
0
40
0
40
0
40
0
40
0
40
0.0177051152005473
40
0.0358623834389987
40
0.0630982857966755
40
0.0903341881543524
40
0.108491456392804
40
0.126648724631255
40
0.153884626988932
40
0.181120529346609
40
0.19927779758506
40
0.226513699942737
40
0.244670968181188
40
0.271906870538865
40
0.290064138777317
40
0.317300041134993
40
0.344535943492671
40
0.362693211731122
40
0.389929114088799
40
0.40808638232725
40
0.435322284684927
40
0.453479552923378
40
0.480715455281055
40
0.507951357638732
40
0.526108625877183
40
0.544265894115635
40
0.571501796473312
40
0.598737698830988
40
0.61689496706944
40
0.644130869427117
40
0.671366771784794
40
0.689524040023245
40
0.707681308261696
40
0.734917210619373
40
0.76215311297705
40
0.780310381215501
40
0.807546283573178
40
0.825703551811629
40
0.852939454169307
40
0.871096722407758
40
0.898332624765435
40
0.925568527123112
40
0.943725795361563
40
0.97096169771924
40
0.989118965957691
40
1
40
1
40
1
40
1
40
1
40
1
41
1
10
47.2043038784529
20
-6.48356526109049
30
0
41
1
10
47.0962402524073
20
-6.43485990678229
30
0
41
1
10
46.8773532726186
20
-6.33434808926231
30
0
41
1
10
46.4922312622155
20
-6.15096581100948
30
0
41
1
10
45.940874221198
20
-5.87240268379659
30
0
41
1
10
45.2786938264376
20
-5.51171525004199
30
0
41
1
10
44.6137537039797
20
-5.12493405492279
30
0
41
1
10
43.8934019046504
20
-4.68137083379673
30
0
41
1
10
43.173050105321
20
-4.2151909671669
30
0
41
1
10
42.5081099828631
20
-3.76585148533127
30
0
41
1
10
41.7877581835338
20
-3.26086556666203
30
0
41
1
10
41.0674063842044
20
-2.73862048359655
30
0
41
1
10
40.3470545848752
20
-2.20327276008277
30
0
41
1
10
39.6821144624173
20
-1.69915455685154
30
0
41
1
10
38.961762663088
20
-1.14495201449066
30
0
41
1
10
38.2414108637586
20
-0.585079084616751
30
0
41
1
10
37.5210590644293
20
-0.0220200635535548
30
0
41
1
10
36.8007072650999
20
0.541145386930225
30
0
41
1
10
36.0803554657705
20
1.10135819515966
30
0
41
1
10
35.3600036664413
20
1.65611115779532
30
0
41
1
10
34.6950635439834
20
2.16092958416078
30
0
41
1
10
33.9747117446541
20
2.69724027842963
30
0
41
1
10
33.2543599453247
20
3.22064855131274
30
0
41
1
10
32.5340081459954
20
3.7270115606801
30
0
41
1
10
31.8690680235376
20
4.17779548780956
30
0
41
1
10
31.1487162242082
20
4.64572004804052
30
0
41
1
10
30.4283644248789
20
5.09120019884963
30
0
41
1
10
29.763424302421
20
5.47990224938732
30
0
41
1
10
29.0430725030917
20
5.87451013961791
30
0
41
1
10
28.2673090268909
20
6.26579596939902
30
0
41
1
10
27.5469572275616
20
6.59588155932573
30
0
41
1
10
26.8820171051037
20
6.8711483897448
30
0
41
1
10
26.1616653057743
20
7.13601239966314
30
0
41
1
10
25.4413135064451
20
7.36640089610765
30
0
41
1
10
24.7763733839871
20
7.54630747316992
30
0
41
1
10
24.0560215846579
20
7.7047327157492
30
0
41
1
10
23.3356697853285
20
7.8221934177879
30
0
41
1
10
22.6153179859991
20
7.9018316537904
30
0
41
1
10
21.9503778635413
20
7.94011193670221
30
0
41
1
10
21.2300260642119
20
7.94320884289311
30
0
41
1
10
20.5096742648827
20
7.90791891572187
30
0
41
1
10
19.7893224655533
20
7.83059580663988
30
0
41
1
10
19.068970666224
20
7.71542509692654
30
0
41
1
10
18.3486188668946
20
7.55927043562528
30
0
41
1
10
17.7280894270155
20
7.39332617640738
30
0
41
1
10
17.273795017751
20
7.25340504360346
30
0
41
1
10
16.9303239622293
20
7.13734005613728
30
0
41
1
10
16.7530879373222
20
7.07475140853197
30
0
41
1
10
16.686675266158
20
7.05092199283473
30
0
0
SPLINE
5
149
100
AcDbEntity
8
1
62
256
6
ByLayer
370
18
48
1
60
0
100
AcDbSpline
70
4
71
3
72
22
73
18
40
0
40
0
40
0
40
0
40
0.250000000000002
40
0.250000000000002
40
0.312500000000003
40
0.312500000000003
40
0.375000000000005
40
0.375000000000005
40
0.500000000000004
40
0.500000000000004
40
0.625000000000003
40
0.625000000000003
40
0.750000000000002
40
0.750000000000002
40
0.875000000000001
40
0.875000000000001
40
1
40
1
40
1
40
1
41
1
10
8.94924598423046
20
-7.48684992825903
30
0
41
1
10
8.72548496748487
20
-7.5135247104196
30
0
41
1
10
8.50236885209432
20
-7.53134456593421
30
0
41
1
10
8.22468346014216
20
-7.54172836056739
30
0
41
1
10
8.16916714634706
20
-7.5432090103472
30
0
41
1
10
8.05857185813818
20
-7.54494553877734
30
0
41
1
10
8.00347952961113
20
-7.54520297707987
30
0
41
1
10
7.83886512400252
20
-7.54411837802425
30
0
41
1
10
7.73000171677251
20
-7.54092219189562
30
0
41
1
10
7.51436796662841
20
-7.52939563390939
30
0
41
1
10
7.40759628776897
20
-7.52106645528588
30
0
41
1
10
7.19661884793101
20
-7.49898532760776
30
0
41
1
10
7.09241074014599
20
-7.48523527284482
30
0
41
1
10
6.88722683188411
20
-7.45187673919526
30
0
41
1
10
6.78624671327418
20
-7.43227153893778
30
0
41
1
10
6.58847409226684
20
-7.38654564858876
30
0
41
1
10
6.49167302107796
20
-7.36043121337397
30
0
41
1
10
6.3976789221615
20
-7.33055219045076
30
0
0
SPLINE
5
14A
100
AcDbEntity
8
1
62
256
6
ByLayer
370
18
48
1
60
0
100
AcDbSpline
70
4
71
3
72
18
73
14
40
0
40
0
40
0
40
0
40
0.249999999999991
40
0.249999999999991
40
0.499999999999983
40
0.499999999999983
40
0.624999999999987
40
0.624999999999987
40
0.749999999999992
40
0.749999999999992
40
0.874999999999996
40
0.874999999999996
40
1
40
1
40
1
40
1
41
1
10
6.39767892216207
20
-7.33055219044891
30
0
41
1
10
6.35978770866649
20
-7.31850725944068
30
0
41
1
10
6.3213819853238
20
-7.30818026293559
30
0
41
1
10
6.2430301172169
20
-7.29172812599467
30
0
41
1
10
6.20309322852893
20
-7.28558370421317
30
0
41
1
10
6.14136517798181
20
-7.28068123244788
30
0
41
1
10
6.12048167856199
20
-7.27977369004913
30
0
41
1
10
6.07791565224068
20
-7.27975960505722
30
0
41
1
10
6.05616716645807
20
-7.28066025139211
30
0
41
1
10
6.0121260992903
20
-7.28472233580112
30
0
41
1
10
5.9898050141224
20
-7.28787600808508
30
0
41
1
10
5.9443844621776
20
-7.29703151579145
30
0
41
1
10
5.92128581734227
20
-7.30302810414992
30
0
41
1
10
5.89767892215238
20
-7.3108972495175
30
0
0
SPLINE
5
14B
100
AcDbEntity
8
1
62
256
6
ByLayer
370
18
48
1
60
0
100
AcDbSpline
70
4
71
3
72
12
73
8
40
0
40
0
40
0
40
0
40
0.499999999999997
40
0.499999999999997
40
0.749999999999999
40
0.749999999999999
40
1
40
1
40
1
40
1
41
1
10
7.85000000227711
20
2.48469372759283
30
0
41
1
10
7.85000000226884
20
2.52774316442048
30
0
41
1
10
7.85000000225966
20
2.56959574646061
30
0
41
1
10
7.85000000224457
20
2.63057452852257
30
0
41
1
10
7.85000000223931
20
2.65059984287473
30
0
41
1
10
7.85000000222837
20
2.69003608574673
30
0
41
1
10
7.85000000222266
20
2.70944652785701
30
0
41
1
10
7.85000000221675
20
2.7284065075427
30
0
0
SPLINE
5
14C
100
AcDbEntity
8
1
62
256
6
ByLayer
370
18
48
1
60
0
100
AcDbSpline
70
4
71
3
72
18
73
14
40
0
40
0
40
0
40
0
40
0.249999999999991
40
0.249999999999991
40
0.499999999999981
40
0.499999999999981
40
0.624999999999986
40
0.624999999999986
40
0.74999999999999
40
0.74999999999999
40
0.874999999999995
40
0.874999999999995
40
1
40
1
40
1
40
1
41
1
10
6.39767892216213
20
6.98036419703934
30
0
41
1
10
6.35978770866654
20
6.99967741683616
30
0
41
1
10
6.32138198532385
20
7.0202547164665
30
0
41
1
10
6.24303011721696
20
7.06436352676607
30
0
41
1
10
6.20309322852899
20
7.0878825483999
30
0
41
1
10
6.14136517798184
20
7.1260766162145
30
0
41
1
10
6.12048167856204
20
7.13929878351013
30
0
41
1
10
6.07791565224073
20
7.166941651435
30
0
41
1
10
6.05616716645812
20
7.18140773248999
30
0
41
1
10
6.01212609929036
20
7.21151024261087
30
0
41
1
10
5.98980501412242
20
7.22716199055697
30
0
41
1
10
5.94438446217765
20
7.25997930923819
30
0
41
1
10
5.92128581734229
20
7.27714171873927
30
0
41
1
10
5.89767892215244
20
7.29530154087308
30
0
0
SPLINE
5
14D
100
AcDbEntity
8
1
62
256
6
ByLayer
370
18
48
1
60
0
100
AcDbSpline
70
4
71
3
72
22
73
18
40
0
40
0
40
0
40
0
40
0.249999999999999
40
0.249999999999999
40
0.374999999999996
40
0.374999999999996
40
0.437499999999995
40
0.437499999999995
40
0.499999999999994
40
0.499999999999994
40
0.624999999999996
40
0.624999999999996
40
0.749999999999997
40
0.749999999999997
40
0.874999999999999
40
0.874999999999999
40
1
40
1
40
1
40
1
41
1
10
9.36295316313812
20
5.23000162778197
30
0
41
1
10
9.10378993262157
20
5.40712085992843
30
0
41
1
10
8.84553889642024
20
5.57746654100424
30
0
41
1
10
8.45964379415756
20
5.82212597582708
30
0
41
1
10
8.33127166162717
20
5.90187526751851
30
0
41
1
10
8.13924903281662
20
6.01874561754042
30
0
41
1
10
8.07542484708043
20
6.05718653332832
30
0
41
1
10
7.94841928055911
20
6.13289833321428
30
0
41
1
10
7.88520189883371
20
6.17019115672031
30
0
41
1
10
7.69648837413132
20
6.28038528252338
30
0
41
1
10
7.57192299239392
20
6.35160308429778
30
0
41
1
10
7.3258857795243
20
6.4895610868995
30
0
41
1
10
7.20441024318464
20
6.55630203208256
30
0
41
1
10
6.96544844058351
20
6.68528415328538
30
0
41
1
10
6.8479548514054
20
6.74752636076383
30
0
41
1
10
6.61830231935238
20
6.86742729618143
30
0
41
1
10
6.50612755389716
20
6.92508773402579
30
0
41
1
10
6.39767892216156
20
6.98036419704067
30
0
0
SPLINE
5
14E
100
AcDbEntity
8
1
62
256
6
ByLayer
370
18
48
1
60
0
100
AcDbSpline
70
4
71
3
72
12
73
8
40
0
40
0
40
0
40
0
40
0.25
40
0.25
40
0.5
40
0.5
40
1
40
1
40
1
40
1
41
1
10
7.48485994424556
20
2.72985475519451
30
0
41
1
10
7.5152569732777
20
2.73382867920373
30
0
41
1
10
7.54602377319361
20
2.73661044344857
30
0
41
1
10
7.60715949801696
20
2.74001845771713
30
0
41
1
10
7.63765601004849
20
2.74066440725878
30
0
41
1
10
7.72895922827041
20
2.73984027619406
30
0
41
1
10
7.7895811790294
20
2.73563188684113
30
0
41
1
10
7.85000000219583
20
2.72840650754426
30
0
0
SPLINE
5
14F
100
AcDbEntity
8
1
62
256
6
ByLayer
370
18
48
1
60
0
100
AcDbSpline
70
4
71
3
72
8
73
4
40
0
40
0
40
0
40
0
40
1
40
1
40
1
40
1
41
1
10
5.89767892214854
20
-7.31089724953162
30
0
41
1
10
5.74943601081927
20
-7.36031268555359
30
0
41
1
10
5.6023106904226
20
-7.40595434135346
30
0
41
1
10
5.45615409283388
20
-7.44770825414767
30
0
0
SPLINE
5
150
100
AcDbEntity
8
1
62
256
6
ByLayer
370
18
48
1
60
0
100
AcDbSpline
70
4
71
3
72
8
73
4
40
0
40
0
40
0
40
0
40
1
40
1
40
1
40
1
41
1
10
5.8976789221486
20
7.29530154088062
30
0
41
1
10
5.74943601081932
20
7.40933876943927
30
0
41
1
10
5.60231069042266
20
7.52186167018533
30
0
41
1
10
5.45615409283394
20
7.63270164133814
30
0
0
SPLINE
5
151
100
AcDbEntity
8
1
62
256
6
ByLayer
370
18
48
1
60
0
100
AcDbSpline
70
4
71
3
72
19
73
15
40
0
40
0
40
0
40
0
40
0.249999999999981
40
0.249999999999981
40
0.374999999999976
40
0.374999999999976
40
0.499999999999972
40
0.624999999999967
40
0.624999999999967
40
0.68749999999997
40
0.68749999999997
40
0.749999999999972
40
0.749999999999972
40
1
40
1
40
1
40
1
41
1
10
14.1999999996485
20
7.03185343605276
30
0
41
1
10
14.1044350968888
20
7.05383111016158
30
0
41
1
10
14.0108636173081
20
7.06861222274324
30
0
41
1
10
13.8726878019264
20
7.08002865348448
30
0
41
1
10
13.8269181955335
20
7.08203026043805
30
0
41
1
10
13.7365142435163
20
7.08233110209267
30
0
41
1
10
13.6471937763339
20
7.07894786898336
30
0
41
1
10
13.5597973962641
20
7.06804006276457
30
0
41
1
10
13.4948937939772
20
7.05691039137727
30
0
41
1
10
13.4733494527153
20
7.0527038256632
30
0
41
1
10
13.4306164864908
20
7.04331192879306
30
0
41
1
10
13.4094138405984
20
7.03812503251282
30
0
41
1
10
13.3041872948293
20
7.00968937825732
30
0
41
1
10
13.2225114399931
20
6.97900969240465
30
0
41
1
10
13.1430251003695
20
6.93928010862913
30
0
0
SPLINE
5
152
100
AcDbEntity
8
1
62
256
6
ByLayer
370
18
48
1
60
0
100
AcDbSpline
70
4
71
3
72
19
73
15
40
0
40
0
40
0
40
0
40
0.250000000000012
40
0.250000000000012
40
0.375000000000013
40
0.375000000000013
40
0.500000000000015
40
0.625000000000016
40
0.625000000000016
40
0.687500000000012
40
0.687500000000012
40
0.750000000000008
40
0.750000000000008
40
1
40
1
40
1
40
1
41
1
10
14.1999999996484
20
-1.73653762514806
30
0
41
1
10
14.1044350968887
20
-1.65582862930586
30
0
41
1
10
14.0108636173081
20
-1.57371503635616
30
0
41
1
10
13.8726878019264
20
-1.44932474792998
30
0
41
1
10
13.8269181955334
20
-1.40758550531561
30
0
41
1
10
13.7365142435163
20
-1.32431857513825
30
0
41
1
10
13.6471937763339
20
-1.24122040691736
30
0
41
1
10
13.5597973962641
20
-1.15874942106936
30
0
41
1
10
13.4948937939771
20
-1.09724987758668
30
0
41
1
10
13.4733494527153
20
-1.07679271069026
30
0
41
1
10
13.4306164864908
20
-1.0361636947849
30
0
41
1
10
13.4094138405984
20
-1.01597861023583
30
0
41
1
10
13.3041872948293
20
-0.915755698313205
30
0
41
1
10
13.2225114399931
20
-0.837795281830836
30
0
41
1
10
13.1430251003695
20
-0.762967335010046
30
0
0
SPLINE
5
153
100
AcDbEntity
8
1
62
256
6
ByLayer
370
18
48
1
60
0
100
AcDbSpline
70
4
71
3
72
14
73
10
40
0
40
0
40
0
40
0
40
0.25
40
0.25
40
0.5
40
0.5
40
0.75
40
0.75
40
1
40
1
40
1
40
1
41
1
10
6.39767892216088
20
2.41673421404468
30
0
41
1
10
6.48307233778411
20
2.45999566882563
30
0
41
1
10
6.57013432166201
20
2.49768303622991
30
0
41
1
10
6.74690991956729
20
2.56430611204533
30
0
41
1
10
6.83662886521944
20
2.5932230246452
30
0
41
1
10
7.01830258407051
20
2.64375252215879
30
0
41
1
10
7.11025987821958
20
2.66535624208521
30
0
41
1
10
7.2961350248876
20
2.70221251976955
30
0
41
1
10
7.39005420465372
20
2.7174604253286
30
0
41
1
10
7.48485994424547
20
2.72985475519468
30
0
0
SPLINE
5
154
100
AcDbEntity
8
1
62
256
6
ByLayer
370
18
48
1
60
0
100
AcDbSpline
70
4
71
3
72
17
73
13
40
0
40
0
40
0
40
0
40
0.249999999999992
40
0.249999999999992
40
0.374999999999987
40
0.374999999999987
40
0.499999999999983
40
0.624999999999978
40
0.624999999999978
40
0.749999999999973
40
0.749999999999973
40
1
40
1
40
1
40
1
41
1
10
5.89767892216076
20
2.35039281943617
30
0
41
1
10
5.9367340125674
20
2.33499841755844
30
0
41
1
10
5.97729919577105
20
2.32576328410036
30
0
41
1
10
6.04045240194947
20
2.32067792165114
30
0
41
1
10
6.06200497647944
20
2.32046138414412
30
0
41
1
10
6.1048121931847
20
2.32274465647606
30
0
41
1
10
6.14753136476645
20
2.32769384201231
30
0
41
1
10
6.19016093785757
20
2.33725854379961
30
0
41
1
10
6.23278385809161
20
2.34884705763452
30
0
41
1
10
6.25385470012731
20
2.35558751697934
30
0
41
1
10
6.31641944194917
20
2.37814623126781
30
0
41
1
10
6.35731474595923
20
2.39628517858893
30
0
41
1
10
6.39767892216145
20
2.41673421404212
30
0
0
SPLINE
5
155
100
AcDbEntity
8
1
62
256
6
ByLayer
370
18
48
1
60
0
100
AcDbSpline
70
4
71
3
72
8
73
4
40
0
40
0
40
0
40
0
40
1
40
1
40
1
40
1
41
1
10
5.45615409283371
20
2.51375229648969
30
0
41
1
10
5.60395080212709
20
2.46277671017509
30
0
41
1
10
5.75111804907681
20
2.40816293227706
30
0
41
1
10
5.89767892216076
20
2.35039281943617
30
0
0
SPLINE
5
156
100
AcDbEntity
8
1
62
256
6
ByLayer
370
18
48
1
60
0
100
AcDbSpline
70
4
71
2
72
6
73
3
40
0
40
0
40
0
40
1
40
1
40
1
41
1
10
14.0608951689036
20
7.50610440214959
30
0
41
1
10
13.5529121254269
20
7.45825676897712
30
0
41
1
10
13.1430251002626
20
7.14517483755634
30
0
0
SPLINE
5
157
100
AcDbEntity
8
1
62
256
6
ByLayer
370
18
48
1
60
0
100
AcDbSpline
70
4
71
1
72
4
73
2
40
0
40
0
40
1
40
1
41
1
10
13.1430251002596
20
7.14492441996981
30
0
41
1
10
10.8047661999432
20
7.26694562656093
30
0
0
SPLINE
5
158
100
AcDbEntity
8
1
62
256
6
ByLayer
370
18
48
1
60
0
100
AcDbSpline
70
4
71
3
72
17
73
13
40
0
40
0
40
0
40
0
40
0.143720093580741
40
0.253827537266228
40
0.330411091815913
40
0.37728995797656
40
0.420081105626673
40
0.463634152687508
40
0.531715271804608
40
0.636475254247518
40
0.792604768714966
40
1
40
1
40
1
40
1
41
1
10
16.937849922524
20
-7.87706168682033
30
0
41
1
10
17.1040940730213
20
-7.86104463875091
30
0
41
1
10
17.3977442420197
20
-7.83282139305209
30
0
41
1
10
17.780036666567
20
-7.79620329873782
30
0
41
1
10
18.0503968359087
20
-7.77042947257806
30
0
41
1
10
18.2424060371818
20
-7.75223449922336
30
0
41
1
10
18.3963242173666
20
-7.73769056850406
30
0
41
1
10
18.5748775096307
20
-7.7208679970766
30
0
41
1
10
18.825246470417
20
-7.69737664682319
30
0
41
1
10
19.2058764945575
20
-7.661889655485
30
0
41
1
10
19.7476723199182
20
-7.61192001676528
30
0
41
1
10
20.1682789680862
20
-7.57416342763347
30
0
41
1
10
20.4082410714415
20
-7.55291606125755
30
0
0
SPLINE
5
159
100
AcDbEntity
8
1
62
256
6
ByLayer
370
18
48
1
60
0
100
AcDbSpline
70
4
71
3
72
17
73
13
40
0
40
0
40
0
40
0
40
0.154141980198171
40
0.262705183461042
40
0.335698704326286
40
0.416884894358516
40
0.511309765684365
40
0.59652902931822
40
0.659370911550361
40
0.729892235664732
40
0.8434011174736
40
1
40
1
40
1
40
1
41
1
10
40.0798525452326
20
7.50751601195051
30
0
41
1
10
39.8753939832268
20
7.52516259511617
30
0
41
1
10
39.5265647567855
20
7.55569449262944
30
0
41
1
10
39.0797999231685
20
7.5956003395336
30
0
41
1
10
38.7299660406709
20
7.62750790065914
30
0
41
1
10
38.3989603327533
20
7.65799564042072
30
0
41
1
10
38.0517338981165
20
7.69033124462305
30
0
41
1
10
37.7289315735358
20
7.72065112197683
30
0
41
1
10
37.4382946741225
20
7.74810766093498
30
0
41
1
10
37.1100116628885
20
7.77923965974611
30
0
41
1
10
36.6565456791017
20
7.82246480117681
30
0
41
1
10
36.2970817853443
20
7.85694933142059
30
0
41
1
10
36.0886469841043
20
7.87702279452418
30
0
0
SPLINE
5
15A
100
AcDbEntity
8
1
62
256
6
ByLayer
370
18
48
1
60
0
100
AcDbSpline
70
4
71
3
72
17
73
13
40
0
40
0
40
0
40
0
40
0.141559931057634
40
0.261704518517951
40
0.360549336281819
40
0.435171748392039
40
0.497940047390318
40
0.561134375883013
40
0.636297075223452
40
0.734906328041356
40
0.855250486937784
40
1
40
1
40
1
40
1
41
1
10
29.1730344915035
20
-7.87700509877033
30
0
41
1
10
29.383590929798
20
-7.85642987166474
30
0
41
1
10
29.7742809195319
20
-7.81861624134962
30
0
41
1
10
30.3220963778387
20
-7.76660623101307
30
0
41
1
10
30.7619023551045
20
-7.72536151845841
30
0
41
1
10
31.119547415297
20
-7.69170871720482
30
0
41
1
10
31.4226115726039
20
-7.66360762025587
30
0
41
1
10
31.7264553442565
20
-7.6356726316011
30
0
41
1
10
32.0854027988254
20
-7.60292811296094
30
0
41
1
10
32.5255333646838
20
-7.5625196582985
30
0
41
1
10
33.0799271734247
20
-7.51353333768191
30
0
41
1
10
33.4721422876937
20
-7.48033286285951
30
0
41
1
10
33.6847025981878
20
-7.46279862794583
30
0
0
SPLINE
5
15B
100
AcDbEntity
8
1
62
256
6
ByLayer
370
18
48
1
60
0
100
AcDbSpline
70
4
71
1
72
4
73
2
40
0
40
0
40
1
40
1
41
1
10
14.2720012714751
20
7.52877251026092
30
0
41
1
10
14.2086544417667
20
7.53345956151904
30
0
0
SPLINE
5
15C
100
AcDbEntity
8
1
62
256
6
ByLayer
370
18
48
1
60
0
100
AcDbSpline
70
4
71
3
72
17
73
13
40
0
40
0
40
0
40
0
40
0.145473969496759
40
0.257170774237458
40
0.334784770623241
40
0.382622719293392
40
0.426227944811036
40
0.469653373310101
40
0.536207699478623
40
0.639435533132363
40
0.793719899746203
40
1
40
1
40
1
40
1
41
1
10
42.4716262587037
20
-7.87706133817417
30
0
41
1
10
42.6398819694215
20
-7.86085124125844
30
0
41
1
10
42.9373660939642
20
-7.83227362342845
30
0
41
1
10
43.3246502084665
20
-7.79523792872385
30
0
41
1
10
43.5991206467615
20
-7.76911549136321
30
0
41
1
10
43.7943216596447
20
-7.75062370609606
30
0
41
1
10
43.9501159704689
20
-7.73589931686521
30
0
41
1
10
44.127660195645
20
-7.71916977192754
30
0
41
1
10
44.3743046322693
20
-7.69603400050576
30
0
41
1
10
44.7491637289614
20
-7.66115398757398
30
0
41
1
10
45.2856555952836
20
-7.6117934481419
30
0
41
1
10
45.70281329634
20
-7.57423696455092
30
0
41
1
10
45.9414884379162
20
-7.55299784077874
30
0
0
SPLINE
5
15D
100
AcDbEntity
8
1
62
256
6
ByLayer
370
18
48
1
60
0
100
AcDbSpline
70
4
71
3
72
17
73
13
40
0
40
0
40
0
40
0
40
0.131023437932584
40
0.2233239067058
40
0.312023992208869
40
0.384003410552883
40
0.442119645153234
40
0.536919324740114
40
0.65354068943963
40
0.737537053233564
40
0.849090000338684
40
1
40
1
40
1
40
1
41
1
10
27.3015976043675
20
7.46266351957348
30
0
41
1
10
27.1168176205228
20
7.47739375610018
30
0
41
1
10
26.7958107213129
20
7.5040722762667
30
0
41
1
10
26.3126442095508
20
7.54681840237899
30
0
41
1
10
25.9436027273997
20
7.58118577667202
30
0
41
1
10
25.6111104693137
20
7.61106688442592
30
0
41
1
10
25.2704794759744
20
7.64230289468077
30
0
41
1
10
24.8622154511479
20
7.68002138148998
30
0
41
1
10
24.4130575702333
20
7.72210028165094
30
0
41
1
10
23.9408722108219
20
7.76649828382673
30
0
41
1
10
23.4142035790909
20
7.81681308310453
30
0
41
1
10
23.0174448902259
20
7.85497201671254
30
0
41
1
10
22.7895712387693
20
7.87702666096979
30
0
0
LINE
5
79
100
AcDbEntity
8
80
62
256
6
ByLayer
370
18
48
1
60
0
100
AcDbLine
10
0
20
0
30
0
11
-5
21
0
31
0
39
0
210
0
220
0
230
1
0
LINE
5
7A
100
AcDbEntity
8
4
62
256
6
ByLayer
370
18
48
0.05
60
0
100
AcDbLine
10
0
20
0
30
0
11
47.6
21
0
31
0
39
0
210
0
220
0
230
1
0
LINE
5
7C
100
AcDbEntity
8
81
62
256
6
ByLayer
370
18
48
1
60
0
100
AcDbLine
10
47.6
20
0
30
0
11
52.6
21
0
31
0
39
0
210
0
220
0
230
1
0
LINE
5
7D
100
AcDbEntity
8
SK4
62
256
6
ByLayer
370
18
48
0.05
60
0
100
AcDbLine
10
-48.4
20
0
30
0
11
47.6
21
0
31
0
39
0
210
0
220
0
230
1
0
LINE
5
7F
100
AcDbEntity
8
1
62
256
6
ByLayer
370
18
48
1
60
0
100
AcDbLine
10
0
20
7.9375
30
0
11
0
21
0
31
0
39
0
210
0
220
0
230
1
0
LINE
5
80
100
AcDbEntity
8
1
62
256
6
ByLayer
370
18
48
1
60
0
100
AcDbLine
10
0
20
0
30
0
11
0
21
-7.9375
31
0
39
0
210
0
220
0
230
1
0
LINE
5
81
100
AcDbEntity
8
1
62
256
6
ByLayer
370
18
48
1
60
0
100
AcDbLine
10
47.586939
20
2.538111
30
0
11
47.424432
21
1.306074
31
0
39
0
210
0
220
0
230
1
0
LINE
5
82
100
AcDbEntity
8
1
62
256
6
ByLayer
370
18
48
1
60
0
100
AcDbLine
10
47.424432
20
1.306074
30
0
11
47.211063
21
-0.113009
31
0
39
0
210
0
220
0
230
1
0
LINE
5
83
100
AcDbEntity
8
1
62
256
6
ByLayer
370
18
48
1
60
0
100
AcDbLine
10
47.576105
20
2.540005
30
0
11
47.586939
21
2.538111
31
0
39
0
210
0
220
0
230
1
0
LINE
5
84
100
AcDbEntity
8
1
62
256
6
ByLayer
370
18
48
1
60
0
100
AcDbLine
10
47.331594
20
0.834193
30
0
11
47.586939
21
2.538111
31
0
39
0
210
0
220
0
230
1
0
LINE
5
85
100
AcDbEntity
8
1
62
256
6
ByLayer
370
18
48
1
60
0
100
AcDbLine
10
46.72278
20
-1.567778
30
0
11
47.211063
21
-0.113009
31
0
39
0
210
0
220
0
230
1
0
LINE
5
86
100
AcDbEntity
8
1
62
256
6
ByLayer
370
18
48
1
60
0
100
AcDbLine
10
47.211063
20
-0.113009
30
0
11
47.331594
21
0.834193
31
0
39
0
210
0
220
0
230
1
0
LINE
5
87
100
AcDbEntity
8
1
62
256
6
ByLayer
370
18
48
1
60
0
100
AcDbLine
10
46.99744
20
0.674168
30
0
11
47.331594
21
0.834193
31
0
39
0
210
0
220
0
230
1
0
LINE
5
88
100
AcDbEntity
8
1
62
256
6
ByLayer
370
18
48
1
60
0
100
AcDbLine
10
47.586939
20
-6.365138
30
0
11
47.424432
21
-6.989544
31
0
39
0
210
0
220
0
230
1
0
LINE
5
89
100
AcDbEntity
8
1
62
256
6
ByLayer
370
18
48
1
60
0
100
AcDbLine
10
47.584491
20
-6.328194
30
0
11
47.586939
21
-6.365138
31
0
39
0
210
0
220
0
230
1
0
LINE
5
8A
100
AcDbEntity
8
1
62
256
6
ByLayer
370
13
48
1
60
0
100
AcDbLine
10
46.532731
20
0.56003
30
0
11
46.344868
21
0.111964
31
0
39
0
210
0
220
0
230
1
0
LINE
5
8B
100
AcDbEntity
8
1
62
256
6
ByLayer
370
18
48
1
60
0
100
AcDbLine
10
47.424432
20
-6.989544
30
0
11
47.369926
21
-7.107395
31
0
39
0
210
0
220
0
230
1
0
LINE
5
8C
100
AcDbEntity
8
1
62
256
6
ByLayer
370
18
48
1
60
0
100
AcDbLine
10
47.424432
20
-6.989544
30
0
11
47.390998
21
-6.469513
31
0
39
0
210
0
220
0
230
1
0
LINE
5
8D
100
AcDbEntity
8
1
62
256
6
ByLayer
370
18
48
1
60
0
100
AcDbLine
10
47.362044
20
7.920929
30
0
11
47.586939
21
7.696483
31
0
39
0
210
0
220
0
230
1
0
LINE
5
8E
100
AcDbEntity
8
1
62
256
6
ByLayer
370
18
48
1
60
0
100
AcDbLine
10
47.383113
20
3.895697
30
0
11
47.586939
21
7.696483
31
0
39
0
210
0
220
0
230
1
0
LINE
5
8F
100
AcDbEntity
8
1
62
256
6
ByLayer
370
13
48
1
60
0
100
AcDbLine
10
46.611217
20
0.98324
30
0
11
46.99744
21
0.674168
31
0
39
0
210
0
220
0
230
1
0
LINE
5
90
100
AcDbEntity
8
1
62
256
6
ByLayer
370
18
48
1
60
0
100
AcDbLine
10
47.334656
20
-2.382427
30
0
11
47.586939
21
-6.326433
31
0
39
0
210
0
220
0
230
1
0
LINE
5
91
100
AcDbEntity
8
1
62
256
6
ByLayer
370
18
48
1
60
0
100
AcDbLine
10
47.211063
20
-2.124563
30
0
11
47.326785
21
-2.326167
31
0
39
0
210
0
220
0
230
1
0
LINE
5
92
100
AcDbEntity
8
1
62
256
6
ByLayer
370
18
48
1
60
0
100
AcDbLine
10
47.362044
20
-6.490683
30
0
11
47.586939
21
-6.326433
31
0
39
0
210
0
220
0
230
1
0
LINE
5
93
100
AcDbEntity
8
1
62
256
6
ByLayer
370
18
48
1
60
0
100
AcDbLine
10
47.586939
20
-6.326433
30
0
11
47.424432
21
-5.515617
31
0
39
0
210
0
220
0
230
1
0
LINE
5
94
100
AcDbEntity
8
1
62
256
6
ByLayer
370
18
48
1
60
0
100
AcDbLine
10
47.424432
20
-5.515617
30
0
11
47.369926
21
-5.423063
31
0
39
0
210
0
220
0
230
1
0
LINE
5
95
100
AcDbEntity
8
1
62
256
6
ByLayer
370
18
48
1
60
0
100
AcDbLine
10
47.424432
20
-5.515617
30
0
11
47.211063
21
-2.124563
31
0
39
0
210
0
220
0
230
1
0
LINE
5
96
100
AcDbEntity
8
1
62
256
6
ByLayer
370
18
48
1
60
0
100
AcDbLine
10
46.594032
20
-1.420984
30
0
11
47.211063
21
-2.124563
31
0
39
0
210
0
220
0
230
1
0
LINE
5
97
100
AcDbEntity
8
1
62
256
6
ByLayer
370
18
48
1
60
0
100
AcDbLine
10
7.85
20
2.728407
30
0
11
7.85
21
5.230002
31
0
39
0
210
0
220
0
230
1
0
LINE
5
98
100
AcDbEntity
8
1
62
256
6
ByLayer
370
18
48
1
60
0
100
AcDbLine
10
7.85
20
5.230002
30
0
11
9.362953
21
5.230002
31
0
39
0
210
0
220
0
230
1
0
LINE
5
99
100
AcDbEntity
8
1
62
256
6
ByLayer
370
18
48
1
60
0
100
AcDbLine
10
47.586939
20
2.602526
30
0
11
47.424432
21
3.759058
31
0
39
0
210
0
220
0
230
1
0
LINE
5
9A
100
AcDbEntity
8
1
62
256
6
ByLayer
370
18
48
1
60
0
100
AcDbLine
10
47.424432
20
3.759058
30
0
11
47.369926
21
3.939264
31
0
39
0
210
0
220
0
230
1
0
LINE
5
9B
100
AcDbEntity
8
1
62
256
6
ByLayer
370
18
48
1
60
0
100
AcDbLine
10
47.362044
20
2.713766
30
0
11
47.586939
21
2.602526
31
0
39
0
210
0
220
0
230
1
0
LINE
5
9C
100
AcDbEntity
8
1
62
256
6
ByLayer
370
13
48
1
60
0
100
AcDbLine
10
46.02213
20
2.134648
30
0
11
46.971159
21
1.12207
31
0
39
0
210
0
220
0
230
1
0
LINE
5
9D
100
AcDbEntity
8
1
62
256
6
ByLayer
370
18
48
1
60
0
100
AcDbLine
10
47.337383
20
1.162073
30
0
11
46.971159
21
1.12207
31
0
39
0
210
0
220
0
230
1
0
LINE
5
9E
100
AcDbEntity
8
1
62
256
6
ByLayer
370
18
48
1
60
0
100
AcDbLine
10
47.337383
20
1.162073
30
0
11
47.586939
21
2.602526
31
0
39
0
210
0
220
0
230
1
0
LINE
5
9F
100
AcDbEntity
8
1
62
256
6
ByLayer
370
18
48
1
60
0
100
AcDbLine
10
7.85
20
-5.589407
30
0
11
7.85
21
-3.20274
31
0
39
0
210
0
220
0
230
1
0
LINE
5
A0
100
AcDbEntity
8
1
62
256
6
ByLayer
370
18
48
1
60
0
100
AcDbLine
10
7.85
20
-3.20274
30
0
11
8.542067
21
-3.20274
31
0
39
0
210
0
220
0
230
1
0
LINE
5
A1
100
AcDbEntity
8
1
62
256
6
ByLayer
370
13
48
1
60
0
100
AcDbLine
10
6.397679
20
-0.959599
30
0
11
6.397679
21
-5.806664
31
0
39
0
210
0
220
0
230
1
0
LINE
5
A2
100
AcDbEntity
8
1
62
256
6
ByLayer
370
13
48
1
60
0
100
AcDbLine
10
5.897679
20
-5.982564
30
0
11
5.897679
21
-0.427084
31
0
39
0
210
0
220
0
230
1
0
LINE
5
A3
100
AcDbEntity
8
1
62
256
6
ByLayer
370
13
48
1
60
0
100
AcDbLine
10
6.397679
20
-7.545
30
0
11
6.397679
21
-7.330552
31
0
39
0
210
0
220
0
230
1
0
LINE
5
A4
100
AcDbEntity
8
1
62
256
6
ByLayer
370
13
48
1
60
0
100
AcDbLine
10
6.397679
20
6.980364
30
0
11
6.397679
21
2.416734
31
0
39
0
210
0
220
0
230
1
0
LINE
5
A5
100
AcDbEntity
8
1
62
256
6
ByLayer
370
18
48
1
60
0
100
AcDbLine
10
5.456154
20
2.513752
30
0
11
5.456154
21
-0.116017
31
0
39
0
210
0
220
0
230
1
0
LINE
5
A6
100
AcDbEntity
8
1
62
256
6
ByLayer
370
13
48
1
60
0
100
AcDbLine
10
5.897679
20
-7.310897
30
0
11
5.897679
21
-7.678975
31
0
39
0
210
0
220
0
230
1
0
LINE
5
A7
100
AcDbEntity
8
1
62
256
6
ByLayer
370
18
48
1
60
0
100
AcDbLine
10
5.456154
20
-6.12447
30
0
11
5.456154
21
-7.447708
31
0
39
0
210
0
220
0
230
1
0
LINE
5
A8
100
AcDbEntity
8
1
62
256
6
ByLayer
370
13
48
1
60
0
100
AcDbLine
10
5.897679
20
2.350393
30
0
11
5.897679
21
7.295302
31
0
39
0
210
0
220
0
230
1
0
LINE
5
A9
100
AcDbEntity
8
1
62
256
6
ByLayer
370
18
48
1
60
0
100
AcDbLine
10
5.456154
20
7.933889
30
0
11
5.456154
21
7.632702
31
0
39
0
210
0
220
0
230
1
0
LINE
5
AA
100
AcDbEntity
8
1
62
256
6
ByLayer
370
18
48
1
60
0
100
AcDbLine
10
5.4499
20
7.9375
30
0
11
5.4499
21
0
31
0
39
0
210
0
220
0
230
1
0
LINE
5
AB
100
AcDbEntity
8
1
62
256
6
ByLayer
370
18
48
1
60
0
100
AcDbLine
10
5.4499
20
0
30
0
11
5.4499
21
-7.9375
31
0
39
0
210
0
220
0
230
1
0
LINE
5
AC
100
AcDbEntity
8
SK1
62
256
6
ByLayer
370
18
48
1
60
0
100
AcDbLine
10
0
20
7.9375
30
0
11
0
21
0
31
0
39
0
210
0
220
0
230
1
0
LINE
5
AE
100
AcDbEntity
8
SK1
62
256
6
ByLayer
370
18
48
1
60
0
100
AcDbLine
10
0
20
0
30
0
11
0
21
-7.9375
31
0
39
0
210
0
220
0
230
1
0
LINE
5
AF
100
AcDbEntity
8
SK1
62
256
6
ByLayer
370
18
48
1
60
0
100
AcDbLine
10
-29.28
20
6.2865
30
0
11
-30.931
21
7.9375
31
0
39
0
210
0
220
0
230
1
0
LINE
5
B0
100
AcDbEntity
8
SK1
62
256
6
ByLayer
370
18
48
1
60
0
100
AcDbLine
10
-17.469
20
7.9375
30
0
11
-19.12
21
6.2865
31
0
39
0
210
0
220
0
230
1
0
LINE
5
B1
100
AcDbEntity
8
SK1
62
256
6
ByLayer
370
18
48
1
60
0
100
AcDbLine
10
-29.28
20
6.2865
30
0
11
-19.12
21
6.2865
31
0
39
0
210
0
220
0
230
1
0
LINE
5
B2
100
AcDbEntity
8
SK1
62
256
6
ByLayer
370
18
48
1
60
0
100
AcDbLine
10
-47.6
20
7.9375
30
0
11
-47.6
21
-7.9375
31
0
39
0
210
0
220
0
230
1
0
LINE
5
B3
100
AcDbEntity
8
SK1
62
256
6
ByLayer
370
18
48
1
60
0
100
AcDbLine
10
-48.4
20
-7.1375
30
0
11
-48.4
21
7.1375
31
0
39
0
210
0
220
0
230
1
0
LINE
5
B4
100
AcDbEntity
8
1
62
256
6
ByLayer
370
18
48
1
60
0
100
AcDbLine
10
5.4499
20
7.9375
30
0
11
0
21
7.9375
31
0
39
0
210
0
220
0
230
1
0
LINE
5
B5
100
AcDbEntity
8
1
62
256
6
ByLayer
370
18
48
1
60
0
100
AcDbLine
10
0
20
-7.9375
30
0
11
5.4499
21
-7.9375
31
0
39
0
210
0
220
0
230
1
0
LINE
5
B6
100
AcDbEntity
8
1
62
256
6
ByLayer
370
18
48
1
60
0
100
AcDbLine
10
6.397679
20
-7.545
30
0
11
8.002945
21
-7.545
31
0
39
0
210
0
220
0
230
1
0
LINE
5
B7
100
AcDbEntity
8
1
62
256
6
ByLayer
370
18
48
1
60
0
100
AcDbLine
10
5.456154
20
7.933889
30
0
11
5.4499
21
7.9375
31
0
39
0
210
0
220
0
230
1
0
LINE
5
B8
100
AcDbEntity
8
1
62
256
6
ByLayer
370
18
48
1
60
0
100
AcDbLine
10
5.4499
20
-7.9375
30
0
11
5.897679
21
-7.678975
31
0
39
0
210
0
220
0
230
1
0
LINE
5
B9
100
AcDbEntity
8
SK1
62
256
6
ByLayer
370
18
48
1
60
0
100
AcDbLine
10
0
20
7.9375
30
0
11
-17.469
21
7.9375
31
0
39
0
210
0
220
0
230
1
0
LINE
5
BA
100
AcDbEntity
8
SK1
62
256
6
ByLayer
370
18
48
1
60
0
100
AcDbLine
10
-30.931
20
7.9375
30
0
11
-47.6
21
7.9375
31
0
39
0
210
0
220
0
230
1
0
LINE
5
BB
100
AcDbEntity
8
SK1
62
256
6
ByLayer
370
18
48
1
60
0
100
AcDbLine
10
-47.6
20
-7.9375
30
0
11
0
21
-7.9375
31
0
39
0
210
0
220
0
230
1
0
LINE
5
BC
100
AcDbEntity
8
SK1
62
256
6
ByLayer
370
18
48
1
60
0
100
AcDbLine
10
-48.4
20
-7.1375
30
0
11
-47.6
21
-7.9375
31
0
39
0
210
0
220
0
230
1
0
LINE
5
BD
100
AcDbEntity
8
SK1
62
256
6
ByLayer
370
18
48
1
60
0
100
AcDbLine
10
-47.6
20
7.9375
30
0
11
-48.4
21
7.1375
31
0
39
0
210
0
220
0
230
1
0
LINE
5
BE
100
AcDbEntity
8
SK2
62
256
6
ByLayer
370
18
48
1
60
0
100
AcDbLine
10
-55.85
20
7.9375
30
0
11
-55.85
21
-32.642498
31
0
39
0
210
0
220
0
230
1
0
LINE
5
C0
100
AcDbEntity
8
SK2
62
256
6
ByLayer
370
18
48
1
60
0
100
AcDbLine
10
-49.1875
20
7.9375
30
0
11
-57.85
21
7.9375
31
0
39
0
210
0
220
0
230
1
0
LINE
5
C1
100
AcDbEntity
8
SK2
62
256
6
ByLayer
370
18
48
1
60
0
100
AcDbLine
10
-49.1875
20
-7.9375
30
0
11
-57.85
21
-7.9375
31
0
39
0
210
0
220
0
230
1
0
LINE
5
C2
100
AcDbEntity
8
1
62
256
6
ByLayer
370
18
48
1
60
1
100
AcDbLine
10
-55.85
20
7.9375
30
0
11
-55.389216
21
4.437502
31
0
39
0
210
0
220
0
230
1
0
LINE
5
C3
100
AcDbEntity
8
1
62
256
6
ByLayer
370
18
48
1
60
1
100
AcDbLine
10
-55.389216
20
4.437502
30
0
11
-56.310784
21
4.437498
31
0
39
0
210
0
220
0
230
1
0
LINE
5
C4
100
AcDbEntity
8
1
62
256
6
ByLayer
370
18
48
1
60
1
100
AcDbLine
10
-56.310784
20
4.437498
30
0
11
-55.85
21
7.9375
31
0
39
0
210
0
220
0
230
1
0
LINE
5
C5
100
AcDbEntity
8
1
62
256
6
ByLayer
370
18
48
1
60
1
100
AcDbLine
10
-55.85
20
-7.9375
30
0
11
-56.310784
21
-4.437502
31
0
39
0
210
0
220
0
230
1
0
LINE
5
C6
100
AcDbEntity
8
1
62
256
6
ByLayer
370
18
48
1
60
1
100
AcDbLine
10
-56.310784
20
-4.437502
30
0
11
-55.389216
21
-4.437498
31
0
39
0
210
0
220
0
230
1
0
LINE
5
C7
100
AcDbEntity
8
1
62
256
6
ByLayer
370
18
48
1
60
1
100
AcDbLine
10
-55.389216
20
-4.437498
30
0
11
-55.85
21
-7.9375
31
0
39
0
210
0
220
0
230
1
0
LINE
5
C8
100
AcDbEntity
8
SK2
62
256
6
ByLayer
370
13
48
1
60
0
100
AcDbLine
10
11.27495
20
-7.545
30
0
11
11.27495
21
36.249998
31
0
39
0
210
0
220
0
230
1
0
LINE
5
C9
100
AcDbEntity
8
SK2
62
256
6
ByLayer
370
13
48
1
60
0
100
AcDbLine
10
11.664721
20
7.545
30
0
11
9.27495
21
7.545
31
0
39
0
210
0
220
0
230
1
0
LINE
5
CA
100
AcDbEntity
8
SK2
62
256
6
ByLayer
370
13
48
1
60
0
100
AcDbLine
10
11.664721
20
-7.545
30
0
11
9.27495
21
-7.545
31
0
39
0
210
0
220
0
230
1
0
LINE
5
CB
100
AcDbEntity
8
1
62
256
6
ByLayer
370
18
48
1
60
1
100
AcDbLine
10
11.27495
20
7.545
30
0
11
11.735734
21
4.045002
31
0
39
0
210
0
220
0
230
1
0
LINE
5
CC
100
AcDbEntity
8
1
62
256
6
ByLayer
370
18
48
1
60
1
100
AcDbLine
10
11.735734
20
4.045002
30
0
11
10.814166
21
4.044998
31
0
39
0
210
0
220
0
230
1
0
LINE
5
CD
100
AcDbEntity
8
1
62
256
6
ByLayer
370
18
48
1
60
1
100
AcDbLine
10
10.814166
20
4.044998
30
0
11
11.27495
21
7.545
31
0
39
0
210
0
220
0
230
1
0
LINE
5
CE
100
AcDbEntity
8
1
62
256
6
ByLayer
370
18
48
1
60
1
100
AcDbLine
10
11.27495
20
-7.545
30
0
11
10.814166
21
-4.045002
31
0
39
0
210
0
220
0
230
1
0
LINE
5
CF
100
AcDbEntity
8
1
62
256
6
ByLayer
370
18
48
1
60
1
100
AcDbLine
10
10.814166
20
-4.045002
30
0
11
11.735734
21
-4.044998
31
0
39
0
210
0
220
0
230
1
0
LINE
5
D0
100
AcDbEntity
8
1
62
256
6
ByLayer
370
18
48
1
60
1
100
AcDbLine
10
11.735734
20
-4.044998
30
0
11
11.27495
21
-7.545
31
0
39
0
210
0
220
0
230
1
0
LINE
5
D1
100
AcDbEntity
8
2
62
256
6
ByLayer
370
18
48
1
60
0
100
AcDbLine
10
59.6
20
-7.9375
30
0
11
59.6
21
32.642498
31
0
39
0
210
0
220
0
230
1
0
LINE
5
D3
100
AcDbEntity
8
2
62
256
6
ByLayer
370
18
48
1
60
0
100
AcDbLine
10
49.1875
20
7.9375
30
0
11
61.6
21
7.9375
31
0
39
0
210
0
220
0
230
1
0
LINE
5
D4
100
AcDbEntity
8
2
62
256
6
ByLayer
370
18
48
1
60
0
100
AcDbLine
10
49.1875
20
-7.9375
30
0
11
61.6
21
-7.9375
31
0
39
0
210
0
220
0
230
1
0
LINE
5
D5
100
AcDbEntity
8
1
62
256
6
ByLayer
370
18
48
1
60
1
100
AcDbLine
10
59.6
20
7.9375
30
0
11
60.060784
21
4.437502
31
0
39
0
210
0
220
0
230
1
0
LINE
5
D6
100
AcDbEntity
8
1
62
256
6
ByLayer
370
18
48
1
60
1
100
AcDbLine
10
60.060784
20
4.437502
30
0
11
59.139216
21
4.437498
31
0
39
0
210
0
220
0
230
1
0
LINE
5
D7
100
AcDbEntity
8
1
62
256
6
ByLayer
370
18
48
1
60
1
100
AcDbLine
10
59.139216
20
4.437498
30
0
11
59.6
21
7.9375
31
0
39
0
210
0
220
0
230
1
0
LINE
5
D8
100
AcDbEntity
8
1
62
256
6
ByLayer
370
18
48
1
60
1
100
AcDbLine
10
59.6
20
-7.9375
30
0
11
59.139216
21
-4.437502
31
0
39
0
210
0
220
0
230
1
0
LINE
5
D9
100
AcDbEntity
8
1
62
256
6
ByLayer
370
18
48
1
60
1
100
AcDbLine
10
59.139216
20
-4.437502
30
0
11
60.060784
21
-4.437498
31
0
39
0
210
0
220
0
230
1
0
LINE
5
DA
100
AcDbEntity
8
1
62
256
6
ByLayer
370
18
48
1
60
1
100
AcDbLine
10
60.060784
20
-4.437498
30
0
11
59.6
21
-7.9375
31
0
39
0
210
0
220
0
230
1
0
LINE
5
DB
100
AcDbEntity
8
SK2
62
256
6
ByLayer
370
18
48
1
60
0
100
AcDbLine
10
47.6
20
-54.105233
30
0
11
-48.4
21
-54.105233
31
0
39
0
210
0
220
0
230
1
0
LINE
5
DC
100
AcDbEntity
8
SK2
62
256
6
ByLayer
370
18
48
1
60
0
100
AcDbLine
10
-48.4
20
-8.725
30
0
11
-48.4
21
-56.105233
31
0
39
0
210
0
220
0
230
1
0
LINE
5
DD
100
AcDbEntity
8
SK2
62
256
6
ByLayer
370
18
48
1
60
0
100
AcDbLine
10
47.6
20
-9.525
30
0
11
47.6
21
-56.105233
31
0
39
0
210
0
220
0
230
1
0
LINE
5
DE
100
AcDbEntity
8
1
62
256
6
ByLayer
370
18
48
1
60
1
100
AcDbLine
10
-48.4
20
-54.105233
30
0
11
-44.900002
21
-53.644449
31
0
39
0
210
0
220
0
230
1
0
LINE
5
DF
100
AcDbEntity
8
1
62
256
6
ByLayer
370
18
48
1
60
1
100
AcDbLine
10
-44.900002
20
-53.644449
30
0
11
-44.899998
21
-54.566017
31
0
39
0
210
0
220
0
230
1
0
LINE
5
E0
100
AcDbEntity
8
1
62
256
6
ByLayer
370
18
48
1
60
1
100
AcDbLine
10
-44.899998
20
-54.566017
30
0
11
-48.4
21
-54.105233
31
0
39
0
210
0
220
0
230
1
0
LINE
5
E1
100
AcDbEntity
8
1
62
256
6
ByLayer
370
18
48
1
60
1
100
AcDbLine
10
47.6
20
-54.105233
30
0
11
44.100002
21
-54.566017
31
0
39
0
210
0
220
0
230
1
0
LINE
5
E2
100
AcDbEntity
8
1
62
256
6
ByLayer
370
18
48
1
60
1
100
AcDbLine
10
44.100002
20
-54.566017
30
0
11
44.099998
21
-53.644449
31
0
39
0
210
0
220
0
230
1
0
LINE
5
E3
100
AcDbEntity
8
1
62
256
6
ByLayer
370
18
48
1
60
1
100
AcDbLine
10
44.099998
20
-53.644449
30
0
11
47.6
21
-54.105233
31
0
39
0
210
0
220
0
230
1
0
LINE
5
162
100
AcDbEntity
8
1
62
256
6
ByLayer
370
18
48
1
60
1
100
AcDbLine
10
-55.85
20
7.9375
30
0
11
-55.389216
21
4.437502
31
0
39
0
210
0
220
0
230
1
0
LINE
5
163
100
AcDbEntity
8
1
62
256
6
ByLayer
370
18
48
1
60
1
100
AcDbLine
10
-55.389216
20
4.437502
30
0
11
-56.310784
21
4.437498
31
0
39
0
210
0
220
0
230
1
0
LINE
5
164
100
AcDbEntity
8
1
62
256
6
ByLayer
370
18
48
1
60
1
100
AcDbLine
10
-56.310784
20
4.437498
30
0
11
-55.85
21
7.9375
31
0
39
0
210
0
220
0
230
1
0
LINE
5
166
100
AcDbEntity
8
1
62
256
6
ByLayer
370
18
48
1
60
1
100
AcDbLine
10
-55.85
20
-7.9375
30
0
11
-56.310784
21
-4.437502
31
0
39
0
210
0
220
0
230
1
0
LINE
5
167
100
AcDbEntity
8
1
62
256
6
ByLayer
370
18
48
1
60
1
100
AcDbLine
10
-56.310784
20
-4.437502
30
0
11
-55.389216
21
-4.437498
31
0
39
0
210
0
220
0
230
1
0
LINE
5
168
100
AcDbEntity
8
1
62
256
6
ByLayer
370
18
48
1
60
1
100
AcDbLine
10
-55.389216
20
-4.437498
30
0
11
-55.85
21
-7.9375
31
0
39
0
210
0
220
0
230
1
0
LINE
5
16C
100
AcDbEntity
8
1
62
256
6
ByLayer
370
18
48
1
60
1
100
AcDbLine
10
11.27495
20
7.545
30
0
11
11.735734
21
4.045002
31
0
39
0
210
0
220
0
230
1
0
LINE
5
16D
100
AcDbEntity
8
1
62
256
6
ByLayer
370
18
48
1
60
1
100
AcDbLine
10
11.735734
20
4.045002
30
0
11
10.814166
21
4.044998
31
0
39
0
210
0
220
0
230
1
0
LINE
5
16E
100
AcDbEntity
8
1
62
256
6
ByLayer
370
18
48
1
60
1
100
AcDbLine
10
10.814166
20
4.044998
30
0
11
11.27495
21
7.545
31
0
39
0
210
0
220
0
230
1
0
LINE
5
170
100
AcDbEntity
8
1
62
256
6
ByLayer
370
18
48
1
60
1
100
AcDbLine
10
11.27495
20
-7.545
30
0
11
10.814166
21
-4.045002
31
0
39
0
210
0
220
0
230
1
0
LINE
5
171
100
AcDbEntity
8
1
62
256
6
ByLayer
370
18
48
1
60
1
100
AcDbLine
10
10.814166
20
-4.045002
30
0
11
11.735734
21
-4.044998
31
0
39
0
210
0
220
0
230
1
0
LINE
5
172
100
AcDbEntity
8
1
62
256
6
ByLayer
370
18
48
1
60
1
100
AcDbLine
10
11.735734
20
-4.044998
30
0
11
11.27495
21
-7.545
31
0
39
0
210
0
220
0
230
1
0
LINE
5
176
100
AcDbEntity
8
1
62
256
6
ByLayer
370
18
48
1
60
1
100
AcDbLine
10
59.6
20
7.9375
30
0
11
60.060784
21
4.437502
31
0
39
0
210
0
220
0
230
1
0
LINE
5
177
100
AcDbEntity
8
1
62
256
6
ByLayer
370
18
48
1
60
1
100
AcDbLine
10
60.060784
20
4.437502
30
0
11
59.139216
21
4.437498
31
0
39
0
210
0
220
0
230
1
0
LINE
5
178
100
AcDbEntity
8
1
62
256
6
ByLayer
370
18
48
1
60
1
100
AcDbLine
10
59.139216
20
4.437498
30
0
11
59.6
21
7.9375
31
0
39
0
210
0
220
0
230
1
0
LINE
5
17A
100
AcDbEntity
8
1
62
256
6
ByLayer
370
18
48
1
60
1
100
AcDbLine
10
59.6
20
-7.9375
30
0
11
59.139216
21
-4.437502
31
0
39
0
210
0
220
0
230
1
0
LINE
5
17B
100
AcDbEntity
8
1
62
256
6
ByLayer
370
18
48
1
60
1
100
AcDbLine
10
59.139216
20
-4.437502
30
0
11
60.060784
21
-4.437498
31
0
39
0
210
0
220
0
230
1
0
LINE
5
17C
100
AcDbEntity
8
1
62
256
6
ByLayer
370
18
48
1
60
1
100
AcDbLine
10
60.060784
20
-4.437498
30
0
11
59.6
21
-7.9375
31
0
39
0
210
0
220
0
230
1
0
LINE
5
17F
100
AcDbEntity
8
1
62
256
6
ByLayer
370
18
48
1
60
1
100
AcDbLine
10
-48.4
20
-54.105233
30
0
11
-44.900002
21
-53.644449
31
0
39
0
210
0
220
0
230
1
0
LINE
5
180
100
AcDbEntity
8
1
62
256
6
ByLayer
370
18
48
1
60
1
100
AcDbLine
10
-44.900002
20
-53.644449
30
0
11
-44.899998
21
-54.566017
31
0
39
0
210
0
220
0
230
1
0
LINE
5
181
100
AcDbEntity
8
1
62
256
6
ByLayer
370
18
48
1
60
1
100
AcDbLine
10
-44.899998
20
-54.566017
30
0
11
-48.4
21
-54.105233
31
0
39
0
210
0
220
0
230
1
0
LINE
5
183
100
AcDbEntity
8
1
62
256
6
ByLayer
370
18
48
1
60
1
100
AcDbLine
10
47.6
20
-54.105233
30
0
11
44.100002
21
-54.566017
31
0
39
0
210
0
220
0
230
1
0
LINE
5
184
100
AcDbEntity
8
1
62
256
6
ByLayer
370
18
48
1
60
1
100
AcDbLine
10
44.100002
20
-54.566017
30
0
11
44.099998
21
-53.644449
31
0
39
0
210
0
220
0
230
1
0
LINE
5
185
100
AcDbEntity
8
1
62
256
6
ByLayer
370
18
48
1
60
1
100
AcDbLine
10
44.099998
20
-53.644449
30
0
11
47.6
21
-54.105233
31
0
39
0
210
0
220
0
230
1
0
MTEXT
5
15E
100
AcDbEntity
8
SK2
62
256
6
ByLayer
370
18
48
1
60
0
100
AcDbMText
10
-57.414634
20
-30.707654
30
0
210
0
220
0
230
1
1
%%c
40
3.5
41
0
44
1.084337
50
90
71
7
72
5
7
iso_b_vert
0
MTEXT
5
161
100
AcDbEntity
8
SK2
62
256
6
ByLayer
370
18
48
1
60
0
100
AcDbMText
10
-57.414634
20
-23.734998
30
0
210
0
220
0
230
1
1
\W0.6864;15.88
40
3.5
41
0
44
1.084337
50
90
71
7
72
5
7
iso_b_vert
0
MTEXT
5
16A
100
AcDbEntity
8
SK2
62
256
6
ByLayer
370
18
48
1
60
0
100
AcDbMText
10
9.710316
20
19.479844
30
0
210
0
220
0
230
1
1
%%c
40
3.5
41
0
44
1.084337
50
90
71
7
72
5
7
iso_b_vert
0
MTEXT
5
16B
100
AcDbEntity
8
SK2
62
256
6
ByLayer
370
18
48
1
60
0
100
AcDbMText
10
9.710316
20
26.4525
30
0
210
0
220
0
230
1
1
\W0.6944;15.09
40
3.5
41
0
44
1.084337
50
90
71
7
72
5
7
iso_b_vert
0
MTEXT
5
174
100
AcDbEntity
8
2
62
256
6
ByLayer
370
18
48
1
60
0
100
AcDbMText
10
58.035366
20
15.872344
30
0
210
0
220
0
230
1
1
%%c
40
3.5
41
0
44
1.084337
50
90
71
7
72
5
7
iso_b_vert
0
MTEXT
5
175
100
AcDbEntity
8
2
62
256
6
ByLayer
370
18
48
1
60
0
100
AcDbMText
10
58.035366
20
22.845
30
0
210
0
220
0
230
1
1
\W0.6864;15.88
40
3.5
41
0
44
1.084337
50
90
71
7
72
5
7
iso_b_vert
0
MTEXT
5
17E
100
AcDbEntity
8
SK2
62
256
6
ByLayer
370
18
48
1
60
0
100
AcDbMText
10
-2.304966
20
-53.072599
30
0
210
0
220
0
230
1
1
\W0.6740;96
40
3.5
41
0
44
1.084337
50
0
71
7
72
5
7
iso_b_vert
0
MTEXT
5
187
100
AcDbEntity
8
SK6
62
256
6
ByLayer
370
18
48
1
60
0
100
AcDbMText
10
-23.737915
20
-62.046666
30
0
210
0
220
0
230
1
1
\W0.7160;2N342-1588-PD       P2BM
40
3
41
0
44
1.084337
50
0
71
7
72
5
7
iso_b_vert
0
HATCH
5
165
100
AcDbEntity
8
SK2
62
256
6
ByLayer
370
13
48
1
60
0
100
AcDbHatch
10
0
20
0
30
0
210
0
220
0
230
1
2
ANSI31
70
0
71
0
91
1
92
5
93
3
72
1
10
-55.8500000000001
20
7.93749999999997
11
-55.3892162584473
21
4.43750169255316
72
1
10
-55.3892162584473
20
4.43750169255316
11
-56.3107837415528
21
4.43749830744679
72
1
10
-56.3107837415528
20
4.43749830744679
11
-55.8500000000001
21
7.93749999999997
97
0
75
0
76
1
52
0
41
0.0062
77
0
78
1
53
45
43
0
44
0
45
-0.0139193969876572
46
0.0139193969876572
79
0
47
0
98
1
10
0
20
0
0
HATCH
5
169
100
AcDbEntity
8
SK2
62
256
6
ByLayer
370
13
48
1
60
0
100
AcDbHatch
10
0
20
0
30
0
210
0
220
0
230
1
2
ANSI31
70
0
71
0
91
1
92
5
93
3
72
1
10
-55.8500000000001
20
-7.93750000000003
11
-56.3107837415528
21
-4.43750169255321
72
1
10
-56.3107837415528
20
-4.43750169255321
11
-55.3892162584473
21
-4.43749830744684
72
1
10
-55.3892162584473
20
-4.43749830744684
11
-55.8500000000001
21
-7.93750000000003
97
0
75
0
76
1
52
0
41
0.0062
77
0
78
1
53
45
43
0
44
0
45
-0.0139193969876572
46
0.0139193969876572
79
0
47
0
98
1
10
0
20
0
0
HATCH
5
16F
100
AcDbEntity
8
SK2
62
256
6
ByLayer
370
13
48
1
60
0
100
AcDbHatch
10
0
20
0
30
0
210
0
220
0
230
1
2
ANSI31
70
0
71
0
91
1
92
5
93
3
72
1
10
11.2749498938795
20
7.54499999999993
11
11.7357336354322
21
4.04500169255311
72
1
10
11.7357336354322
20
4.04500169255311
11
10.8141661523267
21
4.04499830744675
72
1
10
10.8141661523267
20
4.04499830744675
11
11.2749498938795
21
7.54499999999993
97
0
75
0
76
1
52
0
41
0.0062
77
0
78
1
53
45
43
0
44
0
45
-0.0139193969876572
46
0.0139193969876572
79
0
47
0
98
1
10
0
20
0
0
HATCH
5
173
100
AcDbEntity
8
SK2
62
256
6
ByLayer
370
13
48
1
60
0
100
AcDbHatch
10
0
20
0
30
0
210
0
220
0
230
1
2
ANSI31
70
0
71
0
91
1
92
5
93
3
72
1
10
11.2749498938795
20
-7.54500000000007
11
10.8141661523267
21
-4.04500169255326
72
1
10
10.8141661523267
20
-4.04500169255326
11
11.7357336354322
21
-4.04499830744689
72
1
10
11.7357336354322
20
-4.04499830744689
11
11.2749498938795
21
-7.54500000000007
97
0
75
0
76
1
52
0
41
0.0062
77
0
78
1
53
45
43
0
44
0
45
-0.0139193969876572
46
0.0139193969876572
79
0
47
0
98
1
10
0
20
0
0
HATCH
5
179
100
AcDbEntity
8
2
62
256
6
ByLayer
370
13
48
1
60
0
100
AcDbHatch
10
0
20
0
30
0
210
0
220
0
230
1
2
ANSI31
70
0
71
0
91
1
92
5
93
3
72
1
10
59.6
20
7.9374999999998
11
60.0607837415528
21
4.43750169255298
72
1
10
60.0607837415528
20
4.43750169255298
11
59.1392162584472
21
4.43749830744662
72
1
10
59.1392162584472
20
4.43749830744662
11
59.6
21
7.9374999999998
97
0
75
0
76
1
52
0
41
0.0062
77
0
78
1
53
45
43
0
44
0
45
-0.0139193969876572
46
0.0139193969876572
79
0
47
0
98
1
10
0
20
0
0
HATCH
5
17D
100
AcDbEntity
8
2
62
256
6
ByLayer
370
13
48
1
60
0
100
AcDbHatch
10
0
20
0
30
0
210
0
220
0
230
1
2
ANSI31
70
0
71
0
91
1
92
5
93
3
72
1
10
59.6
20
-7.9375000000002
11
59.1392162584472
21
-4.43750169255338
72
1
10
59.1392162584472
20
-4.43750169255338
11
60.0607837415528
21
-4.43749830744702
72
1
10
60.0607837415528
20
-4.43749830744702
11
59.6
21
-7.9375000000002
97
0
75
0
76
1
52
0
41
0.0062
77
0
78
1
53
45
43
0
44
0
45
-0.0139193969876572
46
0.0139193969876572
79
0
47
0
98
1
10
0
20
0
0
HATCH
5
182
100
AcDbEntity
8
SK2
62
256
6
ByLayer
370
13
48
1
60
0
100
AcDbHatch
10
0
20
0
30
0
210
0
220
0
230
1
2
ANSI31
70
0
71
0
91
1
92
5
93
3
72
1
10
-48.4
20
-54.1052328148543
11
-44.9000016925532
21
-53.6444490733016
72
1
10
-44.9000016925532
20
-53.6444490733016
11
-44.8999983074468
21
-54.5660165564071
72
1
10
-44.8999983074468
20
-54.5660165564071
11
-48.4
21
-54.1052328148543
97
0
75
0
76
1
52
0
41
0.0062
77
0
78
1
53
45
43
0
44
0
45
-0.0139193969876572
46
0.0139193969876572
79
0
47
0
98
1
10
0
20
0
0
HATCH
5
186
100
AcDbEntity
8
SK2
62
256
6
ByLayer
370
13
48
1
60
0
100
AcDbHatch
10
0
20
0
30
0
210
0
220
0
230
1
2
ANSI31
70
0
71
0
91
1
92
5
93
3
72
1
10
47.6
20
-54.1052328148543
11
44.1000016925532
21
-54.5660165564071
72
1
10
44.1000016925532
20
-54.5660165564071
11
44.0999983074468
21
-53.6444490733016
72
1
10
44.0999983074468
20
-53.6444490733016
11
47.6
21
-54.1052328148543
97
0
75
0
76
1
52
0
41
0.0062
77
0
78
1
53
45
43
0
44
0
45
-0.0139193969876572
46
0.0139193969876572
79
0
47
0
98
1
10
0
20
0
0
DIMENSION
5
18A
100
AcDbEntity
8
2
62
256
6
ByLayer
370
18
48
1
60
0
100
AcDbDimension
2
_U0
10
14.2
20
-22.105233
30
0
11
30.9
21
-22.105233
31
0
70
32
71
1
72
1
41
1
210
0
220
0
230
1
3
Standard
100
AcDbAlignedDimension
13
47.6
23
-7.9375
33
0
14
14.2
24
-7.9375
34
0
50
0
100
AcDbRotatedDimension
1001
ACAD
1000
DSTYLE
1002
{
1070
   371
1070
    13
1070
   372
1070
    13
1070
   170
1070
     0
1070
   144
1040
1.0
1070
   277
1070
     2
1070
   284
1070
     8
1070
   278
1070
    46
1070
   146
1040
1.0
1070
   345
1005
16
1070
   347
1005
16
1070
   346
1005
16
1070
   344
1005
0
1070
   343
1005
0
1070
   172
1070
     1
1070
    76
1070
     0
1070
    75
1070
     0
1070
   282
1070
     0
1070
   281
1070
     0
1070
    71
1070
     0
1070
    74
1070
     0
1070
   279
1070
     0
1070
   173
1070
     1
1070
   340
1005
15F
1070
   271
1070
     2
1070
   272
1070
     2
1070
    77
1070
     1
1070
    73
1070
     1
1070
   171
1070
     3
1070
   274
1070
     4
1070
   177
1070
     2
1070
   176
1070
     2
1070
   178
1070
     2
1070
    78
1070
     8
1070
    48
1040
-0.1
1070
    41
1040
3.5
1070
   147
1040
1.75
1070
    42
1040
1.5875
1070
    44
1040
2.0
1070
   140
1040
3.5
1002
}
1001
ACAD_DSTYLE_DIM_LINETYPE
1070
   380
1005
16
1001
ACAD_DSTYLE_DIM_EXT1_LINETYPE
1070
   381
1005
16
1001
ACAD_DSTYLE_DIM_EXT2_LINETYPE
1070
   382
1005
16
0
DIMENSION
5
1A3
100
AcDbEntity
8
SK2
62
256
6
ByLayer
370
18
48
1
60
0
100
AcDbDimension
2
_U1
10
6.397679
20
-37.105233
30
0
11
26.998839
21
-37.105233
31
0
70
32
71
1
72
1
41
1
210
0
220
0
230
1
3
Standard
100
AcDbAlignedDimension
13
47.6
23
-7.9375
33
0
14
6.397679
24
-7.545
34
0
50
0
100
AcDbRotatedDimension
1001
ACAD
1000
DSTYLE
1002
{
1070
   371
1070
    13
1070
   372
1070
    13
1070
   170
1070
     0
1070
   144
1040
1.0
1070
   277
1070
     2
1070
   284
1070
     8
1070
   278
1070
    46
1070
   146
1040
1.0
1070
   345
1005
16
1070
   347
1005
16
1070
   346
1005
16
1070
   344
1005
0
1070
   343
1005
0
1070
   172
1070
     1
1070
    76
1070
     0
1070
    75
1070
     0
1070
   282
1070
     0
1070
   281
1070
     0
1070
    71
1070
     0
1070
    74
1070
     0
1070
   279
1070
     0
1070
   173
1070
     1
1070
   340
1005
15F
1070
   271
1070
     2
1070
   272
1070
     2
1070
    77
1070
     1
1070
    73
1070
     1
1070
   171
1070
     3
1070
   274
1070
     4
1070
   177
1070
     2
1070
   176
1070
     2
1070
   178
1070
     2
1070
    78
1070
     8
1070
    48
1040
-0.1
1070
    41
1040
3.5
1070
   147
1040
1.75
1070
    42
1040
1.5875
1070
    44
1040
2.0
1070
   140
1040
3.5
1002
}
1001
ACAD_DSTYLE_DIM_LINETYPE
1070
   380
1005
16
1001
ACAD_DSTYLE_DIM_EXT1_LINETYPE
1070
   381
1005
16
1001
ACAD_DSTYLE_DIM_EXT2_LINETYPE
1070
   382
1005
16
0
ENDSEC
0
SECTION
2
OBJECTS
0
DICTIONARY
5
22b
330
0
100
AcDbDictionary
280
0
281
1
3
ACAD_GROUP
350
22c
3
ACAD_MLINESTYLE
350
22d
0
DICTIONARY
5
22c
330
0
100
AcDbDictionary
280
0
281
1
0
DICTIONARY
5
22d
330
0
100
AcDbDictionary
280
0
281
1
3
Standard
350
18
0
MLINESTYLE
5
18
330
22d
100
AcDbMlineStyle
2
Standard
70
0
3

62
256
51
90
52
90
71
2
49
-0.5
62
256
6
ByLayer
49
0.5
62
256
6
ByLayer
0
RASTERVARIABLES
5
219
330

100
AcDbRasterVariables
90
0
70
1
71
1
72
1
0
ENDSEC
0
EOF
