0
SECTION
2
HEADER
9
$ACADVER
1
AC1015
9
$DWGCODEPAGE
3
ANSI_1252
9
$HANDSEED
5
237
9
$ANGBASE
50
0
9
$ANGDIR
70
0
9
$ATTMODE
70
1
9
$AUNITS
70
0
9
$AUPREC
70
0
9
$CECOLOR
62
256
9
$CELTSCALE
40
1
9
$CELTYPE
6
ByLayer
9
$CELWEIGHT
370
18
9
$CLAYER
8
0
9
$CMLJUST
70
0
9
$CMLSCALE
40
1
9
$CMLSTYLE
2
Standard
9
$DIMSTYLE
2
Standard
9
$TEXTSIZE
40
0.2
9
$TEXTSTYLE
7
Standard
9
$LUNITS
70
2
9
$LUPREC
70
4
9
$EXTNAMES
290
1
9
$INSUNITS
70
4
9
$LTSCALE
40
1
9
$LWDISPLAY
290
1
9
$PDMODE
70
0
9
$PDSIZE
40
0
9
$PLINEGEN
70
0
0
ENDSEC
0
SECTION
2
CLASSES
0
CLASS
1
RASTERVARIABLES
2
AcDbRasterVariables
3
ISM
90
0
280
0
281
0
0
ENDSEC
0
SECTION
2
TABLES
0
TABLE
2
VPORT
5
22d
100
AcDbSymbolTable
0
VPORT
5
1
100
AcDbSymbolTableRecord
100
AcDbViewportTableRecord
2
*Active
70
0
10
0
20
0
11
1
21
1
12
-1
22
1
13
0
23
0
14
0.5
24
0.5
15
10
25
10
16
0
26
0
36
1
17
0
27
0
37
0
0
ENDTAB
0
TABLE
2
LTYPE
5
22e
100
AcDbSymbolTable
0
LTYPE
5
14
100
AcDbSymbolTableRecord
100
AcDbLinetypeTableRecord
70
0
2
ByBlock
3

72
65
73
0
40
0
0
LTYPE
5
15
100
AcDbSymbolTableRecord
100
AcDbLinetypeTableRecord
70
0
2
ByLayer
3

72
65
73
0
40
0
0
LTYPE
5
16
100
AcDbSymbolTableRecord
100
AcDbLinetypeTableRecord
70
0
2
Continuous
3
Solid line
72
65
73
0
40
0
0
LTYPE
5
6E
100
AcDbSymbolTableRecord
100
AcDbLinetypeTableRecord
70
0
2
CENTER
3
____ _ ____ _ ____ _ ____
72
65
73
4
40
47.5
49
22
74
0
49
-8.5
74
0
49
8.5
74
0
49
-8.5
74
0
0
LTYPE
5
6F
100
AcDbSymbolTableRecord
100
AcDbLinetypeTableRecord
70
0
2
DASHED
3
__ __ __ __ __ __ __ __ __
72
65
73
2
40
25.72
49
12.86
74
0
49
-12.86
74
0
0
ENDTAB
0
TABLE
2
LAYER
5
22f
100
AcDbSymbolTable
0
LAYER
5
10
100
AcDbSymbolTableRecord
100
AcDbLayerTableRecord
2
0
70
0
62
7
6
Continuous
290
1
370
-3
390
0
0
LAYER
5
71
100
AcDbSymbolTableRecord
100
AcDbLayerTableRecord
2
80
70
0
62
-6
6
Continuous
290
1
370
-3
390
0
0
LAYER
5
73
100
AcDbSymbolTableRecord
100
AcDbLayerTableRecord
2
81
70
0
62
-3
6
Continuous
290
1
370
-3
390
0
0
LAYER
5
75
100
AcDbSymbolTableRecord
100
AcDbLayerTableRecord
2
1
70
0
62
4
6
Continuous
290
1
370
-3
390
0
0
LAYER
5
7B
100
AcDbSymbolTableRecord
100
AcDbLayerTableRecord
2
4
70
0
62
-2
6
CENTER
290
1
370
-3
390
0
0
LAYER
5
D2
100
AcDbSymbolTableRecord
100
AcDbLayerTableRecord
2
2
70
0
62
7
6
Continuous
290
1
370
-3
390
0
0
LAYER
5
18C
100
AcDbSymbolTableRecord
100
AcDbLayerTableRecord
2
Defpoints
70
0
62
7
6
Continuous
290
0
370
-3
390
0
0
LAYER
5
219
100
AcDbSymbolTableRecord
100
AcDbLayerTableRecord
2
SK4
70
0
62
2
6
CENTER
290
1
370
-3
390
0
0
LAYER
5
21a
100
AcDbSymbolTableRecord
100
AcDbLayerTableRecord
2
SK1
70
0
62
4
6
Continuous
290
1
370
-3
390
0
0
LAYER
5
21b
100
AcDbSymbolTableRecord
100
AcDbLayerTableRecord
2
SK2
70
0
62
7
6
Continuous
290
1
370
-3
390
0
0
LAYER
5
21c
100
AcDbSymbolTableRecord
100
AcDbLayerTableRecord
2
SK6
70
0
62
5
6
Continuous
290
1
370
-3
390
0
0
ENDTAB
0
TABLE
2
STYLE
5
230
100
AcDbSymbolTable
0
STYLE
5
11
100
AcDbSymbolTableRecord
100
AcDbTextStyleTableRecord
2
Standard
3
txt
70
0
71
0
40
0
41
1
42
0
50
0
0
STYLE
5
15E
100
AcDbSymbolTableRecord
100
AcDbTextStyleTableRecord
2
iso_b_vert
3
simplex.shx
70
0
71
0
40
0
41
1
42
0
50
0
0
STYLE
5
15F
100
AcDbSymbolTableRecord
100
AcDbTextStyleTableRecord
2
DWGDirectTextStyle
3
simplex
70
0
71
0
40
0
41
1
42
0
50
0
0
ENDTAB
0
TABLE
2
DIMSTYLE
5
231
100
AcDbSymbolTable
100
AcDbDimStyleTable
0
DIMSTYLE
105
27
100
AcDbSymbolTableRecord
100
AcDbDimStyleTableRecord
2
Standard
70
0
3
<>
41
0.18
42
0.0625
44
0.18
140
0.18
147
0.09
73
0
74
0
77
1
271
2
275
0
278
52
280
0
340
11
0
ENDTAB
0
TABLE
2
VIEW
5
232
100
AcDbSymbolTable
0
ENDTAB
0
TABLE
2
UCS
5
233
100
AcDbSymbolTable
0
ENDTAB
0
TABLE
2
APPID
5
234
100
AcDbSymbolTable
0
APPID
5
12
100
AcDbSymbolTableRecord
100
AcDbRegAppTableRecord
2
ACAD
70
0
0
APPID
5
188
100
AcDbSymbolTableRecord
100
AcDbRegAppTableRecord
2
ACAD_DSTYLE_DIMBREAK
70
0
0
APPID
5
1D8
100
AcDbSymbolTableRecord
100
AcDbRegAppTableRecord
2
ACAD_DSTYLE_DIM_LINETYPE
70
0
0
APPID
5
1D9
100
AcDbSymbolTableRecord
100
AcDbRegAppTableRecord
2
ACAD_DSTYLE_DIM_EXT1_LINETYPE
70
0
0
APPID
5
1DA
100
AcDbSymbolTableRecord
100
AcDbRegAppTableRecord
2
ACAD_DSTYLE_DIM_EXT2_LINETYPE
70
0
0
APPID
5
215
100
AcDbSymbolTableRecord
100
AcDbRegAppTableRecord
2
ACAD_MLEADERVER
70
0
0
ENDTAB
0
TABLE
2
BLOCK_RECORD
5
235
100
AcDbSymbolTable
0
BLOCK_RECORD
5
1F
100
AcDbSymbolTableRecord
100
AcDbBlockTableRecord
2
*Model_Space
340
0
70
0
0
BLOCK_RECORD
5
1B
100
AcDbSymbolTableRecord
100
AcDbBlockTableRecord
2
*Paper_Space
340
0
70
0
0
BLOCK_RECORD
5
23
100
AcDbSymbolTableRecord
100
AcDbBlockTableRecord
2
*Paper_Space0
340
0
70
0
0
BLOCK_RECORD
5
18D
100
AcDbSymbolTableRecord
100
AcDbBlockTableRecord
2
*D1
340
0
70
0
0
BLOCK_RECORD
5
199
100
AcDbSymbolTableRecord
100
AcDbBlockTableRecord
2
_U0
340
0
70
0
0
BLOCK_RECORD
5
1A5
100
AcDbSymbolTableRecord
100
AcDbBlockTableRecord
2
*D3
340
0
70
0
0
BLOCK_RECORD
5
1B1
100
AcDbSymbolTableRecord
100
AcDbBlockTableRecord
2
_U1
340
0
70
0
0
ENDTAB
0
ENDSEC
0
SECTION
2
BLOCKS
0
BLOCK
5
20
100
AcDbEntity
8
0
100
AcDbBlockBegin
2
*Model_Space
70
0
10
0
20
0
30
0
3
*Model_Space
0
ENDBLK
5
21
100
AcDbEntity
8
0
100
AcDbBlockEnd
0
BLOCK
5
1C
100
AcDbEntity
8
0
100
AcDbBlockBegin
2
*Paper_Space
70
0
10
0
20
0
30
0
3
*Paper_Space
0
ENDBLK
5
1D
100
AcDbEntity
8
0
100
AcDbBlockEnd
0
BLOCK
5
24
100
AcDbEntity
8
0
100
AcDbBlockBegin
2
*Paper_Space0
70
0
10
0
20
0
30
0
3
*Paper_Space0
0
ENDBLK
5
25
100
AcDbEntity
8
0
100
AcDbBlockEnd
0
BLOCK
5
18E
100
AcDbEntity
8
0
100
AcDbBlockBegin
2
*D1
70
1
10
0
20
0
30
0
3
*D1
0
LINE
5
190
100
AcDbEntity
8
0
62
256
6
ByLayer
370
-2
48
1
60
0
100
AcDbLine
10
44
20
-9.5875
30
0
11
44
21
-24.16892
31
0
39
0
210
0
220
0
230
1
0
LINE
5
191
100
AcDbEntity
8
0
62
256
6
ByLayer
370
-2
48
1
60
0
100
AcDbLine
10
10
20
-9.5875
30
0
11
10
21
-24.16892
31
0
39
0
210
0
220
0
230
1
0
LINE
5
192
100
AcDbEntity
8
0
62
256
6
ByLayer
370
-2
48
1
60
0
100
AcDbLine
10
40.5
20
-22.16892
30
0
11
13.5
21
-22.16892
31
0
39
0
210
0
220
0
230
1
0
SOLID
5
193
100
AcDbEntity
8
0
62
256
6
ByLayer
370
-1
48
1
60
0
100
AcDbTrace
10
40.5
20
-22.752254
30
0
11
40.5
21
-21.585587
31
0
12
44
22
-22.16892
32
0
13
44
23
-22.16892
33
0
39
0
210
0
220
0
230
1
0
SOLID
5
194
100
AcDbEntity
8
0
62
256
6
ByLayer
370
-1
48
1
60
0
100
AcDbTrace
10
13.5
20
-21.585587
30
0
11
13.5
21
-22.752254
31
0
12
10
22
-22.16892
32
0
13
10
23
-22.16892
33
0
39
0
210
0
220
0
230
1
0
MTEXT
5
195
100
AcDbEntity
8
0
62
256
6
ByLayer
370
18
48
1
60
0
100
AcDbMText
10
27
20
-15.16892
30
0
210
0
220
0
230
1
1
\A1;34
40
3.5
41
0
44
1
50
0
71
5
72
5
7
iso_b_vert
0
POINT
5
196
100
AcDbEntity
8
Defpoints
62
0
6
ByLayer
370
-1
48
1
60
0
100
AcDbPoint
10
44
20
-8
30
0
39
0
210
0
220
0
230
1
50
360
0
POINT
5
197
100
AcDbEntity
8
Defpoints
62
0
6
ByLayer
370
-1
48
1
60
0
100
AcDbPoint
10
10
20
-8
30
0
39
0
210
0
220
0
230
1
50
360
0
POINT
5
198
100
AcDbEntity
8
Defpoints
62
0
6
ByLayer
370
-1
48
1
60
0
100
AcDbPoint
10
10
20
-22.16892
30
0
39
0
210
0
220
0
230
1
50
360
0
ENDBLK
5
18F
100
AcDbEntity
8
0
100
AcDbBlockEnd
0
BLOCK
5
1A0
100
AcDbEntity
8
0
100
AcDbBlockBegin
2
_U0
70
0
10
0
20
0
30
0
3
_U0
0
MTEXT
5
19A
100
AcDbEntity
8
2
62
256
6
ByLayer
370
18
48
1
60
0
100
AcDbMText
10
24.910767
20
-21.136287
30
0
210
0
220
0
230
1
1
\W0.7167;34
40
3.5
41
0
44
1.084337
50
0
71
7
72
5
7
iso_b_vert
0
LINE
5
19B
100
AcDbEntity
8
2
62
256
6
ByLayer
370
13
48
1
60
0
100
AcDbLine
10
44
20
-9.5875
30
0
11
44
21
-24.16892
31
0
39
0
210
0
220
0
230
1
0
LINE
5
19C
100
AcDbEntity
8
2
62
256
6
ByLayer
370
13
48
1
60
0
100
AcDbLine
10
10
20
-9.5875
30
0
11
10
21
-24.16892
31
0
39
0
210
0
220
0
230
1
0
LINE
5
19D
100
AcDbEntity
8
2
62
256
6
ByLayer
370
13
48
1
60
0
100
AcDbLine
10
44
20
-22.16892
30
0
11
10
21
-22.16892
31
0
39
0
210
0
220
0
230
1
0
SOLID
5
19E
100
AcDbEntity
8
2
62
256
6
ByLayer
370
18
48
1
60
0
100
AcDbTrace
10
44
20
-22.16892
30
0
11
40.500002
21
-22.629704
31
0
12
40.499998
22
-21.708136
32
0
13
40.499998
23
-21.708136
33
0
39
0
210
0
220
0
230
1
0
SOLID
5
19F
100
AcDbEntity
8
2
62
256
6
ByLayer
370
18
48
1
60
0
100
AcDbTrace
10
10
20
-22.16892
30
0
11
13.499998
21
-21.708136
31
0
12
13.500002
22
-22.629704
32
0
13
13.500002
23
-22.629704
33
0
39
0
210
0
220
0
230
1
0
ENDBLK
5
1A1
100
AcDbEntity
8
0
100
AcDbBlockEnd
0
BLOCK
5
1A6
100
AcDbEntity
8
0
100
AcDbBlockBegin
2
*D3
70
1
10
0
20
0
30
0
3
*D3
0
LINE
5
1A8
100
AcDbEntity
8
0
62
256
6
ByLayer
370
-2
48
1
60
0
100
AcDbLine
10
44
20
-9.5875
30
0
11
44
21
-39.16892
31
0
39
0
210
0
220
0
230
1
0
LINE
5
1A9
100
AcDbEntity
8
0
62
256
6
ByLayer
370
-2
48
1
60
0
100
AcDbLine
10
1.997679
20
-9.1875
30
0
11
1.997679
21
-39.16892
31
0
39
0
210
0
220
0
230
1
0
LINE
5
1AA
100
AcDbEntity
8
0
62
256
6
ByLayer
370
-2
48
1
60
0
100
AcDbLine
10
40.5
20
-37.16892
30
0
11
5.497679
21
-37.16892
31
0
39
0
210
0
220
0
230
1
0
SOLID
5
1AB
100
AcDbEntity
8
0
62
256
6
ByLayer
370
-1
48
1
60
0
100
AcDbTrace
10
40.5
20
-37.752254
30
0
11
40.5
21
-36.585587
31
0
12
44
22
-37.16892
32
0
13
44
23
-37.16892
33
0
39
0
210
0
220
0
230
1
0
SOLID
5
1AC
100
AcDbEntity
8
0
62
256
6
ByLayer
370
-1
48
1
60
0
100
AcDbTrace
10
5.497679
20
-36.585587
30
0
11
5.497679
21
-37.752254
31
0
12
1.997679
22
-37.16892
32
0
13
1.997679
23
-37.16892
33
0
39
0
210
0
220
0
230
1
0
MTEXT
5
1AD
100
AcDbEntity
8
0
62
256
6
ByLayer
370
18
48
1
60
0
100
AcDbMText
10
22.998839
20
-30.16892
30
0
210
0
220
0
230
1
1
\A1;42
40
3.5
41
0
44
1
50
0
71
5
72
5
7
iso_b_vert
0
POINT
5
1AE
100
AcDbEntity
8
Defpoints
62
0
6
ByLayer
370
-1
48
1
60
0
100
AcDbPoint
10
44
20
-8
30
0
39
0
210
0
220
0
230
1
50
360
0
POINT
5
1AF
100
AcDbEntity
8
Defpoints
62
0
6
ByLayer
370
-1
48
1
60
0
100
AcDbPoint
10
1.997679
20
-7.6
30
0
39
0
210
0
220
0
230
1
50
360
0
POINT
5
1B0
100
AcDbEntity
8
Defpoints
62
0
6
ByLayer
370
-1
48
1
60
0
100
AcDbPoint
10
1.997679
20
-37.16892
30
0
39
0
210
0
220
0
230
1
50
360
0
ENDBLK
5
1A7
100
AcDbEntity
8
0
100
AcDbBlockEnd
0
BLOCK
5
1B8
100
AcDbEntity
8
0
100
AcDbBlockBegin
2
_U1
70
0
10
0
20
0
30
0
3
_U1
0
MTEXT
5
1B2
100
AcDbEntity
8
SK2
62
256
6
ByLayer
370
18
48
1
60
0
100
AcDbMText
10
20.909607
20
-36.136287
30
0
210
0
220
0
230
1
1
\W0.7361;42
40
3.5
41
0
44
1.084337
50
0
71
7
72
5
7
iso_b_vert
0
LINE
5
1B3
100
AcDbEntity
8
SK2
62
256
6
ByLayer
370
13
48
1
60
0
100
AcDbLine
10
44
20
-9.5875
30
0
11
44
21
-39.16892
31
0
39
0
210
0
220
0
230
1
0
LINE
5
1B4
100
AcDbEntity
8
SK2
62
256
6
ByLayer
370
13
48
1
60
0
100
AcDbLine
10
1.997679
20
-9.1875
30
0
11
1.997679
21
-39.16892
31
0
39
0
210
0
220
0
230
1
0
LINE
5
1B5
100
AcDbEntity
8
SK2
62
256
6
ByLayer
370
13
48
1
60
0
100
AcDbLine
10
44
20
-37.16892
30
0
11
1.997679
21
-37.16892
31
0
39
0
210
0
220
0
230
1
0
SOLID
5
1B6
100
AcDbEntity
8
SK2
62
256
6
ByLayer
370
18
48
1
60
0
100
AcDbTrace
10
44
20
-37.16892
30
0
11
40.500002
21
-37.629704
31
0
12
40.499998
22
-36.708136
32
0
13
40.499998
23
-36.708136
33
0
39
0
210
0
220
0
230
1
0
SOLID
5
1B7
100
AcDbEntity
8
SK2
62
256
6
ByLayer
370
18
48
1
60
0
100
AcDbTrace
10
1.997679
20
-37.16892
30
0
11
5.497677
21
-36.708136
31
0
12
5.497681
22
-37.629704
32
0
13
5.497681
23
-37.629704
33
0
39
0
210
0
220
0
230
1
0
ENDBLK
5
1B9
100
AcDbEntity
8
0
100
AcDbBlockEnd
0
ENDSEC
0
SECTION
2
ENTITIES
0
ARC
5
E4
100
AcDbEntity
8
1
62
256
6
ByLayer
370
18
48
1
60
0
100
AcDbCircle
39
0
10
1.997679
20
-8.6
30
0
40
1
210
0
220
0
230
1
100
AcDbArc
50
90
51
120
0
ELLIPSE
5
E5
100
AcDbEntity
8
1
62
256
6
ByLayer
370
18
48
1
60
0
100
AcDbEllipse
10
42.958954
20
-2.0753
30
0
11
2.91130884943225
21
6.69283687141487
31
0
210
0
220
0
230
1
40
0.174889
41
1.24705472109135
42
1.27656338619965
0
ELLIPSE
5
E6
100
AcDbEntity
8
1
62
256
6
ByLayer
370
18
48
1
60
0
100
AcDbEllipse
10
43.967178
20
0.329304
30
0
11
1.40521141651664
21
0.65432277958957
31
0
210
0
220
0
230
1
40
0.647144
41
-2.97406552686934
42
-2.84147942998097
0
ELLIPSE
5
E7
100
AcDbEntity
8
1
62
256
6
ByLayer
370
18
48
1
60
0
100
AcDbEllipse
10
43.967178
20
1.21385
30
0
11
1.46501161918698
21
0.118712404265764
31
0
210
0
220
0
230
1
40
0.737381
41
-2.66267343516679
42
-2.57813769610922
0
ELLIPSE
5
E8
100
AcDbEntity
8
1
62
256
6
ByLayer
370
18
48
1
60
0
100
AcDbEllipse
10
43.411504
20
1.658628
30
0
11
0.836029612616874
21
0.96996688320952
31
0
210
0
220
0
230
1
40
0.602383
41
-2.67847497583191
42
-2.19939584206125
0
ELLIPSE
5
E9
100
AcDbEntity
8
1
62
256
6
ByLayer
370
18
48
1
60
0
100
AcDbEllipse
10
42.342498
20
4.956683
30
0
11
4.54811389491724
21
-13.3764194011875
31
0
210
0
220
0
230
1
40
0.089153
41
-1.24357414866806
42
-1.22490346795294
0
ELLIPSE
5
EA
100
AcDbEntity
8
1
62
256
6
ByLayer
370
18
48
1
60
0
100
AcDbEllipse
10
40.321066
20
-9.089655
30
0
11
10.0483257753836
21
23.6070545763614
31
0
210
0
220
0
230
1
40
0.045803
41
1.22089179475178
42
1.22654479785827
0
ELLIPSE
5
EB
100
AcDbEntity
8
1
62
256
6
ByLayer
370
18
48
1
60
0
100
AcDbEllipse
10
43.967178
20
-0.953201
30
0
11
1.26366743108325
21
-0.919542780150635
31
0
210
0
220
0
230
1
40
0.811674
41
3.06710605028051
42
-3.06829566022167
0
ELLIPSE
5
EC
100
AcDbEntity
8
1
62
256
6
ByLayer
370
18
48
1
60
0
100
AcDbEllipse
10
43.409847
20
-0.358651
30
0
11
0.0588631581335303
21
1.4920048405486
31
0
210
0
220
0
230
1
40
0.679739
41
0.101112436702543
42
0.601384228947483
0
ELLIPSE
5
ED
100
AcDbEntity
8
1
62
256
6
ByLayer
370
18
48
1
60
0
100
AcDbEllipse
10
42.958952
20
0.122354
30
0
11
3.09603571969614
21
-1.99291250340564
31
0
210
0
220
0
230
1
40
0.256
41
-1.49552005513803
42
-1.46601128347365
0
ELLIPSE
5
EE
100
AcDbEntity
8
1
62
256
6
ByLayer
370
18
48
1
60
0
100
AcDbEllipse
10
43.258965
20
2.398044
30
0
11
0.583488540139802
21
-5.4161719599894
31
0
210
0
220
0
230
1
40
0.017125
41
-0.505450474055657
42
-0.482915331207859
0
ELLIPSE
5
EF
100
AcDbEntity
8
1
62
256
6
ByLayer
370
13
48
1
60
0
100
AcDbEllipse
10
8.169092
20
60.430754
30
0
11
40.5957536025423
21
-60.8871950807333
31
0
210
0
220
0
230
1
40
0.553112
41
-0.971030121701233
42
-0.861734971741733
0
ELLIPSE
5
F0
100
AcDbEntity
8
1
62
256
6
ByLayer
370
13
48
1
60
0
100
AcDbEllipse
10
8.169092
20
-31.962003
30
0
11
50.2154491200602
21
-53.2322684565315
31
0
210
0
220
0
230
1
40
0.303255
41
1.86529338826065
42
1.97458853822016
0
POINT
5
70
100
AcDbEntity
8
80
62
256
6
ByLayer
370
18
48
1
60
0
100
AcDbPoint
10
0
20
0
30
0
39
0
210
0
220
0
230
1
50
360
0
POINT
5
72
100
AcDbEntity
8
81
62
256
6
ByLayer
370
18
48
1
60
0
100
AcDbPoint
10
44
20
0
30
0
39
0
210
0
220
0
230
1
50
360
0
POINT
5
74
100
AcDbEntity
8
1
62
256
6
ByLayer
370
18
48
1
60
1
100
AcDbPoint
10
44
20
-8
30
0
39
0
210
0
220
0
230
1
50
360
0
POINT
5
76
100
AcDbEntity
8
1
62
256
6
ByLayer
370
18
48
1
60
1
100
AcDbPoint
10
10
20
-8
30
0
39
0
210
0
220
0
230
1
50
360
0
POINT
5
77
100
AcDbEntity
8
1
62
256
6
ByLayer
370
18
48
1
60
1
100
AcDbPoint
10
44
20
-8
30
0
39
0
210
0
220
0
230
1
50
360
0
POINT
5
78
100
AcDbEntity
8
1
62
256
6
ByLayer
370
18
48
1
60
1
100
AcDbPoint
10
1.997679
20
-7.6
30
0
39
0
210
0
220
0
230
1
50
360
0
SPLINE
5
F1
100
AcDbEntity
8
1
62
256
6
ByLayer
370
18
48
1
60
0
100
AcDbSpline
70
4
71
3
72
10
73
6
40
0
40
0
40
0
40
0
40
0.5
40
0.5
40
1
40
1
40
1
40
1
41
1
10
42.666558017298
20
-0.299305767807112
30
0
41
1
10
42.6627542533597
20
-0.326797023930794
30
0
41
1
10
42.6595809105375
20
-0.354680761129032
30
0
41
1
10
42.6547260385415
20
-0.411064168003293
30
0
41
1
10
42.6530688561694
20
-0.439272473306346
30
0
41
1
10
42.6522459038106
20
-0.467491193865669
30
0
0
SPLINE
5
F2
100
AcDbEntity
8
1
62
256
6
ByLayer
370
18
48
1
60
0
100
AcDbSpline
70
4
71
3
72
22
73
18
40
0
40
0
40
0
40
0
40
0.162477923079236
40
0.162477923079236
40
0.267168182694321
40
0.267168182694321
40
0.371858442309407
40
0.371858442309407
40
0.581238961539587
40
0.581238961539587
40
0.685929221154685
40
0.685929221154685
40
0.738274350962234
40
0.738274350962234
40
0.790619480769783
40
0.790619480769783
40
1
40
1
40
1
40
1
41
1
10
42.6910254199944
20
0.595973498941333
30
0
41
1
10
42.6911433494637
20
0.596267980780368
30
0
41
1
10
42.6929734099986
20
0.595803511297987
30
0
41
1
10
42.6989868904893
20
0.5941405974134
30
0
41
1
10
42.7021055360558
20
0.593260769545196
30
0
41
1
10
42.70998088231
20
0.591149416121766
30
0
41
1
10
42.7147379336714
20
0.589918363853798
30
0
41
1
10
42.7314717128885
20
0.5859047110674
30
0
41
1
10
42.745926694825
20
0.582790119948072
30
0
41
1
10
42.7733104455137
20
0.578150158537113
30
0
41
1
10
42.7833933075046
20
0.576608835736806
30
0
41
1
10
42.800100256396
20
0.574398785924785
30
0
41
1
10
42.8059334791834
20
0.573679185662513
30
0
41
1
10
42.8181600147511
20
0.572291395428152
30
0
41
1
10
42.8245650148878
20
0.571622136569943
30
0
41
1
10
42.8579217708939
20
0.568466009995149
30
0
41
1
10
42.8887574391305
20
0.566539350186218
30
0
41
1
10
42.9245648477347
20
0.565850573327936
30
0
0
SPLINE
5
F3
100
AcDbEntity
8
1
62
256
6
ByLayer
370
18
48
1
60
0
100
AcDbSpline
70
4
71
3
72
8
73
4
40
0
40
0
40
0
40
0
40
1
40
1
40
1
40
1
41
1
10
42.6836279440849
20
-0.749454757503429
30
0
41
1
10
42.6599382603741
20
-0.683084681368058
30
0
41
1
10
42.639590866915
20
-0.616243160445691
30
0
41
1
10
42.6224825826297
20
-0.548944748882633
30
0
0
SPLINE
5
F4
100
AcDbEntity
8
1
62
256
6
ByLayer
370
18
48
1
60
0
100
AcDbSpline
70
4
71
3
72
12
73
8
40
0
40
0
40
0
40
0
40
0.337069177070599
40
0.337069177070599
40
0.674138354141198
40
0.674138354141198
40
1
40
1
40
1
40
1
41
1
10
42.7499565213704
20
-0.56460900947036
30
0
41
1
10
42.7401866430494
20
-0.590548433146665
30
0
41
1
10
42.7311503115832
20
-0.6170483184099
30
0
41
1
10
42.714538654124
20
-0.670760701408057
30
0
41
1
10
42.7069446701537
20
-0.69802313048632
30
0
41
1
10
42.6933302865282
20
-0.752362852833329
30
0
41
1
10
42.6872622951005
20
-0.779414849052813
30
0
41
1
10
42.6818067171575
20
-0.806781001159749
30
0
0
SPLINE
5
F5
100
AcDbEntity
8
1
62
256
6
ByLayer
370
18
48
1
60
0
100
AcDbSpline
70
4
71
3
72
9
73
5
40
0
40
0
40
0
40
0
40
0.456049005575866
40
1
40
1
40
1
40
1
41
1
10
8.93304440614347
20
7.22712331854544
30
0
41
1
10
8.93304440613039
20
7.2269557364499
30
0
41
1
10
8.93304440611229
20
7.20338596046486
30
0
41
1
10
8.93304440636228
20
7.12909658446875
30
0
41
1
10
8.93304440622038
20
7.07413431854525
30
0
0
SPLINE
5
F6
100
AcDbEntity
8
1
62
256
6
ByLayer
370
18
48
1
60
0
100
AcDbSpline
70
4
71
3
72
20
73
16
40
0
40
0
40
0
40
0
40
0.250000000000003
40
0.250000000000003
40
0.500000000000006
40
0.500000000000006
40
0.5625
40
0.5625
40
0.624999999999994
40
0.624999999999994
40
0.749999999999996
40
0.749999999999996
40
0.874999999999998
40
0.874999999999998
40
1
40
1
40
1
40
1
41
1
10
5.00835121605022
20
7.32063373543366
30
0
41
1
10
4.90470933740957
20
7.31395769697741
30
0
41
1
10
4.7971234307287
20
7.30782554251678
30
0
41
1
10
4.57414960941429
20
7.2977477299284
30
0
41
1
10
4.45877559543419
20
7.29378990081611
30
0
41
1
10
4.30903651154094
20
7.29105773555835
30
0
41
1
10
4.27885228384977
20
7.29062479308581
30
0
41
1
10
4.2184312658608
20
7.29001287186742
30
0
41
1
10
4.18813475813516
20
7.28983269660284
30
0
41
1
10
4.09697979613074
20
7.28970061241225
30
0
41
1
10
4.03585756572213
20
7.29015515513063
30
0
41
1
10
3.91283576420921
20
7.29235195840283
30
0
41
1
10
3.85093762445925
20
7.29409211103379
30
0
41
1
10
3.72622351854869
20
7.29914755029256
30
0
41
1
10
3.66341153916437
20
7.30245728119979
30
0
41
1
10
3.60000000075357
20
7.30679291477341
30
0
0
SPLINE
5
F7
100
AcDbEntity
8
1
62
256
6
ByLayer
370
18
48
1
60
0
100
AcDbSpline
70
4
71
3
72
12
73
8
40
0
40
0
40
0
40
0
40
0.25
40
0.25
40
0.5
40
0.5
40
1
40
1
40
1
40
1
41
1
10
3.6000000013488
20
7.3067929147272
30
0
41
1
10
3.60000000134639
20
7.32342581263089
30
0
41
1
10
3.60000000134383
20
7.34055785257397
30
0
41
1
10
3.60000000133843
20
7.37582937354404
30
0
41
1
10
3.60000000133559
20
7.39392323661968
30
0
41
1
10
3.60000000132666
20
7.44925680790215
30
0
41
1
10
3.60000000132027
20
7.48766374633394
30
0
41
1
10
3.60000000131331
20
7.52759442095049
30
0
0
SPLINE
5
F8
100
AcDbEntity
8
1
62
256
6
ByLayer
370
18
48
1
60
0
100
AcDbSpline
70
4
71
3
72
12
73
8
40
0
40
0
40
0
40
0
40
0.249999999999984
40
0.249999999999984
40
0.499999999999967
40
0.499999999999967
40
1
40
1
40
1
40
1
41
1
10
3.28370312526798
20
7.527953448522
30
0
41
1
10
3.31002853078937
20
7.5274654827835
30
0
41
1
10
3.3366468939644
20
7.52710541537817
30
0
41
1
10
3.38959666945144
20
7.52662746438332
30
0
41
1
10
3.41601369268019
20
7.52650747219008
30
0
41
1
10
3.49511155103272
20
7.52646489382846
30
0
41
1
10
3.54764028119791
20
7.52685829761165
30
0
41
1
10
3.60000000131439
20
7.52759442095055
30
0
0
SPLINE
5
F9
100
AcDbEntity
8
1
62
256
6
ByLayer
370
18
48
1
60
0
100
AcDbSpline
70
4
71
3
72
14
73
10
40
0
40
0
40
0
40
0
40
0.25
40
0.25
40
0.5
40
0.5
40
0.75
40
0.75
40
1
40
1
40
1
40
1
41
1
10
10.0000321643757
20
-7.8723632338434
30
0
41
1
10
10.0007438742922
20
-7.80504750698694
30
0
41
1
10
10.0014834554475
20
-7.72885657917632
30
0
41
1
10
10.0028707799286
20
-7.5589247430444
30
0
41
1
10
10.0035985022692
20
-7.46515370746695
30
0
41
1
10
10.0050252959095
20
-7.25995891605353
30
0
41
1
10
10.0056928431506
20
-7.14923338057878
30
0
41
1
10
10.0071401657121
20
-6.91168665850859
30
0
41
1
10
10.0078398021459
20
-6.78487162881549
30
0
41
1
10
10.0085388328439
20
-6.6499279498039
30
0
0
SPLINE
5
FA
100
AcDbEntity
8
1
62
256
6
ByLayer
370
18
48
1
60
0
100
AcDbSpline
70
4
71
3
72
8
73
4
40
0
40
0
40
0
40
0
40
1
40
1
40
1
40
1
41
1
10
43.6042383827607
20
7.99410530676354
30
0
41
1
10
43.6568423877126
20
7.99056929917518
30
0
41
1
10
43.7094453805907
20
7.98701830693835
30
0
41
1
10
43.7620473725835
20
7.98345249539838
30
0
0
SPLINE
5
FB
100
AcDbEntity
8
1
62
256
6
ByLayer
370
13
48
1
60
0
100
AcDbSpline
70
4
71
3
72
10
73
6
40
0
40
0
40
0
40
0
40
0.311120253634106
40
0.655560126817053
40
1
40
1
40
1
40
1
41
1
10
10.0000000007462
20
-6.64546407282077
30
0
41
1
10
10.0000000007299
20
-6.8136659400304
30
0
41
1
10
10.000000000687
20
-7.14307202048627
30
0
41
1
10
10.0000000011499
20
-7.55923844524239
30
0
41
1
10
9.9999999999998
20
-7.77954815505873
30
0
41
1
10
9.99999999999997
20
-7.87236115214057
30
0
0
SPLINE
5
FC
100
AcDbEntity
8
1
62
256
6
ByLayer
370
18
48
1
60
0
100
AcDbSpline
70
4
71
3
72
19
73
15
40
0
40
0
40
0
40
0
40
0.249999999999984
40
0.249999999999984
40
0.374999999999981
40
0.374999999999981
40
0.499999999999978
40
0.624999999999974
40
0.624999999999974
40
0.687499999999977
40
0.687499999999977
40
0.74999999999998
40
0.74999999999998
40
1
40
1
40
1
40
1
41
1
10
8.93304440617069
20
-5.74696015295515
30
0
41
1
10
9.00933651483371
20
-5.84284683372417
30
0
41
1
10
9.08962835236616
20
-5.9338619037454
30
0
41
1
10
9.21562730189157
20
-6.06328657715
30
0
41
1
10
9.25863556036899
20
-6.10531065235634
30
0
41
1
10
9.34594575928375
20
-6.18648290035622
30
0
41
1
10
9.43459963113125
20
-6.26484744179191
30
0
41
1
10
9.52585147157893
20
-6.33765706399427
30
0
41
1
10
9.59525711790215
20
-6.39016953174234
30
0
41
1
10
9.61857167479164
20
-6.40733640830871
30
0
41
1
10
9.66535852029418
20
-6.44084727266585
30
0
41
1
10
9.68884628816997
20
-6.45720369217847
30
0
41
1
10
9.80675533634783
20
-6.53699695694257
30
0
41
1
10
9.90256741331493
20
-6.59450738055281
30
0
41
1
10
10.0000000007462
20
-6.64546407282077
30
0
0
SPLINE
5
FD
100
AcDbEntity
8
1
62
256
6
ByLayer
370
18
48
1
60
0
100
AcDbSpline
70
4
71
3
72
8
73
4
40
0
40
0
40
0
40
0
40
1
40
1
40
1
40
1
41
1
10
10.0000000007462
20
-6.6454640728208
30
0
41
1
10
10.0028463446347
20
-6.64695269457911
30
0
41
1
10
10.0056926218713
20
-6.64844065369201
30
0
41
1
10
10.0085388328451
20
-6.64992794980316
30
0
0
SPLINE
5
FE
100
AcDbEntity
8
1
62
256
6
ByLayer
370
18
48
1
60
0
100
AcDbSpline
70
4
71
3
72
36
73
32
40
0
40
0
40
0
40
0
40
0.101981268963875
40
0.101981268963875
40
0.130044354308755
40
0.130044354308755
40
0.158107439653635
40
0.158107439653635
40
0.214233610343395
40
0.214233610343395
40
0.326485951722912
40
0.326485951722912
40
0.38261212241267
40
0.38261212241267
40
0.438738293102429
40
0.438738293102429
40
0.550990634481942
40
0.550990634481942
40
0.607116805171699
40
0.607116805171699
40
0.663242975861456
40
0.719369146551213
40
0.747432231896092
40
0.747432231896092
40
0.775495317240971
40
0.775495317240971
40
0.831621487930728
40
0.831621487930728
40
0.887747658620486
40
0.887747658620486
40
1
40
1
40
1
40
1
41
1
10
19.2965361808533
20
-7.1058688051308
30
0
41
1
10
18.9814400391169
20
-7.1946290098042
30
0
41
1
10
18.6655163571577
20
-7.27349295412537
30
0
41
1
10
18.2609748588676
20
-7.36102406928029
30
0
41
1
10
18.1735759887228
20
-7.37913331853824
30
0
41
1
10
17.9985560277138
20
-7.41377336888829
30
0
41
1
10
17.9110477911472
20
-7.43028124931172
30
0
41
1
10
17.6489844667151
20
-7.47728159830814
30
0
41
1
10
17.4746928161877
20
-7.50528037445338
30
0
41
1
10
16.9528144351172
20
-7.57932877624617
30
0
41
1
10
16.6061961085605
20
-7.61565173355035
30
0
41
1
10
16.0873192656843
20
-7.65010531744926
30
0
41
1
10
15.9145282951498
20
-7.65830174347573
30
0
41
1
10
15.5691157481057
20
-7.66825530323467
30
0
41
1
10
15.3964957262799
20
-7.67000601672606
30
0
41
1
10
14.8786742814585
20
-7.66540222738058
30
0
41
1
10
14.533512065322
20
-7.64905679563824
30
0
41
1
10
14.0148766578542
20
-7.60513718129843
30
0
41
1
10
13.8418514654785
20
-7.58731365439041
30
0
41
1
10
13.4953496793994
20
-7.54503337438007
30
0
41
1
10
13.1483940013028
20
-7.49611623041801
30
0
41
1
10
12.7131509311478
20
-7.41847195921525
30
0
41
1
10
12.4511221462783
20
-7.3644765175998
30
0
41
1
10
12.276219054861
20
-7.32683183520175
30
0
41
1
10
12.1886363609734
20
-7.3071793264954
30
0
41
1
10
11.9262430393774
20
-7.24592018045877
30
0
41
1
10
11.7515565021771
20
-7.20198001152804
30
0
41
1
10
11.4025248536949
20
-7.10779686832743
30
0
41
1
10
11.2281765212795
20
-7.05756377187186
30
0
41
1
10
10.7053456261169
20
-6.89807859652436
30
0
41
1
10
10.357097896551
20
-6.77996726078439
30
0
41
1
10
10.008538832847
20
-6.6499279498037
30
0
0
SPLINE
5
FF
100
AcDbEntity
8
1
62
256
6
ByLayer
370
18
48
1
60
0
100
AcDbSpline
70
4
71
3
72
8
73
4
40
0
40
0
40
0
40
0
40
1
40
1
40
1
40
1
41
1
10
42.6703211919439
20
-0.248234875043522
30
0
41
1
10
42.6605673195886
20
-0.205701744043608
30
0
41
1
10
42.6541676666785
20
-0.16003440958346
30
0
41
1
10
42.6522459038106
20
-0.111239389731736
30
0
0
SPLINE
5
100
100
AcDbEntity
8
1
62
256
6
ByLayer
370
18
48
1
60
0
100
AcDbSpline
70
4
71
3
72
28
73
24
40
0
40
0
40
0
40
0
40
0.124999999999988
40
0.124999999999988
40
0.249999999999976
40
0.249999999999976
40
0.281249999999978
40
0.281249999999978
40
0.312499999999979
40
0.312499999999979
40
0.374999999999981
40
0.374999999999981
40
0.499999999999985
40
0.499999999999985
40
0.624999999999988
40
0.624999999999988
40
0.68749999999999
40
0.68749999999999
40
0.749999999999992
40
0.749999999999992
40
0.874999999999996
40
0.874999999999996
40
1
40
1
40
1
40
1
41
1
10
42.8845789946226
20
0.894224456732559
30
0
41
1
10
42.8495161152415
20
0.861515767066209
30
0
41
1
10
42.820093098695
20
0.826448685494796
30
0
41
1
10
42.7699224125041
20
0.753295742558237
30
0
41
1
10
42.749203075696
20
0.715192004548129
30
0
41
1
10
42.7278980245542
20
0.666350387370471
30
0
41
1
10
42.7238687370416
20
0.656520671963477
30
0
41
1
10
42.7162593119494
20
0.636753289395472
30
0
41
1
10
42.712673689925
20
0.626798292017327
30
0
41
1
10
42.7026276380253
20
0.596962164517066
30
0
41
1
10
42.6968659978435
20
0.5770941875424
30
0
41
1
10
42.6821194105041
20
0.517688952613781
30
0
41
1
10
42.6756549369419
20
0.478349245462596
30
0
41
1
10
42.6685825176139
20
0.400870622262062
30
0
41
1
10
42.6679792030794
20
0.362727835563845
30
0
41
1
10
42.6712179518628
20
0.306972535944567
30
0
41
1
10
42.6729918571752
20
0.288631546616017
30
0
41
1
10
42.6779311230126
20
0.252548520192249
30
0
41
1
10
42.6810826225839
20
0.234919671459096
30
0
41
1
10
42.6925055630291
20
0.183586680823055
30
0
41
1
10
42.702740067461
20
0.151356616265218
30
0
41
1
10
42.7285189907382
20
0.091791240507348
30
0
41
1
10
42.7440590195028
20
0.064455994304069
30
0
41
1
10
42.7625575695572
20
0.0401214425050114
30
0
0
SPLINE
5
101
100
AcDbEntity
8
1
62
256
6
ByLayer
370
18
48
1
60
0
100
AcDbSpline
70
4
71
3
72
12
73
8
40
0
40
0
40
0
40
0
40
0.367512407425341
40
0.367512407425341
40
0.735024814850682
40
0.735024814850682
40
1
40
1
40
1
40
1
41
1
10
42.7753894649823
20
-0.874330018358933
30
0
41
1
10
42.7578283914669
20
-0.917728745275213
30
0
41
1
10
42.7431464661499
20
-0.959481188589962
30
0
41
1
10
42.7190929540726
20
-1.04035834475499
30
0
41
1
10
42.7097210811045
20
-1.07950072689769
30
0
41
1
10
42.6982206213742
20
-1.14512992658902
30
0
41
1
10
42.6948499889907
20
-1.17181406872999
30
0
41
1
10
42.6929283536865
20
-1.19785475952239
30
0
0
SPLINE
5
102
100
AcDbEntity
8
1
62
256
6
ByLayer
370
18
48
1
60
0
100
AcDbSpline
70
4
71
3
72
8
73
4
40
0
40
0
40
0
40
0
40
1
40
1
40
1
40
1
41
1
10
42.6830490380692
20
-0.817864655845227
30
0
41
1
10
42.6828018850374
20
-0.795018180015205
30
0
41
1
10
42.6829901718327
20
-0.77221641180023
30
0
41
1
10
42.6836279440855
20
-0.749454757503344
30
0
0
SPLINE
5
103
100
AcDbEntity
8
1
62
256
6
ByLayer
370
18
48
1
60
0
100
AcDbSpline
70
4
71
3
72
28
73
24
40
0
40
0
40
0
40
0
40
0.124999999999999
40
0.124999999999999
40
0.187499999999998
40
0.187499999999998
40
0.249999999999997
40
0.249999999999997
40
0.374999999999995
40
0.374999999999995
40
0.437499999999994
40
0.437499999999994
40
0.499999999999993
40
0.499999999999993
40
0.624999999999991
40
0.624999999999991
40
0.749999999999988
40
0.749999999999988
40
0.812499999999987
40
0.812499999999987
40
0.874999999999986
40
0.874999999999986
40
1
40
1
40
1
40
1
41
1
10
42.6836279440854
20
-0.749454757503059
30
0
41
1
10
42.6757938795003
20
-0.737893735766676
30
0
41
1
10
42.6685826495104
20
-0.724493082672183
30
0
41
1
10
42.658841373936
20
-0.701545184786767
30
0
41
1
10
42.6557744811461
20
-0.693421796154496
30
0
41
1
10
42.6500366317992
20
-0.676216343810523
30
0
41
1
10
42.6473569207804
20
-0.667090391635099
30
0
41
1
10
42.6401122278286
20
-0.638843750758383
30
0
41
1
10
42.6362869221976
20
-0.618740546586196
30
0
41
1
10
42.6320919433902
20
-0.58698176886557
30
0
41
1
10
42.6309515162084
20
-0.576127333015648
30
0
41
1
10
42.6292007012462
20
-0.553923100770135
30
0
41
1
10
42.6285958522729
20
-0.542620833555958
30
0
41
1
10
42.6275948166396
20
-0.508513286950375
30
0
41
1
10
42.6279976682665
20
-0.485374513904446
30
0
41
1
10
42.6308875232508
20
-0.438517595806701
30
0
41
1
10
42.633375302134
20
-0.41479831626603
30
0
41
1
10
42.6386942294571
20
-0.378894880935349
30
0
41
1
10
42.6407390951238
20
-0.36683993048544
30
0
41
1
10
42.6453294545237
20
-0.342836151693064
30
0
41
1
10
42.6478736128285
20
-0.330884131612436
30
0
41
1
10
42.6562406032383
20
-0.295185279406724
30
0
41
1
10
42.6627961136527
20
-0.271595663348961
30
0
41
1
10
42.6703211919439
20
-0.248234875043522
30
0
0
SPLINE
5
104
100
AcDbEntity
8
1
62
256
6
ByLayer
370
18
48
1
60
0
100
AcDbSpline
70
4
71
3
72
39
73
35
40
0
40
0
40
0
40
0
40
0.144901303028698
40
0.144901303028698
40
0.217351954543046
40
0.217351954543046
40
0.289802606057394
40
0.289802606057394
40
0.326027931814567
40
0.326027931814567
40
0.362253257571741
40
0.362253257571741
40
0.43470390908609
40
0.43470390908609
40
0.470929234843264
40
0.470929234843264
40
0.507154560600438
40
0.507154560600438
40
0.579605212114791
40
0.579605212114791
40
0.652055863629143
40
0.652055863629143
40
0.67016852650773
40
0.67016852650773
40
0.688281189386316
40
0.724506515143499
40
0.724506515143499
40
0.796957166657863
40
0.796957166657863
40
0.869407818172228
40
0.869407818172228
40
0.941858469686592
40
0.941858469686592
40
1
40
1
40
1
40
1
41
1
10
43.6040894724487
20
7.99402091813076
30
0
41
1
10
43.6542583876261
20
7.86612571646697
30
0
41
1
10
43.6984293612643
20
7.7367208365942
30
0
41
1
10
43.7513019310545
20
7.53924479970777
30
0
41
1
10
43.7666758316408
20
7.47285305763043
30
0
41
1
10
43.7918390244638
20
7.33866393097725
30
0
41
1
10
43.8016339602189
20
7.27086796687155
30
0
41
1
10
43.8110394205057
20
7.16784330031342
30
0
41
1
10
43.8132916375925
20
7.13322626783736
30
0
41
1
10
43.8157808823977
20
7.06371296244754
30
0
41
1
10
43.8160105137522
20
7.02907013894344
30
0
41
1
10
43.8134465284139
20
6.92550647227196
30
0
41
1
10
43.8074055854564
20
6.85694981017119
30
0
41
1
10
43.7909173679251
20
6.75494771795101
30
0
41
1
10
43.7841824414271
20
6.72108595551094
30
0
41
1
10
43.7680673208918
20
6.65365909203018
30
0
41
1
10
43.7586360641867
20
6.61996257041088
30
0
41
1
10
43.7267050285983
20
6.52102983752778
30
0
41
1
10
43.7005145082616
20
6.45755163084041
30
0
41
1
10
43.6387950793601
20
6.33531272451964
30
0
41
1
10
43.6032673466092
20
6.27655143089612
30
0
41
1
10
43.5533609542262
20
6.20587661486724
30
0
41
1
10
43.5430977922589
20
6.19187320911499
30
0
41
1
10
43.522203741846
20
6.16435796956438
30
0
41
1
10
43.490251642584
20
6.12373618394219
30
0
41
1
10
43.4565614498812
20
6.08496641656376
30
0
41
1
10
43.3870858124216
20
6.00965946892785
30
0
41
1
10
43.3379860006243
20
5.96241995307253
30
0
41
1
10
43.2351636494415
20
5.87286664953578
30
0
41
1
10
43.1814176331208
20
5.8305629016885
30
0
41
1
10
43.0699649632498
20
5.75023581303515
30
0
41
1
10
43.0129730924138
20
5.71271569366803
30
0
41
1
10
42.9084119291322
20
5.64891532486234
30
0
41
1
10
42.8612036309674
20
5.62188103810931
30
0
41
1
10
42.8134338940898
20
5.59601947281428
30
0
0
SPLINE
5
105
100
AcDbEntity
8
1
62
256
6
ByLayer
370
18
48
1
60
0
100
AcDbSpline
70
4
71
3
72
16
73
12
40
0
40
0
40
0
40
0
40
0.231267323919816
40
0.231267323919816
40
0.462534647839632
40
0.462534647839632
40
0.693801971759448
40
0.693801971759448
40
0.925069295679264
40
0.925069295679264
40
1
40
1
40
1
40
1
41
1
10
43.6041429736873
20
7.99402253379242
30
0
41
1
10
43.2540998093641
20
7.98345243976462
30
0
41
1
10
42.9040566450409
20
7.95885682629446
30
0
41
1
10
42.2039703163944
20
7.88187284315833
30
0
41
1
10
41.8539271520713
20
7.82948461426227
30
0
41
1
10
41.1538408234249
20
7.69746582679736
30
0
41
1
10
40.8037976591017
20
7.61783550967803
30
0
41
1
10
40.1037113304553
20
7.43216924634868
30
0
41
1
10
39.7536681661323
20
7.32613364204502
30
0
41
1
10
39.2902108782707
20
7.16899952110398
30
0
41
1
10
39.1767967547325
20
7.12921927054296
30
0
41
1
10
39.0633826311942
20
7.08813501859211
30
0
0
SPLINE
5
106
100
AcDbEntity
8
1
62
256
6
ByLayer
370
18
48
1
60
0
100
AcDbSpline
70
4
71
3
72
12
73
8
40
0
40
0
40
0
40
0
40
0.322033920607558
40
0.322033920607558
40
0.661016960303779
40
0.661016960303779
40
1
40
1
40
1
40
1
41
1
10
13.0978813048291
20
-7.93890605279572
30
0
41
1
10
12.7653402647527
20
-7.97095399093402
30
0
41
1
10
12.4327992246762
20
-7.99043424564155
30
0
41
1
10
11.7502150202765
20
-8.00442724893884
30
0
41
1
10
11.4001718559533
20
-7.99757192896084
30
0
41
1
10
10.7000855273068
20
-7.95587084521202
30
0
41
1
10
10.3500423629837
20
-7.92102515722831
30
0
41
1
10
9.9999991986605
20
-7.87236728426882
30
0
0
SPLINE
5
107
100
AcDbEntity
8
1
62
256
6
ByLayer
370
18
48
1
60
0
100
AcDbSpline
70
4
71
3
72
19
73
15
40
0
40
0
40
0
40
0
40
0.25000000000001
40
0.25000000000001
40
0.37500000000001
40
0.37500000000001
40
0.50000000000001
40
0.625000000000009
40
0.625000000000009
40
0.687500000000009
40
0.687500000000009
40
0.750000000000009
40
0.750000000000009
40
1
40
1
40
1
40
1
41
1
10
9.99999999999997
20
-7.87236115214387
30
0
41
1
10
9.90341687141935
20
-7.84169142121911
30
0
41
1
10
9.80886841737657
20
-7.80310902419586
30
0
41
1
10
9.66926952132738
20
-7.73398145965373
30
0
41
1
10
9.62303306663731
20
-7.7090054889473
30
0
41
1
10
9.53173950428962
20
-7.65560258931961
30
0
41
1
10
9.44155311656854
20
-7.59872807477601
30
0
41
1
10
9.35333336098574
20
-7.53494270755266
30
0
41
1
10
9.2878269172916
20
-7.48446286691629
30
0
41
1
10
9.26608510074533
20
-7.46718141022259
30
0
41
1
10
9.22297105288735
20
-7.4318564308565
30
0
41
1
10
9.20158239564987
20
-7.41380103486236
30
0
41
1
10
9.09544797921666
20
-7.32154971749509
30
0
41
1
10
9.01311582590142
20
-7.24148345781262
30
0
41
1
10
8.93304440622035
20
-7.1546394543189
30
0
0
SPLINE
5
108
100
AcDbEntity
8
1
62
256
6
ByLayer
370
18
48
1
60
0
100
AcDbSpline
70
4
71
3
72
10
73
6
40
0
40
0
40
0
40
0
40
0.5
40
0.5
40
1
40
1
40
1
40
1
41
1
10
4.72743856970919
20
-7.56830087807251
30
0
41
1
10
4.76131728393497
20
-7.46144380500718
30
0
41
1
10
4.80162264642811
20
-7.3577811673685
30
0
41
1
10
4.89370365542322
20
-7.156157321525
30
0
41
1
10
4.94548560420546
20
-7.05819924593709
30
0
41
1
10
5.00256470954221
20
-6.96287417963404
30
0
0
SPLINE
5
109
100
AcDbEntity
8
1
62
256
6
ByLayer
370
18
48
1
60
0
100
AcDbSpline
70
4
71
3
72
18
73
14
40
0
40
0
40
0
40
0
40
0.20547595399478
40
0.20547595399478
40
0.41095190798956
40
0.41095190798956
40
0.61642786198434
40
0.61642786198434
40
0.82190381597912
40
0.82190381597912
40
0.924641792976511
40
0.924641792976511
40
1
40
1
40
1
40
1
41
1
10
5.00256470954221
20
-6.96287417963404
30
0
41
1
10
5.14292001974107
20
-6.95275871928087
30
0
41
1
10
5.28421420029099
20
-6.93909951979703
30
0
41
1
10
5.56863626310644
20
-6.9049978715762
30
0
41
1
10
5.71176541602122
20
-6.88455192574745
30
0
41
1
10
5.99996955638346
20
-6.83720285750542
30
0
41
1
10
6.14504399805995
20
-6.81030435749213
30
0
41
1
10
6.43738054175586
20
-6.75044649346026
30
0
41
1
10
6.5846430575065
20
-6.71748557723194
30
0
41
1
10
6.8074639590607
20
-6.6637849177614
30
0
41
1
10
6.88209831571851
20
-6.64516475484064
30
0
41
1
10
7.0118654066674
20
-6.61175863172528
30
0
41
1
10
7.06690019457884
20
-6.59727238850209
30
0
41
1
10
7.12207233373923
20
-6.58244902074674
30
0
0
SPLINE
5
10A
100
AcDbEntity
8
1
62
256
6
ByLayer
370
18
48
1
60
0
100
AcDbSpline
70
4
71
3
72
20
73
16
40
0
40
0
40
0
40
0
40
0.250000000000003
40
0.250000000000003
40
0.500000000000005
40
0.500000000000005
40
0.562499999999999
40
0.562499999999999
40
0.624999999999993
40
0.624999999999993
40
0.749999999999996
40
0.749999999999996
40
0.874999999999998
40
0.874999999999998
40
1
40
1
40
1
40
1
41
1
10
5.00835121605016
20
-5.6897611561312
30
0
41
1
10
4.90470933740954
20
-5.64247774166404
30
0
41
1
10
4.79712343072868
20
-5.60016302248891
30
0
41
1
10
4.57414960941421
20
-5.52620452940894
30
0
41
1
10
4.4587755954341
20
-5.49453546966143
30
0
41
1
10
4.30903651154088
20
-5.46300729354783
30
0
41
1
10
4.27885228384974
20
-5.45712133662988
30
0
41
1
10
4.21843126586074
20
-5.44630837141469
30
0
41
1
10
4.18813475813508
20
-5.44136838268997
30
0
41
1
10
4.09697979613068
20
-5.42800641093962
30
0
41
1
10
4.03585756572207
20
-5.42103380007771
30
0
41
1
10
3.91283576420915
20
-5.41144058804537
30
0
41
1
10
3.85093762445919
20
-5.40881220969735
30
0
41
1
10
3.72622351854864
20
-5.40874310156551
30
0
41
1
10
3.66341153916431
20
-5.41128099322603
30
0
41
1
10
3.60000000075351
20
-5.41720492841108
30
0
0
SPLINE
5
10B
100
AcDbEntity
8
1
62
256
6
ByLayer
370
18
48
1
60
0
100
AcDbSpline
70
4
71
3
72
14
73
10
40
0
40
0
40
0
40
0
40
0.249999999999998
40
0.249999999999998
40
0.374999999999999
40
0.374999999999999
40
0.5
40
0.5
40
1
40
1
40
1
40
1
41
1
10
8.93304440622029
20
-7.15463945431895
30
0
41
1
10
8.60726160397351
20
-7.07064212209042
30
0
41
1
10
8.281446104602
20
-6.97630938872828
30
0
41
1
10
7.79192721727503
20
-6.82009225102269
30
0
41
1
10
7.62857262595418
20
-6.76553956862708
30
0
41
1
10
7.30170726751368
20
-6.65170117490408
30
0
41
1
10
7.13832692426587
20
-6.59246413425282
30
0
41
1
10
6.32139301914256
20
-6.2850516569757
30
0
41
1
10
5.66771721455993
20
-6.00324563215125
30
0
41
1
10
5.01042971766208
20
-5.68952283269823
30
0
0
SPLINE
5
10C
100
AcDbEntity
8
1
62
256
6
ByLayer
370
18
48
1
60
0
100
AcDbSpline
70
4
71
3
72
10
73
6
40
0
40
0
40
0
40
0
40
0.321600017930975
40
0.672327837568826
40
1
40
1
40
1
40
1
41
1
10
8.93304440616959
20
-5.7469601529535
30
0
41
1
10
8.93304440616947
20
-5.93370302776506
30
0
41
1
10
8.93304440616689
20
-6.30211373469345
30
0
41
1
10
8.93304440608071
20
-6.77511284035685
30
0
41
1
10
8.93304440636223
20
-7.04046282323418
30
0
41
1
10
8.93304440622032
20
-7.15463945431884
30
0
0
SPLINE
5
10D
100
AcDbEntity
8
1
62
256
6
ByLayer
370
18
48
1
60
0
100
AcDbSpline
70
4
71
3
72
8
73
4
40
0
40
0
40
0
40
0
40
1
40
1
40
1
40
1
41
1
10
8.58958642730951
20
-5.58984130875925
30
0
41
1
10
8.70411565359106
20
-5.64315635185426
30
0
41
1
10
8.81859527081363
20
-5.69553753572205
30
0
41
1
10
8.93304440616959
20
-5.7469601529535
30
0
0
SPLINE
5
10E
100
AcDbEntity
8
1
62
256
6
ByLayer
370
18
48
1
60
0
100
AcDbSpline
70
4
71
3
72
12
73
8
40
0
40
0
40
0
40
0
40
0.249999999999999
40
0.249999999999999
40
0.499999999999999
40
0.499999999999999
40
1
40
1
40
1
40
1
41
1
10
5.14288862577035
20
5.4452954176152
30
0
41
1
10
5.15754556965675
20
5.40341312120046
30
0
41
1
10
5.17418418124973
20
5.36160423930198
30
0
41
1
10
5.21079147950783
20
5.27944326185346
30
0
41
1
10
5.23078771190032
20
5.2389805021445
30
0
41
1
10
5.29559496925691
20
5.11935081563701
30
0
41
1
10
5.34521039138187
20
5.0419373124906
30
0
41
1
10
5.40074839902729
20
4.96668532954868
30
0
0
SPLINE
5
10F
100
AcDbEntity
8
1
62
256
6
ByLayer
370
18
48
1
60
0
100
AcDbSpline
70
4
71
3
72
16
73
12
40
0
40
0
40
0
40
0
40
0.25
40
0.25
40
0.5
40
0.5
40
0.75
40
0.75
40
0.875
40
0.875
40
1
40
1
40
1
40
1
41
1
10
1.9976789221609
20
7.57584002025325
30
0
41
1
10
2.09461915545833
20
7.57074237697762
30
0
41
1
10
2.19506847517405
20
7.56559964135835
30
0
41
1
10
2.40124246782781
20
7.55586186094851
30
0
41
1
10
2.50698600193471
20
7.55125895733957
30
0
41
1
10
2.72280725629631
20
7.54291873385216
30
0
41
1
10
2.83289270087801
20
7.53917838151827
30
0
41
1
10
3.00084002828498
20
7.53434937470286
30
0
41
1
10
3.0574264962396
20
7.53286632836085
30
0
41
1
10
3.17052453676408
20
7.53019428027523
30
0
41
1
10
3.22710118096472
20
7.52900261790856
30
0
41
1
10
3.28370312526792
20
7.52795344852231
30
0
0
SPLINE
5
110
100
AcDbEntity
8
1
62
256
6
ByLayer
370
18
48
1
60
0
100
AcDbSpline
70
4
71
3
72
20
73
16
40
0
40
0
40
0
40
0
40
0.249999999999931
40
0.249999999999931
40
0.312499999999923
40
0.312499999999923
40
0.374999999999915
40
0.374999999999915
40
0.499999999999932
40
0.499999999999932
40
0.624999999999949
40
0.624999999999949
40
0.749999999999966
40
0.749999999999966
40
1
40
1
40
1
40
1
41
1
10
1.497678922169
20
7.72093303809723
30
0
41
1
10
1.53816385459155
20
7.69805192554986
30
0
41
1
10
1.58009380696444
20
7.6776642157657
30
0
41
1
10
1.63431399104667
20
7.65537523390765
30
0
41
1
10
1.6452322795559
20
7.65108636717562
30
0
41
1
10
1.66688161508509
20
7.64296129839661
30
0
41
1
10
1.67765985552711
20
7.6391053036287
30
0
41
1
10
1.70987788951965
20
7.6281162451188
30
0
41
1
10
1.73120175642393
20
7.62156023896191
30
0
41
1
10
1.77363910923739
20
7.60982493858845
30
0
41
1
10
1.79481784307197
20
7.60463253097592
30
0
41
1
10
1.83673486630226
20
7.59558023305837
30
0
41
1
10
1.85737445701022
20
7.59173649679818
30
0
41
1
10
1.91856984387863
20
7.58200634784561
30
0
41
1
10
1.95841542005945
20
7.57790470815897
30
0
41
1
10
1.9976789221615
20
7.57584002025121
30
0
0
SPLINE
5
111
100
AcDbEntity
8
1
62
256
6
ByLayer
370
18
48
1
60
0
100
AcDbSpline
70
4
71
3
72
24
73
20
40
0
40
0
40
0
40
0
40
0.124999999999999
40
0.124999999999999
40
0.249999999999997
40
0.249999999999997
40
0.312499999999996
40
0.312499999999996
40
0.374999999999995
40
0.374999999999995
40
0.499999999999996
40
0.499999999999996
40
0.624999999999997
40
0.624999999999997
40
0.749999999999998
40
0.749999999999998
40
0.874999999999999
40
0.874999999999999
40
1
40
1
40
1
40
1
41
1
10
5.14288862577032
20
5.4452954176152
30
0
41
1
10
5.0040619118503
20
5.53742377231211
30
0
41
1
10
4.86549419421507
20
5.62751193086754
30
0
41
1
10
4.58884578782184
20
5.8034416621467
30
0
41
1
10
4.45076451354979
20
5.88928394150417
30
0
41
1
10
4.24408969270755
20
6.01477758022492
30
0
41
1
10
4.17527375180808
20
6.05606416781163
30
0
41
1
10
4.03782202154983
20
6.13753687797268
30
0
41
1
10
3.96911623269267
20
6.17776316176415
30
0
41
1
10
3.76395067988781
20
6.29641886058434
30
0
41
1
10
3.62844694086712
20
6.37282403143922
30
0
41
1
10
3.36053428844642
20
6.52026343261358
30
0
41
1
10
3.22812213475589
20
6.5912986787331
30
0
41
1
10
2.96723975005915
20
6.72798725191109
30
0
41
1
10
2.83876307022976
20
6.79364191998928
30
0
41
1
10
2.58703841727734
20
6.91948493369611
30
0
41
1
10
2.46377673247375
20
6.97967543788954
30
0
41
1
10
2.22449071709192
20
7.09438218641063
30
0
41
1
10
2.10843341363321
20
7.14890269221561
30
0
41
1
10
1.99767892217582
20
7.20037544377408
30
0
0
SPLINE
5
112
100
AcDbEntity
8
1
62
256
6
ByLayer
370
18
48
1
60
0
100
AcDbSpline
70
4
71
3
72
10
73
6
40
0
40
0
40
0
40
0
40
0.5
40
0.5
40
1
40
1
40
1
40
1
41
1
10
43.769302519886
20
3.96569006875822
30
0
41
1
10
43.7440386148418
20
3.77399458887186
30
0
41
1
10
43.7307577585335
20
3.57546296025939
30
0
41
1
10
43.728221134141
20
3.16469375224705
30
0
41
1
10
43.7389629892308
20
2.95245752879052
30
0
41
1
10
43.7620473725835
20
2.73318007895497
30
0
0
SPLINE
5
113
100
AcDbEntity
8
1
62
256
6
ByLayer
370
18
48
1
60
0
100
AcDbSpline
70
4
71
3
72
14
73
10
40
0
40
0
40
0
40
0
40
0.125000000000001
40
0.125000000000001
40
0.250000000000002
40
0.250000000000002
40
0.500000000000003
40
0.500000000000003
40
1
40
1
40
1
40
1
41
1
10
43.7693025198859
20
3.96569006875822
30
0
41
1
10
43.7445321265815
20
4.03281029152345
30
0
41
1
10
43.7197972108066
20
4.09920151274463
30
0
41
1
10
43.6703988361249
20
4.23051564079589
30
0
41
1
10
43.6457581486825
20
4.29537699145223
30
0
41
1
10
43.5721877170684
20
4.48711535522301
30
0
41
1
10
43.5235394703343
20
4.61133546937037
30
0
41
1
10
43.3787881581153
20
4.97320379764389
30
0
41
1
10
43.2838735227125
20
5.20010519296616
30
0
41
1
10
43.1905958639526
20
5.41220362122195
30
0
0
SPLINE
5
114
100
AcDbEntity
8
1
62
256
6
ByLayer
370
18
48
1
60
0
100
AcDbSpline
70
4
71
3
72
25
73
21
40
0
40
0
40
0
40
0
40
0.152357730949535
40
0.152357730949535
40
0.304715461899071
40
0.304715461899071
40
0.457073192848606
40
0.457073192848606
40
0.609430923798142
40
0.609430923798142
40
0.685609789272907
40
0.685609789272907
40
0.723699222010292
40
0.723699222010292
40
0.742743938378987
40
0.742743938378987
40
0.761788654747681
40
0.914146385697248
40
0.914146385697248
40
1
40
1
40
1
40
1
41
1
10
43.1905958639356
20
5.41220362123118
30
0
41
1
10
42.8443616582683
20
5.5935757726798
30
0
41
1
10
42.4993825737306
20
5.76501909504984
30
0
41
1
10
41.8106652139989
20
6.08736258006925
30
0
41
1
10
41.46693502504
20
6.23824978940414
30
0
41
1
10
40.7795218840429
20
6.518251821973
30
0
41
1
10
40.4358287338338
20
6.64744589684003
30
0
41
1
10
39.7472317579136
20
6.88342785913338
30
0
41
1
10
39.4023316438041
20
6.99009340104456
30
0
41
1
10
38.8831180304362
20
7.13235451737549
30
0
41
1
10
38.7097368294652
20
7.17683876932708
30
0
41
1
10
38.4490813252899
20
7.23907756097938
30
0
41
1
10
38.3620987460643
20
7.25907373607171
30
0
41
1
10
38.2314629649894
20
7.28792403945633
30
0
41
1
10
38.1878741361231
20
7.29735355036627
30
0
41
1
10
38.1007710887251
20
7.31580056891329
30
0
41
1
10
37.7090525552544
20
7.39698223746237
30
0
41
1
10
37.3194429085165
20
7.46162978410962
30
0
41
1
10
36.7795414195728
20
7.5313097091138
30
0
41
1
10
36.585278720074
20
7.55231023289829
30
0
41
1
10
36.3912277493371
20
7.56917020544836
30
0
0
SPLINE
5
115
100
AcDbEntity
8
1
62
256
6
ByLayer
370
18
48
1
60
0
100
AcDbSpline
70
4
71
3
72
8
73
4
40
0
40
0
40
0
40
0
40
1
40
1
40
1
40
1
41
1
10
43.6042383827607
20
2.7643957184635
30
0
41
1
10
43.6568423877126
20
2.75399508899537
30
0
41
1
10
43.7094453805907
20
2.74358985886852
30
0
41
1
10
43.7620473725835
20
2.73318007895497
30
0
0
SPLINE
5
116
100
AcDbEntity
8
1
62
256
6
ByLayer
370
18
48
1
60
0
100
AcDbSpline
70
4
71
3
72
41
73
37
40
0
40
0
40
0
40
0
40
0.124999999999968
40
0.124999999999968
40
0.187499999999952
40
0.187499999999952
40
0.249999999999936
40
0.249999999999936
40
0.281249999999928
40
0.281249999999928
40
0.312499999999919
40
0.312499999999919
40
0.374999999999903
40
0.374999999999903
40
0.406249999999894
40
0.406249999999894
40
0.437499999999885
40
0.437499999999885
40
0.499999999999868
40
0.499999999999868
40
0.562499999999851
40
0.562499999999851
40
0.578124999999852
40
0.578124999999852
40
0.593749999999853
40
0.624999999999863
40
0.624999999999863
40
0.687499999999884
40
0.687499999999884
40
0.749999999999905
40
0.749999999999905
40
0.812499999999926
40
0.812499999999926
40
0.874999999999947
40
0.874999999999947
40
1
40
1
40
1
40
1
41
1
10
43.6040894724486
20
2.76439505412861
30
0
41
1
10
43.6542583876261
20
2.71476217190187
30
0
41
1
10
43.6984293612643
20
2.6657051145306
30
0
41
1
10
43.7513019310545
20
2.59340443211247
30
0
41
1
10
43.7666758316407
20
2.56952024084612
30
0
41
1
10
43.7918390244637
20
2.52228800163439
30
0
41
1
10
43.8016339602189
20
2.49893941189004
30
0
41
1
10
43.8110394205056
20
2.46442409363917
30
0
41
1
10
43.8132916375924
20
2.45298677230659
30
0
41
1
10
43.8157808823976
20
2.43037830482155
30
0
41
1
10
43.8160105137521
20
2.41928929434064
30
0
41
1
10
43.8134465284139
20
2.38671201805931
30
0
41
1
10
43.8074055854563
20
2.3659123299079
30
0
41
1
10
43.7909173679251
20
2.33628761037377
30
0
41
1
10
43.784182441427
20
2.32667539602775
30
0
41
1
10
43.7680673208917
20
2.30801188174749
30
0
41
1
10
43.7586360641866
20
2.29892766944144
30
0
41
1
10
43.7267050285982
20
2.27300407244164
30
0
41
1
10
43.7005145082615
20
2.25737595745278
30
0
41
1
10
43.63879507936
20
2.22927041533129
30
0
41
1
10
43.6032673466091
20
2.21679259148962
30
0
41
1
10
43.5533609542261
20
2.20304985755072
30
0
41
1
10
43.5430977922588
20
2.20039295769658
30
0
41
1
10
43.5222037418459
20
2.19530075545021
30
0
41
1
10
43.4902516425839
20
2.18797780676653
30
0
41
1
10
43.456561449881
20
2.18155190342216
30
0
41
1
10
43.3870858124214
20
2.16978147478071
30
0
41
1
10
43.3379860006243
20
2.16337070874573
30
0
41
1
10
43.2351636494414
20
2.15293500711576
30
0
41
1
10
43.1814176331208
20
2.14891741194981
30
0
41
1
10
43.0699649632498
20
2.14294553011064
30
0
41
1
10
43.0129730924137
20
2.14102573424697
30
0
41
1
10
42.89695505371
20
2.13889992695047
30
0
41
1
10
42.8379271670912
20
2.13869536347175
30
0
41
1
10
42.6583367120026
20
2.14019351146078
30
0
41
1
10
42.5352970489757
20
2.14398304015293
30
0
41
1
10
42.4099169715661
20
2.14974424046815
30
0
0
SPLINE
5
117
100
AcDbEntity
8
1
62
256
6
ByLayer
370
18
48
1
60
0
100
AcDbSpline
70
4
71
3
72
36
73
32
40
0
40
0
40
0
40
0
40
0.124999999999962
40
0.124999999999962
40
0.187499999999936
40
0.187499999999936
40
0.21874999999993
40
0.21874999999993
40
0.249999999999925
40
0.249999999999925
40
0.374999999999918
40
0.374999999999918
40
0.437499999999915
40
0.437499999999915
40
0.499999999999912
40
0.499999999999912
40
0.624999999999906
40
0.624999999999906
40
0.687499999999903
40
0.687499999999903
40
0.718749999999902
40
0.718749999999902
40
0.749999999999901
40
0.749999999999901
40
0.874999999999939
40
0.874999999999939
40
0.937499999999969
40
0.937499999999969
40
0.968749999999985
40
0.968749999999985
40
1
40
1
40
1
40
1
41
1
10
41.1611510223105
20
1.25279202959069
30
0
41
1
10
41.1922030483881
20
1.3141520780367
30
0
41
1
10
41.2271026277211
20
1.37382705885818
30
0
41
1
10
41.2846944039135
20
1.46125571194742
30
0
41
1
10
41.3047737097524
20
1.49004549080996
30
0
41
1
10
41.3362246942674
20
1.53270292977319
30
0
41
1
10
41.3469308852818
20
1.54683383009666
30
0
41
1
10
41.3687963974021
20
1.57491485786539
30
0
41
1
10
41.3799777121211
20
1.5888902153836
30
0
41
1
10
41.4364790489534
20
1.65761814517089
30
0
41
1
10
41.4839133762333
20
1.70942509569804
30
0
41
1
10
41.5586350699759
20
1.7823764427452
30
0
41
1
10
41.5841403496173
20
1.80589592513715
30
0
41
1
10
41.6364268792637
20
1.85128391277681
30
0
41
1
10
41.6632933823515
20
1.87320832667032
30
0
41
1
10
41.7446052383761
20
1.93536088027264
30
0
41
1
10
41.800112112942
20
1.97234743217905
30
0
41
1
10
41.8858673352753
20
2.02102949096809
30
0
41
1
10
41.9148703052795
20
2.03611726640739
30
0
41
1
10
41.9591178438377
20
2.05694639370449
30
0
41
1
10
41.9740225130145
20
2.06360113860052
30
0
41
1
10
42.0039302149074
20
2.07621282603327
30
0
41
1
10
42.0189258456754
20
2.08216852355866
30
0
41
1
10
42.0941587594631
20
2.11018418362232
30
0
41
1
10
42.1551399338301
20
2.12701171719678
30
0
41
1
10
42.2488983945993
20
2.14299424911593
30
0
41
1
10
42.2805361510419
20
2.14676795285658
30
0
41
1
10
42.3287561753931
20
2.14987000497985
30
0
41
1
10
42.3449316530916
20
2.15047330988284
30
0
41
1
10
42.377339210151
20
2.15078450728362
30
0
41
1
10
42.3935959013088
20
2.15049419179161
30
0
41
1
10
42.4099169715757
20
2.14974424046676
30
0
0
SPLINE
5
118
100
AcDbEntity
8
1
62
256
6
ByLayer
370
18
48
1
60
0
100
AcDbSpline
70
4
71
3
72
25
73
21
40
0
40
0
40
0
40
0
40
0.0625
40
0.0625
40
0.125
40
0.125
40
0.249999999999999
40
0.249999999999999
40
0.374999999999999
40
0.374999999999999
40
0.499999999999998
40
0.499999999999998
40
0.624999999999998
40
0.624999999999998
40
0.656249999999998
40
0.656249999999998
40
0.687499999999998
40
0.749999999999998
40
0.749999999999998
40
1
40
1
40
1
40
1
41
1
10
42.9874370140361
20
-1.43526137604084
30
0
41
1
10
42.9928729586954
20
-1.48223517005027
30
0
41
1
10
42.9981445258855
20
-1.52904872987313
30
0
41
1
10
43.0082956023124
20
-1.62194767000165
30
0
41
1
10
43.0131783103549
20
-1.66805763157842
30
0
41
1
10
43.0272141133445
20
-1.80530942659709
30
0
41
1
10
43.0357586045102
20
-1.89537971533056
30
0
41
1
10
43.0509645374214
20
-2.07220488184555
30
0
41
1
10
43.0576092739375
20
-2.15893034738764
30
0
41
1
10
43.0687304330175
20
-2.32856361349383
30
0
41
1
10
43.0732236097749
20
-2.41150091250648
30
0
41
1
10
43.0798622685739
20
-2.57324201690776
30
0
41
1
10
43.0820087723867
20
-2.6520476212886
30
0
41
1
10
43.0830134392732
20
-2.74759942327802
30
0
41
1
10
43.083129684774
20
-2.76654649453863
30
0
41
1
10
43.0831880384762
20
-2.80392676880612
30
0
41
1
10
43.0830151430283
20
-2.85930103679354
30
0
41
1
10
43.0820481557071
20
-2.91255262185018
30
0
41
1
10
43.0769830335941
20
-3.08513451622051
30
0
41
1
10
43.0670051705661
20
-3.20735989865872
30
0
41
1
10
43.0499499527973
20
-3.31066684028872
30
0
0
SPLINE
5
119
100
AcDbEntity
8
1
62
256
6
ByLayer
370
18
48
1
60
0
100
AcDbSpline
70
4
71
3
72
14
73
10
40
0
40
0
40
0
40
0
40
0.500000000000024
40
0.500000000000024
40
0.625000000000018
40
0.625000000000018
40
0.750000000000012
40
0.750000000000012
40
1
40
1
40
1
40
1
41
1
10
41.4577964238765
20
-0.133421904730398
30
0
41
1
10
41.7107919647865
20
-0.347204031836498
30
0
41
1
10
41.9649754856327
20
-0.562769818086906
30
0
41
1
10
42.2841814419119
20
-0.834443983307068
30
0
41
1
10
42.3480964300579
20
-0.888889616621242
30
0
41
1
10
42.4760736645965
20
-0.998001980012134
30
0
41
1
10
42.5401355035134
20
-1.05266844072213
30
0
41
1
10
42.7320662258353
20
-1.2165923487498
30
0
41
1
10
42.8598394025276
20
-1.32590988664347
30
0
41
1
10
42.9874370140361
20
-1.43526137604084
30
0
0
SPLINE
5
11A
100
AcDbEntity
8
1
62
256
6
ByLayer
370
18
48
1
60
0
100
AcDbSpline
70
4
71
3
72
32
73
28
40
0
40
0
40
0
40
0
40
0.125000000000019
40
0.125000000000019
40
0.187500000000021
40
0.187500000000021
40
0.218750000000021
40
0.218750000000021
40
0.250000000000022
40
0.250000000000022
40
0.375000000000025
40
0.375000000000025
40
0.437500000000027
40
0.437500000000027
40
0.468750000000028
40
0.468750000000028
40
0.500000000000029
40
0.500000000000029
40
0.625000000000021
40
0.625000000000021
40
0.687500000000017
40
0.687500000000017
40
0.750000000000014
40
0.750000000000014
40
0.875000000000007
40
0.875000000000007
40
1
40
1
40
1
40
1
41
1
10
41.4577964238759
20
-0.133421904730625
30
0
41
1
10
41.4056414112509
20
-0.089350734550635
30
0
41
1
10
41.3574162029415
20
-0.0426222866108787
30
0
41
1
10
41.2912520044499
20
0.0317135737169281
30
0
41
1
10
41.2702298121442
20
0.0572026180697947
30
0
41
1
10
41.2403162416582
20
0.0965664011352203
30
0
41
1
10
41.2306152749557
20
0.109876275610247
30
0
41
1
10
41.211769166093
20
0.136887226006309
30
0
41
1
10
41.2026031813016
20
0.150621571672303
30
0
41
1
10
41.1584753823811
20
0.219886894003622
30
0
41
1
10
41.1288021185822
20
0.276802884578785
30
0
41
1
10
41.0925303474493
20
0.364652179036114
30
0
41
1
10
41.081817940507
20
0.394349841033659
30
0
41
1
10
41.0678389619102
20
0.439565371583882
30
0
41
1
10
41.0635279175891
20
0.454748867570856
30
0
41
1
10
41.0556111742439
20
0.485348942872719
30
0
41
1
10
41.0519997550203
20
0.500798449971313
30
0
41
1
10
41.0358661987262
20
0.577969959686897
30
0
41
1
10
41.0289562033211
20
0.639827605618422
30
0
41
1
10
41.027021723279
20
0.733145300292989
30
0
41
1
10
41.0277891921398
20
0.76433981606678
30
0
41
1
10
41.0321352728867
20
0.8269716209455
30
0
41
1
10
41.0357416245894
20
0.858537444801868
30
0
41
1
10
41.0505513993832
20
0.952170258597192
30
0
41
1
10
41.065667773092
20
1.01354169263877
30
0
41
1
10
41.105840413351
20
1.13451651756944
30
0
41
1
10
41.1309300491458
20
1.19407430211345
30
0
41
1
10
41.1611510223104
20
1.25279202959069
30
0
0
SPLINE
5
11B
100
AcDbEntity
8
1
62
256
6
ByLayer
370
18
48
1
60
0
100
AcDbSpline
70
4
71
5
72
24
73
18
40
0
40
0
40
0
40
0
40
0
40
0
40
0.0419604352626749
40
0.134778262971156
40
0.227596090679637
40
0.28947464248529
40
0.382292470193771
40
0.444171021999425
40
0.536988849707906
40
0.59886740151356
40
0.691685229222041
40
0.784503056930521
40
0.846381608736175
40
0.939199436444656
40
1
40
1
40
1
40
1
40
1
40
1
41
1
10
32.1357314450708
20
4.37610929838553
30
0
41
1
10
32.2114735518487
20
4.36143667865446
30
0
41
1
10
32.4547596264899
20
4.31334637952634
30
0
41
1
10
32.8655896689946
20
4.22695228908643
30
0
41
1
10
33.3881156900747
20
4.10614154962781
30
0
41
1
10
34.0781856790184
20
3.92890508225329
30
0
41
1
10
34.8042095397597
20
3.72158160969849
30
0
41
1
10
35.5302334005012
20
3.49632836548693
30
0
41
1
10
36.2004092719547
20
3.27275370776579
30
0
41
1
10
36.9264331326961
20
3.01479522501023
30
0
41
1
10
37.6524569934375
20
2.74220314836504
30
0
41
1
10
38.3784808541789
20
2.45499976037081
30
0
41
1
10
39.1045047149202
20
2.15593062764486
30
0
41
1
10
39.8285827164099
20
1.84627793900333
30
0
41
1
10
40.3851167500362
20
1.6015232140858
30
0
41
1
10
40.7741068157992
20
1.42766723514737
30
0
41
1
10
41.0514009029865
20
1.30250847134599
30
0
41
1
10
41.1611510223104
20
1.25279202959069
30
0
0
SPLINE
5
11C
100
AcDbEntity
8
1
62
256
6
ByLayer
370
18
48
1
60
0
100
AcDbSpline
70
4
71
3
72
13
73
9
40
0
40
0
40
0
40
0
40
0.0960581820605423
40
0.204044244785509
40
0.420016370235442
40
0.635988495685375
40
0.851960621135309
40
1
40
1
40
1
40
1
41
1
10
9.05228617042792
20
3.70064220293176
30
0
41
1
10
9.0345907023009
20
3.6476456609611
30
0
41
1
10
8.97078713741931
20
3.543255808277
30
0
41
1
10
8.82542261719138
20
3.36011854561073
30
0
41
1
10
8.65983290041919
20
3.17143811541575
30
0
41
1
10
8.5073775201468
20
3.02220927602838
30
0
41
1
10
8.43413496194469
20
2.94400828239452
30
0
41
1
10
8.43349743168517
20
2.91639481254939
30
0
41
1
10
8.44105397341164
20
2.90711633338628
30
0
0
SPLINE
5
11D
100
AcDbEntity
8
1
62
256
6
ByLayer
370
18
48
1
60
0
100
AcDbSpline
70
4
71
3
72
8
73
4
40
0
40
0
40
0
40
0
40
1
40
1
40
1
40
1
41
1
10
8.5609898086949
20
2.86642887229795
30
0
41
1
10
8.68505752355725
20
2.78865017779867
30
0
41
1
10
8.80906828375743
20
2.7101771048099
30
0
41
1
10
8.93304440616956
20
2.63103481681713
30
0
0
SPLINE
5
11E
100
AcDbEntity
8
1
62
256
6
ByLayer
370
18
48
1
60
0
100
AcDbSpline
70
4
71
3
72
17
73
13
40
0
40
0
40
0
40
0
40
0.249999999999998
40
0.249999999999998
40
0.499999999999996
40
0.499999999999996
40
0.562499999999996
40
0.562499999999996
40
0.624999999999995
40
0.749999999999998
40
0.749999999999998
40
1
40
1
40
1
40
1
41
1
10
5.40074839902729
20
4.96668532954868
30
0
41
1
10
5.65073022850487
20
4.80501232802132
30
0
41
1
10
5.90330241265363
20
4.63819409317182
30
0
41
1
10
6.4145565036109
20
4.29597111956082
30
0
41
1
10
6.67324081585784
20
4.12057913333746
30
0
41
1
10
7.00170351655456
20
3.89788419724766
30
0
41
1
10
7.06767859796688
20
3.85315837457847
30
0
41
1
10
7.20006710331509
20
3.76350566514623
30
0
41
1
10
7.39924373635941
20
3.62877003221144
30
0
41
1
10
7.60038869287334
20
3.49354237635848
30
0
41
1
10
8.00586386447003
20
3.22328655606267
30
0
41
1
10
8.28040504222986
20
3.04334592443129
30
0
41
1
10
8.56093533044611
20
2.86636246985768
30
0
0
SPLINE
5
11F
100
AcDbEntity
8
1
62
256
6
ByLayer
370
18
48
1
60
0
100
AcDbSpline
70
4
71
2
72
6
73
3
40
0
40
0
40
0
40
1
40
1
40
1
41
1
10
5.40074839902729
20
4.96668532954868
30
0
41
1
10
4.50037419989045
20
5.00261065022679
30
0
41
1
10
3.60000000075357
20
5.03853597090489
30
0
0
SPLINE
5
120
100
AcDbEntity
8
1
62
256
6
ByLayer
370
18
48
1
60
0
100
AcDbSpline
70
4
71
3
72
20
73
16
40
0
40
0
40
0
40
0
40
0.24999999999998
40
0.24999999999998
40
0.49999999999996
40
0.49999999999996
40
0.562499999999965
40
0.562499999999965
40
0.62499999999997
40
0.62499999999997
40
0.74999999999998
40
0.74999999999998
40
0.87499999999999
40
0.87499999999999
40
1
40
1
40
1
40
1
41
1
10
5.00835121605022
20
2.27721453304937
30
0
41
1
10
4.9047093374096
20
2.34431327737113
30
0
41
1
10
4.7971234307287
20
2.40411066182344
30
0
41
1
10
4.57414960941426
20
2.50964235000888
30
0
41
1
10
4.45877559543416
20
2.55539887555773
30
0
41
1
10
4.30903651154091
20
2.60287060685502
30
0
41
1
10
4.2788522838498
20
2.61185553997592
30
0
41
1
10
4.21843126586077
20
2.62865290712588
30
0
41
1
10
4.18813475813516
20
2.63648477186297
30
0
41
1
10
4.09697979613071
20
2.65823312696202
30
0
41
1
10
4.0358575657221
20
2.67041338678507
30
0
41
1
10
3.91283576420918
20
2.6896673979239
30
0
41
1
10
3.85093762445922
20
2.6967505817002
30
0
41
1
10
3.72622351854867
20
2.70489371297137
30
0
41
1
10
3.66341153916434
20
2.70597996835158
30
0
41
1
10
3.60000000075354
20
2.70313127600832
30
0
0
SPLINE
5
121
100
AcDbEntity
8
1
62
256
6
ByLayer
370
18
48
1
60
0
100
AcDbSpline
70
4
71
3
72
19
73
15
40
0
40
0
40
0
40
0
40
0.0067352444941672
40
0.0067352444941672
40
0.255051433370627
40
0.255051433370627
40
0.503367622247087
40
0.503367622247087
40
0.627525716685317
40
0.689604763904431
40
0.689604763904431
40
0.751683811123546
40
0.751683811123546
40
1
40
1
40
1
40
1
41
1
10
43.3130354646025
20
-6.3875042254939
30
0
41
1
10
43.3132407407382
20
-6.38969131502768
30
0
41
1
10
43.3134451491496
20
-6.39188005792641
30
0
41
1
10
43.321152799394
20
-6.47482649531796
30
0
41
1
10
43.3274778015188
20
-6.55782921181759
30
0
41
1
10
43.3375259384812
20
-6.72879225172696
30
0
41
1
10
43.3412521542878
20
-6.81674670464736
30
0
41
1
10
43.3445966544854
20
-6.95295567849689
30
0
41
1
10
43.345704152289
20
-7.02213624639435
30
0
41
1
10
43.3458923580286
20
-7.0930684365635
30
0
41
1
10
43.3458055318918
20
-7.14076107407422
30
0
41
1
10
43.3456556759509
20
-7.1647944977446
30
0
41
1
10
43.3443659899567
20
-7.2854152939461
30
0
41
1
10
43.3416007858486
20
-7.38380341618574
30
0
41
1
10
43.3370260925776
20
-7.48416598915838
30
0
0
SPLINE
5
122
100
AcDbEntity
8
1
62
256
6
ByLayer
370
18
48
1
60
0
100
AcDbSpline
70
4
71
3
72
8
73
4
40
0
40
0
40
0
40
0
40
1
40
1
40
1
40
1
41
1
10
10.0000000007462
20
7.62473614439406
30
0
41
1
10
10.0028463446348
20
7.6249638259886
30
0
41
1
10
10.0056926218714
20
7.62519057870455
30
0
41
1
10
10.0085388328452
20
7.62541640245774
30
0
0
SPLINE
5
123
100
AcDbEntity
8
1
62
256
6
ByLayer
370
18
48
1
60
0
100
AcDbSpline
70
4
71
3
72
20
73
16
40
0
40
0
40
0
40
0
40
0.249999999999952
40
0.249999999999952
40
0.312499999999939
40
0.312499999999939
40
0.374999999999926
40
0.374999999999926
40
0.499999999999934
40
0.499999999999934
40
0.624999999999942
40
0.624999999999942
40
0.74999999999995
40
0.74999999999995
40
1
40
1
40
1
40
1
41
1
10
1.49767892216894
20
-5.98247986854724
30
0
41
1
10
1.53816385459149
20
-5.96935002219706
30
0
41
1
10
1.58009380696439
20
-5.95376818111842
30
0
41
1
10
1.63431399104664
20
-5.93194830276332
30
0
41
1
10
1.64523227955584
20
-5.92747427109046
30
0
41
1
10
1.66688161508506
20
-5.91847323670197
30
0
41
1
10
1.67765985552708
20
-5.91392739407601
30
0
41
1
10
1.70987788951959
20
-5.90018863183505
30
0
41
1
10
1.73120175642387
20
-5.89089554187521
30
0
41
1
10
1.77363910923736
20
-5.87219743118919
30
0
41
1
10
1.79481784307191
20
-5.86276285325076
30
0
41
1
10
1.83673486630221
20
-5.84404367835003
30
0
41
1
10
1.85737445701014
20
-5.83480366469874
30
0
41
1
10
1.91856984387854
20
-5.8075230612271
30
0
41
1
10
1.9584154200594
20
-5.78992486809929
30
0
41
1
10
1.99767892216144
20
-5.77307074359459
30
0
0
SPLINE
5
124
100
AcDbEntity
8
1
62
256
6
ByLayer
370
18
48
1
60
0
100
AcDbSpline
70
4
71
3
72
19
73
15
40
0
40
0
40
0
40
0
40
0.249999999999997
40
0.249999999999997
40
0.374999999999995
40
0.374999999999995
40
0.499999999999994
40
0.624999999999992
40
0.624999999999992
40
0.687499999999992
40
0.687499999999992
40
0.749999999999991
40
0.749999999999991
40
1
40
1
40
1
40
1
41
1
10
8.93304440617055
20
2.631034816815
30
0
41
1
10
9.00906007889515
20
2.58851353557563
30
0
41
1
10
9.08911676519966
20
2.54287265451893
30
0
41
1
10
9.21485589370619
20
2.46899499980267
30
0
41
1
10
9.25779342580859
20
2.44341895178894
30
0
41
1
10
9.34500899398881
20
2.39066818385089
30
0
41
1
10
9.43360605526979
20
2.33629761727317
30
0
41
1
10
9.5248820853333
20
2.27857807329403
30
0
41
1
10
9.59433846104801
20
2.23399372219532
30
0
41
1
10
9.6176760756297
20
2.21890421376097
30
0
41
1
10
9.66452171865186
20
2.18839577988447
30
0
41
1
10
9.68804437547638
20
2.17296763982409
30
0
41
1
10
9.80615575557803
20
2.09495936893856
30
0
41
1
10
9.90221807690043
20
2.02977500191923
30
0
41
1
10
10.0000000007671
20
1.96185523557429
30
0
0
SPLINE
5
125
100
AcDbEntity
8
1
62
256
6
ByLayer
370
18
48
1
60
0
100
AcDbSpline
70
4
71
3
72
11
73
7
40
0
40
0
40
0
40
0
40
0.212599987101254
40
0.480946726202809
40
0.749293465304364
40
1
40
1
40
1
40
1
41
1
10
8.93304440616961
20
2.63103481681713
30
0
41
1
10
8.93304440616961
20
2.42496073329198
30
0
41
1
10
8.93304440616967
20
1.94713311068114
30
0
41
1
10
8.93304440616944
20
1.16881098461496
30
0
41
1
10
8.93304440608074
20
0.322285358104978
30
0
41
1
10
8.93304440636226
20
-0.246654436388752
30
0
41
1
10
8.93304440622032
20
-0.521581123908049
30
0
0
SPLINE
5
126
100
AcDbEntity
8
1
62
256
6
ByLayer
370
13
48
1
60
0
100
AcDbSpline
70
4
71
3
72
11
73
7
40
0
40
0
40
0
40
0
40
0.205691053089843
40
0.470460702059895
40
0.735230351029947
40
1
40
1
40
1
40
1
41
1
10
10.000000000767
20
1.96185523557426
30
0
41
1
10
10.0000000007664
20
1.73710685706339
30
0
41
1
10
10.0000000007599
20
1.21383470062486
30
0
41
1
10
10.0000000006716
20
0.370745650895941
30
0
41
1
10
10.00000000115
20
-0.558502856145452
30
0
41
1
10
9.99999999999983
20
-1.18185455951013
30
0
41
1
10
10
20
-1.4923886933158
30
0
0
SPLINE
5
127
100
AcDbEntity
8
1
62
256
6
ByLayer
370
18
48
1
60
0
100
AcDbSpline
70
4
71
3
72
8
73
4
40
0
40
0
40
0
40
0
40
1
40
1
40
1
40
1
41
1
10
10.000000000767
20
1.96185523557429
30
0
41
1
10
10.0037097914172
20
1.9592783982184
30
0
41
1
10
10.0074194673738
20
1.9567007661891
30
0
41
1
10
10.0111290294927
20
1.95412234041964
30
0
0
SPLINE
5
128
100
AcDbEntity
8
1
62
256
6
ByLayer
370
18
48
1
60
0
100
AcDbSpline
70
4
71
3
72
85
73
81
40
0
40
0
40
0
40
0
40
0.0029796118709171
40
0.0029796118709171
40
0.0144396163321704
40
0.0144396163321704
40
0.0373596252546769
40
0.0373596252546769
40
0.0602796341771834
40
0.0602796341771834
40
0.0831996430996899
40
0.0831996430996899
40
0.129039660944703
40
0.129039660944703
40
0.151959669867209
40
0.151959669867209
40
0.174879678789715
40
0.197799687712221
40
0.197799687712221
40
0.220719696634727
40
0.220719696634727
40
0.26655971447974
40
0.26655971447974
40
0.278019718940993
40
0.278019718940993
40
0.289479723402246
40
0.289479723402246
40
0.312399732324753
40
0.312399732324753
40
0.358239750169766
40
0.358239750169766
40
0.381159759092272
40
0.381159759092272
40
0.392619763553526
40
0.392619763553526
40
0.40407976801478
40
0.40407976801478
40
0.426999776937289
40
0.426999776937289
40
0.449919785859798
40
0.449919785859798
40
0.472839794782307
40
0.472839794782307
40
0.495759803704816
40
0.495759803704816
40
0.541599821549833
40
0.541599821549833
40
0.587439839394849
40
0.587439839394849
40
0.633279857239866
40
0.633279857239866
40
0.64473986170112
40
0.64473986170112
40
0.656199866162374
40
0.656199866162374
40
0.679119875084882
40
0.679119875084882
40
0.702039884007391
40
0.702039884007391
40
0.724959892929899
40
0.724959892929899
40
0.747879901852407
40
0.747879901852407
40
0.770799910774916
40
0.770799910774916
40
0.816639928619932
40
0.816639928619932
40
0.839559937542441
40
0.839559937542441
40
0.862479946464949
40
0.862479946464949
40
0.908319964309967
40
0.908319964309967
40
0.919779968771221
40
0.919779968771221
40
0.931239973232476
40
0.931239973232476
40
0.954159982154984
40
0.954159982154984
40
1
40
1
40
1
40
1
41
1
10
32.5503761517372
20
-7.06296408029988
30
0
41
1
10
32.5278544695126
20
-7.06895711889217
30
0
41
1
10
32.5053258603238
20
-7.07490156237185
30
0
41
1
10
32.3961148282309
20
-7.10347557345739
30
0
41
1
10
32.3092829893919
20
-7.1254574723385
30
0
41
1
10
32.0492476550184
20
-7.1890518242825
30
0
41
1
10
31.8762892204831
20
-7.22837163919539
30
0
41
1
10
31.5310477638007
20
-7.30070858320482
30
0
41
1
10
31.35876542138
20
-7.33372270765244
30
0
41
1
10
31.0147464904467
20
-7.39325143216627
30
0
41
1
10
30.8430071298762
20
-7.41976738990428
30
0
41
1
10
30.3282858514387
20
-7.4901886574838
30
0
41
1
10
29.9858320851265
20
-7.52487810269386
30
0
41
1
10
29.4723963352458
20
-7.55729333603432
30
0
41
1
10
29.3012905955696
20
-7.56477909560311
30
0
41
1
10
28.9589719100286
20
-7.57356448073506
30
0
41
1
10
28.6165467703274
20
-7.57625391297177
30
0
41
1
10
28.2736428256938
20
-7.56632491865122
30
0
41
1
10
27.9303466120111
20
-7.54987986830898
30
0
41
1
10
27.7585010495502
20
-7.53834790460195
30
0
41
1
10
27.2421279544718
20
-7.49408413773071
30
0
41
1
10
26.8967928943025
20
-7.45224989831695
30
0
41
1
10
26.4629469185421
20
-7.38341570200569
30
0
41
1
10
26.3761746393133
20
-7.36883747808909
30
0
41
1
10
26.2027838528237
20
-7.33807704003249
30
0
41
1
10
26.116137967516
20
-7.32188337972829
30
0
41
1
10
25.8563100098228
20
-7.27093552254465
30
0
41
1
10
25.6832281693022
20
-7.23389455826265
30
0
41
1
10
25.1641458624792
20
-7.11394084785388
30
0
41
1
10
24.8183505597985
20
-7.02186597458103
30
0
41
1
10
24.2991319565971
20
-6.86519994991528
30
0
41
1
10
24.125965375459
20
-6.80993653814386
30
0
41
1
10
23.8659539804891
20
-6.72283525974805
30
0
41
1
10
23.7792406785189
20
-6.69308382790322
30
0
41
1
10
23.605709677836
20
-6.63211129886923
30
0
41
1
10
23.5189400656234
20
-6.60090549481467
30
0
41
1
10
23.2590819858411
20
-6.50531730779977
30
0
41
1
10
23.0862553403473
20
-6.43889878278881
30
0
41
1
10
22.7412778781162
20
-6.30075695755153
30
0
41
1
10
22.5691300952432
20
-6.22900710796756
30
0
41
1
10
22.2252796311884
20
-6.08076193164561
30
0
41
1
10
22.0535852470499
20
-6.00423551846126
30
0
41
1
10
21.7105518348976
20
-5.84625441607588
30
0
41
1
10
21.5392074341951
20
-5.76482841141487
30
0
41
1
10
21.0254564316472
20
-5.51349485365907
30
0
41
1
10
20.6833337472092
20
-5.33648591362618
30
0
41
1
10
19.9985982030659
20
-4.965191239251
30
0
41
1
10
19.6559984136814
20
-4.77081936230246
30
0
41
1
10
18.9691160033689
20
-4.36552348338847
30
0
41
1
10
18.6248317158498
20
-4.15467892820493
30
0
41
1
10
18.1926379070239
20
-3.88157014635721
30
0
41
1
10
18.1061067924562
20
-3.82646670372208
30
0
41
1
10
17.9328394845207
20
-3.71531638492201
30
0
41
1
10
17.8460303852437
20
-3.65922207973455
30
0
41
1
10
17.585889300578
20
-3.48995929499452
30
0
41
1
10
17.4128925197673
20
-3.37583968038777
30
0
41
1
10
17.0675849690373
20
-3.14530057981651
30
0
41
1
10
16.8952666202103
20
-3.02890183773744
30
0
41
1
10
16.551174865685
20
-2.79398144913657
30
0
41
1
10
16.379409781838
20
-2.67543486637425
30
0
41
1
10
16.0362586880968
20
-2.43644849741901
30
0
41
1
10
15.864870906801
20
-2.31601422673313
30
0
41
1
10
15.522307431118
20
-2.07351548122173
30
0
41
1
10
15.3511348923759
20
-1.95144278640746
30
0
41
1
10
14.8377428120589
20
-1.58297342212859
30
0
41
1
10
14.4956518232159
20
-1.33428318537955
30
0
41
1
10
13.9818153814215
20
-0.958131127061961
30
0
41
1
10
13.8104220338181
20
-0.832234201732746
30
0
41
1
10
13.4672625557806
20
-0.579531453373477
30
0
41
1
10
13.2954947565965
20
-0.452730551422263
30
0
41
1
10
12.7793882457253
20
-0.0713166374696925
30
0
41
1
10
12.4342481014552
20
0.184304943801266
30
0
41
1
10
12.0006958201068
20
0.50445087042641
30
0
41
1
10
11.9138819910992
20
0.568508614851453
30
0
41
1
10
11.7404796054144
20
0.696323332791138
30
0
41
1
10
11.6538344609399
20
0.760122243852265
30
0
41
1
10
11.3940427916472
20
0.951148998648364
30
0
41
1
10
11.2210349306729
20
1.07800555197238
30
0
41
1
10
10.7022685508919
20
1.45683649069389
30
0
41
1
10
10.3567967675225
20
1.70708819652347
30
0
41
1
10
10.0111290294926
20
1.9541223404197
30
0
0
SPLINE
5
129
100
AcDbEntity
8
1
62
256
6
ByLayer
370
18
48
1
60
0
100
AcDbSpline
70
4
71
3
72
18
73
14
40
0
40
0
40
0
40
0
40
0.25
40
0.25
40
0.375
40
0.375
40
0.5
40
0.5
40
0.625
40
0.625
40
0.75
40
0.75
40
1
40
1
40
1
40
1
41
1
10
10.0000321643757
20
-1.49238864430711
30
0
41
1
10
10.0009575361744
20
-1.19934689742709
30
0
41
1
10
10.0018918103381
20
-0.90661715190123
30
0
41
1
10
10.0032577297626
20
-0.467985908564288
30
0
41
1
10
10.0037396852619
20
-0.321853061035597
30
0
41
1
10
10.0046714121502
20
-0.0297434555799327
30
0
41
1
10
10.0051171037975
20
0.115688893442098
30
0
41
1
10
10.0060171057561
20
0.405122363767163
30
0
41
1
10
10.0064939845599
20
0.549155110566716
30
0
41
1
10
10.0074315791156
20
0.835851187944172
30
0
41
1
10
10.0078850838259
20
0.97865651070876
30
0
41
1
10
10.0092382971437
20
1.40300929228525
30
0
41
1
10
10.0102183664166
20
1.6810190309798
30
0
41
1
10
10.0111290294926
20
1.9541223404197
30
0
0
SPLINE
5
12A
100
AcDbEntity
8
1
62
256
6
ByLayer
370
18
48
1
60
0
100
AcDbSpline
70
4
71
3
72
8
73
4
40
0
40
0
40
0
40
0
40
1
40
1
40
1
40
1
41
1
10
1.23084330210699
20
-6.07221626151073
30
0
41
1
10
1.32003347915065
20
-6.0410992575213
30
0
41
1
10
1.40897327263406
20
-6.01124838757562
30
0
41
1
10
1.49767892216894
20
-5.98247986854724
30
0
0
SPLINE
5
12B
100
AcDbEntity
8
1
62
256
6
ByLayer
370
18
48
1
60
0
100
AcDbSpline
70
4
71
3
72
8
73
4
40
0
40
0
40
0
40
0
40
1
40
1
40
1
40
1
41
1
10
1.23084330210705
20
7.87190913701238
30
0
41
1
10
1.32003347915071
20
7.82137374779882
30
0
41
1
10
1.40897327263409
20
7.77106734311346
30
0
41
1
10
1.497678922169
20
7.72093303809723
30
0
0
SPLINE
5
12C
100
AcDbEntity
8
1
62
256
6
ByLayer
370
18
48
1
60
0
100
AcDbSpline
70
4
71
3
72
12
73
8
40
0
40
0
40
0
40
0
40
0.250000000000002
40
0.250000000000002
40
0.500000000000004
40
0.500000000000004
40
1
40
1
40
1
40
1
41
1
10
43.7693025198859
20
-7.16163901561606
30
0
41
1
10
43.7326912426545
20
-7.19960855190854
30
0
41
1
10
43.6961508830227
20
-7.23489601592769
30
0
41
1
10
43.6232712295332
20
-7.29999604689323
30
0
41
1
10
43.5870265265051
20
-7.32972547240436
30
0
41
1
10
43.4788770830163
20
-7.41046217808483
30
0
41
1
10
43.4075556980327
20
-7.45303682567925
30
0
41
1
10
43.3370260925777
20
-7.48416598915998
30
0
0
SPLINE
5
12D
100
AcDbEntity
8
1
62
256
6
ByLayer
370
18
48
1
60
0
100
AcDbSpline
70
4
71
3
72
104
73
100
40
0
40
0
40
0
40
0
40
0.0314396202333454
40
0.0314396202333454
40
0.0628792404666909
40
0.0628792404666909
40
0.0943188607000364
40
0.0943188607000364
40
0.125758480933382
40
0.125758480933382
40
0.141478291050054
40
0.141478291050054
40
0.149338196108391
40
0.149338196108391
40
0.157198101166727
40
0.157198101166727
40
0.188637721400071
40
0.188637721400071
40
0.220077341633415
40
0.220077341633415
40
0.251516961866759
40
0.251516961866759
40
0.282956582100103
40
0.282956582100103
40
0.314396202333446
40
0.314396202333446
40
0.322256107391782
40
0.322256107391782
40
0.330116012450118
40
0.330116012450118
40
0.345835822566789
40
0.345835822566789
40
0.36155563268346
40
0.36155563268346
40
0.377275442800131
40
0.377275442800131
40
0.408715063033472
40
0.408715063033472
40
0.440154683266814
40
0.440154683266814
40
0.471594303500155
40
0.471594303500155
40
0.487314113616826
40
0.487314113616826
40
0.503033923733497
40
0.503033923733497
40
0.510893828791832
40
0.510893828791832
40
0.518753733850166
40
0.518753733850166
40
0.534473543966836
40
0.534473543966836
40
0.565913164200176
40
0.565913164200176
40
0.581632974316846
40
0.581632974316846
40
0.597352784433516
40
0.597352784433516
40
0.613072594550186
40
0.613072594550186
40
0.628792404666856
40
0.628792404666856
40
0.644512214783526
40
0.644512214783526
40
0.660232024900196
40
0.660232024900196
40
0.691671645133536
40
0.691671645133536
40
0.723111265366875
40
0.723111265366875
40
0.754550885600215
40
0.754550885600215
40
0.76241079065855
40
0.76241079065855
40
0.770270695716885
40
0.770270695716885
40
0.785990505833556
40
0.785990505833556
40
0.817430126066897
40
0.817430126066897
40
0.833149936183568
40
0.833149936183568
40
0.848869746300239
40
0.848869746300239
40
0.880309366533582
40
0.880309366533582
40
0.896029176650254
40
0.896029176650254
40
0.911748986766925
40
0.927468796883597
40
0.935328701941933
40
0.935328701941933
40
0.943188607000269
40
0.943188607000269
40
0.958908417116941
40
0.958908417116941
40
0.974628227233613
40
0.974628227233613
40
1
40
1
40
1
40
1
41
1
10
43.3370260925775
20
-7.48416598916006
30
0
41
1
10
42.9888940885444
20
-7.54102817064182
30
0
41
1
10
42.6421279792131
20
-7.58470043438706
30
0
41
1
10
41.9500171195999
20
-7.64599357341981
30
0
41
1
10
41.6046757939658
20
-7.66363572456348
30
0
41
1
10
40.914189402703
20
-7.67256263342785
30
0
41
1
10
40.5690373970612
20
-7.66388380888876
30
0
41
1
10
39.877645482613
20
-7.62050452130848
30
0
41
1
10
39.5314112130506
20
-7.5856989628025
30
0
41
1
10
39.0102734004944
20
-7.51361762213878
30
0
41
1
10
38.8362630273801
20
-7.48629830806439
30
0
41
1
10
38.5746802667127
20
-7.44040710637427
30
0
41
1
10
38.4873914336407
20
-7.42428981262131
30
0
41
1
10
38.3126033468454
20
-7.39040445398911
30
0
41
1
10
38.2250290592846
20
-7.37261998016157
30
0
41
1
10
37.7877194181532
20
-7.27979008836422
30
0
41
1
10
37.4396206122487
20
-7.19301098064363
30
0
41
1
10
36.7455699641795
20
-6.99566274245606
30
0
41
1
10
36.3996217124047
20
-6.88510627781073
30
0
41
1
10
35.70862637051
20
-6.64080264268628
30
0
41
1
10
35.3635596829068
20
-6.50717594500821
30
0
41
1
10
34.673007266478
20
-6.21850625438083
30
0
41
1
10
34.3275349523769
20
-6.06337331869699
30
0
41
1
10
33.6349502809609
20
-5.7320031181421
30
0
41
1
10
33.2878407844652
20
-5.55577116531126
30
0
41
1
10
32.852066706454
20
-5.32250550399184
30
0
41
1
10
32.7648166389295
20
-5.27519891744501
30
0
41
1
10
32.5901062109039
20
-5.17932334680285
30
0
41
1
10
32.5025957200488
20
-5.13072858303272
30
0
41
1
10
32.2400700407673
20
-4.9833394153018
30
0
41
1
10
32.0654773884072
20
-4.88317129852371
30
0
41
1
10
31.717001827521
20
-4.67915298344741
30
0
41
1
10
31.5431194568972
20
-4.57530124686491
30
0
41
1
10
31.1959237069852
20
-4.36402891159255
30
0
41
1
10
31.0226144496062
20
-4.25658570466877
30
0
41
1
10
30.5032631179606
20
-3.92933760214973
30
0
41
1
10
30.1577786360089
20
-3.70475772906693
30
0
41
1
10
29.467165084565
20
-3.24370016890717
30
0
41
1
10
29.1220275241819
20
-3.00714254633121
30
0
41
1
10
28.4307604323509
20
-2.52430421544639
30
0
41
1
10
28.0846580314697
20
-2.27787949158767
30
0
41
1
10
27.5638068716317
20
-1.90156460204426
30
0
41
1
10
27.3899063474077
20
-1.77505149027249
30
0
41
1
10
27.0413915469375
20
-1.52014693515685
30
0
41
1
10
26.8667754310948
20
-1.39173073008018
30
0
41
1
10
26.6041777261721
20
-1.1977596595276
30
0
41
1
10
26.5166542192499
20
-1.13296843954342
30
0
41
1
10
26.3417502420806
20
-1.00325040456133
30
0
41
1
10
26.254346675264
20
-0.938306520971963
30
0
41
1
10
25.9922508116018
20
-0.743260451172489
30
0
41
1
10
25.8176695861419
20
-0.612949336366626
30
0
41
1
10
25.2940806135486
20
-0.221582863592602
30
0
41
1
10
24.9452656130517
20
0.0399635548562856
30
0
41
1
10
24.4214595000226
20
0.431983807887406
30
0
41
1
10
24.246756740219
20
0.562603383967172
30
0
41
1
10
23.8969806960065
20
0.823498311716634
30
0
41
1
10
23.7217391499467
20
0.953903806533589
30
0
41
1
10
23.3724082531389
20
1.2129200714005
30
0
41
1
10
23.1981534712494
20
1.34165396064714
30
0
41
1
10
22.8503072217159
20
1.59735297748185
30
0
41
1
10
22.6767205710936
20
1.72430773006934
30
0
41
1
10
22.3300105080724
20
1.97629382918882
30
0
41
1
10
22.1568817118465
20
2.10134253881429
30
0
41
1
10
21.8109558805066
20
2.34929493209356
30
0
41
1
10
21.6381570978793
20
2.4721981213074
30
0
41
1
10
21.1200074198826
20
2.83740610274637
30
0
41
1
10
20.7749052729078
20
3.07619510252061
30
0
41
1
10
20.0840840852428
20
3.54291588977824
30
0
41
1
10
19.7383696412773
20
3.77087640071937
30
0
41
1
10
19.0450633433601
20
4.21422270665829
30
0
41
1
10
18.6974675713888
20
4.42960991551112
30
0
41
1
10
18.2609748588677
20
4.68997859020149
30
0
41
1
10
18.1735759887229
20
4.74160611883244
30
0
41
1
10
17.9985560277139
20
4.84394002967574
30
0
41
1
10
17.9110477911473
20
4.89457997973625
30
0
41
1
10
17.6489844667152
20
5.04461498092525
30
0
41
1
10
17.4746928161877
20
5.14223513607715
30
0
41
1
10
16.9528144351172
20
5.42772940357193
30
0
41
1
10
16.6061961085605
20
5.60839638042202
30
0
41
1
10
16.0873192656843
20
5.8638039727181
30
0
41
1
10
15.9145282951498
20
5.94637666679719
30
0
41
1
10
15.5691157481058
20
6.10637550657526
30
0
41
1
10
15.39649572628
20
6.1837976233511
30
0
41
1
10
14.8786742814585
20
6.40801117808275
30
0
41
1
10
14.533512065322
20
6.54663956483626
30
0
41
1
10
14.0148766578543
20
6.73796002902236
30
0
41
1
10
13.8418514654785
20
6.7990056661753
30
0
41
1
10
13.4953496793994
20
6.91529749012665
30
0
41
1
10
13.1483938965524
20
7.02578481931809
30
0
41
1
10
12.7131509311478
20
7.14913134583387
30
0
41
1
10
12.4511221462784
20
7.21636030631956
30
0
41
1
10
12.2762190548611
20
7.25965539436172
30
0
41
1
10
12.1886363609735
20
7.28054493986258
30
0
41
1
10
11.9262430393775
20
7.34074258638893
30
0
41
1
10
11.7515565021771
20
7.37765458369316
30
0
41
1
10
11.402524853695
20
7.44480012861021
30
0
41
1
10
11.2281765212796
20
7.47504176734825
30
0
41
1
10
10.7726165430749
20
7.54577995487659
30
0
41
1
10
10.4915329427096
20
7.58113106300078
30
0
41
1
10
10.2103242049021
20
7.6077878169703
30
0
0
SPLINE
5
12E
100
AcDbEntity
8
1
62
256
6
ByLayer
370
18
48
1
60
0
100
AcDbSpline
70
4
71
3
72
10
73
6
40
0
40
0
40
0
40
0
40
0.5
40
0.5
40
1
40
1
40
1
40
1
41
1
10
43.7693025198859
20
-5.47023159471144
30
0
41
1
10
43.7440386148417
20
-5.66502980937963
30
0
41
1
10
43.7307577585335
20
-5.85186131417297
30
0
41
1
10
43.7282211341409
20
-6.20955168509164
30
0
41
1
10
43.7389629892308
20
-6.38041213140599
30
0
41
1
10
43.7620473725834
20
-6.54306687448417
30
0
0
SPLINE
5
12F
100
AcDbEntity
8
1
62
256
6
ByLayer
370
18
48
1
60
0
100
AcDbSpline
70
4
71
3
72
18
73
14
40
0
40
0
40
0
40
0
40
0.125000000000001
40
0.125000000000001
40
0.250000000000003
40
0.250000000000003
40
0.5
40
0.5
40
0.625000000000002
40
0.625000000000002
40
0.750000000000003
40
0.750000000000003
40
1
40
1
40
1
40
1
41
1
10
43.7693025198859
20
-5.47023159471144
30
0
41
1
10
43.7382629409161
20
-5.38954369517148
30
0
41
1
10
43.707271626905
20
-5.30747859646865
30
0
41
1
10
43.6454324220815
20
-5.14069240455694
30
0
41
1
10
43.6146474328978
20
-5.05614169864853
30
0
41
1
10
43.5226958169828
20
-4.79902094804336
30
0
41
1
10
43.4619319001739
20
-4.62298778890218
30
0
41
1
10
43.3716012190574
20
-4.35192776736554
30
0
41
1
10
43.3416082809298
20
-4.26034418456709
30
0
41
1
10
43.2820998829588
20
-4.07544334103835
30
0
41
1
10
43.2525629076525
20
-3.98206353219422
30
0
41
1
10
43.1646046811865
20
-3.69913154437077
30
0
41
1
10
43.1068350535581
20
-3.50679140740783
30
0
41
1
10
43.049949952797
20
-3.31066684028988
30
0
0
SPLINE
5
130
100
AcDbEntity
8
1
62
256
6
ByLayer
370
18
48
1
60
0
100
AcDbSpline
70
4
71
3
72
67
73
63
40
0
40
0
40
0
40
0
40
0.0528457431821946
40
0.0528457431821946
40
0.105691486364389
40
0.105691486364389
40
0.158537229546584
40
0.158537229546584
40
0.211382972728778
40
0.211382972728778
40
0.237805844319875
40
0.237805844319875
40
0.251017280115424
40
0.251017280115424
40
0.264228715910973
40
0.264228715910973
40
0.317074459093166
40
0.317074459093166
40
0.369920202275359
40
0.369920202275359
40
0.396343073866457
40
0.396343073866457
40
0.422765945457554
40
0.422765945457554
40
0.475611688639747
40
0.475611688639747
40
0.52845743182194
40
0.52845743182194
40
0.541668867617488
40
0.541668867617488
40
0.554880303413035
40
0.554880303413035
40
0.581303175004131
40
0.581303175004131
40
0.607726046595226
40
0.607726046595226
40
0.634148918186321
40
0.634148918186321
40
0.686994661368511
40
0.686994661368511
40
0.713417532959607
40
0.713417532959607
40
0.739840404550703
40
0.766263276141799
40
0.766263276141799
40
0.792686147732894
40
0.792686147732894
40
0.845531890915086
40
0.845531890915086
40
0.858743326710634
40
0.858743326710634
40
0.871954762506182
40
0.871954762506182
40
0.898377634097279
40
0.898377634097279
40
0.951223377279472
40
0.951223377279472
40
0.977646248870569
40
0.977646248870569
40
0.990857684666118
40
0.990857684666118
40
1
40
1
40
1
40
1
41
1
10
43.0499499527969
20
-3.31066684028934
30
0
41
1
10
42.7055095440703
20
-3.08145677474394
30
0
41
1
10
42.362220810612
20
-2.84744175414988
30
0
41
1
10
41.6767205613527
20
-2.37148616637137
30
0
41
1
10
41.3345215847681
20
-2.1295095632772
30
0
41
1
10
40.6500280668934
20
-1.63907417982651
30
0
41
1
10
40.3077224928983
20
-1.39066902025701
30
0
41
1
10
39.6217883447747
20
-0.889072456183925
30
0
41
1
10
39.2781605941188
20
-0.635835904374431
30
0
41
1
10
38.7607860959886
20
-0.253606798975739
30
0
41
1
10
38.5880070001685
20
-0.125805868166253
30
0
41
1
10
38.3282390013779
20
0.0663339204754436
30
0
41
1
10
38.241516785233
20
0.130478164038465
30
0
41
1
10
38.0679925805702
20
0.258784468742618
30
0
41
1
10
37.9813395330099
20
0.322836369948249
30
0
41
1
10
37.5485718407365
20
0.642524742241193
30
0
41
1
10
37.2039443186463
20
0.8964446114407
30
0
41
1
10
36.5165737888667
20
1.39903419409237
30
0
41
1
10
36.1738524733204
20
1.64769292345952
30
0
41
1
10
35.660281935004
20
2.01548976586787
30
0
41
1
10
35.4891726943565
20
2.13722940994504
30
0
41
1
10
35.1469567229054
20
2.37883160909303
30
0
41
1
10
34.975851280086
20
2.49869410146627
30
0
41
1
10
34.4623319062173
20
2.85516427541876
30
0
41
1
10
34.1197190524643
20
3.08866178052813
30
0
41
1
10
33.4327558457235
20
3.54559880407612
30
0
41
1
10
33.0884073262581
20
3.76903603159434
30
0
41
1
10
32.6560363926029
20
4.04077794823465
30
0
41
1
10
32.5694655442349
20
4.09475289311567
30
0
41
1
10
32.396114828231
20
4.20195703592296
30
0
41
1
10
32.3092829893919
20
4.25522014001882
30
0
41
1
10
32.0492476550184
20
4.41337169631828
30
0
41
1
10
31.8762892204831
20
4.51675772100177
30
0
41
1
10
31.5310477638008
20
4.71921956398145
30
0
41
1
10
31.35876542138
20
4.81829361627192
30
0
41
1
10
31.0147464904467
20
5.01187521132837
30
0
41
1
10
30.8430071298762
20
5.10638156232346
30
0
41
1
10
30.3282858514387
20
5.38327075913074
30
0
41
1
10
29.9858320851266
20
5.55898029127809
30
0
41
1
10
29.4723963352459
20
5.8076283832722
30
0
41
1
10
29.3012905955696
20
5.88798586151444
30
0
41
1
10
28.9589719100286
20
6.04384864787264
30
0
41
1
10
28.6165468047052
20
6.19492913131629
30
0
41
1
10
28.2736428256938
20
6.33590264125988
30
0
41
1
10
27.9303466120111
20
6.47153949425606
30
0
41
1
10
27.7585010495502
20
6.53664902704452
30
0
41
1
10
27.2421279544718
20
6.72385458335552
30
0
41
1
10
26.8967928943025
20
6.83828647699065
30
0
41
1
10
26.4629469185421
20
6.96682584121177
30
0
41
1
10
26.3761746393132
20
6.99177528328161
30
0
41
1
10
26.2027838528237
20
7.04007873923368
30
0
41
1
10
26.1161379675161
20
7.06343453806596
30
0
41
1
10
25.8563100098228
20
7.13115674593467
30
0
41
1
10
25.6832281693023
20
7.17325243970578
30
0
41
1
10
25.1641458624792
20
7.2905799921916
30
0
41
1
10
24.8183505597985
20
7.35654670350118
30
0
41
1
10
24.2991319565971
20
7.43593269453856
30
0
41
1
10
24.125965375459
20
7.45918123618915
30
0
41
1
10
23.8659539804891
20
7.48949756198652
30
0
41
1
10
23.7792406785189
20
7.49882707830537
30
0
41
1
10
23.6324334403604
20
7.51325634560789
30
0
41
1
10
23.5723897335155
20
7.51877068568996
30
0
41
1
10
23.512395209923
20
7.52389171509358
30
0
0
SPLINE
5
131
100
AcDbEntity
8
1
62
256
6
ByLayer
370
18
48
1
60
0
100
AcDbSpline
70
4
71
3
72
8
73
4
40
0
40
0
40
0
40
0
40
1
40
1
40
1
40
1
41
1
10
43.6042383827607
20
-6.53601005920126
30
0
41
1
10
43.6568423877126
20
-6.53837486897544
30
0
41
1
10
43.7094453805907
20
-6.5407270944705
30
0
41
1
10
43.7620473725835
20
-6.54306687448417
30
0
0
SPLINE
5
132
100
AcDbEntity
8
1
62
256
6
ByLayer
370
18
48
1
60
0
100
AcDbSpline
70
4
71
5
72
39
73
33
40
0
40
0
40
0
40
0
40
0
40
0
40
0.0161156016495738
40
0.0450624023228088
40
0.0884826033326613
40
0.131902804342514
40
0.160849605015749
40
0.204269806025601
40
0.233216606698836
40
0.276636807708689
40
0.305583608381924
40
0.349003809391776
40
0.392424010401629
40
0.421370811074864
40
0.450317611748099
40
0.493737812757951
40
0.537158013767804
40
0.566104814441039
40
0.609525015450891
40
0.652945216460744
40
0.681892017133979
40
0.710838817807214
40
0.754259018817066
40
0.797679219826919
40
0.826626020500154
40
0.870046221510006
40
0.898993022183242
40
0.942413223193094
40
0.971360023866329
40
1
40
1
40
1
40
1
40
1
40
1
41
1
10
18.8000010877581
20
4.36288191514808
30
0
41
1
10
18.8621857801841
20
4.35065994031601
30
0
41
1
10
19.0360664511858
20
4.31592247059495
30
0
41
1
10
19.3774910900508
20
4.24463993695989
30
0
41
1
10
19.8864596967793
20
4.12950294732741
30
0
41
1
10
20.5071242820833
20
3.97343881463974
30
0
41
1
10
21.2331481428247
20
3.771677615101
30
0
41
1
10
21.9591720035661
20
3.549901341317
30
0
41
1
10
22.6851958643075
20
3.31102835470133
30
0
41
1
10
23.3553717357611
20
3.07570514088226
30
0
41
1
10
24.0813955965025
20
2.80597425655955
30
0
41
1
10
24.8074194572438
20
2.52261604649794
30
0
41
1
10
25.5334433179852
20
2.22581209646415
30
0
41
1
10
26.2036191894388
20
1.94190874654581
30
0
41
1
10
26.9296430501802
20
1.62511813674851
30
0
41
1
10
27.6556669109216
20
1.30047625381747
30
0
41
1
10
28.3258427823751
20
0.994856058667892
30
0
41
1
10
29.0518666431165
20
0.65895907893065
30
0
41
1
10
29.8337384931457
20
0.293502265012592
30
0
41
1
10
30.5597623538871
20
-0.0474567779239976
30
0
41
1
10
31.2299382253407
20
-0.361976473746154
30
0
41
1
10
31.955962086082
20
-0.700788501196712
30
0
41
1
10
32.6819859468234
20
-1.03621487823125
30
0
41
1
10
33.352161818277
20
-1.34136976842081
30
0
41
1
10
34.0781856790184
20
-1.66547099345016
30
0
41
1
10
34.8042095397597
20
-1.98067760695872
30
0
41
1
10
35.5302334005011
20
-2.28623648949983
30
0
41
1
10
36.2004092719547
20
-2.5581617082978
30
0
41
1
10
36.8694012105936
20
-2.81815040539359
30
0
41
1
10
37.3708491813691
20
-3.0045577374394
30
0
41
1
10
37.7606011735689
20
-3.14389223896939
30
0
41
1
10
37.9828091979054
20
-3.22144915378277
30
0
41
1
10
38.0933212436663
20
-3.25954639987825
30
0
0
SPLINE
5
133
100
AcDbEntity
8
1
62
256
6
ByLayer
370
18
48
1
60
0
100
AcDbSpline
70
4
71
3
72
14
73
10
40
0
40
0
40
0
40
0
40
0.250000000000003
40
0.250000000000003
40
0.375000000000003
40
0.375000000000003
40
0.500000000000003
40
0.500000000000003
40
1
40
1
40
1
40
1
41
1
10
8.93304440622032
20
-0.521581123908021
30
0
41
1
10
8.60726160397357
20
-0.281038080164564
30
0
41
1
10
8.28144610460205
20
-0.0411899112701519
30
0
41
1
10
7.79192721727509
20
0.31654791102207
30
0
41
1
10
7.62857262595421
20
0.435492563990295
30
0
41
1
10
7.30170726751371
20
0.672383841592961
30
0
41
1
10
7.1383269242659
20
0.790236117155501
30
0
41
1
10
6.32139301914256
20
1.37617427699169
30
0
41
1
10
5.66771721455996
20
1.83426508365369
30
0
41
1
10
5.01042971766211
20
2.27737563244915
30
0
0
SPLINE
5
134
100
AcDbEntity
8
1
62
256
6
ByLayer
370
18
48
1
60
0
100
AcDbSpline
70
4
71
3
72
66
73
62
40
0
40
0
40
0
40
0
40
0.0095425131687582
40
0.0189819827844525
40
0.0283183848229131
40
0.0375516972840669
40
0.0466819001445109
40
0.055708975310142
40
0.0646329065686303
40
0.0734536795422075
40
0.082171281640588
40
0.0907857020144794
40
0.0992969315093148
40
0.107704962619922
40
0.116009789445716
40
0.12421140764675
40
0.132309814400944
40
0.140305008362052
40
0.148196989619107
40
0.155985759656987
40
0.1636713213184
40
0.171253678767553
40
0.178732837455105
40
0.186108804085284
40
0.193381586584609
40
0.200551194072669
40
0.207617636835131
40
0.214580926298947
40
0.221441075010007
40
0.228198096613481
40
0.234852005836854
40
0.241402818475919
40
0.247850551384122
40
0.254195222465084
40
0.260436850668923
40
0.266575455992571
40
0.272611059484166
40
0.278543683252229
40
0.284373350479639
40
0.290100085443187
40
0.29572391353884
40
0.301244861313587
40
0.333638094017088
40
0.366297442564572
40
0.399224499470103
40
0.432420875812403
40
0.465888201224188
40
0.499628123525622
40
0.533642308059702
40
0.567932436783479
40
0.602500207164782
40
0.637113899155858
40
0.67286687637116
40
0.709760075300092
40
0.747794331722984
40
0.786970397627578
40
0.827288955765192
40
0.868750632208564
40
0.911356007210425
40
0.955105624610767
40
1
40
1
40
1
40
1
41
1
10
9.04158011821187
20
-1.93840323976784
30
0
41
1
10
9.03038167179756
20
-1.92278529405957
30
0
41
1
10
9.00810570389581
20
-1.89171805094242
30
0
41
1
10
8.97483657871649
20
-1.84552469295741
30
0
41
1
10
8.94190065293475
20
-1.79994924357791
30
0
41
1
10
8.90929368023157
20
-1.75500092307342
30
0
41
1
10
8.87701458558155
20
-1.71067509492588
30
0
41
1
10
8.84506165409667
20
-1.66697056982812
30
0
41
1
10
8.81343352864317
20
-1.62388505717269
30
0
41
1
10
8.78212894025745
20
-1.58141637494128
30
0
41
1
10
8.75114677245668
20
-1.539562142215
30
0
41
1
10
8.72048603762659
20
-1.49831987117787
30
0
41
1
10
8.69014587660644
20
-1.45768695368435
30
0
41
1
10
8.66012555221442
20
-1.41766067536216
30
0
41
1
10
8.63042444442451
20
-1.37823822223294
30
0
41
1
10
8.60104204517202
20
-1.33941668906428
30
0
41
1
10
8.57197795332615
20
-1.30119308702524
30
0
41
1
10
8.54323186969478
20
-1.26356435128025
30
0
41
1
10
8.5148035921014
20
-1.22652734835299
30
0
41
1
10
8.4866930105301
20
-1.19007888330188
30
0
41
1
10
8.45890010234319
20
-1.15421570669585
30
0
41
1
10
8.43142492757534
20
-1.11893452139248
30
0
41
1
10
8.40426762430695
20
-1.08423198911782
30
0
41
1
10
8.37742840411951
20
-1.05010473684916
30
0
41
1
10
8.3509075476351
20
-1.01654936300048
30
0
41
1
10
8.32470540014333
20
-0.983562443412694
30
0
41
1
10
8.29882236731601
20
-0.951140537150053
30
0
41
1
10
8.27325891101285
20
-0.919280192103884
30
0
41
1
10
8.24801554517882
20
-0.887977950406338
30
0
41
1
10
8.22309283183358
20
-0.857230353656831
30
0
41
1
10
8.19849137715991
20
-0.827033947960985
30
0
41
1
10
8.17421182766805
20
-0.7973852887948
30
0
41
1
10
8.15025486652689
20
-0.768280945660621
30
0
41
1
10
8.1266212097307
20
-0.739717506672122
30
0
41
1
10
8.10331160331319
20
-0.711691582580556
30
0
41
1
10
8.08032681719467
20
-0.684199812035928
30
0
41
1
10
8.05766765173519
20
-0.657238861568516
30
0
41
1
10
8.03533489850341
20
-0.630805444012793
30
0
41
1
10
8.01332946801497
20
-0.604896269106206
30
0
41
1
10
7.99165191091046
20
-0.579508239926867
30
0
41
1
10
7.97030414367444
20
-0.554637755298756
30
0
41
1
10
7.91504733326838
20
-0.490618281858985
30
0
41
1
10
7.82472644790798
20
-0.387650576862882
30
0
41
1
10
7.6976922751731
20
-0.246469149736754
30
0
41
1
10
7.5679969618873
20
-0.105821386542885
30
0
41
1
10
7.4356753614002
20
0.0343797924896307
30
0
41
1
10
7.3007590973705
20
0.174220727696053
30
0
41
1
10
7.16328580520772
20
0.313789508775841
30
0
41
1
10
7.02329590806983
20
0.4531741442228
30
0
41
1
10
6.8808309513422
20
0.592461792144007
30
0
41
1
10
6.73626492036772
20
0.731425225263024
30
0
41
1
10
6.58842871363129
20
0.871298505875018
30
0
41
1
10
6.43617734319471
20
1.0132827511363
30
0
41
1
10
6.27800228177665
20
1.15884388156346
30
0
41
1
10
6.11392971441572
20
1.30798965780929
30
0
41
1
10
5.94398820493029
20
1.46072672751234
30
0
41
1
10
5.76820537244552
20
1.61705854592054
30
0
41
1
10
5.58661365615134
20
1.77699197354528
30
0
41
1
10
5.39922904503621
20
1.94051116200347
30
0
41
1
10
5.20613266130562
20
2.10767838980829
30
0
41
1
10
5.07517169422172
20
2.21993732808843
30
0
41
1
10
5.00884558872289
20
2.2767916591869
30
0
0
SPLINE
5
135
100
AcDbEntity
8
1
62
256
6
ByLayer
370
18
48
1
60
0
100
AcDbSpline
70
4
71
5
72
14
73
8
40
0
40
0
40
0
40
0
40
0
40
0
40
0.674061295267747
40
0.842576619084684
40
1
40
1
40
1
40
1
40
1
40
1
41
1
10
9.05828647808463
20
-1.97357968075536
30
0
41
1
10
9.50507039238707
20
-2.1647206978339
30
0
41
1
10
10.063550285265
20
-2.39777610081029
30
0
41
1
10
10.7263741522324
20
-2.66425858082803
30
0
41
1
10
11.3891980191997
20
-2.91675265969715
30
0
41
1
10
12.052021886167
20
-3.15312730751847
30
0
41
1
10
12.268061838832
20
-3.22838787938602
30
0
41
1
10
12.3724058129214
20
-3.26431386054409
30
0
0
SPLINE
5
136
100
AcDbEntity
8
1
62
256
6
ByLayer
370
18
48
1
60
0
100
AcDbSpline
70
4
71
3
72
14
73
10
40
0
40
0
40
0
40
0
40
0.249999999999998
40
0.249999999999998
40
0.374999999999997
40
0.374999999999997
40
0.499999999999996
40
0.499999999999996
40
1
40
1
40
1
40
1
41
1
10
8.93304440622035
20
7.07413431854536
30
0
41
1
10
8.60726160397357
20
7.13867344062308
30
0
41
1
10
8.28144610460205
20
7.19208157947364
30
0
41
1
10
7.79192721727509
20
7.2556849355708
30
0
41
1
10
7.62857262595421
20
7.27413012523601
30
0
41
1
10
7.30170726751371
20
7.30549513034987
30
0
41
1
10
7.13832692426593
20
7.31840590026823
30
0
41
1
10
6.32139301914259
20
7.3692511800474
30
0
41
1
10
5.66771721455998
20
7.36609698258189
30
0
41
1
10
5.01042971766213
20
7.32048858360344
30
0
0
SPLINE
5
137
100
AcDbEntity
8
1
62
256
6
ByLayer
370
18
48
1
60
0
100
AcDbSpline
70
4
71
3
72
66
73
62
40
0
40
0
40
0
40
0
40
0.0095425131687579
40
0.018981982784453
40
0.0283183848229129
40
0.037551697284066
40
0.0466819001445115
40
0.0557089753101429
40
0.0646329065686311
40
0.0734536795422069
40
0.0821712816405893
40
0.0907857020144795
40
0.0992969315093156
40
0.107704962619921
40
0.116009789445717
40
0.124211407646749
40
0.132309814400944
40
0.140305008362052
40
0.148196989619107
40
0.155985759656989
40
0.163671321318401
40
0.171253678767552
40
0.178732837455108
40
0.186108804085285
40
0.19338158658461
40
0.20055119407267
40
0.20761763683513
40
0.214580926298946
40
0.221441075010008
40
0.228198096613482
40
0.234852005836853
40
0.241402818475918
40
0.247850551384121
40
0.254195222465085
40
0.260436850668923
40
0.26657545599257
40
0.272611059484165
40
0.278543683252229
40
0.28437335047964
40
0.290100085443188
40
0.29572391353884
40
0.301244861313587
40
0.333638094017089
40
0.366297442564572
40
0.399224499470103
40
0.432420875812404
40
0.465888201224189
40
0.499628123525623
40
0.533642308059702
40
0.56793243678348
40
0.602500207164783
40
0.637113899155847
40
0.67286687637116
40
0.709760075300093
40
0.747794331722963
40
0.786970397627578
40
0.827288955765193
40
0.868750632208554
40
0.911356007210404
40
0.955105624610767
40
1
40
1
40
1
40
1
41
1
10
9.0415801182119
20
3.74379072362387
30
0
41
1
10
9.03038167179758
20
3.75426560107735
30
0
41
1
10
9.00810570389581
20
3.77510224442014
30
0
41
1
10
8.97483657871655
20
3.80643585676094
30
0
41
1
10
8.94190065293472
20
3.83760048961307
30
0
41
1
10
8.90929368023163
20
3.86860442702619
30
0
41
1
10
8.87701458558155
20
3.89943347621056
30
0
41
1
10
8.8450616540967
20
3.9300796329884
30
0
41
1
10
8.81343352864317
20
3.96053352841909
30
0
41
1
10
8.78212894025748
20
3.99078641941955
30
0
41
1
10
8.75114677245668
20
4.02082966440963
30
0
41
1
10
8.72048603762661
20
4.05065486106258
30
0
41
1
10
8.69014587660647
20
4.08025380931269
30
0
41
1
10
8.66012555221442
20
4.10961852002731
30
0
41
1
10
8.63042444442451
20
4.13874121133236
30
0
41
1
10
8.60104204517205
20
4.16761430788031
30
0
41
1
10
8.57197795332618
20
4.19623043905745
30
0
41
1
10
8.54323186969478
20
4.22458243720192
30
0
41
1
10
8.51480359210143
20
4.25266333556959
30
0
41
1
10
8.48669301053016
20
4.28046636613419
30
0
41
1
10
8.45890010234322
20
4.3079849572176
30
0
41
1
10
8.43142492757534
20
4.33521273096645
30
0
41
1
10
8.40426762430698
20
4.36214350068974
30
0
41
1
10
8.37742840411951
20
4.38877126806685
30
0
41
1
10
8.3509075476351
20
4.41509022024107
30
0
41
1
10
8.32470540014336
20
4.44109472680833
30
0
41
1
10
8.29882236731601
20
4.46677933671376
30
0
41
1
10
8.27325891101287
20
4.49213877506574
30
0
41
1
10
8.24801554517884
20
4.51716793987976
30
0
41
1
10
8.22309283183361
20
4.54186189875944
30
0
41
1
10
8.19849137715991
20
4.56621588553105
30
0
41
1
10
8.17421182766805
20
4.59022529681937
30
0
41
1
10
8.15025486652689
20
4.61388568865201
30
0
41
1
10
8.1266212097307
20
4.6371927728139
30
0
41
1
10
8.10331160331324
20
4.66014241401061
30
0
41
1
10
8.0803268171947
20
4.68273062401741
30
0
41
1
10
8.05766765173519
20
4.70495356677239
30
0
41
1
10
8.03533489850341
20
4.72680752365369
30
0
41
1
10
8.01332946801497
20
4.74828900360669
30
0
41
1
10
7.99165191091046
20
4.76939432675073
30
0
41
1
10
7.97030414367444
20
4.79012112133449
30
0
41
1
10
7.9150473332684
20
4.84359248443366
30
0
41
1
10
7.82472644790798
20
4.93031315002614
30
0
41
1
10
7.69769227517315
20
5.05074901052728
30
0
41
1
10
7.5679969618873
20
5.1720697023903
30
0
41
1
10
7.4356753614002
20
5.29417763892505
30
0
41
1
10
7.3007590973705
20
5.41698169834916
30
0
41
1
10
7.16328580520772
20
5.54040454412799
30
0
41
1
10
7.02329590806988
20
5.66438025846395
30
0
41
1
10
6.88083095134218
20
5.78885190221357
30
0
41
1
10
6.73626492036777
20
5.91349790303073
30
0
41
1
10
6.58842871363129
20
6.03929500918389
30
0
41
1
10
6.43617734319477
20
6.16729778901291
30
0
41
1
10
6.27800228177671
20
6.2988428985247
30
0
41
1
10
6.11392971441575
20
6.43395538641593
30
0
41
1
10
5.94398820493032
20
6.57266698195605
30
0
41
1
10
5.76820537244558
20
6.71501307282614
30
0
41
1
10
5.5866136561514
20
6.8610344261588
30
0
41
1
10
5.39922904503629
20
7.01077204261924
30
0
41
1
10
5.20613266130562
20
7.16428545543914
30
0
41
1
10
5.07517169422175
20
7.2678117453863
30
0
41
1
10
5.00884558872292
20
7.32024336514166
30
0
0
SPLINE
5
138
100
AcDbEntity
8
1
62
256
6
ByLayer
370
18
48
1
60
0
100
AcDbSpline
70
4
71
3
72
29
73
25
40
0
40
0
40
0
40
0
40
0.0190328308097718
40
0.0396494069340324
40
0.0621703167895005
40
0.0868420270873304
40
0.113852193055113
40
0.143343867100724
40
0.175426926993464
40
0.210186686364181
40
0.247690197910853
40
0.287990822873324
40
0.331131545766009
40
0.3771473940384
40
0.426067220779389
40
0.477915032232158
40
0.532710987505049
40
0.590472159954099
40
0.651213123430404
40
0.714946408476367
40
0.781682860895656
40
0.851431926272555
40
0.924201877761986
40
1
40
1
40
1
40
1
41
1
10
9.07499283795846
20
3.69733638291302
30
0
41
1
10
9.07516699695083
20
3.69763730039267
30
0
41
1
10
9.07552980692
20
3.69826417506636
30
0
41
1
10
9.07579484596923
20
3.6993023247596
30
0
41
1
10
9.075888589464
20
3.70044711834149
30
0
41
1
10
9.0757858659031
20
3.70170575995891
30
0
41
1
10
9.07549545379382
20
3.70307668759887
30
0
41
1
10
9.07501512782682
20
3.70456097059849
30
0
41
1
10
9.07434569253502
20
3.70615875085315
30
0
41
1
10
9.07348686299898
20
3.70787033549939
30
0
41
1
10
9.07243861935126
20
3.70969588841839
30
0
41
1
10
9.07120084335594
20
3.7116355499611
30
0
41
1
10
9.06977345003716
20
3.71368942157275
30
0
41
1
10
9.06815635671566
20
3.7158575855118
30
0
41
1
10
9.06634949463253
20
3.71814010951351
30
0
41
1
10
9.06435280469228
20
3.72053705248251
30
0
41
1
10
9.06216623852254
20
3.72304846819083
30
0
41
1
10
9.05978975089758
20
3.72567440555494
30
0
41
1
10
9.05722332221964
20
3.72841491877438
30
0
41
1
10
9.05446686192712
20
3.7312700340043
30
0
41
1
10
9.0515205900673
20
3.73423988817706
30
0
41
1
10
9.048383507561
20
3.73732417775119
30
0
41
1
10
9.04505948946471
20
3.7405243583747
30
0
41
1
10
9.04275556180428
20
3.74268724031421
30
0
41
1
10
9.04158011821102
20
3.74379072362342
30
0
0
SPLINE
5
139
100
AcDbEntity
8
1
62
256
6
ByLayer
370
18
48
1
60
0
100
AcDbSpline
70
4
71
5
72
33
73
27
40
0
40
0
40
0
40
0
40
0
40
0
40
0.133711330849421
40
0.167139163561777
40
0.21728091263031
40
0.267422661698843
40
0.300850494411198
40
0.334278327123554
40
0.384420076192087
40
0.43456182526062
40
0.467989657972975
40
0.518131407041508
40
0.551559239753863
40
0.601700988822397
40
0.635128821534752
40
0.685270570603285
40
0.735412319671818
40
0.768840152384173
40
0.818981901452706
40
0.852409734165062
40
0.902551483233595
40
0.93597931594595
40
0.986121065014483
40
1
40
1
40
1
40
1
40
1
40
1
41
1
10
9.05828647808465
20
3.72056355326851
30
0
41
1
10
9.50507039238707
20
3.58791317841889
30
0
41
1
10
10.063550285265
20
3.41103247938781
30
0
41
1
10
10.7895741460065
20
3.16417067302635
30
0
41
1
10
11.6831419746112
20
2.8356982805029
30
0
41
1
10
12.6884057817915
20
2.43692453735156
30
0
41
1
10
13.3585816532451
20
2.16020302085388
30
0
41
1
10
14.0846055139865
20
1.85013431525536
30
0
41
1
10
14.8106293747279
20
1.53112723758386
30
0
41
1
10
15.4808052461815
20
1.22968193122182
30
0
41
1
10
16.2068291069228
20
0.89717276432188
30
0
41
1
10
16.9328529676643
20
0.559941492720014
30
0
41
1
10
17.6588768284056
20
0.220088241298015
30
0
41
1
10
18.3290526998592
20
-0.0946818812215895
30
0
41
1
10
19.0550765606006
20
-0.435141041244464
30
0
41
1
10
19.781100421342
20
-0.773581501568401
30
0
41
1
10
20.5071242820833
20
-1.10795687538464
30
0
41
1
10
21.2331481428247
20
-1.43697716385057
30
0
41
1
10
21.9591720035661
20
-1.75831638220245
30
0
41
1
10
22.6851958643075
20
-2.07108070499859
30
0
41
1
10
23.3553717357611
20
-2.35061855604985
30
0
41
1
10
24.0813955965025
20
-2.64201916550633
30
0
41
1
10
24.6862506533982
20
-2.87420961363182
30
0
41
1
10
25.1794097317184
20
-3.05507888368723
30
0
41
1
10
25.5050248421751
20
-3.17056934671027
30
0
41
1
10
25.7189439740563
20
-3.24467865540004
30
0
41
1
10
25.7653191380741
20
-3.26066108227491
30
0
0
SPLINE
5
13A
100
AcDbEntity
8
1
62
256
6
ByLayer
370
18
48
1
60
0
100
AcDbSpline
70
4
71
3
72
22
73
18
40
0
40
0
40
0
40
0
40
0.124999999999994
40
0.124999999999994
40
0.187499999999992
40
0.187499999999992
40
0.249999999999989
40
0.249999999999989
40
0.49999999999999
40
0.49999999999999
40
0.624999999999992
40
0.624999999999992
40
0.749999999999995
40
0.749999999999995
40
0.874999999999997
40
0.874999999999997
40
1
40
1
40
1
40
1
41
1
10
4.31840620270666
20
-2.99820870000337
30
0
41
1
10
4.2148367669422
20
-2.90477740602103
30
0
41
1
10
4.11143631679869
20
-2.80999163276877
30
0
41
1
10
3.95666893969712
20
-2.66562625942433
30
0
41
1
10
3.90515459656615
20
-2.61715609229606
30
0
41
1
10
3.80257024595929
20
-2.51975285850384
30
0
41
1
10
3.75146273799658
20
-2.47078496855482
30
0
41
1
10
3.4969144180989
20
-2.2245522517085
30
0
41
1
10
3.29637795781159
20
-2.02317009644736
30
0
41
1
10
3.00218457849996
20
-1.71263357679075
30
0
41
1
10
2.90523382941134
20
-1.6076991893006
30
0
41
1
10
2.7140806480667
20
-1.39448135676273
30
0
41
1
10
2.61987556523442
20
-1.28620054678041
30
0
41
1
10
2.43493123299939
20
-1.06558958694873
30
0
41
1
10
2.34418708807013
20
-0.953264274326983
30
0
41
1
10
2.16718964128756
20
-0.723558491520777
30
0
41
1
10
2.08092648167846
20
-0.60618771999998
30
0
41
1
10
1.99767892217568
20
-0.48553124967799
30
0
0
SPLINE
5
13B
100
AcDbEntity
8
1
62
256
6
ByLayer
370
18
48
1
60
0
100
AcDbSpline
70
4
71
3
72
10
73
6
40
0
40
0
40
0
40
0
40
0.5
40
0.5
40
1
40
1
40
1
40
1
41
1
10
4.3184062027066
20
-2.99820870000363
30
0
41
1
10
4.35700568274663
20
-2.96453794952345
30
0
41
1
10
4.40135423526644
20
-2.9317347415107
30
0
41
1
10
4.50052163860587
20
-2.86770830703065
30
0
41
1
10
4.55534456853013
20
-2.83648569610551
30
0
41
1
10
4.61507965511879
20
-2.80600433596965
30
0
0
SPLINE
5
13C
100
AcDbEntity
8
1
62
256
6
ByLayer
370
18
48
1
60
0
100
AcDbSpline
70
4
71
3
72
23
73
19
40
0
40
0
40
0
40
0
40
0.125000000000001
40
0.125000000000001
40
0.250000000000003
40
0.250000000000003
40
0.375000000000005
40
0.375000000000005
40
0.437500000000005
40
0.437500000000005
40
0.500000000000006
40
0.500000000000006
40
0.625000000000004
40
0.625000000000004
40
0.750000000000003
40
0.750000000000003
40
0.875000000000001
40
1
40
1
40
1
40
1
41
1
10
4.61507965511879
20
-2.80600433596965
30
0
41
1
10
4.76990984494969
20
-2.95086215705166
30
0
41
1
10
4.92618620642227
20
-3.09197050910888
30
0
41
1
10
5.24129989715806
20
-3.36727959348636
30
0
41
1
10
5.4001404959856
20
-3.5014735700826
30
0
41
1
10
5.72035272229581
20
-3.76322047470151
30
0
41
1
10
5.8817236564955
20
-3.89077746166691
30
0
41
1
10
6.12584185814788
20
-4.0771458294962
30
0
41
1
10
6.207560230756
20
-4.13843845138746
30
0
41
1
10
6.37173869859708
20
-4.25933940055305
30
0
41
1
10
6.45424754620007
20
-4.31898138382081
30
0
41
1
10
6.70241513483361
20
-4.49492444539925
30
0
41
1
10
6.86882075812991
20
-4.60833263378458
30
0
41
1
10
7.20413371860624
20
-4.82715772334777
30
0
41
1
10
7.37304155473092
20
-4.93257267256144
30
0
41
1
10
7.7140912367058
20
-5.13506921685718
30
0
41
1
10
8.05837670464018
20
-5.32922566254908
30
0
41
1
10
8.41085697984468
20
-5.50595403411725
30
0
41
1
10
8.58963974772107
20
-5.58976128544117
30
0
0
SPLINE
5
13D
100
AcDbEntity
8
1
62
256
6
ByLayer
370
18
48
1
60
0
100
AcDbSpline
70
4
71
3
72
15
73
11
40
0
40
0
40
0
40
0
40
0.0819734655494607
40
0.163946931098922
40
0.327893862197844
40
0.491840793296766
40
0.655787724395688
40
0.81973465549461
40
0.983681586593532
40
1
40
1
40
1
40
1
41
1
10
9.05828647808463
20
-1.97357968075536
30
0
41
1
10
9.04202698639494
20
-2.06853382974342
30
0
41
1
10
8.97491528758911
20
-2.25382263888304
30
0
41
1
10
8.82542261719135
20
-2.62724105885923
30
0
41
1
10
8.65983290041916
20
-3.11418875641883
30
0
41
1
10
8.50737752014678
20
-3.71705906124663
30
0
41
1
10
8.42555615404339
20
-4.32909134107675
30
0
41
1
10
8.43947933036466
20
-4.93971642898984
30
0
41
1
10
8.5203787722271
20
-5.35725993405748
30
0
41
1
10
8.58368222578477
20
-5.57055616799477
30
0
41
1
10
8.58957999995991
20
-5.58982031507173
30
0
0
SPLINE
5
13E
100
AcDbEntity
8
1
62
256
6
ByLayer
370
18
48
1
60
0
100
AcDbSpline
70
4
71
3
72
29
73
25
40
0
40
0
40
0
40
0
40
0.019032830809631
40
0.0396494069339102
40
0.062170316789485
40
0.086842027087491
40
0.113852193055221
40
0.143343867100696
40
0.175426926993369
40
0.21018668636417
40
0.247690197910883
40
0.287990822873326
40
0.331131545766016
40
0.377147394038318
40
0.426067220779444
40
0.477915032232147
40
0.532710987505052
40
0.590472159954233
40
0.651213123430497
40
0.714946408476434
40
0.781682860895626
40
0.851431926272473
40
0.924201877761842
40
1
40
1
40
1
40
1
41
1
10
9.07499283795843
20
-2.0087561217434
30
0
41
1
10
9.0751669969508
20
-2.00828023800983
30
0
41
1
10
9.07552980692
20
-2.00728887167057
30
0
41
1
10
9.07579484596923
20
-2.00566408813455
30
0
41
1
10
9.07588858946397
20
-2.00388246499441
30
0
41
1
10
9.07578586590307
20
-2.00193411471739
30
0
41
1
10
9.07549545379379
20
-1.99982104450677
30
0
41
1
10
9.07501512782682
20
-1.99754173814159
30
0
41
1
10
9.07434569253502
20
-1.99509597037047
30
0
41
1
10
9.07348686299898
20
-1.99248331914433
30
0
41
1
10
9.0724386193512
20
-1.98970357598037
30
0
41
1
10
9.07120084335594
20
-1.98675657850126
30
0
41
1
10
9.06977345003716
20
-1.98364222764451
30
0
41
1
10
9.06815635671563
20
-1.9803604586204
30
0
41
1
10
9.06634949463256
20
-1.97691123308243
30
0
41
1
10
9.06435280469222
20
-1.97329453051341
30
0
41
1
10
9.06216623852251
20
-1.96951034240303
30
0
41
1
10
9.05978975089758
20
-1.96555867231285
30
0
41
1
10
9.05722332221961
20
-1.9614395185495
30
0
41
1
10
9.0544668619271
20
-1.95715293259983
30
0
41
1
10
9.05152059006727
20
-1.95269877705923
30
0
41
1
10
9.04838350756097
20
-1.9480776878072
30
0
41
1
10
9.04505948946465
20
-1.94328723530651
30
0
41
1
10
9.04275556180428
20
-1.94005321065296
30
0
41
1
10
9.04158011821099
20
-1.93840323976849
30
0
0
SPLINE
5
13F
100
AcDbEntity
8
1
62
256
6
ByLayer
370
18
48
1
60
0
100
AcDbSpline
70
4
71
3
72
8
73
4
40
0
40
0
40
0
40
0
40
1
40
1
40
1
40
1
41
1
10
1.49767892214635
20
0.101921219433137
30
0
41
1
10
1.40819865236926
20
0.16752384949703
30
0
41
1
10
1.31925612094537
20
0.234686712613751
30
0
41
1
10
1.2308433021069
20
0.303450440998858
30
0
0
SPLINE
5
140
100
AcDbEntity
8
1
62
256
6
ByLayer
370
18
48
1
60
0
100
AcDbSpline
70
4
71
3
72
18
73
14
40
0
40
0
40
0
40
0
40
0.25
40
0.25
40
0.5
40
0.5
40
0.625
40
0.625
40
0.75
40
0.75
40
0.875
40
0.875
40
1
40
1
40
1
40
1
41
1
10
1.99767892217605
20
-0.485531249677564
30
0
41
1
10
1.96015737661034
20
-0.431148667460235
30
0
41
1
10
1.92215428332534
20
-0.377376642313493
30
0
41
1
10
1.84459768069567
20
-0.271604785673304
30
0
41
1
10
1.80505873310696
20
-0.21959032930323
30
0
41
1
10
1.74375622794301
20
-0.143704152345123
30
0
41
1
10
1.72298459457434
20
-0.118769807797946
30
0
41
1
10
1.68051709742085
20
-0.0698693949146332
30
0
41
1
10
1.65876982332387
20
-0.0458514366018221
30
0
41
1
10
1.61454412310582
20
0.0002616807336437
30
0
41
1
10
1.59202090463865
20
0.0224180619173637
30
0
41
1
10
1.54582867388362
20
0.0642686210555325
30
0
41
1
10
1.52216283964265
20
0.0839707887299994
30
0
41
1
10
1.49767892214635
20
0.101921219433137
30
0
0
SPLINE
5
141
100
AcDbEntity
8
1
62
256
6
ByLayer
370
13
48
1
60
0
100
AcDbSpline
70
4
71
3
72
10
73
6
40
0
40
0
40
0
40
0
40
0.311120253634101
40
0.655560126817051
40
1
40
1
40
1
40
1
41
1
10
10.0000000007462
20
7.62473614439406
30
0
41
1
10
10.0000000007299
20
7.62846756158217
30
0
41
1
10
10.000000000687
20
7.60511261215052
30
0
41
1
10
10.00000000115
20
7.46950525226353
30
0
41
1
10
9.99999999999986
20
7.30498370127987
30
0
41
1
10
10
20
7.20549906058724
30
0
0
SPLINE
5
142
100
AcDbEntity
8
1
62
256
6
ByLayer
370
18
48
1
60
0
100
AcDbSpline
70
4
71
3
72
36
73
32
40
0
40
0
40
0
40
0
40
0.0600835174253633
40
0.0600835174253633
40
0.120167034850726
40
0.120167034850726
40
0.18025055227609
40
0.240334069701453
40
0.300417587126816
40
0.360501104552179
40
0.420584621977542
40
0.420584621977542
40
0.480668139402906
40
0.480668139402906
40
0.540751656828269
40
0.540751656828269
40
0.600835174253632
40
0.600835174253632
40
0.660918691678995
40
0.660918691678995
40
0.721002209104358
40
0.721002209104358
40
0.781085726529722
40
0.781085726529722
40
0.841169243955085
40
0.841169243955085
40
0.901252761380448
40
0.901252761380448
40
0.961336278805811
40
0.961336278805811
40
1
40
1
40
1
40
1
41
1
10
43.6041429736872
20
2.76435582918162
30
0
41
1
10
43.254099809364
20
3.02099358430613
30
0
41
1
10
42.9040566450408
20
3.27278080124995
30
0
41
1
10
42.2039703163944
20
3.76401007901583
30
0
41
1
10
41.8539271520712
20
4.00345123411711
30
0
41
1
10
41.1538408234249
20
4.46747214837134
30
0
41
1
10
40.4537544947785
20
4.91662995486223
30
0
41
1
10
39.4036250018088
20
5.53870067569827
30
0
41
1
10
38.3534955088394
20
6.10256746016708
30
0
41
1
10
37.3033660158697
20
6.60230485844613
30
0
41
1
10
36.6032796872233
20
6.88920935931964
30
0
41
1
10
35.9031933585769
20
7.15147934669196
30
0
41
1
10
35.5531501942537
20
7.27029688229351
30
0
41
1
10
34.8530638656074
20
7.48204931246534
30
0
41
1
10
34.5030207012842
20
7.57498381479263
30
0
41
1
10
33.8029343726378
20
7.73399346359452
30
0
41
1
10
33.4528912083146
20
7.80006831833191
30
0
41
1
10
32.7528048796682
20
7.90466421744094
30
0
41
1
10
32.4027617153449
20
7.94318507024229
30
0
41
1
10
31.7026753866986
20
7.99226805890589
30
0
41
1
10
31.3526322223754
20
8.0028301081004
30
0
41
1
10
30.652545893729
20
7.99588439328841
30
0
41
1
10
30.3025027294058
20
7.97837664232827
30
0
41
1
10
29.6024164007594
20
7.915475211299
30
0
41
1
10
29.2523732364362
20
7.87008164337385
30
0
41
1
10
28.5522869077899
20
7.75188549630545
30
0
41
1
10
28.2022437434666
20
7.67908313374912
30
0
41
1
10
27.5021574148203
20
7.50683434522813
30
0
41
1
10
27.1521142504971
20
7.40738823601595
30
0
41
1
10
26.5768184396701
20
7.22291251885218
30
0
41
1
10
26.3515657931662
20
7.14538244997959
30
0
41
1
10
26.1263131466623
20
7.06272731222722
30
0
0
SPLINE
5
143
100
AcDbEntity
8
1
62
256
6
ByLayer
370
18
48
1
60
0
100
AcDbSpline
70
4
71
3
72
14
73
10
40
0
40
0
40
0
40
0
40
0.271615357520192
40
0.271615357520192
40
0.543230715040385
40
0.543230715040385
40
0.814846072560577
40
0.814846072560577
40
1
40
1
40
1
40
1
41
1
10
10.0000321643757
20
7.20550124527006
30
0
41
1
10
10.0007438742922
20
7.27775351910978
30
0
41
1
10
10.0014834554475
20
7.34070265039782
30
0
41
1
10
10.0028707799287
20
7.44820500868818
30
0
41
1
10
10.0035985022693
20
7.49275868414483
30
0
41
1
10
10.0050252959096
20
7.56323197087116
30
0
41
1
10
10.0056928431506
20
7.58892047654123
30
0
41
1
10
10.0069098076433
20
7.61622164942861
30
0
41
1
10
10.0073919469063
20
7.62289864750625
30
0
41
1
10
10.0078703405516
20
7.62515358174579
30
0
0
SPLINE
5
144
100
AcDbEntity
8
1
62
256
6
ByLayer
370
18
48
1
60
0
100
AcDbSpline
70
4
71
3
72
60
73
56
40
0
40
0
40
0
40
0
40
0.0341180482197591
40
0.0682360964395183
40
0.102354144659277
40
0.136472192879037
40
0.136472192879037
40
0.170590241098796
40
0.170590241098796
40
0.204708289318555
40
0.204708289318555
40
0.238826337538314
40
0.238826337538314
40
0.272944385758073
40
0.272944385758073
40
0.307062433977832
40
0.307062433977832
40
0.341180482197591
40
0.341180482197591
40
0.37529853041735
40
0.37529853041735
40
0.40941657863711
40
0.40941657863711
40
0.443534626856869
40
0.443534626856869
40
0.477652675076628
40
0.477652675076628
40
0.511770723296387
40
0.511770723296387
40
0.545888771516146
40
0.580006819735905
40
0.614124867955664
40
0.648242916175423
40
0.648242916175423
40
0.682360964395182
40
0.682360964395182
40
0.716479012614941
40
0.716479012614941
40
0.7505970608347
40
0.7505970608347
40
0.78471510905446
40
0.78471510905446
40
0.818833157274219
40
0.818833157274219
40
0.852951205493978
40
0.852951205493978
40
0.887069253713737
40
0.887069253713737
40
0.921187301933496
40
0.921187301933496
40
0.955305350153255
40
0.955305350153255
40
0.989423398373014
40
0.989423398373014
40
1
40
1
40
1
40
1
41
1
10
43.6041429736873
20
-6.53594883540484
30
0
41
1
10
43.2540998093641
20
-6.37824541448569
30
0
41
1
10
42.5540134807176
20
-6.03990379754694
30
0
41
1
10
41.5038839877481
20
-5.46892077087796
30
0
41
1
10
40.4537544947786
20
-4.84046704113595
30
0
41
1
10
39.7536681661321
20
-4.38758743579152
30
0
41
1
10
39.0535818374857
20
-3.92013103840458
30
0
41
1
10
38.7035386731625
20
-3.67911530534315
30
0
41
1
10
38.0034523445161
20
-3.1850397339951
30
0
41
1
10
37.6534091801929
20
-2.93198080697203
30
0
41
1
10
36.9533228515466
20
-2.41647810103336
30
0
41
1
10
36.6032796872234
20
-2.15403527263598
30
0
41
1
10
35.903193358577
20
-1.62252264099109
30
0
41
1
10
35.5531501942538
20
-1.35345381652536
30
0
41
1
10
34.8530638656075
20
-0.811516709110009
30
0
41
1
10
34.5030207012843
20
-0.538649424406998
30
0
41
1
10
33.8029343726378
20
0.0080171615017832
30
0
41
1
10
33.4528912083146
20
0.281815454969006
30
0
41
1
10
32.7528048796683
20
0.827466821148079
30
0
41
1
10
32.4027617153451
20
1.09931888831997
30
0
41
1
10
31.7026753866986
20
1.63822100491223
30
0
41
1
10
31.3526322223754
20
1.90527006204633
30
0
41
1
10
30.6525458937291
20
2.43175982500875
30
0
41
1
10
30.3025027294059
20
2.69119956051617
30
0
41
1
10
29.6024164007595
20
3.19974430141519
30
0
41
1
10
29.2523732364363
20
3.44884836836755
30
0
41
1
10
28.5522869077899
20
3.93410399442615
30
0
41
1
10
28.2022437434668
20
4.17025465874187
30
0
41
1
10
27.5021574148203
20
4.62712181439147
30
0
41
1
10
26.8020710861741
20
5.06855389319153
30
0
41
1
10
25.7519415932044
20
5.67743826861474
30
0
41
1
10
24.7018121002348
20
6.22666077119018
30
0
41
1
10
24.0017257715884
20
6.54918644699276
30
0
41
1
10
23.301639442942
20
6.84820691203706
30
0
41
1
10
22.9515962786188
20
6.98596398663074
30
0
41
1
10
22.2515099499725
20
7.2365251996124
30
0
41
1
10
21.9014667856493
20
7.34932887597023
30
0
41
1
10
21.2013804570028
20
7.54879778838423
30
0
41
1
10
20.8513372926796
20
7.63546265721845
30
0
41
1
10
20.1512509640333
20
7.78174312807036
30
0
41
1
10
19.80120779971
20
7.84135846282311
30
0
41
1
10
19.1011214710637
20
7.93291328827766
30
0
41
1
10
18.7510783067405
20
7.96485261153955
30
0
41
1
10
18.0509919780941
20
8.00071967803376
30
0
41
1
10
17.7009488137709
20
8.00464735158872
30
0
41
1
10
17.0008624851245
20
7.98444974151172
30
0
41
1
10
16.6508193208013
20
7.96032449312995
30
0
41
1
10
15.9507329921549
20
7.88427445140803
30
0
41
1
10
15.6006898278318
20
7.83234979990721
30
0
41
1
10
14.9006034991853
20
7.70124650540305
30
0
41
1
10
14.5505603348621
20
7.62206810541164
30
0
41
1
10
13.8504740062158
20
7.4372892650654
30
0
41
1
10
13.5004308418926
20
7.33168916867942
30
0
41
1
10
13.0418742281056
20
7.17677337941993
30
0
41
1
10
12.9333607786419
20
7.13889767838791
30
0
41
1
10
12.8248473291781
20
7.09982623312033
30
0
0
SPLINE
5
145
100
AcDbEntity
8
1
62
256
6
ByLayer
370
18
48
1
60
0
100
AcDbSpline
70
4
71
3
72
33
73
29
40
0
40
0
40
0
40
0
40
0.0471652864819189
40
0.0471652864819189
40
0.115224908876067
40
0.115224908876067
40
0.183284531270216
40
0.183284531270216
40
0.251344153664365
40
0.251344153664365
40
0.319403776058514
40
0.319403776058514
40
0.387463398452662
40
0.387463398452662
40
0.455523020846811
40
0.455523020846811
40
0.523582643240959
40
0.591642265635108
40
0.659701888029257
40
0.727761510423405
40
0.727761510423405
40
0.795821132817554
40
0.795821132817554
40
0.863880755211703
40
0.863880755211703
40
0.931940377605851
40
0.931940377605851
40
1
40
1
40
1
40
1
41
1
10
25.4295513476285
20
-7.93886053152104
30
0
41
1
10
25.1869715984973
20
-7.96224592664896
30
0
41
1
10
24.944391849366
20
-7.97894953031482
30
0
41
1
10
24.3517689359115
20
-8.00331157210752
30
0
41
1
10
24.0017257715883
20
-8.00368482440092
30
0
41
1
10
23.3016394429419
20
-7.97639417934468
30
0
41
1
10
22.9515962786187
20
-7.94873033035202
30
0
41
1
10
22.2515099499724
20
-7.86565608467936
30
0
41
1
10
21.9014667856491
20
-7.81024584073472
30
0
41
1
10
21.2013804570028
20
-7.67226098584024
30
0
41
1
10
20.8513372926795
20
-7.58968662951725
30
0
41
1
10
20.1512509640331
20
-7.39824118951367
30
0
41
1
10
19.80120779971
20
-7.28937046069913
30
0
41
1
10
19.1011214710636
20
-7.04647625664848
30
0
41
1
10
18.7510783067404
20
-6.91245323019729
30
0
41
1
10
18.050991978094
20
-6.62066273804277
30
0
41
1
10
17.3509056494476
20
-6.3051288761105
30
0
41
1
10
16.3007761564781
20
-5.76556948081543
30
0
41
1
10
15.2506466635085
20
-5.16542201900054
30
0
41
1
10
14.5505603348621
20
-4.72913588187191
30
0
41
1
10
13.8504740062157
20
-4.27704829090254
30
0
41
1
10
13.5004308418924
20
-4.0431042177633
30
0
41
1
10
12.8003445132461
20
-3.56187221580152
30
0
41
1
10
12.4503013489229
20
-3.31458517391019
30
0
41
1
10
11.7502150202765
20
-2.80926583199491
30
0
41
1
10
11.4001718559532
20
-2.55123446159186
30
0
41
1
10
10.7000855273069
20
-2.02713797393054
30
0
41
1
10
10.3500423629837
20
-1.76107382219737
30
0
41
1
10
9.9999991986605
20
-1.49239076441256
30
0
0
SPLINE
5
146
100
AcDbEntity
8
1
62
256
6
ByLayer
370
18
48
1
60
0
100
AcDbSpline
70
4
71
3
72
54
73
50
40
0
40
0
40
0
40
0
40
0.0166442052334977
40
0.0166442052334977
40
0.0530647902248496
40
0.0530647902248496
40
0.0894853752162015
40
0.0894853752162015
40
0.125905960207554
40
0.125905960207554
40
0.162326545198905
40
0.162326545198905
40
0.198747130190257
40
0.198747130190257
40
0.235167715181609
40
0.235167715181609
40
0.271588300172961
40
0.308008885164313
40
0.344429470155665
40
0.380850055147017
40
0.417270640138369
40
0.417270640138369
40
0.453691225129721
40
0.453691225129721
40
0.490111810121073
40
0.490111810121073
40
0.526532395112425
40
0.526532395112425
40
0.562952980103777
40
0.562952980103777
40
0.599373565095129
40
0.599373565095129
40
0.635794150086481
40
0.635794150086481
40
0.672214735077833
40
0.672214735077833
40
0.708635320069185
40
0.708635320069185
40
0.745055905060536
40
0.745055905060536
40
0.781476490051888
40
0.781476490051888
40
0.81789707504324
40
0.854317660034592
40
0.890738245025944
40
0.927158830017296
40
0.963579415008648
40
0.963579415008648
40
1
40
1
40
1
40
1
41
1
10
38.8334046263585
20
-7.93882526259432
30
0
41
1
10
38.6734349205188
20
-7.95425201688343
30
0
41
1
10
38.513465214679
20
-7.96677356696333
30
0
41
1
10
38.0034523445161
20
-7.99737632928478
30
0
41
1
10
37.6534091801929
20
-8.00438567685211
30
0
41
1
10
36.9533228515466
20
-7.990341540782
30
0
41
1
10
36.6032796872234
20
-7.96928808462343
30
0
41
1
10
35.903193358577
20
-7.89933948424371
30
0
41
1
10
35.5531501942538
20
-7.85044446557356
30
0
41
1
10
34.8530638656073
20
-7.72532645749476
30
0
41
1
10
34.5030207012841
20
-7.64910369643104
30
0
41
1
10
33.8029343726377
20
-7.47013109142597
30
0
41
1
10
33.4528912083146
20
-7.36738157874581
30
0
41
1
10
32.7528048796682
20
-7.13643512741189
30
0
41
1
10
32.402761715345
20
-7.00823861549412
30
0
41
1
10
31.7026753866987
20
-6.72774523629471
30
0
41
1
10
31.0025890580523
20
-6.42315254185252
30
0
41
1
10
29.9524595650826
20
-5.89876464297942
30
0
41
1
10
28.9023300721131
20
-5.31238899081825
30
0
41
1
10
27.8522005791435
20
-4.67018756423798
30
0
41
1
10
27.1521142504971
20
-4.20933491116881
30
0
41
1
10
26.4520279218507
20
-3.73454462832211
30
0
41
1
10
26.1019847575275
20
-3.49018113718887
30
0
41
1
10
25.4018984288811
20
-2.99008357601704
30
0
41
1
10
25.051855264558
20
-2.73435042742929
30
0
41
1
10
24.3517689359115
20
-2.2142009099733
30
0
41
1
10
24.0017257715884
20
-1.94978549922914
30
0
41
1
10
23.301639442942
20
-1.41505006549653
30
0
41
1
10
22.9515962786187
20
-1.14473102733513
30
0
41
1
10
22.2515099499724
20
-0.601028994756206
30
0
41
1
10
21.9014667856492
20
-0.327647002197267
30
0
41
1
10
21.2013804570028
20
0.219308084666835
30
0
41
1
10
20.8513372926796
20
0.492880171080259
30
0
41
1
10
20.1512509640331
20
1.03734058235952
30
0
41
1
10
19.8012077997101
20
1.30822790438617
30
0
41
1
10
19.1011214710636
20
1.84447212591081
30
0
41
1
10
18.7510783067405
20
2.10982803744366
30
0
41
1
10
18.0509919780941
20
2.63222089564451
30
0
41
1
10
17.7009488137709
20
2.88925687848561
30
0
41
1
10
17.0008624851244
20
3.39230875673442
30
0
41
1
10
16.6508193208012
20
3.63832372446294
30
0
41
1
10
15.9507329921548
20
4.11674825267053
30
0
41
1
10
15.2506466635085
20
4.58156561144574
30
0
41
1
10
14.2005171705388
20
5.23064674481415
30
0
41
1
10
13.1503876775694
20
5.82476115592567
30
0
41
1
10
12.1002581845998
20
6.35766553252765
30
0
41
1
10
11.4001718559533
20
6.66839525061775
30
0
41
1
10
10.7000855273069
20
6.95522220719087
30
0
41
1
10
10.3500423629837
20
7.0866840835443
30
0
41
1
10
9.99999919866056
20
7.20550410120373
30
0
0
SPLINE
5
147
100
AcDbEntity
8
1
62
256
6
ByLayer
370
18
48
1
60
0
100
AcDbSpline
70
4
71
3
72
22
73
18
40
0
40
0
40
0
40
0
40
0.250000000000003
40
0.250000000000003
40
0.312500000000002
40
0.312500000000002
40
0.375000000000002
40
0.375000000000002
40
0.500000000000002
40
0.500000000000002
40
0.625000000000001
40
0.625000000000001
40
0.750000000000001
40
0.750000000000001
40
0.875
40
0.875
40
1
40
1
40
1
40
1
41
1
10
4.72743856970919
20
-7.56830087807251
30
0
41
1
10
4.48534826822061
20
-7.58961154699435
30
0
41
1
10
4.2439597932476
20
-7.60046087521064
30
0
41
1
10
3.94367144091603
20
-7.59986610587995
30
0
41
1
10
3.88374137647443
20
-7.59903541991602
30
0
41
1
10
3.76447744170909
20
-7.59593335782225
30
0
41
1
10
3.70509886727649
20
-7.59366207695848
30
0
41
1
10
3.52778898284092
20
-7.5846534050998
30
0
41
1
10
3.41067776340259
20
-7.57572540566142
30
0
41
1
10
3.17911994671232
20
-7.55175581250407
30
0
41
1
10
3.06467102927419
20
-7.53671621344606
30
0
41
1
10
2.83911945214175
20
-7.5000988769942
30
0
41
1
10
2.72801247852848
20
-7.47852453307249
30
0
41
1
10
2.5101316873494
20
-7.42817767235118
30
0
41
1
10
2.40334931115552
20
-7.39941154630401
30
0
41
1
10
2.19559193122356
20
-7.33364663243006
30
0
41
1
10
2.09459806250965
20
-7.2966614585672
30
0
41
1
10
1.99767892217565
20
-7.25471614393854
30
0
0
SPLINE
5
148
100
AcDbEntity
8
1
62
256
6
ByLayer
370
18
48
1
60
0
100
AcDbSpline
70
4
71
3
72
18
73
14
40
0
40
0
40
0
40
0
40
0.25
40
0.25
40
0.5
40
0.5
40
0.625
40
0.625
40
0.75
40
0.75
40
0.875
40
0.875
40
1
40
1
40
1
40
1
41
1
10
1.99767892217599
20
-7.25471614393746
30
0
41
1
10
1.96015737661034
20
-7.2384773181621
30
0
41
1
10
1.92215428332537
20
-7.22382784223538
30
0
41
1
10
1.84459768069573
20
-7.19847723328718
30
0
41
1
10
1.80505873310707
20
-7.1877512119041
30
0
41
1
10
1.74375622794318
20
-7.17587206383803
30
0
41
1
10
1.72298459457451
20
-7.17262268154232
30
0
41
1
10
1.68051709742107
20
-7.16794531797783
30
0
41
1
10
1.65876982332412
20
-7.16651844924445
30
0
41
1
10
1.61454412310613
20
-7.1661050085487
30
0
41
1
10
1.59202090463893
20
-7.16710416809627
30
0
41
1
10
1.54582867388396
20
-7.17235283262636
30
0
41
1
10
1.52216283964302
20
-7.17659067909744
30
0
41
1
10
1.49767892214675
20
-7.18313500430273
30
0
0
SPLINE
5
149
100
AcDbEntity
8
1
62
256
6
ByLayer
370
18
48
1
60
0
100
AcDbSpline
70
4
71
3
72
12
73
8
40
0
40
0
40
0
40
0
40
0.250000000000001
40
0.250000000000001
40
0.500000000000002
40
0.500000000000002
40
1
40
1
40
1
40
1
41
1
10
3.60000000134878
20
2.70313127602657
30
0
41
1
10
3.60000000134639
20
2.72570000258043
30
0
41
1
10
3.60000000134377
20
2.74811473860487
30
0
41
1
10
3.60000000133837
20
2.79226024177396
30
0
41
1
10
3.60000000133553
20
2.8139713483522
30
0
41
1
10
3.60000000132666
20
2.87803804011077
30
0
41
1
10
3.60000000132024
20
2.91933156209632
30
0
41
1
10
3.60000000131331
20
2.95920000741378
30
0
0
SPLINE
5
14A
100
AcDbEntity
8
1
62
256
6
ByLayer
370
18
48
1
60
0
100
AcDbSpline
70
4
71
3
72
18
73
14
40
0
40
0
40
0
40
0
40
0.25
40
0.25
40
0.499999999999999
40
0.499999999999999
40
0.624999999999999
40
0.624999999999999
40
0.75
40
0.75
40
0.875
40
0.875
40
1
40
1
40
1
40
1
41
1
10
1.99767892217616
20
7.2003754437732
30
0
41
1
10
1.96015737661045
20
7.2178134471223
30
0
41
1
10
1.92215428332546
20
7.23651145720527
30
0
41
1
10
1.84459768069576
20
7.27687683813647
30
0
41
1
10
1.80505873310705
20
7.29852766619521
30
0
41
1
10
1.74375622794307
20
7.33401512803266
30
0
41
1
10
1.7229845945744
20
7.34635190951886
30
0
41
1
10
1.68051709742093
20
7.37230034906449
30
0
41
1
10
1.65876982332398
20
7.38594582830183
30
0
41
1
10
1.6145441231059
20
7.41455103092119
30
0
41
1
10
1.5920209046387
20
7.42953453712863
30
0
41
1
10
1.54582867388368
20
7.46131429733214
30
0
41
1
10
1.52216283964267
20
7.47810351924238
30
0
41
1
10
1.49767892214638
20
7.49617623230725
30
0
0
SPLINE
5
14B
100
AcDbEntity
8
1
62
256
6
ByLayer
370
18
48
1
60
0
100
AcDbSpline
70
4
71
3
72
12
73
8
40
0
40
0
40
0
40
0
40
0.5
40
0.5
40
0.75
40
0.75
40
1
40
1
40
1
40
1
41
1
10
3.28370312526798
20
2.95679543922097
30
0
41
1
10
3.33588249667164
20
2.9632816547568
30
0
41
1
10
3.38854892745641
20
2.96631599583554
30
0
41
1
10
3.46814588804912
20
2.96664147339675
30
0
41
1
10
3.49475437830509
20
2.96603412885545
30
0
41
1
10
3.54756076245585
20
2.96354308222985
30
0
41
1
10
3.57383756704058
20
2.96166021868663
30
0
41
1
10
3.60000000131402
20
2.95920000741748
30
0
0
SPLINE
5
14C
100
AcDbEntity
8
1
62
256
6
ByLayer
370
18
48
1
60
0
100
AcDbSpline
70
4
71
3
72
16
73
12
40
0
40
0
40
0
40
0
40
0.25
40
0.25
40
0.5
40
0.5
40
0.75
40
0.75
40
0.875
40
0.875
40
1
40
1
40
1
40
1
41
1
10
1.99767892216084
20
-5.7730707435953
30
0
41
1
10
2.09461915545827
20
-5.73145849114621
30
0
41
1
10
2.19506847517391
20
-5.69521279913096
30
0
41
1
10
2.40124246782767
20
-5.63124856234305
30
0
41
1
10
2.50698600193465
20
-5.60355317786386
30
0
41
1
10
2.72280725629622
20
-5.55547843837402
30
0
41
1
10
2.83289270087795
20
-5.53510870717184
30
0
41
1
10
3.00084002828493
20
-5.50947588947884
30
0
41
1
10
3.05742649623954
20
-5.50174089025759
30
0
41
1
10
3.17052453676408
20
-5.48795783532864
30
0
41
1
10
3.22710118096467
20
-5.48189541709758
30
0
41
1
10
3.28370312526786
20
-5.47659985262521
30
0
0
SPLINE
5
14D
100
AcDbEntity
8
1
62
256
6
ByLayer
370
18
48
1
60
0
100
AcDbSpline
70
4
71
3
72
12
73
8
40
0
40
0
40
0
40
0
40
0.25
40
0.25
40
0.5
40
0.5
40
1
40
1
40
1
40
1
41
1
10
3.28370312526795
20
-5.47659985262618
30
0
41
1
10
3.31003716007117
20
-5.47413609310635
30
0
41
1
10
3.33665452116966
20
-5.47232895266998
30
0
41
1
10
3.38959364884551
20
-5.46993242919373
30
0
41
1
10
3.41600725981456
20
-5.46933245854396
30
0
41
1
10
3.49509988070108
20
-5.4691190614565
30
0
41
1
10
3.54763174571022
20
-5.47108137181215
30
0
41
1
10
3.60000000128596
20
-5.47478961959439
30
0
0
SPLINE
5
14E
100
AcDbEntity
8
1
62
256
6
ByLayer
370
18
48
1
60
0
100
AcDbSpline
70
4
71
3
72
8
73
4
40
0
40
0
40
0
40
0
40
1
40
1
40
1
40
1
41
1
10
1.49767892214672
20
-7.18313500430273
30
0
41
1
10
1.40819865236949
20
-7.20705225467296
30
0
41
1
10
1.31925612094548
20
-7.22933849786725
30
0
41
1
10
1.23084330210688
20
-7.24991439989094
30
0
0
SPLINE
5
14F
100
AcDbEntity
8
1
62
256
6
ByLayer
370
18
48
1
60
0
100
AcDbSpline
70
4
71
3
72
8
73
4
40
0
40
0
40
0
40
0
40
1
40
1
40
1
40
1
41
1
10
1.49767892214638
20
7.49617623230728
30
0
41
1
10
1.40819865236929
20
7.5622257622025
30
0
41
1
10
1.3192561209454
20
7.62757010381745
30
0
41
1
10
1.23084330210693
20
7.69215275667736
30
0
0
SPLINE
5
150
100
AcDbEntity
8
1
62
256
6
ByLayer
370
18
48
1
60
0
100
AcDbSpline
70
4
71
3
72
19
73
15
40
0
40
0
40
0
40
0
40
0.25000000000001
40
0.25000000000001
40
0.37500000000001
40
0.37500000000001
40
0.50000000000001
40
0.62500000000001
40
0.62500000000001
40
0.68750000000001
40
0.68750000000001
40
0.750000000000009
40
0.750000000000009
40
1
40
1
40
1
40
1
41
1
10
9.99999999999997
20
-1.49238869332686
30
0
41
1
10
9.90341687141935
20
-1.41083533650479
30
0
41
1
10
9.8088684173766
20
-1.32811128802251
30
0
41
1
10
9.66926952132741
20
-1.20316788631848
30
0
41
1
10
9.62303306663733
20
-1.16130592868589
30
0
41
1
10
9.53173950428965
20
-1.07794617276599
30
0
41
1
10
9.44155311656857
20
-0.994889102898384
30
0
41
1
10
9.35333336098577
20
-0.912737133358519
30
0
41
1
10
9.28782691729165
20
-0.85158770832868
30
0
41
1
10
9.26608510074536
20
-0.831267001255299
30
0
41
1
10
9.22297105288737
20
-0.7909554754319
30
0
41
1
10
9.20158239564989
20
-0.770949340455076
30
0
41
1
10
9.09544797921669
20
-0.671724938491963
30
0
41
1
10
9.01311582590142
20
-0.59489142591994
30
0
41
1
10
8.93304440622038
20
-0.521581123908106
30
0
0
SPLINE
5
151
100
AcDbEntity
8
1
62
256
6
ByLayer
370
18
48
1
60
0
100
AcDbSpline
70
4
71
3
72
19
73
15
40
0
40
0
40
0
40
0
40
0.250000000000017
40
0.250000000000017
40
0.37500000000002
40
0.37500000000002
40
0.500000000000023
40
0.625000000000026
40
0.625000000000026
40
0.687500000000023
40
0.687500000000023
40
0.75000000000002
40
0.75000000000002
40
1
40
1
40
1
40
1
41
1
10
10
20
7.20549906058369
30
0
41
1
10
9.90341687141941
20
7.22511298425826
30
0
41
1
10
9.80886841737663
20
7.23727716600479
30
0
41
1
10
9.66926952132741
20
7.24441933480347
30
0
41
1
10
9.62303306663736
20
7.2449344550576
30
0
41
1
10
9.53173950428967
20
7.24216489743696
30
0
41
1
10
9.4415531165686
20
7.23561287308544
30
0
41
1
10
9.35333336098577
20
7.22134070432537
30
0
41
1
10
9.28782691729162
20
7.20761178371487
30
0
41
1
10
9.26608510074539
20
7.20252556589398
30
0
41
1
10
9.2229710528874
20
7.19135696251448
30
0
41
1
10
9.20158239564992
20
7.18527193540956
30
0
41
1
10
9.09544797921669
20
7.15229642634893
30
0
41
1
10
9.01311582590148
20
7.11783076966123
30
0
41
1
10
8.9330444062204
20
7.07413431854525
30
0
0
SPLINE
5
152
100
AcDbEntity
8
1
62
256
6
ByLayer
370
18
48
1
60
0
100
AcDbSpline
70
4
71
3
72
16
73
12
40
0
40
0
40
0
40
0
40
0.250000000000004
40
0.250000000000004
40
0.500000000000008
40
0.500000000000008
40
0.750000000000011
40
0.750000000000011
40
0.875000000000006
40
0.875000000000006
40
1
40
1
40
1
40
1
41
1
10
1.99767892216087
20
2.54565391546356
30
0
41
1
10
2.0946191554583
20
2.60594003051841
30
0
41
1
10
2.195068475174
20
2.65733548928262
30
0
41
1
10
2.40124246782776
20
2.74698337833502
30
0
41
1
10
2.50698600193468
20
2.78518526641503
30
0
41
1
10
2.72280725629628
20
2.85094119158353
30
0
41
1
10
2.83289270087798
20
2.87847459711304
30
0
41
1
10
3.00084002828496
20
2.91292788475332
30
0
41
1
10
3.0574264962396
20
2.92328352476625
30
0
41
1
10
3.17052453676408
20
2.94168962952548
30
0
41
1
10
3.2271011809647
20
2.94975947078151
30
0
41
1
10
3.28370312526792
20
2.95679543922307
30
0
0
SPLINE
5
153
100
AcDbEntity
8
1
62
256
6
ByLayer
370
18
48
1
60
0
100
AcDbSpline
70
4
71
3
72
20
73
16
40
0
40
0
40
0
40
0
40
0.249999999999966
40
0.249999999999966
40
0.312499999999959
40
0.312499999999959
40
0.374999999999951
40
0.374999999999951
40
0.499999999999967
40
0.499999999999967
40
0.624999999999983
40
0.624999999999983
40
0.75
40
0.75
40
1
40
1
40
1
40
1
41
1
10
1.49767892216897
20
2.43197688748347
30
0
41
1
10
1.53816385459152
20
2.41721145896685
30
0
41
1
10
1.58009380696441
20
2.4104357461346
30
0
41
1
10
1.63431399104664
20
2.41089140037124
30
0
41
1
10
1.64523227955587
20
2.41143170094244
30
0
41
1
10
1.66688161508509
20
2.41331831922491
30
0
41
1
10
1.67765985552708
20
2.41466416033199
30
0
41
1
10
1.70987788951962
20
2.41978755416938
30
0
41
1
10
1.7312017564239
20
2.42464626160214
30
0
41
1
10
1.77363910923736
20
2.43673424996013
30
0
41
1
10
1.79481784307194
20
2.44399127514194
30
0
41
1
10
1.83673486630224
20
2.46037529684921
30
0
41
1
10
1.85737445701017
20
2.46945468572997
30
0
41
1
10
1.9185698438786
20
2.49883133778724
30
0
41
1
10
1.95841542005942
20
2.52123635502585
30
0
41
1
10
1.99767892216147
20
2.54565391546151
30
0
0
SPLINE
5
154
100
AcDbEntity
8
1
62
256
6
ByLayer
370
18
48
1
60
0
100
AcDbSpline
70
4
71
3
72
8
73
4
40
0
40
0
40
0
40
0
40
1
40
1
40
1
40
1
41
1
10
1.23084330210702
20
2.52430589894303
30
0
41
1
10
1.32003347915068
20
2.49517598736682
30
0
41
1
10
1.40897327263409
20
2.46432909480998
30
0
41
1
10
1.49767892216897
20
2.43197688748353
30
0
0
SPLINE
5
155
100
AcDbEntity
8
1
62
256
6
ByLayer
370
18
48
1
60
0
100
AcDbSpline
70
4
71
1
72
4
73
2
40
0
40
0
40
1
40
1
41
1
10
8.93304440614344
20
7.22712279784847
30
0
41
1
10
6.83734492081047
20
7.33649127023716
30
0
0
SPLINE
5
156
100
AcDbEntity
8
1
62
256
6
ByLayer
370
18
48
1
60
0
100
AcDbSpline
70
4
71
2
72
6
73
3
40
0
40
0
40
0
40
1
40
1
40
1
41
1
10
10.0000000007425
20
7.62533001985247
30
0
41
1
10
9.408763628613
20
7.58086184159077
30
0
41
1
10
8.93304440614611
20
7.22701987017467
30
0
0
SPLINE
5
157
100
AcDbEntity
8
1
62
256
6
ByLayer
370
18
48
1
60
0
100
AcDbSpline
70
4
71
3
72
15
73
11
40
0
40
0
40
0
40
0
40
0.162979330430239
40
0.27931648663251
40
0.37614871866728
40
0.497212062744116
40
0.619782723381138
40
0.720224761339356
40
0.838360222133574
40
1
40
1
40
1
40
1
41
1
10
13.0964194342968
20
-7.93908383582544
30
0
41
1
10
13.2857283272465
20
-7.92081159600605
30
0
41
1
10
13.6104127050248
20
-7.88959564135862
30
0
41
1
10
14.049039313234
20
-7.84761540844045
30
0
41
1
10
14.4378356730439
20
-7.81074806201789
30
0
41
1
10
14.8347092898266
20
-7.77331291879858
30
0
41
1
10
15.2357810503244
20
-7.73585917453502
30
0
41
1
10
15.632773834362
20
-7.69899389554036
30
0
41
1
10
16.0764830540228
20
-7.65846971437992
30
0
41
1
10
16.4008148577499
20
-7.62946656539802
30
0
41
1
10
16.5878064038866
20
-7.61295403533649
30
0
0
SPLINE
5
158
100
AcDbEntity
8
1
62
256
6
ByLayer
370
18
48
1
60
0
100
AcDbSpline
70
4
71
3
72
18
73
14
40
0
40
0
40
0
40
0
40
0.131996948922588
40
0.232121778480269
40
0.300557239345205
40
0.385028977245009
40
0.50116785646474
40
0.616486730618466
40
0.698036607400476
40
0.744968573079899
40
0.810941720216414
40
0.895951024000246
40
1
40
1
40
1
40
1
41
1
10
36.4142554779783
20
7.56718836234452
30
0
41
1
10
36.2377034293006
20
7.58245777545562
30
0
41
1
10
35.9271447757378
20
7.60961497649694
30
0
41
1
10
35.5249337805242
20
7.64539369079986
30
0
41
1
10
35.186059176838
20
7.67605393457723
30
0
41
1
10
34.8256555745479
20
7.70909948375746
30
0
41
1
10
34.402664565553
20
7.7484058568607
30
0
41
1
10
33.9835802929078
20
7.78779843011557
30
0
41
1
10
33.6570980039535
20
7.81869991526034
30
0
41
1
10
33.3967264949182
20
7.84343614304439
30
0
41
1
10
33.1317686332838
20
7.8686847202267
30
0
41
1
10
32.7903557047267
20
7.90132767087991
30
0
41
1
10
32.5372547028012
20
7.92563946372306
30
0
41
1
10
32.3979590103054
20
7.93905259137711
30
0
0
SPLINE
5
159
100
AcDbEntity
8
1
62
256
6
ByLayer
370
18
48
1
60
0
100
AcDbSpline
70
4
71
3
72
19
73
15
40
0
40
0
40
0
40
0
40
0.108946622743188
40
0.196590765536032
40
0.273612843316549
40
0.323856136308657
40
0.375581466091661
40
0.434371191082058
40
0.499377654251366
40
0.574399623230175
40
0.629454186538735
40
0.700241287045536
40
0.823719577563972
40
1
40
1
40
1
40
1
41
1
10
25.4279560866982
20
-7.93902667906556
30
0
41
1
10
25.5928515346807
20
-7.92312959906633
30
0
41
1
10
25.8904134429965
20
-7.89452883813442
30
0
41
1
10
26.3045443844603
20
-7.85495999477561
30
0
41
1
10
26.6299132721377
20
-7.82398588421492
30
0
41
1
10
26.9009430565617
20
-7.79830613443335
30
0
41
1
10
27.1443660577694
20
-7.77532920903963
30
0
41
1
10
27.4101891943377
20
-7.75039082960734
30
0
41
1
10
27.7112126083966
20
-7.72248533198541
30
0
41
1
10
28.0069102250132
20
-7.69531376358412
30
0
41
1
10
28.3092245584188
20
-7.66767100796946
30
0
41
1
10
28.6858086902196
20
-7.63343209932629
30
0
41
1
10
29.2473540928621
20
-7.58359565890106
30
0
41
1
10
29.701430273781
20
-7.5445839739582
30
0
41
1
10
29.9686469724429
20
-7.52209394447499
30
0
0
SPLINE
5
15A
100
AcDbEntity
8
1
62
256
6
ByLayer
370
18
48
1
60
0
100
AcDbSpline
70
4
71
2
72
6
73
3
40
0
40
0
40
0
40
1
40
1
40
1
41
1
10
10.2261527064476
20
7.60641491090428
30
0
41
1
10
10.117892122829
20
7.61590957806101
30
0
41
1
10
10.0095165479312
20
7.62498816018638
30
0
0
SPLINE
5
15B
100
AcDbEntity
8
1
62
256
6
ByLayer
370
18
48
1
60
0
100
AcDbSpline
70
4
71
3
72
16
73
12
40
0
40
0
40
0
40
0
40
0.14038908470904
40
0.248818363884182
40
0.32499523960825
40
0.395375628650201
40
0.462523270248295
40
0.531975722267668
40
0.637705649012512
40
0.79340293923634
40
1
40
1
40
1
40
1
41
1
10
38.831307224625
20
-7.93908021658987
30
0
41
1
10
38.994671103242
20
-7.92334331286622
30
0
41
1
10
39.2842280920164
20
-7.89552694819642
30
0
41
1
10
39.6624536340759
20
-7.8593526438703
30
0
41
1
10
39.9592636665711
20
-7.83109212576767
30
0
41
1
10
40.2076227297548
20
-7.80755369605927
30
0
41
1
10
40.4483710352341
20
-7.78483136297228
30
0
41
1
10
40.7303746087129
20
-7.75836477576854
30
0
41
1
10
41.1154038103439
20
-7.7225254249048
30
0
41
1
10
41.6600240186903
20
-7.67240484968471
30
0
41
1
10
42.0816872289962
20
-7.63443497130166
30
0
41
1
10
42.3221567990214
20
-7.61303127726529
30
0
0
SPLINE
5
15C
100
AcDbEntity
8
1
62
256
6
ByLayer
370
18
48
1
60
0
100
AcDbSpline
70
4
71
3
72
18
73
14
40
0
40
0
40
0
40
0
40
0.140733341710115
40
0.253511797526723
40
0.345499662350559
40
0.423334600313992
40
0.488675889641443
40
0.545281541064317
40
0.597313251041924
40
0.659499508614983
40
0.735137975062203
40
0.862710013264929
40
1
40
1
40
1
40
1
41
1
10
23.5353481117004
20
7.52194554716255
30
0
41
1
10
23.3270905050728
20
7.53926522818918
30
0
41
1
10
22.9489898722326
20
7.5714432986409
30
0
41
1
10
22.417176193261
20
7.61786968537345
30
0
41
1
10
21.9911531003021
20
7.65718136686135
30
0
41
1
10
21.6319913183193
20
7.68985638987965
30
0
41
1
10
21.3268416835919
20
7.71796101049722
30
0
41
1
10
21.0629001981339
20
7.74246854395997
30
0
41
1
10
20.8071465962169
20
7.76603067104247
30
0
41
1
10
20.514446754659
20
7.79370978228599
30
0
41
1
10
20.1193385534984
20
7.83132463687741
30
0
41
1
10
19.5985459884912
20
7.8800680913869
30
0
41
1
10
19.200500810143
20
7.91879466423853
30
0
41
1
10
18.9942274489383
20
7.93905832574765
30
0
0
LINE
5
79
100
AcDbEntity
8
80
62
256
6
ByLayer
370
18
48
1
60
0
100
AcDbLine
10
0
20
0
30
0
11
-5
21
0
31
0
39
0
210
0
220
0
230
1
0
LINE
5
7A
100
AcDbEntity
8
4
62
256
6
ByLayer
370
18
48
0.05
60
0
100
AcDbLine
10
0
20
0
30
0
11
44
21
0
31
0
39
0
210
0
220
0
230
1
0
LINE
5
7C
100
AcDbEntity
8
81
62
256
6
ByLayer
370
18
48
1
60
0
100
AcDbLine
10
44
20
0
30
0
11
49
21
0
31
0
39
0
210
0
220
0
230
1
0
LINE
5
7D
100
AcDbEntity
8
SK4
62
256
6
ByLayer
370
18
48
0.05
60
0
100
AcDbLine
10
-48
20
0
30
0
11
44
21
0
31
0
39
0
210
0
220
0
230
1
0
LINE
5
7F
100
AcDbEntity
8
1
62
256
6
ByLayer
370
18
48
1
60
0
100
AcDbLine
10
0
20
8
30
0
11
0
21
0
31
0
39
0
210
0
220
0
230
1
0
LINE
5
80
100
AcDbEntity
8
1
62
256
6
ByLayer
370
18
48
1
60
0
100
AcDbLine
10
0
20
0
30
0
11
0
21
-8
31
0
39
0
210
0
220
0
230
1
0
LINE
5
81
100
AcDbEntity
8
1
62
256
6
ByLayer
370
18
48
1
60
0
100
AcDbLine
10
43.986939
20
2.560411
30
0
11
43.823147
21
1.318658
31
0
39
0
210
0
220
0
230
1
0
LINE
5
82
100
AcDbEntity
8
1
62
256
6
ByLayer
370
18
48
1
60
0
100
AcDbLine
10
43.823147
20
1.318658
30
0
11
43.608037
21
-0.112278
31
0
39
0
210
0
220
0
230
1
0
LINE
5
83
100
AcDbEntity
8
1
62
256
6
ByLayer
370
18
48
1
60
0
100
AcDbLine
10
43.976587
20
2.562222
30
0
11
43.986939
21
2.560411
31
0
39
0
210
0
220
0
230
1
0
LINE
5
84
100
AcDbEntity
8
1
62
256
6
ByLayer
370
18
48
1
60
0
100
AcDbLine
10
43.729519
20
0.842337
30
0
11
43.986939
21
2.560411
31
0
39
0
210
0
220
0
230
1
0
LINE
5
85
100
AcDbEntity
8
1
62
256
6
ByLayer
370
18
48
1
60
0
100
AcDbLine
10
43.115116
20
-1.58079
30
0
11
43.608037
21
-0.112278
31
0
39
0
210
0
220
0
230
1
0
LINE
5
86
100
AcDbEntity
8
1
62
256
6
ByLayer
370
18
48
1
60
0
100
AcDbLine
10
43.608037
20
-0.112278
30
0
11
43.729519
21
0.842337
31
0
39
0
210
0
220
0
230
1
0
LINE
5
87
100
AcDbEntity
8
1
62
256
6
ByLayer
370
18
48
1
60
0
100
AcDbLine
10
43.392514
20
0.680929
30
0
11
43.729519
21
0.842337
31
0
39
0
210
0
220
0
230
1
0
LINE
5
88
100
AcDbEntity
8
1
62
256
6
ByLayer
370
18
48
1
60
0
100
AcDbLine
10
43.986939
20
-6.415788
30
0
11
43.823147
21
-7.045208
31
0
39
0
210
0
220
0
230
1
0
LINE
5
89
100
AcDbEntity
8
1
62
256
6
ByLayer
370
18
48
1
60
0
100
AcDbLine
10
43.984601
20
-6.380508
30
0
11
43.986939
21
-6.415788
31
0
39
0
210
0
220
0
230
1
0
LINE
5
8A
100
AcDbEntity
8
1
62
256
6
ByLayer
370
13
48
1
60
0
100
AcDbLine
10
42.924565
20
0.565851
30
0
11
42.734916
21
0.113544
31
0
39
0
210
0
220
0
230
1
0
LINE
5
8B
100
AcDbEntity
8
1
62
256
6
ByLayer
370
18
48
1
60
0
100
AcDbLine
10
43.823147
20
-7.045208
30
0
11
43.769303
21
-7.161639
31
0
39
0
210
0
220
0
230
1
0
LINE
5
8C
100
AcDbEntity
8
1
62
256
6
ByLayer
370
18
48
1
60
0
100
AcDbLine
10
43.823147
20
-7.045208
30
0
11
43.789568
21
-6.522949
31
0
39
0
210
0
220
0
230
1
0
LINE
5
8D
100
AcDbEntity
8
1
62
256
6
ByLayer
370
18
48
1
60
0
100
AcDbLine
10
43.762047
20
7.983452
30
0
11
43.986939
21
7.759008
31
0
39
0
210
0
220
0
230
1
0
LINE
5
8E
100
AcDbEntity
8
1
62
256
6
ByLayer
370
18
48
1
60
0
100
AcDbLine
10
43.781374
20
3.925793
30
0
11
43.986939
21
7.759008
31
0
39
0
210
0
220
0
230
1
0
LINE
5
8F
100
AcDbEntity
8
1
62
256
6
ByLayer
370
13
48
1
60
0
100
AcDbLine
10
43.005033
20
0.99108
30
0
11
43.392514
21
0.680929
31
0
39
0
210
0
220
0
230
1
0
LINE
5
90
100
AcDbEntity
8
1
62
256
6
ByLayer
370
18
48
1
60
0
100
AcDbLine
10
43.732659
20
-2.403401
30
0
11
43.986939
21
-6.378808
31
0
39
0
210
0
220
0
230
1
0
LINE
5
91
100
AcDbEntity
8
1
62
256
6
ByLayer
370
18
48
1
60
0
100
AcDbLine
10
43.608037
20
-2.142759
30
0
11
43.724583
21
-2.345709
31
0
39
0
210
0
220
0
230
1
0
LINE
5
92
100
AcDbEntity
8
1
62
256
6
ByLayer
370
18
48
1
60
0
100
AcDbLine
10
43.762047
20
-6.543067
30
0
11
43.986939
21
-6.378808
31
0
39
0
210
0
220
0
230
1
0
LINE
5
93
100
AcDbEntity
8
1
62
256
6
ByLayer
370
18
48
1
60
0
100
AcDbLine
10
43.986939
20
-6.378808
30
0
11
43.823147
21
-5.561651
31
0
39
0
210
0
220
0
230
1
0
LINE
5
94
100
AcDbEntity
8
1
62
256
6
ByLayer
370
18
48
1
60
0
100
AcDbLine
10
43.823147
20
-5.561651
30
0
11
43.769303
21
-5.470232
31
0
39
0
210
0
220
0
230
1
0
LINE
5
95
100
AcDbEntity
8
1
62
256
6
ByLayer
370
18
48
1
60
0
100
AcDbLine
10
43.823147
20
-5.561651
30
0
11
43.608037
21
-2.142759
31
0
39
0
210
0
220
0
230
1
0
LINE
5
96
100
AcDbEntity
8
1
62
256
6
ByLayer
370
18
48
1
60
0
100
AcDbLine
10
42.987437
20
-1.435261
30
0
11
43.608037
21
-2.142759
31
0
39
0
210
0
220
0
230
1
0
LINE
5
97
100
AcDbEntity
8
1
62
256
6
ByLayer
370
18
48
1
60
0
100
AcDbLine
10
3.6
20
5.445295
30
0
11
5.142889
21
5.445295
31
0
39
0
210
0
220
0
230
1
0
LINE
5
98
100
AcDbEntity
8
1
62
256
6
ByLayer
370
18
48
1
60
0
100
AcDbLine
10
43.986939
20
2.621955
30
0
11
43.823147
21
3.787667
31
0
39
0
210
0
220
0
230
1
0
LINE
5
99
100
AcDbEntity
8
1
62
256
6
ByLayer
370
18
48
1
60
0
100
AcDbLine
10
43.823147
20
3.787667
30
0
11
43.769303
21
3.96569
31
0
39
0
210
0
220
0
230
1
0
LINE
5
9A
100
AcDbEntity
8
1
62
256
6
ByLayer
370
18
48
1
60
0
100
AcDbLine
10
43.762047
20
2.73318
30
0
11
43.986939
21
2.621955
31
0
39
0
210
0
220
0
230
1
0
LINE
5
9B
100
AcDbEntity
8
1
62
256
6
ByLayer
370
13
48
1
60
0
100
AcDbLine
10
42.409917
20
2.149744
30
0
11
43.366039
21
1.129772
31
0
39
0
210
0
220
0
230
1
0
LINE
5
9C
100
AcDbEntity
8
1
62
256
6
ByLayer
370
18
48
1
60
0
100
AcDbLine
10
43.735352
20
1.170089
30
0
11
43.366039
21
1.129772
31
0
39
0
210
0
220
0
230
1
0
LINE
5
9D
100
AcDbEntity
8
1
62
256
6
ByLayer
370
18
48
1
60
0
100
AcDbLine
10
43.735352
20
1.170089
30
0
11
43.986939
21
2.621955
31
0
39
0
210
0
220
0
230
1
0
LINE
5
9E
100
AcDbEntity
8
1
62
256
6
ByLayer
370
18
48
1
60
0
100
AcDbLine
10
3.6
20
-5.47479
30
0
11
3.6
21
-2.998209
31
0
39
0
210
0
220
0
230
1
0
LINE
5
9F
100
AcDbEntity
8
1
62
256
6
ByLayer
370
18
48
1
60
0
100
AcDbLine
10
3.6
20
-2.998209
30
0
11
4.318406
21
-2.998209
31
0
39
0
210
0
220
0
230
1
0
LINE
5
A0
100
AcDbEntity
8
1
62
256
6
ByLayer
370
13
48
1
60
0
100
AcDbLine
10
1.997679
20
-0.485531
30
0
11
1.997679
21
-5.773071
31
0
39
0
210
0
220
0
230
1
0
LINE
5
A1
100
AcDbEntity
8
1
62
256
6
ByLayer
370
13
48
1
60
0
100
AcDbLine
10
1.497679
20
-5.98248
30
0
11
1.497679
21
0.101921
31
0
39
0
210
0
220
0
230
1
0
LINE
5
A2
100
AcDbEntity
8
1
62
256
6
ByLayer
370
13
48
1
60
0
100
AcDbLine
10
1.997679
20
-7.6
30
0
11
1.997679
21
-7.254716
31
0
39
0
210
0
220
0
230
1
0
LINE
5
A3
100
AcDbEntity
8
1
62
256
6
ByLayer
370
18
48
1
60
0
100
AcDbLine
10
3.6
20
2.9592
30
0
11
3.6
21
5.445295
31
0
39
0
210
0
220
0
230
1
0
LINE
5
A4
100
AcDbEntity
8
1
62
256
6
ByLayer
370
13
48
1
60
0
100
AcDbLine
10
1.997679
20
7.200375
30
0
11
1.997679
21
2.545654
31
0
39
0
210
0
220
0
230
1
0
LINE
5
A5
100
AcDbEntity
8
1
62
256
6
ByLayer
370
18
48
1
60
0
100
AcDbLine
10
1.230843
20
2.524306
30
0
11
1.230843
21
0.30345
31
0
39
0
210
0
220
0
230
1
0
LINE
5
A6
100
AcDbEntity
8
1
62
256
6
ByLayer
370
13
48
1
60
0
100
AcDbLine
10
1.497679
20
-7.183135
30
0
11
1.497679
21
-7.733975
31
0
39
0
210
0
220
0
230
1
0
LINE
5
A7
100
AcDbEntity
8
1
62
256
6
ByLayer
370
18
48
1
60
0
100
AcDbLine
10
1.230843
20
-6.072216
30
0
11
1.230843
21
-7.249914
31
0
39
0
210
0
220
0
230
1
0
LINE
5
A8
100
AcDbEntity
8
1
62
256
6
ByLayer
370
13
48
1
60
0
100
AcDbLine
10
1.497679
20
2.431977
30
0
11
1.497679
21
7.496176
31
0
39
0
210
0
220
0
230
1
0
LINE
5
A9
100
AcDbEntity
8
1
62
256
6
ByLayer
370
18
48
1
60
0
100
AcDbLine
10
1.230843
20
7.888032
30
0
11
1.230843
21
7.692153
31
0
39
0
210
0
220
0
230
1
0
LINE
5
AA
100
AcDbEntity
8
1
62
256
6
ByLayer
370
18
48
1
60
0
100
AcDbLine
10
1.036909
20
8
30
0
11
1.036909
21
0
31
0
39
0
210
0
220
0
230
1
0
LINE
5
AB
100
AcDbEntity
8
1
62
256
6
ByLayer
370
18
48
1
60
0
100
AcDbLine
10
1.036909
20
0
30
0
11
1.036909
21
-8
31
0
39
0
210
0
220
0
230
1
0
LINE
5
AC
100
AcDbEntity
8
SK1
62
256
6
ByLayer
370
18
48
1
60
0
100
AcDbLine
10
0
20
8
30
0
11
0
21
0
31
0
39
0
210
0
220
0
230
1
0
LINE
5
AE
100
AcDbEntity
8
SK1
62
256
6
ByLayer
370
18
48
1
60
0
100
AcDbLine
10
0
20
0
30
0
11
0
21
-8
31
0
39
0
210
0
220
0
230
1
0
LINE
5
AF
100
AcDbEntity
8
SK1
62
256
6
ByLayer
370
18
48
1
60
0
100
AcDbLine
10
-29
20
6.2
30
0
11
-30.8
21
8
31
0
39
0
210
0
220
0
230
1
0
LINE
5
B0
100
AcDbEntity
8
SK1
62
256
6
ByLayer
370
18
48
1
60
0
100
AcDbLine
10
-19
20
6.2
30
0
11
-17.2
21
8
31
0
39
0
210
0
220
0
230
1
0
LINE
5
B1
100
AcDbEntity
8
SK1
62
256
6
ByLayer
370
18
48
1
60
0
100
AcDbLine
10
-29
20
6.2
30
0
11
-19
21
6.2
31
0
39
0
210
0
220
0
230
1
0
LINE
5
B2
100
AcDbEntity
8
SK1
62
256
6
ByLayer
370
18
48
1
60
0
100
AcDbLine
10
-47.2
20
8
30
0
11
-47.2
21
-8
31
0
39
0
210
0
220
0
230
1
0
LINE
5
B3
100
AcDbEntity
8
SK1
62
256
6
ByLayer
370
18
48
1
60
0
100
AcDbLine
10
-48
20
-7.2
30
0
11
-48
21
7.2
31
0
39
0
210
0
220
0
230
1
0
LINE
5
B4
100
AcDbEntity
8
1
62
256
6
ByLayer
370
18
48
1
60
0
100
AcDbLine
10
1.036909
20
8
30
0
11
0
21
8
31
0
39
0
210
0
220
0
230
1
0
LINE
5
B5
100
AcDbEntity
8
1
62
256
6
ByLayer
370
18
48
1
60
0
100
AcDbLine
10
0
20
-8
30
0
11
1.036909
21
-8
31
0
39
0
210
0
220
0
230
1
0
LINE
5
B6
100
AcDbEntity
8
1
62
256
6
ByLayer
370
18
48
1
60
0
100
AcDbLine
10
1.997679
20
-7.6
30
0
11
4.01974
21
-7.6
31
0
39
0
210
0
220
0
230
1
0
LINE
5
B7
100
AcDbEntity
8
1
62
256
6
ByLayer
370
18
48
1
60
0
100
AcDbLine
10
1.230843
20
7.888032
30
0
11
1.036909
21
8
31
0
39
0
210
0
220
0
230
1
0
LINE
5
B8
100
AcDbEntity
8
1
62
256
6
ByLayer
370
18
48
1
60
0
100
AcDbLine
10
1.036909
20
-8
30
0
11
1.497679
21
-7.733975
31
0
39
0
210
0
220
0
230
1
0
LINE
5
B9
100
AcDbEntity
8
SK1
62
256
6
ByLayer
370
18
48
1
60
0
100
AcDbLine
10
0
20
8
30
0
11
-17.2
21
8
31
0
39
0
210
0
220
0
230
1
0
LINE
5
BA
100
AcDbEntity
8
SK1
62
256
6
ByLayer
370
18
48
1
60
0
100
AcDbLine
10
-30.8
20
8
30
0
11
-47.2
21
8
31
0
39
0
210
0
220
0
230
1
0
LINE
5
BB
100
AcDbEntity
8
SK1
62
256
6
ByLayer
370
18
48
1
60
0
100
AcDbLine
10
-47.2
20
-8
30
0
11
0
21
-8
31
0
39
0
210
0
220
0
230
1
0
LINE
5
BC
100
AcDbEntity
8
SK1
62
256
6
ByLayer
370
18
48
1
60
0
100
AcDbLine
10
-48
20
-7.2
30
0
11
-47.2
21
-8
31
0
39
0
210
0
220
0
230
1
0
LINE
5
BD
100
AcDbEntity
8
SK1
62
256
6
ByLayer
370
18
48
1
60
0
100
AcDbLine
10
-47.2
20
8
30
0
11
-48
21
7.2
31
0
39
0
210
0
220
0
230
1
0
LINE
5
BE
100
AcDbEntity
8
SK2
62
256
6
ByLayer
370
18
48
1
60
0
100
AcDbLine
10
-55.45
20
8
30
0
11
-55.45
21
-26.056066
31
0
39
0
210
0
220
0
230
1
0
LINE
5
C0
100
AcDbEntity
8
SK2
62
256
6
ByLayer
370
18
48
1
60
0
100
AcDbLine
10
-48.7875
20
8
30
0
11
-57.45
21
8
31
0
39
0
210
0
220
0
230
1
0
LINE
5
C1
100
AcDbEntity
8
SK2
62
256
6
ByLayer
370
18
48
1
60
0
100
AcDbLine
10
-48.7875
20
-8
30
0
11
-57.45
21
-8
31
0
39
0
210
0
220
0
230
1
0
LINE
5
C2
100
AcDbEntity
8
1
62
256
6
ByLayer
370
18
48
1
60
1
100
AcDbLine
10
-55.45
20
8
30
0
11
-54.989216
21
4.500002
31
0
39
0
210
0
220
0
230
1
0
LINE
5
C3
100
AcDbEntity
8
1
62
256
6
ByLayer
370
18
48
1
60
1
100
AcDbLine
10
-54.989216
20
4.500002
30
0
11
-55.910784
21
4.499998
31
0
39
0
210
0
220
0
230
1
0
LINE
5
C4
100
AcDbEntity
8
1
62
256
6
ByLayer
370
18
48
1
60
1
100
AcDbLine
10
-55.910784
20
4.499998
30
0
11
-55.45
21
8
31
0
39
0
210
0
220
0
230
1
0
LINE
5
C5
100
AcDbEntity
8
1
62
256
6
ByLayer
370
18
48
1
60
1
100
AcDbLine
10
-55.45
20
-8
30
0
11
-55.910784
21
-4.500002
31
0
39
0
210
0
220
0
230
1
0
LINE
5
C6
100
AcDbEntity
8
1
62
256
6
ByLayer
370
18
48
1
60
1
100
AcDbLine
10
-55.910784
20
-4.500002
30
0
11
-54.989216
21
-4.499998
31
0
39
0
210
0
220
0
230
1
0
LINE
5
C7
100
AcDbEntity
8
1
62
256
6
ByLayer
370
18
48
1
60
1
100
AcDbLine
10
-54.989216
20
-4.499998
30
0
11
-55.45
21
-8
31
0
39
0
210
0
220
0
230
1
0
LINE
5
C8
100
AcDbEntity
8
SK2
62
256
6
ByLayer
370
13
48
1
60
0
100
AcDbLine
10
6.968455
20
-7.6
30
0
11
6.968455
21
33.689532
31
0
39
0
210
0
220
0
230
1
0
LINE
5
C9
100
AcDbEntity
8
SK2
62
256
6
ByLayer
370
13
48
1
60
0
100
AcDbLine
10
7.45173
20
7.6
30
0
11
4.968455
21
7.6
31
0
39
0
210
0
220
0
230
1
0
LINE
5
CA
100
AcDbEntity
8
SK2
62
256
6
ByLayer
370
13
48
1
60
0
100
AcDbLine
10
7.45173
20
-7.6
30
0
11
4.968455
21
-7.6
31
0
39
0
210
0
220
0
230
1
0
LINE
5
CB
100
AcDbEntity
8
1
62
256
6
ByLayer
370
18
48
1
60
1
100
AcDbLine
10
6.968455
20
7.6
30
0
11
7.429238
21
4.100002
31
0
39
0
210
0
220
0
230
1
0
LINE
5
CC
100
AcDbEntity
8
1
62
256
6
ByLayer
370
18
48
1
60
1
100
AcDbLine
10
7.429238
20
4.100002
30
0
11
6.507671
21
4.099998
31
0
39
0
210
0
220
0
230
1
0
LINE
5
CD
100
AcDbEntity
8
1
62
256
6
ByLayer
370
18
48
1
60
1
100
AcDbLine
10
6.507671
20
4.099998
30
0
11
6.968455
21
7.6
31
0
39
0
210
0
220
0
230
1
0
LINE
5
CE
100
AcDbEntity
8
1
62
256
6
ByLayer
370
18
48
1
60
1
100
AcDbLine
10
6.968455
20
-7.6
30
0
11
6.507671
21
-4.100002
31
0
39
0
210
0
220
0
230
1
0
LINE
5
CF
100
AcDbEntity
8
1
62
256
6
ByLayer
370
18
48
1
60
1
100
AcDbLine
10
6.507671
20
-4.100002
30
0
11
7.429238
21
-4.099998
31
0
39
0
210
0
220
0
230
1
0
LINE
5
D0
100
AcDbEntity
8
1
62
256
6
ByLayer
370
18
48
1
60
1
100
AcDbLine
10
7.429238
20
-4.099998
30
0
11
6.968455
21
-7.6
31
0
39
0
210
0
220
0
230
1
0
LINE
5
D1
100
AcDbEntity
8
2
62
256
6
ByLayer
370
18
48
1
60
0
100
AcDbLine
10
56
20
-8
30
0
11
56
21
26.056066
31
0
39
0
210
0
220
0
230
1
0
LINE
5
D3
100
AcDbEntity
8
2
62
256
6
ByLayer
370
18
48
1
60
0
100
AcDbLine
10
45.5875
20
8
30
0
11
58
21
8
31
0
39
0
210
0
220
0
230
1
0
LINE
5
D4
100
AcDbEntity
8
2
62
256
6
ByLayer
370
18
48
1
60
0
100
AcDbLine
10
45.5875
20
-8
30
0
11
58
21
-8
31
0
39
0
210
0
220
0
230
1
0
LINE
5
D5
100
AcDbEntity
8
1
62
256
6
ByLayer
370
18
48
1
60
1
100
AcDbLine
10
56
20
8
30
0
11
56.460784
21
4.500002
31
0
39
0
210
0
220
0
230
1
0
LINE
5
D6
100
AcDbEntity
8
1
62
256
6
ByLayer
370
18
48
1
60
1
100
AcDbLine
10
56.460784
20
4.500002
30
0
11
55.539216
21
4.499998
31
0
39
0
210
0
220
0
230
1
0
LINE
5
D7
100
AcDbEntity
8
1
62
256
6
ByLayer
370
18
48
1
60
1
100
AcDbLine
10
55.539216
20
4.499998
30
0
11
56
21
8
31
0
39
0
210
0
220
0
230
1
0
LINE
5
D8
100
AcDbEntity
8
1
62
256
6
ByLayer
370
18
48
1
60
1
100
AcDbLine
10
56
20
-8
30
0
11
55.539216
21
-4.500002
31
0
39
0
210
0
220
0
230
1
0
LINE
5
D9
100
AcDbEntity
8
1
62
256
6
ByLayer
370
18
48
1
60
1
100
AcDbLine
10
55.539216
20
-4.500002
30
0
11
56.460784
21
-4.499998
31
0
39
0
210
0
220
0
230
1
0
LINE
5
DA
100
AcDbEntity
8
1
62
256
6
ByLayer
370
18
48
1
60
1
100
AcDbLine
10
56.460784
20
-4.499998
30
0
11
56
21
-8
31
0
39
0
210
0
220
0
230
1
0
LINE
5
DB
100
AcDbEntity
8
SK2
62
256
6
ByLayer
370
18
48
1
60
0
100
AcDbLine
10
44
20
-54.16892
30
0
11
-48
21
-54.16892
31
0
39
0
210
0
220
0
230
1
0
LINE
5
DC
100
AcDbEntity
8
SK2
62
256
6
ByLayer
370
18
48
1
60
0
100
AcDbLine
10
-48
20
-8.7875
30
0
11
-48
21
-56.16892
31
0
39
0
210
0
220
0
230
1
0
LINE
5
DD
100
AcDbEntity
8
SK2
62
256
6
ByLayer
370
18
48
1
60
0
100
AcDbLine
10
44
20
-9.5875
30
0
11
44
21
-56.16892
31
0
39
0
210
0
220
0
230
1
0
LINE
5
DE
100
AcDbEntity
8
1
62
256
6
ByLayer
370
18
48
1
60
1
100
AcDbLine
10
-48
20
-54.16892
30
0
11
-44.500002
21
-53.708136
31
0
39
0
210
0
220
0
230
1
0
LINE
5
DF
100
AcDbEntity
8
1
62
256
6
ByLayer
370
18
48
1
60
1
100
AcDbLine
10
-44.500002
20
-53.708136
30
0
11
-44.499998
21
-54.629704
31
0
39
0
210
0
220
0
230
1
0
LINE
5
E0
100
AcDbEntity
8
1
62
256
6
ByLayer
370
18
48
1
60
1
100
AcDbLine
10
-44.499998
20
-54.629704
30
0
11
-48
21
-54.16892
31
0
39
0
210
0
220
0
230
1
0
LINE
5
E1
100
AcDbEntity
8
1
62
256
6
ByLayer
370
18
48
1
60
1
100
AcDbLine
10
44
20
-54.16892
30
0
11
40.500002
21
-54.629704
31
0
39
0
210
0
220
0
230
1
0
LINE
5
E2
100
AcDbEntity
8
1
62
256
6
ByLayer
370
18
48
1
60
1
100
AcDbLine
10
40.500002
20
-54.629704
30
0
11
40.499998
21
-53.708136
31
0
39
0
210
0
220
0
230
1
0
LINE
5
E3
100
AcDbEntity
8
1
62
256
6
ByLayer
370
18
48
1
60
1
100
AcDbLine
10
40.499998
20
-53.708136
30
0
11
44
21
-54.16892
31
0
39
0
210
0
220
0
230
1
0
LINE
5
161
100
AcDbEntity
8
1
62
256
6
ByLayer
370
18
48
1
60
1
100
AcDbLine
10
-55.45
20
8
30
0
11
-54.989216
21
4.500002
31
0
39
0
210
0
220
0
230
1
0
LINE
5
162
100
AcDbEntity
8
1
62
256
6
ByLayer
370
18
48
1
60
1
100
AcDbLine
10
-54.989216
20
4.500002
30
0
11
-55.910784
21
4.499998
31
0
39
0
210
0
220
0
230
1
0
LINE
5
163
100
AcDbEntity
8
1
62
256
6
ByLayer
370
18
48
1
60
1
100
AcDbLine
10
-55.910784
20
4.499998
30
0
11
-55.45
21
8
31
0
39
0
210
0
220
0
230
1
0
LINE
5
165
100
AcDbEntity
8
1
62
256
6
ByLayer
370
18
48
1
60
1
100
AcDbLine
10
-55.45
20
-8
30
0
11
-55.910784
21
-4.500002
31
0
39
0
210
0
220
0
230
1
0
LINE
5
166
100
AcDbEntity
8
1
62
256
6
ByLayer
370
18
48
1
60
1
100
AcDbLine
10
-55.910784
20
-4.500002
30
0
11
-54.989216
21
-4.499998
31
0
39
0
210
0
220
0
230
1
0
LINE
5
167
100
AcDbEntity
8
1
62
256
6
ByLayer
370
18
48
1
60
1
100
AcDbLine
10
-54.989216
20
-4.499998
30
0
11
-55.45
21
-8
31
0
39
0
210
0
220
0
230
1
0
LINE
5
16B
100
AcDbEntity
8
1
62
256
6
ByLayer
370
18
48
1
60
1
100
AcDbLine
10
6.968455
20
7.6
30
0
11
7.429238
21
4.100002
31
0
39
0
210
0
220
0
230
1
0
LINE
5
16C
100
AcDbEntity
8
1
62
256
6
ByLayer
370
18
48
1
60
1
100
AcDbLine
10
7.429238
20
4.100002
30
0
11
6.507671
21
4.099998
31
0
39
0
210
0
220
0
230
1
0
LINE
5
16D
100
AcDbEntity
8
1
62
256
6
ByLayer
370
18
48
1
60
1
100
AcDbLine
10
6.507671
20
4.099998
30
0
11
6.968455
21
7.6
31
0
39
0
210
0
220
0
230
1
0
LINE
5
16F
100
AcDbEntity
8
1
62
256
6
ByLayer
370
18
48
1
60
1
100
AcDbLine
10
6.968455
20
-7.6
30
0
11
6.507671
21
-4.100002
31
0
39
0
210
0
220
0
230
1
0
LINE
5
170
100
AcDbEntity
8
1
62
256
6
ByLayer
370
18
48
1
60
1
100
AcDbLine
10
6.507671
20
-4.100002
30
0
11
7.429238
21
-4.099998
31
0
39
0
210
0
220
0
230
1
0
LINE
5
171
100
AcDbEntity
8
1
62
256
6
ByLayer
370
18
48
1
60
1
100
AcDbLine
10
7.429238
20
-4.099998
30
0
11
6.968455
21
-7.6
31
0
39
0
210
0
220
0
230
1
0
LINE
5
175
100
AcDbEntity
8
1
62
256
6
ByLayer
370
18
48
1
60
1
100
AcDbLine
10
56
20
8
30
0
11
56.460784
21
4.500002
31
0
39
0
210
0
220
0
230
1
0
LINE
5
176
100
AcDbEntity
8
1
62
256
6
ByLayer
370
18
48
1
60
1
100
AcDbLine
10
56.460784
20
4.500002
30
0
11
55.539216
21
4.499998
31
0
39
0
210
0
220
0
230
1
0
LINE
5
177
100
AcDbEntity
8
1
62
256
6
ByLayer
370
18
48
1
60
1
100
AcDbLine
10
55.539216
20
4.499998
30
0
11
56
21
8
31
0
39
0
210
0
220
0
230
1
0
LINE
5
179
100
AcDbEntity
8
1
62
256
6
ByLayer
370
18
48
1
60
1
100
AcDbLine
10
56
20
-8
30
0
11
55.539216
21
-4.500002
31
0
39
0
210
0
220
0
230
1
0
LINE
5
17A
100
AcDbEntity
8
1
62
256
6
ByLayer
370
18
48
1
60
1
100
AcDbLine
10
55.539216
20
-4.500002
30
0
11
56.460784
21
-4.499998
31
0
39
0
210
0
220
0
230
1
0
LINE
5
17B
100
AcDbEntity
8
1
62
256
6
ByLayer
370
18
48
1
60
1
100
AcDbLine
10
56.460784
20
-4.499998
30
0
11
56
21
-8
31
0
39
0
210
0
220
0
230
1
0
LINE
5
17E
100
AcDbEntity
8
1
62
256
6
ByLayer
370
18
48
1
60
1
100
AcDbLine
10
-48
20
-54.16892
30
0
11
-44.500002
21
-53.708136
31
0
39
0
210
0
220
0
230
1
0
LINE
5
17F
100
AcDbEntity
8
1
62
256
6
ByLayer
370
18
48
1
60
1
100
AcDbLine
10
-44.500002
20
-53.708136
30
0
11
-44.499998
21
-54.629704
31
0
39
0
210
0
220
0
230
1
0
LINE
5
180
100
AcDbEntity
8
1
62
256
6
ByLayer
370
18
48
1
60
1
100
AcDbLine
10
-44.499998
20
-54.629704
30
0
11
-48
21
-54.16892
31
0
39
0
210
0
220
0
230
1
0
LINE
5
182
100
AcDbEntity
8
1
62
256
6
ByLayer
370
18
48
1
60
1
100
AcDbLine
10
44
20
-54.16892
30
0
11
40.500002
21
-54.629704
31
0
39
0
210
0
220
0
230
1
0
LINE
5
183
100
AcDbEntity
8
1
62
256
6
ByLayer
370
18
48
1
60
1
100
AcDbLine
10
40.500002
20
-54.629704
30
0
11
40.499998
21
-53.708136
31
0
39
0
210
0
220
0
230
1
0
LINE
5
184
100
AcDbEntity
8
1
62
256
6
ByLayer
370
18
48
1
60
1
100
AcDbLine
10
40.499998
20
-53.708136
30
0
11
44
21
-54.16892
31
0
39
0
210
0
220
0
230
1
0
MTEXT
5
15D
100
AcDbEntity
8
SK2
62
256
6
ByLayer
370
18
48
1
60
0
100
AcDbMText
10
-57.014634
20
-24.121222
30
0
210
0
220
0
230
1
1
%%c
40
3.5
41
0
44
1.084337
50
90
71
7
72
5
7
iso_b_vert
0
MTEXT
5
160
100
AcDbEntity
8
SK2
62
256
6
ByLayer
370
18
48
1
60
0
100
AcDbMText
10
-57.014634
20
-17.148566
30
0
210
0
220
0
230
1
1
\W0.5321;16
40
3.5
41
0
44
1.084337
50
90
71
7
72
5
7
iso_b_vert
0
MTEXT
5
169
100
AcDbEntity
8
SK2
62
256
6
ByLayer
370
18
48
1
60
0
100
AcDbMText
10
5.403821
20
19.534844
30
0
210
0
220
0
230
1
1
%%c
40
3.5
41
0
44
1.084337
50
90
71
7
72
5
7
iso_b_vert
0
MTEXT
5
16A
100
AcDbEntity
8
SK2
62
256
6
ByLayer
370
18
48
1
60
0
100
AcDbMText
10
5.403821
20
26.5075
30
0
210
0
220
0
230
1
1
\W0.6563;15.2
40
3.5
41
0
44
1.084337
50
90
71
7
72
5
7
iso_b_vert
0
MTEXT
5
173
100
AcDbEntity
8
2
62
256
6
ByLayer
370
18
48
1
60
0
100
AcDbMText
10
54.435366
20
15.934844
30
0
210
0
220
0
230
1
1
%%c
40
3.5
41
0
44
1.084337
50
90
71
7
72
5
7
iso_b_vert
0
MTEXT
5
174
100
AcDbEntity
8
2
62
256
6
ByLayer
370
18
48
1
60
0
100
AcDbMText
10
54.435366
20
22.9075
30
0
210
0
220
0
230
1
1
\W0.5321;16
40
3.5
41
0
44
1.084337
50
90
71
7
72
5
7
iso_b_vert
0
MTEXT
5
17D
100
AcDbEntity
8
SK2
62
256
6
ByLayer
370
18
48
1
60
0
100
AcDbMText
10
-3.904966
20
-53.136287
30
0
210
0
220
0
230
1
1
\W0.6740;92
40
3.5
41
0
44
1.084337
50
0
71
7
72
5
7
iso_b_vert
0
MTEXT
5
186
100
AcDbEntity
8
SK6
62
256
6
ByLayer
370
18
48
1
60
0
100
AcDbMText
10
-25.32308
20
-62.055032
30
0
210
0
220
0
230
1
1
\W0.7160;2N342-1600-PD       P2BM
40
3
41
0
44
1.084337
50
0
71
7
72
5
7
iso_b_vert
0
HATCH
5
164
100
AcDbEntity
8
SK2
62
256
6
ByLayer
370
13
48
1
60
0
100
AcDbHatch
10
0
20
0
30
0
210
0
220
0
230
1
2
ANSI31
70
0
71
0
91
1
92
5
93
3
72
1
10
-55.45
20
8
11
-54.9892162584472
21
4.50000169255318
72
1
10
-54.9892162584472
20
4.50000169255318
11
-55.9107837415528
21
4.49999830744682
72
1
10
-55.9107837415528
20
4.49999830744682
11
-55.45
21
8
97
0
75
0
76
1
52
0
41
0.0062
77
0
78
1
53
45
43
0
44
0
45
-0.0139193969876572
46
0.0139193969876572
79
0
47
0
98
1
10
0
20
0
0
HATCH
5
168
100
AcDbEntity
8
SK2
62
256
6
ByLayer
370
13
48
1
60
0
100
AcDbHatch
10
0
20
0
30
0
210
0
220
0
230
1
2
ANSI31
70
0
71
0
91
1
92
5
93
3
72
1
10
-55.45
20
-8
11
-55.9107837415528
21
-4.50000169255318
72
1
10
-55.9107837415528
20
-4.50000169255318
11
-54.9892162584472
21
-4.49999830744682
72
1
10
-54.9892162584472
20
-4.49999830744682
11
-55.45
21
-8
97
0
75
0
76
1
52
0
41
0.0062
77
0
78
1
53
45
43
0
44
0
45
-0.0139193969876572
46
0.0139193969876572
79
0
47
0
98
1
10
0
20
0
0
HATCH
5
16E
100
AcDbEntity
8
SK2
62
256
6
ByLayer
370
13
48
1
60
0
100
AcDbHatch
10
0
20
0
30
0
210
0
220
0
230
1
2
ANSI31
70
0
71
0
91
1
92
5
93
3
72
1
10
6.96845470335109
20
7.59999999999997
11
7.42923844490386
21
4.10000169255315
72
1
10
7.42923844490386
20
4.10000169255315
11
6.50767096179831
21
4.09999830744678
72
1
10
6.50767096179831
20
4.09999830744678
11
6.96845470335109
21
7.59999999999997
97
0
75
0
76
1
52
0
41
0.0062
77
0
78
1
53
45
43
0
44
0
45
-0.0139193969876572
46
0.0139193969876572
79
0
47
0
98
1
10
0
20
0
0
HATCH
5
172
100
AcDbEntity
8
SK2
62
256
6
ByLayer
370
13
48
1
60
0
100
AcDbHatch
10
0
20
0
30
0
210
0
220
0
230
1
2
ANSI31
70
0
71
0
91
1
92
5
93
3
72
1
10
6.96845470335109
20
-7.60000000000002
11
6.50767096179831
21
-4.10000169255321
72
1
10
6.50767096179831
20
-4.10000169255321
11
7.42923844490386
21
-4.09999830744684
72
1
10
7.42923844490386
20
-4.09999830744684
11
6.96845470335109
21
-7.60000000000002
97
0
75
0
76
1
52
0
41
0.0062
77
0
78
1
53
45
43
0
44
0
45
-0.0139193969876572
46
0.0139193969876572
79
0
47
0
98
1
10
0
20
0
0
HATCH
5
178
100
AcDbEntity
8
2
62
256
6
ByLayer
370
13
48
1
60
0
100
AcDbHatch
10
0
20
0
30
0
210
0
220
0
230
1
2
ANSI31
70
0
71
0
91
1
92
5
93
3
72
1
10
56
20
7.99999999999983
11
56.4607837415528
21
4.50000169255301
72
1
10
56.4607837415528
20
4.50000169255301
11
55.5392162584472
21
4.49999830744665
72
1
10
55.5392162584472
20
4.49999830744665
11
56
21
7.99999999999983
97
0
75
0
76
1
52
0
41
0.0062
77
0
78
1
53
45
43
0
44
0
45
-0.0139193969876572
46
0.0139193969876572
79
0
47
0
98
1
10
0
20
0
0
HATCH
5
17C
100
AcDbEntity
8
2
62
256
6
ByLayer
370
13
48
1
60
0
100
AcDbHatch
10
0
20
0
30
0
210
0
220
0
230
1
2
ANSI31
70
0
71
0
91
1
92
5
93
3
72
1
10
56
20
-8.00000000000017
11
55.5392162584472
21
-4.50000169255335
72
1
10
55.5392162584472
20
-4.50000169255335
11
56.4607837415528
21
-4.49999830744699
72
1
10
56.4607837415528
20
-4.49999830744699
11
56
21
-8.00000000000017
97
0
75
0
76
1
52
0
41
0.0062
77
0
78
1
53
45
43
0
44
0
45
-0.0139193969876572
46
0.0139193969876572
79
0
47
0
98
1
10
0
20
0
0
HATCH
5
181
100
AcDbEntity
8
SK2
62
256
6
ByLayer
370
13
48
1
60
0
100
AcDbHatch
10
0
20
0
30
0
210
0
220
0
230
1
2
ANSI31
70
0
71
0
91
1
92
5
93
3
72
1
10
-48
20
-54.1689201912957
11
-44.5000016925532
21
-53.7081364497429
72
1
10
-44.5000016925532
20
-53.7081364497429
11
-44.4999983074468
21
-54.6297039328485
72
1
10
-44.4999983074468
20
-54.6297039328485
11
-48
21
-54.1689201912957
97
0
75
0
76
1
52
0
41
0.0062
77
0
78
1
53
45
43
0
44
0
45
-0.0139193969876572
46
0.0139193969876572
79
0
47
0
98
1
10
0
20
0
0
HATCH
5
185
100
AcDbEntity
8
SK2
62
256
6
ByLayer
370
13
48
1
60
0
100
AcDbHatch
10
0
20
0
30
0
210
0
220
0
230
1
2
ANSI31
70
0
71
0
91
1
92
5
93
3
72
1
10
44
20
-54.1689201912957
11
40.5000016925532
21
-54.6297039328485
72
1
10
40.5000016925532
20
-54.6297039328485
11
40.4999983074468
21
-53.7081364497429
72
1
10
40.4999983074468
20
-53.7081364497429
11
44
21
-54.1689201912957
97
0
75
0
76
1
52
0
41
0.0062
77
0
78
1
53
45
43
0
44
0
45
-0.0139193969876572
46
0.0139193969876572
79
0
47
0
98
1
10
0
20
0
0
DIMENSION
5
189
100
AcDbEntity
8
2
62
256
6
ByLayer
370
18
48
1
60
0
100
AcDbDimension
2
_U0
10
10
20
-22.16892
30
0
11
27
21
-22.16892
31
0
70
32
71
1
72
1
41
1
210
0
220
0
230
1
3
Standard
100
AcDbAlignedDimension
13
44
23
-8
33
0
14
10
24
-8
34
0
50
0
100
AcDbRotatedDimension
1001
ACAD
1000
DSTYLE
1002
{
1070
   371
1070
    13
1070
   372
1070
    13
1070
   170
1070
     0
1070
   144
1040
1.0
1070
   277
1070
     2
1070
   284
1070
     8
1070
   278
1070
    46
1070
   146
1040
1.0
1070
   345
1005
16
1070
   347
1005
16
1070
   346
1005
16
1070
   344
1005
0
1070
   343
1005
0
1070
   172
1070
     1
1070
    76
1070
     0
1070
    75
1070
     0
1070
   282
1070
     0
1070
   281
1070
     0
1070
    71
1070
     0
1070
    74
1070
     0
1070
   279
1070
     0
1070
   173
1070
     1
1070
   340
1005
15E
1070
   271
1070
     2
1070
   272
1070
     2
1070
    77
1070
     1
1070
    73
1070
     1
1070
   171
1070
     3
1070
   274
1070
     4
1070
   177
1070
     2
1070
   176
1070
     2
1070
   178
1070
     2
1070
    78
1070
     8
1070
    48
1040
-0.1
1070
    41
1040
3.5
1070
   147
1040
1.75
1070
    42
1040
1.5875
1070
    44
1040
2.0
1070
   140
1040
3.5
1002
}
1001
ACAD_DSTYLE_DIM_LINETYPE
1070
   380
1005
16
1001
ACAD_DSTYLE_DIM_EXT1_LINETYPE
1070
   381
1005
16
1001
ACAD_DSTYLE_DIM_EXT2_LINETYPE
1070
   382
1005
16
0
DIMENSION
5
1A2
100
AcDbEntity
8
SK2
62
256
6
ByLayer
370
18
48
1
60
0
100
AcDbDimension
2
_U1
10
1.997679
20
-37.16892
30
0
11
22.998839
21
-37.16892
31
0
70
32
71
1
72
1
41
1
210
0
220
0
230
1
3
Standard
100
AcDbAlignedDimension
13
44
23
-8
33
0
14
1.997679
24
-7.6
34
0
50
0
100
AcDbRotatedDimension
1001
ACAD
1000
DSTYLE
1002
{
1070
   371
1070
    13
1070
   372
1070
    13
1070
   170
1070
     0
1070
   144
1040
1.0
1070
   277
1070
     2
1070
   284
1070
     8
1070
   278
1070
    46
1070
   146
1040
1.0
1070
   345
1005
16
1070
   347
1005
16
1070
   346
1005
16
1070
   344
1005
0
1070
   343
1005
0
1070
   172
1070
     1
1070
    76
1070
     0
1070
    75
1070
     0
1070
   282
1070
     0
1070
   281
1070
     0
1070
    71
1070
     0
1070
    74
1070
     0
1070
   279
1070
     0
1070
   173
1070
     1
1070
   340
1005
15E
1070
   271
1070
     2
1070
   272
1070
     2
1070
    77
1070
     1
1070
    73
1070
     1
1070
   171
1070
     3
1070
   274
1070
     4
1070
   177
1070
     2
1070
   176
1070
     2
1070
   178
1070
     2
1070
    78
1070
     8
1070
    48
1040
-0.1
1070
    41
1040
3.5
1070
   147
1040
1.75
1070
    42
1040
1.5875
1070
    44
1040
2.0
1070
   140
1040
3.5
1002
}
1001
ACAD_DSTYLE_DIM_LINETYPE
1070
   380
1005
16
1001
ACAD_DSTYLE_DIM_EXT1_LINETYPE
1070
   381
1005
16
1001
ACAD_DSTYLE_DIM_EXT2_LINETYPE
1070
   382
1005
16
0
ENDSEC
0
SECTION
2
OBJECTS
0
DICTIONARY
5
22a
330
0
100
AcDbDictionary
280
0
281
1
3
ACAD_GROUP
350
22b
3
ACAD_MLINESTYLE
350
22c
0
DICTIONARY
5
22b
330
0
100
AcDbDictionary
280
0
281
1
0
DICTIONARY
5
22c
330
0
100
AcDbDictionary
280
0
281
1
3
Standard
350
18
0
MLINESTYLE
5
18
330
22c
100
AcDbMlineStyle
2
Standard
70
0
3

62
256
51
90
52
90
71
2
49
-0.5
62
256
6
ByLayer
49
0.5
62
256
6
ByLayer
0
RASTERVARIABLES
5
218
330

100
AcDbRasterVariables
90
0
70
1
71
1
72
1
0
ENDSEC
0
EOF
