0
SECTION
2
HEADER
9
$ACADVER
1
AC1015
9
$DWGCODEPAGE
3
ANSI_1252
9
$HANDSEED
5
1c9
9
$ANGBASE
50
0
9
$ANGDIR
70
0
9
$ATTMODE
70
1
9
$AUNITS
70
0
9
$AUPREC
70
0
9
$CECOLOR
62
256
9
$CELTSCALE
40
1
9
$CELTYPE
6
ByLayer
9
$CELWEIGHT
370
18
9
$CLAYER
8
0
9
$CMLJUST
70
0
9
$CMLSCALE
40
1
9
$CMLSTYLE
2
Standard
9
$DIMSTYLE
2
Standard
9
$TEXTSIZE
40
0.2
9
$TEXTSTYLE
7
Standard
9
$LUNITS
70
2
9
$LUPREC
70
4
9
$EXTNAMES
290
1
9
$INSUNITS
70
4
9
$LTSCALE
40
1
9
$LWDISPLAY
290
1
9
$PDMODE
70
0
9
$PDSIZE
40
0
9
$PLINEGEN
70
0
0
ENDSEC
0
SECTION
2
CLASSES
0
CLASS
1
RASTERVARIABLES
2
AcDbRasterVariables
3
ISM
90
0
280
0
281
0
0
ENDSEC
0
SECTION
2
TABLES
0
TABLE
2
VPORT
5
1bf
100
AcDbSymbolTable
0
VPORT
5
1
100
AcDbSymbolTableRecord
100
AcDbViewportTableRecord
2
*Active
70
0
10
0
20
0
11
1
21
1
12
-1
22
1
13
0
23
0
14
0.5
24
0.5
15
10
25
10
16
0
26
0
36
1
17
0
27
0
37
0
0
ENDTAB
0
TABLE
2
LTYPE
5
1c0
100
AcDbSymbolTable
0
LTYPE
5
14
100
AcDbSymbolTableRecord
100
AcDbLinetypeTableRecord
70
0
2
ByBlock
3

72
65
73
0
40
0
0
LTYPE
5
15
100
AcDbSymbolTableRecord
100
AcDbLinetypeTableRecord
70
0
2
ByLayer
3

72
65
73
0
40
0
0
LTYPE
5
16
100
AcDbSymbolTableRecord
100
AcDbLinetypeTableRecord
70
0
2
Continuous
3
Solid line
72
65
73
0
40
0
0
LTYPE
5
6E
100
AcDbSymbolTableRecord
100
AcDbLinetypeTableRecord
70
0
2
CENTER
3
____ _ ____ _ ____ _ ____
72
65
73
4
40
47.5
49
22
74
0
49
-8.5
74
0
49
8.5
74
0
49
-8.5
74
0
0
LTYPE
5
6F
100
AcDbSymbolTableRecord
100
AcDbLinetypeTableRecord
70
0
2
DASHED
3
__ __ __ __ __ __ __ __ __
72
65
73
2
40
25.72
49
12.86
74
0
49
-12.86
74
0
0
ENDTAB
0
TABLE
2
LAYER
5
1c1
100
AcDbSymbolTable
0
LAYER
5
10
100
AcDbSymbolTableRecord
100
AcDbLayerTableRecord
2
0
70
0
62
7
6
Continuous
290
1
370
-3
390
0
0
LAYER
5
71
100
AcDbSymbolTableRecord
100
AcDbLayerTableRecord
2
81
70
0
62
-3
6
Continuous
290
1
370
-3
390
0
0
LAYER
5
73
100
AcDbSymbolTableRecord
100
AcDbLayerTableRecord
2
80
70
0
62
-6
6
Continuous
290
1
370
-3
390
0
0
LAYER
5
75
100
AcDbSymbolTableRecord
100
AcDbLayerTableRecord
2
1
70
0
62
4
6
Continuous
290
1
370
-3
390
0
0
LAYER
5
79
100
AcDbSymbolTableRecord
100
AcDbLayerTableRecord
2
4
70
0
62
-2
6
CENTER
290
1
370
-3
390
0
0
LAYER
5
B2
100
AcDbSymbolTableRecord
100
AcDbLayerTableRecord
2
2
70
0
62
7
6
Continuous
290
1
370
-3
390
0
0
LAYER
5
136
100
AcDbSymbolTableRecord
100
AcDbLayerTableRecord
2
Defpoints
70
0
62
7
6
Continuous
290
0
370
-3
390
0
0
LAYER
5
1ab
100
AcDbSymbolTableRecord
100
AcDbLayerTableRecord
2
SK4
70
0
62
2
6
CENTER
290
1
370
-3
390
0
0
LAYER
5
1ac
100
AcDbSymbolTableRecord
100
AcDbLayerTableRecord
2
SK1
70
0
62
4
6
Continuous
290
1
370
-3
390
0
0
LAYER
5
1ad
100
AcDbSymbolTableRecord
100
AcDbLayerTableRecord
2
SK2
70
0
62
7
6
Continuous
290
1
370
-3
390
0
0
LAYER
5
1ae
100
AcDbSymbolTableRecord
100
AcDbLayerTableRecord
2
SK6
70
0
62
5
6
Continuous
290
1
370
-3
390
0
0
ENDTAB
0
TABLE
2
STYLE
5
1c2
100
AcDbSymbolTable
0
STYLE
5
11
100
AcDbSymbolTableRecord
100
AcDbTextStyleTableRecord
2
Standard
3
txt
70
0
71
0
40
0
41
1
42
0
50
0
0
STYLE
5
112
100
AcDbSymbolTableRecord
100
AcDbTextStyleTableRecord
2
iso_b_vert
3
simplex.shx
70
0
71
0
40
0
41
1
42
0
50
0
0
STYLE
5
113
100
AcDbSymbolTableRecord
100
AcDbTextStyleTableRecord
2
DWGDirectTextStyle
3
simplex
70
0
71
0
40
0
41
1
42
0
50
0
0
ENDTAB
0
TABLE
2
DIMSTYLE
5
1c3
100
AcDbSymbolTable
100
AcDbDimStyleTable
0
DIMSTYLE
105
27
100
AcDbSymbolTableRecord
100
AcDbDimStyleTableRecord
2
Standard
70
0
3
<>
41
0.18
42
0.0625
44
0.18
140
0.18
147
0.09
73
0
74
0
77
1
271
2
275
0
278
52
280
0
340
11
0
ENDTAB
0
TABLE
2
VIEW
5
1c4
100
AcDbSymbolTable
0
ENDTAB
0
TABLE
2
UCS
5
1c5
100
AcDbSymbolTable
0
ENDTAB
0
TABLE
2
APPID
5
1c6
100
AcDbSymbolTable
0
APPID
5
12
100
AcDbSymbolTableRecord
100
AcDbRegAppTableRecord
2
ACAD
70
0
0
APPID
5
132
100
AcDbSymbolTableRecord
100
AcDbRegAppTableRecord
2
ACAD_DSTYLE_DIMBREAK
70
0
0
APPID
5
16A
100
AcDbSymbolTableRecord
100
AcDbRegAppTableRecord
2
ACAD_DSTYLE_DIM_LINETYPE
70
0
0
APPID
5
16B
100
AcDbSymbolTableRecord
100
AcDbRegAppTableRecord
2
ACAD_DSTYLE_DIM_EXT1_LINETYPE
70
0
0
APPID
5
16C
100
AcDbSymbolTableRecord
100
AcDbRegAppTableRecord
2
ACAD_DSTYLE_DIM_EXT2_LINETYPE
70
0
0
APPID
5
1A7
100
AcDbSymbolTableRecord
100
AcDbRegAppTableRecord
2
ACAD_MLEADERVER
70
0
0
ENDTAB
0
TABLE
2
BLOCK_RECORD
5
1c7
100
AcDbSymbolTable
0
BLOCK_RECORD
5
1F
100
AcDbSymbolTableRecord
100
AcDbBlockTableRecord
2
*Model_Space
340
0
70
0
0
BLOCK_RECORD
5
1B
100
AcDbSymbolTableRecord
100
AcDbBlockTableRecord
2
*Paper_Space
340
0
70
0
0
BLOCK_RECORD
5
23
100
AcDbSymbolTableRecord
100
AcDbBlockTableRecord
2
*Paper_Space0
340
0
70
0
0
BLOCK_RECORD
5
137
100
AcDbSymbolTableRecord
100
AcDbBlockTableRecord
2
*D1
340
0
70
0
0
BLOCK_RECORD
5
143
100
AcDbSymbolTableRecord
100
AcDbBlockTableRecord
2
_U0
340
0
70
0
0
ENDTAB
0
ENDSEC
0
SECTION
2
BLOCKS
0
BLOCK
5
20
100
AcDbEntity
8
0
100
AcDbBlockBegin
2
*Model_Space
70
0
10
0
20
0
30
0
3
*Model_Space
0
ENDBLK
5
21
100
AcDbEntity
8
0
100
AcDbBlockEnd
0
BLOCK
5
1C
100
AcDbEntity
8
0
100
AcDbBlockBegin
2
*Paper_Space
70
0
10
0
20
0
30
0
3
*Paper_Space
0
ENDBLK
5
1D
100
AcDbEntity
8
0
100
AcDbBlockEnd
0
BLOCK
5
24
100
AcDbEntity
8
0
100
AcDbBlockBegin
2
*Paper_Space0
70
0
10
0
20
0
30
0
3
*Paper_Space0
0
ENDBLK
5
25
100
AcDbEntity
8
0
100
AcDbBlockEnd
0
BLOCK
5
138
100
AcDbEntity
8
0
100
AcDbBlockBegin
2
*D1
70
1
10
0
20
0
30
0
3
*D1
0
LINE
5
13A
100
AcDbEntity
8
0
62
256
6
ByLayer
370
-2
48
1
60
0
100
AcDbLine
10
59.6
20
-11.5876
30
0
11
59.6
21
-26.77593
31
0
39
0
210
0
220
0
230
1
0
LINE
5
13B
100
AcDbEntity
8
0
62
256
6
ByLayer
370
-2
48
1
60
0
100
AcDbLine
10
17.6
20
-11.5876
30
0
11
17.6
21
-26.77593
31
0
39
0
210
0
220
0
230
1
0
LINE
5
13C
100
AcDbEntity
8
0
62
256
6
ByLayer
370
-2
48
1
60
0
100
AcDbLine
10
56.1
20
-24.77593
30
0
11
21.1
21
-24.77593
31
0
39
0
210
0
220
0
230
1
0
SOLID
5
13D
100
AcDbEntity
8
0
62
256
6
ByLayer
370
-1
48
1
60
0
100
AcDbTrace
10
56.1
20
-25.359263
30
0
11
56.1
21
-24.192597
31
0
12
59.6
22
-24.77593
32
0
13
59.6
23
-24.77593
33
0
39
0
210
0
220
0
230
1
0
SOLID
5
13E
100
AcDbEntity
8
0
62
256
6
ByLayer
370
-1
48
1
60
0
100
AcDbTrace
10
21.1
20
-24.192597
30
0
11
21.1
21
-25.359263
31
0
12
17.6
22
-24.77593
32
0
13
17.6
23
-24.77593
33
0
39
0
210
0
220
0
230
1
0
MTEXT
5
13F
100
AcDbEntity
8
0
62
256
6
ByLayer
370
18
48
1
60
0
100
AcDbMText
10
38.6
20
-17.77593
30
0
210
0
220
0
230
1
1
\A1;42
40
3.5
41
0
44
1
50
0
71
5
72
5
7
iso_b_vert
0
POINT
5
140
100
AcDbEntity
8
Defpoints
62
0
6
ByLayer
370
-1
48
1
60
0
100
AcDbPoint
10
59.6
20
-10.0001
30
0
39
0
210
0
220
0
230
1
50
360
0
POINT
5
141
100
AcDbEntity
8
Defpoints
62
0
6
ByLayer
370
-1
48
1
60
0
100
AcDbPoint
10
17.6
20
-10.0001
30
0
39
0
210
0
220
0
230
1
50
360
0
POINT
5
142
100
AcDbEntity
8
Defpoints
62
0
6
ByLayer
370
-1
48
1
60
0
100
AcDbPoint
10
17.6
20
-24.77593
30
0
39
0
210
0
220
0
230
1
50
360
0
ENDBLK
5
139
100
AcDbEntity
8
0
100
AcDbBlockEnd
0
BLOCK
5
14A
100
AcDbEntity
8
0
100
AcDbBlockBegin
2
_U0
70
0
10
0
20
0
30
0
3
_U0
0
MTEXT
5
144
100
AcDbEntity
8
2
62
256
6
ByLayer
370
18
48
1
60
0
100
AcDbMText
10
36.510767
20
-23.743296
30
0
210
0
220
0
230
1
1
\W0.7361;42
40
3.5
41
0
44
1.084337
50
0
71
7
72
5
7
iso_b_vert
0
LINE
5
145
100
AcDbEntity
8
2
62
256
6
ByLayer
370
13
48
1
60
0
100
AcDbLine
10
59.6
20
-11.5876
30
0
11
59.6
21
-26.77593
31
0
39
0
210
0
220
0
230
1
0
LINE
5
146
100
AcDbEntity
8
2
62
256
6
ByLayer
370
13
48
1
60
0
100
AcDbLine
10
17.6
20
-11.5876
30
0
11
17.6
21
-26.77593
31
0
39
0
210
0
220
0
230
1
0
LINE
5
147
100
AcDbEntity
8
2
62
256
6
ByLayer
370
13
48
1
60
0
100
AcDbLine
10
59.6
20
-24.77593
30
0
11
17.6
21
-24.77593
31
0
39
0
210
0
220
0
230
1
0
SOLID
5
148
100
AcDbEntity
8
2
62
256
6
ByLayer
370
18
48
1
60
0
100
AcDbTrace
10
59.6
20
-24.77593
30
0
11
56.100002
21
-25.236714
31
0
12
56.099998
22
-24.315146
32
0
13
56.099998
23
-24.315146
33
0
39
0
210
0
220
0
230
1
0
SOLID
5
149
100
AcDbEntity
8
2
62
256
6
ByLayer
370
18
48
1
60
0
100
AcDbTrace
10
17.6
20
-24.77593
30
0
11
21.099998
21
-24.315146
31
0
12
21.100002
22
-25.236714
32
0
13
21.100002
23
-25.236714
33
0
39
0
210
0
220
0
230
1
0
ENDBLK
5
14B
100
AcDbEntity
8
0
100
AcDbBlockEnd
0
ENDSEC
0
SECTION
2
ENTITIES
0
ELLIPSE
5
C4
100
AcDbEntity
8
1
62
256
6
ByLayer
370
18
48
1
60
0
100
AcDbEllipse
10
58.900264
20
-0.62744
30
0
11
0.122003064210294
21
-2.4095464766014
31
0
210
0
220
0
230
1
40
0.053854
41
1.154582996342
42
1.58561774950311
0
ELLIPSE
5
C5
100
AcDbEntity
8
1
62
256
6
ByLayer
370
18
48
1
60
0
100
AcDbEllipse
10
58.839462
20
-1.340832
30
0
11
0.120255428890246
21
-1.14196040178781
31
0
210
0
220
0
230
1
40
0.180272
41
0.934882104924949
42
1.32685641443773
0
ELLIPSE
5
C6
100
AcDbEntity
8
1
62
256
6
ByLayer
370
18
48
1
60
0
100
AcDbEllipse
10
58.900264
20
-0.62744
30
0
11
0.122003064189858
21
-2.40954647632225
31
0
210
0
220
0
230
1
40
0.053854
41
0.0100193029760672
42
0.961195106794068
0
ELLIPSE
5
C7
100
AcDbEntity
8
1
62
256
6
ByLayer
370
18
48
1
60
0
100
AcDbEllipse
10
58.553303
20
-1.285481
30
0
11
0.400192831045846
21
-1.15788223940207
31
0
210
0
220
0
230
1
40
0.474863
41
2.88491419994501
42
-2.21674971987189
0
ELLIPSE
5
C8
100
AcDbEntity
8
1
62
256
6
ByLayer
370
18
48
1
60
0
100
AcDbEllipse
10
91.737965
20
-57.824927
30
0
11
36.6927302780005
21
-62.0891688455181
31
0
210
0
220
0
230
1
40
0.008616
41
-2.69548155780885
42
-2.65682486380163
0
ELLIPSE
5
C9
100
AcDbEntity
8
1
62
256
6
ByLayer
370
13
48
1
60
0
100
AcDbEllipse
10
22.342661
20
-70.21377
30
0
11
38.1978625542654
21
-63.9956600915709
31
0
210
0
220
0
230
1
40
0.583438
41
2.50768809784183
42
2.53235412617358
0
ELLIPSE
5
CA
100
AcDbEntity
8
1
62
256
6
ByLayer
370
13
48
1
60
0
100
AcDbEllipse
10
22.342661
20
-64.235118
30
0
11
43.045409936054
21
-60.8408900140974
31
0
210
0
220
0
230
1
40
0.519829
41
2.39138979069771
42
2.50906464355057
0
ELLIPSE
5
CB
100
AcDbEntity
8
1
62
256
6
ByLayer
370
13
48
1
60
0
100
AcDbEllipse
10
22.342661
20
42.85374
30
0
11
46.3059635253628
21
-58.3975937540084
31
0
210
0
220
0
230
1
40
0.455936
41
-1.353578041135
42
-1.20293642191655
0
POINT
5
70
100
AcDbEntity
8
81
62
256
6
ByLayer
370
18
48
1
60
0
100
AcDbPoint
10
59.6
20
0
30
0
39
0
210
0
220
0
230
1
50
360
0
POINT
5
72
100
AcDbEntity
8
80
62
256
6
ByLayer
370
18
48
1
60
0
100
AcDbPoint
10
0
20
0
30
0
39
0
210
0
220
0
230
1
50
360
0
POINT
5
74
100
AcDbEntity
8
1
62
256
6
ByLayer
370
18
48
1
60
1
100
AcDbPoint
10
59.6
20
-10.0001
30
0
39
0
210
0
220
0
230
1
50
360
0
POINT
5
76
100
AcDbEntity
8
1
62
256
6
ByLayer
370
18
48
1
60
1
100
AcDbPoint
10
17.6
20
-10.0001
30
0
39
0
210
0
220
0
230
1
50
360
0
SPLINE
5
CC
100
AcDbEntity
8
1
62
256
6
ByLayer
370
18
48
1
60
0
100
AcDbSpline
70
4
71
3
72
18
73
14
40
0
40
0
40
0
40
0
40
0.125000000000003
40
0.125000000000003
40
0.250000000000005
40
0.250000000000005
40
0.500000000000009
40
0.500000000000009
40
0.62500000000001
40
0.62500000000001
40
0.750000000000011
40
0.750000000000011
40
1
40
1
40
1
40
1
41
1
10
59.0765061148543
20
-2.00161591013543
30
0
41
1
10
59.0698676339317
20
-1.98522968413377
30
0
41
1
10
59.0640787493521
20
-1.96859147027593
30
0
41
1
10
59.054240582294
20
-1.93478371938369
30
0
41
1
10
59.0501913320678
20
-1.91756085641933
30
0
41
1
10
59.0408181522516
20
-1.86621703463314
30
0
41
1
10
59.0381270158448
20
-1.83205954881387
30
0
41
1
10
59.0383902821059
20
-1.7806887919825
30
0
41
1
10
59.0392037365143
20
-1.76348251983543
30
0
41
1
10
59.0420885286928
20
-1.729367871926
30
0
41
1
10
59.0441535954537
20
-1.71244701817184
30
0
41
1
10
59.0519547289653
20
-1.66197624364682
30
0
41
1
10
59.059281740476
20
-1.62871248587837
30
0
41
1
10
59.0682753791929
20
-1.59560986312022
30
0
0
SPLINE
5
CD
100
AcDbEntity
8
1
62
256
6
ByLayer
370
18
48
1
60
0
100
AcDbSpline
70
4
71
3
72
28
73
24
40
0
40
0
40
0
40
0
40
0.125
40
0.125
40
0.25
40
0.25
40
0.375
40
0.375
40
0.4375
40
0.4375
40
0.5
40
0.5
40
0.625
40
0.625
40
0.75
40
0.75
40
0.8125
40
0.8125
40
0.875
40
0.875
40
0.9375
40
0.9375
40
1
40
1
40
1
40
1
41
1
10
57.8733447222517
20
-0.740231215240129
30
0
41
1
10
57.8727938423577
20
-0.790374595394042
30
0
41
1
10
57.8773410725535
20
-0.840293044558706
30
0
41
1
10
57.89396606903
20
-0.939989614273628
30
0
41
1
10
57.9060758320377
20
-0.989763982323154
30
0
41
1
10
57.9364219940911
20
-1.08944018606013
30
0
41
1
10
57.9546708578083
20
-1.13933855055791
30
0
41
1
10
57.9859875757353
20
-1.21453424360348
30
0
41
1
10
57.9970546458747
20
-1.23957536088639
30
0
41
1
10
58.0201830955495
20
-1.28935728525502
30
0
41
1
10
58.0322650602429
20
-1.31414726529081
30
0
41
1
10
58.0699047358285
20
-1.38833472006434
30
0
41
1
10
58.0968536088201
20
-1.43753876455062
30
0
41
1
10
58.1537431845975
20
-1.53624365046784
30
0
41
1
10
58.1836892306524
20
-1.58572517546557
30
0
41
1
10
58.2303376119092
20
-1.66118043852299
30
0
41
1
10
58.2461748479852
20
-1.68654344818643
30
0
41
1
10
58.2783300400623
20
-1.73798976960245
30
0
41
1
10
58.2947239057202
20
-1.76419621111259
30
0
41
1
10
58.3271269448913
20
-1.81652825002365
30
0
41
1
10
58.3431979092677
20
-1.84275581410938
30
0
41
1
10
58.3747996382578
20
-1.89549209061957
30
0
41
1
10
58.3903267439934
20
-1.92200299296721
30
0
41
1
10
58.4054708583187
20
-1.94871606854875
30
0
0
SPLINE
5
CE
100
AcDbEntity
8
1
62
256
6
ByLayer
370
18
48
1
60
0
100
AcDbSpline
70
4
71
3
72
52
73
48
40
0
40
0
40
0
40
0
40
0.0642590950663312
40
0.0642590950663312
40
0.0963886425994962
40
0.0963886425994962
40
0.112453416366079
40
0.112453416366079
40
0.128518190132662
40
0.128518190132662
40
0.192777285198991
40
0.192777285198991
40
0.224906832732156
40
0.224906832732156
40
0.257036380265321
40
0.257036380265321
40
0.321295475331651
40
0.321295475331651
40
0.337360249098233
40
0.337360249098233
40
0.353425022864814
40
0.353425022864814
40
0.385554570397978
40
0.385554570397978
40
0.417684117931141
40
0.417684117931141
40
0.449813665464305
40
0.449813665464305
40
0.481943212997468
40
0.481943212997468
40
0.514072760530632
40
0.514072760530632
40
0.578331855596953
40
0.578331855596953
40
0.642590950663274
40
0.642590950663274
40
0.674720498196431
40
0.674720498196431
40
0.706850045729588
40
0.706850045729588
40
0.771109140795897
40
0.771109140795897
40
0.835368235862205
40
0.835368235862205
40
0.899627330928514
40
0.899627330928514
40
1
40
1
40
1
40
1
41
1
10
59.1961727766754
20
9.55437971707175
30
0
41
1
10
59.2319564523979
20
9.4286751998209
30
0
41
1
10
59.2642767412141
20
9.30222466945679
30
0
41
1
10
59.3028012820783
20
9.11040437098677
30
0
41
1
10
59.3139736292812
20
9.04610473271197
30
0
41
1
10
59.3275145914218
20
8.9489622125117
30
0
41
1
10
59.3314909974838
20
8.91646564912014
30
0
41
1
10
59.3382365339474
20
8.85121247491514
30
0
41
1
10
59.341008918138
20
8.81839448837246
30
0
41
1
10
59.3514443051834
20
8.65444911137556
30
0
41
1
10
59.3488492176351
20
8.52396320384165
30
0
41
1
10
59.3236002460204
20
8.32954263497601
30
0
41
1
10
59.3116148422704
20
8.26493861280585
30
0
41
1
10
59.2795559475077
20
8.13628953524986
30
0
41
1
10
59.2598355204397
20
8.07367863298398
30
0
41
1
10
59.1899098549278
20
7.89084358089156
30
0
41
1
10
59.1289191470622
20
7.77562687509857
30
0
41
1
10
59.0364374660835
20
7.63914737962358
30
0
41
1
10
59.0171192015621
20
7.6122231311696
30
0
41
1
10
58.9774331570234
20
7.55975057179703
30
0
41
1
10
58.9570067870523
20
7.53411206342747
30
0
41
1
10
58.8941198926337
20
7.4588440762418
30
0
41
1
10
58.8500560435489
20
7.41085756520761
30
0
41
1
10
58.7582860216401
20
7.31861692547514
30
0
41
1
10
58.7105786403896
20
7.27436403508247
30
0
41
1
10
58.6120265532584
20
7.18907315112412
30
0
41
1
10
58.5611873025167
20
7.14802956753786
30
0
41
1
10
58.4566306653717
20
7.06889169962412
30
0
41
1
10
58.4033702952144
20
7.03114371498128
30
0
41
1
10
58.2952847811927
20
6.95893064372228
30
0
41
1
10
58.2404331159864
20
6.92444612893317
30
0
41
1
10
58.0737510491273
20
6.8252577828909
30
0
41
1
10
57.9598061518291
20
6.76479393340955
30
0
41
1
10
57.7274979641317
20
6.65272598606177
30
0
41
1
10
57.6091263391245
20
6.6011386007313
30
0
41
1
10
57.4289221677582
20
6.52906474733473
30
0
41
1
10
57.3683458498248
20
6.50590240025213
30
0
41
1
10
57.2467143969097
20
6.4612800907787
30
0
41
1
10
57.1857544799954
20
6.43985244116584
30
0
41
1
10
57.0024929375472
20
6.37790886301252
30
0
41
1
10
56.8798116965611
20
6.33971897049722
30
0
41
1
10
56.633637315222
20
6.26831397552553
30
0
41
1
10
56.5101432254349
20
6.23510469058107
30
0
41
1
10
56.2624830366093
20
6.17280375531161
30
0
41
1
10
56.1383164133666
20
6.1437153169687
30
0
41
1
10
55.8194716453799
20
6.07366342212327
30
0
41
1
10
55.6243863774588
20
6.03519455105277
30
0
41
1
10
55.4287520110182
20
6.00009019776095
30
0
0
SPLINE
5
CF
100
AcDbEntity
8
1
62
256
6
ByLayer
370
18
48
1
60
0
100
AcDbSpline
70
4
71
3
72
36
73
32
40
0
40
0
40
0
40
0
40
0.0370482758711407
40
0.0743872492450983
40
0.112013391468754
40
0.149922974717358
40
0.188112028583163
40
0.226576324341226
40
0.265311448097405
40
0.352227059824726
40
0.442481657568663
40
0.535997671351768
40
0.632684583335746
40
0.650535392264378
40
0.668694716798627
40
0.687161321020487
40
0.705933909564494
40
0.725011126206679
40
0.744391552471085
40
0.764073706258446
40
0.784056040501796
40
0.8043369418536
40
0.824914729409496
40
0.845787653473375
40
0.866953894369042
40
0.888411561303505
40
0.910158691287178
40
0.932193248116374
40
0.954513121423463
40
0.977116125800209
40
1
40
1
40
1
40
1
41
1
10
16.8535042364152
20
-4.48192842464488
30
0
41
1
10
16.8349005292916
20
-4.5097067068088
30
0
41
1
10
16.7975471419574
20
-4.56548123208268
30
0
41
1
10
16.7408498948149
20
-4.64893334312404
30
0
41
1
10
16.683385817411
20
-4.73262526034884
30
0
41
1
10
16.6251225258512
20
-4.81649674362473
30
0
41
1
10
16.5660691016209
20
-4.9005355312155
30
0
41
1
10
16.5062243116777
20
-4.9847165289045
30
0
41
1
10
16.4205835516617
20
-5.10377479809506
30
0
41
1
10
16.3068246547633
20
-5.25897553224485
30
0
41
1
10
16.1624151751291
20
-5.45104764381415
30
0
41
1
10
16.0109479893897
20
-5.64734032769641
30
0
41
1
10
15.8972078410163
20
-5.79084562514345
30
0
41
1
10
15.8241400225426
20
-5.88154015159108
30
0
41
1
10
15.7940743662558
20
-5.91866518537668
30
0
41
1
10
15.7634311693815
20
-5.95630719991553
30
0
41
1
10
15.7322103333093
20
-5.99445818910226
30
0
41
1
10
15.7004120227211
20
-6.03310998459563
30
0
41
1
10
15.6680363324355
20
-6.07225411578915
30
0
41
1
10
15.635083379044
20
-6.11188184441096
30
0
41
1
10
15.6015532758067
20
-6.15198415141478
30
0
41
1
10
15.5674461399657
20
-6.19255173809117
30
0
41
1
10
15.5327620898152
20
-6.23357502120979
30
0
41
1
10
15.4975012497993
20
-6.27504414005347
30
0
41
1
10
15.4616637335896
20
-6.31694892361549
30
0
41
1
10
15.4252497088118
20
-6.35927901077412
30
0
41
1
10
15.3882591514401
20
-6.40202339021556
30
0
41
1
10
15.3506927817788
20
-6.44517215214654
30
0
41
1
10
15.312548503086
20
-6.48870982376206
30
0
41
1
10
15.2738349517443
20
-6.53264072931623
30
0
41
1
10
15.2477849217122
20
-6.56196189950103
30
0
41
1
10
15.234679480565
20
-6.57671300995085
30
0
0
SPLINE
5
D0
100
AcDbEntity
8
1
62
256
6
ByLayer
370
18
48
1
60
0
100
AcDbSpline
70
4
71
3
72
8
73
4
40
0
40
0
40
0
40
0
40
1
40
1
40
1
40
1
41
1
10
59.0460516789652
20
9.9876247401464
30
0
41
1
10
59.1572812023863
20
9.97883870399386
30
0
41
1
10
59.2685058600673
20
9.96999946522888
30
0
41
1
10
59.3797256817096
20
9.9611073888606
30
0
0
SPLINE
5
D1
100
AcDbEntity
8
1
62
256
6
ByLayer
370
18
48
1
60
0
100
AcDbSpline
70
4
71
3
72
18
73
14
40
0
40
0
40
0
40
0
40
0.125
40
0.125
40
0.25
40
0.25
40
0.5
40
0.5
40
0.75
40
0.75
40
0.875
40
0.875
40
1
40
1
40
1
40
1
41
1
10
58.3799444232561
20
4.18266237910103
30
0
41
1
10
58.3946650303964
20
4.15284316306756
30
0
41
1
10
58.4092153547757
20
4.12363102288305
30
0
41
1
10
58.4378943665723
20
4.06670992236675
30
0
41
1
10
58.4520355725137
20
4.03895633218809
30
0
41
1
10
58.4938961050918
20
3.95770301943247
30
0
41
1
10
58.5210610813229
20
3.90617961401273
30
0
41
1
10
58.5739105781326
20
3.80841078236841
30
0
41
1
10
58.5995982692599
20
3.76214847547496
30
0
41
1
10
58.6366951509111
20
3.69776515821556
30
0
41
1
10
58.6488227345128
20
3.67713885732567
30
0
41
1
10
58.6725087549119
20
3.6378822196869
30
0
41
1
10
58.6840688192978
20
3.61924617508129
30
0
41
1
10
58.6952573635837
20
3.6019130294668
30
0
0
SPLINE
5
D2
100
AcDbEntity
8
1
62
256
6
ByLayer
370
18
48
1
60
0
100
AcDbSpline
70
4
71
3
72
15
73
11
40
0
40
0
40
0
40
0
40
0.154959481298025
40
0.295799567748359
40
0.295799567748359
40
0.366219610973526
40
0.366219610973526
40
0.436639654198693
40
0.436639654198693
40
1
40
1
40
1
40
1
41
1
10
56.5084441632958
20
5.26461223504464
30
0
41
1
10
56.6033384142527
20
5.22277321854708
30
0
41
1
10
56.7854269661586
20
5.13845665889758
30
0
41
1
10
56.9693251908655
20
5.04563041238268
30
0
41
1
10
57.1012819072008
20
4.97643463224543
30
0
41
1
10
57.1453805478388
20
4.95287984546562
30
0
41
1
10
57.2335184902653
20
4.90494992770269
30
0
41
1
10
57.2775901839699
20
4.88055810728514
30
0
41
1
10
57.6742596272136
20
4.6572374019369
30
0
41
1
10
58.0270271971802
20
4.431682239656
30
0
41
1
10
58.3799444232563
20
4.182662379101
30
0
0
SPLINE
5
D3
100
AcDbEntity
8
1
62
256
6
ByLayer
370
18
48
1
60
0
100
AcDbSpline
70
4
71
3
72
10
73
6
40
0
40
0
40
0
40
0
40
0.5
40
0.5
40
1
40
1
40
1
40
1
41
1
10
16.2063486341024
20
-8.67236703988939
30
0
41
1
10
16.3100811652018
20
-8.57209944289869
30
0
41
1
10
16.4160872305043
20
-8.47452979825593
30
0
41
1
10
16.6320756920598
20
-8.28425870041309
30
0
41
1
10
16.7420614053487
20
-8.19156006715443
30
0
41
1
10
16.853812146816
20
-8.10108938295383
30
0
0
SPLINE
5
D4
100
AcDbEntity
8
1
62
256
6
ByLayer
370
18
48
1
60
0
100
AcDbSpline
70
4
71
3
72
8
73
4
40
0
40
0
40
0
40
0
40
1
40
1
40
1
40
1
41
1
10
59.0457896352815
20
9.9875524042956
30
0
41
1
10
59.1023880107315
20
9.84563740866386
30
0
41
1
10
59.1535025678732
20
9.70141483169249
30
0
41
1
10
59.1961728045231
20
9.55437972888288
30
0
0
SPLINE
5
D5
100
AcDbEntity
8
1
62
256
6
ByLayer
370
18
48
1
60
0
100
AcDbSpline
70
4
71
5
72
15
73
9
40
0
40
0
40
0
40
0
40
0
40
0
40
0.203018931041629
40
0.459118869743293
40
0.84326877779579
40
1
40
1
40
1
40
1
40
1
40
1
41
1
10
17.599999948739
20
-8.02033447685076
30
0
41
1
10
17.5039610856699
20
-7.9686854924868
30
0
41
1
10
17.2867731907406
20
-7.85018810993185
30
0
41
1
10
16.8878617480212
20
-7.62557632524809
30
0
41
1
10
16.4148080156605
20
-7.34442771464734
30
0
41
1
10
15.9417542832999
20
-7.04662593101946
30
0
41
1
10
15.5647394140084
20
-6.79927873912999
30
0
41
1
10
15.308873576577
20
-6.62699454997679
30
0
41
1
10
15.2347312869359
20
-6.57670535499557
30
0
0
SPLINE
5
D6
100
AcDbEntity
8
1
62
256
6
ByLayer
370
18
48
1
60
0
100
AcDbSpline
70
4
71
5
72
21
73
15
40
0
40
0
40
0
40
0
40
0
40
0
40
0.0320516118445376
40
0.12422481099196
40
0.262484609713092
40
0.354657808860515
40
0.492917607581648
40
0.585090806729069
40
0.723350605450203
40
0.861610404171335
40
0.953783603318757
40
1
40
1
40
1
40
1
40
1
40
1
41
1
10
52.6243583583706
20
7.68611196371637
30
0
41
1
10
52.6664858073519
20
7.70770338192517
30
0
41
1
10
52.8297622881933
20
7.79085107163002
30
0
41
1
10
53.1747623168249
20
7.96213230632475
30
0
41
1
10
53.6409113773167
20
8.18075035814348
30
0
41
1
10
54.2887839855987
20
8.45969420039052
30
0
41
1
10
55.0156781767596
20
8.73499974361442
30
0
41
1
10
55.8031468838506
20
8.99096995302349
30
0
41
1
10
56.5906155909415
20
9.2035523161488
30
0
41
1
10
57.3780842980325
20
9.36724946752679
30
0
41
1
10
58.044574573764
20
9.46747873130477
30
0
41
1
10
58.5899158176352
20
9.52091001868968
30
0
41
1
10
58.9535335137163
20
9.5437605622684
30
0
41
1
10
59.1354276620071
20
9.55198902987067
30
0
41
1
10
59.1961727784378
20
9.55437971632597
30
0
0
SPLINE
5
D7
100
AcDbEntity
8
1
62
256
6
ByLayer
370
18
48
1
60
0
100
AcDbSpline
70
4
71
3
72
38
73
34
40
0
40
0
40
0
40
0
40
0.0624999999999916
40
0.0624999999999916
40
0.124999999999983
40
0.124999999999983
40
0.187499999999975
40
0.187499999999975
40
0.218749999999964
40
0.218749999999964
40
0.249999999999952
40
0.249999999999952
40
0.374999999999938
40
0.374999999999938
40
0.406249999999939
40
0.406249999999939
40
0.43749999999994
40
0.43749999999994
40
0.499999999999942
40
0.499999999999942
40
0.624999999999946
40
0.624999999999946
40
0.656249999999947
40
0.656249999999947
40
0.687499999999948
40
0.687499999999948
40
0.74999999999995
40
0.74999999999995
40
0.874999999999975
40
0.874999999999975
40
0.937499999999988
40
0.937499999999988
40
1
40
1
40
1
40
1
41
1
10
53.7827148423267
20
-0.334711538528182
30
0
41
1
10
53.7991640373101
20
-0.298721074263199
30
0
41
1
10
53.8175955544153
20
-0.263978748349842
30
0
41
1
10
53.8576443869832
20
-0.196397364723453
30
0
41
1
10
53.8792636956775
20
-0.163558882868614
30
0
41
1
10
53.9253714653907
20
-0.0995396838967224
30
0
41
1
10
53.9498771339201
20
-0.0683737062222747
30
0
41
1
10
53.9888008916438
20
-0.0228844192650683
30
0
41
1
10
54.0021539492133
20
-0.007914086793221
30
0
41
1
10
54.0295205406349
20
0.0215219942840008
30
0
41
1
10
54.0434650350369
20
0.0359151044374926
30
0
41
1
10
54.1144551020159
20
0.106303901883877
30
0
41
1
10
54.1752597847004
20
0.157622733626255
30
0
41
1
10
54.2561531963798
20
0.215702403508317
30
0
41
1
10
54.2725788643041
20
0.227011707589583
30
0
41
1
10
54.305930929482
20
0.249009180586683
30
0
41
1
10
54.3228928125438
20
0.259718442337061
30
0
41
1
10
54.374278361484
20
0.29073663842118
30
0
41
1
10
54.4090775506101
20
0.309874527228857
30
0
41
1
10
54.5151118621764
20
0.362765648303707
30
0
41
1
10
54.5879754929159
20
0.392018429526416
30
0
41
1
10
54.6819810553133
20
0.420966528509126
30
0
41
1
10
54.7009292649475
20
0.426373276203293
30
0
41
1
10
54.7391283073384
20
0.436410559096373
30
0
41
1
10
54.758369582527
20
0.441036195140953
30
0
41
1
10
54.8160437495217
20
0.453632197300607
30
0
41
1
10
54.8545957485464
20
0.460369556501803
30
0
41
1
10
54.9706114754794
20
0.475773053787947
30
0
41
1
10
55.0484340684878
20
0.47964846785743
30
0
41
1
10
55.1661043758571
20
0.47617058756785
30
0
41
1
10
55.2055882168426
20
0.473443128799232
30
0
41
1
10
55.2842061927306
20
0.464968776737777
30
0
41
1
10
55.3233717686549
20
0.459230410535525
30
0
41
1
10
55.3624151379736
20
0.452044607856123
30
0
0
SPLINE
5
D8
100
AcDbEntity
8
1
62
256
6
ByLayer
370
18
48
1
60
0
100
AcDbSpline
70
4
71
5
72
47
73
41
40
0
40
0
40
0
40
0
40
0
40
0
40
0.0109766570058736
40
0.0445887478434384
40
0.0669968084018149
40
0.10060889923938
40
0.123016959797756
40
0.156629050635321
40
0.179037111193698
40
0.212649202031262
40
0.246261292868827
40
0.268669353427203
40
0.29107741398558
40
0.324689504823145
40
0.35830159566071
40
0.380709656219086
40
0.414321747056651
40
0.447933837894216
40
0.470341898452587
40
0.492749959010969
40
0.526362049848534
40
0.559974140686098
40
0.582382201244475
40
0.615994292082039
40
0.638402352640416
40
0.672014443477981
40
0.694422504036358
40
0.728034594873922
40
0.761646685711487
40
0.784054746269864
40
0.817666837107428
40
0.840074897665805
40
0.87368698850337
40
0.896095049061746
40
0.929707139899311
40
0.963319230736876
40
0.985727291295252
40
1
40
1
40
1
40
1
40
1
40
1
41
1
10
20.8219636685886
20
5.82164544591961
30
0
41
1
10
20.8813088924137
20
5.81754356425583
30
0
41
1
10
21.1223776640289
20
5.80003710636493
30
0
41
1
10
21.4845954675044
20
5.7685872422301
30
0
41
1
10
22.02853681877
20
5.70980987500246
30
0
41
1
10
22.6936272018959
20
5.61696637235593
30
0
41
1
10
23.4810959089868
20
5.47992789758231
30
0
41
1
10
24.2079901001477
20
5.32895355327577
30
0
41
1
10
24.9954588072387
20
5.13969129954211
30
0
41
1
10
25.7829275143296
20
4.92554334091813
30
0
41
1
10
26.5703962214206
20
4.68518822607786
30
0
41
1
10
27.2972904125815
20
4.44241897381494
30
0
41
1
10
28.0847591196725
20
4.15808848603035
30
0
41
1
10
28.8722278267634
20
3.85366943514188
30
0
41
1
10
29.5991220179243
20
3.55533464435703
30
0
41
1
10
30.3865907250153
20
3.21495463140886
30
0
41
1
10
31.2346339480363
20
2.83004324768089
30
0
41
1
10
32.0221026551273
20
2.45753577722664
30
0
41
1
10
32.7489968462882
20
2.10271841849297
30
0
41
1
10
33.5364655533791
20
1.70836554063325
30
0
41
1
10
34.3239342604702
20
1.30575920474362
30
0
41
1
10
35.050828451631
20
0.928112545504916
30
0
41
1
10
35.838297158722
20
0.51450948774351
30
0
41
1
10
36.625765865813
20
0.0982288822032444
30
0
41
1
10
37.413234572904
20
-0.318423357653558
30
0
41
1
10
38.1401287640648
20
-0.701700089285936
30
0
41
1
10
38.9275974711558
20
-1.11342353965637
30
0
41
1
10
39.7150661782468
20
-1.51986794683867
30
0
41
1
10
40.5025348853378
20
-1.91829026518067
30
0
41
1
10
41.2900035924288
20
-2.30744091553785
30
0
41
1
10
42.0774722995197
20
-2.6842766380245
30
0
41
1
10
42.8649410066107
20
-3.04804990361456
30
0
41
1
10
43.5918351977716
20
-3.37032631603509
30
0
41
1
10
44.3793039048625
20
-3.70308880008736
30
0
41
1
10
45.1667726119535
20
-4.01803748210261
30
0
41
1
10
45.9542413190445
20
-4.31167449744132
30
0
41
1
10
46.637151783977
20
-4.54825050944751
30
0
41
1
10
47.1989132170493
20
-4.72818321664519
30
0
41
1
10
47.5789511023315
20
-4.84290144207887
30
0
41
1
10
47.7772654398234
20
-4.90081724430033
30
0
41
1
10
47.8544307454552
20
-4.92305555907393
30
0
0
SPLINE
5
D9
100
AcDbEntity
8
1
62
256
6
ByLayer
370
18
48
1
60
0
100
AcDbSpline
70
4
71
3
72
78
73
74
40
0
40
0
40
0
40
0
40
0.0048318397011005
40
0.0096618309502689
40
0.0144899661339718
40
0.0193162376706096
40
0.0241406380114943
40
0.0289631596417698
40
0.0337837950814071
40
0.0386025368861074
40
0.0434193776482478
40
0.0482343099978158
40
0.0530473266033078
40
0.0578584201726969
40
0.0626675834542732
40
0.0674748092376013
40
0.0722800903543724
40
0.07708341967933
40
0.0818847901311143
40
0.0866841946731659
40
0.0914816263145705
40
0.0962770781109054
40
0.101070543165121
40
0.105862014628382
40
0.11065148570086
40
0.115438949632589
40
0.12022439972429
40
0.125007829328171
40
0.134521409535155
40
0.144050973883801
40
0.153596849307535
40
0.16315935898804
40
0.17273882239881
40
0.182335555350997
40
0.191949870041405
40
0.201582075102607
40
0.211232475654847
40
0.220901373359771
40
0.230589066475654
40
0.240295849914162
40
0.250022015298316
40
0.268720250554592
40
0.287264895809394
40
0.305661463407347
40
0.323915633444471
40
0.342033253989449
40
0.360020340632812
40
0.377883075334895
40
0.395627804546027
40
0.413261036576721
40
0.430789438200234
40
0.448219830475208
40
0.465559183782303
40
0.482814612075575
40
0.499993366356579
40
0.532687112206528
40
0.566330288999142
40
0.60096008352678
40
0.636610628760295
40
0.673313296241286
40
0.711096971491275
40
0.749988309872451
40
0.770148026247369
40
0.790815280664773
40
0.811992437916048
40
0.833681689297801
40
0.855885070056487
40
0.878604475005607
40
0.90184167252541
40
0.92559831712935
40
0.9498759607593
40
0.974676062951709
40
1
40
1
40
1
40
1
41
1
10
14.150864739698
20
2.15270924248094
30
0
41
1
10
14.1509715218919
20
2.16253270097278
30
0
41
1
10
14.1511850454296
20
2.18217585992801
30
0
41
1
10
14.1515628233491
20
2.21182612337802
30
0
41
1
10
14.151980362555
20
2.24160289950837
30
0
41
1
10
14.1524401329743
20
2.27151825917787
30
0
41
1
10
14.1529392068746
20
2.30156672299225
30
0
41
1
10
14.1534760979927
20
2.33174749174543
30
0
41
1
10
14.1540489302889
20
2.36205849350031
30
0
41
1
10
14.1546559285766
20
2.39249797800952
30
0
41
1
10
14.1552952873704
20
2.42306409000977
30
0
41
1
10
14.1559652062426
20
2.4537549837616
30
0
41
1
10
14.1566638805901
20
2.48456879264978
30
0
41
1
10
14.1573895043432
20
2.5155036375993
30
0
41
1
10
14.1581402694756
20
2.5465576250987
30
0
41
1
10
14.1589143663775
20
2.57772884800852
30
0
41
1
10
14.1597099839704
20
2.6090153856257
30
0
41
1
10
14.1605253099982
20
2.64041530394897
30
0
41
1
10
14.1613585308708
20
2.67192665589317
30
0
41
1
10
14.162207833122
20
2.70354748151533
30
0
41
1
10
14.163071398862
20
2.73527580825285
30
0
41
1
10
14.1639474236271
20
2.7671096511103
30
0
41
1
10
14.1648340506939
20
2.79904701304713
30
0
41
1
10
14.1657296169569
20
2.83108588462207
30
0
41
1
10
14.1666317367666
20
2.86322424641563
30
0
41
1
10
14.1675407198378
20
2.89546006109683
30
0
41
1
10
14.1684468243591
20
2.92779130412035
30
0
41
1
10
14.1696848002323
20
2.97090823338789
30
0
41
1
10
14.1710150066348
20
3.02500581801252
30
0
41
1
10
14.1720363335821
20
3.09030641475474
30
0
41
1
10
14.1725320268162
20
3.15608555727167
30
0
41
1
10
14.172474309646
20
3.22232248652381
30
0
41
1
10
14.171855897935
20
3.28899693248573
30
0
41
1
10
14.1706645466169
20
3.35608887847269
30
0
41
1
10
14.1688899087258
20
3.42357863830546
30
0
41
1
10
14.1665216004929
20
3.49144683594997
30
0
41
1
10
14.1635500507882
20
3.55967445873029
30
0
41
1
10
14.1599650221866
20
3.62824271043678
30
0
41
1
10
14.1557606706049
20
3.6971335901712
30
0
41
1
10
14.1509167144542
20
3.76632775808895
30
0
41
1
10
14.1437974060999
20
3.85713131750319
30
0
41
1
10
14.1332344817546
20
3.96924855186009
30
0
41
1
10
14.1175497294032
20
4.10224697370128
30
0
41
1
10
14.0988871530965
20
4.23421357086099
30
0
41
1
10
14.0772418926122
20
4.36502962046734
30
0
41
1
10
14.0526464649027
20
4.49459676469411
30
0
41
1
10
14.0251342492054
20
4.62282997967708
30
0
41
1
10
13.9947478411274
20
4.74965826008429
30
0
41
1
10
13.9615355656049
20
4.87502323935726
30
0
41
1
10
13.9255512351368
20
4.99887838331787
30
0
41
1
10
13.8868529248983
20
5.12118793081743
30
0
41
1
10
13.8455027490436
20
5.24192631395698
30
0
41
1
10
13.8015639221731
20
5.36107600050906
30
0
41
1
10
13.7551079044882
20
5.47863123487284
30
0
41
1
10
13.6913924095544
20
5.62963731265194
30
0
41
1
10
13.6061384572841
20
5.81491808600688
30
0
41
1
10
13.4947504847036
20
6.03484240020219
30
0
41
1
10
13.3723556719053
20
6.25703505392497
30
0
41
1
10
13.2392277904251
20
6.48156926423965
30
0
41
1
10
13.095626557212
20
6.70854515396169
30
0
41
1
10
12.9418162883624
20
6.93809005166662
30
0
41
1
10
12.8059206983097
20
7.13081386406068
30
0
41
1
10
12.6916044997885
20
7.28755139352612
30
0
41
1
10
12.601518643239
20
7.40852004750732
30
0
41
1
10
12.5080991581602
20
7.53155609633609
30
0
41
1
10
12.4113709633992
20
7.65668017990285
30
0
41
1
10
12.3113576988553
20
7.78391220360197
30
0
41
1
10
12.2080834036858
20
7.91327358038305
30
0
41
1
10
12.1015706035484
20
8.04478515616736
30
0
41
1
10
11.9918462715378
20
8.1784730905612
30
0
41
1
10
11.8789190871875
20
8.31434646967406
30
0
41
1
10
11.7628669068233
20
8.45248324390056
30
0
41
1
10
11.6841131658171
20
8.54499199231284
30
0
41
1
10
11.6443247766574
20
8.59172976039176
30
0
0
SPLINE
5
DA
100
AcDbEntity
8
1
62
256
6
ByLayer
370
18
48
1
60
0
100
AcDbSpline
70
4
71
3
72
109
73
105
40
0
40
0
40
0
40
0
40
0.0047826953132961
40
0.0095793769193923
40
0.0143902416258092
40
0.0192154844352534
40
0.0240552985451048
40
0.0289098753478589
40
0.0337794044320731
40
0.0386640735841173
40
0.0435640687906355
40
0.0484795742415681
40
0.0534107723338227
40
0.058357843675645
40
0.0633209670914853
40
0.0683003196274547
40
0.0732960765573858
40
0.0783084113893697
40
0.0833374958728204
40
0.0883835000060078
40
0.0934465920441695
40
0.0985269385078912
40
0.103624704192085
40
0.108740052175299
40
0.113873143829439
40
0.119024138829848
40
0.12419319516582
40
0.129380469151331
40
0.134586115436184
40
0.139810287017469
40
0.14505313525122
40
0.150314809864442
40
0.155595458967337
40
0.160895229065788
40
0.166214265074088
40
0.171552710327825
40
0.176910706597007
40
0.182288394099361
40
0.187685911513814
40
0.193103395994062
40
0.198540983182361
40
0.2039988072234
40
0.209477000778294
40
0.214975695038696
40
0.220495019741002
40
0.226035103180574
40
0.231596072226155
40
0.237178052334228
40
0.296368230070963
40
0.359544382595773
40
0.426806930968112
40
0.498238523760225
40
0.505346343197412
40
0.512558861292153
40
0.519876156997592
40
0.527298305831947
40
0.534825380060471
40
0.542457448865125
40
0.550194578502812
40
0.558036832453075
40
0.565984271556125
40
0.574036954141861
40
0.582194936150585
40
0.590458271246013
40
0.598827010921204
40
0.60730120459779
40
0.61588089971913
40
0.624566141837742
40
0.633356974697404
40
0.642253440310338
40
0.65125557902979
40
0.660363429618317
40
0.669577029312066
40
0.678896413881351
40
0.688321617687711
40
0.697852673737731
40
0.707489613733809
40
0.717232468122089
40
0.727081266137697
40
0.737036035847504
40
0.747096804190561
40
0.757263597016296
40
0.767536439120698
40
0.777915354280532
40
0.788400365285803
40
0.798991493970428
40
0.809688761241405
40
0.820492187106412
40
0.831401790700059
40
0.842417590308731
40
0.853539603394289
40
0.864767846616515
40
0.876102335854522
40
0.887543086227072
40
0.89909011211199
40
0.9107434271646
40
0.922503044335369
40
0.934368975886695
40
0.94634123340897
40
0.958419827835935
40
0.970604769459371
40
0.982896067943153
40
0.99529373233674
40
1
40
1
40
1
40
1
41
1
10
8.7560715835794
20
-9.88822036748425
30
0
41
1
10
8.76386356280764
20
-9.88213721834401
30
0
41
1
10
8.77947030776747
20
-9.86995313078376
30
0
41
1
10
8.80290403050486
20
-9.85145620015942
30
0
41
1
10
8.82639961170509
20
-9.83276523955865
30
0
41
1
10
8.84995760028278
20
-9.81386677889932
30
0
41
1
10
8.87357958664131
20
-9.79476531498889
30
0
41
1
10
8.89726688649287
20
-9.77546053298695
30
0
41
1
10
8.92102089487281
20
-9.75595343757922
30
0
41
1
10
8.94484299061634
20
-9.73624470309539
30
0
41
1
10
8.96873456183118
20
-9.7163351180009
30
0
41
1
10
8.9926969987963
20
-9.69622546563645
30
0
41
1
10
9.01673169562511
20
-9.67591655671384
30
0
41
1
10
9.04084004956584
20
-9.65540922096247
30
0
41
1
10
9.06502346093359
20
-9.63470430977316
30
0
41
1
10
9.08928333286801
20
-9.61380269588318
30
0
41
1
10
9.11362107113419
20
-9.59270527386033
30
0
41
1
10
9.13803808390765
20
-9.57141296037238
30
0
41
1
10
9.16253578155903
20
-9.54992669451624
30
0
41
1
10
9.18711557643502
20
-9.52824743813207
30
0
41
1
10
9.21177888263611
20
-9.50637617612387
30
0
41
1
10
9.23652711579032
20
-9.48431391677769
30
0
41
1
10
9.26136169282424
20
-9.46206169208358
30
0
41
1
10
9.28628403173008
20
-9.43962055805619
30
0
41
1
10
9.31129555132958
20
-9.41699159505785
30
0
41
1
10
9.33639767103398
20
-9.39417590812076
30
0
41
1
10
9.36159181060117
20
-9.37117462727167
30
0
41
1
10
9.38687938988843
20
-9.34798890785567
30
0
41
1
10
9.41226182860225
20
-9.32461993086079
30
0
41
1
10
9.43774054604427
20
-9.30106890324444
30
0
41
1
10
9.4633169608534
20
-9.27733705825779
30
0
41
1
10
9.48899249074486
20
-9.25342565577301
30
0
41
1
10
9.51476855224496
20
-9.22933598260917
30
0
41
1
10
9.54064656042235
20
-9.2050693528588
30
0
41
1
10
9.56662792861616
20
-9.18062710821496
30
0
41
1
10
9.59271406815895
20
-9.15601061829759
30
0
41
1
10
9.61890638809788
20
-9.13122128098038
30
0
41
1
10
9.64520629490912
20
-9.10626052271806
30
0
41
1
10
9.67161519221679
20
-9.08112979887036
30
0
41
1
10
9.69813448047861
20
-9.05583059403787
30
0
41
1
10
9.72476555677605
20
-9.03036442235114
30
0
41
1
10
9.75150981419648
20
-9.00473282793459
30
0
41
1
10
9.77836864272706
20
-8.97893738471203
30
0
41
1
10
9.80534342445657
20
-8.95297969867997
30
0
41
1
10
9.83243555012251
20
-8.92686140091769
30
0
41
1
10
9.85964635552781
20
-8.90058417535877
30
0
41
1
10
9.88697735867845
20
-8.8741496560923
30
0
41
1
10
10.0022752357254
20
-8.76247286620082
30
0
41
1
10
10.2129264459585
20
-8.55694215277342
30
0
41
1
10
10.5288008754528
20
-8.25049257841306
30
0
41
1
10
10.8703239691783
20
-7.92644171648894
30
0
41
1
10
11.1215696086451
20
-7.69690928232606
30
0
41
1
10
11.2708108240178
20
-7.56427296110905
30
0
41
1
10
11.3085258369598
20
-7.53090084548253
30
0
41
1
10
11.3468536383847
20
-7.49715390133542
30
0
41
1
10
11.385798692185
20
-7.46304119506453
30
0
41
1
10
11.425366640226
20
-7.4285738374312
30
0
41
1
10
11.4655627558428
20
-7.39376274494737
30
0
41
1
10
11.5063923596814
20
-7.35861925848721
30
0
41
1
10
11.5478606982358
20
-7.32315497977226
30
0
41
1
10
11.5899729692485
20
-7.28738182183872
30
0
41
1
10
11.632734306768
20
-7.25131200091576
30
0
41
1
10
11.6761497770715
20
-7.21495804426908
30
0
41
1
10
11.7202243714496
20
-7.17833279361389
30
0
41
1
10
11.7649629996795
20
-7.14144940966574
30
0
41
1
10
11.810370483143
20
-7.10432137629903
30
0
41
1
10
11.8564515478707
20
-7.0669625047226
30
0
41
1
10
11.90321081744
20
-7.02938693755394
30
0
41
1
10
11.9506528057427
20
-6.99160915281297
30
0
41
1
10
11.9987819096216
20
-6.95364396782384
30
0
41
1
10
12.0476024013745
20
-6.91550654301645
30
0
41
1
10
12.0971184211277
20
-6.87721238562233
30
0
41
1
10
12.147333969079
20
-6.83877735325618
30
0
41
1
10
12.1982528976123
20
-6.80021765737595
30
0
41
1
10
12.2498789032822
20
-6.76154986661368
30
0
41
1
10
12.3022155186733
20
-6.72279090996904
30
0
41
1
10
12.3552661041323
20
-6.68395807985775
30
0
41
1
10
12.4090338393768
20
-6.64506903500651
30
0
41
1
10
12.4635217149803
20
-6.60614180318535
30
0
41
1
10
12.5187325237385
20
-6.56719478377073
30
0
41
1
10
12.5746688519151
20
-6.52824675012832
30
0
41
1
10
12.6313330703725
20
-6.48931685180827
30
0
41
1
10
12.6887273255882
20
-6.45042461654384
30
0
41
1
10
12.7468535305598
20
-6.41158995204231
30
0
41
1
10
12.8057133556032
20
-6.37283314756277
30
0
41
1
10
12.8653082190434
20
-6.33417487526631
30
0
41
1
10
12.9256392778059
20
-6.29563619133415
30
0
41
1
10
12.9867074179088
20
-6.25723853683917
30
0
41
1
10
13.0485132448607
20
-6.21900373836584
30
0
41
1
10
13.1110570739685
20
-6.18095400836276
30
0
41
1
10
13.1743389205597
20
-6.14311194522722
30
0
41
1
10
13.2383584901222
20
-6.10550053308682
30
0
41
1
10
13.3031151683734
20
-6.06814314135443
30
0
41
1
10
13.3686080112348
20
-6.03106352371995
30
0
41
1
10
13.4348357348282
20
-5.99428581780296
30
0
41
1
10
13.5017967050854
20
-5.95783454078594
30
0
41
1
10
13.569488928532
20
-5.92173459867837
30
0
41
1
10
13.6379100383824
20
-5.88601124239685
30
0
41
1
10
13.7070572981443
20
-5.85069022334645
30
0
41
1
10
13.7769275388103
20
-5.81579719269931
30
0
41
1
10
13.8475173470546
20
-5.78135995915758
30
0
41
1
10
13.9188223041433
20
-5.74739993561059
30
0
41
1
10
13.9757408429506
20
-5.72097444058292
30
0
41
1
10
14.00888553876
20
-5.70583727388322
30
0
41
1
10
14.018007664028
20
-5.7016928626295
30
0
0
SPLINE
5
DB
100
AcDbEntity
8
1
62
256
6
ByLayer
370
18
48
1
60
0
100
AcDbSpline
70
4
71
3
72
25
73
21
40
0
40
0
40
0
40
0
40
0.124999999999999
40
0.124999999999999
40
0.249999999999999
40
0.249999999999999
40
0.374999999999998
40
0.374999999999998
40
0.499999999999997
40
0.499999999999997
40
0.624999999999996
40
0.624999999999996
40
0.749999999999996
40
0.749999999999996
40
0.874999999999995
40
0.874999999999995
40
0.906249999999996
40
0.906249999999996
40
0.937499999999997
40
1
40
1
40
1
40
1
41
1
10
3.52113562682689
20
-5.53452479422899
30
0
41
1
10
3.85143911165659
20
-5.51215025660917
30
0
41
1
10
4.18541835605515
20
-5.48810412378455
30
0
41
1
10
4.86167951739407
20
-5.4368774464389
30
0
41
1
10
5.20396305308765
20
-5.4096925704084
30
0
41
1
10
5.89784565580123
20
-5.35293699483026
30
0
41
1
10
6.24944711549512
20
-5.32336279819268
30
0
41
1
10
6.96297826185705
20
-5.26324629086022
30
0
41
1
10
7.32491104504845
20
-5.23270211830499
30
0
41
1
10
8.06003463064854
20
-5.17281596304829
30
0
41
1
10
8.43322904255336
20
-5.14347442471706
30
0
41
1
10
9.19162134136286
20
-5.08894010483601
30
0
41
1
10
9.5768230873895
20
-5.06375047951221
30
0
41
1
10
10.3596780786568
20
-5.02119012245007
30
0
41
1
10
10.7573351511457
20
-5.00382541535711
30
0
41
1
10
11.2622100458004
20
-4.98966662077189
30
0
41
1
10
11.3635810215022
20
-4.98721392030998
30
0
41
1
10
11.566561491736
20
-4.98314384365185
30
0
41
1
10
11.8715879050547
20
-4.97828538185257
30
0
41
1
10
12.1782304942572
20
-4.97744056514614
30
0
41
1
10
12.3833247861715
20
-4.97889872192593
30
0
0
SPLINE
5
DC
100
AcDbEntity
8
1
62
256
6
ByLayer
370
18
48
1
60
0
100
AcDbSpline
70
4
71
3
72
16
73
12
40
0
40
0
40
0
40
0
40
0.238798932878885
40
0.238798932878885
40
0.358198399318328
40
0.358198399318328
40
0.47759786575777
40
0.47759786575777
40
0.955195731515682
40
0.955195731515682
40
1
40
1
40
1
40
1
41
1
10
12.3833247861715
20
-4.9788987219259
30
0
41
1
10
12.4458551581079
20
-4.97934329346873
30
0
41
1
10
12.5081042637017
20
-4.98129309213744
30
0
41
1
10
12.6011605817074
20
-4.98597283890567
30
0
41
1
10
12.6321350314772
20
-4.98782894965791
30
0
41
1
10
12.693772382627
20
-4.9920542663518
30
0
41
1
10
12.724464093084
20
-4.99442478722847
30
0
41
1
10
12.8773605017845
20
-5.00743037881284
30
0
41
1
10
12.9979125533318
20
-5.02146129326906
30
0
41
1
10
13.1284843912288
20
-5.03956912510645
30
0
41
1
10
13.1396724859544
20
-5.0411446259875
30
0
41
1
10
13.1508503304444
20
-5.04274210080081
30
0
0
SPLINE
5
DD
100
AcDbEntity
8
1
62
256
6
ByLayer
370
18
48
1
60
0
100
AcDbSpline
70
4
71
3
72
19
73
15
40
0
40
0
40
0
40
0
40
0.250000000000007
40
0.250000000000007
40
0.500000000000015
40
0.500000000000015
40
0.531250000000015
40
0.531250000000015
40
0.562500000000015
40
0.625000000000014
40
0.625000000000014
40
0.75000000000001
40
0.75000000000001
40
1
40
1
40
1
40
1
41
1
10
16.2063486341021
20
-8.67236703988948
30
0
41
1
10
15.5873583242862
20
-8.9498651233645
30
0
41
1
10
14.9709032688358
20
-9.18588849907044
30
0
41
1
10
13.7353897723363
20
-9.5718474316792
30
0
41
1
10
13.1163564815075
20
-9.72179675477213
30
0
41
1
10
12.4140480344329
20
-9.8391969448185
30
0
41
1
10
12.3358886273467
20
-9.85153334879882
30
0
41
1
10
12.1797394046084
20
-9.87471602712992
30
0
41
1
10
11.9456844503275
20
-9.90727149094482
30
0
41
1
10
11.7120647691381
20
-9.93318689608549
30
0
41
1
10
11.2452185686949
20
-9.97619414958791
30
0
41
1
10
10.9345116359482
20
-9.99310497446646
30
0
41
1
10
10.0024899352168
20
-10.0086456033858
30
0
41
1
10
9.38128787999338
20
-9.97214959799044
30
0
41
1
10
8.75627135238969
20
-9.88825273318665
30
0
0
SPLINE
5
DE
100
AcDbEntity
8
1
62
256
6
ByLayer
370
18
48
1
60
0
100
AcDbSpline
70
4
71
3
72
51
73
47
40
0
40
0
40
0
40
0
40
0.124999999999995
40
0.124999999999995
40
0.249999999999991
40
0.249999999999991
40
0.312499999999989
40
0.312499999999989
40
0.343749999999987
40
0.343749999999987
40
0.374999999999985
40
0.374999999999985
40
0.437499999999983
40
0.437499999999983
40
0.499999999999981
40
0.499999999999981
40
0.531249999999981
40
0.531249999999981
40
0.546874999999981
40
0.546874999999981
40
0.562499999999981
40
0.562499999999981
40
0.624999999999982
40
0.624999999999982
40
0.687499999999984
40
0.687499999999984
40
0.749999999999985
40
0.749999999999985
40
0.781249999999986
40
0.781249999999986
40
0.796874999999986
40
0.796874999999986
40
0.812499999999987
40
0.812499999999987
40
0.843749999999988
40
0.843749999999988
40
0.874999999999989
40
0.874999999999989
40
0.906249999999991
40
0.906249999999991
40
0.914062499999991
40
0.914062499999991
40
0.921874999999992
40
0.937499999999993
40
0.937499999999993
40
1
40
1
40
1
40
1
41
1
10
8.75601809315751
20
-9.88826207156009
30
0
41
1
10
8.44339320530108
20
-9.84615814308219
30
0
41
1
10
8.13537606475902
20
-9.79149957057911
30
0
41
1
10
7.52784998843043
20
-9.65451950715305
30
0
41
1
10
7.22832671630084
20
-9.57222883339844
30
0
41
1
10
6.78572103639905
20
-9.42540458476012
30
0
41
1
10
6.63930893873169
20
-9.37255467853012
30
0
41
1
10
6.42152990841072
20
-9.28693676712743
30
0
41
1
10
6.34920114327463
20
-9.25731863582877
30
0
41
1
10
6.20570622807492
20
-9.19609176550253
30
0
41
1
10
6.13448489162906
20
-9.16446283216746
30
0
41
1
10
5.92247667411908
20
-9.06642817311649
30
0
41
1
10
5.78333808893032
20
-8.9968818367621
30
0
41
1
10
5.51003306904164
20
-8.84871939259315
30
0
41
1
10
5.37586339042099
20
-8.77010688498476
30
0
41
1
10
5.17897156958483
20
-8.64466676343233
30
0
41
1
10
5.1140705313999
20
-8.60159737245834
30
0
41
1
10
5.01792010416045
20
-8.53499133111504
30
0
41
1
10
4.98605402470219
20
-8.5124432212892
30
0
41
1
10
4.92288534329248
20
-8.46676097242076
30
0
41
1
10
4.89157010935975
20
-8.44361858430739
30
0
41
1
10
4.73639250344669
20
-8.32636523377474
30
0
41
1
10
4.616701382489
20
-8.22764641584521
30
0
41
1
10
4.3879386798798
20
-8.01923705088089
30
0
41
1
10
4.27885419256364
20
-7.90955501318561
30
0
41
1
10
4.07381635066901
20
-7.67754900130623
30
0
41
1
10
3.97783664135582
20
-7.5552420453028
30
0
41
1
10
3.84661887380977
20
-7.36037265770781
30
0
41
1
10
3.80501766723762
20
-7.29350629070049
30
0
41
1
10
3.74635457211122
20
-7.18999082450179
30
0
41
1
10
3.72742472879844
20
-7.15494877153245
30
0
41
1
10
3.69092298459822
20
-7.08371923584463
30
0
41
1
10
3.67332274443913
20
-7.04746524339885
30
0
41
1
10
3.62308303680038
20
-6.9376227237465
30
0
41
1
10
3.59291941761791
20
-6.86282835016175
30
0
41
1
10
3.54007145501481
20
-6.70989198188144
30
0
41
1
10
3.51738479701888
20
-6.63175056309814
30
0
41
1
10
3.48052206151769
20
-6.47184750025727
30
0
41
1
10
3.46634234782061
20
-6.39008675113945
30
0
41
1
10
3.45476945784981
20
-6.28540324473414
30
0
41
1
10
3.45276284533074
20
-6.26432508760436
30
0
41
1
10
3.44940631863409
20
-6.22214183642774
30
0
41
1
10
3.4453467988285
20
-6.1587514479277
30
0
41
1
10
3.44425685212246
20
-6.09502283311559
30
0
41
1
10
3.44743638972895
20
-5.88188060292563
30
0
41
1
10
3.47166791863396
20
-5.70907452173398
30
0
41
1
10
3.52113562684735
20
-5.53452479422518
30
0
0
SPLINE
5
DF
100
AcDbEntity
8
1
62
256
6
ByLayer
370
18
48
1
60
0
100
AcDbSpline
70
4
71
3
72
45
73
41
40
0
40
0
40
0
40
0
40
0.0625000000000019
40
0.0625000000000019
40
0.0937500000000026
40
0.0937500000000026
40
0.125000000000003
40
0.125000000000003
40
0.250000000000007
40
0.250000000000007
40
0.281250000000008
40
0.281250000000008
40
0.312500000000008
40
0.312500000000008
40
0.375000000000009
40
0.437500000000009
40
0.437500000000009
40
0.453125000000009
40
0.453125000000009
40
0.468750000000009
40
0.468750000000009
40
0.500000000000007
40
0.500000000000007
40
0.562500000000004
40
0.562500000000004
40
0.625000000000001
40
0.625000000000001
40
0.65625
40
0.65625
40
0.687499999999999
40
0.687499999999999
40
0.749999999999999
40
0.749999999999999
40
0.874999999999996
40
0.874999999999996
40
0.906249999999997
40
0.906249999999997
40
0.937499999999998
40
0.937499999999998
40
1
40
1
40
1
40
1
41
1
10
3.5211356268442
20
-5.53452479421753
30
0
41
1
10
3.4990096070058
20
-5.44443675374711
30
0
41
1
10
3.48114062778401
20
-5.35251616795506
30
0
41
1
10
3.46176217626197
20
-5.21158300559918
30
0
41
1
10
3.45654302995922
20
-5.16409575013037
30
0
41
1
10
3.44880019236217
20
-5.06803967816222
30
0
41
1
10
3.44628236497806
20
-5.01936796547548
30
0
41
1
10
3.44104155915363
20
-4.77623218048112
30
0
41
1
10
3.45998675826434
20
-4.58037084367857
30
0
41
1
10
3.51719070076274
20
-4.33460114089189
30
0
41
1
10
3.53031564293985
20
-4.28540080465291
30
0
41
1
10
3.56008536127581
20
-4.18692963375219
30
0
41
1
10
3.57659734930968
20
-4.13811051912538
30
0
41
1
10
3.63079200842594
20
-3.99333878743602
30
0
41
1
10
3.71557875312334
20
-3.80442657661115
30
0
41
1
10
3.82465501392039
20
-3.62383198332785
30
0
41
1
10
3.90026389106987
20
-3.5136098921399
30
0
41
1
10
3.91575779978788
20
-3.49169804788534
30
0
41
1
10
3.9474873093294
20
-3.4481411633501
30
0
41
1
10
3.96371955187919
20
-3.4265031916938
30
0
41
1
10
4.01321371732337
20
-3.36238010718802
30
0
41
1
10
4.04736898627306
20
-3.32055077636576
30
0
41
1
10
4.15312208996178
20
-3.19769359805838
30
0
41
1
10
4.22800029363893
20
-3.11929168938332
30
0
41
1
10
4.38568978986166
20
-2.96895090114026
30
0
41
1
10
4.46850304655118
20
-2.89701335076171
30
0
41
1
10
4.5982113572623
20
-2.79365527786015
30
0
41
1
10
4.64214643296282
20
-2.76013638686484
30
0
41
1
10
4.73110132335017
20
-2.69501485370051
30
0
41
1
10
4.77615737438344
20
-2.66338344804069
30
0
41
1
10
4.91294880331023
20
-2.57110949010956
30
0
41
1
10
5.00630328573064
20
-2.51308093922154
30
0
41
1
10
5.29212821264545
20
-2.34838649710184
30
0
41
1
10
5.49032200697002
20
-2.25105438038878
30
0
41
1
10
5.7460352323437
20
-2.1426207652828
30
0
41
1
10
5.79757962636509
20
-2.12160043502357
30
0
41
1
10
5.90144371921883
20
-2.08085102003628
30
0
41
1
10
5.95370298611829
20
-2.06114754337855
30
0
41
1
10
6.11082595126931
20
-2.00418063979342
30
0
41
1
10
6.21626805039279
20
-1.9689639702037
30
0
41
1
10
6.32233964951911
20
-1.93626628598003
30
0
0
SPLINE
5
E0
100
AcDbEntity
8
1
62
256
6
ByLayer
370
18
48
1
60
0
100
AcDbSpline
70
4
71
3
72
39
73
35
40
0
40
0
40
0
40
0
40
0.0625
40
0.0625
40
0.125
40
0.125
40
0.1875
40
0.1875
40
0.218750000000002
40
0.218750000000002
40
0.234375000000001
40
0.234375000000001
40
0.25
40
0.25
40
0.3125
40
0.3125
40
0.375
40
0.375
40
0.500000000000005
40
0.500000000000005
40
0.531250000000004
40
0.531250000000004
40
0.562500000000003
40
0.562500000000003
40
0.625000000000001
40
0.625000000000001
40
0.75
40
0.75
40
0.875
40
0.875
40
0.937500000000002
40
0.968750000000001
40
0.968750000000001
40
1
40
1
40
1
40
1
41
1
10
6.32233964951911
20
-1.93626628597994
30
0
41
1
10
6.42636541446026
20
-1.9041992516259
30
0
41
1
10
6.5312273297321
20
-1.87914517959925
30
0
41
1
10
6.74229368326328
20
-1.84034081743499
30
0
41
1
10
6.84850119996764
20
-1.8266157774257
30
0
41
1
10
7.06207454426789
20
-1.8089397881979
30
0
41
1
10
7.1694417306727
20
-1.80500000700101
30
0
41
1
10
7.3312775768039
20
-1.80571920215496
30
0
41
1
10
7.38535416868217
20
-1.8070675455138
30
0
41
1
10
7.46665878806056
20
-1.81069153266111
30
0
41
1
10
7.4938206480939
20
-1.81216855014381
30
0
41
1
10
7.54805806729712
20
-1.81563839306531
30
0
41
1
10
7.57511604414316
20
-1.81762940570076
30
0
41
1
10
7.71011231073231
20
-1.82882208643804
30
0
41
1
10
7.81717298610701
20
-1.841723260267
30
0
41
1
10
8.0296209168489
20
-1.87456190502988
30
0
41
1
10
8.13500718647862
20
-1.89450347328932
30
0
41
1
10
8.44885554185848
20
-1.96400400593953
30
0
41
1
10
8.65501932686456
20
-2.0231899457329
30
0
41
1
10
8.90928355250514
20
-2.11141023539338
30
0
41
1
10
8.95996332862427
20
-2.12977039488283
30
0
41
1
10
9.06098299289494
20
-2.167891761422
30
0
41
1
10
9.11133865347216
20
-2.18766198046393
30
0
41
1
10
9.26104256434894
20
-2.24866734284544
30
0
41
1
10
9.35932424270678
20
-2.29170245589057
30
0
41
1
10
9.64992058494462
20
-2.42732179634126
30
0
41
1
10
9.83799856591889
20
-2.52640120874
30
0
41
1
10
10.2040901452959
20
-2.73948153346365
30
0
41
1
10
10.3820955675839
20
-2.85349548743952
30
0
41
1
10
10.6422466757575
20
-3.03427342408392
30
0
41
1
10
10.770605576492
20
-3.12710533942655
30
0
41
1
10
10.8965072574142
20
-3.22335073037169
30
0
41
1
10
10.9799083253087
20
-3.28824562016067
30
0
41
1
10
11.0213715226631
20
-3.321083274324
30
0
41
1
10
11.062409236055
20
-3.3541378745845
30
0
0
SPLINE
5
E1
100
AcDbEntity
8
1
62
256
6
ByLayer
370
18
48
1
60
0
100
AcDbSpline
70
4
71
3
72
11
73
7
40
0
40
0
40
0
40
0
40
0.25
40
0.5
40
0.75
40
1
40
1
40
1
40
1
41
1
10
11.0623540920175
20
-3.35409345818002
30
0
41
1
10
11.4100521920111
20
-3.64902693805271
30
0
41
1
10
12.1054483919982
20
-4.22902437755329
30
0
41
1
10
13.1485426919788
20
-5.06174299861991
30
0
41
1
10
14.1916369919595
20
-5.84984436545184
30
0
41
1
10
14.8870331919466
20
-6.3408688325257
30
0
41
1
10
15.2347312919401
20
-6.57670532412862
30
0
0
SPLINE
5
E2
100
AcDbEntity
8
1
62
256
6
ByLayer
370
18
48
1
60
0
100
AcDbSpline
70
4
71
3
72
38
73
34
40
0
40
0
40
0
40
0
40
0.0625000000000011
40
0.0625000000000011
40
0.125000000000002
40
0.125000000000002
40
0.187500000000003
40
0.187500000000003
40
0.218750000000002
40
0.218750000000002
40
0.234375000000001
40
0.234375000000001
40
0.25
40
0.312500000000005
40
0.312500000000005
40
0.37500000000001
40
0.37500000000001
40
0.500000000000017
40
0.500000000000017
40
0.531250000000017
40
0.531250000000017
40
0.562500000000018
40
0.562500000000018
40
0.625000000000015
40
0.625000000000015
40
0.75000000000001
40
0.75000000000001
40
0.875000000000005
40
0.875000000000005
40
0.937500000000004
40
0.968750000000002
40
0.968750000000002
40
1
40
1
40
1
40
1
41
1
10
6.3223396495199
20
9.65178731126903
30
0
41
1
10
6.42636541446106
20
9.66033758035402
30
0
41
1
10
6.5312273297329
20
9.66686558551095
30
0
41
1
10
6.74229368326405
20
9.67689929560001
30
0
41
1
10
6.84850119996838
20
9.68039463266632
30
0
41
1
10
7.0620745442686
20
9.68488722824537
30
0
41
1
10
7.16944173067344
20
9.68588002721259
30
0
41
1
10
7.33127757680455
20
9.68569816150494
30
0
41
1
10
7.38535416868285
20
9.68535737444202
30
0
41
1
10
7.46665878806124
20
9.68443944107506
30
0
41
1
10
7.49382064809458
20
9.68406510158303
30
0
41
1
10
7.5480580672978
20
9.68318460353996
30
0
41
1
10
7.68334714188927
20
9.68065486088943
30
0
41
1
10
7.81717298610761
20
9.67653893695501
30
0
41
1
10
8.02962091684944
20
9.66805331932207
30
0
41
1
10
8.13500718647916
20
9.66285909202151
30
0
41
1
10
8.44885554185893
20
9.64446411176854
30
0
41
1
10
8.65501932686502
20
9.62847572906722
30
0
41
1
10
8.90928355250554
20
9.60347784730101
30
0
41
1
10
8.9599633286247
20
9.59822559341495
30
0
41
1
10
9.06098299289533
20
9.58719923970133
30
0
41
1
10
9.11133865347253
20
9.58142224894627
30
0
41
1
10
9.26104256434928
20
9.5633895434521
30
0
41
1
10
9.35932424270712
20
9.55040204568849
30
0
41
1
10
9.64992058494491
20
9.50842557550746
30
0
41
1
10
9.83799856591912
20
9.47642976389545
30
0
41
1
10
10.2040901452961
20
9.40355293824288
30
0
41
1
10
10.382095567584
20
9.36266786027915
30
0
41
1
10
10.6422466757576
20
9.29388303173735
30
0
41
1
10
10.7706055764922
20
9.25762468449543
30
0
41
1
10
10.8965072574143
20
9.21840953806336
30
0
41
1
10
10.9799083253088
20
9.19159113520215
30
0
41
1
10
11.0213715226631
20
9.17783367596581
30
0
41
1
10
11.062409236055
20
9.16378785166538
30
0
0
SPLINE
5
E3
100
AcDbEntity
8
1
62
256
6
ByLayer
370
18
48
1
60
0
100
AcDbSpline
70
4
71
3
72
20
73
16
40
0
40
0
40
0
40
0
40
0.125
40
0.125
40
0.25
40
0.25
40
0.375
40
0.375
40
0.5
40
0.5
40
0.75
40
0.75
40
0.875
40
0.875
40
1
40
1
40
1
40
1
41
1
10
15.2348171342782
20
7.05607727914096
30
0
41
1
10
15.2610538256576
20
7.13814200116272
30
0
41
1
10
15.2910854441421
20
7.21783494782059
30
0
41
1
10
15.3563335046482
20
7.37318762564894
30
0
41
1
10
15.3915682062823
20
7.44884200048716
30
0
41
1
10
15.4657317812392
20
7.59654805567413
30
0
41
1
10
15.5046693475604
20
7.6685971710429
30
0
41
1
10
15.5852189314972
20
7.80937375965391
30
0
41
1
10
15.6268587346751
20
7.87813616750364
30
0
41
1
10
15.7545369750412
20
8.07947447273827
30
0
41
1
10
15.8430411912237
20
8.20678336226376
30
0
41
1
10
15.9780091230911
20
8.38834633324305
30
0
41
1
10
16.0233847219501
20
8.44729235625019
30
0
41
1
10
16.1145898150564
20
8.56211904021521
30
0
41
1
10
16.1604360419621
20
8.61801830610327
30
0
41
1
10
16.2063486341024
20
8.67236703988928
30
0
0
SPLINE
5
E4
100
AcDbEntity
8
1
62
256
6
ByLayer
370
18
48
1
60
0
100
AcDbSpline
70
4
71
3
72
16
73
12
40
0
40
0
40
0
40
0
40
0.249999999999999
40
0.249999999999999
40
0.374999999999998
40
0.374999999999998
40
0.437499999999998
40
0.437499999999998
40
0.499999999999998
40
0.499999999999998
40
1
40
1
40
1
40
1
41
1
10
59.28318829091
20
-9.42436456562558
30
0
41
1
10
59.2718661190519
20
-9.48785268012037
30
0
41
1
10
59.2653333110467
20
-9.54688213754199
30
0
41
1
10
59.2628516266322
20
-9.62861407320332
30
0
41
1
10
59.2632445982782
20
-9.65472210707514
30
0
41
1
10
59.2656868701239
20
-9.69215928080536
30
0
41
1
10
59.2668102528278
20
-9.70434771432676
30
0
41
1
10
59.2696669622162
20
-9.72807303275292
30
0
41
1
10
59.2714008016786
20
-9.73961984603918
30
0
41
1
10
59.2897358173658
20
-9.84071809577782
30
0
41
1
10
59.3253955898928
20
-9.91056452354175
30
0
41
1
10
59.3797256817097
20
-9.96110738886102
30
0
0
SPLINE
5
E5
100
AcDbEntity
8
1
62
256
6
ByLayer
370
18
48
1
60
0
100
AcDbSpline
70
4
71
3
72
10
73
6
40
0
40
0
40
0
40
0
40
0.5
40
0.5
40
1
40
1
40
1
40
1
41
1
10
59.2831882909099
20
-9.42436456562558
30
0
41
1
10
59.1838272679338
20
-9.31371564396841
30
0
41
1
10
59.0851470588613
20
-9.18757637134814
30
0
41
1
10
58.8891593242126
20
-8.90406557745743
30
0
41
1
10
58.7918516269347
20
-8.74669796286867
30
0
41
1
10
58.6952573635837
20
-8.57309780387845
30
0
0
SPLINE
5
E6
100
AcDbEntity
8
1
62
256
6
ByLayer
370
18
48
1
60
0
100
AcDbSpline
70
4
71
3
72
8
73
4
40
0
40
0
40
0
40
0
40
1
40
1
40
1
40
1
41
1
10
59.0460516789651
20
-9.9876247401468
30
0
41
1
10
59.1572812023862
20
-9.97883870399428
30
0
41
1
10
59.2685058600673
20
-9.96999946522928
30
0
41
1
10
59.3797256817096
20
-9.96110738886102
30
0
0
SPLINE
5
E7
100
AcDbEntity
8
1
62
256
6
ByLayer
370
18
48
1
60
0
100
AcDbSpline
70
4
71
3
72
8
73
4
40
0
40
0
40
0
40
0
40
1
40
1
40
1
40
1
41
1
10
59.2831882909101
20
-1.75080890463727
30
0
41
1
10
59.2472589355423
20
-1.86618816381929
30
0
41
1
10
59.2114349874501
20
-1.98082996603583
30
0
41
1
10
59.1757164663488
20
-2.09473417335388
30
0
0
SPLINE
5
E8
100
AcDbEntity
8
1
62
256
6
ByLayer
370
18
48
1
60
0
100
AcDbSpline
70
4
71
3
72
36
73
32
40
0
40
0
40
0
40
0
40
0.0370482758711407
40
0.0743872492450955
40
0.112013391468755
40
0.149922974717361
40
0.188112028583165
40
0.226576324341222
40
0.2653114480974
40
0.352227059824721
40
0.442481657568659
40
0.535997671351765
40
0.632684583335745
40
0.650535392264376
40
0.668694716798626
40
0.687161321020485
40
0.705933909564493
40
0.725011126206677
40
0.744391552471083
40
0.764073706258446
40
0.784056040501794
40
0.8043369418536
40
0.824914729409496
40
0.845787653473375
40
0.866953894369042
40
0.888411561303504
40
0.910158691287177
40
0.932193248116374
40
0.954513121423463
40
0.977116125800209
40
1
40
1
40
1
40
1
41
1
10
16.8535042364152
20
8.10091747649065
30
0
41
1
10
16.8349005292917
20
8.09014020389372
30
0
41
1
10
16.7975471419575
20
8.06850109535222
30
0
41
1
10
16.7408498948149
20
8.03524106294671
30
0
41
1
10
16.683385817411
20
8.00122997062931
30
0
41
1
10
16.6251225258512
20
7.96641608916386
30
0
41
1
10
16.5660691016209
20
7.9308117015691
30
0
41
1
10
16.5062243116777
20
7.89441373688464
30
0
41
1
10
16.4205835516618
20
7.84189163865449
30
0
41
1
10
16.3068246547633
20
7.77119255439277
30
0
41
1
10
16.1624151751291
20
7.67976578694277
30
0
41
1
10
16.0109479893898
20
7.58210540931063
30
0
41
1
10
15.8972078410164
20
7.50744957676679
30
0
41
1
10
15.8241400225427
20
7.45901283928796
30
0
41
1
10
15.7940743662559
20
7.43902281208
30
0
41
1
10
15.7634311693815
20
7.4185854615443
30
0
41
1
10
15.7322103333093
20
7.39769680889833
30
0
41
1
10
15.7004120227211
20
7.37635286985994
30
0
41
1
10
15.6680363324355
20
7.3545497956749
30
0
41
1
10
15.635083379044
20
7.33228384852509
30
0
41
1
10
15.6015532758067
20
7.30955142264938
30
0
41
1
10
15.5674461399658
20
7.28634905386869
30
0
41
1
10
15.5327620898152
20
7.26267343043199
30
0
41
1
10
15.4975012497993
20
7.23852141231401
30
0
41
1
10
15.4616637335897
20
7.21389001624107
30
0
41
1
10
15.4252497088119
20
7.18877653346468
30
0
41
1
10
15.3882591514401
20
7.16317814275047
30
0
41
1
10
15.3506927817789
20
7.13709344665762
30
0
41
1
10
15.312548503086
20
7.11051668817845
30
0
41
1
10
15.2738349517444
20
7.08345981796609
30
0
41
1
10
15.2477849217123
20
7.06517795753811
30
0
41
1
10
15.234679480565
20
7.05598058442163
30
0
0
SPLINE
5
E9
100
AcDbEntity
8
1
62
256
6
ByLayer
370
18
48
1
60
0
100
AcDbSpline
70
4
71
3
72
58
73
54
40
0
40
0
40
0
40
0
40
0.0625000000000017
40
0.0625000000000017
40
0.0937500000000025
40
0.0937500000000025
40
0.109375000000003
40
0.109375000000003
40
0.125000000000003
40
0.125000000000003
40
0.187500000000007
40
0.187500000000007
40
0.218750000000009
40
0.218750000000009
40
0.226562500000009
40
0.226562500000009
40
0.23437500000001
40
0.250000000000009
40
0.250000000000009
40
0.3125
40
0.3125
40
0.320312499999999
40
0.320312499999999
40
0.328124999999998
40
0.328124999999998
40
0.343749999999996
40
0.343749999999996
40
0.374999999999992
40
0.374999999999992
40
0.406249999999988
40
0.406249999999988
40
0.437499999999984
40
0.437499999999984
40
0.453124999999985
40
0.453124999999985
40
0.468749999999986
40
0.499999999999982
40
0.499999999999982
40
0.562499999999979
40
0.562499999999979
40
0.624999999999977
40
0.624999999999977
40
0.656249999999979
40
0.656249999999979
40
0.687499999999981
40
0.687499999999981
40
0.749999999999985
40
0.749999999999985
40
0.812499999999989
40
0.812499999999989
40
0.874999999999992
40
0.874999999999992
40
1
40
1
40
1
40
1
41
1
10
59.1961727766753
20
-0.230451603973478
30
0
41
1
10
59.2313715978718
20
-0.237966225827449
30
0
41
1
10
59.2632174202798
20
-0.244864815696786
30
0
41
1
10
59.3014339591564
20
-0.253457673890011
30
0
41
1
10
59.3125715701905
20
-0.256027767180598
30
0
41
1
10
59.3262006007949
20
-0.25931750318594
30
0
41
1
10
59.3302297988136
20
-0.260319679841359
30
0
41
1
10
59.3371352423077
20
-0.262112202751524
30
0
41
1
10
59.3400145211906
20
-0.262903481902868
30
0
41
1
10
59.3511538482845
20
-0.26625702113131
30
0
41
1
10
59.34958170486
20
-0.266990560880458
30
0
41
1
10
59.3267945037674
20
-0.264292363117704
30
0
41
1
10
59.3157957888109
20
-0.262760223233244
30
0
41
1
10
59.2972136721482
20
-0.259946279714683
30
0
41
1
10
59.2932504327888
20
-0.259337730082621
30
0
41
1
10
59.2848906349313
20
-0.258038203847917
30
0
41
1
10
59.2716841458214
20
-0.255962787841327
30
0
41
1
10
59.2564878551969
20
-0.253510992266115
30
0
41
1
10
59.2014782782123
20
-0.244514521246032
30
0
41
1
10
59.1434937262234
20
-0.234673555109339
30
0
41
1
10
59.0639764437192
20
-0.220900462647222
30
0
41
1
10
59.0549433177458
20
-0.219332690626516
30
0
41
1
10
59.0364870409946
20
-0.21612337170518
30
0
41
1
10
59.0270590890546
20
-0.214480977042967
30
0
41
1
10
58.9983812406427
20
-0.209476655382474
30
0
41
1
10
58.9786811725769
20
-0.206027845639539
30
0
41
1
10
58.9179777174957
20
-0.195370981749591
30
0
41
1
10
58.8753754872136
20
-0.187853346380706
30
0
41
1
10
58.786537126648
20
-0.172114449949106
30
0
41
1
10
58.7402998173519
20
-0.163892960596286
30
0
41
1
10
58.6446941706099
20
-0.146843726392916
30
0
41
1
10
58.595337240435
20
-0.138018190312238
30
0
41
1
10
58.5191833764673
20
-0.124369690805594
30
0
41
1
10
58.4934103860752
20
-0.119745448687297
30
0
41
1
10
58.4414870302847
20
-0.110419664746047
30
0
41
1
10
58.3629511247685
20
-0.0962998673783204
30
0
41
1
10
58.2825943337155
20
-0.081813243315537
30
0
41
1
10
58.1197518236036
20
-0.0524111117656503
30
0
41
1
10
58.0083640760908
20
-0.0322403636643287
30
0
41
1
10
57.7811635835981
20
0.0089925708871874
30
0
41
1
10
57.6653445878299
20
0.0300560165906916
30
0
41
1
10
57.4889561069176
20
0.0621870531704189
30
0
41
1
10
57.4297158361942
20
0.0729868670100871
30
0
41
1
10
57.3104401969044
20
0.0947466712124196
30
0
41
1
10
57.250509325264
20
0.105687612798675
30
0
41
1
10
57.0705196893041
20
0.138566423335334
30
0
41
1
10
56.9500143557833
20
0.160605680212427
30
0
41
1
10
56.7081855679606
20
0.204875929728729
30
0
41
1
10
56.5868611218583
20
0.227107154807555
30
0
41
1
10
56.3435366658455
20
0.271727930905144
30
0
41
1
10
56.2215361122264
20
0.294117609348149
30
0
41
1
10
55.8546771447895
20
0.361487564069819
30
0
41
1
10
55.6089649721792
20
0.406667928277557
30
0
41
1
10
55.3624151379735
20
0.452044607856123
30
0
0
SPLINE
5
EA
100
AcDbEntity
8
1
62
256
6
ByLayer
370
18
48
1
60
0
100
AcDbSpline
70
4
71
3
72
10
73
6
40
0
40
0
40
0
40
0
40
0.5
40
0.5
40
1
40
1
40
1
40
1
41
1
10
59.28318829091
20
1.75080890463684
30
0
41
1
10
59.1835746369631
20
2.07069634706843
30
0
41
1
10
59.0847712151804
20
2.38491519262496
30
0
41
1
10
58.8887856762551
20
3.00200981094514
30
0
41
1
10
58.7916034217
20
3.30488654508329
30
0
41
1
10
58.6952573635837
20
3.60191302946677
30
0
0
SPLINE
5
EB
100
AcDbEntity
8
1
62
256
6
ByLayer
370
18
48
1
60
0
100
AcDbSpline
70
4
71
3
72
37
73
33
40
0
40
0
40
0
40
0
40
0.110381371133125
40
0.110381371133125
40
0.22076274226625
40
0.22076274226625
40
0.275953427832812
40
0.275953427832812
40
0.331144113399375
40
0.331144113399375
40
0.386334798965937
40
0.386334798965937
40
0.400132470357577
40
0.400132470357577
40
0.413930141749217
40
0.413930141749217
40
0.441525484532494
40
0.551906855665601
40
0.551906855665601
40
0.662288226798708
40
0.662288226798708
40
0.772669597931815
40
0.772669597931815
40
0.883050969064922
40
0.883050969064922
40
0.910646311848198
40
0.910646311848198
40
0.938241654631474
40
0.938241654631474
40
0.993432340198027
40
0.993432340198027
40
1
40
1
40
1
40
1
41
1
10
58.6952573635838
20
3.60191302946677
30
0
41
1
10
58.2585657753395
20
3.94973450089208
30
0
41
1
10
57.8238313537837
20
4.28764228332187
30
0
41
1
10
56.9555680011966
20
4.94139129827786
30
0
41
1
10
56.5220614727478
20
5.25723522149522
30
0
41
1
10
55.870907679557
20
5.71250696123025
30
0
41
1
10
55.6537063181999
20
5.86117779971408
30
0
41
1
10
55.2186572523275
20
6.15206373692715
30
0
41
1
10
55.0008111532898
20
6.29428066980881
30
0
41
1
10
54.5641771462442
20
6.57185498356009
30
0
41
1
10
54.3453916676442
20
6.70720417043987
30
0
41
1
10
54.0711099890003
20
6.87184636257047
30
0
41
1
10
54.0162134807808
20
6.90454800968155
30
0
41
1
10
53.9063344230624
20
6.96949234284327
30
0
41
1
10
53.8513220387439
20
7.00175229407509
30
0
41
1
10
53.6864128586985
20
7.09768161033304
30
0
41
1
10
53.1375871263157
20
7.41176996302107
30
0
41
1
10
52.5925259305283
20
7.69748121556322
30
0
41
1
10
51.7227752769507
20
8.11709287466314
30
0
41
1
10
51.2890453154138
20
8.30820558451285
30
0
41
1
10
50.4214075668573
20
8.65160630370823
30
0
41
1
10
49.9875388404025
20
8.80373376116344
30
0
41
1
10
49.1169310785434
20
9.06803667602168
30
0
41
1
10
48.6802066251473
20
9.18026085217846
30
0
41
1
10
48.1309486050963
20
9.2940131657769
30
0
41
1
10
48.0208567082644
20
9.31544558179928
30
0
41
1
10
47.801227124529
20
9.35544539743506
30
0
41
1
10
47.6915849640216
20
9.37403618203257
30
0
41
1
10
47.3631166777359
20
9.42558585141936
30
0
41
1
10
47.1447477738346
20
9.45432548856391
30
0
41
1
10
46.900896899084
20
9.48019508537536
30
0
41
1
10
46.8749713955997
20
9.48286543610519
30
0
41
1
10
46.8490521276465
20
9.48545569291505
30
0
0
SPLINE
5
EC
100
AcDbEntity
8
1
62
256
6
ByLayer
370
18
48
1
60
0
100
AcDbSpline
70
4
71
3
72
8
73
4
40
0
40
0
40
0
40
0
40
1
40
1
40
1
40
1
41
1
10
17.3309013973024
20
-7.87604709564502
30
0
41
1
10
17.1717811114108
20
-7.95347495546255
30
0
41
1
10
17.0126899649509
20
-8.02846657746341
30
0
41
1
10
16.8535774344572
20
-8.1009597565039
30
0
0
SPLINE
5
ED
100
AcDbEntity
8
1
62
256
6
ByLayer
370
18
48
1
60
0
100
AcDbSpline
70
4
71
3
72
8
73
4
40
0
40
0
40
0
40
0
40
1
40
1
40
1
40
1
41
1
10
59.0460516789651
20
-0.199153462553369
30
0
41
1
10
59.1572812023863
20
-0.219850905691914
30
0
41
1
10
59.2685058600673
20
-0.24054786125879
30
0
41
1
10
59.3797256817096
20
-0.261244351712861
30
0
0
SPLINE
5
EE
100
AcDbEntity
8
1
62
256
6
ByLayer
370
18
48
1
60
0
100
AcDbSpline
70
4
71
3
72
8
73
4
40
0
40
0
40
0
40
0
40
1
40
1
40
1
40
1
41
1
10
59.0457896352814
20
-0.199105434550347
30
0
41
1
10
59.1023880107314
20
-0.210734368579949
30
0
41
1
10
59.1535025678731
20
-0.221364759630461
30
0
41
1
10
59.196172804523
20
-0.230451618970363
30
0
0
SPLINE
5
EF
100
AcDbEntity
8
1
62
256
6
ByLayer
370
18
48
1
60
0
100
AcDbSpline
70
4
71
5
72
40
73
34
40
0
40
0
40
0
40
0
40
0
40
0
40
0.0179355587049833
40
0.0603402198018347
40
0.0886099938664024
40
0.131014654963254
40
0.173419316060105
40
0.201689090124673
40
0.244093751221524
40
0.272363525286092
40
0.314768186382944
40
0.343037960447511
40
0.385442621544363
40
0.427847282641214
40
0.456117056705782
40
0.484386830770349
40
0.526791491867201
40
0.569196152964052
40
0.59746592702862
40
0.639870588125471
40
0.682275249222323
40
0.710545023286879
40
0.738814797351458
40
0.78121945844831
40
0.823624119545161
40
0.851893893609729
40
0.89429855470658
40
0.922568328771148
40
0.964972989868
40
0.993242763932567
40
1
40
1
40
1
40
1
40
1
40
1
41
1
10
35.1869478205699
20
8.06818040613126
30
0
41
1
10
35.2638099690971
20
8.10372726578652
30
0
41
1
10
35.5223956654144
20
8.22169172140678
30
0
41
1
10
35.9021303935919
20
8.3868356123692
30
0
41
1
10
36.4635886695597
20
8.61303036259386
30
0
41
1
10
37.2067704933177
20
8.87616005708486
30
0
41
1
10
37.9942392004086
20
9.10783373237021
30
0
41
1
10
38.7817079074996
20
9.29548653584848
30
0
41
1
10
39.5691766145906
20
9.43371755113478
30
0
41
1
10
40.3566453216815
20
9.52633478506996
30
0
41
1
10
41.0835395128424
20
9.56935172531524
30
0
41
1
10
41.8710082199334
20
9.56970696930497
30
0
41
1
10
42.6584769270243
20
9.5238142304313
30
0
41
1
10
43.4459456341154
20
9.42729883210393
30
0
41
1
10
44.1728398252762
20
9.29614775117196
30
0
41
1
10
44.9603085323672
20
9.10922909877235
30
0
41
1
10
45.7477772394582
20
8.87830192557806
30
0
41
1
10
46.4746714306191
20
8.62542202091655
30
0
41
1
10
47.26214013771
20
8.30977956087824
30
0
41
1
10
48.1101833607311
20
7.92234851808158
30
0
41
1
10
48.897652067822
20
7.52043687888985
30
0
41
1
10
49.6245462589829
20
7.11588905048646
30
0
41
1
10
50.4120149660739
20
6.64347008076538
30
0
41
1
10
51.1994836731649
20
6.13895516881936
30
0
41
1
10
51.9263778643257
20
5.64562904860728
30
0
41
1
10
52.7138465714168
20
5.08390541422548
30
0
41
1
10
53.5013152785077
20
4.49524275592213
30
0
41
1
10
54.2887839855987
20
3.88500665568344
30
0
41
1
10
55.0156781767596
20
3.30424139167715
30
0
41
1
10
55.6503812119086
20
2.7843917781683
30
0
41
1
10
56.1033606992674
20
2.40778478171345
30
0
41
1
10
56.435191154766
20
2.12941287240966
30
0
41
1
10
56.5852980624744
20
2.00302739611959
30
0
41
1
10
56.6142559383226
20
1.9786289260407
30
0
0
SPLINE
5
F0
100
AcDbEntity
8
1
62
256
6
ByLayer
370
18
48
1
60
0
100
AcDbSpline
70
4
71
5
72
15
73
9
40
0
40
0
40
0
40
0
40
0
40
0
40
0.203018931041634
40
0.459118869743297
40
0.843268777795791
40
1
40
1
40
1
40
1
40
1
40
1
41
1
10
17.5999999487391
20
5.39877160896643
30
0
41
1
10
17.5039610856699
20
5.47156037949813
30
0
41
1
10
17.2867731907407
20
5.63502795529664
30
0
41
1
10
16.8878617480212
20
5.93042402252999
30
0
41
1
10
16.4148080156606
20
6.26964902769075
30
0
41
1
10
15.9417542833
20
6.59465333338093
30
0
41
1
10
15.5647394140084
20
6.84402381548932
30
0
41
1
10
15.3088735765771
20
7.0086332306773
30
0
41
1
10
15.2347312869359
20
7.05593905877862
30
0
0
SPLINE
5
F1
100
AcDbEntity
8
1
62
256
6
ByLayer
370
18
48
1
60
0
100
AcDbSpline
70
4
71
3
72
8
73
4
40
0
40
0
40
0
40
0
40
1
40
1
40
1
40
1
41
1
10
11.6443247708266
20
8.59172976722408
30
0
41
1
10
11.4500511839588
20
8.78165044424395
30
0
41
1
10
11.2560679820996
20
8.97234775862484
30
0
41
1
10
11.0623881246456
20
9.1638088242762
30
0
0
SPLINE
5
F2
100
AcDbEntity
8
1
62
256
6
ByLayer
370
18
48
1
60
0
100
AcDbSpline
70
4
71
5
72
23
73
17
40
0
40
0
40
0
40
0
40
0
40
0
40
0.240156713820459
40
0.300195892275574
40
0.390254659958246
40
0.450293838413361
40
0.540352606096033
40
0.600391784551147
40
0.690450552233819
40
0.780509319916492
40
0.840548498371606
40
0.930607266054278
40
0.990646444509393
40
1
40
1
40
1
40
1
40
1
40
1
41
1
10
11.6443247708261
20
8.5917297672236
30
0
41
1
10
12.1289208982667
20
8.40836937698711
30
0
41
1
10
12.7346660575674
20
8.15361069365437
30
0
41
1
10
13.5221347646584
20
7.78236826056158
30
0
41
1
10
14.4307525036095
20
7.29731901192039
30
0
41
1
10
15.5210937903509
20
6.64407855186761
30
0
41
1
10
16.2479879815118
20
6.17883788638892
30
0
41
1
10
17.0354566886027
20
5.6450983934665
30
0
41
1
10
17.8229253956937
20
5.08394546025193
30
0
41
1
10
18.6103941027847
20
4.49569605665141
30
0
41
1
10
19.3978628098757
20
3.88571761564899
30
0
41
1
10
20.1853315169666
20
3.25517390794917
30
0
41
1
10
20.8099505886242
20
2.74267614350953
30
0
41
1
10
21.2528461124915
20
2.37403106747601
30
0
41
1
10
21.5745926044987
20
2.10392393060835
30
0
41
1
10
21.7146155487156
20
1.98597754517533
30
0
41
1
10
21.7334894610724
20
1.97007225483043
30
0
0
SPLINE
5
F3
100
AcDbEntity
8
1
62
256
6
ByLayer
370
18
48
1
60
0
100
AcDbSpline
70
4
71
5
72
12
73
6
40
0
40
0
40
0
40
0
40
0
40
0
40
1
40
1
40
1
40
1
40
1
40
1
41
1
10
17.5999999487391
20
8.02033447685065
30
0
41
1
10
17.5461456886991
20
7.99137205741079
30
0
41
1
10
17.4922914286592
20
7.96217390655687
30
0
41
1
10
17.4384371686193
20
7.93274144305269
30
0
41
1
10
17.3845829085794
20
7.90307610875024
30
0
41
1
10
17.3307286485394
20
7.87317936816902
30
0
0
SPLINE
5
F4
100
AcDbEntity
8
1
62
256
6
ByLayer
370
18
48
1
60
0
100
AcDbSpline
70
4
71
5
72
40
73
34
40
0
40
0
40
0
40
0
40
0
40
0
40
0.0395608695338005
40
0.080331264123479
40
0.107511527183265
40
0.148281921772943
40
0.175462184832729
40
0.216232579422408
40
0.243412842482193
40
0.284183237071872
40
0.32495363166155
40
0.352133894721336
40
0.379314157781122
40
0.4200845523708
40
0.460854946960479
40
0.488035210020265
40
0.528805604609943
40
0.569575999199622
40
0.596756262259401
40
0.623936525319193
40
0.664706919908872
40
0.70547731449855
40
0.732657577558336
40
0.773427972148015
40
0.8006082352078
40
0.841378629797479
40
0.868558892857264
40
0.909329287446943
40
0.950099682036622
40
0.977279945096407
40
1
40
1
40
1
40
1
40
1
40
1
41
1
10
17.728732098075
20
7.68369979560552
30
0
41
1
10
17.9050644990169
20
7.77412644820473
30
0
41
1
10
18.2631204477491
20
7.95282813818449
30
0
41
1
10
18.7423254283414
20
8.17837123804821
30
0
41
1
10
19.403253956724
20
8.46336899794241
30
0
41
1
10
20.1853315169666
20
8.7562670182358
30
0
41
1
10
20.9728002240576
20
9.00880469928043
30
0
41
1
10
21.6996944152185
20
9.20178574065881
30
0
41
1
10
22.4871631223095
20
9.36633782813456
30
0
41
1
10
23.2746318294005
20
9.48566538961555
30
0
41
1
10
24.0621005364914
20
9.55459563525901
30
0
41
1
10
24.7889947276524
20
9.57559567506783
30
0
41
1
10
25.5764634347433
20
9.55207567749855
30
0
41
1
10
26.3639321418343
20
9.48240767810077
30
0
41
1
10
27.0908263329952
20
9.37576102862676
30
0
41
1
10
27.8782950400861
20
9.21491131664632
30
0
41
1
10
28.7263382631071
20
8.98897751235776
30
0
41
1
10
29.5138069701982
20
8.7313792693792
30
0
41
1
10
30.240701161359
20
8.45464118091201
30
0
41
1
10
31.02816986845
20
8.11414671960327
30
0
41
1
10
31.815638575541
20
7.73445118094622
30
0
41
1
10
32.5425327667018
20
7.34928179435354
30
0
41
1
10
33.3300014737928
20
6.89649369404381
30
0
41
1
10
34.1174701808839
20
6.40711959771824
30
0
41
1
10
34.9049388879748
20
5.88691014942219
30
0
41
1
10
35.6318330791357
20
5.380336465601
30
0
41
1
10
36.4193017862266
20
4.805688618723
30
0
41
1
10
37.2067704933177
20
4.20767387496167
30
0
41
1
10
37.9942392004086
20
3.58721475581055
30
0
41
1
10
38.7012531608731
20
3.0145805452764
30
0
41
1
10
39.2871180894775
20
2.5298733756652
30
0
41
1
10
39.6912594702916
20
2.19158547663812
30
0
41
1
10
39.9136773033154
20
2.00437647338973
30
0
41
1
10
40.0149461044792
20
1.91893912981624
30
0
0
SPLINE
5
F5
100
AcDbEntity
8
1
62
256
6
ByLayer
370
18
48
1
60
0
100
AcDbSpline
70
4
71
5
72
47
73
41
40
0
40
0
40
0
40
0
40
0
40
0
40
0.0304568992327704
40
0.0524270447209653
40
0.0853822629532577
40
0.107352408441453
40
0.140307626673745
40
0.16227777216194
40
0.195232990394232
40
0.228188208626525
40
0.25015835411472
40
0.272128499602915
40
0.305083717835207
40
0.338038936067499
40
0.360009081555694
40
0.392964299787987
40
0.425919518020279
40
0.447889663508469
40
0.469859808996669
40
0.502815027228962
40
0.535770245461254
40
0.557740390949449
40
0.590695609181741
40
0.612665754669936
40
0.645620972902229
40
0.667591118390423
40
0.700546336622716
40
0.733501554855008
40
0.755471700343203
40
0.788426918575495
40
0.81039706406369
40
0.843352282295983
40
0.865322427784178
40
0.89827764601647
40
0.931232864248763
40
0.953203009736957
40
0.975173155225152
40
1
40
1
40
1
40
1
40
1
40
1
41
1
10
21.1787793720983
20
5.58241107001581
30
0
41
1
10
21.3467265464807
20
5.55326566298362
30
0
41
1
10
21.6358227527232
20
5.50034939095087
30
0
41
1
10
22.106642506756
20
5.40653714912057
30
0
41
1
10
22.6986112926489
20
5.27321744367003
30
0
41
1
10
23.472303626332
20
5.07453375442427
30
0
41
1
10
24.1991978174929
20
4.86518408697239
30
0
41
1
10
24.9866665245839
20
4.61493827273353
30
0
41
1
10
25.7741352316749
20
4.34232766994162
30
0
41
1
10
26.5616039387658
20
4.04660154300356
30
0
41
1
10
27.2884981299267
20
3.75556964510821
30
0
41
1
10
28.0759668370177
20
3.42229865423974
30
0
41
1
10
28.8634355441086
20
3.07249384916756
30
0
41
1
10
29.5903297352696
20
2.73572894959366
30
0
41
1
10
30.3777984423605
20
2.35767771693125
30
0
41
1
10
31.2258416653815
20
1.93710886396138
30
0
41
1
10
32.0133103724725
20
1.53623205283685
30
0
41
1
10
32.7402045636334
20
1.15933801183161
30
0
41
1
10
33.5276732707243
20
0.745637966261967
30
0
41
1
10
34.3151419778154
20
0.328335593516641
30
0
41
1
10
35.0420361689762
20
-0.0585225874124831
30
0
41
1
10
35.8295048760672
20
-0.477336092542458
30
0
41
1
10
36.6169735831582
20
-0.893555774664378
30
0
41
1
10
37.4044422902492
20
-1.30535523706968
30
0
41
1
10
38.1313364814101
20
-1.67974866405564
30
0
41
1
10
38.918805188501
20
-2.07712541243402
30
0
41
1
10
39.706273895592
20
-2.46456223103616
30
0
41
1
10
40.493742602683
20
-2.8389535781921
30
0
41
1
10
41.281211309774
20
-3.19962341750093
30
0
41
1
10
42.0686800168649
20
-3.54324117338237
30
0
41
1
10
42.8561487239559
20
-3.86965454826665
30
0
41
1
10
43.5830429151168
20
-4.15377119193127
30
0
41
1
10
44.3705116222077
20
-4.4414188892919
30
0
41
1
10
45.1579803292987
20
-4.70767345288365
30
0
41
1
10
45.9454490363897
20
-4.94894447056825
30
0
41
1
10
46.6723432275506
20
-5.1495764372865
30
0
41
1
10
47.4149899931803
20
-5.33099354586383
30
0
41
1
10
47.9759132110198
20
-5.45099533183674
30
0
41
1
10
48.3551128810691
20
-5.52414233308198
30
0
41
1
10
48.6131635192582
20
-5.57017146884587
30
0
41
1
10
48.7500651255872
20
-5.59352855025676
30
0
0
SPLINE
5
F6
100
AcDbEntity
8
1
62
256
6
ByLayer
370
18
48
1
60
0
100
AcDbSpline
70
4
71
3
72
19
73
15
40
0
40
0
40
0
40
0
40
0.321517540396438
40
0.321517540396438
40
0.643035080792876
40
0.643035080792876
40
0.683224773342431
40
0.683224773342431
40
0.723414465891985
40
0.803793850991094
40
0.803793850991094
40
0.964552621189309
40
0.964552621189309
40
1
40
1
40
1
40
1
41
1
10
16.2063486341022
20
8.67236703988939
30
0
41
1
10
15.5873583242862
20
8.94986512336445
30
0
41
1
10
14.9709032688359
20
9.18588849907036
30
0
41
1
10
13.7353897723364
20
9.57184743167912
30
0
41
1
10
13.1163564815076
20
9.72179675477207
30
0
41
1
10
12.414048034433
20
9.83919694481844
30
0
41
1
10
12.3358886273467
20
9.85153334879874
30
0
41
1
10
12.1797394046084
20
9.87471602712986
30
0
41
1
10
11.9456844503276
20
9.90727149094477
30
0
41
1
10
11.7120647691382
20
9.9331868960854
30
0
41
1
10
11.245218568695
20
9.97619414958785
30
0
41
1
10
10.9345116359483
20
9.99310497446641
30
0
41
1
10
10.5553340054572
20
9.99942742258682
30
0
41
1
10
10.4868320467598
20
10.0000001160482
30
0
41
1
10
10.4183265525103
20
10.0000025348913
30
0
0
SPLINE
5
F7
100
AcDbEntity
8
1
62
256
6
ByLayer
370
18
48
1
60
0
100
AcDbSpline
70
4
71
3
72
10
73
6
40
0
40
0
40
0
40
0
40
0.5
40
0.5
40
1
40
1
40
1
40
1
41
1
10
16.2063486341024
20
8.67236703988931
30
0
41
1
10
16.3100811652019
20
8.57209944289858
30
0
41
1
10
16.4160872305043
20
8.47452979825582
30
0
41
1
10
16.6320756920599
20
8.28425870041301
30
0
41
1
10
16.7420614053488
20
8.19156006715434
30
0
41
1
10
16.8538121468161
20
8.10108938295375
30
0
0
SPLINE
5
F8
100
AcDbEntity
8
1
62
256
6
ByLayer
370
18
48
1
60
0
100
AcDbSpline
70
4
71
3
72
126
73
122
40
0
40
0
40
0
40
0
40
0.0020329006528038
40
0.0020329006528038
40
0.0389946450730675
40
0.0389946450730675
40
0.0759563894933313
40
0.0759563894933313
40
0.112918133913595
40
0.112918133913595
40
0.122158570018661
40
0.122158570018661
40
0.131399006123727
40
0.131399006123727
40
0.149879878333859
40
0.149879878333859
40
0.16836075054399
40
0.16836075054399
40
0.186841622754122
40
0.186841622754122
40
0.205322494964253
40
0.205322494964253
40
0.223803367174385
40
0.223803367174385
40
0.260765111594647
40
0.260765111594647
40
0.279245983804778
40
0.279245983804778
40
0.283866201857311
40
0.283866201857311
40
0.288486419909844
40
0.297726856014909
40
0.297726856014909
40
0.316207728225041
40
0.316207728225041
40
0.334688600435172
40
0.334688600435172
40
0.353169472645303
40
0.353169472645303
40
0.371650344855434
40
0.371650344855434
40
0.390131217065565
40
0.390131217065565
40
0.408612089275697
40
0.408612089275697
40
0.427092961485828
40
0.427092961485828
40
0.436333397590893
40
0.436333397590893
40
0.440953615643426
40
0.440953615643426
40
0.445573833695959
40
0.445573833695959
40
0.464054705906094
40
0.464054705906094
40
0.482535578116228
40
0.482535578116228
40
0.491776014221295
40
0.491776014221295
40
0.501016450326361
40
0.501016450326361
40
0.519497322536496
40
0.519497322536496
40
0.53797819474663
40
0.53797819474663
40
0.556459066956764
40
0.556459066956764
40
0.574939939166898
40
0.574939939166898
40
0.593420811377032
40
0.593420811377032
40
0.602661247482099
40
0.602661247482099
40
0.611901683587165
40
0.611901683587165
40
0.6303825557973
40
0.6303825557973
40
0.648863428007435
40
0.648863428007435
40
0.667344300217569
40
0.667344300217569
40
0.685825172427704
40
0.685825172427704
40
0.704306044637839
40
0.704306044637839
40
0.741267789058109
40
0.741267789058109
40
0.759748661268244
40
0.759748661268244
40
0.768989097373312
40
0.768989097373312
40
0.773609315425845
40
0.773609315425845
40
0.778229533478379
40
0.796710405688514
40
0.796710405688514
40
0.815191277898649
40
0.815191277898649
40
0.833672150108783
40
0.833672150108783
40
0.852153022318918
40
0.852153022318918
40
0.870633894529053
40
0.870633894529053
40
0.889114766739188
40
0.889114766739188
40
0.898355202844255
40
0.898355202844255
40
0.907595638949323
40
0.907595638949323
40
0.926076511159458
40
0.926076511159458
40
0.930696729211992
40
0.930696729211992
40
0.935316947264526
40
0.935316947264526
40
0.944557383369594
40
0.944557383369594
40
0.963038255579729
40
0.963038255579729
40
1
40
1
40
1
40
1
41
1
10
52.2294160552226
20
-7.87249882658767
30
0
41
1
10
52.205490550757
20
-7.88415159153612
30
0
41
1
10
52.1815688021248
20
-7.89574769775473
30
0
41
1
10
51.7227752769506
20
-8.11709287466354
30
0
41
1
10
51.2890453154137
20
-8.30820558451325
30
0
41
1
10
50.4214075668571
20
-8.65160630370858
30
0
41
1
10
49.9875388404025
20
-8.80373376116384
30
0
41
1
10
49.1169310785433
20
-9.06803667602202
30
0
41
1
10
48.6802066251471
20
-9.18026085217883
30
0
41
1
10
48.1309486050962
20
-9.29401316577724
30
0
41
1
10
48.0208567082643
20
-9.31544558179962
30
0
41
1
10
47.801227124529
20
-9.3554453974354
30
0
41
1
10
47.6915849640214
20
-9.37403618203291
30
0
41
1
10
47.3631166777358
20
-9.4255858514197
30
0
41
1
10
47.1447477738345
20
-9.45432548856425
30
0
41
1
10
46.708910418634
20
-9.50056250397756
30
0
41
1
10
46.491464428755
20
-9.5179794965174
30
0
41
1
10
46.0569740874728
20
-9.5421753218582
30
0
41
1
10
45.8399153253346
20
-9.54902405835205
30
0
41
1
10
45.4060004753137
20
-9.55183726702069
30
0
41
1
10
45.1891407001388
20
-9.54781342018518
30
0
41
1
10
44.755372324144
20
-9.52860270452149
30
0
41
1
10
44.5384809445188
20
-9.51331688019985
30
0
41
1
10
43.8870441623391
20
-9.45160460005445
30
0
41
1
10
43.45177956773
20
-9.38938734733529
30
0
41
1
10
42.7958654240388
20
-9.26184822202828
30
0
41
1
10
42.5767197523284
20
-9.21356074301622
30
0
41
1
10
42.3018589139726
20
-9.14658455992841
30
0
41
1
10
42.2468527763981
20
-9.13285768623592
30
0
41
1
10
42.1369765006236
20
-9.10478634442836
30
0
41
1
10
41.9722818410994
20
-9.06173401149636
30
0
41
1
10
41.8079406598298
20
-9.01581890467995
30
0
41
1
10
41.4796863521958
20
-8.92016905348029
30
0
41
1
10
41.2614199315184
20
-8.85131511579192
30
0
41
1
10
40.825773065042
20
-8.70342294656461
30
0
41
1
10
40.6083938291727
20
-8.62436347041452
30
0
41
1
10
40.1739270896496
20
-8.45720655135307
30
0
41
1
10
39.9568849187528
20
-8.36897352194742
30
0
41
1
10
39.5229997873689
20
-8.18295128674546
30
0
41
1
10
39.3061482410404
20
-8.08519201531419
30
0
41
1
10
38.872356070502
20
-7.88011901374807
30
0
41
1
10
38.6554004043371
20
-7.77284894269144
30
0
41
1
10
38.2208897179434
20
-7.54982855284112
30
0
41
1
10
38.0033735193225
20
-7.43391585442234
30
0
41
1
10
37.5675759396541
20
-7.1930401250616
30
0
41
1
10
37.3492893575397
20
-7.06810230710002
30
0
41
1
10
37.0210383091469
20
-6.87390438267053
30
0
41
1
10
36.911482161232
20
-6.80805081736014
30
0
41
1
10
36.746894007458
20
-6.70770228926472
30
0
41
1
10
36.6919888670132
20
-6.67399275986401
30
0
41
1
10
36.5820882213946
20
-6.60606134235888
30
0
41
1
10
36.5270673669756
20
-6.57182132607488
30
0
41
1
10
36.2522537884781
20
-6.39963796500285
30
0
41
1
10
36.0330784794628
20
-6.25854925993602
30
0
41
1
10
35.5958525241473
20
-5.96982423417967
30
0
41
1
10
35.377798984009
20
-5.82219308014618
30
0
41
1
10
35.0513194724111
20
-5.5960827429079
30
0
41
1
10
34.9425868848261
20
-5.51995028936329
30
0
41
1
10
34.7252333689143
20
-5.36629994467617
30
0
41
1
10
34.6166108990828
20
-5.28878693328039
30
0
41
1
10
34.2908855189562
20
-5.05415591219622
30
0
41
1
10
34.0739362306189
20
-4.89491555200308
30
0
41
1
10
33.6401764890565
20
-4.57097639324371
30
0
41
1
10
33.423367927076
20
-4.40626992977491
30
0
41
1
10
32.9895586113591
20
-4.07173447727737
30
0
41
1
10
32.772523667194
20
-3.90201335455274
30
0
41
1
10
32.3378724889766
20
-3.55803414746492
30
0
41
1
10
32.1202740085639
20
-3.38371914233693
30
0
41
1
10
31.6842573387398
20
-3.03054423010849
30
0
41
1
10
31.4658320795867
20
-2.85170521226229
30
0
41
1
10
31.1372937471168
20
-2.58039416868226
30
0
41
1
10
31.0276312523423
20
-2.48944704692985
30
0
41
1
10
30.807962382711
20
-2.3065816760986
30
0
41
1
10
30.697889748798
20
-2.21460718342814
30
0
41
1
10
30.36847544091
20
-1.93845238051628
30
0
41
1
10
30.1495163052631
20
-1.75369006866552
30
0
41
1
10
29.7126895369767
20
-1.38309844877932
30
0
41
1
10
29.4947981065915
20
-1.19729602258141
30
0
41
1
10
29.0596546171067
20
-0.825147923567016
30
0
41
1
10
28.8424020771423
20
-0.638802700269963
30
0
41
1
10
28.4082261576664
20
-0.265932592042674
30
0
41
1
10
28.1913144378397
20
-0.0793946507756687
30
0
41
1
10
27.7576052937887
20
0.293600907740569
30
0
41
1
10
27.5407872568304
20
0.48003561124392
30
0
41
1
10
26.8898692592412
20
1.03848420516744
30
0
41
1
10
26.4552990319906
20
1.40963853604214
30
0
41
1
10
25.8008412302228
20
1.9626622549672
30
0
41
1
10
25.5822382168022
20
2.14636701288288
30
0
41
1
10
25.2533754126199
20
2.42064052908148
30
0
41
1
10
25.1435944779437
20
2.51185086844109
30
0
41
1
10
24.9786554226015
20
2.64831189482732
30
0
41
1
10
24.9236612437993
20
2.69371484722208
30
0
41
1
10
24.8138081143829
20
2.78420893326836
30
0
41
1
10
24.5393900427347
20
3.00976642373524
30
0
41
1
10
24.2660029504355
20
3.23186913583197
30
0
41
1
10
23.8295643787879
20
3.58250569174192
30
0
41
1
10
23.6118266289735
20
3.75546241268503
30
0
41
1
10
23.1769244167883
20
4.09639992426486
30
0
41
1
10
22.9597584662596
20
4.2643859138679
30
0
41
1
10
22.5257498126376
20
4.59505041824244
30
0
41
1
10
22.3089348818476
20
4.75770217993039
30
0
41
1
10
21.8753123679378
20
5.07735077872482
30
0
41
1
10
21.6584666503273
20
5.23439099808354
30
0
41
1
10
21.2244129314751
20
5.54259630342966
30
0
41
1
10
21.0072091542929
20
5.69375952399889
30
0
41
1
10
20.6809457328762
20
5.91576841839216
30
0
41
1
10
20.5721162597966
20
5.98897896189959
30
0
41
1
10
20.354277224403
20
6.13373740383665
30
0
41
1
10
20.2452658893832
20
6.2052871493045
30
0
41
1
10
19.9178570279776
20
6.41745363075049
30
0
41
1
10
19.6990734384495
20
6.55562329105848
30
0
41
1
10
19.4247654545255
20
6.72399792668446
30
0
41
1
10
19.3698625652863
20
6.75745528437554
30
0
41
1
10
19.2599694661056
20
6.82392709035994
30
0
41
1
10
19.2049571886471
20
6.85695453345335
30
0
41
1
10
19.0400645691003
20
6.95519286267009
30
0
41
1
10
18.9302630455774
20
7.01960126646716
30
0
41
1
10
18.60120439412
20
7.20949318213721
30
0
41
1
10
18.3823273477107
20
7.33157308981353
30
0
41
1
10
17.7264615126525
20
7.68438712760573
30
0
41
1
10
17.2900999491446
20
7.90207595574816
30
0
41
1
10
16.8535774344572
20
8.10095975650381
30
0
0
SPLINE
5
F9
100
AcDbEntity
8
1
62
256
6
ByLayer
370
18
48
1
60
0
100
AcDbSpline
70
4
71
3
72
18
73
14
40
0
40
0
40
0
40
0
40
0.125
40
0.125
40
0.249999999999999
40
0.249999999999999
40
0.499999999999999
40
0.499999999999999
40
0.749999999999999
40
0.749999999999999
40
0.875
40
0.875
40
1
40
1
40
1
40
1
41
1
10
58.3233917076474
20
-5.50776609602516
30
0
41
1
10
58.3408004193998
20
-5.63409179693141
30
0
41
1
10
58.3580969208879
20
-5.76053674890812
30
0
41
1
10
58.3922759351627
20
-6.01374574473763
30
0
41
1
10
58.4091455961926
20
-6.1405196613776
30
0
41
1
10
58.4589011663555
20
-6.5214990719297
30
0
41
1
10
58.4910237011771
20
-6.77629284054052
30
0
41
1
10
58.5533253810251
20
-7.28737800091938
30
0
41
1
10
58.5835283670198
20
-7.54374590403663
30
0
41
1
10
58.6270135876584
20
-7.92902151648272
30
0
41
1
10
58.6412021775202
20
-8.05758797360107
30
0
41
1
10
58.668843087657
20
-8.31506022161304
30
0
41
1
10
58.6822984496094
20
-8.44396461065062
30
0
41
1
10
58.6952573635836
20
-8.57309780387845
30
0
0
SPLINE
5
FA
100
AcDbEntity
8
1
62
256
6
ByLayer
370
18
48
1
60
0
100
AcDbSpline
70
4
71
3
72
24
73
20
40
0
40
0
40
0
40
0
40
0.249999999999999
40
0.249999999999999
40
0.312500000000001
40
0.312500000000001
40
0.343750000000002
40
0.343750000000002
40
0.375000000000002
40
0.500000000000002
40
0.500000000000002
40
0.750000000000001
40
0.750000000000001
40
0.875000000000001
40
0.875000000000001
40
0.906250000000001
40
0.906250000000001
40
0.9375
40
1
40
1
40
1
40
1
41
1
10
53.8593304887488
20
-1.06936827538004
30
0
41
1
10
54.1757696279055
20
-1.50738118774814
30
0
41
1
10
54.5101877877183
20
-1.93160565676584
30
0
41
1
10
54.9509567319619
20
-2.44444172759921
30
0
41
1
10
55.0402465980058
20
-2.54613766316024
30
0
41
1
10
55.1758860105818
20
-2.69737426688471
30
0
41
1
10
55.2214001550309
20
-2.74758704993053
30
0
41
1
10
55.3129249443399
20
-2.84749876257172
30
0
41
1
10
55.5424808948338
20
-3.0954511309896
30
0
41
1
10
55.7756864167206
20
-3.33444159855136
30
0
41
1
10
56.341948869494
20
-3.89188736855778
30
0
41
1
10
56.728194998646
20
-4.24206124122131
30
0
41
1
10
57.3192484633215
20
-4.73863011175618
30
0
41
1
10
57.5182194471963
20
-4.89935687607576
30
0
41
1
10
57.7692625309581
20
-5.09454536147635
30
0
41
1
10
57.8196235910515
20
-5.13332428105781
30
0
41
1
10
57.9203937933773
20
-5.21017734086649
30
0
41
1
10
58.0715396652975
20
-5.32433924161143
30
0
41
1
10
58.2226579286576
20
-5.435229387243
30
0
41
1
10
58.3233917076474
20
-5.50776609602516
30
0
0
SPLINE
5
FB
100
AcDbEntity
8
1
62
256
6
ByLayer
370
18
48
1
60
0
100
AcDbSpline
70
4
71
3
72
23
73
19
40
0
40
0
40
0
40
0
40
0.250000000000014
40
0.250000000000014
40
0.312500000000012
40
0.312500000000012
40
0.375000000000011
40
0.500000000000009
40
0.500000000000009
40
0.625000000000007
40
0.625000000000007
40
0.750000000000004
40
0.750000000000004
40
0.875000000000002
40
0.875000000000002
40
0.937500000000001
40
0.937500000000001
40
1
40
1
40
1
40
1
41
1
10
53.8593304887488
20
-1.06936827538004
30
0
41
1
10
53.8206520015544
20
-1.01582977547389
30
0
41
1
10
53.7882013088163
20
-0.95921644598937
30
0
41
1
10
53.7572408831217
20
-0.883677133065987
30
0
41
1
10
53.7515267604419
20
-0.8683082347587
30
0
41
1
10
53.7411622609177
20
-0.837138403151926
30
0
41
1
10
53.7273595794027
20
-0.790189065203919
30
0
41
1
10
53.7187670948202
20
-0.742649028552563
30
0
41
1
10
53.7119816535249
20
-0.678713566405662
30
0
41
1
10
53.7109263151475
20
-0.646416161677763
30
0
41
1
10
53.7136122824767
20
-0.581462976286474
30
0
41
1
10
53.7173133983314
20
-0.549503712673356
30
0
41
1
10
53.7290059492685
20
-0.486499639454081
30
0
41
1
10
53.7369987199512
20
-0.455455174048637
30
0
41
1
10
53.7520036934117
20
-0.409512226932435
30
0
41
1
10
53.7575200144119
20
-0.394277902931435
30
0
41
1
10
53.7694488754373
20
-0.364221133021601
30
0
41
1
10
53.7758662050097
20
-0.349378605997543
30
0
41
1
10
53.7827148423267
20
-0.334711538528182
30
0
0
SPLINE
5
FC
100
AcDbEntity
8
1
62
256
6
ByLayer
370
18
48
1
60
0
100
AcDbSpline
70
4
71
5
72
31
73
25
40
0
40
0
40
0
40
0
40
0
40
0
40
0.0113818297868748
40
0.0746514415913668
40
0.137921053395859
40
0.180100794598853
40
0.243370406403345
40
0.28555014760634
40
0.348819759410832
40
0.390999500613826
40
0.454269112418318
40
0.51753872422281
40
0.559718465425805
40
0.601898206628799
40
0.665167818433291
40
0.728437430237783
40
0.770617171440777
40
0.833886783245269
40
0.897156395049761
40
0.939336136252738
40
0.98151587745575
40
1
40
1
40
1
40
1
40
1
40
1
41
1
10
39.4216698945749
20
5.57856897180076
30
0
41
1
10
39.4543608884063
20
5.572863153925
30
0
41
1
10
39.6687754300279
20
5.53504341807249
30
0
41
1
10
40.0649135194398
20
5.46037651783718
30
0
41
1
10
40.5822006407117
20
5.35144187935762
30
0
41
1
10
41.281211309774
20
5.18455420916894
30
0
41
1
10
42.068680016865
20
4.9690223570372
30
0
41
1
10
42.8561487239559
20
4.72953567606658
30
0
41
1
10
43.5830429151168
20
4.4873178649176
30
0
41
1
10
44.3705116222078
20
4.20329938626142
30
0
41
1
10
45.1579803292987
20
3.89889711432704
30
0
41
1
10
45.9454490363898
20
3.57373167905709
30
0
41
1
10
46.6723432275506
20
3.25763474640132
30
0
41
1
10
47.4598119346416
20
2.89962890805012
30
0
41
1
10
48.2472806417326
20
2.52761437832925
30
0
41
1
10
48.9741748328935
20
2.17276900577389
30
0
41
1
10
49.7616435399843
20
1.77785154692015
30
0
41
1
10
50.6096867630055
20
1.34243975499405
30
0
41
1
10
51.3971554700964
20
0.930938828578945
30
0
41
1
10
52.1240496612572
20
0.546938430836974
30
0
41
1
10
52.7828850834936
20
0.196853812177693
30
0
41
1
10
53.2599969579396
20
-0.0569648408959154
30
0
41
1
10
53.5553852845955
20
-0.213990410496905
30
0
41
1
10
53.7296245793912
20
-0.306525803860751
30
0
41
1
10
53.7827148423267
20
-0.334711538528182
30
0
0
SPLINE
5
FD
100
AcDbEntity
8
1
62
256
6
ByLayer
370
18
48
1
60
0
100
AcDbSpline
70
4
71
3
72
96
73
92
40
0
40
0
40
0
40
0
40
0.045854731815576
40
0.045854731815576
40
0.0917094636311519
40
0.0917094636311519
40
0.11463682953894
40
0.11463682953894
40
0.137564195446728
40
0.137564195446728
40
0.160491561354516
40
0.160491561354516
40
0.166223402831463
40
0.166223402831463
40
0.171955244308409
40
0.171955244308409
40
0.183418927262301
40
0.229273659077872
40
0.229273659077872
40
0.275128390893442
40
0.275128390893442
40
0.320983122709013
40
0.320983122709013
40
0.366837854524583
40
0.366837854524583
40
0.378301537478476
40
0.378301537478476
40
0.389765220432369
40
0.389765220432369
40
0.412692586340154
40
0.412692586340154
40
0.43561995224794
40
0.43561995224794
40
0.458547318155726
40
0.458547318155726
40
0.481474684063511
40
0.481474684063511
40
0.504402049971297
40
0.504402049971297
40
0.550256781786868
40
0.550256781786868
40
0.573184147694654
40
0.573184147694654
40
0.5789159891716
40
0.5789159891716
40
0.584647830648546
40
0.596111513602439
40
0.596111513602439
40
0.619038879510224
40
0.619038879510224
40
0.641966245418008
40
0.641966245418008
40
0.664893611325793
40
0.664893611325793
40
0.687820977233578
40
0.687820977233578
40
0.710748343141362
40
0.710748343141362
40
0.733675709049147
40
0.733675709049147
40
0.756603074956932
40
0.756603074956932
40
0.768066757910824
40
0.768066757910824
40
0.773798599387771
40
0.773798599387771
40
0.779530440864718
40
0.779530440864718
40
0.802457806772507
40
0.802457806772507
40
0.825385172680296
40
0.825385172680296
40
0.83684885563419
40
0.83684885563419
40
0.848312538588085
40
0.848312538588085
40
0.871239904495874
40
0.871239904495874
40
0.894167270403663
40
0.894167270403663
40
0.917094636311451
40
0.917094636311451
40
0.94002200221924
40
0.94002200221924
40
0.962949368127029
40
0.962949368127029
40
0.974413051080923
40
0.974413051080923
40
0.985876734034817
40
0.985876734034817
40
1
40
1
40
1
40
1
41
1
10
58.6952573635837
20
-8.57309780387848
30
0
41
1
10
58.2585657753394
20
-8.40753324877514
30
0
41
1
10
57.8238313537836
20
-8.22273241834483
30
0
41
1
10
56.9555680011965
20
-7.81722730552914
30
0
41
1
10
56.5220614727478
20
-7.59647792116328
30
0
41
1
10
55.8709076795569
20
-7.23944150481799
30
0
41
1
10
55.6537063181998
20
-7.11610694462019
30
0
41
1
10
55.2186572523274
20
-6.86112610969931
30
0
41
1
10
55.0008111532898
20
-6.72947907652221
30
0
41
1
10
54.5641771462442
20
-6.4579130096667
30
0
41
1
10
54.3453916676442
20
-6.31797629538522
30
0
41
1
10
54.0711099890003
20
-6.13796137864591
30
0
41
1
10
54.0162134807808
20
-6.10170472913003
30
0
41
1
10
53.9063344230622
20
-6.02868849071797
30
0
41
1
10
53.8513220387438
20
-5.99190876051964
30
0
41
1
10
53.6864128586984
20
-5.88100064964598
30
0
41
1
10
53.1375871263156
20
-5.50753434046337
30
0
41
1
10
52.5925259305282
20
-5.11599447176587
30
0
41
1
10
51.7227752769506
20
-4.46912555969536
30
0
41
1
10
51.2890453154137
20
-4.13555836544748
30
0
41
1
10
50.4214075668573
20
-3.45077566364122
30
0
41
1
10
49.9875388404026
20
-3.09943430103257
30
0
41
1
10
49.1169310785434
20
-2.38216127805222
30
0
41
1
10
48.6802066251472
20
-2.016232685902
30
0
41
1
10
48.1309486050963
20
-1.55105603911221
30
0
41
1
10
48.0208567082644
20
-1.45757098410977
30
0
41
1
10
47.801227124529
20
-1.27065594563655
30
0
41
1
10
47.6915849640216
20
-1.17713773162239
30
0
41
1
10
47.3631166777359
20
-0.896470598475389
30
0
41
1
10
47.1447477738345
20
-0.709209984497789
30
0
41
1
10
46.7089104186341
20
-0.334764154221091
30
0
41
1
10
46.4914644287551
20
-0.147560671891114
30
0
41
1
10
46.056974087473
20
0.226246304571816
30
0
41
1
10
45.8399153253347
20
0.412839925652492
30
0
41
1
10
45.4060004753138
20
0.785168881652766
30
0
41
1
10
45.1891407001389
20
0.970901065402302
30
0
41
1
10
44.7553723241441
20
1.34118390219564
30
0
41
1
10
44.5384809445189
20
1.52574480096104
30
0
41
1
10
43.8870441623394
20
2.07693569082505
30
0
41
1
10
43.4517795677302
20
2.44113131817647
30
0
41
1
10
42.7958654240389
20
2.98043797259712
30
0
41
1
10
42.5767197523285
20
3.15902954567997
30
0
41
1
10
42.3018589139726
20
3.38051261264081
30
0
41
1
10
42.2468527763982
20
3.42471217238804
30
0
41
1
10
42.1369765006238
20
3.51274605046734
30
0
41
1
10
41.9722818410996
20
3.64431681691045
30
0
41
1
10
41.8079406598299
20
3.77442117655195
30
0
41
1
10
41.479686352196
20
4.03261337133861
30
0
41
1
10
41.2614199315186
20
4.20205522498023
30
0
41
1
10
40.8257730650422
20
4.53521076140402
30
0
41
1
10
40.6083938291729
20
4.69891161652851
30
0
41
1
10
40.1739270896497
20
5.02054914767649
30
0
41
1
10
39.956884918753
20
5.17845573109352
30
0
41
1
10
39.5229997873691
20
5.48802382475492
30
0
41
1
10
39.3061482410406
20
5.63969393710079
30
0
41
1
10
38.8723560705022
20
5.93639339870978
30
0
41
1
10
38.6554004043373
20
6.08143182561906
30
0
41
1
10
38.2208897179436
20
6.36489829928971
30
0
41
1
10
38.0033735193227
20
6.50326901159153
30
0
41
1
10
37.5675759396542
20
6.77278285743981
30
0
41
1
10
37.3492893575399
20
6.90393603164515
30
0
41
1
10
37.0210383091471
20
7.09490233586053
30
0
41
1
10
36.9114821612321
20
7.157601535552
30
0
41
1
10
36.7468940074582
20
7.25023094233268
30
0
41
1
10
36.6919888670133
20
7.28087162382457
30
0
41
1
10
36.5820882213947
20
7.34167905375469
30
0
41
1
10
36.5270673669758
20
7.37185857747124
30
0
41
1
10
36.2522537884783
20
7.52125459925074
30
0
41
1
10
36.0330784794629
20
7.63609584291248
30
0
41
1
10
35.5958525241476
20
7.85613192209451
30
0
41
1
10
35.3777989840091
20
7.96132946515903
30
0
41
1
10
35.0513194724112
20
8.11176553165467
30
0
41
1
10
34.9425868848263
20
8.16069724087362
30
0
41
1
10
34.7252333689145
20
8.25621077937726
30
0
41
1
10
34.616610899083
20
8.30279807865674
30
0
41
1
10
34.2908855189564
20
8.43894674106042
30
0
41
1
10
34.0739362306191
20
8.52486572303613
30
0
41
1
10
33.6401764890566
20
8.68670950523099
30
0
41
1
10
33.4233679270761
20
8.76262441768077
30
0
41
1
10
32.9895586113592
20
8.90428683511965
30
0
41
1
10
32.7725236671943
20
8.97015497114415
30
0
41
1
10
32.3378724889767
20
9.09188128480423
30
0
41
1
10
32.1202740085641
20
9.14767510041321
30
0
41
1
10
31.68425733874
20
9.24865495590399
30
0
41
1
10
31.4658320795868
20
9.29386326082437
30
0
41
1
10
31.1372937471169
20
9.35369587936501
30
0
41
1
10
31.0276312523424
20
9.37230842014139
30
0
41
1
10
30.8079623827112
20
9.40685445790112
30
0
41
1
10
30.6978897487981
20
9.42279397351052
30
0
41
1
10
30.4528054216803
20
9.45522602164164
30
0
41
1
10
30.3177726634577
20
9.47101801264569
30
0
41
1
10
30.1829622430496
20
9.4846718641214
30
0
0
SPLINE
5
FE
100
AcDbEntity
8
1
62
256
6
ByLayer
370
18
48
1
60
0
100
AcDbSpline
70
4
71
5
72
30
73
24
40
0
40
0
40
0
40
0
40
0
40
0
40
0.154013096152455
40
0.192516370190569
40
0.25027128124774
40
0.288774555285853
40
0.346529466343024
40
0.385032740381138
40
0.442787651438309
40
0.500542562495479
40
0.539045836533593
40
0.596800747590764
40
0.635304021628878
40
0.693058932686048
40
0.731562206724162
40
0.789317117781333
40
0.847072028838504
40
0.885575302876617
40
0.924078576914731
40
0.981833487971902
40
1
40
1
40
1
40
1
40
1
40
1
41
1
10
14.1438281731005
20
2.14003345854209
30
0
41
1
10
14.628424300541
20
1.89985940812355
30
0
41
1
10
15.2341694598418
20
1.59327577120493
30
0
41
1
10
16.0216381669328
20
1.18630693766303
30
0
41
1
10
16.9302559058839
20
0.707895136317347
30
0
41
1
10
18.0205971926253
20
0.128526012042897
30
0
41
1
10
18.7474913837862
20
-0.258388986382016
30
0
41
1
10
19.5349600908771
20
-0.676194802282595
30
0
41
1
10
20.3224287979681
20
-1.09083610024311
30
0
41
1
10
21.109897505059
20
-1.49973661333539
30
0
41
1
10
21.89736621215
20
-1.90138845286256
30
0
41
1
10
22.684834919241
20
-2.29288141433196
30
0
41
1
10
23.472303626332
20
-2.67319934379884
30
0
41
1
10
24.1991978174929
20
-3.01242374284689
30
0
41
1
10
24.9866665245838
20
-3.36527123283739
30
0
41
1
10
25.7741352316748
20
-3.70194248022616
30
0
41
1
10
26.5616039387658
20
-4.0189849871154
30
0
41
1
10
27.2884981299267
20
-4.29370888619351
30
0
41
1
10
28.0759668370176
20
-4.57043636841942
30
0
41
1
10
28.7388722092992
20
-4.78480262735641
30
0
41
1
10
29.2200540337907
20
-4.92914564500862
30
0
41
1
10
29.5800868264219
20
-5.03060982858057
30
0
41
1
10
29.818970587193
20
-5.09499128583101
30
0
41
1
10
29.8761308001739
20
-5.11022730484689
30
0
0
SPLINE
5
FF
100
AcDbEntity
8
1
62
256
6
ByLayer
370
18
48
1
60
0
100
AcDbSpline
70
4
71
3
72
10
73
6
40
0
40
0
40
0
40
0
40
0.5
40
0.5
40
1
40
1
40
1
40
1
41
1
10
16.2063486341023
20
-4.36187848563733
30
0
41
1
10
16.3100811652018
20
-4.3796845969409
30
0
41
1
10
16.4160872305043
20
-4.39835242766418
30
0
41
1
10
16.6320756920598
20
-4.43826588124884
30
0
41
1
10
16.7420614053487
20
-4.45950477028936
30
0
41
1
10
16.853812146816
20
-4.48236779122911
30
0
0
SPLINE
5
100
100
AcDbEntity
8
1
62
256
6
ByLayer
370
18
48
1
60
0
100
AcDbSpline
70
4
71
3
72
69
73
65
40
0
40
0
40
0
40
0
40
0.0113511676658571
40
0.0113511676658571
40
0.047967791085639
40
0.047967791085639
40
0.0845844145054205
40
0.0845844145054205
40
0.121201037925202
40
0.121201037925202
40
0.157817661344984
40
0.157817661344984
40
0.194434284764765
40
0.194434284764765
40
0.212742596474656
40
0.212742596474656
40
0.231050908184547
40
0.231050908184547
40
0.26766753160433
40
0.26766753160433
40
0.304284155024113
40
0.304284155024113
40
0.340900778443896
40
0.340900778443896
40
0.37751740186368
40
0.37751740186368
40
0.414134025283463
40
0.414134025283463
40
0.48736727212303
40
0.48736727212303
40
0.523983895542815
40
0.523983895542815
40
0.542292207252707
40
0.542292207252707
40
0.551446363107653
40
0.551446363107653
40
0.560600518962599
40
0.597217142382382
40
0.597217142382382
40
0.633833765802166
40
0.633833765802166
40
0.670450389221949
40
0.670450389221949
40
0.707067012641732
40
0.707067012641732
40
0.743683636061515
40
0.743683636061515
40
0.780300259481298
40
0.780300259481298
40
0.79860857119119
40
0.79860857119119
40
0.816916882901081
40
0.816916882901081
40
0.853533506320863
40
0.853533506320863
40
0.862687662175808
40
0.862687662175808
40
0.871841818030754
40
0.871841818030754
40
0.890150129740646
40
0.890150129740646
40
0.926766753160431
40
0.926766753160431
40
1
40
1
40
1
40
1
41
1
10
34.7100420157689
20
-8.26238808473113
30
0
41
1
10
34.6426872990983
20
-8.29144313717097
30
0
41
1
10
34.5753524363649
20
-8.32004354018568
30
0
41
1
10
34.2908855189564
20
-8.43894674106065
30
0
41
1
10
34.0739362306191
20
-8.52486572303633
30
0
41
1
10
33.6401764890567
20
-8.68670950523119
30
0
41
1
10
33.4233679270761
20
-8.762624417681
30
0
41
1
10
32.9895586113592
20
-8.90428683511988
30
0
41
1
10
32.7725236671943
20
-8.97015497114435
30
0
41
1
10
32.3378724889768
20
-9.09188128480446
30
0
41
1
10
32.1202740085641
20
-9.14767510041344
30
0
41
1
10
31.6842573387399
20
-9.24865495590419
30
0
41
1
10
31.4658320795868
20
-9.29386326082459
30
0
41
1
10
31.1372937471168
20
-9.3536958793652
30
0
41
1
10
31.0276312523424
20
-9.37230842014159
30
0
41
1
10
30.8079623827111
20
-9.40685445790132
30
0
41
1
10
30.6978897487981
20
-9.42279397351072
30
0
41
1
10
30.3684754409101
20
-9.46638542145902
30
0
41
1
10
30.1495163052631
20
-9.48988692289728
30
0
41
1
10
29.7126895369768
20
-9.52552658631026
30
0
41
1
10
29.4947981065915
20
-9.53772440798249
30
0
41
1
10
29.0596546171068
20
-9.55121319964232
30
0
41
1
10
28.8424020771424
20
-9.55251024395696
30
0
41
1
10
28.4082261576665
20
-9.54429045171415
30
0
41
1
10
28.1913144378398
20
-9.53473843839342
30
0
41
1
10
27.7576052937888
20
-9.5044611867618
30
0
41
1
10
27.5407872568305
20
-9.48380687322731
30
0
41
1
10
26.8898692592412
20
-9.40577420677485
30
0
41
1
10
26.4552990319907
20
-9.33250658055826
30
0
41
1
10
25.8008412302229
20
-9.18920468198368
30
0
41
1
10
25.5822382168023
20
-9.13592858452262
30
0
41
1
10
25.2533754126199
20
-9.04796078447004
30
0
41
1
10
25.1435944779438
20
-9.01730149823376
30
0
41
1
10
24.9786554226015
20
-8.96927308729809
30
0
41
1
10
24.9236612437993
20
-8.95293164991182
30
0
41
1
10
24.8138081143829
20
-8.91963260722338
30
0
41
1
10
24.5393900427346
20
-8.83481058959623
30
0
41
1
10
24.2660029504356
20
-8.74210855965373
30
0
41
1
10
23.829564378788
20
-8.58398496410427
30
0
41
1
10
23.6118266289735
20
-8.50004696200506
30
0
41
1
10
23.1769244167883
20
-8.32290548954609
30
0
41
1
10
22.9597584662596
20
-8.22971373275192
30
0
41
1
10
22.5257498126376
20
-8.03410635320415
30
0
41
1
10
22.3089348818476
20
-7.93158446939546
30
0
41
1
10
21.8753123679378
20
-7.71748357675588
30
0
41
1
10
21.6584666503273
20
-7.60606110303036
30
0
41
1
10
21.2244129314751
20
-7.37465202583599
30
0
41
1
10
21.0072091542929
20
-7.25465278332524
30
0
41
1
10
20.6809457328761
20
-7.06812924748371
30
0
41
1
10
20.5721162597966
20
-7.0048593798906
30
0
41
1
10
20.354277224403
20
-6.87607334536241
30
0
41
1
10
20.2452658893832
20
-6.81056418390551
30
0
41
1
10
19.9178570279776
20
-6.6109245878836
30
0
41
1
10
19.6990734384495
20
-6.47376470137408
30
0
41
1
10
19.4247654545255
20
-6.29727480672815
30
0
41
1
10
19.3698625652863
20
-6.26172340831241
30
0
41
1
10
19.2599694661056
20
-6.19011217680625
30
0
41
1
10
19.2049571886471
20
-6.15403764601237
30
0
41
1
10
19.0400645691002
20
-6.04523588490039
30
0
41
1
10
18.9302630455774
20
-5.97189104108409
30
0
41
1
10
18.6012043941199
20
-5.74942617610756
30
0
41
1
10
18.3823273477107
20
-5.59778706363434
30
0
41
1
10
17.7264615126525
20
-5.13395737063263
30
0
41
1
10
17.2900999491447
20
-4.81326939085301
30
0
41
1
10
16.8535774344572
20
-4.48181876985629
30
0
0
SPLINE
5
101
100
AcDbEntity
8
1
62
256
6
ByLayer
370
18
48
1
60
0
100
AcDbSpline
70
4
71
3
72
16
73
12
40
0
40
0
40
0
40
0
40
0.250000000000001
40
0.250000000000001
40
0.375000000000002
40
0.375000000000002
40
0.437500000000002
40
0.437500000000002
40
0.500000000000002
40
0.500000000000002
40
1
40
1
40
1
40
1
41
1
10
59.28318829091
20
1.75080890463687
30
0
41
1
10
59.271866119052
20
1.58773339362736
30
0
41
1
10
59.2653333110466
20
1.42295174304809
30
0
41
1
10
59.2628516266321
20
1.17317250691548
30
0
41
1
10
59.2632445982782
20
1.08947808353085
30
0
41
1
10
59.2656868701239
20
0.963276410916393
30
0
41
1
10
59.2668102528278
20
0.921107492777196
30
0
41
1
10
59.2696669622162
20
0.836816607004153
30
0
41
1
10
59.2714008016787
20
0.794661615008749
30
0
41
1
10
59.289735817366
20
0.415181335937177
30
0
41
1
10
59.3253955898928
20
0.0772602986614856
30
0
41
1
10
59.3797256817097
20
-0.261244351712861
30
0
0
SPLINE
5
102
100
AcDbEntity
8
1
62
256
6
ByLayer
370
18
48
1
60
0
100
AcDbSpline
70
4
71
3
72
110
73
106
40
0
40
0
40
0
40
0
40
0.0046870412747985
40
0.0093877891161307
40
0.0141024363953999
40
0.0188311742152266
40
0.0235741919090672
40
0.0283316770415339
40
0.0331038154093996
40
0.037890791043345
40
0.0426927862102421
40
0.0475099814162322
40
0.0523425554102952
40
0.0571906851884893
40
0.0620545459987788
40
0.0669343113463397
40
0.0718301529995469
40
0.0767422409962908
40
0.0816707436510028
40
0.0866158275620036
40
0.091577657619404
40
0.09655639701338
40
0.101552207242933
40
0.106565248125032
40
0.111595677804156
40
0.116643652762133
40
0.121709327828455
40
0.126792856190822
40
0.131894389406037
40
0.137014077411241
40
0.142152068535351
40
0.147308509510816
40
0.15248354548564
40
0.15767732003558
40
0.162889975176638
40
0.168121651377682
40
0.173372487573326
40
0.178642621176942
40
0.183932188093859
40
0.189241322734704
40
0.194570158028878
40
0.19991882543818
40
0.205287454970504
40
0.210676175193661
40
0.216085113249294
40
0.22151439486689
40
0.226964144377796
40
0.232434484729364
40
0.290440857274701
40
0.352353485002136
40
0.418270780547159
40
0.488273739508282
40
0.495239402360188
40
0.502307669893602
40
0.509478619482602
40
0.51675232513504
40
0.524128857670864
40
0.531608284888392
40
0.539190671719385
40
0.546876080373797
40
0.554664570475035
40
0.562556199186392
40
0.570551021329364
40
0.578649089494396
40
0.58685045414468
40
0.595155163713414
40
0.603563264695091
40
0.612074801731177
40
0.620689817690571
40
0.629408353745252
40
0.638230449441397
40
0.647156142766313
40
0.656185470211422
40
0.665318466831634
40
0.67455516630125
40
0.683895600966728
40
0.693339801896414
40
0.70288779892753
40
0.712539620710498
40
0.722295294750851
40
0.732154847448856
40
0.742118304136955
40
0.752185689115215
40
0.762357025684869
40
0.772632336180114
40
0.783011641998192
40
0.793494963627961
40
0.804082320676943
40
0.814773731897055
40
0.825569215208957
40
0.83646878772527
40
0.847472465772582
40
0.85858026491242
40
0.869792199961171
40
0.881108285009106
40
0.892528533438437
40
0.904052957940629
40
0.915681570532824
40
0.927414382573609
40
0.939251404778053
40
0.951192647232094
40
0.963238119406335
40
0.975387830169245
40
0.987641787799867
40
1
40
1
40
1
40
1
41
1
10
8.7560715835794
20
2.17682962878723
30
0
41
1
10
8.76386356280767
20
2.17124777631076
30
0
41
1
10
8.77947030776758
20
2.16006774804686
30
0
41
1
10
8.80290403050495
20
2.14347274390215
30
0
41
1
10
8.82639961170514
20
2.12697709083335
30
0
41
1
10
8.84995760028286
20
2.11059678909354
30
0
41
1
10
8.87357958664143
20
2.09432971243118
30
0
41
1
10
8.89726688649301
20
2.07817863542462
30
0
41
1
10
8.92102089487281
20
2.06214503567861
30
0
41
1
10
8.94484299061637
20
2.04623076197305
30
0
41
1
10
8.96873456183127
20
2.03043758518663
30
0
41
1
10
8.99269699879628
20
2.01476731912015
30
0
41
1
10
9.01673169562517
20
1.99922178790743
30
0
41
1
10
9.0408400495659
20
1.98380283472017
30
0
41
1
10
9.06502346093365
20
1.96851231935221
30
0
41
1
10
9.08928333286798
20
1.95335211879447
30
0
41
1
10
9.11362107113428
20
1.93832412699919
30
0
41
1
10
9.1380380839077
20
1.92343025486016
30
0
41
1
10
9.16253578155903
20
1.90867243012889
30
0
41
1
10
9.18711557643502
20
1.89405259734477
30
0
41
1
10
9.21177888263611
20
1.8795727177565
30
0
41
1
10
9.23652711579035
20
1.86523476924197
30
0
41
1
10
9.26136169282429
20
1.85104074622345
30
0
41
1
10
9.28628403173008
20
1.83699265957958
30
0
41
1
10
9.31129555132958
20
1.82309253655353
30
0
41
1
10
9.33639767103401
20
1.80934242065766
30
0
41
1
10
9.3615918106012
20
1.79574437157356
30
0
41
1
10
9.38687938988849
20
1.78230046504893
30
0
41
1
10
9.41226182860231
20
1.76901279279025
30
0
41
1
10
9.43774054604427
20
1.75588346235062
30
0
41
1
10
9.46331696085343
20
1.74291459701473
30
0
41
1
10
9.48899249074492
20
1.73010833567886
30
0
41
1
10
9.51476855224499
20
1.7174668327263
30
0
41
1
10
9.54064656042243
20
1.70499225789928
30
0
41
1
10
9.56662792861619
20
1.69268679616553
30
0
41
1
10
9.59271406815895
20
1.68055264758129
30
0
41
1
10
9.61890638809786
20
1.66859202714889
30
0
41
1
10
9.64520629490917
20
1.65680716467057
30
0
41
1
10
9.67161519221682
20
1.64520030459553
30
0
41
1
10
9.69813448047864
20
1.63377370586951
30
0
41
1
10
9.72476555677605
20
1.62252964175227
30
0
41
1
10
9.75150981419642
20
1.61147039973292
30
0
41
1
10
9.77836864272712
20
1.60059828105267
30
0
41
1
10
9.80534342445665
20
1.58991560168008
30
0
41
1
10
9.83243555012245
20
1.57942468780854
30
0
41
1
10
9.85964635552784
20
1.5691278918888
30
0
41
1
10
9.88697735867848
20
1.55902753156462
30
0
41
1
10
10.0022752357255
20
1.51744179747325
30
0
41
1
10
10.2129264459586
20
1.45229323016591
30
0
41
1
10
10.5288008754529
20
1.38393146896826
30
0
41
1
10
10.8703239691783
20
1.34179018201169
30
0
41
1
10
11.1215696086451
20
1.33388221006831
30
0
41
1
10
11.2708108240179
20
1.33647242418817
30
0
41
1
10
11.3085258369598
20
1.33747560956584
30
0
41
1
10
11.3468536383847
20
1.3388427634265
30
0
41
1
10
11.385798692185
20
1.34058603626923
30
0
41
1
10
11.425366640226
20
1.34271573952603
30
0
41
1
10
11.4655627558428
20
1.34524283573262
30
0
41
1
10
11.5063923596814
20
1.3481782524243
30
0
41
1
10
11.5478606982358
20
1.35153306526922
30
0
41
1
10
11.5899729692486
20
1.35531844314951
30
0
41
1
10
11.632734306768
20
1.35954565817357
30
0
41
1
10
11.6761497770716
20
1.3642260777325
30
0
41
1
10
11.7202243714496
20
1.3693711612643
30
0
41
1
10
11.7649629996796
20
1.37499245552377
30
0
41
1
10
11.810370483143
20
1.38110159005109
30
0
41
1
10
11.8564515478707
20
1.38771027236984
30
0
41
1
10
11.90321081744
20
1.39483028303871
30
0
41
1
10
11.9506528057427
20
1.40247347052028
30
0
41
1
10
11.9987819096217
20
1.41065174586981
30
0
41
1
10
12.0476024013746
20
1.419377077241
30
0
41
1
10
12.0971184211277
20
1.42866148420418
30
0
41
1
10
12.1473339690791
20
1.43851703187514
30
0
41
1
10
12.1982528976123
20
1.44895582484935
30
0
41
1
10
12.2498789032822
20
1.45999000094048
30
0
41
1
10
12.3022155186734
20
1.47163172471855
30
0
41
1
10
12.3552661041324
20
1.48389318084594
30
0
41
1
10
12.4090338393768
20
1.49678656720678
30
0
41
1
10
12.4635217149803
20
1.5103240878293
30
0
41
1
10
12.5187325237385
20
1.52451794559536
30
0
41
1
10
12.5746688519151
20
1.53938033473662
30
0
41
1
10
12.6313330703725
20
1.55492343311471
30
0
41
1
10
12.6887273255882
20
1.57115939428113
30
0
41
1
10
12.7468535305599
20
1.58810033931809
30
0
41
1
10
12.8057133556033
20
1.6057583484525
30
0
41
1
10
12.8653082190434
20
1.62414545244846
30
0
41
1
10
12.925639277806
20
1.64327362376852
30
0
41
1
10
12.9867074179088
20
1.66315476750867
30
0
41
1
10
13.0485132448608
20
1.68380071210026
30
0
41
1
10
13.1110570739685
20
1.70522319978113
30
0
41
1
10
13.1743389205597
20
1.72743387683451
30
0
41
1
10
13.2383584901222
20
1.75044428358146
30
0
41
1
10
13.3031151683734
20
1.77426584418797
30
0
41
1
10
13.3686080112348
20
1.79890985604291
30
0
41
1
10
13.4348357348283
20
1.82438747963354
30
0
41
1
10
13.5017967050855
20
1.8507097253983
30
0
41
1
10
13.569488928532
20
1.87788745089509
30
0
41
1
10
13.6379100383825
20
1.90593131779681
30
0
41
1
10
13.7070572981443
20
1.93485189973379
30
0
41
1
10
13.7769275388104
20
1.9646592184427
30
0
41
1
10
13.8475173470547
20
1.99536444088574
30
0
41
1
10
13.9188223041433
20
2.02697340360322
30
0
41
1
10
13.9908398140465
20
2.05951103753347
30
0
41
1
10
14.0635583620874
20
2.09292896874598
30
0
41
1
10
14.1123116434724
20
2.11584905633907
30
0
41
1
10
14.1367915410577
20
2.12735764367892
30
0
0
SPLINE
5
103
100
AcDbEntity
8
1
62
256
6
ByLayer
370
18
48
1
60
0
100
AcDbSpline
70
4
71
3
72
18
73
14
40
0
40
0
40
0
40
0
40
0.189987656558986
40
0.189987656558986
40
0.379975313117973
40
0.379975313117973
40
0.569962969676959
40
0.569962969676959
40
0.759950626235946
40
0.759950626235946
40
0.949938282794932
40
0.949938282794932
40
1
40
1
40
1
40
1
41
1
10
59.0458735773655
20
9.98755617399547
30
0
41
1
10
58.6141456745548
20
9.96816945666401
30
0
41
1
10
58.1824177717442
20
9.92611879689943
30
0
41
1
10
57.3189619661231
20
9.79726029162893
30
0
41
1
10
56.8872340633125
20
9.71045284700452
30
0
41
1
10
56.0237782576912
20
9.49325973303672
30
0
41
1
10
55.5920503548806
20
9.36287473503009
30
0
41
1
10
54.7285945492595
20
9.06029745899366
30
0
41
1
10
54.2968666464489
20
8.88810611828296
30
0
41
1
10
53.4334108408277
20
8.50425503614127
30
0
41
1
10
53.0016829380173
20
8.29259648165672
30
0
41
1
10
52.4561948016657
20
8.00204808281686
30
0
41
1
10
52.3424345681248
20
7.94018463633472
30
0
41
1
10
52.2286743345839
20
7.87708173172845
30
0
0
SPLINE
5
104
100
AcDbEntity
8
1
62
256
6
ByLayer
370
18
48
1
60
0
100
AcDbSpline
70
4
71
3
72
20
73
16
40
0
40
0
40
0
40
0
40
0.0838295595551465
40
0.0838295595551465
40
0.236524632962622
40
0.236524632962622
40
0.389219706370098
40
0.389219706370098
40
0.541914779777573
40
0.541914779777573
40
0.694609853185049
40
0.694609853185049
40
0.847304926592524
40
0.847304926592524
40
1
40
1
40
1
40
1
41
1
10
26.0821527108728
20
-9.92369871292973
30
0
41
1
10
25.8451341932963
20
-9.95001597401728
30
0
41
1
10
25.6081156757198
20
-9.96955736576498
30
0
41
1
10
24.9393692553328
20
-10.0054300746755
30
0
41
1
10
24.5076413525224
20
-10.0059366232994
30
0
41
1
10
23.6441855469014
20
-9.96163867481999
30
0
41
1
10
23.212457644091
20
-9.91683431422837
30
0
41
1
10
22.3490018384701
20
-9.78252290912184
30
0
41
1
10
21.9172739356596
20
-9.69301627496799
30
0
41
1
10
21.0538181300388
20
-9.47051594780518
30
0
41
1
10
20.6220902272282
20
-9.33752293936362
30
0
41
1
10
19.7586344216073
20
-9.02985623376537
30
0
41
1
10
19.3269065187969
20
-8.85518348907343
30
0
41
1
10
18.463450713176
20
-8.46652989950141
30
0
41
1
10
18.0317228103655
20
-8.25255025578889
30
0
41
1
10
17.5999949075551
20
-8.0203698510542
30
0
0
SPLINE
5
105
100
AcDbEntity
8
1
62
256
6
ByLayer
370
18
48
1
60
0
100
AcDbSpline
70
4
71
3
72
44
73
40
40
0
40
0
40
0
40
0
40
0.0532212141623048
40
0.0532212141623048
40
0.10644242832461
40
0.10644242832461
40
0.159663642486914
40
0.159663642486914
40
0.212884856649219
40
0.212884856649219
40
0.266106070811524
40
0.266106070811524
40
0.319327284973829
40
0.319327284973829
40
0.372548499136134
40
0.372548499136134
40
0.425769713298438
40
0.425769713298438
40
0.478990927460743
40
0.478990927460743
40
0.532212141623048
40
0.532212141623048
40
0.585433355785353
40
0.585433355785353
40
0.638654569947658
40
0.638654569947658
40
0.691875784109963
40
0.691875784109963
40
0.745096998272267
40
0.745096998272267
40
0.798318212434572
40
0.798318212434572
40
0.851539426596877
40
0.851539426596877
40
0.904760640759182
40
0.904760640759182
40
0.957981854921487
40
0.957981854921487
40
1
40
1
40
1
40
1
41
1
10
59.0458735773653
20
-0.19918100133566
30
0
41
1
10
58.6141456745547
20
0.189471337723432
30
0
41
1
10
58.1824177717442
20
0.578574513735759
30
0
41
1
10
57.3189619661229
20
1.35240152782222
30
0
41
1
10
56.8872340633122
20
1.73712298197609
30
0
41
1
10
56.0237782576912
20
2.49696024108249
30
0
41
1
10
55.5920503548806
20
2.87207370583144
30
0
41
1
10
54.7285945492594
20
3.60759916053468
30
0
41
1
10
54.2968666464488
20
3.96800888674423
30
0
41
1
10
53.4334108408277
20
4.66923075101539
30
0
41
1
10
53.0016829380171
20
5.01004073090621
30
0
41
1
10
52.138227132396
20
5.6674332150819
30
0
41
1
10
51.7064992295854
20
5.98401369429251
30
0
41
1
10
50.8430434239643
20
6.58864640712417
30
0
41
1
10
50.4113155211537
20
6.87669677801699
30
0
41
1
10
49.5478597155327
20
7.42035604460733
30
0
41
1
10
49.116131812722
20
7.67596326553974
30
0
41
1
10
48.252676007101
20
8.15126370611893
30
0
41
1
10
47.8209481042904
20
8.37095546057424
30
0
41
1
10
46.9574922986693
20
8.77144031708011
30
0
41
1
10
46.5257643958587
20
8.95223218248969
30
0
41
1
10
45.6623085902376
20
9.27246103004796
30
0
41
1
10
45.230580687427
20
9.41189702318781
30
0
41
1
10
44.3671248818059
20
9.64751967676085
30
0
41
1
10
43.9353969789954
20
9.74370561162581
30
0
41
1
10
43.0719411733743
20
9.8915212241624
30
0
41
1
10
42.6402132705637
20
9.94315044664941
30
0
41
1
10
41.7767574649427
20
10.0011509903925
30
0
41
1
10
41.3450295621322
20
10.0075221300618
30
0
41
1
10
40.4815737565111
20
9.97491966853269
30
0
41
1
10
40.0498458537004
20
9.93594616819115
30
0
41
1
10
39.1863900480795
20
9.81318356815868
30
0
41
1
10
38.754662145269
20
9.72939485240431
30
0
41
1
10
37.8912063396479
20
9.51813976873129
30
0
41
1
10
37.4594784368374
20
9.39067405570302
30
0
41
1
10
36.5960226312163
20
9.09379627158057
30
0
41
1
10
36.1642947284058
20
8.92438511691458
30
0
41
1
10
35.3917176747395
20
8.58575128239409
30
0
41
1
10
35.0508685238838
20
8.42399631356196
30
0
41
1
10
34.710019373028
20
8.25058456198738
30
0
0
SPLINE
5
106
100
AcDbEntity
8
1
62
256
6
ByLayer
370
18
48
1
60
0
100
AcDbSpline
70
4
71
3
72
46
73
42
40
0
40
0
40
0
40
0
40
0.0215516134413943
40
0.0215516134413943
40
0.0730488969444788
40
0.0730488969444788
40
0.124546180447563
40
0.124546180447563
40
0.176043463950648
40
0.176043463950648
40
0.227540747453732
40
0.227540747453732
40
0.279038030956817
40
0.279038030956817
40
0.330535314459901
40
0.330535314459901
40
0.382032597962986
40
0.382032597962986
40
0.433529881466071
40
0.433529881466071
40
0.485027164969155
40
0.485027164969155
40
0.536524448472239
40
0.536524448472239
40
0.588021731975324
40
0.588021731975324
40
0.639519015478409
40
0.639519015478409
40
0.691016298981493
40
0.691016298981493
40
0.742513582484578
40
0.742513582484578
40
0.794010865987662
40
0.794010865987662
40
0.845508149490746
40
0.845508149490746
40
0.897005432993831
40
0.897005432993831
40
0.948502716496916
40
0.948502716496916
40
1
40
1
40
1
40
1
41
1
10
42.7505197571601
20
-9.92387670123387
30
0
41
1
10
42.5698416273578
20
-9.94391420519756
30
0
41
1
10
42.3891634975555
20
-9.96001410457669
30
0
41
1
10
41.7767574649426
20
-10.0011509903927
30
0
41
1
10
41.3450295621322
20
-10.0075221300621
30
0
41
1
10
40.4815737565111
20
-9.97491966853298
30
0
41
1
10
40.0498458537005
20
-9.93594616819144
30
0
41
1
10
39.1863900480795
20
-9.81318356815896
30
0
41
1
10
38.7546621452689
20
-9.7293948524046
30
0
41
1
10
37.891206339648
20
-9.51813976873157
30
0
41
1
10
37.4594784368374
20
-9.39067405570327
30
0
41
1
10
36.5960226312163
20
-9.09379627158083
30
0
41
1
10
36.1642947284059
20
-8.92438511691483
30
0
41
1
10
35.3008389227848
20
-8.54591755952509
30
0
41
1
10
34.8691110199743
20
-8.33686232744276
30
0
41
1
10
34.0056552143532
20
-7.88194628856985
30
0
41
1
10
33.5739273115428
20
-7.63608688792112
30
0
41
1
10
32.7104715059217
20
-7.11090217864157
30
0
41
1
10
32.2787436031113
20
-6.83157848892523
30
0
41
1
10
31.4152877974902
20
-6.24325948753099
30
0
41
1
10
30.9835598946797
20
-5.93426598801076
30
0
41
1
10
30.1201040890588
20
-5.29080472626609
30
0
41
1
10
29.6883761862483
20
-4.95633894621815
30
0
41
1
10
28.8249203806273
20
-4.2664765411057
30
0
41
1
10
28.3931924778168
20
-3.91108204076875
30
0
41
1
10
27.5297366721958
20
-3.18418994951506
30
0
41
1
10
27.0980087693854
20
-2.81269459691197
30
0
41
1
10
26.2345529637644
20
-2.05864731060549
30
0
41
1
10
25.8028250609539
20
-1.67609769884964
30
0
41
1
10
24.939369255333
20
-0.905138601732972
30
0
41
1
10
24.5076413525225
20
-0.51673149136036
30
0
41
1
10
23.6441855469015
20
0.260666289709491
30
0
41
1
10
23.2124576440911
20
0.649654565185017
30
0
41
1
10
22.3490018384701
20
1.422930434618
30
0
41
1
10
21.9172739356597
20
1.80721564563805
30
0
41
1
10
21.0538181300387
20
2.56586499910969
30
0
41
1
10
20.6220902272282
20
2.94022680435836
30
0
41
1
10
19.7586344216074
20
3.67394372941149
30
0
41
1
10
19.326906518797
20
4.03329659054131
30
0
41
1
10
18.463450713176
20
4.73211386916063
30
0
41
1
10
18.0317228103656
20
5.07157613519468
30
0
41
1
10
17.5999949075552
20
5.39878838883584
30
0
0
SPLINE
5
107
100
AcDbEntity
8
1
62
256
6
ByLayer
370
18
48
1
60
0
100
AcDbSpline
70
4
71
3
72
70
73
66
40
0
40
0
40
0
40
0
40
0.03125
40
0.03125
40
0.0625
40
0.0625
40
0.09375
40
0.09375
40
0.125
40
0.125
40
0.15625
40
0.15625
40
0.1875
40
0.1875
40
0.21875
40
0.21875
40
0.25
40
0.25
40
0.28125
40
0.28125
40
0.3125
40
0.3125
40
0.34375
40
0.34375
40
0.375
40
0.375
40
0.40625
40
0.40625
40
0.4375
40
0.4375
40
0.46875
40
0.46875
40
0.5
40
0.5
40
0.53125
40
0.53125
40
0.5625
40
0.5625
40
0.59375
40
0.59375
40
0.625
40
0.625
40
0.65625
40
0.65625
40
0.6875
40
0.6875
40
0.71875
40
0.71875
40
0.75
40
0.75
40
0.78125
40
0.78125
40
0.8125
40
0.8125
40
0.84375
40
0.84375
40
0.875
40
0.875
40
0.90625
40
0.90625
40
0.9375
40
0.9375
40
0.96875
40
0.96875
40
1
40
1
40
1
40
1
41
1
10
59.0458735773653
20
-9.9875561739959
30
0
41
1
10
58.6141456745547
20
-9.96816945666441
30
0
41
1
10
58.182417771744
20
-9.92611879689983
30
0
41
1
10
57.3189619661229
20
-9.79726029162933
30
0
41
1
10
56.8872340633122
20
-9.71045284700489
30
0
41
1
10
56.0237782576912
20
-9.49325973303709
30
0
41
1
10
55.5920503548805
20
-9.36287473503046
30
0
41
1
10
54.7285945492594
20
-9.06029745899403
30
0
41
1
10
54.2968666464488
20
-8.8881061182833
30
0
41
1
10
53.4334108408276
20
-8.50425503614164
30
0
41
1
10
53.0016829380169
20
-8.29259648165709
30
0
41
1
10
52.138227132396
20
-7.83268601784718
30
0
41
1
10
51.7064992295853
20
-7.58443552567297
30
0
41
1
10
50.8430434239642
20
-7.05471333576983
30
0
41
1
10
50.4113155211536
20
-6.77324326924946
30
0
41
1
10
49.5478597155326
20
-6.18090537205296
30
0
41
1
10
49.116131812722
20
-5.87003936607931
30
0
41
1
10
48.2526760071008
20
-5.22313238916928
30
0
41
1
10
47.8209481042903
20
-4.8870934106161
30
0
41
1
10
46.957492298669
20
-4.19440527933395
30
0
41
1
10
46.5257643958586
20
-3.837758259124
30
0
41
1
10
45.6623085902375
20
-3.10869881679835
30
0
41
1
10
45.2305806874269
20
-2.73628863935704
30
0
41
1
10
44.3671248818058
20
-1.98076181933635
30
0
41
1
10
43.9353969789953
20
-1.59764750424446
30
0
41
1
10
43.0719411733743
20
-0.825916790621847
30
0
41
1
10
42.6402132705637
20
-0.437302769871167
30
0
41
1
10
41.7767574649426
20
0.340148228456286
30
0
41
1
10
41.345029562132
20
0.728982810648176
30
0
41
1
10
40.481573756511
20
1.50159277482976
30
0
41
1
10
40.0498458537004
20
1.88536577687364
30
0
41
1
10
39.1863900480795
20
2.64263914844446
30
0
41
1
10
38.754662145269
20
3.01613718635235
30
0
41
1
10
37.8912063396479
20
3.7477867457971
30
0
41
1
10
37.4594784368374
20
4.10593601433425
30
0
41
1
10
36.5960226312163
20
4.8020226270279
30
0
41
1
10
36.1642947284058
20
5.13995782764786
30
0
41
1
10
35.3008389227848
20
5.79102546189151
30
0
41
1
10
34.8691110199743
20
6.10415589307891
30
0
41
1
10
34.0056552143532
20
6.70136007925333
30
0
41
1
10
33.5739273115427
20
6.98543199803234
30
0
41
1
10
32.7104715059217
20
7.52065997521996
30
0
41
1
10
32.2787436031113
20
7.77181438558534
30
0
41
1
10
31.4152877974903
20
8.2377953073804
30
0
41
1
10
30.9835598946797
20
8.45262038345138
30
0
41
1
10
30.1201040890587
20
8.84302409286576
30
0
41
1
10
29.6883761862482
20
9.01860152350659
30
0
41
1
10
28.8249203806274
20
9.32812454454955
30
0
41
1
10
28.3931924778167
20
9.46206918029415
30
0
41
1
10
27.5297366721958
20
9.68650676281877
30
0
41
1
10
27.0980087693853
20
9.7769990153395
30
0
41
1
10
26.2345529637645
20
9.91330225482042
30
0
41
1
10
25.802825060954
20
9.95911281924359
30
0
41
1
10
24.9393692553329
20
10.0054300746753
30
0
41
1
10
24.5076413525224
20
10.0059366232992
30
0
41
1
10
23.6441855469016
20
9.96163867481985
30
0
41
1
10
23.2124576440911
20
9.91683431422823
30
0
41
1
10
22.3490018384701
20
9.78252290912167
30
0
41
1
10
21.9172739356597
20
9.69301627496785
30
0
41
1
10
21.0538181300387
20
9.47051594780504
30
0
41
1
10
20.6220902272283
20
9.33752293936351
30
0
41
1
10
19.7586344216074
20
9.02985623376523
30
0
41
1
10
19.3269065187969
20
8.85518348907331
30
0
41
1
10
18.463450713176
20
8.4665298995013
30
0
41
1
10
18.0317228103655
20
8.2525502557888
30
0
41
1
10
17.5999949075551
20
8.02036985105411
30
0
0
SPLINE
5
108
100
AcDbEntity
8
1
62
256
6
ByLayer
370
18
48
1
60
0
100
AcDbSpline
70
4
71
3
72
20
73
16
40
0
40
0
40
0
40
0
40
0.124999999999999
40
0.124999999999999
40
0.249999999999999
40
0.249999999999999
40
0.374999999999999
40
0.374999999999999
40
0.499999999999999
40
0.499999999999999
40
0.749999999999999
40
0.749999999999999
40
0.874999999999999
40
0.874999999999999
40
1
40
1
40
1
40
1
41
1
10
15.2348171342782
20
-6.5765583579049
30
0
41
1
10
15.2610538256576
20
-6.4893150004612
30
0
41
1
10
15.291085444142
20
-6.40176824716238
30
0
41
1
10
15.3563335046481
20
-6.22561878397116
30
0
41
1
10
15.3915682062822
20
-6.13701951396152
30
0
41
1
10
15.4657317812392
20
-5.95847873446363
30
0
41
1
10
15.5046693475603
20
-5.8685388505327
30
0
41
1
10
15.5852189314971
20
-5.68711011545147
30
0
41
1
10
15.6268587346751
20
-5.59557194988418
30
0
41
1
10
15.7545369750412
20
-5.31873032781846
30
0
41
1
10
15.8430411912237
20
-5.13168119947471
30
0
41
1
10
15.9780091230911
20
-4.84655560588183
30
0
41
1
10
16.0233847219501
20
-4.7507588150485
30
0
41
1
10
16.1145898150564
20
-4.5575499808557
30
0
41
1
10
16.160436041962
20
-4.46010383212379
30
0
41
1
10
16.2063486341024
20
-4.36187848563733
30
0
0
SPLINE
5
109
100
AcDbEntity
8
1
62
256
6
ByLayer
370
18
48
1
60
0
100
AcDbSpline
70
4
71
3
72
11
73
7
40
0
40
0
40
0
40
0
40
0.25
40
0.5
40
0.75
40
1
40
1
40
1
40
1
41
1
10
11.0623540920176
20
9.16380672532043
30
0
41
1
10
11.4100521920111
20
9.03848280241945
30
0
41
1
10
12.1054483919982
20
8.76087019208819
30
0
41
1
10
13.1485426919789
20
8.26722788189522
30
0
41
1
10
14.1916369919595
20
7.70071324129688
30
0
41
1
10
14.8870331919467
20
7.27778471177848
30
0
41
1
10
15.2347312919402
20
7.05593903409277
30
0
0
SPLINE
5
10A
100
AcDbEntity
8
1
62
256
6
ByLayer
370
18
48
1
60
0
100
AcDbSpline
70
4
71
3
72
19
73
15
40
0
40
0
40
0
40
0
40
0.250000000000002
40
0.250000000000002
40
0.500000000000004
40
0.500000000000004
40
0.531250000000004
40
0.531250000000004
40
0.562500000000004
40
0.625000000000004
40
0.625000000000004
40
0.750000000000003
40
0.750000000000003
40
1
40
1
40
1
40
1
41
1
10
16.2063486341022
20
-4.36187848563716
30
0
41
1
10
15.5873583242862
20
-3.86035170663291
30
0
41
1
10
14.9709032688359
20
-3.34059842142122
30
0
41
1
10
13.7353897723364
20
-2.2728540565231
30
0
41
1
10
13.1163564815078
20
-1.72483732251518
30
0
41
1
10
12.4140480344332
20
-1.09679360086861
30
0
41
1
10
12.335888627347
20
-1.02681251982207
30
0
41
1
10
12.1797394046087
20
-0.886860217846305
30
0
41
1
10
11.9456844503278
20
-0.676870325012743
30
0
41
1
10
11.7120647691383
20
-0.466774645348011
30
0
41
1
10
11.245218568695
20
-0.0466488686903404
30
0
41
1
10
10.9345116359484
20
0.233347382946988
30
0
41
1
10
10.0024899352169
20
1.07143975609392
30
0
41
1
10
9.38128787999344
20
1.6276584134601
30
0
41
1
10
8.75627135238972
20
2.17692917662228
30
0
0
SPLINE
5
10B
100
AcDbEntity
8
1
62
256
6
ByLayer
370
18
48
1
60
0
100
AcDbSpline
70
4
71
3
72
83
73
79
40
0
40
0
40
0
40
0
40
0.0624999999999965
40
0.0624999999999965
40
0.0937499999999943
40
0.0937499999999943
40
0.109374999999993
40
0.109374999999993
40
0.124999999999992
40
0.124999999999992
40
0.187499999999988
40
0.187499999999988
40
0.249999999999984
40
0.249999999999984
40
0.31249999999998
40
0.31249999999998
40
0.343749999999978
40
0.343749999999978
40
0.374999999999976
40
0.374999999999976
40
0.437499999999973
40
0.437499999999973
40
0.468749999999971
40
0.468749999999971
40
0.49999999999997
40
0.49999999999997
40
0.515624999999968
40
0.523437499999968
40
0.523437499999968
40
0.531249999999968
40
0.531249999999968
40
0.562499999999969
40
0.562499999999969
40
0.59374999999997
40
0.59374999999997
40
0.609374999999971
40
0.609374999999971
40
0.617187499999971
40
0.617187499999971
40
0.624999999999971
40
0.624999999999971
40
0.656249999999972
40
0.656249999999972
40
0.687499999999972
40
0.687499999999972
40
0.695312499999972
40
0.695312499999972
40
0.703124999999973
40
0.718749999999974
40
0.718749999999974
40
0.749999999999975
40
0.749999999999975
40
0.757812499999976
40
0.757812499999976
40
0.765624999999976
40
0.765624999999976
40
0.781249999999977
40
0.781249999999977
40
0.812499999999979
40
0.812499999999979
40
0.82031249999998
40
0.82031249999998
40
0.828124999999981
40
0.828124999999981
40
0.843749999999981
40
0.843749999999981
40
0.874999999999982
40
0.874999999999982
40
0.906249999999983
40
0.906249999999983
40
0.914062499999984
40
0.914062499999984
40
0.921874999999985
40
0.937499999999988
40
0.937499999999988
40
0.968749999999994
40
0.968749999999994
40
1
40
1
40
1
40
1
41
1
10
8.75601809766823
20
2.17686803322485
30
0
41
1
10
8.53889466162934
20
2.36832235594122
30
0
41
1
10
8.323501344276
20
2.56130816863751
30
0
41
1
10
8.00280187044152
20
2.85274833670695
30
0
41
1
10
7.89630185051129
20
2.95022359252871
30
0
41
1
10
7.73714016209104
20
3.09690363710095
30
0
41
1
10
7.68415430198439
20
3.14590298233819
30
0
41
1
10
7.57855268679373
20
3.24389298458848
30
0
41
1
10
7.52594044528675
20
3.29288012972691
30
0
41
1
10
7.26382302520224
20
3.5377643138753
30
0
41
1
10
7.05713415196277
20
3.73349732114761
30
0
41
1
10
6.6500202824873
20
4.12444880269598
30
0
41
1
10
6.44959071302827
20
4.31966595398609
30
0
41
1
10
6.05569525331293
20
4.70967704824287
30
0
41
1
10
5.86222076000775
20
4.90446790826059
30
0
41
1
10
5.57823578482208
20
5.19664513653578
30
0
41
1
10
5.4846049509284
20
5.29405216933478
30
0
41
1
10
5.29973934810084
20
5.48890744487076
30
0
41
1
10
5.20889155223111
20
5.58594770790455
30
0
41
1
10
4.94159318744238
20
5.87599442657245
30
0
41
1
10
4.77032187747363
20
6.06791378661399
30
0
41
1
10
4.52671539597384
20
6.35416919522234
30
0
41
1
10
4.44774425562883
20
6.44931989421076
30
0
41
1
10
4.29498936933115
20
6.63922416222849
30
0
41
1
10
4.22120242114465
20
6.73397706020751
30
0
41
1
10
4.11514000269321
20
6.87594913330949
30
0
41
1
10
4.06326663662426
20
6.94689652468065
30
0
41
1
10
4.01330471592905
20
7.01782012495565
30
0
41
1
10
3.98044418917206
20
7.06510170665302
30
0
41
1
10
3.9642246795483
20
7.08876115563186
30
0
41
1
10
3.88447592879956
20
7.20681420276776
30
0
41
1
10
3.82506800181398
20
7.30032769711548
30
0
41
1
10
3.71655995556006
20
7.48557748836888
30
0
41
1
10
3.66745161967603
20
7.57731321765007
30
0
41
1
10
3.60308067632346
20
7.71366442225218
30
0
41
1
10
3.58317742317146
20
7.75890635412006
30
0
41
1
10
3.55590880747798
20
7.82647001863569
30
0
41
1
10
3.54725079295861
20
7.8489413960024
30
0
41
1
10
3.53084696568448
20
7.89378710440195
30
0
41
1
10
3.5231118716521
20
7.91613583027083
30
0
41
1
10
3.48702704074276
20
8.02703410722498
30
0
41
1
10
3.46625907095805
20
8.11348517324097
30
0
41
1
10
3.44338868516482
20
8.28183752303957
30
0
41
1
10
3.4412728948333
20
8.36373877037036
30
0
41
1
10
3.45238946814925
20
8.46324682113104
30
0
41
1
10
3.45530835406635
20
8.48302938463556
30
0
41
1
10
3.46257302813871
20
8.52219927529026
30
0
41
1
10
3.47556133888321
20
8.58012387097827
30
0
41
1
10
3.49486518081653
20
8.63560190808028
30
0
41
1
10
3.54203554514314
20
8.74340638122021
30
0
41
1
10
3.58488547352053
20
8.81107599051109
30
0
41
1
10
3.65336286134971
20
8.89074634241405
30
0
41
1
10
3.66780517177858
20
8.90643441410083
30
0
41
1
10
3.69820460169703
20
8.93732625672254
30
0
41
1
10
3.71407160373505
20
8.95243747324406
30
0
41
1
10
3.76354806276299
20
8.99674087726956
30
0
41
1
10
3.79906430067152
20
9.02493711192864
30
0
41
1
10
3.91284911331724
20
9.10586982978134
30
0
41
1
10
3.99833717008443
20
9.15496240846579
30
0
41
1
10
4.11632433928727
20
9.21123956229991
30
0
41
1
10
4.14047945315795
20
9.22223959585298
30
0
41
1
10
4.18988727415478
20
9.24374999639747
30
0
41
1
10
4.21508487144462
20
9.25423493910154
30
0
41
1
10
4.29173475309864
20
9.28478060997529
30
0
41
1
10
4.34438821774086
20
9.30399802494824
30
0
41
1
10
4.5066171975252
20
9.35864201472938
30
0
41
1
10
4.62044389143995
20
9.39107840930149
30
0
41
1
10
4.8578896025204
20
9.44970116664371
30
0
41
1
10
4.98151553360285
20
9.4758800089063
30
0
41
1
10
5.14150801371994
20
9.50545965529119
30
0
41
1
10
5.17380688175598
20
9.51122159777219
30
0
41
1
10
5.23863226060729
20
9.5223937336973
30
0
41
1
10
5.33631136306417
20
9.53864323546409
30
0
41
1
10
5.43525536362546
20
9.5534701255645
30
0
41
1
10
5.6346999433824
20
9.58145790702932
30
0
41
1
10
5.76973291295425
20
9.5979048879237
30
0
41
1
10
6.04341415301622
20
9.62730663508952
30
0
41
1
10
6.18206455888392
20
9.6402575736935
30
0
41
1
10
6.32233964951993
20
9.65178731126898
30
0
0
SPLINE
5
10C
100
AcDbEntity
8
1
62
256
6
ByLayer
370
18
48
1
60
0
100
AcDbSpline
70
4
71
3
72
16
73
12
40
0
40
0
40
0
40
0
40
0.150841603822244
40
0.262268194465716
40
0.334531942171592
40
0.391265870638881
40
0.448905310712109
40
0.523653837147903
40
0.633722687815615
40
0.792542895141825
40
1
40
1
40
1
40
1
41
1
10
26.0794087901542
20
-9.92399094540238
30
0
41
1
10
26.2869525140451
20
-9.90096207365482
30
0
41
1
10
26.6478017164823
20
-9.86106003096288
30
0
41
1
10
27.108053053263
20
-9.81041739834518
30
0
41
1
10
27.4388329094958
20
-9.7742380193979
30
0
41
1
10
27.6956283497163
20
-9.74629423359727
30
0
41
1
10
27.9558373171214
20
-9.71811885102827
30
0
41
1
10
28.289423307612
20
-9.68217312414401
30
0
41
1
10
28.7622014417798
20
-9.63152883796184
30
0
41
1
10
29.4175579861859
20
-9.56258416152485
30
0
41
1
10
29.9214980140341
20
-9.51101365248923
30
0
41
1
10
30.2069297238235
20
-9.48225522684913
30
0
0
SPLINE
5
10D
100
AcDbEntity
8
1
62
256
6
ByLayer
370
18
48
1
60
0
100
AcDbSpline
70
4
71
3
72
16
73
12
40
0
40
0
40
0
40
0
40
0.130683338211758
40
0.233225961402191
40
0.307587545778265
40
0.381246522752005
40
0.452916927555885
40
0.52730587508827
40
0.636544890119044
40
0.79406964583089
40
1
40
1
40
1
40
1
41
1
10
30.2069297238235
20
9.48225522684893
30
0
41
1
10
30.0271147541603
20
9.5003842632218
30
0
41
1
10
29.7062120787286
20
9.53305348927972
30
0
41
1
10
29.2830093011296
20
9.57684312540039
30
0
41
1
10
28.9382745072108
20
9.61302479892126
30
0
41
1
10
28.6360332214544
20
9.64507251439775
30
0
41
1
10
28.333759848602
20
9.67742360091793
30
0
41
1
10
27.9825204949926
20
9.71522051188822
30
0
41
1
10
27.5131860417745
20
9.76603478375392
30
0
41
1
10
26.8628401090665
20
9.83729913064641
30
0
41
1
10
26.362760349147
20
9.89252045896367
30
0
41
1
10
26.0794087901542
20
9.92399094540221
30
0
0
SPLINE
5
10E
100
AcDbEntity
8
1
62
256
6
ByLayer
370
18
48
1
60
0
100
AcDbSpline
70
4
71
3
72
15
73
11
40
0
40
0
40
0
40
0
40
0.155541235628278
40
0.264135398419039
40
0.338549244438513
40
0.417329250551162
40
0.504446884741619
40
0.625381381743346
40
0.790583945809296
40
1
40
1
40
1
40
1
41
1
10
42.7496776336767
20
-9.92397883383117
30
0
41
1
10
42.9631150229943
20
-9.9002975355485
30
0
41
1
10
43.3257901879231
20
-9.86019296577987
30
0
41
1
10
43.7919572729947
20
-9.8088067381191
30
0
41
1
10
44.1516012362596
20
-9.76949109638281
30
0
41
1
10
44.4824379520692
20
-9.73350499052233
30
0
41
1
10
44.8771620887169
20
-9.69099807494126
30
0
41
1
10
45.3907017664628
20
-9.63601321034534
30
0
41
1
10
46.0724706035723
20
-9.56383858086241
30
0
41
1
10
46.5879650493804
20
-9.5114702571943
30
0
41
1
10
46.8761516220475
20
-9.48274951845363
30
0
0
SPLINE
5
10F
100
AcDbEntity
8
1
62
256
6
ByLayer
370
18
48
1
60
0
100
AcDbSpline
70
4
71
3
72
17
73
13
40
0
40
0
40
0
40
0
40
0.149971380777358
40
0.265396421675669
40
0.346261498002064
40
0.396969436263285
40
0.441844876942464
40
0.484664177899974
40
0.546748602280225
40
0.645117593107812
40
0.79621465534678
40
1
40
1
40
1
40
1
41
1
10
46.8761516220473
20
9.48274951845332
30
0
41
1
10
46.6695878953778
20
9.50327848558763
30
0
41
1
10
46.3041162085921
20
9.54018996804106
30
0
41
1
10
45.8275885069257
20
9.58979863536445
30
0
41
1
10
45.4875963732279
20
9.62576725980603
30
0
41
1
10
45.2456806507629
20
9.65156338177474
30
0
41
1
10
45.0557566774297
20
9.67187905903091
30
0
41
1
10
44.8499726525485
20
9.69395208821373
30
0
41
1
10
44.570335119006
20
9.72402024872156
30
0
41
1
10
44.141772106895
20
9.77047144372895
30
0
41
1
10
43.5182703580451
20
9.83897849746498
30
0
41
1
10
43.0300447770161
20
9.89287125961533
30
0
41
1
10
42.7496776336768
20
9.92397883383089
30
0
0
SPLINE
5
110
100
AcDbEntity
8
1
62
256
6
ByLayer
370
18
48
1
60
0
100
AcDbSpline
70
4
71
1
72
4
73
2
40
0
40
0
40
1
40
1
41
1
10
21.1865575723202
20
2.44863350205591
30
0
41
1
10
21.1493611148626
20
2.4808730667263
30
0
0
LINE
5
77
100
AcDbEntity
8
80
62
256
6
ByLayer
370
18
48
1
60
0
100
AcDbLine
10
0
20
0
30
0
11
-5
21
0
31
0
39
0
210
0
220
0
230
1
0
LINE
5
78
100
AcDbEntity
8
4
62
256
6
ByLayer
370
18
48
0.05
60
0
100
AcDbLine
10
0
20
0
30
0
11
59.6
21
0
31
0
39
0
210
0
220
0
230
1
0
LINE
5
7A
100
AcDbEntity
8
81
62
256
6
ByLayer
370
18
48
1
60
0
100
AcDbLine
10
59.6
20
0
30
0
11
64.6
21
0
31
0
39
0
210
0
220
0
230
1
0
LINE
5
7B
100
AcDbEntity
8
SK4
62
256
6
ByLayer
370
18
48
0.05
60
0
100
AcDbLine
10
-50
20
0
30
0
11
59.6
21
0
31
0
39
0
210
0
220
0
230
1
0
LINE
5
7D
100
AcDbEntity
8
1
62
256
6
ByLayer
370
18
48
1
60
0
100
AcDbLine
10
0
20
10
30
0
11
0
21
0
31
0
39
0
210
0
220
0
230
1
0
LINE
5
7E
100
AcDbEntity
8
1
62
256
6
ByLayer
370
18
48
1
60
0
100
AcDbLine
10
0
20
0
30
0
11
0
21
-10
31
0
39
0
210
0
220
0
230
1
0
LINE
5
7F
100
AcDbEntity
8
1
62
256
6
ByLayer
370
18
48
1
60
0
100
AcDbLine
10
59.356348
20
-1.501093
30
0
11
59.283188
21
-1.750809
31
0
39
0
210
0
220
0
230
1
0
LINE
5
80
100
AcDbEntity
8
1
62
256
6
ByLayer
370
18
48
1
60
0
100
AcDbLine
10
59.510942
20
0.298674
30
0
11
59.588115
21
0.301524
31
0
39
0
210
0
220
0
230
1
0
LINE
5
81
100
AcDbEntity
8
1
62
256
6
ByLayer
370
18
48
1
60
0
100
AcDbLine
10
59.588115
20
0.301524
30
0
11
59.549345
21
-2E-05
31
0
39
0
210
0
220
0
230
1
0
LINE
5
82
100
AcDbEntity
8
1
62
256
6
ByLayer
370
18
48
1
60
0
100
AcDbLine
10
59.510944
20
-0.298691
30
0
11
59.356348
21
-1.501093
31
0
39
0
210
0
220
0
230
1
0
LINE
5
83
100
AcDbEntity
8
1
62
256
6
ByLayer
370
18
48
1
60
0
100
AcDbLine
10
59.356348
20
-1.501093
30
0
11
59.143139
21
-1.468715
31
0
39
0
210
0
220
0
230
1
0
LINE
5
84
100
AcDbEntity
8
1
62
256
6
ByLayer
370
18
48
1
60
0
100
AcDbLine
10
59.142721
20
-1.470199
30
0
11
59.143139
21
-1.468715
31
0
39
0
210
0
220
0
230
1
0
LINE
5
85
100
AcDbEntity
8
1
62
256
6
ByLayer
370
18
48
1
60
0
100
AcDbLine
10
59.143139
20
-1.468715
30
0
11
59.25249
21
-0.2819
31
0
39
0
210
0
220
0
230
1
0
LINE
5
86
100
AcDbEntity
8
1
62
256
6
ByLayer
370
18
48
1
60
0
100
AcDbLine
10
59.379726
20
9.961107
30
0
11
59.588115
21
9.756348
31
0
39
0
210
0
220
0
230
1
0
LINE
5
87
100
AcDbEntity
8
1
62
256
6
ByLayer
370
18
48
1
60
0
100
AcDbLine
10
59.176122
20
2.091472
30
0
11
59.588115
21
9.756348
31
0
39
0
210
0
220
0
230
1
0
LINE
5
88
100
AcDbEntity
8
1
62
256
6
ByLayer
370
13
48
1
60
0
100
AcDbLine
10
58.809885
20
-0.204882
30
0
11
59.028206
21
-0.585158
31
0
39
0
210
0
220
0
230
1
0
LINE
5
89
100
AcDbEntity
8
1
62
256
6
ByLayer
370
18
48
1
60
0
100
AcDbLine
10
59.07722
20
-0.251469
30
0
11
59.588115
21
-9.756348
31
0
39
0
210
0
220
0
230
1
0
LINE
5
8A
100
AcDbEntity
8
1
62
256
6
ByLayer
370
18
48
1
60
0
100
AcDbLine
10
59.028206
20
-0.585158
30
0
11
59.010443
21
-0.239814
31
0
39
0
210
0
220
0
230
1
0
LINE
5
8B
100
AcDbEntity
8
1
62
256
6
ByLayer
370
18
48
1
60
0
100
AcDbLine
10
59.379726
20
-9.961107
30
0
11
59.588115
21
-9.756348
31
0
39
0
210
0
220
0
230
1
0
LINE
5
8C
100
AcDbEntity
8
1
62
256
6
ByLayer
370
18
48
1
60
0
100
AcDbLine
10
59.588115
20
-9.756348
30
0
11
59.356348
21
-9.427121
31
0
39
0
210
0
220
0
230
1
0
LINE
5
8D
100
AcDbEntity
8
1
62
256
6
ByLayer
370
18
48
1
60
0
100
AcDbLine
10
59.356348
20
-9.427121
30
0
11
59.283188
21
-9.424365
31
0
39
0
210
0
220
0
230
1
0
LINE
5
8E
100
AcDbEntity
8
1
62
256
6
ByLayer
370
18
48
1
60
0
100
AcDbLine
10
59.356348
20
-9.427121
30
0
11
59.022003
21
-3.066723
31
0
39
0
210
0
220
0
230
1
0
LINE
5
8F
100
AcDbEntity
8
1
62
256
6
ByLayer
370
18
48
1
60
0
100
AcDbLine
10
58.323392
20
-5.507766
30
0
11
59.022003
21
-3.066723
31
0
39
0
210
0
220
0
230
1
0
LINE
5
90
100
AcDbEntity
8
1
62
256
6
ByLayer
370
18
48
1
60
0
100
AcDbLine
10
59.022003
20
-3.066723
30
0
11
59.023561
21
-3.036799
31
0
39
0
210
0
220
0
230
1
0
LINE
5
91
100
AcDbEntity
8
1
62
256
6
ByLayer
370
13
48
1
60
0
100
AcDbLine
10
58.405471
20
-1.948716
30
0
11
53.85933
21
-1.069368
31
0
39
0
210
0
220
0
230
1
0
LINE
5
92
100
AcDbEntity
8
1
62
256
6
ByLayer
370
18
48
1
60
0
100
AcDbLine
10
55.362415
20
0.452045
30
0
11
58.305807
21
-0.117288
31
0
39
0
210
0
220
0
230
1
0
LINE
5
93
100
AcDbEntity
8
1
62
256
6
ByLayer
370
18
48
1
60
0
100
AcDbLine
10
59.305283
20
-0.291078
30
0
11
58.305807
21
-0.117288
31
0
39
0
210
0
220
0
230
1
0
LINE
5
94
100
AcDbEntity
8
1
62
256
6
ByLayer
370
18
48
1
60
0
100
AcDbLine
10
59.305283
20
-0.291078
30
0
11
59.588115
21
-0.301524
31
0
39
0
210
0
220
0
230
1
0
LINE
5
95
100
AcDbEntity
8
1
62
256
6
ByLayer
370
18
48
1
60
0
100
AcDbLine
10
59.379726
20
-0.261244
30
0
11
59.588115
21
-0.301524
31
0
39
0
210
0
220
0
230
1
0
LINE
5
96
100
AcDbEntity
8
1
62
256
6
ByLayer
370
18
48
1
60
0
100
AcDbLine
10
59.588115
20
-0.301524
30
0
11
59.356348
21
1.501093
31
0
39
0
210
0
220
0
230
1
0
LINE
5
97
100
AcDbEntity
8
1
62
256
6
ByLayer
370
18
48
1
60
0
100
AcDbLine
10
59.356348
20
1.501093
30
0
11
59.283188
21
1.750809
31
0
39
0
210
0
220
0
230
1
0
LINE
5
98
100
AcDbEntity
8
SK1
62
256
6
ByLayer
370
18
48
1
60
0
100
AcDbLine
10
-50
20
-9
30
0
11
-50
21
9
31
0
39
0
210
0
220
0
230
1
0
LINE
5
9A
100
AcDbEntity
8
SK1
62
256
6
ByLayer
370
18
48
1
60
0
100
AcDbLine
10
0
20
10
30
0
11
0
21
0
31
0
39
0
210
0
220
0
230
1
0
LINE
5
9B
100
AcDbEntity
8
SK1
62
256
6
ByLayer
370
18
48
1
60
0
100
AcDbLine
10
0
20
0
30
0
11
0
21
-10
31
0
39
0
210
0
220
0
230
1
0
LINE
5
9C
100
AcDbEntity
8
SK1
62
256
6
ByLayer
370
18
48
1
60
0
100
AcDbLine
10
-49
20
10
30
0
11
-49
21
-10
31
0
39
0
210
0
220
0
230
1
0
LINE
5
9D
100
AcDbEntity
8
SK1
62
256
6
ByLayer
370
18
48
1
60
0
100
AcDbLine
10
-30.5
20
8.2
30
0
11
-32.3
21
10
31
0
39
0
210
0
220
0
230
1
0
LINE
5
9E
100
AcDbEntity
8
SK1
62
256
6
ByLayer
370
18
48
1
60
0
100
AcDbLine
10
-17.7
20
10
30
0
11
-19.5
21
8.2
31
0
39
0
210
0
220
0
230
1
0
LINE
5
9F
100
AcDbEntity
8
SK1
62
256
6
ByLayer
370
18
48
1
60
0
100
AcDbLine
10
-30.5
20
8.2
30
0
11
-19.5
21
8.2
31
0
39
0
210
0
220
0
230
1
0
LINE
5
A0
100
AcDbEntity
8
1
62
256
6
ByLayer
370
18
48
1
60
0
100
AcDbLine
10
10.418204
20
10
30
0
11
0
21
10
31
0
39
0
210
0
220
0
230
1
0
LINE
5
A1
100
AcDbEntity
8
1
62
256
6
ByLayer
370
18
48
1
60
0
100
AcDbLine
10
0
20
-10
30
0
11
10.418204
21
-10
31
0
39
0
210
0
220
0
230
1
0
LINE
5
A2
100
AcDbEntity
8
SK1
62
256
6
ByLayer
370
18
48
1
60
0
100
AcDbLine
10
-50
20
-9
30
0
11
-49
21
-10
31
0
39
0
210
0
220
0
230
1
0
LINE
5
A3
100
AcDbEntity
8
SK1
62
256
6
ByLayer
370
18
48
1
60
0
100
AcDbLine
10
-49
20
10
30
0
11
-50
21
9
31
0
39
0
210
0
220
0
230
1
0
LINE
5
A4
100
AcDbEntity
8
SK1
62
256
6
ByLayer
370
18
48
1
60
0
100
AcDbLine
10
0
20
10
30
0
11
-17.7
21
10
31
0
39
0
210
0
220
0
230
1
0
LINE
5
A5
100
AcDbEntity
8
SK1
62
256
6
ByLayer
370
18
48
1
60
0
100
AcDbLine
10
-32.3
20
10
30
0
11
-49
21
10
31
0
39
0
210
0
220
0
230
1
0
LINE
5
A6
100
AcDbEntity
8
SK1
62
256
6
ByLayer
370
18
48
1
60
0
100
AcDbLine
10
-49
20
-10
30
0
11
0
21
-10
31
0
39
0
210
0
220
0
230
1
0
LINE
5
A7
100
AcDbEntity
8
SK2
62
256
6
ByLayer
370
18
48
1
60
0
100
AcDbLine
10
-57.25
20
10
30
0
11
-57.25
21
-28.930932
31
0
39
0
210
0
220
0
230
1
0
LINE
5
A9
100
AcDbEntity
8
SK2
62
256
6
ByLayer
370
18
48
1
60
0
100
AcDbLine
10
-50.5875
20
10
30
0
11
-59.25
21
10
31
0
39
0
210
0
220
0
230
1
0
LINE
5
AA
100
AcDbEntity
8
SK2
62
256
6
ByLayer
370
18
48
1
60
0
100
AcDbLine
10
-50.5875
20
-10
30
0
11
-59.25
21
-10
31
0
39
0
210
0
220
0
230
1
0
LINE
5
AB
100
AcDbEntity
8
1
62
256
6
ByLayer
370
18
48
1
60
1
100
AcDbLine
10
-57.25
20
10
30
0
11
-56.789216
21
6.500002
31
0
39
0
210
0
220
0
230
1
0
LINE
5
AC
100
AcDbEntity
8
1
62
256
6
ByLayer
370
18
48
1
60
1
100
AcDbLine
10
-56.789216
20
6.500002
30
0
11
-57.710784
21
6.499998
31
0
39
0
210
0
220
0
230
1
0
LINE
5
AD
100
AcDbEntity
8
1
62
256
6
ByLayer
370
18
48
1
60
1
100
AcDbLine
10
-57.710784
20
6.499998
30
0
11
-57.25
21
10
31
0
39
0
210
0
220
0
230
1
0
LINE
5
AE
100
AcDbEntity
8
1
62
256
6
ByLayer
370
18
48
1
60
1
100
AcDbLine
10
-57.25
20
-10
30
0
11
-57.710784
21
-6.500002
31
0
39
0
210
0
220
0
230
1
0
LINE
5
AF
100
AcDbEntity
8
1
62
256
6
ByLayer
370
18
48
1
60
1
100
AcDbLine
10
-57.710784
20
-6.500002
30
0
11
-56.789216
21
-6.499998
31
0
39
0
210
0
220
0
230
1
0
LINE
5
B0
100
AcDbEntity
8
1
62
256
6
ByLayer
370
18
48
1
60
1
100
AcDbLine
10
-56.789216
20
-6.499998
30
0
11
-57.25
21
-10
31
0
39
0
210
0
220
0
230
1
0
LINE
5
B1
100
AcDbEntity
8
2
62
256
6
ByLayer
370
18
48
1
60
0
100
AcDbLine
10
71.6
20
-10.0001
30
0
11
71.6
21
28.931032
31
0
39
0
210
0
220
0
230
1
0
LINE
5
B3
100
AcDbEntity
8
2
62
256
6
ByLayer
370
18
48
1
60
0
100
AcDbLine
10
61.1875
20
10.0001
30
0
11
73.6
21
10.0001
31
0
39
0
210
0
220
0
230
1
0
LINE
5
B4
100
AcDbEntity
8
2
62
256
6
ByLayer
370
18
48
1
60
0
100
AcDbLine
10
61.1875
20
-10.0001
30
0
11
73.6
21
-10.0001
31
0
39
0
210
0
220
0
230
1
0
LINE
5
B5
100
AcDbEntity
8
1
62
256
6
ByLayer
370
18
48
1
60
1
100
AcDbLine
10
71.6
20
10.0001
30
0
11
72.060784
21
6.500102
31
0
39
0
210
0
220
0
230
1
0
LINE
5
B6
100
AcDbEntity
8
1
62
256
6
ByLayer
370
18
48
1
60
1
100
AcDbLine
10
72.060784
20
6.500102
30
0
11
71.139216
21
6.500098
31
0
39
0
210
0
220
0
230
1
0
LINE
5
B7
100
AcDbEntity
8
1
62
256
6
ByLayer
370
18
48
1
60
1
100
AcDbLine
10
71.139216
20
6.500098
30
0
11
71.6
21
10.0001
31
0
39
0
210
0
220
0
230
1
0
LINE
5
B8
100
AcDbEntity
8
1
62
256
6
ByLayer
370
18
48
1
60
1
100
AcDbLine
10
71.6
20
-10.0001
30
0
11
71.139216
21
-6.500102
31
0
39
0
210
0
220
0
230
1
0
LINE
5
B9
100
AcDbEntity
8
1
62
256
6
ByLayer
370
18
48
1
60
1
100
AcDbLine
10
71.139216
20
-6.500102
30
0
11
72.060784
21
-6.500098
31
0
39
0
210
0
220
0
230
1
0
LINE
5
BA
100
AcDbEntity
8
1
62
256
6
ByLayer
370
18
48
1
60
1
100
AcDbLine
10
72.060784
20
-6.500098
30
0
11
71.6
21
-10.0001
31
0
39
0
210
0
220
0
230
1
0
LINE
5
BB
100
AcDbEntity
8
SK2
62
256
6
ByLayer
370
18
48
1
60
0
100
AcDbLine
10
59.6
20
-40.77593
30
0
11
-50
21
-40.77593
31
0
39
0
210
0
220
0
230
1
0
LINE
5
BC
100
AcDbEntity
8
SK2
62
256
6
ByLayer
370
18
48
1
60
0
100
AcDbLine
10
-50
20
-10.5875
30
0
11
-50
21
-42.77593
31
0
39
0
210
0
220
0
230
1
0
LINE
5
BD
100
AcDbEntity
8
SK2
62
256
6
ByLayer
370
18
48
1
60
0
100
AcDbLine
10
59.6
20
-11.5876
30
0
11
59.6
21
-42.77593
31
0
39
0
210
0
220
0
230
1
0
LINE
5
BE
100
AcDbEntity
8
1
62
256
6
ByLayer
370
18
48
1
60
1
100
AcDbLine
10
-50
20
-40.77593
30
0
11
-46.500002
21
-40.315146
31
0
39
0
210
0
220
0
230
1
0
LINE
5
BF
100
AcDbEntity
8
1
62
256
6
ByLayer
370
18
48
1
60
1
100
AcDbLine
10
-46.500002
20
-40.315146
30
0
11
-46.499998
21
-41.236714
31
0
39
0
210
0
220
0
230
1
0
LINE
5
C0
100
AcDbEntity
8
1
62
256
6
ByLayer
370
18
48
1
60
1
100
AcDbLine
10
-46.499998
20
-41.236714
30
0
11
-50
21
-40.77593
31
0
39
0
210
0
220
0
230
1
0
LINE
5
C1
100
AcDbEntity
8
1
62
256
6
ByLayer
370
18
48
1
60
1
100
AcDbLine
10
59.6
20
-40.77593
30
0
11
56.100002
21
-41.236714
31
0
39
0
210
0
220
0
230
1
0
LINE
5
C2
100
AcDbEntity
8
1
62
256
6
ByLayer
370
18
48
1
60
1
100
AcDbLine
10
56.100002
20
-41.236714
30
0
11
56.099998
21
-40.315146
31
0
39
0
210
0
220
0
230
1
0
LINE
5
C3
100
AcDbEntity
8
1
62
256
6
ByLayer
370
18
48
1
60
1
100
AcDbLine
10
56.099998
20
-40.315146
30
0
11
59.6
21
-40.77593
31
0
39
0
210
0
220
0
230
1
0
LINE
5
115
100
AcDbEntity
8
1
62
256
6
ByLayer
370
18
48
1
60
1
100
AcDbLine
10
-57.25
20
10
30
0
11
-56.789216
21
6.500002
31
0
39
0
210
0
220
0
230
1
0
LINE
5
116
100
AcDbEntity
8
1
62
256
6
ByLayer
370
18
48
1
60
1
100
AcDbLine
10
-56.789216
20
6.500002
30
0
11
-57.710784
21
6.499998
31
0
39
0
210
0
220
0
230
1
0
LINE
5
117
100
AcDbEntity
8
1
62
256
6
ByLayer
370
18
48
1
60
1
100
AcDbLine
10
-57.710784
20
6.499998
30
0
11
-57.25
21
10
31
0
39
0
210
0
220
0
230
1
0
LINE
5
119
100
AcDbEntity
8
1
62
256
6
ByLayer
370
18
48
1
60
1
100
AcDbLine
10
-57.25
20
-10
30
0
11
-57.710784
21
-6.500002
31
0
39
0
210
0
220
0
230
1
0
LINE
5
11A
100
AcDbEntity
8
1
62
256
6
ByLayer
370
18
48
1
60
1
100
AcDbLine
10
-57.710784
20
-6.500002
30
0
11
-56.789216
21
-6.499998
31
0
39
0
210
0
220
0
230
1
0
LINE
5
11B
100
AcDbEntity
8
1
62
256
6
ByLayer
370
18
48
1
60
1
100
AcDbLine
10
-56.789216
20
-6.499998
30
0
11
-57.25
21
-10
31
0
39
0
210
0
220
0
230
1
0
LINE
5
11F
100
AcDbEntity
8
1
62
256
6
ByLayer
370
18
48
1
60
1
100
AcDbLine
10
71.6
20
10.0001
30
0
11
72.060784
21
6.500102
31
0
39
0
210
0
220
0
230
1
0
LINE
5
120
100
AcDbEntity
8
1
62
256
6
ByLayer
370
18
48
1
60
1
100
AcDbLine
10
72.060784
20
6.500102
30
0
11
71.139216
21
6.500098
31
0
39
0
210
0
220
0
230
1
0
LINE
5
121
100
AcDbEntity
8
1
62
256
6
ByLayer
370
18
48
1
60
1
100
AcDbLine
10
71.139216
20
6.500098
30
0
11
71.6
21
10.0001
31
0
39
0
210
0
220
0
230
1
0
LINE
5
123
100
AcDbEntity
8
1
62
256
6
ByLayer
370
18
48
1
60
1
100
AcDbLine
10
71.6
20
-10.0001
30
0
11
71.139216
21
-6.500102
31
0
39
0
210
0
220
0
230
1
0
LINE
5
124
100
AcDbEntity
8
1
62
256
6
ByLayer
370
18
48
1
60
1
100
AcDbLine
10
71.139216
20
-6.500102
30
0
11
72.060784
21
-6.500098
31
0
39
0
210
0
220
0
230
1
0
LINE
5
125
100
AcDbEntity
8
1
62
256
6
ByLayer
370
18
48
1
60
1
100
AcDbLine
10
72.060784
20
-6.500098
30
0
11
71.6
21
-10.0001
31
0
39
0
210
0
220
0
230
1
0
LINE
5
128
100
AcDbEntity
8
1
62
256
6
ByLayer
370
18
48
1
60
1
100
AcDbLine
10
-50
20
-40.77593
30
0
11
-46.500002
21
-40.315146
31
0
39
0
210
0
220
0
230
1
0
LINE
5
129
100
AcDbEntity
8
1
62
256
6
ByLayer
370
18
48
1
60
1
100
AcDbLine
10
-46.500002
20
-40.315146
30
0
11
-46.499998
21
-41.236714
31
0
39
0
210
0
220
0
230
1
0
LINE
5
12A
100
AcDbEntity
8
1
62
256
6
ByLayer
370
18
48
1
60
1
100
AcDbLine
10
-46.499998
20
-41.236714
30
0
11
-50
21
-40.77593
31
0
39
0
210
0
220
0
230
1
0
LINE
5
12C
100
AcDbEntity
8
1
62
256
6
ByLayer
370
18
48
1
60
1
100
AcDbLine
10
59.6
20
-40.77593
30
0
11
56.100002
21
-41.236714
31
0
39
0
210
0
220
0
230
1
0
LINE
5
12D
100
AcDbEntity
8
1
62
256
6
ByLayer
370
18
48
1
60
1
100
AcDbLine
10
56.100002
20
-41.236714
30
0
11
56.099998
21
-40.315146
31
0
39
0
210
0
220
0
230
1
0
LINE
5
12E
100
AcDbEntity
8
1
62
256
6
ByLayer
370
18
48
1
60
1
100
AcDbLine
10
56.099998
20
-40.315146
30
0
11
59.6
21
-40.77593
31
0
39
0
210
0
220
0
230
1
0
MTEXT
5
111
100
AcDbEntity
8
SK2
62
256
6
ByLayer
370
18
48
1
60
0
100
AcDbMText
10
-58.814634
20
-26.996089
30
0
210
0
220
0
230
1
1
%%c
40
3.5
41
0
44
1.084337
50
90
71
7
72
5
7
iso_b_vert
0
MTEXT
5
114
100
AcDbEntity
8
SK2
62
256
6
ByLayer
370
18
48
1
60
0
100
AcDbMText
10
-58.814634
20
-20.023432
30
0
210
0
220
0
230
1
1
\W0.6740;20
40
3.5
41
0
44
1.084337
50
90
71
7
72
5
7
iso_b_vert
0
MTEXT
5
11D
100
AcDbEntity
8
2
62
256
6
ByLayer
370
18
48
1
60
0
100
AcDbMText
10
70.035366
20
17.934944
30
0
210
0
220
0
230
1
1
%%c
40
3.5
41
0
44
1.084337
50
90
71
7
72
5
7
iso_b_vert
0
MTEXT
5
11E
100
AcDbEntity
8
2
62
256
6
ByLayer
370
18
48
1
60
0
100
AcDbMText
10
70.035366
20
24.9076
30
0
210
0
220
0
230
1
1
\W0.6740;20
40
3.5
41
0
44
1.084337
50
90
71
7
72
5
7
iso_b_vert
0
MTEXT
5
127
100
AcDbEntity
8
SK2
62
256
6
ByLayer
370
18
48
1
60
0
100
AcDbMText
10
0.008001
20
-39.743296
30
0
210
0
220
0
230
1
1
\W0.6864;109.6
40
3.5
41
0
44
1.084337
50
0
71
7
72
5
7
iso_b_vert
0
MTEXT
5
130
100
AcDbEntity
8
SK6
62
256
6
ByLayer
370
18
48
1
60
0
100
AcDbMText
10
-19.10348
20
-62.114886
30
0
210
0
220
0
230
1
1
\W0.7279;2P342-2000-PB       P2BM
40
3
41
0
44
1.084337
50
0
71
7
72
5
7
iso_b_vert
0
HATCH
5
118
100
AcDbEntity
8
SK2
62
256
6
ByLayer
370
13
48
1
60
0
100
AcDbHatch
10
0
20
0
30
0
210
0
220
0
230
1
2
ANSI31
70
0
71
0
91
1
92
5
93
3
72
1
10
-57.2500000000001
20
9.99999999999994
11
-56.7892162584473
21
6.50000169255313
72
1
10
-56.7892162584473
20
6.50000169255313
11
-57.7107837415528
21
6.49999830744676
72
1
10
-57.7107837415528
20
6.49999830744676
11
-57.2500000000001
21
9.99999999999994
97
0
75
0
76
1
52
0
41
0.0062
77
0
78
1
53
45
43
0
44
0
45
-0.0139193969876572
46
0.0139193969876572
79
0
47
0
98
1
10
0
20
0
0
HATCH
5
11C
100
AcDbEntity
8
SK2
62
256
6
ByLayer
370
13
48
1
60
0
100
AcDbHatch
10
0
20
0
30
0
210
0
220
0
230
1
2
ANSI31
70
0
71
0
91
1
92
5
93
3
72
1
10
-57.2500000000001
20
-10.0000000000001
11
-57.7107837415528
21
-6.50000169255324
72
1
10
-57.7107837415528
20
-6.50000169255324
11
-56.7892162584473
21
-6.49999830744687
72
1
10
-56.7892162584473
20
-6.49999830744687
11
-57.2500000000001
21
-10.0000000000001
97
0
75
0
76
1
52
0
41
0.0062
77
0
78
1
53
45
43
0
44
0
45
-0.0139193969876572
46
0.0139193969876572
79
0
47
0
98
1
10
0
20
0
0
HATCH
5
122
100
AcDbEntity
8
2
62
256
6
ByLayer
370
13
48
1
60
0
100
AcDbHatch
10
0
20
0
30
0
210
0
220
0
230
1
2
ANSI31
70
0
71
0
91
1
92
5
93
3
72
1
10
71.6
20
10.0000999999998
11
72.0607837415528
21
6.50010169255296
72
1
10
72.0607837415528
20
6.50010169255296
11
71.1392162584472
21
6.50009830744659
72
1
10
71.1392162584472
20
6.50009830744659
11
71.6
21
10.0000999999998
97
0
75
0
76
1
52
0
41
0.0062
77
0
78
1
53
45
43
0
44
0
45
-0.0139193969876572
46
0.0139193969876572
79
0
47
0
98
1
10
0
20
0
0
HATCH
5
126
100
AcDbEntity
8
2
62
256
6
ByLayer
370
13
48
1
60
0
100
AcDbHatch
10
0
20
0
30
0
210
0
220
0
230
1
2
ANSI31
70
0
71
0
91
1
92
5
93
3
72
1
10
71.6
20
-10.0001000000002
11
71.1392162584472
21
-6.50010169255342
72
1
10
71.1392162584472
20
-6.50010169255342
11
72.0607837415528
21
-6.50009830744705
72
1
10
72.0607837415528
20
-6.50009830744705
11
71.6
21
-10.0001000000002
97
0
75
0
76
1
52
0
41
0.0062
77
0
78
1
53
45
43
0
44
0
45
-0.0139193969876572
46
0.0139193969876572
79
0
47
0
98
1
10
0
20
0
0
HATCH
5
12B
100
AcDbEntity
8
SK2
62
256
6
ByLayer
370
13
48
1
60
0
100
AcDbHatch
10
0
20
0
30
0
210
0
220
0
230
1
2
ANSI31
70
0
71
0
91
1
92
5
93
3
72
1
10
-50
20
-40.7759298538212
11
-46.5000016925532
21
-40.3151461122684
72
1
10
-46.5000016925532
20
-40.3151461122684
11
-46.4999983074468
21
-41.2367135953739
72
1
10
-46.4999983074468
20
-41.2367135953739
11
-50
21
-40.7759298538212
97
0
75
0
76
1
52
0
41
0.0062
77
0
78
1
53
45
43
0
44
0
45
-0.0139193969876572
46
0.0139193969876572
79
0
47
0
98
1
10
0
20
0
0
HATCH
5
12F
100
AcDbEntity
8
SK2
62
256
6
ByLayer
370
13
48
1
60
0
100
AcDbHatch
10
0
20
0
30
0
210
0
220
0
230
1
2
ANSI31
70
0
71
0
91
1
92
5
93
3
72
1
10
59.6
20
-40.7759298538212
11
56.1000016925532
21
-41.2367135953739
72
1
10
56.1000016925532
20
-41.2367135953739
11
56.0999983074468
21
-40.3151461122684
72
1
10
56.0999983074468
20
-40.3151461122684
11
59.6
21
-40.7759298538212
97
0
75
0
76
1
52
0
41
0.0062
77
0
78
1
53
45
43
0
44
0
45
-0.0139193969876572
46
0.0139193969876572
79
0
47
0
98
1
10
0
20
0
0
DIMENSION
5
133
100
AcDbEntity
8
2
62
256
6
ByLayer
370
18
48
1
60
0
100
AcDbDimension
2
_U0
10
17.6
20
-24.77593
30
0
11
38.6
21
-24.77593
31
0
70
32
71
1
72
1
41
1
210
0
220
0
230
1
3
Standard
100
AcDbAlignedDimension
13
59.6
23
-10.0001
33
0
14
17.6
24
-10.0001
34
0
50
0
100
AcDbRotatedDimension
1001
ACAD
1000
DSTYLE
1002
{
1070
   371
1070
    13
1070
   372
1070
    13
1070
   170
1070
     0
1070
   144
1040
1.0
1070
   277
1070
     2
1070
   284
1070
     8
1070
   278
1070
    46
1070
   146
1040
1.0
1070
   345
1005
16
1070
   347
1005
16
1070
   346
1005
16
1070
   344
1005
0
1070
   343
1005
0
1070
   172
1070
     1
1070
    76
1070
     0
1070
    75
1070
     0
1070
   282
1070
     0
1070
   281
1070
     0
1070
    71
1070
     0
1070
    74
1070
     0
1070
   279
1070
     0
1070
   173
1070
     1
1070
   340
1005
112
1070
   271
1070
     2
1070
   272
1070
     2
1070
    77
1070
     1
1070
    73
1070
     1
1070
   171
1070
     3
1070
   274
1070
     4
1070
   177
1070
     2
1070
   176
1070
     2
1070
   178
1070
     2
1070
    78
1070
     8
1070
    48
1040
-0.1
1070
    41
1040
3.5
1070
   147
1040
1.75
1070
    42
1040
1.5875
1070
    44
1040
2.0
1070
   140
1040
3.5
1002
}
1001
ACAD_DSTYLE_DIM_LINETYPE
1070
   380
1005
16
1001
ACAD_DSTYLE_DIM_EXT1_LINETYPE
1070
   381
1005
16
1001
ACAD_DSTYLE_DIM_EXT2_LINETYPE
1070
   382
1005
16
0
ENDSEC
0
SECTION
2
OBJECTS
0
DICTIONARY
5
1bc
330
0
100
AcDbDictionary
280
0
281
1
3
ACAD_GROUP
350
1bd
3
ACAD_MLINESTYLE
350
1be
0
DICTIONARY
5
1bd
330
0
100
AcDbDictionary
280
0
281
1
0
DICTIONARY
5
1be
330
0
100
AcDbDictionary
280
0
281
1
3
Standard
350
18
0
MLINESTYLE
5
18
330
1be
100
AcDbMlineStyle
2
Standard
70
0
3

62
256
51
90
52
90
71
2
49
-0.5
62
256
6
ByLayer
49
0.5
62
256
6
ByLayer
0
RASTERVARIABLES
5
1aa
330

100
AcDbRasterVariables
90
0
70
1
71
1
72
1
0
ENDSEC
0
EOF
