0
SECTION
2
HEADER
9
$ACADVER
1
AC1015
9
$DWGCODEPAGE
3
ANSI_1252
9
$HANDSEED
5
1d0
9
$ANGBASE
50
0
9
$ANGDIR
70
0
9
$ATTMODE
70
1
9
$AUNITS
70
0
9
$AUPREC
70
0
9
$CECOLOR
62
256
9
$CELTSCALE
40
1
9
$CELTYPE
6
ByLayer
9
$CELWEIGHT
370
18
9
$CLAYER
8
0
9
$CMLJUST
70
0
9
$CMLSCALE
40
1
9
$CMLSTYLE
2
Standard
9
$DIMSTYLE
2
Standard
9
$TEXTSIZE
40
0.2
9
$TEXTSTYLE
7
Standard
9
$LUNITS
70
2
9
$LUPREC
70
4
9
$EXTNAMES
290
1
9
$INSUNITS
70
4
9
$LTSCALE
40
1
9
$LWDISPLAY
290
1
9
$PDMODE
70
0
9
$PDSIZE
40
0
9
$PLINEGEN
70
0
0
ENDSEC
0
SECTION
2
CLASSES
0
CLASS
1
RASTERVARIABLES
2
AcDbRasterVariables
3
ISM
90
0
280
0
281
0
0
ENDSEC
0
SECTION
2
TABLES
0
TABLE
2
VPORT
5
1c6
100
AcDbSymbolTable
0
VPORT
5
1
100
AcDbSymbolTableRecord
100
AcDbViewportTableRecord
2
*Active
70
0
10
0
20
0
11
1
21
1
12
-1
22
1
13
0
23
0
14
0.5
24
0.5
15
10
25
10
16
0
26
0
36
1
17
0
27
0
37
0
0
ENDTAB
0
TABLE
2
LTYPE
5
1c7
100
AcDbSymbolTable
0
LTYPE
5
14
100
AcDbSymbolTableRecord
100
AcDbLinetypeTableRecord
70
0
2
ByBlock
3

72
65
73
0
40
0
0
LTYPE
5
15
100
AcDbSymbolTableRecord
100
AcDbLinetypeTableRecord
70
0
2
ByLayer
3

72
65
73
0
40
0
0
LTYPE
5
16
100
AcDbSymbolTableRecord
100
AcDbLinetypeTableRecord
70
0
2
Continuous
3
Solid line
72
65
73
0
40
0
0
LTYPE
5
6E
100
AcDbSymbolTableRecord
100
AcDbLinetypeTableRecord
70
0
2
CENTER
3
____ _ ____ _ ____ _ ____
72
65
73
4
40
47.5
49
22
74
0
49
-8.5
74
0
49
8.5
74
0
49
-8.5
74
0
0
LTYPE
5
6F
100
AcDbSymbolTableRecord
100
AcDbLinetypeTableRecord
70
0
2
DASHED
3
__ __ __ __ __ __ __ __ __
72
65
73
2
40
25.72
49
12.86
74
0
49
-12.86
74
0
0
ENDTAB
0
TABLE
2
LAYER
5
1c8
100
AcDbSymbolTable
0
LAYER
5
10
100
AcDbSymbolTableRecord
100
AcDbLayerTableRecord
2
0
70
0
62
7
6
Continuous
290
1
370
-3
390
0
0
LAYER
5
71
100
AcDbSymbolTableRecord
100
AcDbLayerTableRecord
2
81
70
0
62
-3
6
Continuous
290
1
370
-3
390
0
0
LAYER
5
73
100
AcDbSymbolTableRecord
100
AcDbLayerTableRecord
2
80
70
0
62
-6
6
Continuous
290
1
370
-3
390
0
0
LAYER
5
75
100
AcDbSymbolTableRecord
100
AcDbLayerTableRecord
2
1
70
0
62
4
6
Continuous
290
1
370
-3
390
0
0
LAYER
5
79
100
AcDbSymbolTableRecord
100
AcDbLayerTableRecord
2
4
70
0
62
-2
6
CENTER
290
1
370
-3
390
0
0
LAYER
5
B3
100
AcDbSymbolTableRecord
100
AcDbLayerTableRecord
2
2
70
0
62
7
6
Continuous
290
1
370
-3
390
0
0
LAYER
5
13C
100
AcDbSymbolTableRecord
100
AcDbLayerTableRecord
2
Defpoints
70
0
62
7
6
Continuous
290
0
370
-3
390
0
0
LAYER
5
1b2
100
AcDbSymbolTableRecord
100
AcDbLayerTableRecord
2
SK4
70
0
62
2
6
CENTER
290
1
370
-3
390
0
0
LAYER
5
1b3
100
AcDbSymbolTableRecord
100
AcDbLayerTableRecord
2
SK1
70
0
62
4
6
Continuous
290
1
370
-3
390
0
0
LAYER
5
1b4
100
AcDbSymbolTableRecord
100
AcDbLayerTableRecord
2
SK2
70
0
62
7
6
Continuous
290
1
370
-3
390
0
0
LAYER
5
1b5
100
AcDbSymbolTableRecord
100
AcDbLayerTableRecord
2
SK6
70
0
62
5
6
Continuous
290
1
370
-3
390
0
0
ENDTAB
0
TABLE
2
STYLE
5
1c9
100
AcDbSymbolTable
0
STYLE
5
11
100
AcDbSymbolTableRecord
100
AcDbTextStyleTableRecord
2
Standard
3
txt
70
0
71
0
40
0
41
1
42
0
50
0
0
STYLE
5
118
100
AcDbSymbolTableRecord
100
AcDbTextStyleTableRecord
2
iso_b_vert
3
simplex.shx
70
0
71
0
40
0
41
1
42
0
50
0
0
STYLE
5
119
100
AcDbSymbolTableRecord
100
AcDbTextStyleTableRecord
2
DWGDirectTextStyle
3
simplex
70
0
71
0
40
0
41
1
42
0
50
0
0
ENDTAB
0
TABLE
2
DIMSTYLE
5
1ca
100
AcDbSymbolTable
100
AcDbDimStyleTable
0
DIMSTYLE
105
27
100
AcDbSymbolTableRecord
100
AcDbDimStyleTableRecord
2
Standard
70
0
3
<>
41
0.18
42
0.0625
44
0.18
140
0.18
147
0.09
73
0
74
0
77
1
271
2
275
0
278
52
280
0
340
11
0
ENDTAB
0
TABLE
2
VIEW
5
1cb
100
AcDbSymbolTable
0
ENDTAB
0
TABLE
2
UCS
5
1cc
100
AcDbSymbolTable
0
ENDTAB
0
TABLE
2
APPID
5
1cd
100
AcDbSymbolTable
0
APPID
5
12
100
AcDbSymbolTableRecord
100
AcDbRegAppTableRecord
2
ACAD
70
0
0
APPID
5
138
100
AcDbSymbolTableRecord
100
AcDbRegAppTableRecord
2
ACAD_DSTYLE_DIMBREAK
70
0
0
APPID
5
171
100
AcDbSymbolTableRecord
100
AcDbRegAppTableRecord
2
ACAD_DSTYLE_DIM_LINETYPE
70
0
0
APPID
5
172
100
AcDbSymbolTableRecord
100
AcDbRegAppTableRecord
2
ACAD_DSTYLE_DIM_EXT1_LINETYPE
70
0
0
APPID
5
173
100
AcDbSymbolTableRecord
100
AcDbRegAppTableRecord
2
ACAD_DSTYLE_DIM_EXT2_LINETYPE
70
0
0
APPID
5
1AE
100
AcDbSymbolTableRecord
100
AcDbRegAppTableRecord
2
ACAD_MLEADERVER
70
0
0
ENDTAB
0
TABLE
2
BLOCK_RECORD
5
1ce
100
AcDbSymbolTable
0
BLOCK_RECORD
5
1F
100
AcDbSymbolTableRecord
100
AcDbBlockTableRecord
2
*Model_Space
340
0
70
0
0
BLOCK_RECORD
5
1B
100
AcDbSymbolTableRecord
100
AcDbBlockTableRecord
2
*Paper_Space
340
0
70
0
0
BLOCK_RECORD
5
23
100
AcDbSymbolTableRecord
100
AcDbBlockTableRecord
2
*Paper_Space0
340
0
70
0
0
BLOCK_RECORD
5
13D
100
AcDbSymbolTableRecord
100
AcDbBlockTableRecord
2
*D1
340
0
70
0
0
BLOCK_RECORD
5
14A
100
AcDbSymbolTableRecord
100
AcDbBlockTableRecord
2
_U0
340
0
70
0
0
ENDTAB
0
ENDSEC
0
SECTION
2
BLOCKS
0
BLOCK
5
20
100
AcDbEntity
8
0
100
AcDbBlockBegin
2
*Model_Space
70
0
10
0
20
0
30
0
3
*Model_Space
0
ENDBLK
5
21
100
AcDbEntity
8
0
100
AcDbBlockEnd
0
BLOCK
5
1C
100
AcDbEntity
8
0
100
AcDbBlockBegin
2
*Paper_Space
70
0
10
0
20
0
30
0
3
*Paper_Space
0
ENDBLK
5
1D
100
AcDbEntity
8
0
100
AcDbBlockEnd
0
BLOCK
5
24
100
AcDbEntity
8
0
100
AcDbBlockBegin
2
*Paper_Space0
70
0
10
0
20
0
30
0
3
*Paper_Space0
0
ENDBLK
5
25
100
AcDbEntity
8
0
100
AcDbBlockEnd
0
BLOCK
5
13E
100
AcDbEntity
8
0
100
AcDbBlockBegin
2
*D1
70
1
10
0
20
0
30
0
3
*D1
0
LINE
5
140
100
AcDbEntity
8
0
62
256
6
ByLayer
370
-2
48
1
60
0
100
AcDbLine
10
21
20
-3.0876
30
0
11
21
21
-19.1
31
0
39
0
210
0
220
0
230
1
0
LINE
5
141
100
AcDbEntity
8
0
62
256
6
ByLayer
370
-2
48
1
60
0
100
AcDbLine
10
14
20
-3.0876
30
0
11
14
21
-19.1
31
0
39
0
210
0
220
0
230
1
0
LINE
5
142
100
AcDbEntity
8
0
62
256
6
ByLayer
370
-2
48
1
60
0
100
AcDbLine
10
24.5
20
-17.1
30
0
11
28
21
-17.1
31
0
39
0
210
0
220
0
230
1
0
LINE
5
143
100
AcDbEntity
8
0
62
256
6
ByLayer
370
-2
48
1
60
0
100
AcDbLine
10
10.5
20
-17.1
30
0
11
7
21
-17.1
31
0
39
0
210
0
220
0
230
1
0
SOLID
5
144
100
AcDbEntity
8
0
62
256
6
ByLayer
370
-1
48
1
60
0
100
AcDbTrace
10
24.5
20
-16.516667
30
0
11
24.5
21
-17.683333
31
0
12
21
22
-17.1
32
0
13
21
23
-17.1
33
0
39
0
210
0
220
0
230
1
0
SOLID
5
145
100
AcDbEntity
8
0
62
256
6
ByLayer
370
-1
48
1
60
0
100
AcDbTrace
10
10.5
20
-17.683333
30
0
11
10.5
21
-16.516667
31
0
12
14
22
-17.1
32
0
13
14
23
-17.1
33
0
39
0
210
0
220
0
230
1
0
MTEXT
5
146
100
AcDbEntity
8
0
62
256
6
ByLayer
370
18
48
1
60
0
100
AcDbMText
10
17.5
20
-10.1
30
0
210
0
220
0
230
1
1
\A1;7
40
3.5
41
0
44
1
50
0
71
5
72
5
7
iso_b_vert
0
POINT
5
147
100
AcDbEntity
8
Defpoints
62
0
6
ByLayer
370
-1
48
1
60
0
100
AcDbPoint
10
21
20
-1.5001
30
0
39
0
210
0
220
0
230
1
50
360
0
POINT
5
148
100
AcDbEntity
8
Defpoints
62
0
6
ByLayer
370
-1
48
1
60
0
100
AcDbPoint
10
14
20
-1.5001
30
0
39
0
210
0
220
0
230
1
50
360
0
POINT
5
149
100
AcDbEntity
8
Defpoints
62
0
6
ByLayer
370
-1
48
1
60
0
100
AcDbPoint
10
14
20
-17.1
30
0
39
0
210
0
220
0
230
1
50
360
0
ENDBLK
5
13F
100
AcDbEntity
8
0
100
AcDbBlockEnd
0
BLOCK
5
151
100
AcDbEntity
8
0
100
AcDbBlockBegin
2
_U0
70
0
10
0
20
0
30
0
3
_U0
0
MTEXT
5
14B
100
AcDbEntity
8
2
62
256
6
ByLayer
370
18
48
1
60
0
100
AcDbMText
10
16.902767
20
-16.067366
30
0
210
0
220
0
230
1
1
\W0.5404;7
40
3.5
41
0
44
1.084337
50
0
71
7
72
5
7
iso_b_vert
0
LINE
5
14C
100
AcDbEntity
8
2
62
256
6
ByLayer
370
13
48
1
60
0
100
AcDbLine
10
21
20
-3.0876
30
0
11
21
21
-19.1
31
0
39
0
210
0
220
0
230
1
0
LINE
5
14D
100
AcDbEntity
8
2
62
256
6
ByLayer
370
13
48
1
60
0
100
AcDbLine
10
14
20
-3.0876
30
0
11
14
21
-19.1
31
0
39
0
210
0
220
0
230
1
0
LINE
5
14E
100
AcDbEntity
8
2
62
256
6
ByLayer
370
13
48
1
60
0
100
AcDbLine
10
29.75
20
-17.1
30
0
11
5.25
21
-17.1
31
0
39
0
210
0
220
0
230
1
0
SOLID
5
14F
100
AcDbEntity
8
2
62
256
6
ByLayer
370
18
48
1
60
0
100
AcDbTrace
10
21
20
-17.1
30
0
11
24.499998
21
-16.639216
31
0
12
24.500002
22
-17.560784
32
0
13
24.500002
23
-17.560784
33
0
39
0
210
0
220
0
230
1
0
SOLID
5
150
100
AcDbEntity
8
2
62
256
6
ByLayer
370
18
48
1
60
0
100
AcDbTrace
10
14
20
-17.1
30
0
11
10.500002
21
-17.560784
31
0
12
10.499998
22
-16.639216
32
0
13
10.499998
23
-16.639216
33
0
39
0
210
0
220
0
230
1
0
ENDBLK
5
152
100
AcDbEntity
8
0
100
AcDbBlockEnd
0
ENDSEC
0
SECTION
2
ENTITIES
0
ARC
5
C5
100
AcDbEntity
8
1
62
256
6
ByLayer
370
18
48
1
60
0
100
AcDbCircle
39
0
10
7.397679
20
2.5
30
0
40
1
210
0
220
0
230
1
100
AcDbArc
50
240
51
270
0
ARC
5
C6
100
AcDbEntity
8
1
62
256
6
ByLayer
370
18
48
1
60
0
100
AcDbCircle
39
0
10
7.397679
20
-2.5
30
0
40
1
210
0
220
0
230
1
100
AcDbArc
50
90
51
120
0
ELLIPSE
5
C7
100
AcDbEntity
8
1
62
256
6
ByLayer
370
18
48
1
60
0
100
AcDbEllipse
10
20.901994
20
-0.101656
30
0
11
0.0186083521514377
21
-0.360057848382069
31
0
210
0
220
0
230
1
40
0.053243
41
-0.256609837703877
42
1.5696795671536
0
ELLIPSE
5
C8
100
AcDbEntity
8
1
62
256
6
ByLayer
370
18
48
1
60
0
100
AcDbEllipse
10
20.91397
20
-0.122369
30
0
11
0.0310216894500642
21
-0.366255334754925
31
0
210
0
220
0
230
1
40
0.157464
41
-0.523594084937398
42
-0.47583106248891
0
ELLIPSE
5
C9
100
AcDbEntity
8
1
62
256
6
ByLayer
370
18
48
1
60
0
100
AcDbEllipse
10
24.868972
20
-6.962849
30
0
11
5.50398583720876
21
-9.24423031924552
31
0
210
0
220
0
230
1
40
0.008434
41
-2.38791744700768
42
-2.35878796555561
0
ELLIPSE
5
CA
100
AcDbEntity
8
1
62
256
6
ByLayer
370
18
48
1
60
0
100
AcDbEllipse
10
20.845402
20
-0.153017
30
0
11
0.0570604686319805
21
-0.175708004432859
31
0
210
0
220
0
230
1
40
0.481231
41
2.92045412033897
42
-1.96012212313332
0
ELLIPSE
5
CB
100
AcDbEntity
8
1
62
256
6
ByLayer
370
13
48
1
60
0
100
AcDbEllipse
10
10.796775
20
16.831337
30
0
11
53.7085408585748
21
-45.8420404653209
31
0
210
0
220
0
230
1
40
0.155239
41
-1.41330017218819
42
-1.38690771683906
0
ELLIPSE
5
CC
100
AcDbEntity
8
1
62
256
6
ByLayer
370
13
48
1
60
0
100
AcDbEllipse
10
10.796775
20
-68.070396
30
0
11
21.7153995466809
21
-67.1903375323367
31
0
210
0
220
0
230
1
40
0.738731
41
2.69529241629169
42
2.70342334819099
0
POINT
5
70
100
AcDbEntity
8
81
62
256
6
ByLayer
370
18
48
1
60
0
100
AcDbPoint
10
21
20
0
30
0
39
0
210
0
220
0
230
1
50
360
0
POINT
5
72
100
AcDbEntity
8
80
62
256
6
ByLayer
370
18
48
1
60
0
100
AcDbPoint
10
0
20
0
30
0
39
0
210
0
220
0
230
1
50
360
0
POINT
5
74
100
AcDbEntity
8
1
62
256
6
ByLayer
370
18
48
1
60
1
100
AcDbPoint
10
21
20
-1.5001
30
0
39
0
210
0
220
0
230
1
50
360
0
POINT
5
76
100
AcDbEntity
8
1
62
256
6
ByLayer
370
18
48
1
60
1
100
AcDbPoint
10
14
20
-1.5001
30
0
39
0
210
0
220
0
230
1
50
360
0
SPLINE
5
CD
100
AcDbEntity
8
1
62
256
6
ByLayer
370
18
48
1
60
0
100
AcDbSpline
70
4
71
1
72
4
73
2
40
0
40
0
40
1
40
1
41
1
10
20.9409903307766
20
-0.266344074659912
30
0
41
1
10
20.9396959807348
20
-0.265288310099209
30
0
0
SPLINE
5
CE
100
AcDbEntity
8
1
62
256
6
ByLayer
370
18
48
1
60
0
100
AcDbSpline
70
4
71
1
72
4
73
2
40
0
40
0
40
1
40
1
41
1
10
20.9396959807348
20
-0.265288310099209
30
0
41
1
10
20.9718490110619
20
-0.0163482263454569
30
0
0
SPLINE
5
CF
100
AcDbEntity
8
1
62
256
6
ByLayer
370
18
48
1
60
0
100
AcDbSpline
70
4
71
3
72
8
73
4
40
0
40
0
40
0
40
0
40
1
40
1
40
1
40
1
41
1
10
20.9728465646902
20
0.994308420261262
30
0
41
1
10
20.9725427536564
20
0.986574614064835
30
0
41
1
10
20.9722240999028
20
0.978818852398859
30
0
41
1
10
20.9718907040752
20
0.971041284139574
30
0
0
SPLINE
5
D0
100
AcDbEntity
8
1
62
256
6
ByLayer
370
18
48
1
60
0
100
AcDbSpline
70
4
71
3
72
30
73
26
40
0
40
0
40
0
40
0
40
0.12499999999999
40
0.12499999999999
40
0.249999999999981
40
0.249999999999981
40
0.312499999999976
40
0.312499999999976
40
0.374999999999971
40
0.374999999999971
40
0.499999999999962
40
0.499999999999962
40
0.562499999999966
40
0.562499999999966
40
0.624999999999971
40
0.624999999999971
40
0.749999999999981
40
0.749999999999981
40
0.812499999999985
40
0.812499999999985
40
0.87499999999999
40
0.87499999999999
40
0.937499999999995
40
0.937499999999995
40
1
40
1
40
1
40
1
41
1
10
20.4874175161327
20
1.44423240205637
30
0
41
1
10
20.5166896851363
20
1.44544617185093
30
0
41
1
10
20.5459452507523
20
1.44414142828583
30
0
41
1
10
20.6040824760837
20
1.43631853028859
30
0
41
1
10
20.6329984672932
20
1.42979180220612
30
0
41
1
10
20.6759482988578
20
1.41563074984541
30
0
41
1
10
20.6900292151963
20
1.41022289897356
30
0
41
1
10
20.71748408785
20
1.39811617485751
30
0
41
1
10
20.7308914834793
20
1.39140796978501
30
0
41
1
10
20.7701153307589
20
1.36931353761747
30
0
41
1
10
20.7949482915718
20
1.35198768858629
30
0
41
1
10
20.8299362248231
20
1.32167652411303
30
0
41
1
10
20.8412283840115
20
1.31080931276642
30
0
41
1
10
20.8624354258213
20
1.28813378216958
30
0
41
1
10
20.872427696407
20
1.27626366546008
30
0
41
1
10
20.9005538827925
20
1.23907037531942
30
0
41
1
10
20.9168679689456
20
1.21218215015713
30
0
41
1
10
20.937240804223
20
1.16843061251404
30
0
41
1
10
20.9432453973263
20
1.15347314355338
30
0
41
1
10
20.9535999741865
20
1.12308311891203
30
0
41
1
10
20.957968377968
20
1.10760913582388
30
0
41
1
10
20.9650867242394
20
1.07611899291271
30
0
41
1
10
20.9678350733198
20
1.06010382407055
30
0
41
1
10
20.9716403254393
20
1.02752855537184
30
0
41
1
10
20.9726897930017
20
1.01093396725028
30
0
41
1
10
20.9728465646902
20
0.9943084202595
30
0
0
SPLINE
5
D1
100
AcDbEntity
8
1
62
256
6
ByLayer
370
18
48
1
60
0
100
AcDbSpline
70
4
71
3
72
18
73
14
40
0
40
0
40
0
40
0
40
0.250000000000028
40
0.250000000000028
40
0.375000000000042
40
0.375000000000042
40
0.500000000000056
40
0.500000000000056
40
0.750000000000051
40
0.750000000000051
40
0.875000000000025
40
0.875000000000025
40
1
40
1
40
1
40
1
41
1
10
20.9718907040801
20
0.971041284134145
30
0
41
1
10
20.9690776601011
20
0.99519092482339
30
0
41
1
10
20.9641071026143
20
1.0188435688504
30
0
41
1
10
20.9531654973487
20
1.05351956628169
30
0
41
1
10
20.9489280086042
20
1.06500933776172
30
0
41
1
10
20.9394196998837
20
1.08737734970617
30
0
41
1
10
20.9341624135113
20
1.09824237151011
30
0
41
1
10
20.9168953446887
20
1.12988947851039
30
0
41
1
10
20.9034006479128
20
1.14973013253351
30
0
41
1
10
20.8802473081522
20
1.17764536163369
30
0
41
1
10
20.8720518946101
20
1.18661347150788
30
0
41
1
10
20.8550354226577
20
1.20360303016886
30
0
41
1
10
20.8461771045779
20
1.21167107922395
30
0
41
1
10
20.8369833073887
20
1.2193301982347
30
0
0
SPLINE
5
D2
100
AcDbEntity
8
1
62
256
6
ByLayer
370
18
48
1
60
0
100
AcDbSpline
70
4
71
3
72
8
73
4
40
0
40
0
40
0
40
0
40
1
40
1
40
1
40
1
41
1
10
20.9728465646902
20
-0.994308420261376
30
0
41
1
10
20.9725427536564
20
-0.986574614064978
30
0
41
1
10
20.9722240999028
20
-0.978818852399002
30
0
41
1
10
20.9718907040752
20
-0.971041284139744
30
0
0
SPLINE
5
D3
100
AcDbEntity
8
1
62
256
6
ByLayer
370
18
48
1
60
0
100
AcDbSpline
70
4
71
3
72
30
73
26
40
0
40
0
40
0
40
0
40
0.12500000000001
40
0.12500000000001
40
0.25000000000002
40
0.25000000000002
40
0.312500000000025
40
0.312500000000025
40
0.37500000000003
40
0.37500000000003
40
0.50000000000002
40
0.50000000000002
40
0.562500000000015
40
0.562500000000015
40
0.62500000000001
40
0.62500000000001
40
0.75
40
0.75
40
0.8125
40
0.8125
40
0.875
40
0.875
40
0.9375
40
0.9375
40
1
40
1
40
1
40
1
41
1
10
20.4874175161326
20
-1.44423240205651
30
0
41
1
10
20.5166896851362
20
-1.44544617185105
30
0
41
1
10
20.5459452507522
20
-1.44414142828597
30
0
41
1
10
20.6040824760836
20
-1.43631853028873
30
0
41
1
10
20.6329984672932
20
-1.4297918022063
30
0
41
1
10
20.6759482988577
20
-1.41563074984558
30
0
41
1
10
20.6900292151962
20
-1.4102228989737
30
0
41
1
10
20.71748408785
20
-1.39811617485765
30
0
41
1
10
20.7308914834792
20
-1.39140796978518
30
0
41
1
10
20.7701153307589
20
-1.36931353761759
30
0
41
1
10
20.7949482915718
20
-1.35198768858646
30
0
41
1
10
20.8299362248231
20
-1.32167652411317
30
0
41
1
10
20.8412283840114
20
-1.31080931276654
30
0
41
1
10
20.8624354258213
20
-1.28813378216975
30
0
41
1
10
20.872427696407
20
-1.27626366546025
30
0
41
1
10
20.9005538827925
20
-1.23907037531959
30
0
41
1
10
20.9168679689455
20
-1.2121821501573
30
0
41
1
10
20.937240804223
20
-1.16843061251424
30
0
41
1
10
20.9432453973263
20
-1.15347314355356
30
0
41
1
10
20.9535999741865
20
-1.12308311891221
30
0
41
1
10
20.957968377968
20
-1.10760913582402
30
0
41
1
10
20.9650867242394
20
-1.07611899291285
30
0
41
1
10
20.9678350733198
20
-1.06010382407069
30
0
41
1
10
20.9716403254393
20
-1.02752855537199
30
0
41
1
10
20.9726897930017
20
-1.01093396725008
30
0
41
1
10
20.9728465646902
20
-0.994308420259273
30
0
0
SPLINE
5
D4
100
AcDbEntity
8
1
62
256
6
ByLayer
370
18
48
1
60
0
100
AcDbSpline
70
4
71
3
72
8
73
4
40
0
40
0
40
0
40
0
40
1
40
1
40
1
40
1
41
1
10
20.9409903307766
20
-0.940551880523174
30
0
41
1
10
20.9516090754145
20
-0.958470727102622
30
0
41
1
10
20.9622278200523
20
-0.976389573682042
30
0
41
1
10
20.9728465646902
20
-0.994308420261461
30
0
0
SPLINE
5
D5
100
AcDbEntity
8
1
62
256
6
ByLayer
370
18
48
1
60
0
100
AcDbSpline
70
4
71
3
72
22
73
18
40
0
40
0
40
0
40
0
40
0.25
40
0.25
40
0.5
40
0.5
40
0.625
40
0.625
40
0.75
40
0.75
40
0.812499999999999
40
0.812499999999999
40
0.874999999999998
40
0.874999999999998
40
0.937499999999999
40
0.937499999999999
40
1
40
1
40
1
40
1
41
1
10
20.8474625095476
20
-1.12035557246446
30
0
41
1
10
20.8575612726107
20
-1.11383561297546
30
0
41
1
10
20.8674945334557
20
-1.1062763118527
30
0
41
1
10
20.886856741386
20
-1.08799065666767
30
0
41
1
10
20.8962117446983
20
-1.07737634188175
30
0
41
1
10
20.9093589729175
20
-1.05771647894258
30
0
41
1
10
20.9136072994248
20
-1.05049993179898
30
0
41
1
10
20.9216106095307
20
-1.03435987869523
30
0
41
1
10
20.9253411042516
20
-1.02550766506761
30
0
41
1
10
20.9303320682101
20
-1.01048480615435
30
0
41
1
10
20.9319010944898
20
-1.00515098171542
30
0
41
1
10
20.9347343821275
20
-0.993906100521428
30
0
41
1
10
20.9359983360681
20
-0.988006153184585
30
0
41
1
10
20.9381600307809
20
-0.975540683139997
30
0
41
1
10
20.9390600620758
20
-0.968955737925313
30
0
41
1
10
20.9404005600709
20
-0.955048788630393
30
0
41
1
10
20.9408243679733
20
-0.947901648322613
30
0
41
1
10
20.9409903307767
20
-0.940551880521184
30
0
0
SPLINE
5
D6
100
AcDbEntity
8
1
62
256
6
ByLayer
370
18
48
1
60
0
100
AcDbSpline
70
4
71
3
72
37
73
33
40
0
40
0
40
0
40
0
40
0.0354018134841955
40
0.0354018134841955
40
0.123575516036992
40
0.123575516036992
40
0.167662367313389
40
0.167662367313389
40
0.211749218589786
40
0.211749218589786
40
0.299922921142579
40
0.299922921142579
40
0.344009772418977
40
0.344009772418977
40
0.388096623695376
40
0.388096623695376
40
0.476270326248169
40
0.476270326248169
40
0.520357177524563
40
0.520357177524563
40
0.564444028800958
40
0.564444028800958
40
0.740791433906537
40
0.740791433906537
40
0.828965136459328
40
0.828965136459328
40
0.851008562097525
40
0.851008562097525
40
0.873051987735722
40
0.917138839012116
40
0.917138839012116
40
1
40
1
40
1
40
1
41
1
10
14.257032419603
20
0.873010231973041
30
0
41
1
10
14.3121078136671
20
0.871641561629161
30
0
41
1
10
14.3671387600314
20
0.869196312618186
30
0
41
1
10
14.5590119662581
20
0.856954582077066
30
0
41
1
10
14.6956569550295
20
0.841625859689032
30
0
41
1
10
14.9010345807387
20
0.809172827381389
30
0
41
1
10
14.9696150363905
20
0.796769008501684
30
0
41
1
10
15.1068100311693
20
0.768950132985935
30
0
41
1
10
15.1752902280834
20
0.753565061439275
30
0
41
1
10
15.3805803392942
20
0.703233767905772
30
0
41
1
10
15.5172395348643
20
0.664106379141543
30
0
41
1
10
15.7227283217806
20
0.598140428360381
30
0
41
1
10
15.7913912340947
20
0.574909986226629
30
0
41
1
10
15.9284829381611
20
0.526417946301706
30
0
41
1
10
15.9969274014092
20
0.501154769307561
30
0
41
1
10
16.2021576183366
20
0.422690372465809
30
0
41
1
10
16.3388398286376
20
0.366810585679815
30
0
41
1
10
16.5444581153483
20
0.27919226957178
30
0
41
1
10
16.6131406449698
20
0.249332856178313
30
0
41
1
10
16.7498482820891
20
0.189065616724491
30
0
41
1
10
16.8179935925462
20
0.158607507781966
30
0
41
1
10
17.1580042670065
20
0.0054370339229024
30
0
41
1
10
17.4277268931793
20
-0.119893107661369
30
0
41
1
10
17.8349997975306
20
-0.298307707231771
30
0
41
1
10
17.9712043747241
20
-0.356187306504921
30
0
41
1
10
18.1426726718502
20
-0.425092262462101
30
0
41
1
10
18.1769762272198
20
-0.438679931197015
30
0
41
1
10
18.2454081096919
20
-0.46535532319615
30
0
41
1
10
18.3478880632796
20
-0.504657024920249
30
0
41
1
10
18.449938795191
20
-0.541701876087018
30
0
41
1
10
18.645479655153
20
-0.609633292207235
30
0
41
1
10
18.7726684697784
20
-0.650047446523303
30
0
41
1
10
18.8998355545557
20
-0.685952449624352
30
0
0
SPLINE
5
D7
100
AcDbEntity
8
1
62
256
6
ByLayer
370
18
48
1
60
0
100
AcDbSpline
70
4
71
3
72
16
73
12
40
0
40
0
40
0
40
0
40
0.249999999999976
40
0.249999999999976
40
0.499999999999951
40
0.499999999999951
40
0.624999999999963
40
0.624999999999963
40
0.749999999999976
40
0.749999999999976
40
1
40
1
40
1
40
1
41
1
10
20.7455154623035
20
-0.111729119182286
30
0
41
1
10
20.7469567666213
20
-0.123775958086583
30
0
41
1
10
20.7496389542239
20
-0.135665014948643
30
0
41
1
10
20.756705724527
20
-0.159404293428935
30
0
41
1
10
20.7611015715076
20
-0.171248930621829
30
0
41
1
10
20.7687221676591
20
-0.189201197297763
30
0
41
1
10
20.7714302402697
20
-0.195200724267153
30
0
41
1
10
20.7770587624718
20
-0.207087752322167
30
0
41
1
10
20.7799893849026
20
-0.212999981636756
30
0
41
1
10
20.7890797047891
20
-0.230686335827585
30
0
41
1
10
20.7955950963478
20
-0.242544577237368
30
0
41
1
10
20.8022293226423
20
-0.253918395196109
30
0
0
SPLINE
5
D8
100
AcDbEntity
8
1
62
256
6
ByLayer
370
18
48
1
60
0
100
AcDbSpline
70
4
71
3
72
26
73
22
40
0
40
0
40
0
40
0
40
0.078948611455632
40
0.159072567062955
40
0.2403392476991
40
0.280227328205443
40
0.321172080427414
40
0.363166946037572
40
0.40620452541791
40
0.450276542366211
40
0.495373809268989
40
0.54148619317075
40
0.588602583182565
40
0.636710859688633
40
0.685797865824223
40
0.735849381711736
40
0.786850101954711
40
0.838783616898309
40
0.891632398171452
40
0.945377789027844
40
1
40
1
40
1
40
1
41
1
10
13.8505816161216
20
-0.841239434593774
30
0
41
1
10
13.8450369162016
20
-0.850024414417845
30
0
41
1
10
13.8338649698734
20
-0.867725160085712
30
0
41
1
10
13.8166543924204
20
-0.893994939842713
30
0
41
1
10
13.8020411179503
20
-0.915695677586143
30
0
41
1
10
13.7901356825548
20
-0.932967408549587
30
0
41
1
10
13.781047352575
20
-0.945953470186595
30
0
41
1
10
13.771659564696
20
-0.959166411319984
30
0
41
1
10
13.7619720927037
20
-0.972596554027632
30
0
41
1
10
13.7519849150435
20
-0.986233522401562
30
0
41
1
10
13.7416979478059
20
-1.00006638915676
30
0
41
1
10
13.7311111190213
20
-1.01408362664878
30
0
41
1
10
13.7202243469104
20
-1.02827311309502
30
0
41
1
10
13.7090375494544
20
-1.04262213709543
30
0
41
1
10
13.6975506275039
20
-1.05711736852715
30
0
41
1
10
13.6857635237548
20
-1.07174498977017
30
0
41
1
10
13.67367599754
20
-1.08649022355732
30
0
41
1
10
13.6612884886645
20
-1.10133919607941
30
0
41
1
10
13.6485988056259
20
-1.11627186327689
30
0
41
1
10
13.6356148109581
20
-1.13128919453618
30
0
41
1
10
13.6268122802158
20
-1.14122347115946
30
0
41
1
10
13.6223754034816
20
-1.14623079940534
30
0
0
SPLINE
5
D9
100
AcDbEntity
8
1
62
256
6
ByLayer
370
18
48
1
60
0
100
AcDbSpline
70
4
71
3
72
12
73
8
40
0
40
0
40
0
40
0
40
0.499999999999994
40
0.499999999999994
40
0.749999999999997
40
0.749999999999997
40
1
40
1
40
1
40
1
41
1
10
20.7873867909251
20
0.645503983831873
30
0
41
1
10
20.7976858858257
20
0.628337678358434
30
0
41
1
10
20.8079236021902
20
0.611343885777757
30
0
41
1
10
20.8230548486367
20
0.586484575703651
30
0
41
1
10
20.828059047211
20
0.578309013434307
30
0
41
1
10
20.8378859892459
20
0.562466576780196
30
0
41
1
10
20.8427106315255
20
0.554794912857403
30
0
41
1
10
20.8474625095478
20
0.547325953828903
30
0
0
SPLINE
5
DA
100
AcDbEntity
8
1
62
256
6
ByLayer
370
18
48
1
60
0
100
AcDbSpline
70
4
71
3
72
16
73
12
40
0
40
0
40
0
40
0
40
0.249999999999997
40
0.249999999999997
40
0.499999999999994
40
0.499999999999994
40
0.749999999999991
40
0.749999999999991
40
0.874999999999995
40
0.874999999999995
40
1
40
1
40
1
40
1
41
1
10
20.1784045344818
20
0.869133291357059
30
0
41
1
10
20.2265316764542
20
0.865433275700951
30
0
41
1
10
20.2753525515723
20
0.857847142141935
30
0
41
1
10
20.3742961812761
20
0.835382074991458
30
0
41
1
10
20.4244360657825
20
0.820407183910476
30
0
41
1
10
20.5260492665574
20
0.782987853729963
30
0
41
1
10
20.5775222627527
20
0.760545207598625
30
0
41
1
10
20.6557037930897
20
0.721436137938952
30
0
41
1
10
20.6819283450844
20
0.707487166789633
30
0
41
1
10
20.7347067144213
20
0.677719476982162
30
0
41
1
10
20.7610628390754
20
0.662012332848661
30
0
41
1
10
20.7873867909251
20
0.645503983831873
30
0
0
SPLINE
5
DB
100
AcDbEntity
8
1
62
256
6
ByLayer
370
18
48
1
60
0
100
AcDbSpline
70
4
71
3
72
24
73
20
40
0
40
0
40
0
40
0
40
0.124999999999995
40
0.124999999999995
40
0.249999999999991
40
0.249999999999991
40
0.312500000000005
40
0.312500000000005
40
0.375000000000018
40
0.375000000000018
40
0.500000000000015
40
0.500000000000015
40
0.625000000000011
40
0.625000000000011
40
0.750000000000007
40
0.750000000000007
40
0.875000000000004
40
0.875000000000004
40
1
40
1
40
1
40
1
41
1
10
20.4874175161325
20
1.4442324020564
30
0
41
1
10
20.504390541846
20
1.44312448649609
30
0
41
1
10
20.521263313347
20
1.44091539803716
30
0
41
1
10
20.5548478202627
20
1.43449940055805
30
0
41
1
10
20.5715568198398
20
1.43026478603519
30
0
41
1
10
20.5964852521703
20
1.42231037157708
30
0
41
1
10
20.6047723147387
20
1.41939471181905
30
0
41
1
10
20.6212972465041
20
1.41302554318941
30
0
41
1
10
20.6295488566669
20
1.40956426150436
30
0
41
1
10
20.6539326195036
20
1.39847487070432
30
0
41
1
10
20.669779944662
20
1.39010359452948
30
0
41
1
10
20.7005801642668
20
1.37139885623372
30
0
41
1
10
20.7155370952305
20
1.36107321747411
30
0
41
1
10
20.7443982172201
20
1.33837512161915
30
0
41
1
10
20.7582881796286
20
1.32596810197791
30
0
41
1
10
20.7846758769405
20
1.29879791511698
30
0
41
1
10
20.7969051522774
20
1.28425960244474
30
0
41
1
10
20.8189215836035
20
1.25330391893766
30
0
41
1
10
20.8287311997239
20
1.23686666525742
30
0
41
1
10
20.8369833073812
20
1.21933019823058
30
0
0
SPLINE
5
DC
100
AcDbEntity
8
1
62
256
6
ByLayer
370
18
48
1
60
0
100
AcDbSpline
70
4
71
3
72
8
73
4
40
0
40
0
40
0
40
0
40
1
40
1
40
1
40
1
41
1
10
20.4616788867158
20
1.44145323032981
30
0
41
1
10
20.4702588218007
20
1.44257600576989
30
0
41
1
10
20.4788375030794
20
1.44350344558407
30
0
41
1
10
20.4874175161328
20
1.4442324020564
30
0
0
SPLINE
5
DD
100
AcDbEntity
8
1
62
256
6
ByLayer
370
18
48
1
60
0
100
AcDbSpline
70
4
71
5
72
16
73
10
40
0
40
0
40
0
40
0
40
0
40
0
40
0.0256179167261548
40
0.441607459737482
40
0.718933821745034
40
0.996260183752586
40
1
40
1
40
1
40
1
40
1
40
1
41
1
10
13.999999964005
20
-1.31319188608094
30
0
41
1
10
13.9980653627532
20
-1.31246140728055
30
0
41
1
10
13.9647162675271
20
-1.29984051700552
30
0
41
1
10
13.910424176318
20
-1.27848824560468
30
0
41
1
10
13.835189089126
20
-1.24711129636947
30
0
41
1
10
13.7596715803276
20
-1.21320069083617
30
0
41
1
10
13.686088672781
20
-1.17795817295331
30
0
41
1
10
13.6439202592088
20
-1.15705955219863
30
0
41
1
10
13.6226948416195
20
-1.14636510449918
30
0
41
1
10
13.6224124200132
20
-1.14622277508917
30
0
0
SPLINE
5
DE
100
AcDbEntity
8
1
62
256
6
ByLayer
370
18
48
1
60
0
100
AcDbSpline
70
4
71
3
72
12
73
8
40
0
40
0
40
0
40
0
40
0.131660287870102
40
0.131660287870102
40
0.565830143935052
40
0.565830143935052
40
1
40
1
40
1
40
1
41
1
10
20.2735694037773
20
0.889492655129544
30
0
41
1
10
20.2763230054374
20
0.890353480664771
30
0
41
1
10
20.2791003792209
20
0.891218074848211
30
0
41
1
10
20.2910415630791
20
0.89490457928801
30
0
41
1
10
20.3002876117865
20
0.89768145428323
30
0
41
1
10
20.3190037496959
20
0.902917960488764
30
0
41
1
10
20.3285338174497
20
0.90539069644376
30
0
41
1
10
20.3380212622739
20
0.90755933061115
30
0
0
SPLINE
5
DF
100
AcDbEntity
8
1
62
256
6
ByLayer
370
18
48
1
60
0
100
AcDbSpline
70
4
71
3
72
29
73
25
40
0
40
0
40
0
40
0
40
0.0312499999999964
40
0.0312499999999964
40
0.0624999999999928
40
0.0624999999999928
40
0.124999999999985
40
0.124999999999985
40
0.156249999999989
40
0.156249999999989
40
0.187499999999993
40
0.187499999999993
40
0.250000000000002
40
0.312500000000011
40
0.312500000000011
40
0.37500000000002
40
0.37500000000002
40
0.50000000000001
40
0.50000000000001
40
0.624999999999999
40
0.624999999999999
40
0.749999999999989
40
0.749999999999989
40
1
40
1
40
1
40
1
41
1
10
20.8369833073752
20
1.21933019823322
30
0
41
1
10
20.8357134861649
20
1.21296364812389
30
0
41
1
10
20.8341636407746
20
1.20663825019909
30
0
41
1
10
20.830485153379
20
1.19407251395055
30
0
41
1
10
20.8283442870838
20
1.18780627320857
30
0
41
1
10
20.8211734991646
20
1.1694802950006
30
0
41
1
10
20.8153815737264
20
1.15780510507014
30
0
41
1
10
20.8053592315008
20
1.14100761182246
30
0
41
1
10
20.8017970044341
20
1.13552714666471
30
0
41
1
10
20.7942483855218
20
1.124793576381
30
0
41
1
10
20.7902496873438
20
1.11953170851547
30
0
41
1
10
20.7778241036397
20
1.10431674193032
30
0
41
1
10
20.7600083958189
20
1.08538422223927
30
0
41
1
10
20.7401346977188
20
1.06868418871898
30
0
41
1
10
20.7194150050065
20
1.05290188124053
30
0
41
1
10
20.70861387868
20
1.04546421760719
30
0
41
1
10
20.6757740208874
20
1.0246432305909
30
0
41
1
10
20.6531021607806
20
1.01255695150576
30
0
41
1
10
20.6067773047084
20
0.990645478253299
30
0
41
1
10
20.5831170304383
20
0.980837057364596
30
0
41
1
10
20.5351114150102
20
0.962798992261753
30
0
41
1
10
20.5107223509475
20
0.954563146020547
30
0
41
1
10
20.4370828292372
20
0.931685309660992
30
0
41
1
10
20.387650711066
20
0.918903598784055
30
0
41
1
10
20.3380212622828
20
0.907559330613196
30
0
0
SPLINE
5
E0
100
AcDbEntity
8
1
62
256
6
ByLayer
370
18
48
1
60
0
100
AcDbSpline
70
4
71
1
72
4
73
2
40
0
40
0
40
1
40
1
41
1
10
20.9409903307766
20
0.266344074659798
30
0
41
1
10
20.9396959807348
20
0.265288310099009
30
0
0
SPLINE
5
E1
100
AcDbEntity
8
1
62
256
6
ByLayer
370
18
48
1
60
0
100
AcDbSpline
70
4
71
3
72
22
73
18
40
0
40
0
40
0
40
0
40
0.249999999999999
40
0.249999999999999
40
0.499999999999999
40
0.499999999999999
40
0.624999999999999
40
0.624999999999999
40
0.749999999999999
40
0.749999999999999
40
0.812499999999999
40
0.812499999999999
40
0.874999999999999
40
0.874999999999999
40
0.937499999999999
40
0.937499999999999
40
1
40
1
40
1
40
1
41
1
10
20.8474625095474
20
0.547325953829642
30
0
41
1
10
20.8575625218722
20
0.51934187976687
30
0
41
1
10
20.8675016761338
20
0.491593614058274
30
0
41
1
10
20.8868644129038
20
0.436886748900036
30
0
41
1
10
20.8962069930471
20
0.41016545070002
30
0
41
1
10
20.9093494468239
20
0.371709452092773
30
0
41
1
10
20.9135943472586
20
0.359130966991728
30
0
41
1
10
20.9216053281293
20
0.334926603425572
30
0
41
1
10
20.9253392894922
20
0.323401393603064
30
0
41
1
10
20.9303344298642
20
0.307400846474252
30
0
41
1
10
20.9319043506944
20
0.302259931409935
30
0
41
1
10
20.9347350693825
20
0.292695795617874
30
0
41
1
10
20.9359983908936
20
0.288266051146707
30
0
41
1
10
20.9381597250454
20
0.280253107236859
30
0
41
1
10
20.9390604654782
20
0.276658270570721
30
0
41
1
10
20.940400583406
20
0.270560093049454
30
0
41
1
10
20.9408243688491
20
0.268128733691327
30
0
41
1
10
20.9409903307767
20
0.266344074659344
30
0
0
SPLINE
5
E2
100
AcDbEntity
8
1
62
256
6
ByLayer
370
18
48
1
60
0
100
AcDbSpline
70
4
71
3
72
16
73
12
40
0
40
0
40
0
40
0
40
0.250000000000034
40
0.250000000000034
40
0.375000000000051
40
0.375000000000051
40
0.500000000000068
40
0.500000000000068
40
0.750000000000034
40
0.750000000000034
40
1
40
1
40
1
40
1
41
1
10
20.8474625095467
20
0.547325953829386
30
0
41
1
10
20.839754872538
20
0.549098548245865
30
0
41
1
10
20.8313126987412
20
0.55172271986595
30
0
41
1
10
20.8175848383233
20
0.55689683620551
30
0
41
1
10
20.8128307141557
20
0.558828338610027
30
0
41
1
10
20.8029668893907
20
0.563102216647479
30
0
41
1
10
20.7978592167022
20
0.565444976687331
30
0
41
1
10
20.7822595271311
20
0.572955030408082
30
0
41
1
10
20.7714138521916
20
0.578635255581077
30
0
41
1
10
20.7489200068873
20
0.591174348178697
30
0
41
1
10
20.7372210589065
20
0.598064939994373
30
0
41
1
10
20.7252662513444
20
0.605409594072057
30
0
0
SPLINE
5
E3
100
AcDbEntity
8
1
62
256
6
ByLayer
370
18
48
1
60
0
100
AcDbSpline
70
4
71
3
72
26
73
22
40
0
40
0
40
0
40
0
40
0.110071572929229
40
0.110071572929229
40
0.220143145858458
40
0.220143145858458
40
0.330214718787686
40
0.330214718787686
40
0.385250505252297
40
0.385250505252297
40
0.440286291716908
40
0.440286291716908
40
0.660429437575339
40
0.660429437575339
40
0.880572583433769
40
0.880572583433769
40
0.935608369898378
40
0.935608369898378
40
0.990644156362987
40
0.990644156362987
40
1
40
1
40
1
40
1
41
1
10
20.7252662513444
20
0.605409594072057
30
0
41
1
10
20.6537147640673
20
0.653903373293161
30
0
41
1
10
20.5823704629656
20
0.700994114045045
30
0
41
1
10
20.4397242961579
20
0.792049738362493
30
0
41
1
10
20.3684247683726
20
0.836018366526417
30
0
41
1
10
20.2255804254126
20
0.92046548576252
30
0
41
1
10
20.1540367505843
20
0.960942015332279
30
0
41
1
10
20.046297913319
20
1.018736579853
30
0
41
1
10
20.0103142827069
20
1.03751437334051
30
0
41
1
10
19.9381630264489
20
1.07404380135077
30
0
41
1
10
19.9019601741161
20
1.09181007754955
30
0
41
1
10
19.7216997530769
20
1.17733502616531
30
0
41
1
10
19.5788933237607
20
1.2357467792576
30
0
41
1
10
19.2935759693857
20
1.33116718279825
30
0
41
1
10
19.1510888671698
20
1.36807424629629
30
0
41
1
10
18.9715012919527
20
1.40006569226841
30
0
41
1
10
18.9355112430431
20
1.40575180702092
30
0
41
1
10
18.8633453985167
20
1.41566905061109
30
0
41
1
10
18.8271409051529
20
1.41990006988576
30
0
41
1
10
18.7849602570493
20
1.42395615740588
30
0
41
1
10
18.7788341389644
20
1.42452374208682
30
0
41
1
10
18.7727104919301
20
1.42506957613301
30
0
0
SPLINE
5
E4
100
AcDbEntity
8
1
62
256
6
ByLayer
370
18
48
1
60
0
100
AcDbSpline
70
4
71
3
72
26
73
22
40
0
40
0
40
0
40
0
40
0.0789486114556316
40
0.159072567062954
40
0.240339247699098
40
0.280227328205441
40
0.321172080427413
40
0.363166946037571
40
0.406204525417909
40
0.450276542366211
40
0.495373809268988
40
0.54148619317075
40
0.588602583182565
40
0.636710859688633
40
0.685797865824223
40
0.735849381711736
40
0.786850101954711
40
0.838783616898309
40
0.891632398171453
40
0.945377789027845
40
1
40
1
40
1
40
1
41
1
10
13.8505816161216
20
1.10113637839905
30
0
41
1
10
13.8450369162017
20
1.09613149635388
30
0
41
1
10
13.8338649698734
20
1.0860472222914
30
0
41
1
10
13.8166543924203
20
1.0703344677095
30
0
41
1
10
13.8020411179503
20
1.05689049222542
30
0
41
1
10
13.7901356825548
20
1.04588027685412
30
0
41
1
10
13.781047352575
20
1.03744990449749
30
0
41
1
10
13.7716595646961
20
1.02871001682527
30
0
41
1
10
13.7619720927037
20
1.01965590454097
30
0
41
1
10
13.7519849150435
20
1.01028272149873
30
0
41
1
10
13.7416979478059
20
1.00058612006271
30
0
41
1
10
13.7311111190214
20
0.990562132402289
30
0
41
1
10
13.7202243469104
20
0.9802072613912
30
0
41
1
10
13.7090375494545
20
0.969518521155152
30
0
41
1
10
13.6975506275039
20
0.958493467894215
30
0
41
1
10
13.6857635237548
20
0.947130329538624
30
0
41
1
10
13.67367599754
20
0.935427741953873
30
0
41
1
10
13.6612884886645
20
0.923386000690414
30
0
41
1
10
13.6485988056259
20
0.911002498766749
30
0
41
1
10
13.6356148109582
20
0.898289435908481
30
0
41
1
10
13.6268122802158
20
0.889636234325195
30
0
41
1
10
13.6223754034816
20
0.885274626293921
30
0
0
SPLINE
5
E5
100
AcDbEntity
8
1
62
256
6
ByLayer
370
18
48
1
60
0
100
AcDbSpline
70
4
71
3
72
28
73
24
40
0
40
0
40
0
40
0
40
0.062499999999972
40
0.062499999999972
40
0.124999999999944
40
0.124999999999944
40
0.156249999999951
40
0.156249999999951
40
0.187499999999958
40
0.187499999999958
40
0.249999999999971
40
0.249999999999971
40
0.312499999999984
40
0.312499999999984
40
0.374999999999997
40
0.374999999999997
40
0.499999999999998
40
0.499999999999998
40
0.624999999999998
40
0.624999999999998
40
0.749999999999999
40
0.749999999999999
40
1
40
1
40
1
40
1
41
1
10
20.461604182105
20
-1.44145047461885
30
0
41
1
10
20.4708303065664
20
-1.44179223033271
30
0
41
1
10
20.4802496760865
20
-1.44162063019729
30
0
41
1
10
20.4996340644736
20
-1.43987001869874
30
0
41
1
10
20.5090314936219
20
-1.43832909776947
30
0
41
1
10
20.5225956653083
20
-1.43512491160558
30
0
41
1
10
20.5269646137129
20
-1.43392377128501
30
0
41
1
10
20.535318584473
20
-1.43134040529503
30
0
41
1
10
20.539329920845
20
-1.42995184833066
30
0
41
1
10
20.5509688767122
20
-1.42554330478728
30
0
41
1
10
20.5581931716504
20
-1.42228104109239
30
0
41
1
10
20.5715604563828
20
-1.41550717177964
30
0
41
1
10
20.5777818703281
20
-1.41196224377174
30
0
41
1
10
20.589635125458
20
-1.40462075871014
30
0
41
1
10
20.5952630257258
20
-1.40082336830952
30
0
41
1
10
20.6115204598061
20
-1.38909992441214
30
0
41
1
10
20.6215248556188
20
-1.38084853585932
30
0
41
1
10
20.6403400299691
20
-1.36380891872366
30
0
41
1
10
20.6491837974878
20
-1.35498464134398
30
0
41
1
10
20.6661039084102
20
-1.33674560768171
30
0
41
1
10
20.674174637108
20
-1.3273303861942
30
0
41
1
10
20.6974842460133
20
-1.29820085562253
30
0
41
1
10
20.7118380066808
20
-1.27760598629487
30
0
41
1
10
20.7252662513444
20
-1.25579158769759
30
0
0
SPLINE
5
E6
100
AcDbEntity
8
1
62
256
6
ByLayer
370
18
48
1
60
0
100
AcDbSpline
70
4
71
3
72
32
73
28
40
0
40
0
40
0
40
0
40
0.124999999999993
40
0.124999999999993
40
0.249999999999987
40
0.249999999999987
40
0.37499999999998
40
0.37499999999998
40
0.499999999999974
40
0.499999999999974
40
0.531249999999968
40
0.531249999999968
40
0.562499999999963
40
0.562499999999963
40
0.624999999999952
40
0.624999999999952
40
0.687499999999941
40
0.687499999999941
40
0.718749999999941
40
0.718749999999941
40
0.749999999999942
40
0.749999999999942
40
0.874999999999971
40
0.874999999999971
40
0.937499999999985
40
0.937499999999985
40
1
40
1
40
1
40
1
41
1
10
20.4874175161326
20
0.29416973033554
30
0
41
1
10
20.51757339822
20
0.277282444284992
30
0
41
1
10
20.5477102564774
20
0.261084471674252
30
0
41
1
10
20.6075861680353
20
0.229464587050472
30
0
41
1
10
20.637399732478
20
0.214081877608606
30
0
41
1
10
20.6962444424857
20
0.183977347598784
30
0
41
1
10
20.7243562273461
20
0.169766183942016
30
0
41
1
10
20.7777346578261
20
0.142570650660332
30
0
41
1
10
20.8030167814006
20
0.129583428527638
30
0
41
1
10
20.8325806868085
20
0.114165425588538
30
0
41
1
10
20.8383760890625
20
0.111128164790586
30
0
41
1
10
20.8496061260168
20
0.105204792783411
30
0
41
1
10
20.8550588290178
20
0.102309150249539
30
0
41
1
10
20.8709295377113
20
0.093798778497785
30
0
41
1
10
20.8808609419714
20
0.0883687610277093
30
0
41
1
10
20.8994071546541
20
0.0779581609856734
30
0
41
1
10
20.9080231085242
20
0.0729840458499496
30
0
41
1
10
20.9199047598431
20
0.0658528457339287
30
0
41
1
10
20.9236912549279
20
0.0635309950834824
30
0
41
1
10
20.9309030293953
20
0.0589983762711768
30
0
41
1
10
20.934333038659
20
0.0567841648964418
30
0
41
1
10
20.9503389058079
20
0.04612440470774
30
0
41
1
10
20.9597004236387
20
0.0388103982739665
30
0
41
1
10
20.96856044475
20
0.0293301041383245
30
0
41
1
10
20.9706419007147
20
0.0264047872674382
30
0
41
1
10
20.9729538984981
20
0.021054940128721
30
0
41
1
10
20.9731737008975
20
0.0186675746259368
30
0
41
1
10
20.9724556568215
20
0.0165057033769358
30
0
0
SPLINE
5
E7
100
AcDbEntity
8
1
62
256
6
ByLayer
370
18
48
1
60
0
100
AcDbSpline
70
4
71
3
72
18
73
14
40
0
40
0
40
0
40
0
40
0.250000000000011
40
0.250000000000011
40
0.375000000000016
40
0.375000000000016
40
0.500000000000022
40
0.500000000000022
40
0.750000000000033
40
0.750000000000033
40
0.875000000000016
40
0.875000000000016
40
1
40
1
40
1
40
1
41
1
10
20.9719852615194
20
0.0163209047103976
30
0
41
1
10
20.9692139537018
20
0.0178788910503158
30
0
41
1
10
20.9642740722566
20
0.0198188833944641
30
0
41
1
10
20.9533595685296
20
0.0233462405813611
30
0
41
1
10
20.9491283704034
20
0.0246293568328042
30
0
41
1
10
20.9396217950344
20
0.0273639686254228
30
0
41
1
10
20.9343623455499
20
0.0288116483916383
30
0
41
1
10
20.9170804728643
20
0.0333934336003381
30
0
41
1
10
20.9035639518365
20
0.0367647881272717
30
0
41
1
10
20.8803618816754
20
0.0422866466067546
30
0
41
1
10
20.8721460738261
20
0.0442024000589356
30
0
41
1
10
20.855085493778
20
0.0481099445942448
30
0
41
1
10
20.846203086516
20
0.0501107690802201
30
0
41
1
10
20.8369833073801
20
0.0521566754066214
30
0
0
SPLINE
5
E8
100
AcDbEntity
8
1
62
256
6
ByLayer
370
18
48
1
60
0
100
AcDbSpline
70
4
71
3
72
24
73
20
40
0
40
0
40
0
40
0
40
0.125000000000043
40
0.125000000000043
40
0.250000000000087
40
0.250000000000087
40
0.312500000000093
40
0.312500000000093
40
0.375000000000098
40
0.375000000000098
40
0.500000000000078
40
0.500000000000078
40
0.625000000000059
40
0.625000000000059
40
0.750000000000039
40
0.750000000000039
40
0.87500000000002
40
0.87500000000002
40
1
40
1
40
1
40
1
41
1
10
20.4874175161324
20
0.294169730336165
30
0
41
1
10
20.504390541846
20
0.281759034598963
30
0
41
1
10
20.5212633133469
20
0.269591067438029
30
0
41
1
10
20.5548478202627
20
0.245724217729844
30
0
41
1
10
20.5715568198398
20
0.234031148345736
30
0
41
1
10
20.5964852521702
20
0.216859687544485
30
0
41
1
10
20.6047723147387
20
0.211196356439814
30
0
41
1
10
20.6212972465041
20
0.199987939805851
30
0
41
1
10
20.6295488566668
20
0.194433914372354
30
0
41
1
10
20.6539326195036
20
0.178134167169162
30
0
41
1
10
20.669779944662
20
0.167695447270205
30
0
41
1
10
20.7005801642668
20
0.147569914654184
30
0
41
1
10
20.7155370952305
20
0.137880768187614
30
0
41
1
10
20.7443982172201
20
0.119117753958477
30
0
41
1
10
20.7582881796286
20
0.110059285450518
30
0
41
1
10
20.7846758769404
20
0.0923959020466896
30
0
41
1
10
20.7969051522773
20
0.0839695921893053
30
0
41
1
10
20.8189215836035
20
0.0677148504423428
30
0
41
1
10
20.828731199724
20
0.0598769007009139
30
0
41
1
10
20.8369833073812
20
0.0521566753996581
30
0
0
SPLINE
5
E9
100
AcDbEntity
8
1
62
256
6
ByLayer
370
18
48
1
60
0
100
AcDbSpline
70
4
71
3
72
24
73
20
40
0
40
0
40
0
40
0
40
0.124999999999959
40
0.124999999999959
40
0.249999999999917
40
0.249999999999917
40
0.374999999999876
40
0.374999999999876
40
0.437499999999888
40
0.437499999999888
40
0.499999999999901
40
0.499999999999901
40
0.624999999999926
40
0.624999999999926
40
0.74999999999995
40
0.74999999999995
40
0.874999999999975
40
0.874999999999975
40
1
40
1
40
1
40
1
41
1
10
20.1488128823655
20
0.0274002846206258
30
0
41
1
10
20.1530924782132
20
0.036804923842567
30
0
41
1
10
20.1581579843552
20
0.0456667242798119
30
0
41
1
10
20.169582857146
20
0.06247988027323
30
0
41
1
10
20.1759930860808
20
0.0704795574594073
30
0
41
1
10
20.1899389117163
20
0.0853052203794391
30
0
41
1
10
20.1973731676795
20
0.0920291516213183
30
0
41
1
10
20.2092287716444
20
0.101103889907733
30
0
41
1
10
20.2132986697594
20
0.103959336183493
30
0
41
1
10
20.2216847647421
20
0.109324026591281
30
0
41
1
10
20.2260104101316
20
0.11183582701068
30
0
41
1
10
20.2391279554466
20
0.118711675597808
30
0
41
1
10
20.2481326939806
20
0.12247254928684
30
0
41
1
10
20.2667099855533
20
0.128394851965823
30
0
41
1
10
20.276370702661
20
0.130560604601726
30
0
41
1
10
20.2957769199509
20
0.133190387628588
30
0
41
1
10
20.3055400145558
20
0.133677907454341
30
0
41
1
10
20.3252301825873
20
0.133128386072201
30
0
41
1
10
20.335202023157
20
0.13207988150964
30
0
41
1
10
20.34512616029
20
0.130332221222972
30
0
0
SPLINE
5
EA
100
AcDbEntity
8
1
62
256
6
ByLayer
370
18
48
1
60
0
100
AcDbSpline
70
4
71
3
72
29
73
25
40
0
40
0
40
0
40
0
40
0.031250000000005
40
0.031250000000005
40
0.06250000000001
40
0.06250000000001
40
0.125000000000008
40
0.125000000000008
40
0.156250000000006
40
0.156250000000006
40
0.187500000000005
40
0.187500000000005
40
0.250000000000002
40
0.312499999999999
40
0.312499999999999
40
0.374999999999996
40
0.374999999999996
40
0.499999999999991
40
0.499999999999991
40
0.624999999999985
40
0.624999999999985
40
0.749999999999979
40
0.749999999999979
40
1
40
1
40
1
40
1
41
1
10
20.8369833073752
20
0.0521566754038361
30
0
41
1
10
20.8357286380492
20
0.0521195059832564
30
0
41
1
10
20.8342005886398
20
0.0521349314689132
30
0
41
1
10
20.8305796367828
20
0.0522744530934176
30
0
41
1
10
20.8284745129143
20
0.0523996768093298
30
0
41
1
10
20.8214251330749
20
0.0529315218508088
30
0
41
1
10
20.8157366028588
20
0.0534928977844515
30
0
41
1
10
20.8058969687748
20
0.0546082539895849
30
0
41
1
10
20.8024000059817
20
0.055025437185833
30
0
41
1
10
20.7949919011834
20
0.0559464186903824
30
0
41
1
10
20.7910652680475
20
0.0564525201927495
30
0
41
1
10
20.778854500645
20
0.0580746794854576
30
0
41
1
10
20.7613465920499
20
0.0605230949937265
30
0
41
1
10
20.7418104332212
20
0.063443550821745
30
0
41
1
10
20.7214386697552
20
0.0665584792426159
30
0
41
1
10
20.710802871495
20
0.068218480598091
30
0
41
1
10
20.6784401804346
20
0.0733465692528625
30
0
41
1
10
20.656090720861
20
0.0769861400249567
30
0
41
1
10
20.6104149326545
20
0.0845438915114869
30
0
41
1
10
20.5870814078389
20
0.0884641246279614
30
0
41
1
10
20.5397317885303
20
0.0964992645447751
30
0
41
1
10
20.5156876735969
20
0.100619319481979
30
0
41
1
10
20.4429645023173
20
0.113166319686258
30
0
41
1
10
20.3941437189696
20
0.121700131651409
30
0
41
1
10
20.3451261602985
20
0.130332221221494
30
0
0
SPLINE
5
EB
100
AcDbEntity
8
1
62
256
6
ByLayer
370
18
48
1
60
0
100
AcDbSpline
70
4
71
5
72
47
73
41
40
0
40
0
40
0
40
0
40
0
40
0
40
0.0015866315311231
40
0.0354851581082392
40
0.0580841758263165
40
0.0806831935443939
40
0.11458172012151
40
0.148480246698626
40
0.171079264416703
40
0.204977790993819
40
0.227576808711897
40
0.261475335289013
40
0.28407435300709
40
0.317972879584206
40
0.351871406161322
40
0.3744704238794
40
0.408368950456516
40
0.430967968174593
40
0.464866494751709
40
0.487465512469787
40
0.521364039046903
40
0.555262565624019
40
0.577861583342096
40
0.600460601060173
40
0.634359127637289
40
0.668257654214406
40
0.690856671932483
40
0.724755198509599
40
0.758653725086715
40
0.781252742804792
40
0.80385176052287
40
0.837750287099986
40
0.871648813677102
40
0.894247831395179
40
0.928146357972295
40
0.950745375690373
40
0.984643902267489
40
1
40
1
40
1
40
1
40
1
40
1
41
1
10
14.2941391527923
20
0.863193953437786
30
0
41
1
10
14.2956095183718
20
0.863107203695307
30
0
41
1
10
14.3284943779256
20
0.861152883910023
30
0
41
1
10
14.3823222334624
20
0.857435872344666
30
0
41
1
10
14.4570930849821
20
0.851099209971267
30
0
41
1
10
14.5632784304763
20
0.839804484075785
30
0
41
1
10
14.6994079043653
20
0.821267395498069
30
0
41
1
10
14.8250658802628
20
0.800483657598278
30
0
41
1
10
14.9611953541518
20
0.774098965925845
30
0
41
1
10
15.0973248280408
20
0.743604326847702
30
0
41
1
10
15.2334543019298
20
0.709524460102301
30
0
41
1
10
15.3591122778274
20
0.674893145271398
30
0
41
1
10
15.4952417517164
20
0.634124379274368
30
0
41
1
10
15.6313712256054
20
0.590280957651743
30
0
41
1
10
15.7675006994944
20
0.543294364005533
30
0
41
1
10
15.9036301733834
20
0.493681866954347
30
0
41
1
10
16.0397596472724
20
0.441452732367566
30
0
41
1
10
16.1758891211615
20
0.387103610160949
30
0
41
1
10
16.301547097059
20
0.335195905896995
30
0
41
1
10
16.437676570948
20
0.27735694892732
30
0
41
1
10
16.573806044837
20
0.218163283437121
30
0
41
1
10
16.709935518726
20
0.157802047200363
30
0
41
1
10
16.8355934946236
20
0.101379948235944
30
0
41
1
10
16.9717229685126
20
0.0397965629806549
30
0
41
1
10
17.1078524424016
20
-0.0219790874944295
30
0
41
1
10
17.2335104182991
20
-0.0789329975073656
30
0
41
1
10
17.3696398921881
20
-0.14025155999866
30
0
41
1
10
17.5162408640686
20
-0.205475280111528
30
0
41
1
10
17.6523703379576
20
-0.264956402029412
30
0
41
1
10
17.7780283138551
20
-0.318679948671274
30
0
41
1
10
17.9141577877442
20
-0.375312084052808
30
0
41
1
10
18.0502872616332
20
-0.430131011151758
30
0
41
1
10
18.1759452375307
20
-0.478839171965291
30
0
41
1
10
18.3120747114197
20
-0.529291973994447
30
0
41
1
10
18.4482041853087
20
-0.576925224936019
30
0
41
1
10
18.5843336591977
20
-0.621759244137337
30
0
41
1
10
18.7032794652986
20
-0.658318029393115
30
0
41
1
10
18.8012822754165
20
-0.686283071706356
30
0
41
1
10
18.8678705915601
20
-0.704240955468435
30
0
41
1
10
18.9135159117207
20
-0.716046614431747
30
0
41
1
10
18.9277467379069
20
-0.719677835902758
30
0
0
SPLINE
5
EC
100
AcDbEntity
8
1
62
256
6
ByLayer
370
18
48
1
60
0
100
AcDbSpline
70
4
71
3
72
8
73
4
40
0
40
0
40
0
40
0
40
1
40
1
40
1
40
1
41
1
10
13.7344118599054
20
1.186341299785
30
0
41
1
10
13.7725867308228
20
1.15723677499389
30
0
41
1
10
13.811340410468
20
1.12886308246303
30
0
41
1
10
13.8506242035737
20
1.10115788226742
30
0
0
SPLINE
5
ED
100
AcDbEntity
8
1
62
256
6
ByLayer
370
18
48
1
60
0
100
AcDbSpline
70
4
71
3
72
61
73
57
40
0
40
0
40
0
40
0
40
0.0460115600167097
40
0.0460115600167097
40
0.11939528616927
40
0.11939528616927
40
0.137741217707411
40
0.137741217707411
40
0.156087149245552
40
0.156087149245552
40
0.192779012321833
40
0.192779012321833
40
0.229470875398114
40
0.229470875398114
40
0.266162738474395
40
0.302854601550677
40
0.302854601550677
40
0.321200533088817
40
0.321200533088817
40
0.339546464626956
40
0.339546464626956
40
0.376238327703235
40
0.376238327703235
40
0.412930190779514
40
0.412930190779514
40
0.449622053855793
40
0.449622053855793
40
0.486313916932073
40
0.486313916932073
40
0.504659848470212
40
0.504659848470212
40
0.523005780008352
40
0.523005780008352
40
0.559697643084633
40
0.559697643084633
40
0.596389506160914
40
0.596389506160914
40
0.633081369237196
40
0.633081369237196
40
0.669773232313477
40
0.669773232313477
40
0.688119163851618
40
0.688119163851618
40
0.706465095389758
40
0.706465095389758
40
0.779848821542319
40
0.779848821542319
40
0.816540684618599
40
0.816540684618599
40
0.853232547694879
40
0.853232547694879
40
0.889924410771159
40
0.889924410771159
40
0.92661627384744
40
0.92661627384744
40
1
40
1
40
1
40
1
41
1
10
19.7050588018279
20
-1.18126381529604
30
0
41
1
10
19.6151865722604
20
-1.219421351649
30
0
41
1
10
19.5256815666393
20
-1.25354270810598
30
0
41
1
10
19.2935759693857
20
-1.33116718279837
30
0
41
1
10
19.1510888671699
20
-1.36807424629643
30
0
41
1
10
18.9715012919527
20
-1.40006569226853
30
0
41
1
10
18.9355112430431
20
-1.40575180702103
30
0
41
1
10
18.8633453985168
20
-1.4156690506112
30
0
41
1
10
18.8271409051529
20
-1.4199000698859
30
0
41
1
10
18.7189849939745
20
-1.43030033307011
30
0
41
1
10
18.6472353448437
20
-1.43422352205946
30
0
41
1
10
18.5041561480468
20
-1.43604212687867
30
0
41
1
10
18.4328273967646
20
-1.43393666424032
30
0
41
1
10
18.2902945603241
20
-1.4236238498651
30
0
41
1
10
18.1478806515262
20
-1.40720700338392
30
0
41
1
10
18.0049369535992
20
-1.37912934476427
30
0
41
1
10
17.897270501171
20
-1.35394087819066
30
0
41
1
10
17.8613066227533
20
-1.34485226795164
30
0
41
1
10
17.7891970502006
20
-1.3252481791352
30
0
41
1
10
17.7529893549471
20
-1.31471184810459
30
0
41
1
10
17.6447689823831
20
-1.28112211245124
30
0
41
1
10
17.5730214123363
20
-1.25604488629034
30
0
41
1
10
17.4300565538344
20
-1.20058026332234
30
0
41
1
10
17.3587831356013
20
-1.17036434735675
30
0
41
1
10
17.2163617425349
20
-1.10513580810198
30
0
41
1
10
17.1452106087302
20
-1.07010951916831
30
0
41
1
10
17.0025574272916
20
-0.996238521535531
30
0
41
1
10
16.9310854166456
20
-0.957307045680182
30
0
41
1
10
16.8235092260804
20
-0.89574913254171
30
0
41
1
10
16.7875883086127
20
-0.874702930034857
30
0
41
1
10
16.715585722213
20
-0.831530865613388
30
0
41
1
10
16.6794361798962
20
-0.809353503221104
30
0
41
1
10
16.5712181429066
20
-0.741608276977956
30
0
41
1
10
16.4994924751729
20
-0.694948055496297
30
0
41
1
10
16.3564626847922
20
-0.599243028944073
30
0
41
1
10
16.2851533234422
20
-0.550209773416526
30
0
41
1
10
16.1425841020687
20
-0.450323798843755
30
0
41
1
10
16.0713372509111
20
-0.399444115391077
30
0
41
1
10
15.9286499400643
20
-0.296127761545648
30
0
41
1
10
15.8572125533009
20
-0.243683203864549
30
0
41
1
10
15.7496883468919
20
-0.164098457468498
30
0
41
1
10
15.7137849455391
20
-0.13741866423851
30
0
41
1
10
15.6418125271779
20
-0.0838049134173104
30
0
41
1
10
15.6056876708239
20
-0.0568291455253132
30
0
41
1
10
15.4252064387616
20
0.0780636244882089
30
0
41
1
10
15.2825220584546
20
0.185112793422888
30
0
41
1
10
15.0687415148111
20
0.341652838410084
30
0
41
1
10
14.9975083693665
20
0.393162890395274
30
0
41
1
10
14.8548617065384
20
0.494493493385278
30
0
41
1
10
14.7834554067179
20
0.544317829493934
30
0
41
1
10
14.6402083529295
20
0.641830438426467
30
0
41
1
10
14.5683360314169
20
0.689523596890041
30
0
41
1
10
14.4238434204039
20
0.782238870432849
30
0
41
1
10
14.3519434505534
20
0.826804406752132
30
0
41
1
10
14.1367825345359
20
0.954687059073194
30
0
41
1
10
13.9939207760997
20
1.0324336954364
30
0
41
1
10
13.8505924159761
20
1.10114609985533
30
0
0
SPLINE
5
EE
100
AcDbEntity
8
1
62
256
6
ByLayer
370
18
48
1
60
0
100
AcDbSpline
70
4
71
3
72
16
73
12
40
0
40
0
40
0
40
0
40
0.250000000000043
40
0.250000000000043
40
0.375000000000036
40
0.375000000000036
40
0.500000000000029
40
0.500000000000029
40
0.750000000000014
40
0.750000000000014
40
1
40
1
40
1
40
1
41
1
10
20.8474625095475
20
-1.12035557246466
30
0
41
1
10
20.8397548725388
20
-1.13452163077386
30
0
41
1
10
20.8313126987419
20
-1.14802078824218
30
0
41
1
10
20.817584838324
20
-1.16730202031064
30
0
41
1
10
20.8128307141563
20
-1.17356727202301
30
0
41
1
10
20.8029668893913
20
-1.18577529016375
30
0
41
1
10
20.7978592167028
20
-1.19171189284526
30
0
41
1
10
20.7822595271316
20
-1.20878020960703
30
0
41
1
10
20.771413852192
20
-1.21927297427209
30
0
41
1
10
20.7489200068876
20
-1.23868477037891
30
0
41
1
10
20.7372210589068
20
-1.24763616350489
30
0
41
1
10
20.7252662513444
20
-1.25579158769759
30
0
0
SPLINE
5
EF
100
AcDbEntity
8
1
62
256
6
ByLayer
370
18
48
1
60
0
100
AcDbSpline
70
4
71
3
72
12
73
8
40
0
40
0
40
0
40
0
40
0.5
40
0.5
40
0.75
40
0.75
40
1
40
1
40
1
40
1
41
1
10
20.7747800708083
20
-0.718173383362938
30
0
41
1
10
20.7872408401225
20
-0.784911763693316
30
0
41
1
10
20.7996215555972
20
-0.851725350405246
30
0
41
1
10
20.8179407699046
20
-0.952149831118817
30
0
41
1
10
20.8240065930281
20
-0.985658109438219
30
0
41
1
10
20.8359181562846
20
-1.05285608028518
30
0
41
1
10
20.8417437831172
20
-1.08656610060609
30
0
41
1
10
20.8474625095476
20
-1.12035557246463
30
0
0
SPLINE
5
F0
100
AcDbEntity
8
1
62
256
6
ByLayer
370
18
48
1
60
0
100
AcDbSpline
70
4
71
3
72
16
73
12
40
0
40
0
40
0
40
0
40
0.25
40
0.25
40
0.375
40
0.375
40
0.5
40
0.5
40
0.75
40
0.75
40
1
40
1
40
1
40
1
41
1
10
20.169561406798
20
-0.109261934296256
30
0
41
1
10
20.2150983356209
20
-0.166448974243025
30
0
41
1
10
20.2620899262815
20
-0.222268298318596
30
0
41
1
10
20.3348102952528
20
-0.303897768116371
30
0
41
1
10
20.3594219249353
20
-0.330758289856988
30
0
41
1
10
20.4093921877705
20
-0.38377697869069
30
0
41
1
10
20.4348079498239
20
-0.409990098476129
30
0
41
1
10
20.5114503572175
20
-0.486854334090992
30
0
41
1
10
20.5632329618754
20
-0.535917723828447
30
0
41
1
10
20.6680673151178
20
-0.630022181651299
30
0
41
1
10
20.7211197880144
20
-0.675060954160529
30
0
41
1
10
20.7747800708081
20
-0.718173383362483
30
0
0
SPLINE
5
F1
100
AcDbEntity
8
1
62
256
6
ByLayer
370
18
48
1
60
0
100
AcDbSpline
70
4
71
3
72
19
73
15
40
0
40
0
40
0
40
0
40
0.249999999999954
40
0.249999999999954
40
0.374999999999961
40
0.374999999999961
40
0.499999999999969
40
0.624999999999977
40
0.624999999999977
40
0.749999999999985
40
0.749999999999985
40
0.874999999999992
40
0.874999999999992
40
1
40
1
40
1
40
1
41
1
10
20.169561406797
20
-0.109261934294921
30
0
41
1
10
20.1619230817757
20
-0.0996694297188299
30
0
41
1
10
20.1553439888913
20
-0.089459603306608
30
0
41
1
10
20.1474570076385
20
-0.0729889811086366
30
0
41
1
10
20.1451497408616
20
-0.0672586140330793
30
0
41
1
10
20.1414081183833
20
-0.0556784839219233
30
0
41
1
10
20.1385094108733
20
-0.0439452775160305
30
0
41
1
10
20.1373670494836
20
-0.0318908718603552
30
0
41
1
10
20.1371699927863
20
-0.0196623035369896
30
0
41
1
10
20.1375536680772
20
-0.0135242810726197
30
0
41
1
10
20.1392363869161
20
-0.0015193236201867
30
0
41
1
10
20.1405337952476
20
0.0043964339949127
30
0
41
1
10
20.1440186307241
20
0.0160599813567615
30
0
41
1
10
20.1462186347346
20
0.0218261852303669
30
0
41
1
10
20.1488128823655
20
0.0274002846206258
30
0
0
SPLINE
5
F2
100
AcDbEntity
8
1
62
256
6
ByLayer
370
18
48
1
60
0
100
AcDbSpline
70
4
71
5
72
32
73
26
40
0
40
0
40
0
40
0
40
0
40
0
40
0.0139119280727053
40
0.0722825376736872
40
0.130653147274669
40
0.169566887008657
40
0.208480626742645
40
0.266851236343627
40
0.325221845944609
40
0.364135585678596
40
0.422506195279578
40
0.461419935013566
40
0.519790544614548
40
0.558704284348536
40
0.617074893949518
40
0.675445503550499
40
0.714359243284487
40
0.772729852885469
40
0.811643592619457
40
0.870014202220439
40
0.908927941954427
40
0.967298551555409
40
1
40
1
40
1
40
1
40
1
40
1
41
1
10
17.4578615466562
20
0.862351516827715
30
0
41
1
10
17.4653488109421
20
0.861885425108284
30
0
41
1
10
17.5042505692023
20
0.859378563896058
30
0
41
1
10
17.574566821437
20
0.854048109258855
30
0
41
1
10
17.6658260696547
20
0.845264555916657
30
0
41
1
10
17.7780283138551
20
0.831524920978154
30
0
41
1
10
17.9141577877442
20
0.810846548171412
30
0
41
1
10
18.0502872616332
20
0.786250812348072
30
0
41
1
10
18.1759452375307
20
0.760027928849695
30
0
41
1
10
18.3120747114197
20
0.727946364048535
30
0
41
1
10
18.4482041853087
20
0.692000885261621
30
0
41
1
10
18.5843336591977
20
0.652720852268146
30
0
41
1
10
18.7099916350953
20
0.613541597661964
30
0
41
1
10
18.8461211089843
20
0.568143539353599
30
0
41
1
10
18.9822505828733
20
0.519988549494343
30
0
41
1
10
19.1183800567623
20
0.469063382314147
30
0
41
1
10
19.2545095306513
20
0.415871092160813
30
0
41
1
10
19.3906390045403
20
0.360476139685574
30
0
41
1
10
19.5267684784294
20
0.303353226049751
30
0
41
1
10
19.6524264543269
20
0.249258076494954
30
0
41
1
10
19.7885559282159
20
0.18946518718991
30
0
41
1
10
19.9108705094048
20
0.134904279495316
30
0
41
1
10
20.0122420946109
20
0.0892315657751226
30
0
41
1
10
20.0821991858425
20
0.0575836329349499
30
0
41
1
10
20.1312132810912
20
0.0353769619605373
30
0
41
1
10
20.1488128823656
20
0.0274002846206258
30
0
0
SPLINE
5
F3
100
AcDbEntity
8
1
62
256
6
ByLayer
370
18
48
1
60
0
100
AcDbSpline
70
4
71
3
72
55
73
51
40
0
40
0
40
0
40
0
40
0.0444365451773977
40
0.0444365451773977
40
0.0888730903547955
40
0.0888730903547955
40
0.133309635532193
40
0.133309635532193
40
0.155527908120893
40
0.155527908120893
40
0.177746180709594
40
0.177746180709594
40
0.266619271064392
40
0.266619271064392
40
0.35549236141919
40
0.35549236141919
40
0.377710634007888
40
0.377710634007888
40
0.399928906596586
40
0.399928906596586
40
0.444365451773985
40
0.444365451773985
40
0.488801996951384
40
0.488801996951384
40
0.533238542128783
40
0.577675087306182
40
0.577675087306182
40
0.599893359894881
40
0.599893359894881
40
0.622111632483579
40
0.622111632483579
40
0.666548177660975
40
0.666548177660975
40
0.710984722838371
40
0.710984722838371
40
0.755421268015767
40
0.755421268015767
40
0.799857813193164
40
0.799857813193164
40
0.822076085781863
40
0.822076085781863
40
0.844294358370563
40
0.844294358370563
40
0.888730903547962
40
0.888730903547962
40
0.933167448725361
40
0.933167448725361
40
0.97760399390276
40
0.97760399390276
40
1
40
1
40
1
40
1
41
1
10
20.7252662513444
20
-1.25579158769759
30
0
41
1
10
20.6537147640674
20
-1.22988804688148
30
0
41
1
10
20.5823704629656
20
-1.20138793369753
30
0
41
1
10
20.4397242961579
20
-1.13965085667715
30
0
41
1
10
20.3684247683727
20
-1.10641359424562
30
0
41
1
10
20.2255804254126
20
-1.03538201256171
30
0
41
1
10
20.1540367505843
20
-0.997581936047908
30
0
41
1
10
20.046297913319
20
-0.9376142247975
30
0
41
1
10
20.0103142827069
20
-0.917080187129471
30
0
41
1
10
19.9381630264489
20
-0.874952006890283
30
0
41
1
10
19.9019601741162
20
-0.853334916641614
30
0
41
1
10
19.721699753077
20
-0.743498840501331
30
0
41
1
10
19.5788933237607
20
-0.649531005631331
30
0
41
1
10
19.2935759693857
20
-0.452591272676727
30
0
41
1
10
19.1510888671698
20
-0.349543131205365
30
0
41
1
10
18.9715012919527
20
-0.217285106039952
30
0
41
1
10
18.9355112430431
20
-0.190656992413807
30
0
41
1
10
18.8633453985168
20
-0.137096285662352
30
0
41
1
10
18.8271409051528
20
-0.110142110011282
30
0
41
1
10
18.7189849939745
20
-0.0294940610289416
30
0
41
1
10
18.6472353448436
20
0.0241731257868025
30
0
41
1
10
18.5041561480468
20
0.130916559579447
30
0
41
1
10
18.4328273967646
20
0.183993722466738
30
0
41
1
10
18.290294560324
20
0.289140119565644
30
0
41
1
10
18.1478806515262
20
0.393270352700199
30
0
41
1
10
18.0049369535992
20
0.494427584894368
30
0
41
1
10
17.8972705011709
20
0.568873065022615
30
0
41
1
10
17.8613066227533
20
0.593452251202336
30
0
41
1
10
17.7891970502006
20
0.642087377382126
30
0
41
1
10
17.7529893549471
20
0.666183252668731
30
0
41
1
10
17.6447689823829
20
0.737120658575179
30
0
41
1
10
17.5730214123363
20
0.782712621451054
30
0
41
1
10
17.4300565538343
20
0.870077947927058
30
0
41
1
10
17.3587831356013
20
0.911906155100894
30
0
41
1
10
17.2163617425348
20
0.991492563143566
30
0
41
1
10
17.1452106087302
20
1.02923299610822
30
0
41
1
10
17.0025574272916
20
1.100682646433
30
0
41
1
10
16.9310854166455
20
1.13436698550618
30
0
41
1
10
16.8235092260803
20
1.18142024884074
30
0
41
1
10
16.7875883086126
20
1.19652424503693
30
0
41
1
10
16.715585722213
20
1.2254843994468
30
0
41
1
10
16.6794361798961
20
1.23935916577139
30
0
41
1
10
16.5712181429066
20
1.27883274630719
30
0
41
1
10
16.4994924751728
20
1.30227394904205
30
0
41
1
10
16.3564626847922
20
1.34349182138487
30
0
41
1
10
16.2851533234422
20
1.36128189045496
30
0
41
1
10
16.1425841020687
20
1.39134509487712
30
0
41
1
10
16.0713372509111
20
1.40359036356529
30
0
41
1
10
15.9640364134997
20
1.41767792634062
30
0
41
1
10
15.9280554222786
20
1.42166467612043
30
0
41
1
10
15.8920312023774
20
1.42490246867865
30
0
0
SPLINE
5
F4
100
AcDbEntity
8
1
62
256
6
ByLayer
370
18
48
1
60
0
100
AcDbSpline
70
4
71
3
72
8
73
4
40
0
40
0
40
0
40
0
40
1
40
1
40
1
40
1
41
1
10
13.734411859908
20
-0.832938350187931
30
0
41
1
10
13.7725867308245
20
-0.836388371668363
30
0
41
1
10
13.8113404104689
20
-0.839165117556036
30
0
41
1
10
13.8506242035737
20
-0.841307345043617
30
0
0
SPLINE
5
F5
100
AcDbEntity
8
1
62
256
6
ByLayer
370
18
48
1
60
0
100
AcDbSpline
70
4
71
3
72
32
73
28
40
0
40
0
40
0
40
0
40
0.0176818259512946
40
0.0176818259512946
40
0.0932447624165753
40
0.0932447624165753
40
0.168807698881856
40
0.168807698881856
40
0.244370635347137
40
0.244370635347137
40
0.319933571812418
40
0.319933571812418
40
0.357715040045061
40
0.357715040045061
40
0.395496508277704
40
0.395496508277704
40
0.546622381208281
40
0.546622381208281
40
0.622185317673566
40
0.622185317673566
40
0.697748254138852
40
0.697748254138852
40
0.773311190604138
40
0.773311190604138
40
0.848874127069424
40
0.848874127069424
40
1
40
1
40
1
40
1
41
1
10
16.6940372554187
20
-1.2335836618619
30
0
41
1
10
16.6771445522385
20
-1.24004417858663
30
0
41
1
10
16.660245609019
20
-1.24635911297176
30
0
41
1
10
16.5712181429066
20
-1.2788327463073
30
0
41
1
10
16.4994924751729
20
-1.30227394904213
30
0
41
1
10
16.3564626847922
20
-1.34349182138496
30
0
41
1
10
16.2851533234422
20
-1.36128189045507
30
0
41
1
10
16.1425841020687
20
-1.39134509487724
30
0
41
1
10
16.0713372509111
20
-1.4035903635654
30
0
41
1
10
15.9286499400643
20
-1.42232382825489
30
0
41
1
10
15.8572125533009
20
-1.42880065806787
30
0
41
1
10
15.7496883468918
20
-1.43400674664875
30
0
41
1
10
15.7137849455391
20
-1.43499229240535
30
0
41
1
10
15.6418125271779
20
-1.43543522219744
30
0
41
1
10
15.6056876708238
20
-1.43489026519717
30
0
41
1
10
15.4252064387616
20
-1.42828453310509
30
0
41
1
10
15.2825220584546
20
-1.41051851939994
30
0
41
1
10
15.0687415148111
20
-1.36723497971738
30
0
41
1
10
14.9975083693665
20
-1.35011908603627
30
0
41
1
10
14.8548617065384
20
-1.31045317166752
30
0
41
1
10
14.7834554067179
20
-1.28787846770825
30
0
41
1
10
14.6402083529295
20
-1.23697517283591
30
0
41
1
10
14.5683360314169
20
-1.20857448614686
30
0
41
1
10
14.4238434204039
20
-1.14674874802338
30
0
41
1
10
14.3519434505534
20
-1.11347453027125
30
0
41
1
10
14.1367825345358
20
-1.00711541262933
30
0
41
1
10
13.9939207760997
20
-0.927993239663891
30
0
41
1
10
13.8505924159761
20
-0.841222177653833
30
0
0
SPLINE
5
F6
100
AcDbEntity
8
1
62
256
6
ByLayer
370
18
48
1
60
0
100
AcDbSpline
70
4
71
5
72
16
73
10
40
0
40
0
40
0
40
0
40
0
40
0
40
0.0256179167261482
40
0.441607459737495
40
0.71893382174506
40
0.996260183752625
40
1
40
1
40
1
40
1
40
1
40
1
41
1
10
13.999999964005
20
0.631562977179897
30
0
41
1
10
13.9980653627532
20
0.632933948273916
30
0
41
1
10
13.9647162675271
20
0.656553241170883
30
0
41
1
10
13.910424176318
20
0.694616100852414
30
0
41
1
10
13.835189089126
20
0.746429098162992
30
0
41
1
10
13.7596715803276
20
0.797018669428866
30
0
41
1
10
13.686088672781
20
0.84481140060845
30
0
41
1
10
13.6439202592088
20
0.871679975359967
30
0
41
1
10
13.6226948416195
20
0.885069037875184
30
0
41
1
10
13.6224124200132
20
0.885247166399324
30
0
0
SPLINE
5
F7
100
AcDbEntity
8
1
62
256
6
ByLayer
370
18
48
1
60
0
100
AcDbSpline
70
4
71
3
72
48
73
44
40
0
40
0
40
0
40
0
40
0.0121317103809661
40
0.0240634707752926
40
0.0357953480673455
40
0.0473274172447768
40
0.0586597616301975
40
0.0697924731422608
40
0.0807256525887861
40
0.0914594099972768
40
0.101993864987793
40
0.112329147192782
40
0.122465396730605
40
0.132402764739345
40
0.142141413977853
40
0.151681519502704
40
0.161023269430662
40
0.170166865797646
40
0.179112525525134
40
0.187860481510045
40
0.196410983852105
40
0.204764301238906
40
0.212920722509015
40
0.220880558418398
40
0.228644143638839
40
0.236211839022297
40
0.243584034170792
40
0.250761150357888
40
0.284661570945335
40
0.319168890131751
40
0.354307127086485
40
0.390099065551558
40
0.426566304771865
40
0.46372931236287
40
0.50160747812977
40
0.551384561969567
40
0.604695021889448
40
0.661566140728932
40
0.722020333999927
40
0.786076245928764
40
0.853749567303834
40
0.925053653914333
40
1
40
1
40
1
40
1
41
1
10
13.6211081890889
20
0.251849473680665
30
0
41
1
10
13.6191040550885
20
0.256899601605852
30
0
41
1
10
13.6151288184208
20
0.266916623272465
30
0
41
1
10
13.6091568652705
20
0.281874962894591
30
0
41
1
10
13.603236115438
20
0.296615253686213
30
0
41
1
10
13.5973598073319
20
0.311134217098157
30
0
41
1
10
13.591526356378
20
0.325423442681739
30
0
41
1
10
13.5857333951883
20
0.339476631053202
30
0
41
1
10
13.5799792964818
20
0.353287672345971
30
0
41
1
10
13.5742627422364
20
0.366851116824932
30
0
41
1
10
13.5685828031114
20
0.380162020385853
30
0
41
1
10
13.5629388851727
20
0.393215952615606
30
0
41
1
10
13.557330711755
20
0.406008962118364
30
0
41
1
10
13.5517582967873
20
0.418537552809084
30
0
41
1
10
13.5462219210485
20
0.430798657336737
30
0
41
1
10
13.5407221084299
20
0.442789611383319
30
0
41
1
10
13.5352596030348
20
0.45450812800047
30
0
41
1
10
13.5298353469154
20
0.465952272297784
30
0
41
1
10
13.524450458662
20
0.477120436584443
30
0
41
1
10
13.5191062123798
20
0.488011315757404
30
0
41
1
10
13.5138040187893
20
0.498623884063022
30
0
41
1
10
13.5085454022894
20
0.50895736945094
30
0
41
1
10
13.503331996234
20
0.519011239403966
30
0
41
1
10
13.4981654763238
20
0.528785148466255
30
0
41
1
10
13.4930477203863
20
0.538279026798961
30
0
41
1
10
13.4879801579635
20
0.547492665099526
30
0
41
1
10
13.4829660337712
20
0.556427112073578
30
0
41
1
10
13.4717967170885
20
0.57589641872471
30
0
41
1
10
13.453696691595
20
0.605894970020358
30
0
41
1
10
13.427572206677
20
0.646172524694435
30
0
41
1
10
13.399689811302
20
0.686334352205108
30
0
41
1
10
13.3700935257166
20
0.726387612279751
30
0
41
1
10
13.3388231370639
20
0.766344826366662
30
0
41
1
10
13.3059222576907
20
0.806225911955977
30
0
41
1
10
13.2680527045666
20
0.849974227977555
30
0
41
1
10
13.2240525702709
20
0.898265558091026
30
0
41
1
10
13.1728571632536
20
0.951833471456837
30
0
41
1
10
13.1171386741452
20
1.00784180823894
30
0
41
1
10
13.0569416818793
20
1.06632673778333
30
0
41
1
10
12.9923146027925
20
1.12733297255568
30
0
41
1
10
12.9232925628826
20
1.19089034030517
30
0
41
1
10
12.8499550448403
20
1.25709280154857
30
0
41
1
10
12.7993753492278
20
1.30176858413489
30
0
41
1
10
12.7734556763599
20
1.32466278418366
30
0
0
SPLINE
5
F8
100
AcDbEntity
8
1
62
256
6
ByLayer
370
18
48
1
60
0
100
AcDbSpline
70
4
71
5
72
24
73
18
40
0
40
0
40
0
40
0
40
0
40
0
40
0.212981084320547
40
0.266226355400684
40
0.34609426202089
40
0.425962168641095
40
0.479207439721232
40
0.532452710801369
40
0.612320617421574
40
0.692188524041779
40
0.745433795121916
40
0.825301701742122
40
0.878546972822258
40
0.958414879442464
40
1
40
1
40
1
40
1
40
1
40
1
41
1
10
13.6208436112447
20
0.248968957124674
30
0
41
1
10
13.7046155951764
20
0.212568564472804
30
0
41
1
10
13.809330575091
20
0.166327451235105
30
0
41
1
10
13.94546004898
20
0.105303734877538
30
0
41
1
10
14.1130040168434
20
0.0293469053386275
30
0
41
1
10
14.3014909806897
20
-0.0561813529058952
30
0
41
1
10
14.4271489565872
20
-0.11294953846803
30
0
41
1
10
14.5632784304763
20
-0.173872260283503
30
0
41
1
10
14.6994079043653
20
-0.233954970203968
30
0
41
1
10
14.8250658802628
20
-0.288399658814427
30
0
41
1
10
14.9611953541518
20
-0.345987483432111
30
0
41
1
10
15.0973248280408
20
-0.401728859817695
30
0
41
1
10
15.2334543019298
20
-0.455515471048727
30
0
41
1
10
15.3545259834842
20
-0.501406487353364
30
0
41
1
10
15.4546546690557
20
-0.537640527265836
30
0
41
1
10
15.5233688606527
20
-0.561630802742997
30
0
41
1
10
15.5711400562669
20
-0.577864859111855
30
0
41
1
10
15.5874967579066
20
-0.583370419383328
30
0
0
SPLINE
5
F9
100
AcDbEntity
8
1
62
256
6
ByLayer
370
18
48
1
60
0
100
AcDbSpline
70
4
71
5
72
15
73
9
40
0
40
0
40
0
40
0
40
0
40
0
40
0.0349621282410455
40
0.60268509748878
40
0.981167076987269
40
1
40
1
40
1
40
1
40
1
40
1
41
1
10
13.999999964005
20
1.31319188608086
30
0
41
1
10
13.9980653627532
20
1.31246140728047
30
0
41
1
10
13.9647162675271
20
1.29984051700544
30
0
41
1
10
13.910424176318
20
1.27848824560459
30
0
41
1
10
13.8550899804584
20
1.25541100439628
30
0
41
1
10
13.7997557845987
20
1.23103181709246
30
0
41
1
10
13.7463561899908
20
1.20633148037729
30
0
41
1
10
13.7243710893573
20
1.19596604233027
30
0
41
1
10
13.7233289847067
20
1.19547427517608
30
0
0
SPLINE
5
FA
100
AcDbEntity
8
1
62
256
6
ByLayer
370
18
48
1
60
0
100
AcDbSpline
70
4
71
5
72
45
73
39
40
0
40
0
40
0
40
0
40
0
40
0
40
0.0310671274963162
40
0.0547495198672681
40
0.07843191223822
40
0.113955500794648
40
0.149479089351076
40
0.173161481722028
40
0.208685070278456
40
0.232367462649408
40
0.267891051205835
40
0.291573443576787
40
0.327097032133215
40
0.362620620689643
40
0.386303013060595
40
0.421826601617023
40
0.445508993987975
40
0.481032582544403
40
0.504714974915355
40
0.540238563471782
40
0.57576215202821
40
0.599444544399162
40
0.623126936770114
40
0.658650525326542
40
0.69417411388297
40
0.717856506253922
40
0.75338009481035
40
0.788903683366778
40
0.812586075737729
40
0.836268468108681
40
0.87179205666511
40
0.907315645221537
40
0.930998037592489
40
0.966521626148917
40
0.990204018519869
40
1
40
1
40
1
40
1
40
1
40
1
41
1
10
14.3211958408698
20
0.870583661354232
30
0
41
1
10
14.3486693628082
20
0.870522049466445
30
0
41
1
10
14.3970858807295
20
0.870020766734626
30
0
41
1
10
14.4664453946337
20
0.868311347537855
30
0
41
1
10
14.5672194025123
20
0.863767933153952
30
0
41
1
10
14.6994079043653
20
0.853907142970741
30
0
41
1
10
14.8250658802628
20
0.840719144054077
30
0
41
1
10
14.9611953541518
20
0.822368699533513
30
0
41
1
10
15.0973248280408
20
0.799650704171938
30
0
41
1
10
15.2334543019298
20
0.773074766094823
30
0
41
1
10
15.3591122778274
20
0.745088370018522
30
0
41
1
10
15.4952417517164
20
0.711177332889832
30
0
41
1
10
15.6313712256054
20
0.673820958548703
30
0
41
1
10
15.7675006994944
20
0.632878307757807
30
0
41
1
10
15.9036301733834
20
0.588876767694302
30
0
41
1
10
16.0397596472724
20
0.541751958075309
30
0
41
1
10
16.1758891211615
20
0.492021296403607
30
0
41
1
10
16.301547097059
20
0.443909802709811
30
0
41
1
10
16.437676570948
20
0.389657132074603
30
0
41
1
10
16.573806044837
20
0.333507920644848
30
0
41
1
10
16.709935518726
20
0.275578530618048
30
0
41
1
10
16.8355934946236
20
0.220875752357841
30
0
41
1
10
16.9717229685126
20
0.160576768408419
30
0
41
1
10
17.1078524424016
20
0.0995020057358715
30
0
41
1
10
17.2335104182991
20
0.0426534014348761
30
0
41
1
10
17.3696398921881
20
-0.0191387430938335
30
0
41
1
10
17.5162408640686
20
-0.0855655044409787
30
0
41
1
10
17.6523703379576
20
-0.146801175446001
30
0
41
1
10
17.7780283138551
20
-0.20267145603566
30
0
41
1
10
17.9141577877442
20
-0.262188492156724
30
0
41
1
10
18.0502872616332
20
-0.320438842856049
30
0
41
1
10
18.1759452375307
20
-0.372805435438067
30
0
41
1
10
18.3120747114197
20
-0.427734031132673
30
0
41
1
10
18.4482041853087
20
-0.480382141768672
30
0
41
1
10
18.5615820231633
20
-0.522287122702494
30
0
41
1
10
18.6435453670434
20
-0.55137832344974
30
0
41
1
10
18.7045657149407
20
-0.572324535836742
30
0
41
1
10
18.7341715688636
20
-0.582314710725512
30
0
41
1
10
18.7428344268035
20
-0.585223005053138
30
0
0
SPLINE
5
FB
100
AcDbEntity
8
1
62
256
6
ByLayer
370
18
48
1
60
0
100
AcDbSpline
70
4
71
3
72
20
73
16
40
0
40
0
40
0
40
0
40
0.124999999999971
40
0.124999999999971
40
0.187499999999973
40
0.187499999999973
40
0.249999999999975
40
0.249999999999975
40
0.499999999999983
40
0.499999999999983
40
0.624999999999987
40
0.624999999999987
40
0.749999999999991
40
0.749999999999991
40
1
40
1
40
1
40
1
41
1
10
12.1923451802362
20
-0.42126325727105
30
0
41
1
10
12.2186906101736
20
-0.420580860634743
30
0
41
1
10
12.2450454559461
20
-0.421709209854669
30
0
41
1
10
12.2845889235711
20
-0.425551235581338
30
0
41
1
10
12.2978080250371
20
-0.427200923333146
30
0
41
1
10
12.3240383727313
20
-0.431139016206174
30
0
41
1
10
12.3370485823944
20
-0.433424763006343
30
0
41
1
10
12.401623949608
20
-0.446281176213404
30
0
41
1
10
12.4517911744198
20
-0.461049608150461
30
0
41
1
10
12.5252575837059
20
-0.488376222329379
30
0
41
1
10
12.5494433522408
20
-0.498363910983699
30
0
41
1
10
12.597239994338
20
-0.519966779633506
30
0
41
1
10
12.6206548649043
20
-0.53149608380221
30
0
41
1
10
12.6892382939434
20
-0.567852576079019
30
0
41
1
10
12.7329037986868
20
-0.594506628036129
30
0
41
1
10
12.7747415826487
20
-0.623087585376027
30
0
0
SPLINE
5
FC
100
AcDbEntity
8
1
62
256
6
ByLayer
370
18
48
1
60
0
100
AcDbSpline
70
4
71
3
72
10
73
6
40
0
40
0
40
0
40
0
40
0.5
40
0.5
40
1
40
1
40
1
40
1
41
1
10
12.7861047247288
20
-0.630922965216939
30
0
41
1
10
12.9254893412993
20
-0.729720573709642
30
0
41
1
10
13.0648739578698
20
-0.82350676898804
30
0
41
1
10
13.3436431910107
20
-0.996638908598982
30
0
41
1
10
13.4830278075812
20
-1.07597837458772
30
0
41
1
10
13.6224124241517
20
-1.14622275227114
30
0
0
SPLINE
5
FD
100
AcDbEntity
8
1
62
256
6
ByLayer
370
18
48
1
60
0
100
AcDbSpline
70
4
71
3
72
12
73
8
40
0
40
0
40
0
40
0
40
0.250000000000003
40
0.250000000000003
40
0.500000000000006
40
0.500000000000006
40
1
40
1
40
1
40
1
41
1
10
13.6224646668547
20
-1.14613063023825
30
0
41
1
10
13.6278119894996
20
-1.12284082057994
30
0
41
1
10
13.6348164486069
20
-1.09885358376278
30
0
41
1
10
13.6509585384267
20
-1.04941436999468
30
0
41
1
10
13.6601117138881
20
-1.02394274474915
30
0
41
1
10
13.6895969921642
20
-0.945341402816922
30
0
41
1
10
13.7116939148027
20
-0.89051482777316
30
0
41
1
10
13.7344118599183
20
-0.832938350188869
30
0
0
SPLINE
5
FE
100
AcDbEntity
8
1
62
256
6
ByLayer
370
18
48
1
60
0
100
AcDbSpline
70
4
71
3
72
17
73
13
40
0
40
0
40
0
40
0
40
0.249999999999993
40
0.249999999999993
40
0.499999999999986
40
0.499999999999986
40
0.562499999999984
40
0.562499999999984
40
0.624999999999983
40
0.749999999999988
40
0.749999999999988
40
1
40
1
40
1
40
1
41
1
10
13.7344118599065
20
-0.832938350181195
30
0
41
1
10
13.6169600835898
20
-0.756622845131744
30
0
41
1
10
13.5000507744208
20
-0.675992614220434
30
0
41
1
10
13.2658370680319
20
-0.507854969011191
30
0
41
1
10
13.1485372968144
20
-0.420342250872267
30
0
41
1
10
13.0007232950451
20
-0.307690528514684
30
0
41
1
10
12.9710763660747
20
-0.284978397628919
30
0
41
1
10
12.9117476797538
20
-0.239339168923209
30
0
41
1
10
12.8228783612435
20
-0.170693879314712
30
0
41
1
10
12.7342702355289
20
-0.10163088332277
30
0
41
1
10
12.5571153167194
20
0.036682845006851
30
0
41
1
10
12.4390960403086
20
0.129145014958283
30
0
41
1
10
12.3203934280925
20
0.220874730945894
30
0
0
SPLINE
5
FF
100
AcDbEntity
8
1
62
256
6
ByLayer
370
18
48
1
60
0
100
AcDbSpline
70
4
71
3
72
20
73
16
40
0
40
0
40
0
40
0
40
0.125000000000004
40
0.125000000000004
40
0.187500000000007
40
0.187500000000007
40
0.250000000000009
40
0.250000000000009
40
0.499999999999986
40
0.499999999999986
40
0.624999999999989
40
0.624999999999989
40
0.749999999999993
40
0.749999999999993
40
1
40
1
40
1
40
1
41
1
10
12.1923451802735
20
1.40673824058752
30
0
41
1
10
12.2186906102093
20
1.40698503792277
30
0
41
1
10
12.2450454559802
20
1.40657935228049
30
0
41
1
10
12.284588923603
20
1.40518113555206
30
0
41
1
10
12.2978080250681
20
1.40457899679998
30
0
41
1
10
12.3240383727605
20
1.40313125545785
30
0
41
1
10
12.3370485824227
20
1.40228661760216
30
0
41
1
10
12.4016239496318
20
1.39749379631888
30
0
41
1
10
12.4517911744403
20
1.39187777923422
30
0
41
1
10
12.5252575837216
20
1.3807798628485
30
0
41
1
10
12.549443352255
20
1.37662696213238
30
0
41
1
10
12.5972399943493
20
1.36734319195381
30
0
41
1
10
12.6206548649138
20
1.36224822859617
30
0
41
1
10
12.6892382939485
20
1.34560955999777
30
0
41
1
10
12.7329037986893
20
1.33268930324678
30
0
41
1
10
12.7747415826487
20
1.31767578798718
30
0
0
SPLINE
5
100
100
AcDbEntity
8
1
62
256
6
ByLayer
370
18
48
1
60
0
100
AcDbSpline
70
4
71
3
72
10
73
6
40
0
40
0
40
0
40
0
40
0.5
40
0.5
40
1
40
1
40
1
40
1
41
1
10
12.7861047247288
20
1.31353268592525
30
0
41
1
10
12.9254893412993
20
1.26094782129209
30
0
41
1
10
13.0648739578698
20
1.1979392471959
30
0
41
1
10
13.3436431910108
20
1.05404244755303
30
0
41
1
10
13.4830278075812
20
0.973159606407819
30
0
41
1
10
13.6224124241517
20
0.885247155691729
30
0
0
SPLINE
5
101
100
AcDbEntity
8
1
62
256
6
ByLayer
370
18
48
1
60
0
100
AcDbSpline
70
4
71
3
72
12
73
8
40
0
40
0
40
0
40
0
40
0.25
40
0.25
40
0.5
40
0.5
40
1
40
1
40
1
40
1
41
1
10
13.6224646668547
20
0.885362438016728
30
0
41
1
10
13.6278119894995
20
0.914504853775412
30
0
41
1
10
13.6348164486069
20
0.942512218770702
30
0
41
1
10
13.6509585384268
20
0.996557220633179
30
0
41
1
10
13.6601117138881
20
1.02261166296782
30
0
41
1
10
13.6895969921641
20
1.09794230049917
30
0
41
1
10
13.7116939148027
20
1.14397507773825
30
0
41
1
10
13.7344118599183
20
1.18634129977519
30
0
0
SPLINE
5
102
100
AcDbEntity
8
1
62
256
6
ByLayer
370
18
48
1
60
0
100
AcDbSpline
70
4
71
3
72
70
73
66
40
0
40
0
40
0
40
0
40
0.0117970528333939
40
0.0235443791829426
40
0.0352436507342539
40
0.0468965593742162
40
0.0585048168120418
40
0.070070154164323
40
0.0815943215032148
40
0.0930790873673062
40
0.104526238235982
40
0.115937577966858
40
0.12731492719622
40
0.138660122704103
40
0.149975016743395
40
0.161261476334565
40
0.172521382526402
40
0.183756629624496
40
0.194969124387864
40
0.206160785196391
40
0.217333541189294
40
0.228489331377445
40
0.239630103731238
40
0.250757814245309
40
0.261874425983493
40
0.272981908105133
40
0.28408223487624
40
0.295177384666874
40
0.306269338938186
40
0.317360081221591
40
0.328451596092112
40
0.339545868139587
40
0.350644880939794
40
0.361750616028109
40
0.372865051879207
40
0.383990162894573
40
0.395127918400803
40
0.4324900861849
40
0.471291753034676
40
0.511577143944696
40
0.553385709878531
40
0.596752681706272
40
0.608424753054725
40
0.620625768565645
40
0.633356606834384
40
0.646618042050415
40
0.660410759657761
40
0.674735369127677
40
0.689592414447673
40
0.7049823827885
40
0.720905711706886
40
0.737362795162163
40
0.754353988564636
40
0.771879613029547
40
0.789939958974483
40
0.808535289171028
40
0.827665841340757
40
0.847331830368414
40
0.867533450192701
40
0.888270875423627
40
0.909544262728
40
0.931353752017401
40
0.953699467467447
40
0.976581518392925
40
1
40
1
40
1
40
1
41
1
10
12.3180503184357
20
0.223590006252522
30
0
41
1
10
12.3229766492354
20
0.220533932160379
30
0
41
1
10
12.3328085455547
20
0.21443466582221
30
0
41
1
10
12.3475458957068
20
0.205471148762655
30
0
41
1
10
12.3622374513674
20
0.196672159600553
30
0
41
1
10
12.3768865542965
20
0.18805194246994
30
0
41
1
10
12.3914947519529
20
0.179610189437256
30
0
41
1
10
12.4060640857689
20
0.171350520538169
30
0
41
1
10
12.420596480092
20
0.163275560564728
30
0
41
1
10
12.4350939033216
20
0.155388249375193
30
0
41
1
10
12.44955832327
20
0.147691491471704
30
0
41
1
10
12.4639917172945
20
0.14018824802838
30
0
41
1
10
12.4783960677721
20
0.132881510924903
30
0
41
1
10
12.4927733614199
20
0.125774308157304
30
0
41
1
10
12.507125587528
20
0.118869700804765
30
0
41
1
10
12.5214547364187
20
0.112170782166771
30
0
41
1
10
12.5357627977807
20
0.105680676239047
30
0
41
1
10
12.5500517589726
20
0.0994025362801381
30
0
41
1
10
12.5643236032667
20
0.0933395432670352
30
0
41
1
10
12.5785803080435
20
0.087494904290196
30
0
41
1
10
12.59282384293
20
0.0818718508738243
30
0
41
1
10
12.6070561678862
20
0.0764736372220227
30
0
41
1
10
12.6212792312348
20
0.0713035383886336
30
0
41
1
10
12.6354949676372
20
0.0663648483701706
30
0
41
1
10
12.6497052960127
20
0.0616608781197954
30
0
41
1
10
12.6639121174048
20
0.0571949534761984
30
0
41
1
10
12.6781173127791
20
0.0529704130308346
30
0
41
1
10
12.6923227408102
20
0.0489906058298004
30
0
41
1
10
12.7065302354425
20
0.0452588893011523
30
0
41
1
10
12.7207416040239
20
0.0417786259330057
30
0
41
1
10
12.7349586230326
20
0.0385531842028399
30
0
41
1
10
12.7491830425204
20
0.0355859232257387
30
0
41
1
10
12.7634165577386
20
0.0328802377606792
30
0
41
1
10
12.7776609030536
20
0.0304393773838569
30
0
41
1
10
12.7919174887809
20
0.0282671088236839
30
0
41
1
10
12.8061887456281
20
0.026365227399566
30
0
41
1
10
12.8316772529396
20
0.0234703006469204
30
0
41
1
10
12.8690399176914
20
0.0207265253852142
30
0
41
1
10
12.919035360524
20
0.0200303428210873
30
0
41
1
10
12.9711464810997
20
0.0224109663264471
30
0
41
1
10
13.0254708742773
20
0.0281026583800497
30
0
41
1
10
13.0676323897389
20
0.0349416878700026
30
0
41
1
10
13.096970112377
20
0.0407846584280094
30
0
41
1
10
13.1129426131362
20
0.0442483890988967
30
0
41
1
10
13.1296236865989
20
0.048141107669295
30
0
41
1
10
13.1470205382342
20
0.0524856568590337
30
0
41
1
10
13.1651421901333
20
0.057301095963652
30
0
41
1
10
13.1839967499228
20
0.0626078617600001
30
0
41
1
10
13.2035920670042
20
0.0684261728106605
30
0
41
1
10
13.223935417407
20
0.0747763491407341
30
0
41
1
10
13.2450334580821
20
0.0816785783589182
30
0
41
1
10
13.266892098264
20
0.0891528292058865
30
0
41
1
10
13.2895163878541
20
0.0972187136618174
30
0
41
1
10
13.3129103946917
20
0.10589535358767
30
0
41
1
10
13.3370770787986
20
0.115201236304273
30
0
41
1
10
13.3620181616754
20
0.125154062027178
30
0
41
1
10
13.3877339909749
20
0.135770587676319
30
0
41
1
10
13.4142234027816
20
0.147066444825953
30
0
41
1
10
13.441483573635
20
0.159056019759504
30
0
41
1
10
13.469509894773
20
0.171752053825145
30
0
41
1
10
13.4982957444818
20
0.185166292007295
30
0
41
1
10
13.5278326423119
20
0.199306030279899
30
0
41
1
10
13.5581089133006
20
0.21418651683851
30
0
41
1
10
13.5891141119701
20
0.229781954919247
30
0
41
1
10
13.6100100273283
20
0.24061112367076
30
0
41
1
10
13.6205790334004
20
0.246088440568769
30
0
0
SPLINE
5
103
100
AcDbEntity
8
1
62
256
6
ByLayer
370
18
48
1
60
0
100
AcDbSpline
70
4
71
3
72
67
73
63
40
0
40
0
40
0
40
0
40
0.0625000000000052
40
0.0625000000000052
40
0.12500000000001
40
0.12500000000001
40
0.187500000000016
40
0.187500000000016
40
0.250000000000021
40
0.250000000000021
40
0.312500000000026
40
0.312500000000026
40
0.375000000000031
40
0.375000000000031
40
0.406250000000034
40
0.406250000000034
40
0.437500000000037
40
0.437500000000037
40
0.468750000000039
40
0.468750000000039
40
0.500000000000042
40
0.500000000000042
40
0.515625000000043
40
0.515625000000043
40
0.531250000000044
40
0.531250000000044
40
0.562500000000047
40
0.562500000000047
40
0.578125000000048
40
0.578125000000048
40
0.593750000000049
40
0.593750000000049
40
0.625000000000051
40
0.625000000000051
40
0.632812500000051
40
0.632812500000051
40
0.640625000000052
40
0.656250000000057
40
0.671875000000061
40
0.671875000000061
40
0.687500000000066
40
0.687500000000066
40
0.71875000000007
40
0.71875000000007
40
0.734375000000068
40
0.734375000000068
40
0.750000000000067
40
0.750000000000067
40
0.781250000000058
40
0.781250000000058
40
0.812500000000048
40
0.812500000000048
40
0.828125000000044
40
0.828125000000044
40
0.843750000000039
40
0.87500000000003
40
0.87500000000003
40
0.937500000000011
40
0.937500000000011
40
0.968750000000005
40
0.968750000000005
40
1
40
1
40
1
40
1
41
1
10
12.3157237945569
20
0.225041226378465
30
0
41
1
10
12.274131153096
20
0.257295497026803
30
0
41
1
10
12.2328032426675
20
0.289767044787766
30
0
41
1
10
12.150938342983
20
0.354908291498276
30
0
41
1
10
12.1103600380409
20
0.387609277573034
30
0
41
1
10
12.0299592930029
20
0.453282725309407
30
0
41
1
10
11.990135991069
20
0.486254532220556
30
0
41
1
10
11.9113576415034
20
0.552538480954382
30
0
41
1
10
11.8725587482448
20
0.585718461889485
30
0
41
1
10
11.7965451196172
20
0.652108666200007
30
0
41
1
10
11.7592998487296
20
0.685340094475805
30
0
41
1
10
11.6867499937165
20
0.752066726474425
30
0
41
1
10
11.6514372045242
20
0.785557809730307
30
0
41
1
10
11.6004848847834
20
0.836261066449993
30
0
41
1
10
11.5838401277204
20
0.853241536069248
30
0
41
1
10
11.5513879841362
20
0.887439065678052
30
0
41
1
10
11.5356083282304
20
0.904630368661458
30
0
41
1
10
11.505475819304
20
0.9389282613148
30
0
41
1
10
11.4910782245542
20
0.956079219030102
30
0
41
1
10
11.4639487181277
20
0.990460242428895
30
0
41
1
10
11.4512133557769
20
1.00768944199336
30
0
41
1
10
11.4337331519863
20
1.03367930398022
30
0
41
1
10
11.4281785213693
20
1.04236732764303
30
0
41
1
10
11.4177047282239
20
1.05981441603805
30
0
41
1
10
11.4127719830238
20
1.06860168411123
30
0
41
1
10
11.3992578839088
20
1.09480539465378
30
0
41
1
10
11.3919086947602
20
1.11210706567212
30
0
41
1
10
11.3841478047071
20
1.13785965236025
30
0
41
1
10
11.3821046489477
20
1.1464328554886
30
0
41
1
10
11.3793177119756
20
1.16343110045545
30
0
41
1
10
11.3785880360429
20
1.17175907521417
30
0
41
1
10
11.3785362483128
20
1.19623328642589
30
0
41
1
10
11.3813385528323
20
1.21187025907926
30
0
41
1
10
11.3890306354669
20
1.23057345602734
30
0
41
1
10
11.3907882410842
20
1.23428627761626
30
0
41
1
10
11.3946860364718
20
1.24152540952608
30
0
41
1
10
11.4011085829097
20
1.25212358384931
30
0
41
1
10
11.4146173745091
20
1.26854983800288
30
0
41
1
10
11.4282839088971
20
1.28049186068773
30
0
41
1
10
11.4433274644065
20
1.29188628651607
30
0
41
1
10
11.4515000043019
20
1.2972727862732
30
0
41
1
10
11.4773089072273
20
1.31235206569818
30
0
41
1
10
11.4963950344626
20
1.32110850926736
30
0
41
1
10
11.5272550342278
20
1.33283304665335
30
0
41
1
10
11.5379584212674
20
1.33651586231258
30
0
41
1
10
11.5598207045425
20
1.34339870750685
30
0
41
1
10
11.5709636983972
20
1.34659711784119
30
0
41
1
10
11.6049423496723
20
1.3555861475887
30
0
41
1
10
11.6283234403754
20
1.36077669184334
30
0
41
1
10
11.6762343970787
20
1.36999077840795
30
0
41
1
10
11.7007665926585
20
1.37401090130999
30
0
41
1
10
11.738284432097
20
1.37936468645069
30
0
41
1
10
11.7509217397682
20
1.38103646662614
30
0
41
1
10
11.7762304847265
20
1.38415570309999
30
0
41
1
10
11.8143149818503
20
1.38850771324528
30
0
41
1
10
11.8527280585312
20
1.39200739349948
30
0
41
1
10
11.929925572534
20
1.3981052629494
30
0
41
1
10
11.9818821200651
20
1.4009822702393
30
0
41
1
10
12.0603973252393
20
1.40403673284968
30
0
41
1
10
12.0866669234787
20
1.40484040434407
30
0
41
1
10
12.1393857409917
20
1.40606712115337
30
0
41
1
10
12.1658800922768
20
1.40649032232557
30
0
41
1
10
12.1923451802735
20
1.40673824058752
30
0
0
SPLINE
5
104
100
AcDbEntity
8
1
62
256
6
ByLayer
370
18
48
1
60
0
100
AcDbSpline
70
4
71
3
72
58
73
54
40
0
40
0
40
0
40
0
40
0.0158349672150952
40
0.0316031874845662
40
0.0473069046814129
40
0.0629483897940641
40
0.0785299404186415
40
0.0940538802008767
40
0.10952255823067
40
0.12493834838479
40
0.140303648621753
40
0.155620880226296
40
0.170892487005283
40
0.186120934434659
40
0.20130870875952
40
0.216458316047115
40
0.23157228119463
40
0.246653146893662
40
0.261703472551923
40
0.276725833175283
40
0.29172281821201
40
0.306697030360755
40
0.321651084346332
40
0.336587605664404
40
0.351509229299502
40
0.366418598418066
40
0.381318363041085
40
0.396211178698219
40
0.411099705068511
40
0.425986604609703
40
0.440874541180378
40
0.455766178658982
40
0.47066417956272
40
0.485571203670299
40
0.500489906651896
40
0.515422938710321
40
0.530372943236463
40
0.58052349434103
40
0.632606258583633
40
0.686680598361641
40
0.742799467978347
40
0.801010157183114
40
0.816677364022919
40
0.833054562890065
40
0.850142933106957
40
0.867943513853899
40
0.886457225189789
40
0.905684885196698
40
0.925627224059072
40
0.946284895697239
40
0.967658487435567
40
0.989748528078427
40
1
40
1
40
1
40
1
41
1
10
12.3180503177177
20
-1.49417981214037
30
0
41
1
10
12.3229766485251
20
-1.49219394765032
30
0
41
1
10
12.3328085448594
20
-1.48823058940991
30
0
41
1
10
12.3475458950341
20
-1.48208481443544
30
0
41
1
10
12.362237450717
20
-1.47580992602181
30
0
41
1
10
12.3768865536683
20
-1.46939221984979
30
0
41
1
10
12.3914947513465
20
-1.46283738879302
30
0
41
1
10
12.4060640851843
20
-1.456146055365
30
0
41
1
10
12.4205964795289
20
-1.4493202911585
30
0
41
1
10
12.43509390278
20
-1.44236188273163
30
0
41
1
10
12.4495583227496
20
-1.43527279632119
30
0
41
1
10
12.4639917167951
20
-1.42805505665734
30
0
41
1
10
12.4783960672936
20
-1.4207107819372
30
0
41
1
10
12.4927733609622
20
-1.41324217717019
30
0
41
1
10
12.5071255870909
20
-1.40565153862369
30
0
41
1
10
12.521454736002
20
-1.39794125530346
30
0
41
1
10
12.5357627973845
20
-1.3901138112173
30
0
41
1
10
12.5500517585967
20
-1.38217178742056
30
0
41
1
10
12.564323602911
20
-1.3741178641047
30
0
41
1
10
12.5785803077078
20
-1.36595482265739
30
0
41
1
10
12.5928238426144
20
-1.35768554770951
30
0
41
1
10
12.6070561675905
20
-1.3493130291603
30
0
41
1
10
12.621279230959
20
-1.34084036418008
30
0
41
1
10
12.6354949673812
20
-1.33227075918612
30
0
41
1
10
12.6497052957765
20
-1.32360753178836
30
0
41
1
10
12.6639121171883
20
-1.31485411270569
30
0
41
1
10
12.6781173125823
20
-1.30601404762959
30
0
41
1
10
12.6923227406331
20
-1.29709099911125
30
0
41
1
10
12.706530235285
20
-1.28808874816255
30
0
41
1
10
12.7207416038861
20
-1.27901119672023
30
0
41
1
10
12.7349586229145
20
-1.26986236665456
30
0
41
1
10
12.7491830424219
20
-1.26064641143032
30
0
41
1
10
12.7634165576596
20
-1.25136758026605
30
0
41
1
10
12.7776609029943
20
-1.24203035940008
30
0
41
1
10
12.7919174887413
20
-1.23263895147287
30
0
41
1
10
12.8061887456083
20
-1.22319922769543
30
0
41
1
10
12.831677252933
20
-1.20626952808777
30
0
41
1
10
12.8690399176914
20
-1.18140347433638
30
0
41
1
10
12.919035360524
20
-1.14849403437785
30
0
41
1
10
12.9711464810997
20
-1.11492999549478
30
0
41
1
10
13.0254708742773
20
-1.08108541438381
30
0
41
1
10
13.0676323897389
20
-1.056009143106
30
0
41
1
10
13.096970112377
20
-1.03914998550425
30
0
41
1
10
13.1129426131361
20
-1.03009400508563
30
0
41
1
10
13.129623686599
20
-1.02079842812324
30
0
41
1
10
13.1470205382342
20
-1.01129393558435
30
0
41
1
10
13.1651421901333
20
-1.00161545990923
30
0
41
1
10
13.1839967499228
20
-0.991799377867096
30
0
41
1
10
13.2035920670042
20
-0.981884373449162
30
0
41
1
10
13.223935417407
20
-0.971911251269376
30
0
41
1
10
13.2450334580821
20
-0.961923042964173
30
0
41
1
10
13.2627508041631
20
-0.953851650453089
30
0
41
1
10
13.2734374563936
20
-0.94912842931069
30
0
41
1
10
13.2768267640848
20
-0.947645166877038
30
0
0
SPLINE
5
105
100
AcDbEntity
8
1
62
256
6
ByLayer
370
18
48
1
60
0
100
AcDbSpline
70
4
71
5
72
18
73
12
40
0
40
0
40
0
40
0
40
0
40
0
40
0.041473626521382
40
0.179834565193499
40
0.387375973201674
40
0.594917381209849
40
0.733278319881966
40
0.940819727890141
40
1
40
1
40
1
40
1
40
1
40
1
41
1
10
20.4616833390229
20
1.44142538804692
30
0
41
1
10
20.4554056857923
20
1.44006814377008
30
0
41
1
10
20.4281850365789
20
1.43409944297179
30
0
41
1
10
20.369549893391
20
1.42046349516653
30
0
41
1
10
20.2795002562288
20
1.39696308540943
30
0
41
1
10
20.1685076230837
20
1.36323584758486
30
0
41
1
10
20.0323781491946
20
1.31528137485884
30
0
41
1
10
19.9082338526082
20
1.26518088272763
30
0
41
1
10
19.8155040499962
20
1.22409314550478
30
0
41
1
10
19.7541887413586
20
1.19538083172256
30
0
41
1
10
19.7138164287038
20
1.17582403497431
30
0
41
1
10
19.7048586100235
20
1.17145289115965
30
0
0
SPLINE
5
106
100
AcDbEntity
8
1
62
256
6
ByLayer
370
18
48
1
60
0
100
AcDbSpline
70
4
71
5
72
21
73
15
40
0
40
0
40
0
40
0
40
0
40
0
40
0.0095073858419383
40
0.0963348347511399
40
0.226576008114942
40
0.356817181478744
40
0.443644630387946
40
0.573885803751748
40
0.66071325266095
40
0.790954426024752
40
0.877781874933953
40
1
40
1
40
1
40
1
40
1
40
1
41
1
10
15.2060121023418
20
-1.48853068159579
30
0
41
1
10
15.2037188973012
20
-1.48875183917167
30
0
41
1
10
15.1804826962777
20
-1.49096584976758
30
0
41
1
10
15.1258320012799
20
-1.49553195154357
30
0
41
1
10
15.0397668123077
20
-1.50034209321024
30
0
41
1
10
14.9327586273525
20
-1.50164120423253
30
0
41
1
10
14.7966291534635
20
-1.49603597734952
30
0
41
1
10
14.6604996795745
20
-1.48248159530547
30
0
41
1
10
14.5243702056855
20
-1.46176786419195
30
0
41
1
10
14.398712229788
20
-1.43612181041286
30
0
41
1
10
14.2645179350431
20
-1.40190024598229
30
0
41
1
10
14.1617381342727
20
-1.37066452530488
30
0
41
1
10
14.0799013294851
20
-1.34270193493583
30
0
41
1
10
14.029479018672
20
-1.3243250851622
30
0
41
1
10
13.9999997038418
20
-1.31319409251776
30
0
0
SPLINE
5
107
100
AcDbEntity
8
1
62
256
6
ByLayer
370
18
48
1
60
0
100
AcDbSpline
70
4
71
3
72
28
73
24
40
0
40
0
40
0
40
0
40
0.0625000000000085
40
0.0625000000000085
40
0.125000000000017
40
0.125000000000017
40
0.156250000000021
40
0.156250000000021
40
0.187500000000026
40
0.187500000000026
40
0.250000000000033
40
0.250000000000033
40
0.312500000000041
40
0.312500000000041
40
0.375000000000049
40
0.375000000000049
40
0.500000000000039
40
0.500000000000039
40
0.62500000000003
40
0.62500000000003
40
0.75000000000002
40
0.75000000000002
40
1
40
1
40
1
40
1
41
1
10
20.461604182105
20
0.313554918528382
30
0
41
1
10
20.4708303065664
20
0.310486835672407
30
0
41
1
10
20.4802496760865
20
0.30858926946064
30
0
41
1
10
20.4996340644736
20
0.30809012122495
30
0
41
1
10
20.5090314936219
20
0.309537065303346
30
0
41
1
10
20.5225956653084
20
0.31395404341697
30
0
41
1
10
20.526964613713
20
0.315776803658366
30
0
41
1
10
20.5353185844731
20
0.319919642857371
30
0
41
1
10
20.5393299208451
20
0.322248526533087
30
0
41
1
10
20.5509688767122
20
0.329842568719897
30
0
41
1
10
20.5581931716505
20
0.335711719307199
30
0
41
1
10
20.5715604563829
20
0.348040214699267
30
0
41
1
10
20.5777818703281
20
0.354560703306447
30
0
41
1
10
20.589635125458
20
0.368031051036695
30
0
41
1
10
20.5952630257258
20
0.374984203880587
30
0
41
1
10
20.6115204598062
20
0.396267814787052
30
0
41
1
10
20.6215248556188
20
0.41100144235682
30
0
41
1
10
20.6403400299691
20
0.440600001625626
30
0
41
1
10
20.6491837974878
20
0.455537925115379
30
0
41
1
10
20.6661039084102
20
0.485497720801618
30
0
41
1
10
20.6741746371081
20
0.500522500980793
30
0
41
1
10
20.6974842460134
20
0.545582878248325
30
0
41
1
10
20.7118380066808
20
0.575596576769669
30
0
41
1
10
20.7252662513444
20
0.605409594072057
30
0
0
SPLINE
5
108
100
AcDbEntity
8
1
62
256
6
ByLayer
370
18
48
1
60
0
100
AcDbSpline
70
4
71
3
72
8
73
4
40
0
40
0
40
0
40
0
40
1
40
1
40
1
40
1
41
1
10
20.4616788867158
20
0.313530103264071
30
0
41
1
10
20.4702588218007
20
0.307057663412849
30
0
41
1
10
20.4788375030794
20
0.300602933425836
30
0
41
1
10
20.4874175161328
20
0.294169730336137
30
0
0
SPLINE
5
109
100
AcDbEntity
8
1
62
256
6
ByLayer
370
18
48
1
60
0
100
AcDbSpline
70
4
71
5
72
40
73
34
40
0
40
0
40
0
40
0
40
0
40
0
40
0.0083307337122073
40
0.0361230497676721
40
0.0778115238508693
40
0.119499997934066
40
0.147292313989531
40
0.188980788072728
40
0.230669262155925
40
0.25846157821139
40
0.286253894266855
40
0.327942368350052
40
0.369630842433249
40
0.397423158488714
40
0.439111632571911
40
0.466903948627376
40
0.508592422710573
40
0.536384738766038
40
0.578073212849235
40
0.619761686932432
40
0.647554002987897
40
0.689242477071094
40
0.717034793126559
40
0.758723267209756
40
0.786515583265221
40
0.828204057348418
40
0.869892531431615
40
0.89768484748708
40
0.925477163542544
40
0.967165637625741
40
1
40
1
40
1
40
1
40
1
40
1
41
1
10
20.4616833390229
20
0.313529966431787
30
0
41
1
10
20.4554056857923
20
0.318326277398881
30
0
41
1
10
20.4281850365789
20
0.339105482182816
30
0
41
1
10
20.369549893391
20
0.383691285734613
30
0
41
1
10
20.2795002562288
20
0.45152681642395
30
0
41
1
10
20.1685076230837
20
0.533681354037327
30
0
41
1
10
20.0323781491946
20
0.631862239989573
30
0
41
1
10
19.8857771773141
20
0.733965049369573
30
0
41
1
10
19.7496477034252
20
0.824886948791971
30
0
41
1
10
19.6239897275276
20
0.90513461851711
30
0
41
1
10
19.4878602536386
20
0.987653866236457
30
0
41
1
10
19.3517307797496
20
1.06540155915695
30
0
41
1
10
19.226072803852
20
1.13245097226923
30
0
41
1
10
19.089943329963
20
1.19961436394351
30
0
41
1
10
18.953813856074
20
1.26039383273098
30
0
41
1
10
18.817684382185
20
1.31506859706465
30
0
41
1
10
18.6920264062875
20
1.35968356707227
30
0
41
1
10
18.5558969323984
20
1.40143510097204
30
0
41
1
10
18.4197674585095
20
1.43642416886377
30
0
41
1
10
18.2836379846204
20
1.46378383255237
30
0
41
1
10
18.1475085107314
20
1.48406859321537
30
0
41
1
10
18.0113790368424
20
1.49646425339628
30
0
41
1
10
17.8752495629534
20
1.50162658784279
30
0
41
1
10
17.7495915870559
20
1.4996942324442
30
0
41
1
10
17.6134621131669
20
1.49035549979467
30
0
41
1
10
17.4773326392779
20
1.47381193034354
30
0
41
1
10
17.3412031653888
20
1.44943320430781
30
0
41
1
10
17.2155451894913
20
1.42046311091181
30
0
41
1
10
17.0794157156023
20
1.38223228949039
30
0
41
1
10
16.9499582882452
20
1.33952471155899
30
0
41
1
10
16.8519153548626
20
1.30280699905478
30
0
41
1
10
16.7748154174628
20
1.2713244135889
30
0
41
1
10
16.718658476046
20
1.24705213420259
30
0
41
1
10
16.6939160286036
20
1.23610128033627
30
0
0
SPLINE
5
10A
100
AcDbEntity
8
1
62
256
6
ByLayer
370
18
48
1
60
0
100
AcDbSpline
70
4
71
5
72
42
73
36
40
0
40
0
40
0
40
0
40
0
40
0
40
0.0162843672379415
40
0.0547031576363547
40
0.0803156845686303
40
0.118734474967043
40
0.144347001899319
40
0.182765792297732
40
0.221184582696145
40
0.246797109628421
40
0.272409636560696
40
0.310828426959109
40
0.349247217357523
40
0.374859744289798
40
0.413278534688211
40
0.451697325086624
40
0.4773098520189
40
0.502922378951175
40
0.541341169349588
40
0.579759959748002
40
0.605372486680277
40
0.64379127707869
40
0.669403804010966
40
0.707822594409379
40
0.733435121341654
40
0.771853911740068
40
0.810272702138481
40
0.835885229070756
40
0.874304019469169
40
0.899916546401445
40
0.938335336799858
40
0.963947863732133
40
1
40
1
40
1
40
1
40
1
40
1
41
1
10
18.0884280026781
20
-1.48846697662148
30
0
41
1
10
18.0751125091093
20
-1.48975467489839
30
0
41
1
10
18.0303825215661
20
-1.49377973017587
30
0
41
1
10
17.9647095380399
20
-1.49820445216193
30
0
41
1
10
17.8676220605393
20
-1.50150929289714
30
0
41
1
10
17.7495915870558
20
-1.49969423244431
30
0
41
1
10
17.6134621131668
20
-1.49035549979479
30
0
41
1
10
17.4773326392778
20
-1.47381193034366
30
0
41
1
10
17.3412031653888
20
-1.44943320430792
30
0
41
1
10
17.2155451894913
20
-1.42046311091193
30
0
41
1
10
17.0794157156023
20
-1.3822322894905
30
0
41
1
10
16.9432862417132
20
-1.33732362543336
30
0
41
1
10
16.8176282658157
20
-1.28988242884111
30
0
41
1
10
16.6814987919267
20
-1.23225341379384
30
0
41
1
10
16.5348978200462
20
-1.1631479931971
30
0
41
1
10
16.3987683461572
20
-1.09278809578353
30
0
41
1
10
16.2731103702596
20
-1.02296501826038
30
0
41
1
10
16.1369808963707
20
-0.942419019013869
30
0
41
1
10
16.0008514224817
20
-0.857320003646549
30
0
41
1
10
15.8751934465841
20
-0.774903153640338
30
0
41
1
10
15.7390639726951
20
-0.681872895427176
30
0
41
1
10
15.6029344988061
20
-0.585231890664858
30
0
41
1
10
15.4668050249171
20
-0.485787205312334
30
0
41
1
10
15.3411470490195
20
-0.391802300638091
30
0
41
1
10
15.2050175751305
20
-0.288117487331732
30
0
41
1
10
15.0688881012415
20
-0.183014620035351
30
0
41
1
10
14.9327586273525
20
-0.076924709186784
30
0
41
1
10
14.7966291534635
20
0.0295370016621348
30
0
41
1
10
14.6604996795745
20
0.135827196835009
30
0
41
1
10
14.5243702056855
20
0.241434844256276
30
0
41
1
10
14.398712229788
20
0.337865902136343
30
0
41
1
10
14.2645179350431
20
0.439213121705421
30
0
41
1
10
14.1617381342726
20
0.515275881102184
30
0
41
1
10
14.0799013294851
20
0.574622032686733
30
0
41
1
10
14.029479018672
20
0.610672626585995
30
0
41
1
10
13.9999997038418
20
0.631563420018864
30
0
0
SPLINE
5
10B
100
AcDbEntity
8
1
62
256
6
ByLayer
370
18
48
1
60
0
100
AcDbSpline
70
4
71
3
72
8
73
4
40
0
40
0
40
0
40
0
40
1
40
1
40
1
40
1
41
1
10
20.4616788867158
20
-1.44145323032995
30
0
41
1
10
20.4702588218006
20
-1.44257600577004
30
0
41
1
10
20.4788375030793
20
-1.44350344558418
30
0
41
1
10
20.4874175161327
20
-1.44423240205654
30
0
0
SPLINE
5
10C
100
AcDbEntity
8
1
62
256
6
ByLayer
370
18
48
1
60
0
100
AcDbSpline
70
4
71
5
72
60
73
54
40
0
40
0
40
0
40
0
40
0
40
0
40
0.0048575987195946
40
0.0210631243730781
40
0.0453714128533035
40
0.0696797013335289
40
0.0858852269870124
40
0.110193515467238
40
0.134501803947463
40
0.150707329600947
40
0.16691285525443
40
0.191221143734656
40
0.215529432214881
40
0.231734957868364
40
0.25604324634859
40
0.272248772002073
40
0.296557060482299
40
0.312762586135782
40
0.337070874616008
40
0.361379163096233
40
0.377584688749717
40
0.401892977229942
40
0.418098502883425
40
0.442406791363651
40
0.458612317017134
40
0.48292060549736
40
0.507228893977585
40
0.523434419631069
40
0.539639945284552
40
0.563948233764777
40
0.588256522245003
40
0.604462047898486
40
0.628770336378712
40
0.653078624858937
40
0.669284150512421
40
0.685489676165904
40
0.70979796464613
40
0.734106253126355
40
0.750311778779838
40
0.774620067260064
40
0.790825592913547
40
0.815133881393773
40
0.831339407047256
40
0.855647695527482
40
0.879955984007707
40
0.896161509661191
40
0.920469798141416
40
0.936675323794899
40
0.960983612275125
40
0.977189137928608
40
1
40
1
40
1
40
1
40
1
40
1
41
1
10
20.4616833390229
20
-1.44142538804707
30
0
41
1
10
20.4554056857923
20
-1.44006814377022
30
0
41
1
10
20.4281850365789
20
-1.43409944297193
30
0
41
1
10
20.369549893391
20
-1.42046349516667
30
0
41
1
10
20.2795002562288
20
-1.39696308540957
30
0
41
1
10
20.1685076230836
20
-1.363235847585
30
0
41
1
10
20.0323781491946
20
-1.31528137485895
30
0
41
1
10
19.8857771773141
20
-1.25611811855092
30
0
41
1
10
19.7496477034252
20
-1.19449738330576
30
0
41
1
10
19.6239897275276
20
-1.13228744818795
30
0
41
1
10
19.4878602536386
20
-1.05945680396618
30
0
41
1
10
19.3517307797496
20
-0.98150771050652
30
0
41
1
10
19.226072803852
20
-0.905139998781863
30
0
41
1
10
19.089943329963
20
-0.818033500282155
30
0
41
1
10
18.953813856074
20
-0.726591889078463
30
0
41
1
10
18.817684382185
20
-0.631662321641755
30
0
41
1
10
18.6920264062875
20
-0.541195499417853
30
0
41
1
10
18.5558969323984
20
-0.440599196909346
30
0
41
1
10
18.4197674585094
20
-0.337848697447214
30
0
41
1
10
18.2836379846204
20
-0.233288576710976
30
0
41
1
10
18.1475085107314
20
-0.127600902854056
30
0
41
1
10
18.0113790368424
20
-0.0212496094473522
30
0
41
1
10
17.8752495629534
20
0.0851780474150985
30
0
41
1
10
17.7495915870559
20
0.183063286961641
30
0
41
1
10
17.6134621131668
20
0.28819491922593
30
0
41
1
10
17.4773326392779
20
0.391959785531583
30
0
41
1
10
17.3412031653888
20
0.493655685721507
30
0
41
1
10
17.2155451894913
20
0.585326376969419
30
0
41
1
10
17.0794157156023
20
0.681759389942243
30
0
41
1
10
16.9432862417132
20
0.774898685963024
30
0
41
1
10
16.8176282658157
20
0.857458862183734
30
0
41
1
10
16.6814987919267
20
0.942754699294994
30
0
41
1
10
16.5348978200462
20
1.02920403670186
30
0
41
1
10
16.3987683461572
20
1.10401946972752
30
0
41
1
10
16.2731103702597
20
1.16815428078147
30
0
41
1
10
16.1369808963707
20
1.23195596589863
30
0
41
1
10
16.0008514224817
20
1.28980582356124
30
0
41
1
10
15.8751934465841
20
1.3374777101659
30
0
41
1
10
15.7390639726951
20
1.38265782626129
30
0
41
1
10
15.6029344988061
20
1.42048433389954
30
0
41
1
10
15.4668050249171
20
1.45143832717858
30
0
41
1
10
15.3411470490195
20
1.47354343735861
30
0
41
1
10
15.2050175751305
20
1.49036520041943
30
0
41
1
10
15.0688881012415
20
1.49998855214733
30
0
41
1
10
14.9327586273525
20
1.50164120423241
30
0
41
1
10
14.7966291534635
20
1.49603597734944
30
0
41
1
10
14.6604996795745
20
1.48248159530536
30
0
41
1
10
14.5243702056855
20
1.46176786419184
30
0
41
1
10
14.398712229788
20
1.43612181041277
30
0
41
1
10
14.2645179350431
20
1.4019002459822
30
0
41
1
10
14.1617381342726
20
1.37066452530479
30
0
41
1
10
14.0799013294851
20
1.34270193493575
30
0
41
1
10
14.029479018672
20
1.32432508516209
30
0
41
1
10
13.9999997038418
20
1.31319409251768
30
0
0
SPLINE
5
10D
100
AcDbEntity
8
1
62
256
6
ByLayer
370
18
48
1
60
0
100
AcDbSpline
70
4
71
3
72
17
73
13
40
0
40
0
40
0
40
0
40
0.250000000000007
40
0.250000000000007
40
0.500000000000014
40
0.500000000000014
40
0.562500000000016
40
0.562500000000016
40
0.625000000000017
40
0.750000000000012
40
0.750000000000012
40
1
40
1
40
1
40
1
41
1
10
13.7344118598999
20
-1.18634129978409
30
0
41
1
10
13.6169600835837
20
-1.24249617009519
30
0
41
1
10
13.5000507744153
20
-1.29174003553541
30
0
41
1
10
13.2658370680274
20
-1.37550271432954
30
0
41
1
10
13.1485372968103
20
-1.41002469161026
30
0
41
1
10
13.0007232950417
20
-1.44324464277543
30
0
41
1
10
12.9710763660713
20
-1.44939576591881
30
0
41
1
10
12.9117476797507
20
-1.460660833053
30
0
41
1
10
12.8228783612409
20
-1.47597168515631
30
0
41
1
10
12.7342702355268
20
-1.48652740357261
30
0
41
1
10
12.5571153167182
20
-1.50128674614189
30
0
41
1
10
12.439096040308
20
-1.50266638456665
30
0
41
1
10
12.3203934280925
20
-1.49544234731118
30
0
0
SPLINE
5
10E
100
AcDbEntity
8
1
62
256
6
ByLayer
370
18
48
1
60
0
100
AcDbSpline
70
4
71
3
72
17
73
13
40
0
40
0
40
0
40
0
40
0.279217549770873
40
0.279217549770873
40
0.558435099541746
40
0.558435099541746
40
0.628239486984462
40
0.628239486984462
40
0.698043874427178
40
0.8376526493126
40
0.8376526493126
40
1
40
1
40
1
40
1
41
1
10
13.7344118599035
20
1.18634129978227
30
0
41
1
10
13.6169600835871
20
1.24249617009366
30
0
41
1
10
13.5000507744184
20
1.29174003553413
30
0
41
1
10
13.2658370680298
20
1.37550271432869
30
0
41
1
10
13.1485372968124
20
1.41002469160964
30
0
41
1
10
13.0007232950433
20
1.443244642775
30
0
41
1
10
12.9710763660728
20
1.44939576591844
30
0
41
1
10
12.9117476797521
20
1.46066083305268
30
0
41
1
10
12.8228783612421
20
1.47597168515605
30
0
41
1
10
12.7342702355278
20
1.48652740357244
30
0
41
1
10
12.6065490065586
20
1.49716826742429
30
0
41
1
10
12.53790781591
20
1.50002931498867
30
0
41
1
10
12.4691441916181
20
1.50000207034893
30
0
0
SPLINE
5
10F
100
AcDbEntity
8
1
62
256
6
ByLayer
370
18
48
1
60
0
100
AcDbSpline
70
4
71
3
72
36
73
32
40
0
40
0
40
0
40
0
40
0.0625000000000002
40
0.0625000000000002
40
0.093750000000001
40
0.093750000000001
40
0.125000000000002
40
0.125000000000002
40
0.187500000000002
40
0.187500000000002
40
0.250000000000002
40
0.250000000000002
40
0.281250000000002
40
0.281250000000002
40
0.312500000000002
40
0.312500000000002
40
0.375000000000002
40
0.375000000000002
40
0.437500000000002
40
0.437500000000002
40
0.500000000000002
40
0.500000000000002
40
0.562500000000002
40
0.562500000000002
40
0.625000000000001
40
0.625000000000001
40
0.750000000000001
40
0.750000000000001
40
0.875
40
0.875
40
1
40
1
40
1
40
1
41
1
10
11.3935306172816
20
-0.929378449886087
30
0
41
1
10
11.387442594996
20
-0.911205559335059
30
0
41
1
10
11.382983428423
20
-0.892500008862612
30
0
41
1
10
11.3793712601174
20
-0.863519996874459
30
0
41
1
10
11.3786824862688
20
-0.853704468178648
30
0
41
1
10
11.3784834793469
20
-0.83374238595141
30
0
41
1
10
11.378975909542
20
-0.823758228484223
30
0
41
1
10
11.38230984141
20
-0.793817639578833
30
0
41
1
10
11.387002139059
20
-0.773872238110386
30
0
41
1
10
11.4018766958006
20
-0.734141198524412
30
0
41
1
10
11.4118016178879
20
-0.715071571978967
30
0
41
1
10
11.4299832858869
20
-0.687779747225505
30
0
41
1
10
11.4365979262752
20
-0.678891935154979
30
0
41
1
10
11.4508887219265
20
-0.661529444850345
30
0
41
1
10
11.4584944004324
20
-0.6531441827197
30
0
41
1
10
11.4823337953654
20
-0.629012530497988
30
0
41
1
10
11.4996684736883
20
-0.614178906365879
30
0
41
1
10
11.5366557959878
20
-0.586585952230735
30
0
41
1
10
11.5564340531526
20
-0.573770132453177
30
0
41
1
10
11.5970056485531
20
-0.5504377083615
30
0
41
1
10
11.6178688611679
20
-0.539851440646942
30
0
41
1
10
11.6605142768233
20
-0.520426730456705
30
0
41
1
10
11.6822980929931
20
-0.511591071864871
30
0
41
1
10
11.7266354011138
20
-0.495405634573018
30
0
41
1
10
11.749232022208
20
-0.488045041924806
30
0
41
1
10
11.8177426313996
20
-0.4680023561111
30
0
41
1
10
11.8638545755831
20
-0.457465015751438
30
0
41
1
10
11.95672337324
20
-0.440620372212607
30
0
41
1
10
12.0034832744286
20
-0.4343314362211
30
0
41
1
10
12.0975327172733
20
-0.425264863027991
30
0
41
1
10
12.1448234019064
20
-0.422494161519978
30
0
41
1
10
12.1923451802374
20
-0.421263257271022
30
0
0
SPLINE
5
110
100
AcDbEntity
8
1
62
256
6
ByLayer
370
18
48
1
60
0
100
AcDbSpline
70
4
71
3
72
18
73
14
40
0
40
0
40
0
40
0
40
0.30936997384518
40
0.30936997384518
40
0.464054960767765
40
0.464054960767765
40
0.61873994769035
40
0.61873994769035
40
0.773424934612935
40
0.773424934612935
40
0.92810992153552
40
0.92810992153552
40
1
40
1
40
1
40
1
41
1
10
11.3935306172594
20
-0.929378449896888
30
0
41
1
10
11.5587787735181
20
-0.920484744212104
30
0
41
1
10
11.7261875074171
20
-0.909096642975328
30
0
41
1
10
11.9818150083406
20
-0.88993253132486
30
0
41
1
10
12.0677779477842
20
-0.883219578905084
30
0
41
1
10
12.2414019609497
20
-0.869730570456596
30
0
41
1
10
12.3290644034483
20
-0.862954822529133
30
0
41
1
10
12.506221403946
20
-0.850155092392953
30
0
41
1
10
12.5957174068765
20
-0.844133163954552
30
0
41
1
10
12.776573517684
20
-0.833852320073788
30
0
41
1
10
12.8679347771295
20
-0.829597370752083
30
0
41
1
10
13.0030406157354
20
-0.825474512767471
30
0
41
1
10
13.0460978690007
20
-0.82447862742444
30
0
41
1
10
13.0893305843937
20
-0.823848668672269
30
0
0
SPLINE
5
111
100
AcDbEntity
8
1
62
256
6
ByLayer
370
18
48
1
60
0
100
AcDbSpline
70
4
71
3
72
40
73
36
40
0
40
0
40
0
40
0
40
0.0624999999999978
40
0.0624999999999978
40
0.124999999999996
40
0.124999999999996
40
0.250000000000001
40
0.250000000000001
40
0.375000000000007
40
0.375000000000007
40
0.437500000000005
40
0.437500000000005
40
0.500000000000003
40
0.500000000000003
40
0.625000000000008
40
0.625000000000008
40
0.656250000000011
40
0.656250000000011
40
0.687500000000015
40
0.687500000000015
40
0.750000000000014
40
0.750000000000014
40
0.812500000000013
40
0.812500000000013
40
0.84375000000001
40
0.84375000000001
40
0.875000000000007
40
0.875000000000007
40
0.906250000000004
40
0.906250000000004
40
0.921875000000003
40
0.921875000000003
40
0.937500000000002
40
0.937500000000002
40
1
40
1
40
1
40
1
41
1
10
12.3157237931766
20
-1.49510825314203
30
0
41
1
10
12.2894208009716
20
-1.49344343684368
30
0
41
1
10
12.2631420409769
20
-1.49133574442018
30
0
41
1
10
12.2108688929458
20
-1.48620890829238
30
0
41
1
10
12.1848963926365
20
-1.48319330827044
30
0
41
1
10
12.1074786484658
20
-1.47273943003395
30
0
41
1
10
12.0565277687283
20
-1.46389995469002
30
0
41
1
10
11.9560974047479
20
-1.44210399085421
30
0
41
1
10
11.9066139541767
20
-1.42915349098556
30
0
41
1
10
11.8337638503008
20
-1.40617118344571
30
0
41
1
10
11.8097116496637
20
-1.39791519722752
30
0
41
1
10
11.7621504910569
20
-1.38008846493938
30
0
41
1
10
11.7386015808691
20
-1.37049989168173
30
0
41
1
10
11.66930281092
20
-1.33966733508873
30
0
41
1
10
11.6248516613959
20
-1.31641397993045
30
0
41
1
10
11.5726247461973
20
-1.28288896204035
30
0
41
1
10
11.5623501077153
20
-1.2759574925787
30
0
41
1
10
11.5421912719134
20
-1.26159619344574
30
0
41
1
10
11.5323062097242
20
-1.25416384922175
30
0
41
1
10
11.5035327587283
20
-1.23120661415155
30
0
41
1
10
11.4854465032444
20
-1.21498035541362
30
0
41
1
10
11.452143249724
20
-1.1803046462739
30
0
41
1
10
11.436914184034
20
-1.16186166768298
30
0
41
1
10
11.4170795172882
20
-1.13205220649175
30
0
41
1
10
11.410973993023
20
-1.12175572563709
30
0
41
1
10
11.4000117469772
20
-1.10031233031398
30
0
41
1
10
11.3951446193403
20
-1.08911441622752
30
0
41
1
10
11.3871614545456
20
-1.06623928375049
30
0
41
1
10
11.3840146170269
20
-1.05451622681318
30
0
41
1
10
11.3807827274789
20
-1.03646238714168
30
0
41
1
10
11.3799541403317
20
-1.03036611140212
30
0
41
1
10
11.3788409205757
20
-1.01800830083198
30
0
41
1
10
11.3785566971075
20
-1.01172297558381
30
0
41
1
10
11.3786280943449
20
-0.980163352847541
30
0
41
1
10
11.3834011645824
20
-0.954755853862792
30
0
41
1
10
11.393530617285
20
-0.929378449895012
30
0
0
SPLINE
5
112
100
AcDbEntity
8
1
62
256
6
ByLayer
370
18
48
1
60
0
100
AcDbSpline
70
4
71
2
72
6
73
3
40
0
40
0
40
0
40
1
40
1
40
1
41
1
10
15.2045199492946
20
-1.48872416024452
30
0
41
1
10
15.5495527270397
20
-1.455551025056
30
0
41
1
10
15.8944709832781
20
-1.42468827846108
30
0
0
SPLINE
5
113
100
AcDbEntity
8
1
62
256
6
ByLayer
370
18
48
1
60
0
100
AcDbSpline
70
4
71
2
72
6
73
3
40
0
40
0
40
0
40
1
40
1
40
1
41
1
10
20.9659584608752
20
0.019309766563282
30
0
41
1
10
20.9466625701012
20
0.168705348146318
30
0
41
1
10
20.9273666793274
20
0.318100929729383
30
0
0
SPLINE
5
114
100
AcDbEntity
8
1
62
256
6
ByLayer
370
18
48
1
60
0
100
AcDbSpline
70
4
71
2
72
6
73
3
40
0
40
0
40
0
40
1
40
1
40
1
41
1
10
18.7758338181003
20
1.42479345978265
30
0
41
1
10
18.4315942251853
20
1.45556571611968
30
0
41
1
10
18.0872952824367
20
1.48865253104861
30
0
0
SPLINE
5
115
100
AcDbEntity
8
1
62
256
6
ByLayer
370
18
48
1
60
0
100
AcDbSpline
70
4
71
2
72
6
73
3
40
0
40
0
40
0
40
1
40
1
40
1
41
1
10
18.0872952824367
20
-1.48865253104876
30
0
41
1
10
18.4319881104333
20
-1.4554795526891
30
0
41
1
10
18.7758338181002
20
-1.42479345978279
30
0
0
SPLINE
5
116
100
AcDbEntity
8
1
62
256
6
ByLayer
370
18
48
1
60
0
100
AcDbSpline
70
4
71
2
72
6
73
3
40
0
40
0
40
0
40
1
40
1
40
1
41
1
10
15.8944709832783
20
1.42468827846096
30
0
41
1
10
15.5495527270398
20
1.45555102505591
30
0
41
1
10
15.2045199492946
20
1.4887241602444
30
0
0
LINE
5
77
100
AcDbEntity
8
80
62
256
6
ByLayer
370
18
48
1
60
0
100
AcDbLine
10
0
20
0
30
0
11
-5
21
0
31
0
39
0
210
0
220
0
230
1
0
LINE
5
78
100
AcDbEntity
8
4
62
256
6
ByLayer
370
18
48
0.05
60
0
100
AcDbLine
10
0
20
0
30
0
11
21
21
0
31
0
39
0
210
0
220
0
230
1
0
LINE
5
7A
100
AcDbEntity
8
81
62
256
6
ByLayer
370
18
48
1
60
0
100
AcDbLine
10
21
20
0
30
0
11
26
21
0
31
0
39
0
210
0
220
0
230
1
0
LINE
5
7B
100
AcDbEntity
8
SK4
62
256
6
ByLayer
370
18
48
0.05
60
0
100
AcDbLine
10
-36
20
0
30
0
11
21
21
0
31
0
39
0
210
0
220
0
230
1
0
LINE
5
7D
100
AcDbEntity
8
1
62
256
6
ByLayer
370
18
48
1
60
0
100
AcDbLine
10
0
20
3
30
0
11
0
21
0
31
0
39
0
210
0
220
0
230
1
0
LINE
5
7E
100
AcDbEntity
8
1
62
256
6
ByLayer
370
18
48
1
60
0
100
AcDbLine
10
0
20
0
30
0
11
0
21
-3
31
0
39
0
210
0
220
0
230
1
0
LINE
5
7F
100
AcDbEntity
8
1
62
256
6
ByLayer
370
18
48
1
60
0
100
AcDbLine
10
20.971664
20
-0.024032
30
0
11
20.972456
21
-0.016506
31
0
39
0
210
0
220
0
230
1
0
LINE
5
80
100
AcDbEntity
8
1
62
256
6
ByLayer
370
18
48
1
60
0
100
AcDbLine
10
20.955344
20
-0.006249
30
0
11
20.971849
21
-0.016348
31
0
39
0
210
0
220
0
230
1
0
LINE
5
81
100
AcDbEntity
8
1
62
256
6
ByLayer
370
18
48
1
60
0
100
AcDbLine
10
20.939696
20
-0.265288
30
0
11
20.933574
21
-0.260295
31
0
39
0
210
0
220
0
230
1
0
LINE
5
82
100
AcDbEntity
8
1
62
256
6
ByLayer
370
18
48
1
60
0
100
AcDbLine
10
20.933127
20
-0.252006
30
0
11
20.955344
21
-0.006249
31
0
39
0
210
0
220
0
230
1
0
LINE
5
83
100
AcDbEntity
8
1
62
256
6
ByLayer
370
18
48
1
60
0
100
AcDbLine
10
20.917713
20
-0.010902
30
0
11
20.955344
21
-0.006249
31
0
39
0
210
0
220
0
230
1
0
LINE
5
84
100
AcDbEntity
8
1
62
256
6
ByLayer
370
18
48
1
60
0
100
AcDbLine
10
20.917715
20
-0.012529
30
0
11
20.920208
21
-0.012367
31
0
39
0
210
0
220
0
230
1
0
LINE
5
85
100
AcDbEntity
8
1
62
256
6
ByLayer
370
18
48
1
60
0
100
AcDbLine
10
20.935188
20
0.290233
30
0
11
20.971891
21
0.971041
31
0
39
0
210
0
220
0
230
1
0
LINE
5
86
100
AcDbEntity
8
1
62
256
6
ByLayer
370
13
48
1
60
0
100
AcDbLine
10
20.338021
20
0.907559
30
0
11
20.384984
21
0.826333
31
0
39
0
210
0
220
0
230
1
0
LINE
5
87
100
AcDbEntity
8
1
62
256
6
ByLayer
370
13
48
1
60
0
100
AcDbLine
10
20.851725
20
0.01907
30
0
11
20.921185
21
-0.101067
31
0
39
0
210
0
220
0
230
1
0
LINE
5
88
100
AcDbEntity
8
1
62
256
6
ByLayer
370
18
48
1
60
0
100
AcDbLine
10
20.920208
20
-0.012367
30
0
11
20.971891
21
-0.971041
31
0
39
0
210
0
220
0
230
1
0
LINE
5
89
100
AcDbEntity
8
1
62
256
6
ByLayer
370
18
48
1
60
0
100
AcDbLine
10
20.918659
20
-0.017886
30
0
11
20.920208
21
-0.012367
31
0
39
0
210
0
220
0
230
1
0
LINE
5
8A
100
AcDbEntity
8
1
62
256
6
ByLayer
370
18
48
1
60
0
100
AcDbLine
10
20.917715
20
-0.017024
30
0
11
20.918659
21
-0.017886
31
0
39
0
210
0
220
0
230
1
0
LINE
5
8B
100
AcDbEntity
8
1
62
256
6
ByLayer
370
18
48
1
60
0
100
AcDbLine
10
20.917715
20
0.010901
30
0
11
20.917715
21
-0.017024
31
0
39
0
210
0
220
0
230
1
0
LINE
5
8C
100
AcDbEntity
8
1
62
256
6
ByLayer
370
18
48
1
60
0
100
AcDbLine
10
20.921185
20
-0.101067
30
0
11
20.91539
21
0.011189
31
0
39
0
210
0
220
0
230
1
0
LINE
5
8D
100
AcDbEntity
8
1
62
256
6
ByLayer
370
18
48
1
60
0
100
AcDbLine
10
20.94099
20
-0.940552
30
0
11
20.915127
21
-0.450175
31
0
39
0
210
0
220
0
230
1
0
LINE
5
8E
100
AcDbEntity
8
1
62
256
6
ByLayer
370
18
48
1
60
0
100
AcDbLine
10
20.77478
20
-0.718173
30
0
11
20.912
21
-0.441999
31
0
39
0
210
0
220
0
230
1
0
LINE
5
8F
100
AcDbEntity
8
1
62
256
6
ByLayer
370
13
48
1
60
0
100
AcDbLine
10
20.802229
20
-0.253918
30
0
11
20.169561
21
-0.109262
31
0
39
0
210
0
220
0
230
1
0
LINE
5
90
100
AcDbEntity
8
1
62
256
6
ByLayer
370
18
48
1
60
0
100
AcDbLine
10
20.955344
20
0.006249
30
0
11
20.971849
21
0.016348
31
0
39
0
210
0
220
0
230
1
0
LINE
5
91
100
AcDbEntity
8
1
62
256
6
ByLayer
370
18
48
1
60
0
100
AcDbLine
10
20.345126
20
0.130332
30
0
11
20.808278
21
0.024435
31
0
39
0
210
0
220
0
230
1
0
LINE
5
92
100
AcDbEntity
8
1
62
256
6
ByLayer
370
18
48
1
60
0
100
AcDbLine
10
20.955344
20
0.006249
30
0
11
20.808278
21
0.024435
31
0
39
0
210
0
220
0
230
1
0
LINE
5
93
100
AcDbEntity
8
1
62
256
6
ByLayer
370
13
48
1
60
0
100
AcDbLine
10
7.397679
20
-1.5
30
0
11
7.397679
21
0
31
0
39
0
210
0
220
0
230
1
0
LINE
5
94
100
AcDbEntity
8
1
62
256
6
ByLayer
370
13
48
1
60
0
100
AcDbLine
10
7.397679
20
0
30
0
11
7.397679
21
1.5
31
0
39
0
210
0
220
0
230
1
0
LINE
5
95
100
AcDbEntity
8
1
62
256
6
ByLayer
370
13
48
1
60
0
100
AcDbLine
10
6.897679
20
1.633975
30
0
11
6.897679
21
0
31
0
39
0
210
0
220
0
230
1
0
LINE
5
96
100
AcDbEntity
8
1
62
256
6
ByLayer
370
13
48
1
60
0
100
AcDbLine
10
6.897679
20
0
30
0
11
6.897679
21
-1.633975
31
0
39
0
210
0
220
0
230
1
0
LINE
5
97
100
AcDbEntity
8
1
62
256
6
ByLayer
370
18
48
1
60
0
100
AcDbLine
10
4.531654
20
3
30
0
11
4.531654
21
0
31
0
39
0
210
0
220
0
230
1
0
LINE
5
98
100
AcDbEntity
8
1
62
256
6
ByLayer
370
18
48
1
60
0
100
AcDbLine
10
4.531654
20
0
30
0
11
4.531654
21
-3
31
0
39
0
210
0
220
0
230
1
0
LINE
5
99
100
AcDbEntity
8
SK1
62
256
6
ByLayer
370
18
48
1
60
0
100
AcDbLine
10
-36
20
-2.6
30
0
11
-36
21
2.6
31
0
39
0
210
0
220
0
230
1
0
LINE
5
9B
100
AcDbEntity
8
SK1
62
256
6
ByLayer
370
18
48
1
60
0
100
AcDbLine
10
0
20
3
30
0
11
0
21
0
31
0
39
0
210
0
220
0
230
1
0
LINE
5
9C
100
AcDbEntity
8
SK1
62
256
6
ByLayer
370
18
48
1
60
0
100
AcDbLine
10
0
20
0
30
0
11
0
21
-3
31
0
39
0
210
0
220
0
230
1
0
LINE
5
9D
100
AcDbEntity
8
SK1
62
256
6
ByLayer
370
18
48
1
60
0
100
AcDbLine
10
-35.6
20
3
30
0
11
-35.6
21
-3
31
0
39
0
210
0
220
0
230
1
0
LINE
5
9E
100
AcDbEntity
8
1
62
256
6
ByLayer
370
18
48
1
60
0
100
AcDbLine
10
4.531654
20
3
30
0
11
0
21
3
31
0
39
0
210
0
220
0
230
1
0
LINE
5
9F
100
AcDbEntity
8
1
62
256
6
ByLayer
370
18
48
1
60
0
100
AcDbLine
10
0
20
-3
30
0
11
4.531654
21
-3
31
0
39
0
210
0
220
0
230
1
0
LINE
5
A0
100
AcDbEntity
8
1
62
256
6
ByLayer
370
18
48
1
60
0
100
AcDbLine
10
12.46955
20
1.5
30
0
11
7.397679
21
1.5
31
0
39
0
210
0
220
0
230
1
0
LINE
5
A1
100
AcDbEntity
8
1
62
256
6
ByLayer
370
18
48
1
60
0
100
AcDbLine
10
7.397679
20
-1.5
30
0
11
12.46955
21
-1.5
31
0
39
0
210
0
220
0
230
1
0
LINE
5
A2
100
AcDbEntity
8
1
62
256
6
ByLayer
370
18
48
1
60
0
100
AcDbLine
10
6.897679
20
1.633975
30
0
11
4.531654
21
3
31
0
39
0
210
0
220
0
230
1
0
LINE
5
A3
100
AcDbEntity
8
1
62
256
6
ByLayer
370
18
48
1
60
0
100
AcDbLine
10
4.531654
20
-3
30
0
11
6.897679
21
-1.633975
31
0
39
0
210
0
220
0
230
1
0
LINE
5
A4
100
AcDbEntity
8
SK1
62
256
6
ByLayer
370
18
48
1
60
0
100
AcDbLine
10
-36
20
-2.6
30
0
11
-35.6
21
-3
31
0
39
0
210
0
220
0
230
1
0
LINE
5
A5
100
AcDbEntity
8
SK1
62
256
6
ByLayer
370
18
48
1
60
0
100
AcDbLine
10
-35.6
20
3
30
0
11
-36
21
2.6
31
0
39
0
210
0
220
0
230
1
0
LINE
5
A6
100
AcDbEntity
8
SK1
62
256
6
ByLayer
370
18
48
1
60
0
100
AcDbLine
10
0
20
3
30
0
11
-35.6
21
3
31
0
39
0
210
0
220
0
230
1
0
LINE
5
A7
100
AcDbEntity
8
SK1
62
256
6
ByLayer
370
18
48
1
60
0
100
AcDbLine
10
-35.6
20
-3
30
0
11
0
21
-3
31
0
39
0
210
0
220
0
230
1
0
LINE
5
A8
100
AcDbEntity
8
SK2
62
256
6
ByLayer
370
18
48
1
60
0
100
AcDbLine
10
-43.85
20
11.75
30
0
11
-43.85
21
-19.315466
31
0
39
0
210
0
220
0
230
1
0
LINE
5
AA
100
AcDbEntity
8
SK2
62
256
6
ByLayer
370
18
48
1
60
0
100
AcDbLine
10
-37.1875
20
3
30
0
11
-45.85
21
3
31
0
39
0
210
0
220
0
230
1
0
LINE
5
AB
100
AcDbEntity
8
SK2
62
256
6
ByLayer
370
18
48
1
60
0
100
AcDbLine
10
-37.1875
20
-3
30
0
11
-45.85
21
-3
31
0
39
0
210
0
220
0
230
1
0
LINE
5
AC
100
AcDbEntity
8
1
62
256
6
ByLayer
370
18
48
1
60
1
100
AcDbLine
10
-43.85
20
3
30
0
11
-44.310784
21
6.499998
31
0
39
0
210
0
220
0
230
1
0
LINE
5
AD
100
AcDbEntity
8
1
62
256
6
ByLayer
370
18
48
1
60
1
100
AcDbLine
10
-44.310784
20
6.499998
30
0
11
-43.389216
21
6.500002
31
0
39
0
210
0
220
0
230
1
0
LINE
5
AE
100
AcDbEntity
8
1
62
256
6
ByLayer
370
18
48
1
60
1
100
AcDbLine
10
-43.389216
20
6.500002
30
0
11
-43.85
21
3
31
0
39
0
210
0
220
0
230
1
0
LINE
5
AF
100
AcDbEntity
8
1
62
256
6
ByLayer
370
18
48
1
60
1
100
AcDbLine
10
-43.85
20
-3
30
0
11
-43.389216
21
-6.499998
31
0
39
0
210
0
220
0
230
1
0
LINE
5
B0
100
AcDbEntity
8
1
62
256
6
ByLayer
370
18
48
1
60
1
100
AcDbLine
10
-43.389216
20
-6.499998
30
0
11
-44.310784
21
-6.500002
31
0
39
0
210
0
220
0
230
1
0
LINE
5
B1
100
AcDbEntity
8
1
62
256
6
ByLayer
370
18
48
1
60
1
100
AcDbLine
10
-44.310784
20
-6.500002
30
0
11
-43.85
21
-3
31
0
39
0
210
0
220
0
230
1
0
LINE
5
B2
100
AcDbEntity
8
2
62
256
6
ByLayer
370
18
48
1
60
0
100
AcDbLine
10
33
20
17.815566
30
0
11
33
21
-10.2501
31
0
39
0
210
0
220
0
230
1
0
LINE
5
B4
100
AcDbEntity
8
2
62
256
6
ByLayer
370
18
48
1
60
0
100
AcDbLine
10
22.5875
20
1.5001
30
0
11
35
21
1.5001
31
0
39
0
210
0
220
0
230
1
0
LINE
5
B5
100
AcDbEntity
8
2
62
256
6
ByLayer
370
18
48
1
60
0
100
AcDbLine
10
22.5875
20
-1.5001
30
0
11
35
21
-1.5001
31
0
39
0
210
0
220
0
230
1
0
LINE
5
B6
100
AcDbEntity
8
1
62
256
6
ByLayer
370
18
48
1
60
1
100
AcDbLine
10
33
20
1.5001
30
0
11
32.539216
21
5.000098
31
0
39
0
210
0
220
0
230
1
0
LINE
5
B7
100
AcDbEntity
8
1
62
256
6
ByLayer
370
18
48
1
60
1
100
AcDbLine
10
32.539216
20
5.000098
30
0
11
33.460784
21
5.000102
31
0
39
0
210
0
220
0
230
1
0
LINE
5
B8
100
AcDbEntity
8
1
62
256
6
ByLayer
370
18
48
1
60
1
100
AcDbLine
10
33.460784
20
5.000102
30
0
11
33
21
1.5001
31
0
39
0
210
0
220
0
230
1
0
LINE
5
B9
100
AcDbEntity
8
1
62
256
6
ByLayer
370
18
48
1
60
1
100
AcDbLine
10
33
20
-1.5001
30
0
11
33.460784
21
-5.000098
31
0
39
0
210
0
220
0
230
1
0
LINE
5
BA
100
AcDbEntity
8
1
62
256
6
ByLayer
370
18
48
1
60
1
100
AcDbLine
10
33.460784
20
-5.000098
30
0
11
32.539216
21
-5.000102
31
0
39
0
210
0
220
0
230
1
0
LINE
5
BB
100
AcDbEntity
8
1
62
256
6
ByLayer
370
18
48
1
60
1
100
AcDbLine
10
32.539216
20
-5.000102
30
0
11
33
21
-1.5001
31
0
39
0
210
0
220
0
230
1
0
LINE
5
BC
100
AcDbEntity
8
SK2
62
256
6
ByLayer
370
18
48
1
60
0
100
AcDbLine
10
21
20
-33.1
30
0
11
-36
21
-33.1
31
0
39
0
210
0
220
0
230
1
0
LINE
5
BD
100
AcDbEntity
8
SK2
62
256
6
ByLayer
370
18
48
1
60
0
100
AcDbLine
10
-36
20
-4.1875
30
0
11
-36
21
-35.1
31
0
39
0
210
0
220
0
230
1
0
LINE
5
BE
100
AcDbEntity
8
SK2
62
256
6
ByLayer
370
18
48
1
60
0
100
AcDbLine
10
21
20
-3.0876
30
0
11
21
21
-35.1
31
0
39
0
210
0
220
0
230
1
0
LINE
5
BF
100
AcDbEntity
8
1
62
256
6
ByLayer
370
18
48
1
60
1
100
AcDbLine
10
-36
20
-33.1
30
0
11
-32.500002
21
-32.639216
31
0
39
0
210
0
220
0
230
1
0
LINE
5
C0
100
AcDbEntity
8
1
62
256
6
ByLayer
370
18
48
1
60
1
100
AcDbLine
10
-32.500002
20
-32.639216
30
0
11
-32.499998
21
-33.560784
31
0
39
0
210
0
220
0
230
1
0
LINE
5
C1
100
AcDbEntity
8
1
62
256
6
ByLayer
370
18
48
1
60
1
100
AcDbLine
10
-32.499998
20
-33.560784
30
0
11
-36
21
-33.1
31
0
39
0
210
0
220
0
230
1
0
LINE
5
C2
100
AcDbEntity
8
1
62
256
6
ByLayer
370
18
48
1
60
1
100
AcDbLine
10
21
20
-33.1
30
0
11
17.500002
21
-33.560784
31
0
39
0
210
0
220
0
230
1
0
LINE
5
C3
100
AcDbEntity
8
1
62
256
6
ByLayer
370
18
48
1
60
1
100
AcDbLine
10
17.500002
20
-33.560784
30
0
11
17.499998
21
-32.639216
31
0
39
0
210
0
220
0
230
1
0
LINE
5
C4
100
AcDbEntity
8
1
62
256
6
ByLayer
370
18
48
1
60
1
100
AcDbLine
10
17.499998
20
-32.639216
30
0
11
21
21
-33.1
31
0
39
0
210
0
220
0
230
1
0
LINE
5
11B
100
AcDbEntity
8
1
62
256
6
ByLayer
370
18
48
1
60
1
100
AcDbLine
10
-43.85
20
3
30
0
11
-44.310784
21
6.499998
31
0
39
0
210
0
220
0
230
1
0
LINE
5
11C
100
AcDbEntity
8
1
62
256
6
ByLayer
370
18
48
1
60
1
100
AcDbLine
10
-44.310784
20
6.499998
30
0
11
-43.389216
21
6.500002
31
0
39
0
210
0
220
0
230
1
0
LINE
5
11D
100
AcDbEntity
8
1
62
256
6
ByLayer
370
18
48
1
60
1
100
AcDbLine
10
-43.389216
20
6.500002
30
0
11
-43.85
21
3
31
0
39
0
210
0
220
0
230
1
0
LINE
5
11F
100
AcDbEntity
8
1
62
256
6
ByLayer
370
18
48
1
60
1
100
AcDbLine
10
-43.85
20
-3
30
0
11
-43.389216
21
-6.499998
31
0
39
0
210
0
220
0
230
1
0
LINE
5
120
100
AcDbEntity
8
1
62
256
6
ByLayer
370
18
48
1
60
1
100
AcDbLine
10
-43.389216
20
-6.499998
30
0
11
-44.310784
21
-6.500002
31
0
39
0
210
0
220
0
230
1
0
LINE
5
121
100
AcDbEntity
8
1
62
256
6
ByLayer
370
18
48
1
60
1
100
AcDbLine
10
-44.310784
20
-6.500002
30
0
11
-43.85
21
-3
31
0
39
0
210
0
220
0
230
1
0
LINE
5
125
100
AcDbEntity
8
1
62
256
6
ByLayer
370
18
48
1
60
1
100
AcDbLine
10
33
20
1.5001
30
0
11
32.539216
21
5.000098
31
0
39
0
210
0
220
0
230
1
0
LINE
5
126
100
AcDbEntity
8
1
62
256
6
ByLayer
370
18
48
1
60
1
100
AcDbLine
10
32.539216
20
5.000098
30
0
11
33.460784
21
5.000102
31
0
39
0
210
0
220
0
230
1
0
LINE
5
127
100
AcDbEntity
8
1
62
256
6
ByLayer
370
18
48
1
60
1
100
AcDbLine
10
33.460784
20
5.000102
30
0
11
33
21
1.5001
31
0
39
0
210
0
220
0
230
1
0
LINE
5
129
100
AcDbEntity
8
1
62
256
6
ByLayer
370
18
48
1
60
1
100
AcDbLine
10
33
20
-1.5001
30
0
11
33.460784
21
-5.000098
31
0
39
0
210
0
220
0
230
1
0
LINE
5
12A
100
AcDbEntity
8
1
62
256
6
ByLayer
370
18
48
1
60
1
100
AcDbLine
10
33.460784
20
-5.000098
30
0
11
32.539216
21
-5.000102
31
0
39
0
210
0
220
0
230
1
0
LINE
5
12B
100
AcDbEntity
8
1
62
256
6
ByLayer
370
18
48
1
60
1
100
AcDbLine
10
32.539216
20
-5.000102
30
0
11
33
21
-1.5001
31
0
39
0
210
0
220
0
230
1
0
LINE
5
12E
100
AcDbEntity
8
1
62
256
6
ByLayer
370
18
48
1
60
1
100
AcDbLine
10
-36
20
-33.1
30
0
11
-32.500002
21
-32.639216
31
0
39
0
210
0
220
0
230
1
0
LINE
5
12F
100
AcDbEntity
8
1
62
256
6
ByLayer
370
18
48
1
60
1
100
AcDbLine
10
-32.500002
20
-32.639216
30
0
11
-32.499998
21
-33.560784
31
0
39
0
210
0
220
0
230
1
0
LINE
5
130
100
AcDbEntity
8
1
62
256
6
ByLayer
370
18
48
1
60
1
100
AcDbLine
10
-32.499998
20
-33.560784
30
0
11
-36
21
-33.1
31
0
39
0
210
0
220
0
230
1
0
LINE
5
132
100
AcDbEntity
8
1
62
256
6
ByLayer
370
18
48
1
60
1
100
AcDbLine
10
21
20
-33.1
30
0
11
17.500002
21
-33.560784
31
0
39
0
210
0
220
0
230
1
0
LINE
5
133
100
AcDbEntity
8
1
62
256
6
ByLayer
370
18
48
1
60
1
100
AcDbLine
10
17.500002
20
-33.560784
30
0
11
17.499998
21
-32.639216
31
0
39
0
210
0
220
0
230
1
0
LINE
5
134
100
AcDbEntity
8
1
62
256
6
ByLayer
370
18
48
1
60
1
100
AcDbLine
10
17.499998
20
-32.639216
30
0
11
21
21
-33.1
31
0
39
0
210
0
220
0
230
1
0
MTEXT
5
117
100
AcDbEntity
8
SK2
62
256
6
ByLayer
370
18
48
1
60
0
100
AcDbMText
10
-45.414634
20
-17.380622
30
0
210
0
220
0
230
1
1
%%c
40
3.5
41
0
44
1.084337
50
90
71
7
72
5
7
iso_b_vert
0
MTEXT
5
11A
100
AcDbEntity
8
SK2
62
256
6
ByLayer
370
18
48
1
60
0
100
AcDbMText
10
-45.414634
20
-10.407966
30
0
210
0
220
0
230
1
1
\W0.5404;6
40
3.5
41
0
44
1.084337
50
90
71
7
72
5
7
iso_b_vert
0
MTEXT
5
123
100
AcDbEntity
8
2
62
256
6
ByLayer
370
18
48
1
60
0
100
AcDbMText
10
31.435366
20
9.434944
30
0
210
0
220
0
230
1
1
%%c
40
3.5
41
0
44
1.084337
50
90
71
7
72
5
7
iso_b_vert
0
MTEXT
5
124
100
AcDbEntity
8
2
62
256
6
ByLayer
370
18
48
1
60
0
100
AcDbMText
10
31.435366
20
16.4076
30
0
210
0
220
0
230
1
1
\W0.5404;3
40
3.5
41
0
44
1.084337
50
90
71
7
72
5
7
iso_b_vert
0
MTEXT
5
12D
100
AcDbEntity
8
SK2
62
256
6
ByLayer
370
18
48
1
60
0
100
AcDbMText
10
-9.404966
20
-32.067366
30
0
210
0
220
0
230
1
1
\W0.6740;57
40
3.5
41
0
44
1.084337
50
0
71
7
72
5
7
iso_b_vert
0
MTEXT
5
136
100
AcDbEntity
8
SK6
62
256
6
ByLayer
370
18
48
1
60
0
100
AcDbMText
10
-34.126278
20
-62.114886
30
0
210
0
220
0
230
1
1
\W0.7602;2S342-0300-050-PA   P2BM
40
3
41
0
44
1.084337
50
0
71
7
72
5
7
iso_b_vert
0
HATCH
5
11E
100
AcDbEntity
8
SK2
62
256
6
ByLayer
370
13
48
1
60
0
100
AcDbHatch
10
0
20
0
30
0
210
0
220
0
230
1
2
ANSI31
70
0
71
0
91
1
92
5
93
3
72
1
10
-43.85
20
3
11
-44.3107837415528
21
6.49999830744682
72
1
10
-44.3107837415528
20
6.49999830744682
11
-43.3892162584472
21
6.50000169255318
72
1
10
-43.3892162584472
20
6.50000169255318
11
-43.85
21
3
97
0
75
0
76
1
52
0
41
0.0062
77
0
78
1
53
45
43
0
44
0
45
-0.0139193969876572
46
0.0139193969876572
79
0
47
0
98
1
10
0
20
0
0
HATCH
5
122
100
AcDbEntity
8
SK2
62
256
6
ByLayer
370
13
48
1
60
0
100
AcDbHatch
10
0
20
0
30
0
210
0
220
0
230
1
2
ANSI31
70
0
71
0
91
1
92
5
93
3
72
1
10
-43.85
20
-3.00000000000003
11
-43.3892162584472
21
-6.49999830744684
72
1
10
-43.3892162584472
20
-6.49999830744684
11
-44.3107837415528
21
-6.50000169255321
72
1
10
-44.3107837415528
20
-6.50000169255321
11
-43.85
21
-3.00000000000003
97
0
75
0
76
1
52
0
41
0.0062
77
0
78
1
53
45
43
0
44
0
45
-0.0139193969876572
46
0.0139193969876572
79
0
47
0
98
1
10
0
20
0
0
HATCH
5
128
100
AcDbEntity
8
2
62
256
6
ByLayer
370
13
48
1
60
0
100
AcDbHatch
10
0
20
0
30
0
210
0
220
0
230
1
2
ANSI31
70
0
71
0
91
1
92
5
93
3
72
1
10
33
20
1.50009999999992
11
32.5392162584472
21
5.00009830744673
72
1
10
32.5392162584472
20
5.00009830744673
11
33.4607837415528
21
5.0001016925531
72
1
10
33.4607837415528
20
5.0001016925531
11
33
21
1.50009999999992
97
0
75
0
76
1
52
0
41
0.0062
77
0
78
1
53
45
43
0
44
0
45
-0.0139193969876572
46
0.0139193969876572
79
0
47
0
98
1
10
0
20
0
0
HATCH
5
12C
100
AcDbEntity
8
2
62
256
6
ByLayer
370
13
48
1
60
0
100
AcDbHatch
10
0
20
0
30
0
210
0
220
0
230
1
2
ANSI31
70
0
71
0
91
1
92
5
93
3
72
1
10
33
20
-1.50010000000009
11
33.4607837415528
21
-5.0000983074469
72
1
10
33.4607837415528
20
-5.0000983074469
11
32.5392162584472
21
-5.00010169255327
72
1
10
32.5392162584472
20
-5.00010169255327
11
33
21
-1.50010000000009
97
0
75
0
76
1
52
0
41
0.0062
77
0
78
1
53
45
43
0
44
0
45
-0.0139193969876572
46
0.0139193969876572
79
0
47
0
98
1
10
0
20
0
0
HATCH
5
131
100
AcDbEntity
8
SK2
62
256
6
ByLayer
370
13
48
1
60
0
100
AcDbHatch
10
0
20
0
30
0
210
0
220
0
230
1
2
ANSI31
70
0
71
0
91
1
92
5
93
3
72
1
10
-36
20
-33.1000000000001
11
-32.5000016925532
21
-32.6392162584473
72
1
10
-32.5000016925532
20
-32.6392162584473
11
-32.4999983074468
21
-33.5607837415528
72
1
10
-32.4999983074468
20
-33.5607837415528
11
-36
21
-33.1000000000001
97
0
75
0
76
1
52
0
41
0.0062
77
0
78
1
53
45
43
0
44
0
45
-0.0139193969876572
46
0.0139193969876572
79
0
47
0
98
1
10
0
20
0
0
HATCH
5
135
100
AcDbEntity
8
SK2
62
256
6
ByLayer
370
13
48
1
60
0
100
AcDbHatch
10
0
20
0
30
0
210
0
220
0
230
1
2
ANSI31
70
0
71
0
91
1
92
5
93
3
72
1
10
21
20
-33.1000000000001
11
17.5000016925532
21
-33.5607837415528
72
1
10
17.5000016925532
20
-33.5607837415528
11
17.4999983074468
21
-32.6392162584473
72
1
10
17.4999983074468
20
-32.6392162584473
11
21
21
-33.1000000000001
97
0
75
0
76
1
52
0
41
0.0062
77
0
78
1
53
45
43
0
44
0
45
-0.0139193969876572
46
0.0139193969876572
79
0
47
0
98
1
10
0
20
0
0
DIMENSION
5
139
100
AcDbEntity
8
2
62
256
6
ByLayer
370
18
48
1
60
0
100
AcDbDimension
2
_U0
10
14
20
-17.1
30
0
11
17.5
21
-17.1
31
0
70
32
71
1
72
1
41
1
210
0
220
0
230
1
3
Standard
100
AcDbAlignedDimension
13
21
23
-1.5001
33
0
14
14
24
-1.5001
34
0
50
0
100
AcDbRotatedDimension
1001
ACAD
1000
DSTYLE
1002
{
1070
   371
1070
    13
1070
   372
1070
    13
1070
   170
1070
     0
1070
   144
1040
1.0
1070
   277
1070
     2
1070
   284
1070
     8
1070
   278
1070
    46
1070
   146
1040
1.0
1070
   345
1005
16
1070
   347
1005
16
1070
   346
1005
16
1070
   344
1005
0
1070
   343
1005
0
1070
   172
1070
     1
1070
    76
1070
     0
1070
    75
1070
     0
1070
   282
1070
     0
1070
   281
1070
     0
1070
    71
1070
     0
1070
    74
1070
     0
1070
   279
1070
     0
1070
   173
1070
     1
1070
   340
1005
118
1070
   271
1070
     2
1070
   272
1070
     2
1070
    77
1070
     1
1070
    73
1070
     1
1070
   171
1070
     3
1070
   274
1070
     4
1070
   177
1070
     2
1070
   176
1070
     2
1070
   178
1070
     2
1070
    78
1070
     8
1070
    48
1040
-0.1
1070
    41
1040
3.5
1070
   147
1040
1.75
1070
    42
1040
1.5875
1070
    44
1040
2.0
1070
   140
1040
3.5
1002
}
1001
ACAD_DSTYLE_DIM_LINETYPE
1070
   380
1005
16
1001
ACAD_DSTYLE_DIM_EXT1_LINETYPE
1070
   381
1005
16
1001
ACAD_DSTYLE_DIM_EXT2_LINETYPE
1070
   382
1005
16
0
ENDSEC
0
SECTION
2
OBJECTS
0
DICTIONARY
5
1c3
330
0
100
AcDbDictionary
280
0
281
1
3
ACAD_GROUP
350
1c4
3
ACAD_MLINESTYLE
350
1c5
0
DICTIONARY
5
1c4
330
0
100
AcDbDictionary
280
0
281
1
0
DICTIONARY
5
1c5
330
0
100
AcDbDictionary
280
0
281
1
3
Standard
350
18
0
MLINESTYLE
5
18
330
1c5
100
AcDbMlineStyle
2
Standard
70
0
3

62
256
51
90
52
90
71
2
49
-0.5
62
256
6
ByLayer
49
0.5
62
256
6
ByLayer
0
RASTERVARIABLES
5
1b1
330

100
AcDbRasterVariables
90
0
70
1
71
1
72
1
0
ENDSEC
0
EOF
