0
SECTION
2
HEADER
9
$ACADVER
1
AC1015
9
$DWGCODEPAGE
3
ANSI_1252
9
$HANDSEED
5
1d2
9
$ANGBASE
50
0
9
$ANGDIR
70
0
9
$ATTMODE
70
1
9
$AUNITS
70
0
9
$AUPREC
70
0
9
$CECOLOR
62
256
9
$CELTSCALE
40
1
9
$CELTYPE
6
ByLayer
9
$CELWEIGHT
370
18
9
$CLAYER
8
0
9
$CMLJUST
70
0
9
$CMLSCALE
40
1
9
$CMLSTYLE
2
Standard
9
$DIMSTYLE
2
Standard
9
$TEXTSIZE
40
0.2
9
$TEXTSTYLE
7
Standard
9
$LUNITS
70
2
9
$LUPREC
70
4
9
$EXTNAMES
290
1
9
$INSUNITS
70
4
9
$LTSCALE
40
1
9
$LWDISPLAY
290
1
9
$PDMODE
70
0
9
$PDSIZE
40
0
9
$PLINEGEN
70
0
0
ENDSEC
0
SECTION
2
CLASSES
0
CLASS
1
RASTERVARIABLES
2
AcDbRasterVariables
3
ISM
90
0
280
0
281
0
0
ENDSEC
0
SECTION
2
TABLES
0
TABLE
2
VPORT
5
1c8
100
AcDbSymbolTable
0
VPORT
5
1
100
AcDbSymbolTableRecord
100
AcDbViewportTableRecord
2
*Active
70
0
10
0
20
0
11
1
21
1
12
-1
22
1
13
0
23
0
14
0.5
24
0.5
15
10
25
10
16
0
26
0
36
1
17
0
27
0
37
0
0
ENDTAB
0
TABLE
2
LTYPE
5
1c9
100
AcDbSymbolTable
0
LTYPE
5
14
100
AcDbSymbolTableRecord
100
AcDbLinetypeTableRecord
70
0
2
ByBlock
3

72
65
73
0
40
0
0
LTYPE
5
15
100
AcDbSymbolTableRecord
100
AcDbLinetypeTableRecord
70
0
2
ByLayer
3

72
65
73
0
40
0
0
LTYPE
5
16
100
AcDbSymbolTableRecord
100
AcDbLinetypeTableRecord
70
0
2
Continuous
3
Solid line
72
65
73
0
40
0
0
LTYPE
5
6E
100
AcDbSymbolTableRecord
100
AcDbLinetypeTableRecord
70
0
2
CENTER
3
____ _ ____ _ ____ _ ____
72
65
73
4
40
47.5
49
22
74
0
49
-8.5
74
0
49
8.5
74
0
49
-8.5
74
0
0
LTYPE
5
6F
100
AcDbSymbolTableRecord
100
AcDbLinetypeTableRecord
70
0
2
DASHED
3
__ __ __ __ __ __ __ __ __
72
65
73
2
40
25.72
49
12.86
74
0
49
-12.86
74
0
0
ENDTAB
0
TABLE
2
LAYER
5
1ca
100
AcDbSymbolTable
0
LAYER
5
10
100
AcDbSymbolTableRecord
100
AcDbLayerTableRecord
2
0
70
0
62
7
6
Continuous
290
1
370
-3
390
0
0
LAYER
5
71
100
AcDbSymbolTableRecord
100
AcDbLayerTableRecord
2
81
70
0
62
-3
6
Continuous
290
1
370
-3
390
0
0
LAYER
5
73
100
AcDbSymbolTableRecord
100
AcDbLayerTableRecord
2
80
70
0
62
-6
6
Continuous
290
1
370
-3
390
0
0
LAYER
5
75
100
AcDbSymbolTableRecord
100
AcDbLayerTableRecord
2
1
70
0
62
4
6
Continuous
290
1
370
-3
390
0
0
LAYER
5
79
100
AcDbSymbolTableRecord
100
AcDbLayerTableRecord
2
4
70
0
62
-2
6
CENTER
290
1
370
-3
390
0
0
LAYER
5
AE
100
AcDbSymbolTableRecord
100
AcDbLayerTableRecord
2
2
70
0
62
7
6
Continuous
290
1
370
-3
390
0
0
LAYER
5
13F
100
AcDbSymbolTableRecord
100
AcDbLayerTableRecord
2
Defpoints
70
0
62
7
6
Continuous
290
0
370
-3
390
0
0
LAYER
5
1b4
100
AcDbSymbolTableRecord
100
AcDbLayerTableRecord
2
SK4
70
0
62
2
6
CENTER
290
1
370
-3
390
0
0
LAYER
5
1b5
100
AcDbSymbolTableRecord
100
AcDbLayerTableRecord
2
SK1
70
0
62
4
6
Continuous
290
1
370
-3
390
0
0
LAYER
5
1b6
100
AcDbSymbolTableRecord
100
AcDbLayerTableRecord
2
SK2
70
0
62
7
6
Continuous
290
1
370
-3
390
0
0
LAYER
5
1b7
100
AcDbSymbolTableRecord
100
AcDbLayerTableRecord
2
SK6
70
0
62
5
6
Continuous
290
1
370
-3
390
0
0
ENDTAB
0
TABLE
2
STYLE
5
1cb
100
AcDbSymbolTable
0
STYLE
5
11
100
AcDbSymbolTableRecord
100
AcDbTextStyleTableRecord
2
Standard
3
txt
70
0
71
0
40
0
41
1
42
0
50
0
0
STYLE
5
11B
100
AcDbSymbolTableRecord
100
AcDbTextStyleTableRecord
2
iso_b_vert
3
simplex.shx
70
0
71
0
40
0
41
1
42
0
50
0
0
STYLE
5
11C
100
AcDbSymbolTableRecord
100
AcDbTextStyleTableRecord
2
DWGDirectTextStyle
3
simplex
70
0
71
0
40
0
41
1
42
0
50
0
0
ENDTAB
0
TABLE
2
DIMSTYLE
5
1cc
100
AcDbSymbolTable
100
AcDbDimStyleTable
0
DIMSTYLE
105
27
100
AcDbSymbolTableRecord
100
AcDbDimStyleTableRecord
2
Standard
70
0
3
<>
41
0.18
42
0.0625
44
0.18
140
0.18
147
0.09
73
0
74
0
77
1
271
2
275
0
278
52
280
0
340
11
0
ENDTAB
0
TABLE
2
VIEW
5
1cd
100
AcDbSymbolTable
0
ENDTAB
0
TABLE
2
UCS
5
1ce
100
AcDbSymbolTable
0
ENDTAB
0
TABLE
2
APPID
5
1cf
100
AcDbSymbolTable
0
APPID
5
12
100
AcDbSymbolTableRecord
100
AcDbRegAppTableRecord
2
ACAD
70
0
0
APPID
5
13B
100
AcDbSymbolTableRecord
100
AcDbRegAppTableRecord
2
ACAD_DSTYLE_DIMBREAK
70
0
0
APPID
5
173
100
AcDbSymbolTableRecord
100
AcDbRegAppTableRecord
2
ACAD_DSTYLE_DIM_LINETYPE
70
0
0
APPID
5
174
100
AcDbSymbolTableRecord
100
AcDbRegAppTableRecord
2
ACAD_DSTYLE_DIM_EXT1_LINETYPE
70
0
0
APPID
5
175
100
AcDbSymbolTableRecord
100
AcDbRegAppTableRecord
2
ACAD_DSTYLE_DIM_EXT2_LINETYPE
70
0
0
APPID
5
1B0
100
AcDbSymbolTableRecord
100
AcDbRegAppTableRecord
2
ACAD_MLEADERVER
70
0
0
ENDTAB
0
TABLE
2
BLOCK_RECORD
5
1d0
100
AcDbSymbolTable
0
BLOCK_RECORD
5
1F
100
AcDbSymbolTableRecord
100
AcDbBlockTableRecord
2
*Model_Space
340
0
70
0
0
BLOCK_RECORD
5
1B
100
AcDbSymbolTableRecord
100
AcDbBlockTableRecord
2
*Paper_Space
340
0
70
0
0
BLOCK_RECORD
5
23
100
AcDbSymbolTableRecord
100
AcDbBlockTableRecord
2
*Paper_Space0
340
0
70
0
0
BLOCK_RECORD
5
140
100
AcDbSymbolTableRecord
100
AcDbBlockTableRecord
2
*D1
340
0
70
0
0
BLOCK_RECORD
5
14C
100
AcDbSymbolTableRecord
100
AcDbBlockTableRecord
2
_U0
340
0
70
0
0
ENDTAB
0
ENDSEC
0
SECTION
2
BLOCKS
0
BLOCK
5
20
100
AcDbEntity
8
0
100
AcDbBlockBegin
2
*Model_Space
70
0
10
0
20
0
30
0
3
*Model_Space
0
ENDBLK
5
21
100
AcDbEntity
8
0
100
AcDbBlockEnd
0
BLOCK
5
1C
100
AcDbEntity
8
0
100
AcDbBlockBegin
2
*Paper_Space
70
0
10
0
20
0
30
0
3
*Paper_Space
0
ENDBLK
5
1D
100
AcDbEntity
8
0
100
AcDbBlockEnd
0
BLOCK
5
24
100
AcDbEntity
8
0
100
AcDbBlockBegin
2
*Paper_Space0
70
0
10
0
20
0
30
0
3
*Paper_Space0
0
ENDBLK
5
25
100
AcDbEntity
8
0
100
AcDbBlockEnd
0
BLOCK
5
141
100
AcDbEntity
8
0
100
AcDbBlockBegin
2
*D1
70
1
10
0
20
0
30
0
3
*D1
0
LINE
5
143
100
AcDbEntity
8
0
62
256
6
ByLayer
370
-2
48
1
60
0
100
AcDbLine
10
27
20
-5.5876
30
0
11
27
21
-20.274279
31
0
39
0
210
0
220
0
230
1
0
LINE
5
144
100
AcDbEntity
8
0
62
256
6
ByLayer
370
-2
48
1
60
0
100
AcDbLine
10
9
20
-5.5876
30
0
11
9
21
-20.274279
31
0
39
0
210
0
220
0
230
1
0
LINE
5
145
100
AcDbEntity
8
0
62
256
6
ByLayer
370
-2
48
1
60
0
100
AcDbLine
10
23.5
20
-18.274279
30
0
11
12.5
21
-18.274279
31
0
39
0
210
0
220
0
230
1
0
SOLID
5
146
100
AcDbEntity
8
0
62
256
6
ByLayer
370
-1
48
1
60
0
100
AcDbTrace
10
23.5
20
-18.857613
30
0
11
23.5
21
-17.690946
31
0
12
27
22
-18.274279
32
0
13
27
23
-18.274279
33
0
39
0
210
0
220
0
230
1
0
SOLID
5
147
100
AcDbEntity
8
0
62
256
6
ByLayer
370
-1
48
1
60
0
100
AcDbTrace
10
12.5
20
-17.690946
30
0
11
12.5
21
-18.857613
31
0
12
9
22
-18.274279
32
0
13
9
23
-18.274279
33
0
39
0
210
0
220
0
230
1
0
MTEXT
5
148
100
AcDbEntity
8
0
62
256
6
ByLayer
370
18
48
1
60
0
100
AcDbMText
10
18
20
-11.274279
30
0
210
0
220
0
230
1
1
\A1;18
40
3.5
41
0
44
1
50
0
71
5
72
5
7
iso_b_vert
0
POINT
5
149
100
AcDbEntity
8
Defpoints
62
0
6
ByLayer
370
-1
48
1
60
0
100
AcDbPoint
10
27
20
-4.0001
30
0
39
0
210
0
220
0
230
1
50
360
0
POINT
5
14A
100
AcDbEntity
8
Defpoints
62
0
6
ByLayer
370
-1
48
1
60
0
100
AcDbPoint
10
9
20
-4.0001
30
0
39
0
210
0
220
0
230
1
50
360
0
POINT
5
14B
100
AcDbEntity
8
Defpoints
62
0
6
ByLayer
370
-1
48
1
60
0
100
AcDbPoint
10
9
20
-18.274279
30
0
39
0
210
0
220
0
230
1
50
360
0
ENDBLK
5
142
100
AcDbEntity
8
0
100
AcDbBlockEnd
0
BLOCK
5
153
100
AcDbEntity
8
0
100
AcDbBlockBegin
2
_U0
70
0
10
0
20
0
30
0
3
_U0
0
MTEXT
5
14D
100
AcDbEntity
8
2
62
256
6
ByLayer
370
18
48
1
60
0
100
AcDbMText
10
16.532467
20
-17.241646
30
0
210
0
220
0
230
1
1
\W0.5321;18
40
3.5
41
0
44
1.084337
50
0
71
7
72
5
7
iso_b_vert
0
LINE
5
14E
100
AcDbEntity
8
2
62
256
6
ByLayer
370
13
48
1
60
0
100
AcDbLine
10
27
20
-5.5876
30
0
11
27
21
-20.274279
31
0
39
0
210
0
220
0
230
1
0
LINE
5
14F
100
AcDbEntity
8
2
62
256
6
ByLayer
370
13
48
1
60
0
100
AcDbLine
10
9
20
-5.5876
30
0
11
9
21
-20.274279
31
0
39
0
210
0
220
0
230
1
0
LINE
5
150
100
AcDbEntity
8
2
62
256
6
ByLayer
370
13
48
1
60
0
100
AcDbLine
10
27
20
-18.274279
30
0
11
9
21
-18.274279
31
0
39
0
210
0
220
0
230
1
0
SOLID
5
151
100
AcDbEntity
8
2
62
256
6
ByLayer
370
18
48
1
60
0
100
AcDbTrace
10
27
20
-18.274279
30
0
11
23.500002
21
-18.735063
31
0
12
23.499998
22
-17.813496
32
0
13
23.499998
23
-17.813496
33
0
39
0
210
0
220
0
230
1
0
SOLID
5
152
100
AcDbEntity
8
2
62
256
6
ByLayer
370
18
48
1
60
0
100
AcDbTrace
10
9
20
-18.274279
30
0
11
12.499998
21
-17.813496
31
0
12
12.500002
22
-18.735063
32
0
13
12.500002
23
-18.735063
33
0
39
0
210
0
220
0
230
1
0
ENDBLK
5
154
100
AcDbEntity
8
0
100
AcDbBlockEnd
0
ENDSEC
0
SECTION
2
ENTITIES
0
ELLIPSE
5
C0
100
AcDbEntity
8
1
62
256
6
ByLayer
370
18
48
1
60
0
100
AcDbEllipse
10
26.726721
20
-0.240942
30
0
11
0.0498067563315347
21
-0.959200094293345
31
0
210
0
220
0
230
1
40
0.053108
41
-0.131516145641621
42
1.56606445916147
0
ELLIPSE
5
C1
100
AcDbEntity
8
1
62
256
6
ByLayer
370
18
48
1
60
0
100
AcDbEllipse
10
26.583613
20
-0.444539
30
0
11
0.150355574070135
21
-0.469746299928687
31
0
210
0
220
0
230
1
40
0.482582
41
2.9284407097404
42
-2.09839304333123
0
ELLIPSE
5
C2
100
AcDbEntity
8
1
62
256
6
ByLayer
370
18
48
1
60
0
100
AcDbEllipse
10
38.948765
20
-21.34259
30
0
11
14.6772206843506
21
-24.6053318509429
31
0
210
0
220
0
230
1
40
0.008393
41
-2.56935321347511
42
-2.53535279336892
0
ELLIPSE
5
C3
100
AcDbEntity
8
1
62
256
6
ByLayer
370
13
48
1
60
0
100
AcDbEllipse
10
10.871995
20
-70.986869
30
0
11
24.8483454973172
21
-67.2782485257691
31
0
210
0
220
0
230
1
40
0.716375
41
2.7705256277113
42
2.7907849704854
0
ELLIPSE
5
C4
100
AcDbEntity
8
1
62
256
6
ByLayer
370
13
48
1
60
0
100
AcDbEllipse
10
10.871995
20
15.820175
30
0
11
53.4486122114333
21
-47.8230995578605
31
0
210
0
220
0
230
1
40
0.191171
41
-1.52659897389726
42
-1.45703150605584
0
POINT
5
70
100
AcDbEntity
8
81
62
256
6
ByLayer
370
18
48
1
60
0
100
AcDbPoint
10
27
20
0
30
0
39
0
210
0
220
0
230
1
50
360
0
POINT
5
72
100
AcDbEntity
8
80
62
256
6
ByLayer
370
18
48
1
60
0
100
AcDbPoint
10
0
20
0
30
0
39
0
210
0
220
0
230
1
50
360
0
POINT
5
74
100
AcDbEntity
8
1
62
256
6
ByLayer
370
18
48
1
60
1
100
AcDbPoint
10
27
20
-4.0001
30
0
39
0
210
0
220
0
230
1
50
360
0
POINT
5
76
100
AcDbEntity
8
1
62
256
6
ByLayer
370
18
48
1
60
1
100
AcDbPoint
10
9
20
-4.0001
30
0
39
0
210
0
220
0
230
1
50
360
0
SPLINE
5
C5
100
AcDbEntity
8
1
62
256
6
ByLayer
370
18
48
1
60
0
100
AcDbSpline
70
4
71
1
72
4
73
2
40
0
40
0
40
1
40
1
41
1
10
26.8812514826689
20
-0.767335202280037
30
0
41
1
10
26.8799567150122
20
-0.766085271384952
30
0
0
SPLINE
5
C6
100
AcDbEntity
8
1
62
256
6
ByLayer
370
18
48
1
60
0
100
AcDbSpline
70
4
71
3
72
18
73
14
40
0
40
0
40
0
40
0
40
0.316529894821485
40
0.316529894821485
40
0.487397421116114
40
0.487397421116114
40
0.658264947410742
40
0.658264947410742
40
0.829132473705371
40
0.829132473705371
40
0.914566236852686
40
0.914566236852686
40
1
40
1
40
1
40
1
41
1
10
26.836528087199
20
-0.94818952210025
30
0
41
1
10
26.8426267973316
20
-0.925737236528988
30
0
41
1
10
26.8485816495187
20
-0.903559944777015
30
0
41
1
10
26.8573074285825
20
-0.870396803079302
30
0
41
1
10
26.860284604675
20
-0.858947945479173
30
0
41
1
10
26.8659988110862
20
-0.836570210490891
30
0
41
1
10
26.8687343757845
20
-0.825647381838706
30
0
41
1
10
26.8737060402911
20
-0.8051025287605
30
0
41
1
10
26.8759698787519
20
-0.795362253483006
30
0
41
1
10
26.8786205252523
20
-0.782909781243347
30
0
41
1
10
26.8793836882807
20
-0.779102239399094
30
0
41
1
10
26.880592304679
20
-0.77239311019008
30
0
41
1
10
26.8810315166496
20
-0.769509268259327
30
0
41
1
10
26.8812514826679
20
-0.767335202290468
30
0
0
SPLINE
5
C7
100
AcDbEntity
8
1
62
256
6
ByLayer
370
18
48
1
60
0
100
AcDbSpline
70
4
71
1
72
4
73
2
40
0
40
0
40
1
40
1
41
1
10
26.8799567150122
20
-0.766085271384952
30
0
41
1
10
26.8761989984907
20
-0.762457681561443
30
0
0
SPLINE
5
C8
100
AcDbEntity
8
1
62
256
6
ByLayer
370
18
48
1
60
0
100
AcDbSpline
70
4
71
1
72
4
73
2
40
0
40
0
40
1
40
1
41
1
10
26.8799567150122
20
-0.766085271384952
30
0
41
1
10
26.9720570577977
20
-0.053865967120629
30
0
0
SPLINE
5
C9
100
AcDbEntity
8
1
62
256
6
ByLayer
370
18
48
1
60
0
100
AcDbSpline
70
4
71
5
72
31
73
25
40
0
40
0
40
0
40
0
40
0
40
0
40
0.0627579160942321
40
0.135087933864497
40
0.171556590712479
40
0.207850127291256
40
0.244101749913987
40
0.316897778923458
40
0.388893335512804
40
0.418341936445626
40
0.451989786681847
40
0.488415126260935
40
0.561668620679933
40
0.635238771680478
40
0.672669871553333
40
0.709903196325435
40
0.74665260518781
40
0.820401701653502
40
0.894415404599262
40
0.931477063821011
40
0.968376211571203
40
1
40
1
40
1
40
1
40
1
40
1
41
1
10
26.9733834043096
20
3.48610508210965
30
0
41
1
10
26.9734082918248
20
3.49454987665365
30
0
41
1
10
26.9730735833247
20
3.51269827455673
30
0
41
1
10
26.971592120729
20
3.53562764754648
30
0
41
1
10
26.9681834862734
20
3.56325727994167
30
0
41
1
10
26.9618476890502
20
3.59548110554212
30
0
41
1
10
26.9532458112507
20
3.62833124263682
30
0
41
1
10
26.9427171315055
20
3.66028865660798
30
0
41
1
10
26.9302729488909
20
3.69038661862393
30
0
41
1
10
26.9158297438281
20
3.719300314229
30
0
41
1
10
26.8992228065802
20
3.74733157118013
30
0
41
1
10
26.8810463110132
20
3.7742700918995
30
0
41
1
10
26.8613219729831
20
3.80006908730172
30
0
41
1
10
26.8391623211195
20
3.82500763295425
30
0
41
1
10
26.814818306717
20
3.84861626970147
30
0
41
1
10
26.7884656481448
20
3.87054961133629
30
0
41
1
10
26.7608177151759
20
3.89075640293788
30
0
41
1
10
26.7321002180319
20
3.90908916834169
30
0
41
1
10
26.7022439491607
20
3.92514763712617
30
0
41
1
10
26.6712051487122
20
3.93899399735463
30
0
41
1
10
26.6395113855752
20
3.95036276068697
30
0
41
1
10
26.6166553592739
20
3.95703436569207
30
0
41
1
10
26.6031367949319
20
3.96046683004028
30
0
41
1
10
26.5943311048621
20
3.96248945713228
30
0
41
1
10
26.5902603675703
20
3.96337938912666
30
0
0
SPLINE
5
CA
100
AcDbEntity
8
1
62
256
6
ByLayer
370
13
48
1
60
0
100
AcDbSpline
70
4
71
1
72
4
73
2
40
0
40
0
40
1
40
1
41
1
10
26.8799567150121
20
-3.30058240445038
30
0
41
1
10
26.9720570577977
20
-3.46152319548008
30
0
0
SPLINE
5
CB
100
AcDbEntity
8
1
62
256
6
ByLayer
370
18
48
1
60
0
100
AcDbSpline
70
4
71
5
72
31
73
25
40
0
40
0
40
0
40
0
40
0
40
0
40
0.0627579160558402
40
0.135087933829065
40
0.171556590678539
40
0.2078501272588
40
0.244101749883016
40
0.316897778895465
40
0.388893335487757
40
0.418341936421784
40
0.451989786659382
40
0.48841512623996
40
0.561668620661955
40
0.63523877166551
40
0.672669871539897
40
0.709903196313522
40
0.746652605177401
40
0.82040170164611
40
0.894415404594899
40
0.931477063818165
40
0.968376211569866
40
1
40
1
40
1
40
1
40
1
40
1
41
1
10
26.9733834043097
20
-3.48610508213741
30
0
41
1
10
26.9734082918243
20
-3.49454987667585
30
0
41
1
10
26.9730735833236
20
-3.51269827457335
30
0
41
1
10
26.9715921207277
20
-3.53562764755756
30
0
41
1
10
26.9681834862723
20
-3.56325727994727
30
0
41
1
10
26.9618476890502
20
-3.59548110554229
30
0
41
1
10
26.9532458112507
20
-3.62833124263702
30
0
41
1
10
26.9427171315055
20
-3.66028865660817
30
0
41
1
10
26.9302729488909
20
-3.69038661862413
30
0
41
1
10
26.9158297438281
20
-3.71930031422917
30
0
41
1
10
26.8992228065801
20
-3.74733157118032
30
0
41
1
10
26.8810463110133
20
-3.77427009189967
30
0
41
1
10
26.861321972983
20
-3.80006908730192
30
0
41
1
10
26.8391623211195
20
-3.82500763295445
30
0
41
1
10
26.8148183067169
20
-3.84861626970166
30
0
41
1
10
26.7884656481448
20
-3.87054961133649
30
0
41
1
10
26.7608177151759
20
-3.89075640293808
30
0
41
1
10
26.7321002180319
20
-3.90908916834187
30
0
41
1
10
26.7022439491607
20
-3.92514763712634
30
0
41
1
10
26.6712051487122
20
-3.9389939973548
30
0
41
1
10
26.6395113855752
20
-3.95036276068717
30
0
41
1
10
26.6166553592738
20
-3.95703436569227
30
0
41
1
10
26.6031367949319
20
-3.96046683004047
30
0
41
1
10
26.5943311048621
20
-3.96248945713245
30
0
41
1
10
26.5902603675703
20
-3.96337938912683
30
0
0
SPLINE
5
CC
100
AcDbEntity
8
1
62
256
6
ByLayer
370
18
48
1
60
0
100
AcDbSpline
70
4
71
3
72
24
73
20
40
0
40
0
40
0
40
0
40
0.250000000000002
40
0.250000000000002
40
0.500000000000004
40
0.500000000000004
40
0.625000000000005
40
0.625000000000005
40
0.750000000000007
40
0.750000000000007
40
0.812500000000008
40
0.812500000000008
40
0.875000000000008
40
0.875000000000008
40
0.937500000000009
40
0.937500000000009
40
0.968750000000005
40
0.968750000000005
40
1
40
1
40
1
40
1
41
1
10
26.7298325622845
20
-3.47896039949063
30
0
41
1
10
26.7442966647909
20
-3.47762400335191
30
0
41
1
10
26.7586615043396
20
-3.47521184450477
30
0
41
1
10
26.7870911051113
20
-3.46713542673561
30
0
41
1
10
26.8011347396964
20
-3.46153303706905
30
0
41
1
10
26.8217036068482
20
-3.44885011686554
30
0
41
1
10
26.8284609151206
20
-3.44390671216502
30
0
41
1
10
26.8416744640627
20
-3.4318427776079
30
0
41
1
10
26.8481334166456
20
-3.42474460213421
30
0
41
1
10
26.8573086793024
20
-3.41143699700129
30
0
41
1
10
26.8602842120793
20
-3.40654870274719
30
0
41
1
10
26.8659927268957
20
-3.39544820624326
30
0
41
1
10
26.8687322965525
20
-3.38922237034004
30
0
41
1
10
26.8737040057735
20
-3.37495523428814
30
0
41
1
10
26.8759709527083
20
-3.36680003608376
30
0
41
1
10
26.8786229095276
20
-3.35276743034066
30
0
41
1
10
26.879384937594
20
-3.3477815887658
30
0
41
1
10
26.8805904705037
20
-3.33700468506316
30
0
41
1
10
26.8810313487086
20
-3.33115822820264
30
0
41
1
10
26.8812514826687
20
-3.3251091086031
30
0
0
SPLINE
5
CD
100
AcDbEntity
8
1
62
256
6
ByLayer
370
18
48
1
60
0
100
AcDbSpline
70
4
71
1
72
4
73
2
40
0
40
0
40
1
40
1
41
1
10
26.8812514826689
20
-3.32510910859628
30
0
41
1
10
26.8799567150121
20
-3.30058240445038
30
0
0
SPLINE
5
CE
100
AcDbEntity
8
1
62
256
6
ByLayer
370
18
48
1
60
0
100
AcDbSpline
70
4
71
1
72
4
73
2
40
0
40
0
40
1
40
1
41
1
10
26.8799567150121
20
-3.30058240445038
30
0
41
1
10
26.8761989984907
20
-3.22940021133803
30
0
0
SPLINE
5
CF
100
AcDbEntity
8
1
62
256
6
ByLayer
370
18
48
1
60
0
100
AcDbSpline
70
4
71
3
72
44
73
40
40
0
40
0
40
0
40
0
40
0.0273746732367782
40
0.0273746732367782
40
0.0487778671017065
40
0.0487778671017065
40
0.0701810609666347
40
0.0701810609666347
40
0.155793836426348
40
0.155793836426348
40
0.241406611886061
40
0.241406611886061
40
0.327019387345774
40
0.327019387345774
40
0.348422581210702
40
0.348422581210702
40
0.359124178143166
40
0.359124178143166
40
0.36982577507563
40
0.412632162805484
40
0.412632162805484
40
0.498244938265193
40
0.498244938265193
40
0.583857713724902
40
0.583857713724902
40
0.669470489184611
40
0.669470489184611
40
0.690873683049538
40
0.690873683049538
40
0.701575279982003
40
0.701575279982003
40
0.712276876914467
40
0.755083264644326
40
0.755083264644326
40
0.840696040104044
40
0.840696040104044
40
0.926308815563761
40
0.926308815563761
40
1
40
1
40
1
40
1
41
1
10
9.0926850803545
20
2.33309971799062
30
0
41
1
10
9.20586445497997
20
2.32896816944719
30
0
41
1
10
9.31908504955501
20
2.32312505487914
30
0
41
1
10
9.52097830127659
20
2.3096713401051
30
0
41
1
10
9.6096267460438
20
2.30272379629631
30
0
41
1
10
9.78703335146324
20
2.28675178314654
30
0
41
1
10
9.87559539267846
20
2.27774519605052
30
0
41
1
10
10.3178014648999
20
2.22770504904062
30
0
41
1
10
10.6696362222108
20
2.17163713884182
30
0
41
1
10
11.3720018143956
20
2.03008376256298
30
0
41
1
10
11.7225301914573
20
1.94459658410574
30
0
41
1
10
12.4247959955431
20
1.7472021212368
30
0
41
1
10
12.7765309640941
20
1.63529076905138
30
0
41
1
10
13.2185481070702
20
1.48103052910349
30
0
41
1
10
13.3070691454483
20
1.44946117424175
30
0
41
1
10
13.4400577152994
20
1.40107543687569
30
0
41
1
10
13.4844252803849
20
1.384773399437
30
0
41
1
10
13.573035241321
20
1.35190785403921
30
0
41
1
10
13.794371212362
20
1.26904544864496
30
0
41
1
10
14.0148268677278
20
1.18282533517899
30
0
41
1
10
14.5427117145889
20
0.970473363129315
30
0
41
1
10
14.8930248589103
20
0.821673879909611
30
0
41
1
10
15.5929378347676
20
0.51502124212476
30
0
41
1
10
15.9425352780944
20
0.357163034817944
30
0
41
1
10
16.6434982299764
20
0.0378509358498604
30
0
41
1
10
16.994861367425
20
-0.123608597085933
30
0
41
1
10
17.4367529974351
20
-0.324132622560569
30
0
41
1
10
17.525265930972
20
-0.364171634027059
30
0
41
1
10
17.6582677442312
20
-0.424062213931961
30
0
41
1
10
17.7026282799375
20
-0.443992197021998
30
0
41
1
10
17.7912237056215
20
-0.483691542219248
30
0
41
1
10
18.0125239344795
20
-0.582595392564059
30
0
41
1
10
18.2329467767081
20
-0.679642144140928
30
0
41
1
10
18.760758176391
20
-0.908013225122488
30
0
41
1
10
19.1110294174807
20
-1.05419486156416
30
0
41
1
10
19.8108713312204
20
-1.32954866302444
30
0
41
1
10
20.1604396169374
20
-1.45872571530623
30
0
41
1
10
20.8125546558649
20
-1.67900960091595
30
0
41
1
10
21.114869068807
20
-1.77291536015574
30
0
41
1
10
21.4186497836464
20
-1.85741922315671
30
0
0
SPLINE
5
D0
100
AcDbEntity
8
1
62
256
6
ByLayer
370
18
48
1
60
0
100
AcDbSpline
70
4
71
3
72
24
73
20
40
0
40
0
40
0
40
0
40
0.125000000000007
40
0.125000000000007
40
0.250000000000015
40
0.250000000000015
40
0.375000000000022
40
0.375000000000022
40
0.500000000000029
40
0.500000000000029
40
0.625000000000037
40
0.625000000000037
40
0.750000000000044
40
0.750000000000044
40
0.812500000000038
40
0.812500000000038
40
0.875000000000032
40
0.875000000000032
40
1
40
1
40
1
40
1
41
1
10
26.3120497245634
20
-0.270733719683108
30
0
41
1
10
26.3127283169366
20
-0.289757745952329
30
0
41
1
10
26.3149120815641
20
-0.308661484224245
30
0
41
1
10
26.321584906133
20
-0.346362830475727
30
0
41
1
10
26.326080738703
20
-0.365159156960829
30
0
41
1
10
26.3369725542007
20
-0.40276063807201
30
0
41
1
10
26.3433714068415
20
-0.421564707239952
30
0
41
1
10
26.3578056040565
20
-0.45931406955782
30
0
41
1
10
26.3658694585729
20
-0.47830511038407
30
0
41
1
10
26.3831243357178
20
-0.515940557979974
30
0
41
1
10
26.3923427243805
20
-0.53466209859144
30
0
41
1
10
26.4117334665872
20
-0.572137610580796
30
0
41
1
10
26.4219060929412
20
-0.590889260294404
30
0
41
1
10
26.4377393030932
20
-0.619270305610343
30
0
41
1
10
26.4431129766996
20
-0.628773784078874
30
0
41
1
10
26.4540337954995
20
-0.647920473857567
30
0
41
1
10
26.4595618158825
20
-0.657530182386068
30
0
41
1
10
26.4760810905816
20
-0.686138727263312
30
0
41
1
10
26.4870742056805
20
-0.705059745038398
30
0
41
1
10
26.4979407065313
20
-0.723828215032739
30
0
0
SPLINE
5
D1
100
AcDbEntity
8
1
62
256
6
ByLayer
370
18
48
1
60
0
100
AcDbSpline
70
4
71
3
72
46
73
42
40
0
40
0
40
0
40
0
40
0.0624999999999842
40
0.0624999999999842
40
0.124999999999968
40
0.124999999999968
40
0.140624999999965
40
0.140624999999965
40
0.156249999999962
40
0.156249999999962
40
0.187499999999955
40
0.218749999999949
40
0.218749999999949
40
0.234374999999943
40
0.234374999999943
40
0.249999999999937
40
0.249999999999937
40
0.312499999999943
40
0.328124999999944
40
0.328124999999944
40
0.343749999999946
40
0.343749999999946
40
0.374999999999955
40
0.374999999999955
40
0.437499999999967
40
0.437499999999967
40
0.468749999999968
40
0.468749999999968
40
0.49999999999997
40
0.49999999999997
40
0.562499999999974
40
0.562499999999974
40
0.624999999999978
40
0.624999999999978
40
0.749999999999985
40
0.749999999999985
40
0.812499999999989
40
0.812499999999989
40
0.874999999999992
40
0.874999999999992
40
1
40
1
40
1
40
1
41
1
10
26.52565251773
20
3.68581851721163
30
0
41
1
10
26.5376914027732
20
3.64436099247365
30
0
41
1
10
26.548051649217
20
3.60260500852183
30
0
41
1
10
26.5637552215351
20
3.51820104029798
30
0
41
1
10
26.5691079712253
20
3.47555473156498
30
0
41
1
10
26.5712923147465
20
3.42144558063527
30
0
41
1
10
26.5715020609987
20
3.41058336844662
30
0
41
1
10
26.5714246103275
20
3.38877058838065
30
0
41
1
10
26.5711353695526
20
3.37781301181261
30
0
41
1
10
26.5694802468451
20
3.34515279712528
30
0
41
1
10
26.5651763004969
20
3.30194700880495
30
0
41
1
10
26.5563569055499
20
3.25947580605637
30
0
41
1
10
26.5479375688847
20
3.22791601225796
30
0
41
1
10
26.5448298930862
20
3.21744508595455
30
0
41
1
10
26.5379921252648
20
3.19660448972695
30
0
41
1
10
26.5342494185242
20
3.1862065333014
30
0
41
1
10
26.5141943117592
20
3.1351050184409
30
0
41
1
10
26.4886528222536
20
3.08708465386872
30
0
41
1
10
26.4571729573498
20
3.04239927847917
30
0
41
1
10
26.4441242276882
20
3.02478165786081
30
0
41
1
10
26.4373535130545
20
3.01607966769589
30
0
41
1
10
26.416534000115
20
2.9905259507253
30
0
41
1
10
26.4019978109851
20
2.97423619684682
30
0
41
1
10
26.3567191109734
20
2.92726486148612
30
0
41
1
10
26.3243205761134
20
2.8984651733208
30
0
41
1
10
26.273257004991
20
2.85806772241199
30
0
41
1
10
26.2558208481218
20
2.84507347027724
30
0
41
1
10
26.2202223448079
20
2.81991020243359
30
0
41
1
10
26.2020637940327
20
2.80774561292608
30
0
41
1
10
26.14717649945
20
2.77269074415176
30
0
41
1
10
26.1098426013716
20
2.75110037329836
30
0
41
1
10
26.0340226520607
20
2.71068147417426
30
0
41
1
10
25.9955352644925
20
2.69185614925294
30
0
41
1
10
25.8786956527565
20
2.63868207699772
30
0
41
1
10
25.7989843377377
20
2.6075912255202
30
0
41
1
10
25.6775942935044
20
2.56532505921223
30
0
41
1
10
25.6368222310687
20
2.55197636065299
30
0
41
1
10
25.5547627260132
20
2.52651438864604
30
0
41
1
10
25.5135195247722
20
2.51441708874373
30
0
41
1
10
25.3897670227654
20
2.47986025504179
30
0
41
1
10
25.3070181323706
20
2.45904920563581
30
0
41
1
10
25.2240905279575
20
2.43984791121721
30
0
0
SPLINE
5
D2
100
AcDbEntity
8
1
62
256
6
ByLayer
370
18
48
1
60
0
100
AcDbSpline
70
4
71
3
72
12
73
8
40
0
40
0
40
0
40
0
40
0.394900262518741
40
0.394900262518741
40
0.697450131259371
40
0.697450131259371
40
1
40
1
40
1
40
1
41
1
10
25.0681593635109
20
2.39561538766648
30
0
41
1
10
25.088048122755
20
2.40199714925089
30
0
41
1
10
25.1081900093394
20
2.40830062566238
30
0
41
1
10
25.144284265764
20
2.41902069213472
30
0
41
1
10
25.1601448325563
20
2.42354119195292
30
0
41
1
10
25.1921432740172
20
2.43212741494313
30
0
41
1
10
25.2081198909357
20
2.43615002429894
30
0
41
1
10
25.2240905279566
20
2.43984791121685
30
0
0
SPLINE
5
D3
100
AcDbEntity
8
1
62
256
6
ByLayer
370
18
48
1
60
0
100
AcDbSpline
70
4
71
3
72
8
73
4
40
0
40
0
40
0
40
0
40
1
40
1
40
1
40
1
41
1
10
26.4055183044367
20
3.97301776046427
30
0
41
1
10
26.4671022380493
20
3.96984847937634
30
0
41
1
10
26.528683002393
20
3.96663671671226
30
0
41
1
10
26.5902603675703
20
3.96337938912663
30
0
0
SPLINE
5
D4
100
AcDbEntity
8
1
62
256
6
ByLayer
370
18
48
1
60
0
100
AcDbSpline
70
4
71
3
72
38
73
34
40
0
40
0
40
0
40
0
40
0.0507624460245886
40
0.10204968822367
40
0.153852580312391
40
0.206161377480922
40
0.25896575336602
40
0.282837787824926
40
0.307097205363567
40
0.331742571976542
40
0.356772340369754
40
0.382184847418644
40
0.407978311644275
40
0.434150830716623
40
0.460700378994058
40
0.487624805108115
40
0.514921830722169
40
0.542589079760325
40
0.570624079041668
40
0.599024219273295
40
0.627786750202672
40
0.656908777967202
40
0.686387262602592
40
0.716219015730683
40
0.746400698448227
40
0.776928819438032
40
0.807799733324566
40
0.839009639296138
40
0.870554580016085
40
0.902430440845257
40
0.934632949398244
40
0.967157674121434
40
1
40
1
40
1
40
1
41
1
10
8.61556747257811
20
-2.60640964667334
30
0
41
1
10
8.6058818435605
20
-2.62080365177687
30
0
41
1
10
8.58641045281976
20
-2.64974047118059
30
0
41
1
10
8.55667266875179
20
-2.69275638017507
30
0
41
1
10
8.52635498067013
20
-2.73574458092273
30
0
41
1
10
8.49542862773609
20
-2.77863487475295
30
0
41
1
10
8.46975795681891
20
-2.81346933172844
30
0
41
1
10
8.4495232340538
20
-2.84048272240409
30
0
41
1
10
8.43486562035636
20
-2.85984791743377
30
0
41
1
10
8.41990814991948
20
-2.87940642799208
30
0
41
1
10
8.40465048080657
20
-2.89915194376016
30
0
41
1
10
8.38909265374349
20
-2.919078072882
30
0
41
1
10
8.37323460276554
20
-2.93917818474267
30
0
41
1
10
8.35707628953372
20
-2.95944545189818
30
0
41
1
10
8.34061766615582
20
-2.97987283740983
30
0
41
1
10
8.3238586865933
20
-3.00045309938926
30
0
41
1
10
8.30679929127274
20
-3.02117879351152
30
0
41
1
10
8.28943942626555
20
-3.04204230436821
30
0
41
1
10
8.27177904702285
20
-3.06303585544271
30
0
41
1
10
8.25381809379303
20
-3.08415147618234
30
0
41
1
10
8.23555650647717
20
-3.10538100008236
30
0
41
1
10
8.21699422325449
20
-3.12671606555458
30
0
41
1
10
8.19813118106987
20
-3.14814811962461
30
0
41
1
10
8.17896731585643
20
-3.1696684226535
30
0
41
1
10
8.15950256147343
20
-3.19126805047674
30
0
41
1
10
8.13973685415863
20
-3.21293791014475
30
0
41
1
10
8.11967011588112
20
-3.23466870730206
30
0
41
1
10
8.09930231781729
20
-3.25645110067049
30
0
41
1
10
8.0786332398531
20
-3.27827515035401
30
0
41
1
10
8.05766338284334
20
-3.30013244793022
30
0
41
1
10
8.03639051115073
20
-3.32200808365479
30
0
41
1
10
8.01482276099415
20
-3.34391112369926
30
0
41
1
10
8.00029679507389
20
-3.35840677053099
30
0
41
1
10
7.99299852320661
20
-3.36568980919779
30
0
0
SPLINE
5
D5
100
AcDbEntity
8
1
62
256
6
ByLayer
370
18
48
1
60
0
100
AcDbSpline
70
4
71
3
72
10
73
6
40
0
40
0
40
0
40
0
40
0.5
40
0.5
40
1
40
1
40
1
40
1
41
1
10
26.4050104696722
20
3.97301869693095
30
0
41
1
10
26.4291482517041
20
3.92704408119187
30
0
41
1
10
26.4517464890368
20
3.88026750347049
30
0
41
1
10
26.4925819244182
20
3.784570586878
30
0
41
1
10
26.5107597042155
20
3.73584080310675
30
0
41
1
10
26.5256525177245
20
3.68581851721129
30
0
0
SPLINE
5
D6
100
AcDbEntity
8
1
62
256
6
ByLayer
370
18
48
1
60
0
100
AcDbSpline
70
4
71
5
72
15
73
9
40
0
40
0
40
0
40
0
40
0
40
0
40
0.0429450065877256
40
0.458886207890848
40
0.73618034209293
40
1
40
1
40
1
40
1
40
1
40
1
41
1
10
8.99999995304935
20
-3.72321211081817
30
0
41
1
10
8.99135068149235
20
-3.72074208255236
30
0
41
1
10
8.89892942600366
20
-3.69420681697488
30
0
41
1
10
8.75066018122715
20
-3.64920655844588
30
0
41
1
10
8.54925675288382
20
-3.58284698922279
30
0
41
1
10
8.34785332454047
20
-3.50953287863302
30
0
41
1
10
8.15509916775412
20
-3.43320724785767
30
0
41
1
10
8.04611699489948
20
-3.388125650121
30
0
41
1
10
7.99298281133261
20
-3.36569300833219
30
0
0
SPLINE
5
D7
100
AcDbEntity
8
1
62
256
6
ByLayer
370
18
48
1
60
0
100
AcDbSpline
70
4
71
5
72
19
73
13
40
0
40
0
40
0
40
0
40
0
40
0
40
0.0671404014943138
40
0.173585910684252
40
0.333254174469159
40
0.492922438254066
40
0.599367947444004
40
0.759036211228911
40
0.865481720418849
40
1
40
1
40
1
40
1
40
1
40
1
41
1
10
23.9023389691918
20
3.01316210093503
30
0
41
1
10
23.9375650341707
20
3.02803298022721
30
0
41
1
10
24.0286390884374
20
3.06601940940786
30
0
41
1
10
24.2034851266357
20
3.13663965758442
30
0
41
1
10
24.4621031487657
20
3.23440956112179
30
0
41
1
10
24.7765691601836
20
3.34083263684249
30
0
41
1
10
25.1395810905543
20
3.44753761402208
30
0
41
1
10
25.502593020925
20
3.53590781822629
30
0
41
1
10
25.8524096924343
20
3.60458179018295
30
0
41
1
10
26.1184543800118
20
3.64465014707153
30
0
41
1
10
26.3286510783016
20
3.66860735679333
30
0
41
1
10
26.4550757926596
20
3.68021439660512
30
0
41
1
10
26.5256525177299
20
3.68581851721172
30
0
0
SPLINE
5
D8
100
AcDbEntity
8
1
62
256
6
ByLayer
370
18
48
1
60
0
100
AcDbSpline
70
4
71
3
72
33
73
29
40
0
40
0
40
0
40
0
40
0.125000000000025
40
0.125000000000025
40
0.156250000000034
40
0.156250000000034
40
0.187500000000043
40
0.187500000000043
40
0.250000000000062
40
0.31250000000008
40
0.31250000000008
40
0.343750000000089
40
0.343750000000089
40
0.375000000000099
40
0.375000000000099
40
0.500000000000104
40
0.500000000000104
40
0.562500000000097
40
0.562500000000097
40
0.62500000000009
40
0.62500000000009
40
0.687500000000082
40
0.687500000000082
40
0.750000000000075
40
0.750000000000075
40
0.875000000000038
40
0.875000000000038
40
1
40
1
40
1
40
1
41
1
10
24.696292275316
20
-0.113666243595816
30
0
41
1
10
24.6954027450207
20
-0.0795722980393521
30
0
41
1
10
24.6994166040775
20
-0.0461748301646878
30
0
41
1
10
24.7093904611348
20
-0.0050491833783326
30
0
41
1
10
24.7116385774218
20
0.0031439592001163
30
0
41
1
10
24.7166351329851
20
0.0194686288210733
30
0
41
1
10
24.71938198231
20
0.0275882005320227
30
0
41
1
10
24.7282404576284
20
0.0515276773275275
30
0
41
1
10
24.7417597377309
20
0.0825546566050264
30
0
41
1
10
24.7585105830618
20
0.111886415761148
30
0
41
1
10
24.7722820905262
20
0.133250116212565
30
0
41
1
10
24.7770880372494
20
0.140281979521973
30
0
41
1
10
24.7869921130977
20
0.153971496327102
30
0
41
1
10
24.7920994696289
20
0.160645644514034
30
0
41
1
10
24.8183939263222
20
0.193185290021546
30
0
41
1
10
24.8418195191948
20
0.216591019527698
30
0
41
1
10
24.8806842255567
20
0.247712568025179
30
0
41
1
10
24.894076004124
20
0.257257687162337
30
0
41
1
10
24.9215926686503
20
0.274661188809944
30
0
41
1
10
24.9357394831809
20
0.282536613647494
30
0
41
1
10
24.9648345438241
20
0.296654829086833
30
0
41
1
10
24.9797919341058
20
0.30290064938211
30
0
41
1
10
25.0105240716296
20
0.313717291917129
30
0
41
1
10
25.0260478960976
20
0.318201032071329
30
0
41
1
10
25.0731213114193
20
0.329039640511354
30
0
41
1
10
25.105169386342
20
0.332797467650579
30
0
41
1
10
25.1708347037125
20
0.333730862348233
30
0
41
1
10
25.2036860904111
20
0.330890830067346
30
0
41
1
10
25.2365758705686
20
0.325157078982869
30
0
0
SPLINE
5
D9
100
AcDbEntity
8
1
62
256
6
ByLayer
370
18
48
1
60
0
100
AcDbSpline
70
4
71
3
72
82
73
78
40
0
40
0
40
0
40
0
40
0.0081659120698179
40
0.0162104792678995
40
0.0241336848987842
40
0.0319355138597051
40
0.0396159525911308
40
0.0471749890275307
40
0.0546126125488174
40
0.0619288139321866
40
0.0691235853050345
40
0.0761969200983921
40
0.0831488130017064
40
0.0899792599184455
40
0.0966882579234179
40
0.103275805220873
40
0.109741901104805
40
0.116086545920557
40
0.122309741028387
40
0.128411488769088
40
0.134391792431786
40
0.140250656224262
40
0.14598808524566
40
0.151604085462538
40
0.157098663687498
40
0.162471827561841
40
0.167723585541744
40
0.172853946888886
40
0.177862921665702
40
0.182750520736002
40
0.187516755771679
40
0.192161639265936
40
0.196685184554282
40
0.201087405844467
40
0.205368318256185
40
0.209527937872562
40
0.213566281805205
40
0.217483368274978
40
0.221279216711483
40
0.224953847874698
40
0.228507284002946
40
0.231939548992659
40
0.235250668616583
40
0.238440670789093
40
0.241509585889019
40
0.244457447154401
40
0.247284291167
40
0.249990158450286
40
0.268176302337571
40
0.286302071269687
40
0.304369724693501
40
0.322381555920118
40
0.340339891412613
40
0.358247089998363
40
0.376105542008925
40
0.393917668351289
40
0.411685919512755
40
0.429412774503656
40
0.447100739741034
40
0.46475234787686
40
0.482370156573998
40
0.499956747234534
40
0.527511014759195
40
0.555861469056784
40
0.585016699371801
40
0.614984589197132
40
0.645772389324896
40
0.677386783022406
40
0.709833944168661
40
0.743119589113555
40
0.777249022950413
40
0.812227180822913
40
0.848058664822483
40
0.884747776971482
40
0.922298548733916
40
0.96071476744392
40
1
40
1
40
1
40
1
41
1
10
7.8561607212466
20
0.239534041914453
30
0
41
1
10
7.85352187854653
20
0.247402714048377
30
0
41
1
10
7.84828340616099
20
0.263023130408811
30
0
41
1
10
7.84048952497699
20
0.286340626370901
30
0
41
1
10
7.83281368402044
20
0.309347141062517
30
0
41
1
10
7.82525404580898
20
0.332042715900826
30
0
41
1
10
7.81780828309121
20
0.354421809372497
30
0
41
1
10
7.81047442268931
20
0.376480649140689
30
0
41
1
10
7.8032506163492
20
0.398215298228337
30
0
41
1
10
7.79613519252851
20
0.419622152264054
30
0
41
1
10
7.78912663468716
20
0.440697800406582
30
0
41
1
10
7.78222357884943
20
0.461439052687524
30
0
41
1
10
7.77542480617848
20
0.481842923798467
30
0
41
1
10
7.76872923692116
20
0.50190662824852
30
0
41
1
10
7.76213592406816
20
0.521627572551438
30
0
41
1
10
7.75564404717559
20
0.541003348207823
30
0
41
1
10
7.74925290623614
20
0.560031724512584
30
0
41
1
10
7.74296191564054
20
0.578710641457064
30
0
41
1
10
7.73677059822484
20
0.597038202668358
30
0
41
1
10
7.73067857941189
20
0.615012668414181
30
0
41
1
10
7.72468558145147
20
0.632632448677896
30
0
41
1
10
7.71879141776304
20
0.649896096313142
30
0
41
1
10
7.71299598738705
20
0.666802300287571
30
0
41
1
10
7.70729926954522
20
0.683349879020653
30
0
41
1
10
7.70170131831753
20
0.699537773825625
30
0
41
1
10
7.69620225743461
20
0.715365042459297
30
0
41
1
10
7.69080227519095
20
0.730830852787676
30
0
41
1
10
7.68550161948025
20
0.745934476571648
30
0
41
1
10
7.68030059295492
20
0.760675283378305
30
0
41
1
10
7.67519954831192
20
0.775052734622278
30
0
41
1
10
7.67019888370535
20
0.789066377741136
30
0
41
1
10
7.66529903828891
20
0.802715840508739
30
0
41
1
10
7.66050048788753
20
0.816000825490221
30
0
41
1
10
7.65580374079946
20
0.828921104640727
30
0
41
1
10
7.651209333731
20
0.841476514052289
30
0
41
1
10
7.64671782786016
20
0.853666948848883
30
0
41
1
10
7.64232980504337
20
0.865492358237958
30
0
41
1
10
7.63804586411763
20
0.876952740700688
30
0
41
1
10
7.63386661747029
20
0.888048139393618
30
0
41
1
10
7.629792687265
20
0.898778637512322
30
0
41
1
10
7.62582470349997
20
0.909144354512506
30
0
41
1
10
7.6219632961762
20
0.919145440018241
30
0
41
1
10
7.61820910895074
20
0.928782076665698
30
0
41
1
10
7.61456273742226
20
0.938054452093638
30
0
41
1
10
7.61102493406827
20
0.946962840599184
30
0
41
1
10
7.60759587462201
20
0.955507299309659
30
0
41
1
10
7.604277723271
20
0.96368871977424
30
0
41
1
10
7.59489236142088
20
0.986527392315224
30
0
41
1
10
7.57909733249596
20
1.02394600289043
30
0
41
1
10
7.55635031317127
20
1.0757593644633
30
0
41
1
10
7.53290874932046
20
1.1270380297199
30
0
41
1
10
7.50878575341835
20
1.17777865373
30
0
41
1
10
7.48398392563263
20
1.22797577398779
30
0
41
1
10
7.45851065203195
20
1.27762752696773
30
0
41
1
10
7.43237381357568
20
1.3267338765786
30
0
41
1
10
7.40558272990285
20
1.37529684627682
30
0
41
1
10
7.37814770464374
20
1.42332021748027
30
0
41
1
10
7.35007998930877
20
1.47080939656641
30
0
41
1
10
7.32139150552149
20
1.51777117200038
30
0
41
1
10
7.29209515521742
20
1.56421377750945
30
0
41
1
10
7.26220306689675
20
1.61014588166378
30
0
41
1
10
7.22595962224682
20
1.6641874070055
30
0
41
1
10
7.18239229963692
20
1.72671667140347
30
0
41
1
10
7.13050699563678
20
1.79807189144253
30
0
41
1
10
7.07577570124127
20
1.87046181403653
30
0
41
1
10
7.01822216171718
20
1.94390372361127
30
0
41
1
10
6.95787288801458
20
2.01841844446503
30
0
41
1
10
6.89475451442064
20
2.09402817576799
30
0
41
1
10
6.82889425036092
20
2.17075674152437
30
0
41
1
10
6.76031951491376
20
2.24862920987457
30
0
41
1
10
6.68905771489725
20
2.32767160568602
30
0
41
1
10
6.61513640415413
20
2.40791100500786
30
0
41
1
10
6.53858179669373
20
2.48937403167179
30
0
41
1
10
6.4594237848772
20
2.57209165765067
30
0
41
1
10
6.37767584913905
20
2.65607967978318
30
0
41
1
10
6.29341206477849
20
2.74141326372455
30
0
41
1
10
6.23609285762356
20
2.79845697434666
30
0
41
1
10
6.20711272473903
20
2.82729781838674
30
0
0
SPLINE
5
DA
100
AcDbEntity
8
1
62
256
6
ByLayer
370
18
48
1
60
0
100
AcDbSpline
70
4
71
3
72
20
73
16
40
0
40
0
40
0
40
0
40
0.158121515734139
40
0.158121515734139
40
0.316243031468278
40
0.316243031468278
40
0.474364547202416
40
0.474364547202416
40
0.632486062936555
40
0.632486062936555
40
0.790607578670694
40
0.790607578670694
40
0.948729094404833
40
0.948729094404833
40
1
40
1
40
1
40
1
41
1
10
2.42910332919217
20
-2.99678251333569
30
0
41
1
10
2.61447677883569
20
-2.96000224192403
30
0
41
1
10
2.80110079648654
20
-2.92289099078766
30
0
41
1
10
3.17719243336086
20
-2.84851072216074
30
0
41
1
10
3.3666609219533
20
-2.81124065325571
30
0
41
1
10
3.74878183711127
20
-2.7373103963331
30
0
41
1
10
3.94143540814315
20
-2.70065000207754
30
0
41
1
10
4.33023319693234
20
-2.62899360547769
30
0
41
1
10
4.52637874539161
20
-2.59399858750382
30
0
41
1
10
4.92239602564371
20
-2.52700388834185
30
0
41
1
10
5.12226912150626
20
-2.49500656923729
30
0
41
1
10
5.52586479028088
20
-2.43556497506287
30
0
41
1
10
5.72958857013265
20
-2.40812439457864
30
0
41
1
10
6.00189990255012
20
-2.3759220023743
30
0
41
1
10
6.06877782213644
20
-2.36836592509516
30
0
41
1
10
6.13585307357607
20
-2.36116753479396
30
0
0
SPLINE
5
DB
100
AcDbEntity
8
1
62
256
6
ByLayer
370
18
48
1
60
0
100
AcDbSpline
70
4
71
5
72
13
73
7
40
0
40
0
40
0
40
0
40
0
40
0
40
0.179017380807204
40
1
40
1
40
1
40
1
40
1
40
1
41
1
10
9.20584560746175
20
2.32718193486579
30
0
41
1
10
9.2149072513817
20
2.32679025740535
30
0
41
1
10
9.26552604537298
20
2.32455142279917
30
0
41
1
10
9.31614483936423
20
2.32202831112858
30
0
41
1
10
9.36676363335548
20
2.3192213887387
30
0
41
1
10
9.41738242734675
20
2.3161312377114
30
0
41
1
10
9.45893957741805
20
2.31340375217169
30
0
0
SPLINE
5
DC
100
AcDbEntity
8
1
62
256
6
ByLayer
370
18
48
1
60
0
100
AcDbSpline
70
4
71
5
72
45
73
39
40
0
40
0
40
0
40
0
40
0
40
0
40
0.0085767048020645
40
0.0321957297263272
40
0.0676242671127212
40
0.0912432920369839
40
0.126671829423378
40
0.162100366809772
40
0.185719391734035
40
0.221147929120429
40
0.244766954044691
40
0.280195491431085
40
0.303814516355348
40
0.339243053741742
40
0.374671591128136
40
0.398290616052399
40
0.433719153438793
40
0.457338178363056
40
0.49276671574945
40
0.516385740673712
40
0.551814278060106
40
0.5872428154465
40
0.610861840370763
40
0.634480865295026
40
0.66990940268142
40
0.705337940067814
40
0.728956964992076
40
0.76438550237847
40
0.788004527302733
40
0.823433064689127
40
0.84705208961339
40
0.882480626999784
40
0.917909164386178
40
0.94152818931044
40
0.976956726696835
40
1
40
1
40
1
40
1
40
1
40
1
41
1
10
9.56861419287586
20
2.30567533813826
30
0
41
1
10
9.58889410364469
20
2.30414834286472
30
0
41
1
10
9.6650220037013
20
2.29824646673774
30
0
41
1
10
9.82492188768961
20
2.2845131352758
30
0
41
1
10
10.0406697609657
20
2.26221084591333
30
0
41
1
10
10.3401896181735
20
2.22426184750452
30
0
41
1
10
10.7032015485442
20
2.16750774231278
30
0
41
1
10
11.0662134789149
20
2.09922618462375
30
0
41
1
10
11.4292254092856
20
2.02079844183447
30
0
41
1
10
11.7922373396563
20
1.93164291783546
30
0
41
1
10
12.155249270027
20
1.83317659349356
30
0
41
1
10
12.4903372057538
20
1.73408430169113
30
0
41
1
10
12.8533491361245
20
1.61838253581354
30
0
41
1
10
13.2163610664951
20
1.49483089471718
30
0
41
1
10
13.5793729968659
20
1.36331775430659
30
0
41
1
10
13.9423849272365
20
1.22521529331632
30
0
41
1
10
14.3053968576072
20
1.08062093187559
30
0
41
1
10
14.6684087879779
20
0.930841248103519
30
0
41
1
10
15.0034967237047
20
0.788396383534007
30
0
41
1
10
15.3665086540754
20
0.630310096864946
30
0
41
1
10
15.7295205844461
20
0.469138563002332
30
0
41
1
10
16.0925325148168
20
0.305451650572223
30
0
41
1
10
16.4276204505436
20
0.152993264748545
30
0
41
1
10
16.7906323809143
20
-0.0128271762427801
30
0
41
1
10
17.153644311285
20
-0.178585646561459
30
0
41
1
10
17.4887322470117
20
-0.330872619738187
30
0
41
1
10
17.8517441773824
20
-0.494250968027586
30
0
41
1
10
18.2147561077531
20
-0.654980532847304
30
0
41
1
10
18.5777680381238
20
-0.812505763049927
30
0
41
1
10
18.9128559738506
20
-0.954325049113265
30
0
41
1
10
19.2758679042213
20
-1.1033137270249
30
0
41
1
10
19.638879834592
20
-1.24700721813781
30
0
41
1
10
20.0018917649627
20
-1.38409286768166
30
0
41
1
10
20.3649036953333
20
-1.51448878433837
30
0
41
1
10
20.7265542413763
20
-1.63636012449456
30
0
41
1
10
21.0044328034876
20
-1.72395418486494
30
0
41
1
10
21.1985393816672
20
-1.78200740268898
30
0
41
1
10
21.3367979705591
20
-1.82170637659252
30
0
41
1
10
21.3912845755192
20
-1.83709133714763
30
0
0
SPLINE
5
DD
100
AcDbEntity
8
1
62
256
6
ByLayer
370
18
48
1
60
0
100
AcDbSpline
70
4
71
3
72
14
73
10
40
0
40
0
40
0
40
0
40
0.25
40
0.25
40
0.5
40
0.5
40
0.75
40
0.75
40
1
40
1
40
1
40
1
41
1
10
26.5425655244442
20
1.69109859462435
30
0
41
1
10
26.5584537722992
20
1.65974832851538
30
0
41
1
10
26.5743519552133
20
1.62836132131929
30
0
41
1
10
26.6058420166613
20
1.56672309732366
30
0
41
1
10
26.6214498446292
20
1.53641111317896
30
0
41
1
10
26.6525291791352
20
1.4762910151918
30
0
41
1
10
26.6680031902729
20
1.44647364386623
30
0
41
1
10
26.6989277745141
20
1.38692553271008
30
0
41
1
10
26.714376856098
20
1.35720030582334
30
0
41
1
10
26.7298325622846
20
1.32745059312782
30
0
0
SPLINE
5
DE
100
AcDbEntity
8
1
62
256
6
ByLayer
370
18
48
1
60
0
100
AcDbSpline
70
4
71
3
72
18
73
14
40
0
40
0
40
0
40
0
40
0.0084280826004573
40
0.0084280826004573
40
0.338952055066969
40
0.338952055066969
40
0.504214041300228
40
0.504214041300228
40
0.586845034416858
40
0.586845034416858
40
0.669476027533488
40
0.669476027533488
40
1
40
1
40
1
40
1
41
1
10
25.343226385895
20
2.24168787144578
30
0
41
1
10
25.3464768168899
20
2.24090068420432
30
0
41
1
10
25.349728454111
20
2.24010700024633
30
0
41
1
10
25.4805479071825
20
2.20792666849701
30
0
41
1
10
25.60999023792
20
2.16644390211661
30
0
41
1
10
25.806954185597
20
2.08913654817312
30
0
41
1
10
25.8730739127834
20
2.06086252491039
30
0
41
1
10
25.9729455306524
20
2.01472423897852
30
0
41
1
10
26.0063518166382
20
1.99872139977771
30
0
41
1
10
26.0733972600585
20
1.96546147806447
30
0
41
1
10
26.1069369156118
20
1.94825341773606
30
0
41
1
10
26.274562837297
20
1.85944492449968
30
0
41
1
10
26.4085957756759
20
1.77944430575707
30
0
41
1
10
26.5425655244442
20
1.69109859462435
30
0
0
SPLINE
5
DF
100
AcDbEntity
8
1
62
256
6
ByLayer
370
18
48
1
60
0
100
AcDbSpline
70
4
71
3
72
82
73
78
40
0
40
0
40
0
40
0
40
0.0116835181602616
40
0.0233834860015819
40
0.0351006191658625
40
0.0468356298078497
40
0.058589226493228
40
0.0703621140992012
40
0.0821549937183244
40
0.0939685625654566
40
0.105803513887901
40
0.117660536878345
40
0.12954031659141
40
0.141443533863324
40
0.153370865234789
40
0.165322982877008
40
0.177300554521115
40
0.189304243390736
40
0.201334708138251
40
0.213392602783449
40
0.225478576656355
40
0.237593274342597
40
0.249737335632599
40
0.261911395473237
40
0.274116083923487
40
0.286352026112414
40
0.298619842200744
40
0.310920147345547
40
0.323253551667536
40
0.33562066022163
40
0.348022072970549
40
0.360458384760922
40
0.372930185302534
40
0.385438059150321
40
0.3979825856889
40
0.410564339119889
40
0.423183888451918
40
0.435841797492966
40
0.44853862484536
40
0.461274923903113
40
0.474051242851613
40
0.486868124669622
40
0.499726107133456
40
0.512625722823419
40
0.525567499132174
40
0.538551958275215
40
0.551579617303383
40
0.564650988117051
40
0.577766577482316
40
0.590926887048895
40
0.604132413369597
40
0.617383647921599
40
0.630681077129069
40
0.644025182387431
40
0.657416440089051
40
0.670855321650052
40
0.684342293538792
40
0.697877817305219
40
0.711462349611616
40
0.725096342264392
40
0.740016918805065
40
0.755220225213055
40
0.770706958445485
40
0.786477777453242
40
0.802533305712851
40
0.81887413354931
40
0.835500820269058
40
0.852413896120875
40
0.869613864099819
40
0.887101201608954
40
0.904876361990745
40
0.922939775940315
40
0.941291852810249
40
0.959932981816672
40
0.978863533154657
40
0.998083859030984
40
1
40
1
40
1
40
1
41
1
10
4.79739492204124
20
-3.97979083974849
30
0
41
1
10
4.80475921097502
20
-3.97527086702976
30
0
41
1
10
4.81949815731227
20
-3.96622455774633
30
0
41
1
10
4.84163415407715
20
-3.95250277900908
30
0
41
1
10
4.86381124987557
20
-3.93865993517645
30
0
41
1
10
4.8860317704393
20
-3.92468723123756
30
0
41
1
10
4.90829700001777
20
-3.91058916520183
30
0
41
1
10
4.93060850869369
20
-3.89636671725455
30
0
41
1
10
4.95296779534903
20
-3.88202186517825
30
0
41
1
10
4.97537638297078
20
-3.8675563723595
30
0
41
1
10
4.99783579245201
20
-3.85297211409355
30
0
41
1
10
5.02034754901752
20
-3.83827099068816
30
0
41
1
10
5.04291317987253
20
-3.82345495156676
30
0
41
1
10
5.06553421419687
20
-3.80852598954976
30
0
41
1
10
5.08821218249545
20
-3.79348614314676
30
0
41
1
10
5.11094861610854
20
-3.77833749669452
30
0
41
1
10
5.13374504666589
20
-3.76308218107184
30
0
41
1
10
5.15660300554208
20
-3.74772237425586
30
0
41
1
10
5.179524023299
20
-3.73226030191961
30
0
41
1
10
5.20250962911632
20
-3.71669823801244
30
0
41
1
10
5.22556135021321
20
-3.70103850534375
30
0
41
1
10
5.24868071125692
20
-3.68528347615856
30
0
41
1
10
5.27186923376223
20
-3.66943557271316
30
0
41
1
10
5.29512843547792
20
-3.65349726784214
30
0
41
1
10
5.31845982976347
20
-3.63747108552494
30
0
41
1
10
5.34186492495357
20
-3.62135960144334
30
0
41
1
10
5.36534522371124
20
-3.60516544353561
30
0
41
1
10
5.38890222237043
20
-3.58889129254459
30
0
41
1
10
5.41253741026594
20
-3.57253988255761
30
0
41
1
10
5.43625226905209
20
-3.55611400154109
30
0
41
1
10
5.46004827201082
20
-3.53961649186769
30
0
41
1
10
5.48392688334621
20
-3.52305025083419
30
0
41
1
10
5.50788955746913
20
-3.50641823117289
30
0
41
1
10
5.53193773826894
20
-3.489723441553
30
0
41
1
10
5.55607285837411
20
-3.47296894707327
30
0
41
1
10
5.58029633840042
20
-3.45615786974469
30
0
41
1
10
5.60460958618799
20
-3.43929338896325
30
0
41
1
10
5.62901399602603
20
-3.42237874197156
30
0
41
1
10
5.65351094786575
20
-3.40541722430936
30
0
41
1
10
5.67810180652168
20
-3.38841219025238
30
0
41
1
10
5.70278792086083
20
-3.37136705323869
30
0
41
1
10
5.72757062298035
20
-3.3542852862823
30
0
41
1
10
5.75245122737272
20
-3.33717042237305
30
0
41
1
10
5.77743103008009
20
-3.32002605486332
30
0
41
1
10
5.80251130783597
20
-3.30285583783905
30
0
41
1
10
5.82769331719541
20
-3.28566348647661
30
0
41
1
10
5.85297829365382
20
-3.26845277738366
30
0
41
1
10
5.87836745075401
20
-3.25122754892377
30
0
41
1
10
5.90386197918022
20
-3.233991701523
30
0
41
1
10
5.9294630458466
20
-3.2167491979647
30
0
41
1
10
5.95517179295223
20
-3.19950406364444
30
0
41
1
10
5.98098933710725
20
-3.18226038688812
30
0
41
1
10
6.00691676813739
20
-3.16502231894259
30
0
41
1
10
6.03295514904212
20
-3.14779407510375
30
0
41
1
10
6.05910551157206
20
-3.13057993147993
30
0
41
1
10
6.08536886818956
20
-3.11338423803508
30
0
41
1
10
6.11174616250693
20
-3.09621137044442
30
0
41
1
10
6.13823845051357
20
-3.07906591143248
30
0
41
1
10
6.16484621577845
20
-3.0619519709285
30
0
41
1
10
6.19237998092797
20
-3.0443594411019
30
0
41
1
10
6.22098813146548
20
-3.02620129074754
30
0
41
1
10
6.25082304684133
20
-3.00739911389212
30
0
41
1
10
6.2812358566884
20
-2.98838773471607
30
0
41
1
10
6.31223212961271
20
-2.96918342038185
30
0
41
1
10
6.34381801010014
20
-2.94980358679516
30
0
41
1
10
6.37599939635612
20
-2.93026602841221
30
0
41
1
10
6.40878214894408
20
-2.91058913991932
30
0
41
1
10
6.44217201505793
20
-2.89079186446887
30
0
41
1
10
6.47617463051589
20
-2.87089371679701
30
0
41
1
10
6.51079549982876
20
-2.85091478532519
30
0
41
1
10
6.54603998174991
20
-2.8308757395798
30
0
41
1
10
6.58191327277356
20
-2.81079783564931
30
0
41
1
10
6.6184203906501
20
-2.79070292163226
30
0
41
1
10
6.65556615735329
20
-2.770613442496
30
0
41
1
10
6.69335518165565
20
-2.7505524444567
30
0
41
1
10
6.72006359783529
20
-2.73664891807192
30
0
41
1
10
6.7341671442727
20
-2.72938899126805
30
0
41
1
10
6.73544582698884
20
-2.72873145171519
30
0
0
SPLINE
5
E0
100
AcDbEntity
8
1
62
256
6
ByLayer
370
18
48
1
60
0
100
AcDbSpline
70
4
71
1
72
4
73
2
40
0
40
0
40
1
40
1
41
1
10
26.8812514826689
20
0.767335202279838
30
0
41
1
10
26.8799567150123
20
0.766085271384867
30
0
0
SPLINE
5
E1
100
AcDbEntity
8
1
62
256
6
ByLayer
370
18
48
1
60
0
100
AcDbSpline
70
4
71
3
72
24
73
20
40
0
40
0
40
0
40
0
40
0.250000000000009
40
0.250000000000009
40
0.500000000000018
40
0.500000000000018
40
0.625000000000013
40
0.625000000000013
40
0.750000000000008
40
0.750000000000008
40
0.812500000000006
40
0.812500000000006
40
0.875000000000003
40
0.875000000000003
40
0.937500000000001
40
0.937500000000001
40
0.96875
40
0.96875
40
1
40
1
40
1
40
1
41
1
10
26.7298325622844
20
1.32745059312794
30
0
41
1
10
26.7442959149909
20
1.27707117157465
30
0
41
1
10
26.7586650317092
20
1.22676631714066
30
0
41
1
10
26.7870908282889
20
1.12647876185528
30
0
41
1
10
26.8011393016785
20
1.07653792259737
30
0
41
1
10
26.8217034510282
20
1.00238852412718
30
0
41
1
10
26.8284604134922
20
0.977843105595241
30
0
41
1
10
26.8416766053201
20
0.929273234905821
30
0
41
1
10
26.8481304065949
20
0.905274935835365
30
0
41
1
10
26.8573074285836
20
0.87039680308061
30
0
41
1
10
26.860284604675
20
0.858947945478889
30
0
41
1
10
26.8659988110862
20
0.836570210490549
30
0
41
1
10
26.8687343757845
20
0.825647381838451
30
0
41
1
10
26.8737060402911
20
0.805102528760301
30
0
41
1
10
26.8759698787519
20
0.795362253482921
30
0
41
1
10
26.8786205252523
20
0.78290978124312
30
0
41
1
10
26.8793836882808
20
0.779102239398867
30
0
41
1
10
26.880592304679
20
0.772393110189796
30
0
41
1
10
26.8810315166496
20
0.769509268259128
30
0
41
1
10
26.8812514826679
20
0.767335202290269
30
0
0
SPLINE
5
E2
100
AcDbEntity
8
1
62
256
6
ByLayer
370
18
48
1
60
0
100
AcDbSpline
70
4
71
3
72
8
73
4
40
0
40
0
40
0
40
0
40
1
40
1
40
1
40
1
41
1
10
26.7298325622842
20
1.32745059312805
30
0
41
1
10
26.7288511414546
20
1.32780046251491
30
0
41
1
10
26.727862022584
20
1.32815801534457
30
0
41
1
10
26.7268652409713
20
1.32852322549763
30
0
0
SPLINE
5
E3
100
AcDbEntity
8
1
62
256
6
ByLayer
370
18
48
1
60
0
100
AcDbSpline
70
4
71
3
72
38
73
34
40
0
40
0
40
0
40
0
40
0.0507624460245888
40
0.102049688223667
40
0.153852580312388
40
0.206161377480918
40
0.258965753366017
40
0.282837787824923
40
0.307097205363564
40
0.331742571976538
40
0.356772340369751
40
0.382184847418642
40
0.407978311644273
40
0.434150830716621
40
0.460700378994056
40
0.487624805108113
40
0.514921830722167
40
0.542589079760323
40
0.570624079041665
40
0.599024219273293
40
0.62778675020267
40
0.6569087779672
40
0.686387262602591
40
0.716219015730682
40
0.746400698448225
40
0.776928819438031
40
0.807799733324565
40
0.839009639296138
40
0.870554580016084
40
0.902430440845256
40
0.934632949398244
40
0.967157674121434
40
1
40
1
40
1
40
1
41
1
10
8.61556747257811
20
2.60817063083687
30
0
41
1
10
8.6058818435605
20
2.59759265039037
30
0
41
1
10
8.58641045281976
20
2.57632733141665
30
0
41
1
10
8.55667266875182
20
2.54379265663152
30
0
41
1
10
8.52635498067013
20
2.5105870960785
30
0
41
1
10
8.49542862773612
20
2.47668070581051
30
0
41
1
10
8.46975795681891
20
2.44851197491823
30
0
41
1
10
8.44952323405383
20
2.42630465323256
30
0
41
1
10
8.43486562035636
20
2.41022042554053
30
0
41
1
10
8.41990814991954
20
2.39380509853447
30
0
41
1
10
8.40465048080659
20
2.37705636761481
30
0
41
1
10
8.38909265374352
20
2.35997185824971
30
0
41
1
10
8.37323460276556
20
2.34254938744979
30
0
41
1
10
8.35707628953372
20
2.32478690406219
30
0
41
1
10
8.34061766615588
20
2.30668251736105
30
0
41
1
10
8.3238586865933
20
2.28823450131199
30
0
41
1
10
8.30679929127274
20
2.2694412985617
30
0
41
1
10
8.28943942626557
20
2.25030152091412
30
0
41
1
10
8.27177904702285
20
2.2308139664199
30
0
41
1
10
8.25381809379303
20
2.21097764126827
30
0
41
1
10
8.23555650647717
20
2.19079178000246
30
0
41
1
10
8.21699422325452
20
2.17025585823075
30
0
41
1
10
8.1981311810699
20
2.14936960461671
30
0
41
1
10
8.17896731585645
20
2.12813301334839
30
0
41
1
10
8.15950256147343
20
2.1065463549734
30
0
41
1
10
8.13973685415866
20
2.08461019322681
30
0
41
1
10
8.11967011588115
20
2.06232537876596
30
0
41
1
10
8.09930231781732
20
2.03969312999112
30
0
41
1
10
8.07863323985313
20
2.01671478273215
30
0
41
1
10
8.05766338284334
20
1.99339279471906
30
0
41
1
10
8.03639051115078
20
1.96972699239939
30
0
41
1
10
8.01482276099415
20
1.94572885297478
30
0
41
1
10
8.00029679507392
20
1.92956567919345
30
0
41
1
10
7.99299852320664
20
1.92144482601631
30
0
0
SPLINE
5
E4
100
AcDbEntity
8
1
62
256
6
ByLayer
370
18
48
1
60
0
100
AcDbSpline
70
4
71
3
72
8
73
4
40
0
40
0
40
0
40
0
40
1
40
1
40
1
40
1
41
1
10
26.4055183044367
20
-3.97301776046444
30
0
41
1
10
26.4671022380492
20
-3.96984847937651
30
0
41
1
10
26.528683002393
20
-3.96663671671246
30
0
41
1
10
26.5902603675703
20
-3.96337938912683
30
0
0
SPLINE
5
E5
100
AcDbEntity
8
1
62
256
6
ByLayer
370
18
48
1
60
0
100
AcDbSpline
70
4
71
3
72
22
73
18
40
0
40
0
40
0
40
0
40
0.0624999999999987
40
0.0624999999999987
40
0.124999999999998
40
0.124999999999998
40
0.187499999999996
40
0.187499999999996
40
0.249999999999995
40
0.249999999999995
40
0.374999999999996
40
0.374999999999996
40
0.499999999999996
40
0.499999999999996
40
0.749999999999998
40
0.749999999999998
40
1
40
1
40
1
40
1
41
1
10
26.5902603675703
20
-3.96337938912683
30
0
41
1
10
26.5858484790613
20
-3.95782157472999
30
0
41
1
10
26.5829141094039
20
-3.95176685016375
30
0
41
1
10
26.5800686095338
20
-3.93898187811973
30
0
41
1
10
26.5800922619531
20
-3.93223056452155
30
0
41
1
10
26.5821029362338
20
-3.91809111307273
30
0
41
1
10
26.5840733742376
20
-3.91070417245973
30
0
41
1
10
26.5891330586356
20
-3.89536223776454
30
0
41
1
10
26.5922237716451
20
-3.88740706394049
30
0
41
1
10
26.6024185199203
20
-3.86274883817396
30
0
41
1
10
26.6104107932385
20
-3.84523460804397
30
0
41
1
10
26.626785373417
20
-3.80839941278344
30
0
41
1
10
26.6352167076017
20
-3.78906443363636
30
0
41
1
10
26.6601419404767
20
-3.72837490989801
30
0
41
1
10
26.6762544376932
20
-3.68434241594846
30
0
41
1
10
26.7048166056593
20
-3.58916183219998
30
0
41
1
10
26.7172887003579
20
-3.53801274685696
30
0
41
1
10
26.7268652409711
20
-3.48319367899961
30
0
0
SPLINE
5
E6
100
AcDbEntity
8
1
62
256
6
ByLayer
370
18
48
1
60
0
100
AcDbSpline
70
4
71
3
72
22
73
18
40
0
40
0
40
0
40
0
40
0.0625000000000003
40
0.0625000000000003
40
0.125000000000001
40
0.125000000000001
40
0.187500000000001
40
0.187500000000001
40
0.250000000000001
40
0.250000000000001
40
0.375000000000001
40
0.375000000000001
40
0.500000000000001
40
0.500000000000001
40
0.750000000000001
40
0.750000000000001
40
1
40
1
40
1
40
1
41
1
10
26.5902603675704
20
0.150546029742316
30
0
41
1
10
26.5858484790613
20
0.176416143359148
30
0
41
1
10
26.5829141094039
20
0.202676166567358
30
0
41
1
10
26.5800686095338
20
0.254579720561253
30
0
41
1
10
26.5800922619532
20
0.280351791952484
30
0
41
1
10
26.5821029362337
20
0.331617550692556
30
0
41
1
10
26.5840733742377
20
0.357112627437118
30
0
41
1
10
26.5891330586357
20
0.40789694846427
30
0
41
1
10
26.592223771645
20
0.433186052882007
30
0
41
1
10
26.6024185199204
20
0.508809032262747
30
0
41
1
10
26.6104107932385
20
0.558958788805654
30
0
41
1
10
26.626785373417
20
0.658351979616981
30
0
41
1
10
26.6352167076018
20
0.707631620612489
30
0
41
1
10
26.6601419404766
20
0.854418325886371
30
0
41
1
10
26.6762544376932
20
0.950877874097955
30
0
41
1
10
26.7048166056593
20
1.14142447638164
30
0
41
1
10
26.7172887003581
20
1.23550764155567
30
0
41
1
10
26.7268652409712
20
1.32852322549783
30
0
0
SPLINE
5
E7
100
AcDbEntity
8
1
62
256
6
ByLayer
370
18
48
1
60
0
100
AcDbSpline
70
4
71
3
72
29
73
25
40
0
40
0
40
0
40
0
40
0.100613739015105
40
0.100613739015105
40
0.201227478030211
40
0.201227478030211
40
0.402454956060422
40
0.402454956060422
40
0.452761825567976
40
0.452761825567976
40
0.477915260321753
40
0.477915260321753
40
0.50306869507553
40
0.603682434090642
40
0.603682434090642
40
0.804909912120867
40
0.804909912120867
40
0.905523651135981
40
0.905523651135981
40
0.955830520643537
40
0.955830520643537
40
0.980983955397317
40
0.980983955397317
40
1
40
1
40
1
40
1
41
1
10
26.7268652409712
20
1.32852322549766
30
0
41
1
10
26.5371825876985
20
1.46122470705845
30
0
41
1
10
26.348499042835
20
1.59062264010882
30
0
41
1
10
25.9720348232524
20
1.84185214389771
30
0
41
1
10
25.7842596300029
20
1.96368421387916
30
0
41
1
10
25.2208739283185
20
2.31658052186418
30
0
41
1
10
24.845281072633
20
2.53509782004858
30
0
41
1
10
24.3718008276784
20
2.78235222813603
30
0
41
1
10
24.2769024809623
20
2.83050653563478
30
0
41
1
10
24.1341698557402
20
2.90069083079712
30
0
41
1
10
24.0865679645792
20
2.9237240507602
30
0
41
1
10
23.991559345282
20
2.968934955294
30
0
41
1
10
23.7543387680678
20
3.07991618047362
30
0
41
1
10
23.5184536013689
20
3.18059491600388
30
0
41
1
10
22.9536094843727
20
3.40193189952444
30
0
41
1
10
22.5787496097173
20
3.52250396929119
30
0
41
1
10
22.0142198263846
20
3.6599641034571
30
0
41
1
10
21.8256636907993
20
3.69855920825026
30
0
41
1
10
21.5416333347154
20
3.74519566275231
30
0
41
1
10
21.4467571931269
20
3.7588635841937
30
0
41
1
10
21.304063273735
20
3.77648466200267
30
0
41
1
10
21.2564403622704
20
3.7818763370687
30
0
41
1
10
21.1730007545174
20
3.79046437384162
30
0
41
1
10
21.1371134418242
20
3.79387865501314
30
0
41
1
10
21.1012586217339
20
3.7970111011071
30
0
0
SPLINE
5
E8
100
AcDbEntity
8
1
62
256
6
ByLayer
370
18
48
1
60
0
100
AcDbSpline
70
4
71
5
72
39
73
33
40
0
40
0
40
0
40
0
40
0
40
0
40
0.0386353748543316
40
0.0673819555795604
40
0.110501826667403
40
0.139248407392632
40
0.182368278480475
40
0.211114859205704
40
0.254234730293547
40
0.29735460138139
40
0.326101182106618
40
0.369221053194461
40
0.39796763391969
40
0.441087505007533
40
0.469834085732762
40
0.512953956820605
40
0.556073827908448
40
0.584820408633676
40
0.627940279721519
40
0.656686860446748
40
0.699806731534591
40
0.72855331225982
40
0.771673183347662
40
0.814793054435506
40
0.843539635160734
40
0.872286215885963
40
0.915406086973806
40
0.958525958061649
40
0.987272538786877
40
1
40
1
40
1
40
1
40
1
40
1
41
1
10
15.8844525937024
20
3.16576105554603
30
0
41
1
10
15.9595122337208
20
3.19406992232598
30
0
41
1
10
16.090419863027
20
3.24195854671663
30
0
41
1
10
16.3050994762649
20
3.31618669126885
30
0
41
1
10
16.5756270787906
20
3.40061231113535
30
0
41
1
10
16.9299266652479
20
3.49562973862359
30
0
41
1
10
17.2650146009747
20
3.56992311784583
30
0
41
1
10
17.6280265313454
20
3.63313939985667
30
0
41
1
10
17.9910384617161
20
3.67881324137503
30
0
41
1
10
18.3540503920868
20
3.70494147505573
30
0
41
1
10
18.7170623224575
20
3.7131626236505
30
0
41
1
10
19.0800742528282
20
3.70165093582545
30
0
41
1
10
19.4430861831989
20
3.67225733955237
30
0
41
1
10
19.7781741189257
20
3.62873611209449
30
0
41
1
10
20.1411860492964
20
3.56406731462403
30
0
41
1
10
20.504197979667
20
3.48215824543766
30
0
41
1
10
20.8672099100377
20
3.38173128785741
30
0
41
1
10
21.2302218404084
20
3.26495941622736
30
0
41
1
10
21.5932337707791
20
3.13085354581517
30
0
41
1
10
21.9562457011498
20
2.98165393317777
30
0
41
1
10
22.2913336368766
20
2.83059596210916
30
0
41
1
10
22.6543455672473
20
2.65331410479166
30
0
41
1
10
23.017357497618
20
2.46316556360708
30
0
41
1
10
23.3803694279887
20
2.25989999105227
30
0
41
1
10
23.7154573637154
20
2.06218767557695
30
0
41
1
10
24.0784692940862
20
1.83814332609862
30
0
41
1
10
24.4414812244568
20
1.60521853588818
30
0
41
1
10
24.7765691601836
20
1.38294266822979
30
0
41
1
10
25.0805356340759
20
1.17571382092456
30
0
41
1
10
25.3286541186804
20
1.00324662307011
30
0
41
1
10
25.4930006193532
20
0.887802152853396
30
0
41
1
10
25.5735751360944
20
0.830942072521282
30
0
41
1
10
25.5983016635477
20
0.813469260318811
30
0
0
SPLINE
5
E9
100
AcDbEntity
8
1
62
256
6
ByLayer
370
18
48
1
60
0
100
AcDbSpline
70
4
71
5
72
30
73
24
40
0
40
0
40
0
40
0
40
0
40
0
40
0.025944838770521
40
0.0670154687417271
40
0.107888880049055
40
0.148715088285907
40
0.230697234853134
40
0.31177789753226
40
0.344942612019094
40
0.382836478309234
40
0.423858324813324
40
0.506355664266255
40
0.589209619136719
40
0.631364142641699
40
0.673295933842212
40
0.714682743873047
40
0.797738225304106
40
0.881091703858452
40
0.922830167064278
40
0.964385611505738
40
1
40
1
40
1
40
1
40
1
40
1
41
1
10
26.9678828914731
20
0.0597097703411009
30
0
41
1
10
26.9674216257944
20
0.0599512627250363
30
0
41
1
10
26.9661677704971
20
0.0605862748154209
30
0
41
1
10
26.9638900173645
20
0.0616550965516183
30
0
41
1
10
26.9601792913034
20
0.0632295142438011
30
0
41
1
10
26.9532458112507
20
0.0658701847294765
30
0
41
1
10
26.9427171315055
20
0.0694596233318237
30
0
41
1
10
26.9302729488909
20
0.073311036855273
30
0
41
1
10
26.9158297438281
20
0.077474388519903
30
0
41
1
10
26.8992228065802
20
0.0819957350352354
30
0
41
1
10
26.8810463110133
20
0.0867537023966065
30
0
41
1
10
26.8613219729831
20
0.0917418618537909
30
0
41
1
10
26.8391623211195
20
0.0971397151535029
30
0
41
1
10
26.814818306717
20
0.102876601429728
30
0
41
1
10
26.7884656481448
20
0.108902193937553
30
0
41
1
10
26.7608177151759
20
0.115081025192268
30
0
41
1
10
26.7321002180319
20
0.121363544045266
30
0
41
1
10
26.7022439491607
20
0.127742240865274
30
0
41
1
10
26.6712051487122
20
0.134228434560612
30
0
41
1
10
26.6395113855752
20
0.140710342765118
30
0
41
1
10
26.6166553592738
20
0.145306965770686
30
0
41
1
10
26.6031367949319
20
0.147999540117638
30
0
41
1
10
26.5943311048621
20
0.149742557472109
30
0
41
1
10
26.5902603675703
20
0.150546029742316
30
0
0
SPLINE
5
EA
100
AcDbEntity
8
1
62
256
6
ByLayer
370
18
48
1
60
0
100
AcDbSpline
70
4
71
3
72
8
73
4
40
0
40
0
40
0
40
0
40
1
40
1
40
1
40
1
41
1
10
26.4055183044366
20
0.185442920690434
30
0
41
1
10
26.4671022380492
20
0.173812236640543
30
0
41
1
10
26.5286830023929
20
0.162179977539552
30
0
41
1
10
26.5902603675703
20
0.150546029742287
30
0
0
SPLINE
5
EB
100
AcDbEntity
8
1
62
256
6
ByLayer
370
18
48
1
60
0
100
AcDbSpline
70
4
71
3
72
10
73
6
40
0
40
0
40
0
40
0
40
0.5
40
0.5
40
1
40
1
40
1
40
1
41
1
10
26.4050104696722
20
0.185537545404088
30
0
41
1
10
26.4291482517041
20
0.178699251173214
30
0
41
1
10
26.4517464890367
20
0.172106806608696
30
0
41
1
10
26.4925819244182
20
0.159624851358558
30
0
41
1
10
26.5107597042154
20
0.153756117592991
30
0
41
1
10
26.5256525177244
20
0.148433295625353
30
0
0
SPLINE
5
EC
100
AcDbEntity
8
1
62
256
6
ByLayer
370
18
48
1
60
0
100
AcDbSpline
70
4
71
3
72
45
73
41
40
0
40
0
40
0
40
0
40
0.0625000000000022
40
0.0625000000000022
40
0.125000000000004
40
0.125000000000004
40
0.140625000000006
40
0.140625000000006
40
0.156250000000007
40
0.156250000000007
40
0.187500000000009
40
0.218750000000011
40
0.218750000000011
40
0.234375000000013
40
0.234375000000013
40
0.250000000000014
40
0.250000000000014
40
0.312500000000019
40
0.312500000000019
40
0.343750000000019
40
0.343750000000019
40
0.375000000000019
40
0.375000000000019
40
0.437500000000019
40
0.437500000000019
40
0.468750000000019
40
0.468750000000019
40
0.500000000000019
40
0.500000000000019
40
0.562500000000019
40
0.562500000000019
40
0.625000000000019
40
0.625000000000019
40
0.750000000000009
40
0.750000000000009
40
0.812500000000005
40
0.812500000000005
40
0.875
40
0.875
40
1
40
1
40
1
40
1
41
1
10
26.52565251773
20
0.14843329562234
30
0
41
1
10
26.5376158719342
20
0.144105778619433
30
0
41
1
10
26.5479213553612
20
0.140071995613482
30
0
41
1
10
26.5635893508097
20
0.132880202768206
30
0
41
1
10
26.5689609534274
20
0.129720582299313
30
0
41
1
10
26.5712446990868
20
0.126556078173905
30
0
41
1
10
26.5714781717827
20
0.125962736451157
30
0
41
1
10
26.571456870947
20
0.124862558249333
30
0
41
1
10
26.571200031952
20
0.1243553409019
30
0
41
1
10
26.5696531713766
20
0.122988622492954
30
0
41
1
10
26.5655245965277
20
0.121568242487655
30
0
41
1
10
26.5569492417907
20
0.121012881498927
30
0
41
1
10
26.5487402197959
20
0.12094213376173
30
0
41
1
10
26.545707310561
20
0.120976241794551
30
0
41
1
10
26.5390286676173
20
0.121163668803206
30
0
41
1
10
26.5353690816205
20
0.121317860913791
30
0
41
1
10
26.5157137212181
20
0.122382666299018
30
0
41
1
10
26.4956409537375
20
0.124168810383907
30
0
41
1
10
26.4598745925797
20
0.12806351583643
30
0
41
1
10
26.4469795902327
20
0.12956800049264
30
0
41
1
10
26.4195761320467
20
0.132935531968911
30
0
41
1
10
26.405218382048
20
0.134779464751006
30
0
41
1
10
26.3604760323861
20
0.140718772609972
30
0
41
1
10
26.3284364191234
20
0.145218218096318
30
0
41
1
10
26.2779123176543
20
0.152569136603574
30
0
41
1
10
26.2606561730564
20
0.155120710394044
30
0
41
1
10
26.2254179783373
20
0.160401087299363
30
0
41
1
10
26.2074155269622
20
0.163133096889197
30
0
41
1
10
26.1529851831176
20
0.171480994911093
30
0
41
1
10
26.1159553363036
20
0.177275385015804
30
0
41
1
10
26.0407423129805
20
0.189219850075517
30
0
41
1
10
26.0025578091745
20
0.195370334366572
30
0
41
1
10
25.8866253372454
20
0.214247056236928
30
0
41
1
10
25.8075169648655
20
0.227392840097309
30
0
41
1
10
25.6870286520525
20
0.247674575286595
30
0
41
1
10
25.6465566267324
20
0.254530527190809
30
0
41
1
10
25.565096463363
20
0.268401599257629
30
0
41
1
10
25.5241180137616
20
0.275415209550033
30
0
41
1
10
25.4011749638469
20
0.29654647773728
30
0
41
1
10
25.3189649586886
20
0.310793999597877
30
0
41
1
10
25.2365758705738
20
0.32515707898196
30
0
0
SPLINE
5
ED
100
AcDbEntity
8
1
62
256
6
ByLayer
370
18
48
1
60
0
100
AcDbSpline
70
4
71
3
72
8
73
4
40
0
40
0
40
0
40
0
40
1
40
1
40
1
40
1
41
1
10
6.20711272197593
20
2.82729782107299
30
0
41
1
10
6.05317667386905
20
2.96148679673601
30
0
41
1
10
5.8993070618709
20
3.09584192901576
30
0
41
1
10
5.745509611134
20
3.23035821891716
30
0
0
SPLINE
5
EE
100
AcDbEntity
8
1
62
256
6
ByLayer
370
18
48
1
60
0
100
AcDbSpline
70
4
71
5
72
19
73
13
40
0
40
0
40
0
40
0
40
0
40
0
40
0.346966134922301
40
0.433707668652877
40
0.563819969248739
40
0.650561502979315
40
0.780673803575178
40
0.867415337305753
40
0.997527637901616
40
1
40
1
40
1
40
1
40
1
40
1
41
1
10
6.20711272199054
20
2.82729782108527
30
0
41
1
10
6.43050467914176
20
2.72260609724515
30
0
41
1
10
6.7097446255807
20
2.5833309504346
30
0
41
1
10
7.07275655595146
20
2.38944925445389
30
0
41
1
10
7.49161647560993
20
2.14828964413383
30
0
41
1
10
7.99424837920012
20
1.83831445119557
30
0
41
1
10
8.32933631492691
20
1.6234124621196
30
0
41
1
10
8.69234824529758
20
1.38281594100522
30
0
41
1
10
8.97318000647684
20
1.1914706936827
30
0
41
1
10
9.19816377836833
20
1.03542273398347
30
0
41
1
10
9.3393755663281
20
0.936549344990055
30
0
41
1
10
9.42473936500008
20
0.876474653951817
30
0
41
1
10
9.42633117974032
20
0.875354310088682
30
0
0
SPLINE
5
EF
100
AcDbEntity
8
1
62
256
6
ByLayer
370
18
48
1
60
0
100
AcDbSpline
70
4
71
5
72
15
73
9
40
0
40
0
40
0
40
0
40
0
40
0
40
0.0429450065876786
40
0.458886207890041
40
0.736180342091615
40
1
40
1
40
1
40
1
40
1
40
1
41
1
10
8.99999995305137
20
3.72321211081732
30
0
41
1
10
8.99135068149437
20
3.72074208255154
30
0
41
1
10
8.89892942600568
20
3.69420681697406
30
0
41
1
10
8.75066018122916
20
3.64920655844512
30
0
41
1
10
8.54925675288547
20
3.58284698922196
30
0
41
1
10
8.34785332454175
20
3.50953287863212
30
0
41
1
10
8.15509916775505
20
3.43320724785667
30
0
41
1
10
8.04611699490005
20
3.38812565011986
30
0
41
1
10
7.99298281133281
20
3.36569300833091
30
0
0
SPLINE
5
F0
100
AcDbEntity
8
1
62
256
6
ByLayer
370
18
48
1
60
0
100
AcDbSpline
70
4
71
5
72
40
73
34
40
0
40
0
40
0
40
0
40
0
40
0
40
0.0124697620416652
40
0.0403683590420743
40
0.082216254542688
40
0.110114851543097
40
0.151962747043711
40
0.193810642544324
40
0.221709239544734
40
0.263557135045347
40
0.291455732045756
40
0.33330362754637
40
0.361202224546779
40
0.403050120047392
40
0.444898015548006
40
0.472796612548415
40
0.514644508049029
40
0.542543105049438
40
0.584391000550052
40
0.612289597550461
40
0.654137493051074
40
0.695985388551688
40
0.723883985552097
40
0.751782582552506
40
0.79363047805312
40
0.835478373553733
40
0.863376970554143
40
0.905224866054756
40
0.933123463055165
40
0.974971358555779
40
1
40
1
40
1
40
1
40
1
40
1
41
1
10
7.89736123425263
20
3.04625279729493
30
0
41
1
10
7.92232346217094
20
3.05656209963161
30
0
41
1
10
8.00313367937704
20
3.08964336389917
30
0
41
1
10
8.16771588051478
20
3.15507537416755
30
0
41
1
10
8.38814607094034
20
3.23731605118039
30
0
41
1
10
8.69234824529761
20
3.34050558716817
30
0
41
1
10
9.05536017566828
20
3.44753080883336
30
0
41
1
10
9.41837210603899
20
3.53624801321254
30
0
41
1
10
9.78138403640969
20
3.607873478172
30
0
41
1
10
10.1443959667804
20
3.66031694313094
30
0
41
1
10
10.5074078971511
20
3.69506238846176
30
0
41
1
10
10.8424958328779
20
3.71065934441754
30
0
41
1
10
11.2055077632485
20
3.70962358738802
30
0
41
1
10
11.5685196936192
20
3.69065986364339
30
0
41
1
10
11.9315316239899
20
3.6520787318741
30
0
41
1
10
12.2945435543606
20
3.59584601638841
30
0
41
1
10
12.6575554847313
20
3.52051269628956
30
0
41
1
10
13.020567415102
20
3.42818843466628
30
0
41
1
10
13.3556553508288
20
3.32765178305098
30
0
41
1
10
13.7186672811995
20
3.20268626177023
30
0
41
1
10
14.0816792115702
20
3.06221201761377
30
0
41
1
10
14.4446911419409
20
2.90544377215852
30
0
41
1
10
14.7797790776676
20
2.74777196930171
30
0
41
1
10
15.1427910080384
20
2.56377134061725
30
0
41
1
10
15.505802938409
20
2.36738461607297
30
0
41
1
10
15.8408908741358
20
2.1754525190288
30
0
41
1
10
16.2039028045065
20
1.95701147156902
30
0
41
1
10
16.5669147348772
20
1.72820074990716
30
0
41
1
10
16.9299266652479
20
1.49109671411921
30
0
41
1
10
17.2592694645022
20
1.26939296421574
30
0
41
1
10
17.5327642744687
20
1.0808171295742
30
0
41
1
10
17.7224871005035
20
0.948227106376947
30
0
41
1
10
17.8563619372505
20
0.853917106011778
30
0
41
1
10
17.9064647900659
20
0.818523464495826
30
0
0
SPLINE
5
F1
100
AcDbEntity
8
1
62
256
6
ByLayer
370
18
48
1
60
0
100
AcDbSpline
70
4
71
5
72
24
73
18
40
0
40
0
40
0
40
0
40
0
40
0
40
0.217629226935897
40
0.272036533669871
40
0.353647493770832
40
0.408054800504806
40
0.489665760605767
40
0.544073067339741
40
0.625684027440703
40
0.707294987541664
40
0.761702294275638
40
0.843313254376599
40
0.897720561110574
40
0.979331521211535
40
1
40
1
40
1
40
1
40
1
40
1
41
1
10
7.85495409486646
20
0.23160725560075
30
0
41
1
10
8.07834605201768
20
0.13010858184407
30
0
41
1
10
8.35758599845661
20
0.0025462562309713
30
0
41
1
10
8.72059792882737
20
-0.163586611565535
30
0
41
1
10
9.13945784848585
20
-0.354181229114289
30
0
41
1
10
9.64208975207603
20
-0.578630670420381
30
0
41
1
10
9.97717768780282
20
-0.725719376104195
30
0
41
1
10
10.3401896181735
20
-0.881519702464431
30
0
41
1
10
10.7032015485442
20
-1.0330984039162
30
0
41
1
10
11.0662134789149
20
-1.17920720703043
30
0
41
1
10
11.4292254092856
20
-1.31961655064504
30
0
41
1
10
11.7922373396562
20
-1.4529942660127
30
0
41
1
10
12.155249270027
20
-1.57931875941148
30
0
41
1
10
12.4557049878626
20
-1.67758299302912
30
0
41
1
10
12.7003127164104
20
-1.75274822579726
30
0
41
1
10
12.8611484610265
20
-1.7999807009526
30
0
41
1
10
12.9661362163548
20
-1.82985261277622
30
0
41
1
10
12.9873519877514
20
-1.83584967864789
30
0
0
SPLINE
5
F2
100
AcDbEntity
8
1
62
256
6
ByLayer
370
18
48
1
60
0
100
AcDbSpline
70
4
71
3
72
8
73
4
40
0
40
0
40
0
40
0
40
1
40
1
40
1
40
1
41
1
10
8.3059975839966
20
-2.62588393152137
30
0
41
1
10
8.40745997786405
20
-2.61951889015901
30
0
41
1
10
8.51075842599781
20
-2.61307605993406
30
0
41
1
10
8.61570642014621
20
-2.60667107491025
30
0
0
SPLINE
5
F3
100
AcDbEntity
8
1
62
256
6
ByLayer
370
18
48
1
60
0
100
AcDbSpline
70
4
71
3
72
50
73
46
40
0
40
0
40
0
40
0
40
0.0183246728116023
40
0.0183246728116023
40
0.0592278114444503
40
0.0592278114444503
40
0.100130950077298
40
0.100130950077298
40
0.181937227342992
40
0.181937227342992
40
0.222840365975839
40
0.222840365975839
40
0.263743504608687
40
0.263743504608687
40
0.345549781874382
40
0.345549781874382
40
0.386452920507231
40
0.406904489823657
40
0.406904489823657
40
0.427356059140082
40
0.427356059140082
40
0.468259197772933
40
0.468259197772933
40
0.509162336405784
40
0.509162336405784
40
0.590968613671486
40
0.590968613671486
40
0.631871752304337
40
0.631871752304337
40
0.672774890937188
40
0.672774890937188
40
0.75458116820289
40
0.75458116820289
40
0.79548430683574
40
0.79548430683574
40
0.836387445468591
40
0.836387445468591
40
0.856839014785017
40
0.856839014785017
40
0.877290584101442
40
0.918193722734295
40
0.918193722734295
40
0.959096861367147
40
0.959096861367147
40
1
40
1
40
1
40
1
41
1
10
15.5382739060728
20
-3.29564834302823
30
0
41
1
10
15.4956769681211
20
-3.31174677721884
30
0
41
1
10
15.4530288250549
20
-3.32751233945359
30
0
41
1
10
15.3154492201833
20
-3.37725185926493
30
0
41
1
10
15.2206587821163
20
-3.40982066873889
30
0
41
1
10
15.0313839750411
20
-3.4714793665683
30
0
41
1
10
14.9369217288704
20
-3.50052968626025
30
0
41
1
10
14.6540037223157
20
-3.5821189319141
30
0
41
1
10
14.4660107916737
20
-3.62910998970173
30
0
41
1
10
14.1843833082165
20
-3.68808289315737
30
0
41
1
10
14.0905454606977
20
-3.70587641005545
30
0
41
1
10
13.9027940851029
20
-3.73788153061608
30
0
41
1
10
13.8088920766058
20
-3.75206383240968
30
0
41
1
10
13.527019020894
20
-3.78891586306153
30
0
41
1
10
13.3389035382785
20
-3.80579894901416
30
0
41
1
10
13.0557612395074
20
-3.81943911423352
30
0
41
1
10
12.9139446202679
20
-3.82335197479946
30
0
41
1
10
12.7716309134837
20
-3.82291012871841
30
0
41
1
10
12.6766311926056
20
-3.82164545052242
30
0
41
1
10
12.6290368882864
20
-3.82052805445431
30
0
41
1
10
12.486274587203
20
-3.81570914840239
30
0
41
1
10
12.3913608169924
20
-3.81053980773478
30
0
41
1
10
12.2020036296921
20
-3.79620053488864
30
0
41
1
10
12.1075512452731
20
-3.78705107926837
30
0
41
1
10
11.824659693295
20
-3.7538894061021
30
0
41
1
10
11.6366796134997
20
-3.72417945554918
30
0
41
1
10
11.3549594105142
20
-3.66877851995591
30
0
41
1
10
11.2611021120831
20
-3.64848446426623
30
0
41
1
10
11.0734298719377
20
-3.60412303523503
30
0
41
1
10
10.9796101352071
20
-3.58006914778332
30
0
41
1
10
10.6980078269939
20
-3.50248671700047
30
0
41
1
10
10.510079038346
20
-3.44355058580422
30
0
41
1
10
10.227249345996
20
-3.34477606684354
30
0
41
1
10
10.1328203513663
20
-3.31011009213924
30
0
41
1
10
9.94358047715974
20
-3.23715613326379
30
0
41
1
10
9.84876771105638
20
-3.19887248908159
30
0
41
1
10
9.70616328489848
20
-3.13883073845088
30
0
41
1
10
9.65854280610102
20
-3.11837033880755
30
0
41
1
10
9.56343925287348
20
-3.07671133515274
30
0
41
1
10
9.42089578440164
20
-3.01307576962384
30
0
41
1
10
9.27861471552217
20
-2.9461021855459
30
0
41
1
10
9.08903655441475
20
-2.85394879817915
30
0
41
1
10
8.99431356871591
20
-2.80644293949771
30
0
41
1
10
8.80494180259473
20
-2.70852515778057
30
0
41
1
10
8.71029251952808
20
-2.6581116887362
30
0
41
1
10
8.61561072754651
20
-2.60634496724435
30
0
0
SPLINE
5
F4
100
AcDbEntity
8
1
62
256
6
ByLayer
370
18
48
1
60
0
100
AcDbSpline
70
4
71
3
72
8
73
4
40
0
40
0
40
0
40
0
40
1
40
1
40
1
40
1
41
1
10
26.7298325622837
20
-3.47896039949171
30
0
41
1
10
26.7288511414542
20
-3.48037956646377
30
0
41
1
10
26.7278620225838
20
-3.48179064830217
30
0
41
1
10
26.7268652409713
20
-3.48319367899955
30
0
0
SPLINE
5
F5
100
AcDbEntity
8
1
62
256
6
ByLayer
370
18
48
1
60
0
100
AcDbSpline
70
4
71
3
72
16
73
12
40
0
40
0
40
0
40
0
40
0.250000000000003
40
0.250000000000003
40
0.375000000000003
40
0.375000000000003
40
0.500000000000002
40
0.500000000000002
40
0.750000000000001
40
0.750000000000001
40
1
40
1
40
1
40
1
41
1
10
26.5102286091136
20
-2.05498476182004
30
0
41
1
10
26.528770691936
20
-2.173402723952
30
0
41
1
10
26.5473915498982
20
-2.2917371208903
30
0
41
1
10
26.575219165298
20
-2.46934869176249
30
0
41
1
10
26.5844692786639
20
-2.52858057906667
30
0
41
1
10
26.602863327176
20
-2.64715361847197
30
0
41
1
10
26.6120151861392
20
-2.70648546505089
30
0
41
1
10
26.6393766957301
20
-2.88457540862208
30
0
41
1
10
26.6574953630892
20
-3.00342481438523
30
0
41
1
10
26.6936838945806
20
-3.24117260373629
30
0
41
1
10
26.7117531822128
20
-3.3600715658871
30
0
41
1
10
26.7298325622847
20
-3.47896039949151
30
0
0
SPLINE
5
F6
100
AcDbEntity
8
1
62
256
6
ByLayer
370
18
48
1
60
0
100
AcDbSpline
70
4
71
3
72
18
73
14
40
0
40
0
40
0
40
0
40
0.249999999999998
40
0.249999999999998
40
0.499999999999995
40
0.499999999999995
40
0.562499999999996
40
0.562499999999996
40
0.624999999999997
40
0.624999999999997
40
0.749999999999998
40
0.749999999999998
40
1
40
1
40
1
40
1
41
1
10
24.7729409342265
20
-0.315768749528019
30
0
41
1
10
24.901650228623
20
-0.482061489393857
30
0
41
1
10
25.0349793607762
20
-0.643189313697007
30
0
41
1
10
25.3105767050213
20
-0.955451192928393
30
0
41
1
10
25.4528681228299
20
-1.10655930418181
30
0
41
1
10
25.636210729958
20
-1.28931973963285
30
0
41
1
10
25.6731530769355
20
-1.32556569349308
30
0
41
1
10
25.7475820215498
20
-1.39744913640408
30
0
41
1
10
25.7851176105133
20
-1.43313170918145
30
0
41
1
10
25.8979374988816
20
-1.53871595874179
30
0
41
1
10
25.9735625703772
20
-1.60728286106948
30
0
41
1
10
26.2016109674339
20
-1.80779130447323
30
0
41
1
10
26.355204503822
20
-1.93455373429154
30
0
41
1
10
26.5102286091133
20
-2.05498476181972
30
0
0
SPLINE
5
F7
100
AcDbEntity
8
1
62
256
6
ByLayer
370
18
48
1
60
0
100
AcDbSpline
70
4
71
3
72
14
73
10
40
0
40
0
40
0
40
0
40
0.500000000000017
40
0.500000000000017
40
0.625000000000012
40
0.625000000000012
40
0.750000000000008
40
0.750000000000008
40
1
40
1
40
1
40
1
41
1
10
24.7729409342298
20
-0.315768749532253
30
0
41
1
10
24.7502867845094
20
-0.286499529745299
30
0
41
1
10
24.7315476152268
20
-0.255056834490915
30
0
41
1
10
24.7146651685319
20
-0.212105974374424
30
0
41
1
10
24.7116423083525
20
-0.203372602653815
30
0
41
1
10
24.7064022009994
20
-0.1858272050236
30
0
41
1
10
24.7041722536039
20
-0.176983913459566
30
0
41
1
10
24.6986836141664
20
-0.150234984416301
30
0
41
1
10
24.696620582011
20
-0.132111395951142
30
0
41
1
10
24.696292275316
20
-0.113666243595816
30
0
0
SPLINE
5
F8
100
AcDbEntity
8
1
62
256
6
ByLayer
370
18
48
1
60
0
100
AcDbSpline
70
4
71
5
72
32
73
26
40
0
40
0
40
0
40
0
40
0
40
0
40
0.036768328931814
40
0.0763889861906126
40
0.135819972078811
40
0.175440629337609
40
0.234871615225807
40
0.274492272484606
40
0.333923258372804
40
0.393354244261001
40
0.4329749015198
40
0.492405887407998
40
0.532026544666797
40
0.591457530554995
40
0.631078187813793
40
0.690509173701991
40
0.749940159590189
40
0.789560816848987
40
0.848991802737185
40
0.888612459995984
40
0.948043445884182
40
0.987664103142981
40
1
40
1
40
1
40
1
40
1
40
1
41
1
10
17.6484549662319
20
2.26908687032903
30
0
41
1
10
17.7002824063196
20
2.26339640643624
30
0
41
1
10
17.807957835695
20
2.25097017576252
30
0
41
1
10
17.9994052490022
20
2.2266549767111
30
0
41
1
10
18.2467006515971
20
2.19019410165166
30
0
41
1
10
18.5777680381238
20
2.13282404306673
30
0
41
1
10
18.9128559738506
20
2.06522836296128
30
0
41
1
10
19.2758679042213
20
1.9820395433922
30
0
41
1
10
19.638879834592
20
1.88925142666793
30
0
41
1
10
20.0018917649627
20
1.78640978355463
30
0
41
1
10
20.3649036953334
20
1.67493389017494
30
0
41
1
10
20.7279156257041
20
1.55457265526047
30
0
41
1
10
21.0909275560748
20
1.42673017688432
30
0
41
1
10
21.4260154918016
20
1.30232788659714
30
0
41
1
10
21.7890274221722
20
1.16129979548126
30
0
41
1
10
22.1520393525429
20
1.01462453323279
30
0
41
1
10
22.5150512829136
20
0.862536770769452
30
0
41
1
10
22.8780632132843
20
0.706280111295229
30
0
41
1
10
23.241075143655
20
0.546291650433716
30
0
41
1
10
23.6040870740257
20
0.383703319833614
30
0
41
1
10
23.9391750097525
20
0.231872949791665
30
0
41
1
10
24.2358032350135
20
0.0965867127023046
30
0
41
1
10
24.4486594763427
20
-0.000654331611031
30
0
41
1
10
24.6056677283842
20
-0.0723292143178185
30
0
41
1
10
24.678903996494
20
-0.105736165182975
30
0
41
1
10
24.696292275316
20
-0.113666243595816
30
0
0
SPLINE
5
F9
100
AcDbEntity
8
1
62
256
6
ByLayer
370
18
48
1
60
0
100
AcDbSpline
70
4
71
3
72
74
73
70
40
0
40
0
40
0
40
0
40
0.0424998416917814
40
0.0424998416917814
40
0.0849996833835627
40
0.0849996833835627
40
0.169999366767124
40
0.169999366767124
40
0.191249287613015
40
0.191249287613015
40
0.20187424803596
40
0.20187424803596
40
0.212499208458905
40
0.254999050150688
40
0.254999050150688
40
0.339998733534252
40
0.339998733534252
40
0.382498575226035
40
0.382498575226035
40
0.403748496071926
40
0.403748496071926
40
0.414373456494872
40
0.414373456494872
40
0.424998416917817
40
0.424998416917817
40
0.509998100301379
40
0.509998100301379
40
0.55249794199316
40
0.55249794199316
40
0.57374786283905
40
0.57374786283905
40
0.594997783684941
40
0.594997783684941
40
0.616247704530832
40
0.616247704530832
40
0.626872664953776
40
0.626872664953776
40
0.637497625376721
40
0.658747546222611
40
0.658747546222611
40
0.6799974670685
40
0.6799974670685
40
0.72249730876028
40
0.72249730876028
40
0.743747229606169
40
0.743747229606169
40
0.764997150452059
40
0.764997150452059
40
0.786247071297948
40
0.786247071297948
40
0.807496992143838
40
0.807496992143838
40
0.828746912989728
40
0.828746912989728
40
0.839371873412672
40
0.839371873412672
40
0.849996833835617
40
0.849996833835617
40
0.871246754681506
40
0.871246754681506
40
0.892496675527394
40
0.892496675527394
40
0.93499651721917
40
0.93499651721917
40
0.956246438065058
40
0.956246438065058
40
0.977496358910946
40
0.977496358910946
40
1
40
1
40
1
40
1
41
1
10
26.7268652409715
20
-3.48319367899981
30
0
41
1
10
26.5371825876989
20
-3.42536654378472
30
0
41
1
10
26.3484990428353
20
-3.3602590426604
30
0
41
1
10
25.9720348232527
20
-3.21679659841524
30
0
41
1
10
25.7842596300032
20
-3.13842882209639
30
0
41
1
10
25.2208739283188
20
-2.88513322441995
30
0
41
1
10
24.8452810726333
20
-2.69189783144688
30
0
41
1
10
24.3718008276787
20
-2.42253201132164
30
0
41
1
10
24.2769024809626
20
-2.36727193329674
30
0
41
1
10
24.1341698557405
20
-2.2823545303805
30
0
41
1
10
24.0865679645794
20
-2.25373405767039
30
0
41
1
10
23.9915593452823
20
-2.19603526056809
30
0
41
1
10
23.754338768068
20
-2.05053300425743
30
0
41
1
10
23.5184536013691
20
-1.89897880537154
30
0
41
1
10
22.9536094843729
20
-1.52534327795544
30
0
41
1
10
22.5787496097176
20
-1.26307949025212
30
0
41
1
10
22.0142198263848
20
-0.855928114231773
30
0
41
1
10
21.8256636907995
20
-0.717930817921342
30
0
41
1
10
21.5416333347156
20
-0.508285058643594
30
0
41
1
10
21.4467571931271
20
-0.437960896612623
30
0
41
1
10
21.3040632737351
20
-0.331906282560709
30
0
41
1
10
21.2564403622705
20
-0.296463698600121
30
0
41
1
10
21.1614067435784
20
-0.225669137753783
30
0
41
1
10
21.1139520222458
20
-0.190284473697915
30
0
41
1
10
20.6873559780898
20
0.127983962306672
30
0
41
1
10
20.3116439420081
20
0.409478582508882
30
0
41
1
10
19.7484954113029
20
0.823227232613988
30
0
41
1
10
19.5608571028676
20
0.959732276533288
30
0
41
1
10
19.2788979616354
20
1.16154018636644
30
0
41
1
10
19.1848269862324
20
1.22831714168163
30
0
41
1
10
18.9964094328846
20
1.36074350761339
30
0
41
1
10
18.9020646386099
20
1.42639256154448
30
0
41
1
10
18.7129587667553
20
1.5564130831076
30
0
41
1
10
18.618194398283
20
1.62078606395065
30
0
41
1
10
18.4756807398492
20
1.71629481272788
30
0
41
1
10
18.4280827729811
20
1.74797706497657
30
0
41
1
10
18.332903404208
20
1.8108728493138
30
0
41
1
10
18.1903376250222
20
1.90439589820014
30
0
41
1
10
18.0483415830409
20
1.99539264911385
30
0
41
1
10
17.8594464110227
20
2.11434281240642
30
0
41
1
10
17.7652285071568
20
2.17261471455703
30
0
41
1
10
17.4828881655742
20
2.34383123137326
30
0
41
1
10
17.2949994344624
20
2.45328590822248
30
0
41
1
10
17.0134136065253
20
2.60962480499839
30
0
41
1
10
16.9195884220813
20
2.66043005010636
30
0
41
1
10
16.731934794374
20
2.7592730743774
30
0
41
1
10
16.6381154303072
20
2.80729240713731
30
0
41
1
10
16.4503173136991
20
2.90052240373407
30
0
41
1
10
16.3563227188317
20
2.94576584233408
30
0
41
1
10
16.1680529895487
20
3.03342404306886
30
0
41
1
10
16.0737881933132
20
3.07581815729162
30
0
41
1
10
15.884924476439
20
3.15755432111641
30
0
41
1
10
15.7903234337705
20
3.19690133877683
30
0
41
1
10
15.6480941871218
20
3.25350972842119
30
0
41
1
10
15.600629755432
20
3.27197692883186
30
0
41
1
10
15.5055781876527
20
3.30808197057522
30
0
41
1
10
15.4579693685869
20
3.32572617163365
30
0
41
1
10
15.3154492201834
20
3.37725185926476
30
0
41
1
10
15.2206587821165
20
3.40982066873875
30
0
41
1
10
15.0313839750413
20
3.47147936656813
30
0
41
1
10
14.9369217288705
20
3.50052968626011
30
0
41
1
10
14.6540037223159
20
3.58211893191395
30
0
41
1
10
14.4660107916738
20
3.62910998970159
30
0
41
1
10
14.1843833082167
20
3.68808289315726
30
0
41
1
10
14.0905454606979
20
3.70587641005534
30
0
41
1
10
13.9027940851031
20
3.73788153061597
30
0
41
1
10
13.808892076606
20
3.75206383240956
30
0
41
1
10
13.6154333136248
20
3.77735659494499
30
0
41
1
10
13.5158761305151
20
3.78821072506506
30
0
41
1
10
13.4161966401039
20
3.79689468850464
30
0
0
SPLINE
5
FA
100
AcDbEntity
8
1
62
256
6
ByLayer
370
18
48
1
60
0
100
AcDbSpline
70
4
71
5
72
47
73
41
40
0
40
0
40
0
40
0
40
0
40
0
40
0.0048222758940005
40
0.0380658165694819
40
0.0602281770198029
40
0.0934717176952844
40
0.115634078145605
40
0.148877618821087
40
0.182121159496568
40
0.204283519946889
40
0.237527060622371
40
0.259689421072692
40
0.292932961748173
40
0.315095322198494
40
0.348338862873975
40
0.381582403549457
40
0.403744763999778
40
0.43698830467526
40
0.45915066512558
40
0.492394205801062
40
0.514556566251383
40
0.547800106926864
40
0.581043647602346
40
0.603206008052667
40
0.625368368502988
40
0.658611909178469
40
0.691855449853951
40
0.714017810304272
40
0.747261350979753
40
0.769423711430074
40
0.802667252105555
40
0.824829612555877
40
0.858073153231358
40
0.891316693906839
40
0.91347905435716
40
0.946722595032642
40
0.968884955482963
40
1
40
1
40
1
40
1
40
1
40
1
41
1
10
9.19039441177384
20
2.27536409770048
30
0
41
1
10
9.20254629483134
20
2.27409151420355
30
0
41
1
10
9.29847016182057
20
2.26391958185755
30
0
41
1
10
9.45024201809758
20
2.24624719052412
30
0
41
1
10
9.6857858583063
20
2.21497419079182
30
0
41
1
10
9.97717768780282
20
2.16900800686702
30
0
41
1
10
10.3401896181735
20
2.10127843554474
30
0
41
1
10
10.7032015485442
20
2.02337713893701
30
0
41
1
10
11.0662134789149
20
1.93471151147153
30
0
41
1
10
11.4292254092856
20
1.83669484729973
30
0
41
1
10
11.7922373396563
20
1.7289314051005
30
0
41
1
10
12.155249270027
20
1.61284117834458
30
0
41
1
10
12.4903372057538
20
1.49845956182796
30
0
41
1
10
12.8533491361245
20
1.36733689321198
30
0
41
1
10
13.2163610664951
20
1.22957377682843
30
0
41
1
10
13.5793729968659
20
1.08525698441824
30
0
41
1
10
13.9423849272365
20
0.935694821903809
30
0
41
1
10
14.3053968576072
20
0.781180834974947
30
0
41
1
10
14.6684087879779
20
0.622930742613335
30
0
41
1
10
15.0034967237047
20
0.474038695768286
30
0
41
1
10
15.3665086540754
20
0.310488527754387
30
0
41
1
10
15.7295205844461
20
0.145397380806941
30
0
41
1
10
16.0925325148168
20
-0.0204890877565163
30
0
41
1
10
16.4276204505436
20
-0.173523646729365
30
0
41
1
10
16.7906323809143
20
-0.33839059475693
30
0
41
1
10
17.153644311285
20
-0.501622709646938
30
0
41
1
10
17.4887322470117
20
-0.650135273563933
30
0
41
1
10
17.8517441773824
20
-0.80788158710655
30
0
41
1
10
18.2147561077531
20
-0.961313256982777
30
0
41
1
10
18.5777680381238
20
-1.11006233177199
30
0
41
1
10
18.9128559738506
20
-1.24245114526633
30
0
41
1
10
19.2758679042213
20
-1.37983390576184
30
0
41
1
10
19.638879834592
20
-1.51058225321864
30
0
41
1
10
20.0018917649627
20
-1.63332016200724
30
0
41
1
10
20.3649036953333
20
-1.74816374820466
30
0
41
1
10
20.7279156257041
20
-1.85370190581074
30
0
41
1
10
21.0855638570715
20
-1.94883101939954
30
0
41
1
10
21.3594401045074
20
-2.01472146094508
30
0
41
1
10
21.5774683626554
20
-2.06256937710009
30
0
41
1
10
21.7117246368717
20
-2.09024511733912
30
0
41
1
10
21.7901329218001
20
-2.10579091513142
30
0
0
SPLINE
5
FB
100
AcDbEntity
8
1
62
256
6
ByLayer
370
18
48
1
60
0
100
AcDbSpline
70
4
71
3
72
93
73
89
40
0
40
0
40
0
40
0
40
0.0174218567675769
40
0.0174218567675769
40
0.0930047908623767
40
0.0930047908623767
40
0.130796257909777
40
0.130796257909777
40
0.149691991433477
40
0.149691991433477
40
0.159139858195327
40
0.159139858195327
40
0.168587724957177
40
0.168587724957177
40
0.244170659051983
40
0.244170659051983
40
0.281962126099385
40
0.281962126099385
40
0.300857859623086
40
0.300857859623086
40
0.319753593146788
40
0.319753593146788
40
0.338649326670489
40
0.338649326670489
40
0.34809719343234
40
0.34809719343234
40
0.357545060194191
40
0.376440793717893
40
0.376440793717893
40
0.395336527241596
40
0.395336527241596
40
0.433127994289
40
0.433127994289
40
0.452023727812701
40
0.452023727812701
40
0.470919461336403
40
0.470919461336403
40
0.489815194860105
40
0.489815194860105
40
0.508710928383806
40
0.508710928383806
40
0.527606661907508
40
0.527606661907508
40
0.537054528669359
40
0.537054528669359
40
0.54650239543121
40
0.54650239543121
40
0.565398128954911
40
0.565398128954911
40
0.584293862478611
40
0.584293862478611
40
0.622085329526013
40
0.622085329526013
40
0.640981063049714
40
0.640981063049714
40
0.659876796573414
40
0.659876796573414
40
0.697668263620815
40
0.697668263620815
40
0.716563997144516
40
0.726011863906366
40
0.726011863906366
40
0.735459730668216
40
0.735459730668216
40
0.754355464191915
40
0.754355464191915
40
0.773251197715614
40
0.773251197715614
40
0.811042664763011
40
0.811042664763011
40
0.82993839828671
40
0.82993839828671
40
0.848834131810409
40
0.848834131810409
40
0.886625598857807
40
0.886625598857807
40
0.905521332381506
40
0.905521332381506
40
0.924417065905205
40
0.924417065905205
40
0.933864932667054
40
0.933864932667054
40
0.943312799428903
40
0.962208532952602
40
0.962208532952602
40
0.981104266476301
40
0.981104266476301
40
1
40
1
40
1
40
1
41
1
10
23.5908792335017
20
-3.14804184394416
30
0
41
1
10
23.5038582548364
20
-3.18491222565299
30
0
41
1
10
23.4169698941462
20
-3.22036181267032
30
0
41
1
10
22.9536094843726
20
-3.40193189952461
30
0
41
1
10
22.5787496097173
20
-3.52250396929136
30
0
41
1
10
22.0142198263845
20
-3.65996410345724
30
0
41
1
10
21.8256636907993
20
-3.69855920825043
30
0
41
1
10
21.5416333347154
20
-3.74519566275245
30
0
41
1
10
21.4467571931269
20
-3.75886358419385
30
0
41
1
10
21.304063273735
20
-3.77648466200282
30
0
41
1
10
21.2564403622703
20
-3.78187633706884
30
0
41
1
10
21.1614067435782
20
-3.79165768952205
30
0
41
1
10
21.1139520222456
20
-3.79605307245512
30
0
41
1
10
20.6873559780896
20
-3.83117979700114
30
0
41
1
10
20.3116439420079
20
-3.8310325813203
30
0
41
1
10
19.7484954113027
20
-3.78468889482841
30
0
41
1
10
19.5608571028674
20
-3.761520921906
30
0
41
1
10
19.2788979616352
20
-3.71524586324227
30
0
41
1
10
19.1848269862322
20
-3.69790338714876
30
0
41
1
10
18.9964094328843
20
-3.65939564660579
30
0
41
1
10
18.9020646386097
20
-3.63821618262239
30
0
41
1
10
18.7129587667552
20
-3.59224793789457
30
0
41
1
10
18.6181943982828
20
-3.56748970592631
30
0
41
1
10
18.475680739849
20
-3.52755575646853
30
0
41
1
10
18.4280827729809
20
-3.51376589108597
30
0
41
1
10
18.3329034042078
20
-3.48527491049214
30
0
41
1
10
18.190337625022
20
-3.44122895586304
30
0
41
1
10
18.0483415830407
20
-3.39326144977682
30
0
41
1
10
17.8594464110226
20
-3.32581489471752
30
0
41
1
10
17.7652285071567
20
-3.29030547597697
30
0
41
1
10
17.4828881655741
20
-3.17916559820424
30
0
41
1
10
17.2949994344623
20
-3.09920080724893
30
0
41
1
10
17.0134136065251
20
-2.97005688333519
30
0
41
1
10
16.9195884220811
20
-2.92548424211748
30
0
41
1
10
16.7319347943738
20
-2.8332710160216
30
0
41
1
10
16.6381154303071
20
-2.78559216883258
30
0
41
1
10
16.4503173136989
20
-2.68742634944465
30
0
41
1
10
16.3563227188316
20
-2.6370067940139
30
0
41
1
10
16.1680529895485
20
-2.53357445932736
30
0
41
1
10
16.073788193313
20
-2.48051850795937
30
0
41
1
10
15.8849244764389
20
-2.3716701048269
30
0
41
1
10
15.7903234337703
20
-2.31588732539527
30
0
41
1
10
15.6480941871216
20
-2.23017493035473
30
0
41
1
10
15.6006297554319
20
-2.20126429620143
30
0
41
1
10
15.5055781876525
20
-2.1427618770856
30
0
41
1
10
15.4579693685867
20
-2.11315538394373
30
0
41
1
10
15.3154492201833
20
-2.02373690494062
30
0
41
1
10
15.2206587821163
20
-1.96325378396094
30
0
41
1
10
15.0313839750412
20
-1.84076748720028
30
0
41
1
10
14.9369217288704
20
-1.77872103862535
30
0
41
1
10
14.6540037223158
20
-1.59018027979411
30
0
41
1
10
14.4660107916737
20
-1.46129713492405
30
0
41
1
10
14.1843833082166
20
-1.26384917320655
30
0
41
1
10
14.0905454606977
20
-1.1973943484613
30
0
41
1
10
13.902794085103
20
-1.06346438062624
30
0
41
1
10
13.8088920766058
20
-0.995963971134387
30
0
41
1
10
13.5270190208941
20
-0.791905642807762
30
0
41
1
10
13.3389035382785
20
-0.653730286975815
30
0
41
1
10
13.0557612395074
20
-0.444145547885199
30
0
41
1
10
12.913944620268
20
-0.338781580854459
30
0
41
1
10
12.7716309134837
20
-0.232741788247068
30
0
41
1
10
12.6766311926056
20
-0.161916405798564
30
0
41
1
10
12.6290368882864
20
-0.126414120696324
30
0
41
1
10
12.486274587203
20
-0.0198959620394135
30
0
41
1
10
12.3913608169925
20
0.05096544084779
30
0
41
1
10
12.2020036296921
20
0.192289400188088
30
0
41
1
10
12.1075512452732
20
0.262744620057561
30
0
41
1
10
11.824659693295
20
0.473246014910245
30
0
41
1
10
11.6366796134997
20
0.612422783558543
30
0
41
1
10
11.3549594105142
20
0.818643587788813
30
0
41
1
10
11.2611021120831
20
0.88696528097455
30
0
41
1
10
11.0734298719377
20
1.0226588142273
30
0
41
1
10
10.9796101352071
20
1.09002741052711
30
0
41
1
10
10.698007826994
20
1.29047707060687
30
0
41
1
10
10.510079038346
20
1.42190107587354
30
0
41
1
10
10.227249345996
20
1.61492131596393
30
0
41
1
10
10.1328203513663
20
1.67857724538993
30
0
41
1
10
9.94358047715977
20
1.80437327039434
30
0
41
1
10
9.84876771105641
20
1.86651183113491
30
0
41
1
10
9.70616328489851
20
1.95846829882561
30
0
41
1
10
9.658542806101
20
1.98892527991251
30
0
41
1
10
9.56343925287351
20
2.04922735063616
30
0
41
1
10
9.42089578440164
20
2.13882399858554
30
0
41
1
10
9.27861471552217
20
2.22580814422184
30
0
41
1
10
9.08903655441475
20
2.33937240623044
30
0
41
1
10
8.99431356871588
20
2.39494796381206
30
0
41
1
10
8.8049418025947
20
2.50353105961239
30
0
41
1
10
8.71029251952808
20
2.5565361997576
30
0
41
1
10
8.61561072754651
20
2.60821785044641
30
0
0
SPLINE
5
FC
100
AcDbEntity
8
1
62
256
6
ByLayer
370
18
48
1
60
0
100
AcDbSpline
70
4
71
3
72
8
73
4
40
0
40
0
40
0
40
0
40
1
40
1
40
1
40
1
41
1
10
7.60199012672467
20
3.19095519386735
30
0
41
1
10
7.73232102311044
20
3.25236063325474
30
0
41
1
10
7.86265191949622
20
3.31066877255628
30
0
41
1
10
7.99298281588199
20
3.36569297937103
30
0
0
SPLINE
5
FD
100
AcDbEntity
8
1
62
256
6
ByLayer
370
18
48
1
60
0
100
AcDbSpline
70
4
71
3
72
19
73
15
40
0
40
0
40
0
40
0
40
0.0602606964975216
40
0.0602606964975216
40
0.373507130998342
40
0.373507130998342
40
0.451818739623549
40
0.490974543936153
40
0.490974543936153
40
0.530130348248756
40
0.530130348248756
40
0.686753565499171
40
0.686753565499171
40
1
40
1
40
1
40
1
41
1
10
7.60154007483843
20
-3.18832981593783
30
0
41
1
10
7.54567473669775
20
-3.21468628317032
30
0
41
1
10
7.48980977677007
20
-3.24047316197112
30
0
41
1
10
7.14348040095231
20
-3.39672294565278
30
0
41
1
10
6.85273969180054
20
-3.51215420226606
30
0
41
1
10
6.48693669371971
20
-3.63516018201605
30
0
41
1
10
6.37701679946969
20
-3.67046350945404
30
0
41
1
10
6.26676887523527
20
-3.70331203890694
30
0
41
1
10
6.19319057822187
20
-3.72465885215951
30
0
41
1
10
6.15635940052169
20
-3.73505636510623
30
0
41
1
10
5.97239729897359
20
-3.78553797857651
30
0
41
1
10
5.82552055242263
20
-3.82120229002336
30
0
41
1
10
5.3851475932683
20
-3.91389540787384
30
0
41
1
10
5.09191197141303
20
-3.95664361104963
30
0
41
1
10
4.7973713782915
20
-3.97976255051117
30
0
0
SPLINE
5
FE
100
AcDbEntity
8
1
62
256
6
ByLayer
370
18
48
1
60
0
100
AcDbSpline
70
4
71
3
72
42
73
38
40
0
40
0
40
0
40
0
40
0.125000000000002
40
0.125000000000002
40
0.250000000000004
40
0.250000000000004
40
0.375000000000006
40
0.375000000000006
40
0.406250000000007
40
0.406250000000007
40
0.437500000000007
40
0.437500000000007
40
0.500000000000008
40
0.500000000000008
40
0.562500000000009
40
0.562500000000009
40
0.62500000000001
40
0.62500000000001
40
0.687500000000011
40
0.687500000000011
40
0.71875000000001
40
0.71875000000001
40
0.750000000000009
40
0.750000000000009
40
0.781250000000009
40
0.781250000000009
40
0.812500000000008
40
0.812500000000008
40
0.875000000000004
40
0.875000000000004
40
0.906250000000003
40
0.906250000000003
40
0.921875000000002
40
0.921875000000002
40
0.937500000000002
40
0.937500000000002
40
1
40
1
40
1
40
1
41
1
10
4.79753589242677
20
-3.97970451490605
30
0
41
1
10
4.65943206891501
20
-3.990596042731
30
0
41
1
10
4.52239905396601
20
-3.99736352488094
30
0
41
1
10
4.25050078843768
20
-4.00138118711558
30
0
41
1
10
4.11668091134635
20
-3.99861882272128
30
0
41
1
10
3.85368518534875
20
-3.98238043876714
30
0
41
1
10
3.72449765693744
20
-3.9689202605563
30
0
41
1
10
3.56653650290957
20
-3.94429591604353
30
0
41
1
10
3.53513469748071
20
-3.93897993361455
30
0
41
1
10
3.47289633536315
20
-3.92756250190914
30
0
41
1
10
3.44203793393081
20
-3.92145779883538
30
0
41
1
10
3.35029303275132
20
-3.90190857817069
30
0
41
1
10
3.2902328211735
20
-3.88723223639019
30
0
41
1
10
3.17265674470994
20
-3.85427424302569
30
0
41
1
10
3.11513866979786
20
-3.83599446161043
30
0
41
1
10
3.00313616696792
20
-3.79538704248461
30
0
41
1
10
2.94864759055963
20
-3.77306283245278
30
0
41
1
10
2.84343753673312
20
-3.723721877261
30
0
41
1
10
2.79270744623312
20
-3.69671211331496
30
0
41
1
10
2.72030493101136
20
-3.65193332688196
30
0
41
1
10
2.69684796162073
20
-3.63632347573659
30
0
41
1
10
2.6517404729878
20
-3.60379172803482
30
0
41
1
10
2.63005097341119
20
-3.58684676235419
30
0
41
1
10
2.58864607156016
20
-3.55146961277455
30
0
41
1
10
2.5689298185942
20
-3.53303784980062
30
0
41
1
10
2.53178807280119
20
-3.49452179402814
30
0
41
1
10
2.514340225925
20
-3.4744104782701
30
0
41
1
10
2.46619773691526
20
-3.41144622215577
30
0
41
1
10
2.44015336119284
20
-3.36664982628562
30
0
41
1
10
2.41287393224928
20
-3.29456746421403
30
0
41
1
10
2.40575772908693
20
-3.26972230756573
30
0
41
1
10
2.39855359584277
20
-3.23110609681447
30
0
41
1
10
2.39673202323308
20
-3.21800893951627
30
0
41
1
10
2.39435395222449
20
-3.19133915427301
30
0
41
1
10
2.39380192557877
20
-3.17772361967747
30
0
41
1
10
2.39446219295621
20
-3.10944426562381
30
0
41
1
10
2.40577731471777
20
-3.05355206006169
30
0
41
1
10
2.42910332920775
20
-2.99678251333179
30
0
0
SPLINE
5
FF
100
AcDbEntity
8
1
62
256
6
ByLayer
370
18
48
1
60
0
100
AcDbSpline
70
4
71
3
72
45
73
41
40
0
40
0
40
0
40
0
40
0.0624999999999972
40
0.0624999999999972
40
0.0781249999999968
40
0.0781249999999968
40
0.0937499999999963
40
0.124999999999996
40
0.124999999999996
40
0.187499999999995
40
0.187499999999995
40
0.218749999999994
40
0.218749999999994
40
0.249999999999993
40
0.249999999999993
40
0.312499999999994
40
0.312499999999994
40
0.343749999999994
40
0.343749999999994
40
0.374999999999994
40
0.374999999999994
40
0.437499999999995
40
0.437499999999995
40
0.468749999999995
40
0.468749999999995
40
0.499999999999996
40
0.499999999999996
40
0.56249999999999
40
0.56249999999999
40
0.624999999999984
40
0.624999999999984
40
0.687499999999978
40
0.687499999999978
40
0.718749999999979
40
0.718749999999979
40
0.749999999999979
40
0.749999999999979
40
0.87499999999999
40
0.87499999999999
40
1
40
1
40
1
40
1
41
1
10
2.42910332920616
20
-2.99678251332685
30
0
41
1
10
2.4164130969574
20
-2.96100422190872
30
0
41
1
10
2.40673516878093
20
-2.92393486856625
30
0
41
1
10
2.39925107586916
20
-2.87575361647015
30
0
41
1
10
2.39798456139147
20
-2.86600556394618
30
0
41
1
10
2.39595320428782
20
-2.84643526142841
30
0
41
1
10
2.3936548199805
20
-2.8169659876211
30
0
41
1
10
2.39365241299399
20
-2.78716170880708
30
0
41
1
10
2.39686028446854
20
-2.72712434693031
30
0
41
1
10
2.40327360936612
20
-2.68652724643411
30
0
41
1
10
2.42004949339807
20
-2.62485106254457
30
0
41
1
10
2.42686770794737
20
-2.60411332993337
30
0
41
1
10
2.44267019601884
20
-2.56323631419338
30
0
41
1
10
2.45167516829784
20
-2.54299719232938
30
0
41
1
10
2.48191262457516
20
-2.48290137733255
30
0
41
1
10
2.50636341797301
20
-2.44366591351349
30
0
41
1
10
2.54920626750499
20
-2.38615313686739
30
0
41
1
10
2.56458191621829
20
-2.36713843303875
30
0
41
1
10
2.59680308692327
20
-2.33017680243248
30
0
41
1
10
2.6136858619484
20
-2.31216752393524
30
0
41
1
10
2.6664543556079
20
-2.25946375693167
30
0
41
1
10
2.70445210384986
20
-2.22608946754073
30
0
41
1
10
2.76507699028272
20
-2.17839559862568
30
0
41
1
10
2.78589224164904
20
-2.16289329916532
30
0
41
1
10
2.82865924746693
20
-2.1326449836352
30
0
41
1
10
2.85065387636314
20
-2.11787494193467
30
0
41
1
10
2.91750961095212
20
-2.07510488674706
30
0
41
1
10
2.96344230335359
20
-2.04848117652369
30
0
41
1
10
3.05756055114478
20
-1.99844020161146
30
0
41
1
10
3.10574847787169
20
-1.97502576921713
30
0
41
1
10
3.20405522927271
20
-1.93101109641725
30
0
41
1
10
3.25417535148051
20
-1.91041241298595
30
0
41
1
10
3.33062911107277
20
-1.88141210974686
30
0
41
1
10
3.35632654981399
20
-1.87206234676643
30
0
41
1
10
3.40812373808439
20
-1.85396830993204
30
0
41
1
10
3.43420377041534
20
-1.84523208821506
30
0
41
1
10
3.56481089770097
20
-1.80322696933072
30
0
41
1
10
3.67053505904462
20
-1.77472888896793
30
0
41
1
10
3.88391343665523
20
-1.72591569067742
30
0
41
1
10
3.99157296542933
20
-1.70561985726979
30
0
41
1
10
4.10004414605265
20
-1.68883701920373
30
0
0
SPLINE
5
100
100
AcDbEntity
8
1
62
256
6
ByLayer
370
18
48
1
60
0
100
AcDbSpline
70
4
71
3
72
28
73
24
40
0
40
0
40
0
40
0
40
0.0625
40
0.0625
40
0.125
40
0.125
40
0.1875
40
0.1875
40
0.21875
40
0.21875
40
0.25
40
0.25
40
0.375
40
0.375
40
0.5
40
0.5
40
0.5625
40
0.5625
40
0.625
40
0.625
40
0.75
40
0.75
40
1
40
1
40
1
40
1
41
1
10
4.10004414605581
20
-1.68883701920305
30
0
41
1
10
4.13647385872744
20
-1.68320055461362
30
0
41
1
10
4.17302139518875
20
-1.67918985906252
30
0
41
1
10
4.24631218474821
20
-1.67388086499321
30
0
41
1
10
4.28305572862803
20
-1.67258640604248
30
0
41
1
10
4.35671419939894
20
-1.67237594483498
30
0
41
1
10
4.3936292683124
20
-1.67346182530451
30
0
41
1
10
4.44911851417751
20
-1.67670730560971
30
0
41
1
10
4.46762665503906
20
-1.6780598420153
30
0
41
1
10
4.50444721450879
20
-1.68125895344323
30
0
41
1
10
4.52278971988676
20
-1.68310710365881
30
0
41
1
10
4.6141827910574
20
-1.69351682179786
30
0
41
1
10
4.68628392118245
20
-1.70555390025365
30
0
41
1
10
4.82878333656168
20
-1.73576297510488
30
0
41
1
10
4.89917793517981
20
-1.75394826659738
30
0
41
1
10
5.00361455583248
20
-1.78528570487757
30
0
41
1
10
5.03823335975409
20
-1.79641103169547
30
0
41
1
10
5.1070973218018
20
-1.81995418469543
30
0
41
1
10
5.14140533456299
20
-1.83239805498249
30
0
41
1
10
5.24299199504281
20
-1.87127280286521
30
0
41
1
10
5.30912750356109
20
-1.89929605952128
30
0
41
1
10
5.50321723905896
20
-1.98878062834188
30
0
41
1
10
5.62687550570678
20
-2.05563111934336
30
0
41
1
10
5.745519862902
20
-2.12790794541007
30
0
0
SPLINE
5
101
100
AcDbEntity
8
1
62
256
6
ByLayer
370
18
48
1
60
0
100
AcDbSpline
70
4
71
3
72
10
73
6
40
0
40
0
40
0
40
0
40
0.5
40
0.5
40
1
40
1
40
1
40
1
41
1
10
5.74549425818799
20
-2.12789234797057
30
0
41
1
10
6.12007568447029
20
-2.37570133647316
30
0
41
1
10
6.4946571107526
20
-2.60634678513068
30
0
41
1
10
7.24381996331724
20
-3.02227864593024
30
0
41
1
10
7.61840138959957
20
-3.20754900553004
30
0
41
1
10
7.99298281588187
20
-3.36569297937118
30
0
0
SPLINE
5
102
100
AcDbEntity
8
1
62
256
6
ByLayer
370
18
48
1
60
0
100
AcDbSpline
70
4
71
3
72
18
73
14
40
0
40
0
40
0
40
0
40
0.250000000000004
40
0.250000000000004
40
0.375000000000004
40
0.375000000000004
40
0.500000000000005
40
0.500000000000005
40
0.750000000000005
40
0.750000000000005
40
0.875000000000003
40
0.875000000000003
40
1
40
1
40
1
40
1
41
1
10
7.99296646290625
20
-3.36568666769892
30
0
41
1
10
8.00752701485004
20
-3.31300412382603
30
0
41
1
10
8.0272346400657
20
-3.25810305812567
30
0
41
1
10
8.0613381754782
20
-3.1722817290007
30
0
41
1
10
8.07348367756572
20
-3.14309641884697
30
0
41
1
10
8.09898379456641
20
-3.08354464848
30
0
41
1
10
8.11235233012468
20
-3.0531491178088
30
0
41
1
10
8.15376569154949
20
-2.96037748171182
30
0
41
1
10
8.18306371275528
20
-2.89648630958916
30
0
41
1
10
8.22835327934848
20
-2.79743679272568
30
0
41
1
10
8.24367935931178
20
-2.76388468823089
30
0
41
1
10
8.27464668071792
20
-2.69568192396613
30
0
41
1
10
8.29029692021572
20
-2.66101122395429
30
0
41
1
10
8.30599758400871
20
-2.62588393152063
30
0
0
SPLINE
5
103
100
AcDbEntity
8
1
62
256
6
ByLayer
370
18
48
1
60
0
100
AcDbSpline
70
4
71
3
72
19
73
15
40
0
40
0
40
0
40
0
40
0.250000000000009
40
0.250000000000009
40
0.500000000000018
40
0.500000000000018
40
0.562500000000021
40
0.59375000000002
40
0.59375000000002
40
0.625000000000019
40
0.625000000000019
40
0.750000000000013
40
0.750000000000013
40
1
40
1
40
1
40
1
41
1
10
8.30599758399512
20
-2.62588393151259
30
0
41
1
10
8.01454502982938
20
-2.4541123439102
30
0
41
1
10
7.72438734025329
20
-2.27035974582776
30
0
41
1
10
7.14348040095172
20
-1.88244453987207
30
0
41
1
10
6.85273969180003
20
-1.678272779797
30
0
41
1
10
6.48693669371929
20
-1.41234932967305
30
0
41
1
10
6.37701679946929
20
-1.33176876254421
30
0
41
1
10
6.2667688752349
20
-1.25004032562617
30
0
41
1
10
6.1931905782215
20
-1.1953060348211
30
0
41
1
10
6.15635940052135
20
-1.16781278604239
30
0
41
1
10
5.97239729897331
20
-1.03004933244648
30
0
41
1
10
5.82552055242235
20
-0.918645641186856
30
0
41
1
10
5.38514759326816
20
-0.581651259913144
30
0
41
1
10
5.09191197141297
20
-0.35327618526776
30
0
41
1
10
4.79737137829153
20
-0.123265127309281
30
0
0
SPLINE
5
104
100
AcDbEntity
8
1
62
256
6
ByLayer
370
18
48
1
60
0
100
AcDbSpline
70
4
71
3
72
28
73
24
40
0
40
0
40
0
40
0
40
0.0624999999999877
40
0.0624999999999877
40
0.124999999999975
40
0.124999999999975
40
0.187499999999963
40
0.187499999999963
40
0.218749999999963
40
0.218749999999963
40
0.249999999999962
40
0.249999999999962
40
0.374999999999961
40
0.374999999999961
40
0.49999999999996
40
0.49999999999996
40
0.562499999999965
40
0.562499999999965
40
0.62499999999997
40
0.62499999999997
40
0.74999999999998
40
0.74999999999998
40
1
40
1
40
1
40
1
41
1
10
4.10004414606175
20
3.49935353774851
30
0
41
1
10
4.13647385873321
20
3.50236555351228
30
0
41
1
10
4.17302139519435
20
3.5044944046071
30
0
41
1
10
4.24631218475352
20
3.50730961282832
30
0
41
1
10
4.28305572863323
20
3.50799343249375
30
0
41
1
10
4.35671419940391
20
3.50810474997215
30
0
41
1
10
4.39362926831728
20
3.50753102382365
30
0
41
1
10
4.44911851418229
20
3.50581102196261
30
0
41
1
10
4.46762665504377
20
3.50509365985892
30
0
41
1
10
4.50444721451331
20
3.50339393002221
30
0
41
1
10
4.52278971989119
20
3.50241072428173
30
0
41
1
10
4.61418279106141
20
3.4968606804714
30
0
41
1
10
4.68628392118617
20
3.49041207674276
30
0
41
1
10
4.82878333656487
20
3.47394510472353
30
0
41
1
10
4.89917793518282
20
3.46391903380206
30
0
41
1
10
5.00361455583518
20
3.44625511538928
30
0
41
1
10
5.03823335975667
20
3.43992756930137
30
0
41
1
10
5.10709732180425
20
3.42638313284672
30
0
41
1
10
5.14140533456532
20
3.41915068287312
30
0
41
1
10
5.24299199504463
20
3.39627404959634
30
0
41
1
10
5.30912750356262
20
3.3794238045673
30
0
41
1
10
5.50321723905969
20
3.32403695911435
30
0
41
1
10
5.62687550570712
20
3.28068839236107
30
0
41
1
10
5.74551986290203
20
3.23034924633092
30
0
0
SPLINE
5
105
100
AcDbEntity
8
1
62
256
6
ByLayer
370
18
48
1
60
0
100
AcDbSpline
70
4
71
3
72
10
73
6
40
0
40
0
40
0
40
0
40
0.5
40
0.5
40
1
40
1
40
1
40
1
41
1
10
5.74549425818802
20
3.23036010953862
30
0
41
1
10
6.12007568447032
20
3.05776843964458
30
0
41
1
10
6.49465711075266
20
2.859141925719
30
0
41
1
10
7.24381996331726
20
2.41931967529734
30
0
41
1
10
7.61840138959957
20
2.17814091337311
30
0
41
1
10
7.9929828158819
20
1.92146240155969
30
0
0
SPLINE
5
106
100
AcDbEntity
8
1
62
256
6
ByLayer
370
18
48
1
60
0
100
AcDbSpline
70
4
71
3
72
105
73
101
40
0
40
0
40
0
40
0
40
0.0075524820410049
40
0.0151155975163269
40
0.0226898090325175
40
0.0302755769420073
40
0.0378733592771842
40
0.0454836116860401
40
0.0531067873702233
40
0.0607433370246364
40
0.068393708779523
40
0.0760583481440618
40
0.0837376979526452
40
0.0914321983126476
40
0.0991422865548207
40
0.106868397185284
40
0.11461096184011
40
0.122370409241583
40
0.130147165156981
40
0.137941652358972
40
0.14575429058875
40
0.153585496520575
40
0.161435683728961
40
0.169305262657462
40
0.177194640589995
40
0.185104221623638
40
0.193034406643939
40
0.200985593301817
40
0.208958175992635
40
0.216952545837241
40
0.224969090664554
40
0.233008194996505
40
0.241070240034427
40
0.249155603647382
40
0.257264660362283
40
0.265397781355626
40
0.273555334447031
40
0.281737684094322
40
0.289945191390291
40
0.298178214060905
40
0.306437106465227
40
0.314722219596579
40
0.323033901085371
40
0.331372495203146
40
0.339738342868059
40
0.348131781651681
40
0.356553145786945
40
0.365002766177462
40
0.373480970407958
40
0.381988082755764
40
0.390524424203487
40
0.399090312452736
40
0.407686061938741
40
0.416311983846031
40
0.424968386125057
40
0.433655573509543
40
0.442373847534816
40
0.451123506556867
40
0.459904845772216
40
0.468718157238402
40
0.478363144817777
40
0.488190895177876
40
0.498201858847055
40
0.5083964617856
40
0.518775107022405
40
0.529338176156477
40
0.540086030735758
40
0.551019013524668
40
0.562137449670235
40
0.573441647776265
40
0.584931900893253
40
0.596608487431971
40
0.60847167200689
40
0.620521706215847
40
0.632758829361047
40
0.645183269116669
40
0.657795242147221
40
0.670594954680955
40
0.683582603041777
40
0.696758374143235
40
0.710122445947432
40
0.72367498789177
40
0.737416161285946
40
0.751346119681671
40
0.765465009217028
40
0.77977296893757
40
0.794270131095941
40
0.808956621431428
40
0.823832559431289
40
0.838898058574951
40
0.854153226562505
40
0.869598165528641
40
0.88523297224308
40
0.901057738298541
40
0.917072550287195
40
0.933277489966426
40
0.949672634414727
40
0.966258056178491
40
0.983033823410394
40
1
40
1
40
1
40
1
41
1
10
4.79739493653022
20
-0.123778447825998
30
0
41
1
10
4.80475922538926
20
-0.127086643329932
30
0
41
1
10
4.81949817157707
20
-0.133707692075433
30
0
41
1
10
4.84163416811765
20
-0.143410360558306
30
0
41
1
10
4.86381126369179
20
-0.152951778730511
30
0
41
1
10
4.88603178403116
20
-0.162313224068726
30
0
41
1
10
4.90829701338526
20
-0.171497326225278
30
0
41
1
10
4.93060852183658
20
-0.180500960171202
30
0
41
1
10
4.9529678082672
20
-0.189322526413662
30
0
41
1
10
4.97537639566394
20
-0.197959996179321
30
0
41
1
10
4.99783580491993
20
-0.206411437004533
30
0
41
1
10
5.0203475612598
20
-0.214674872081048
30
0
41
1
10
5.04291319188883
20
-0.222748318592636
30
0
41
1
10
5.06553422598671
20
-0.230629777978152
30
0
41
1
10
5.08821219405837
20
-0.238317239128207
30
0
41
1
10
5.11094862744397
20
-0.245808678120198
30
0
41
1
10
5.13374505777315
20
-0.253102058901419
30
0
41
1
10
5.15660301642077
20
-0.260195333731673
30
0
41
1
10
5.17952403394821
20
-0.267086443708735
30
0
41
1
10
5.20250963953538
20
-0.273773319285823
30
0
41
1
10
5.2255613604012
20
-0.280253880811102
30
0
41
1
10
5.24868072121316
20
-0.286526039075199
30
0
41
1
10
5.2718692434857
20
-0.292587695876733
30
0
41
1
10
5.29512844496767
20
-0.298436744597922
30
0
41
1
10
5.31845983901854
20
-0.304071070798187
30
0
41
1
10
5.34186493397274
20
-0.30948855281801
30
0
41
1
10
5.36534523249358
20
-0.314687062400935
30
0
41
1
10
5.38890223091471
20
-0.319664465327264
30
0
41
1
10
5.41253741857071
20
-0.324418622064286
30
0
41
1
10
5.43625227711641
20
-0.328947388431601
30
0
41
1
10
5.46004827983308
20
-0.333248616279519
30
0
41
1
10
5.48392689092515
20
-0.337320154185818
30
0
41
1
10
5.50788956480326
20
-0.341159848165489
30
0
41
1
10
5.53193774535686
20
-0.34476554239734
30
0
41
1
10
5.55607286521413
20
-0.348135079966255
30
0
41
1
10
5.58029634499101
20
-0.351266303620974
30
0
41
1
10
5.60460959252748
20
-0.354157056548644
30
0
41
1
10
5.62901400211268
20
-0.356805183165079
30
0
41
1
10
5.65351095369789
20
-0.35920852992183
30
0
41
1
10
5.67810181209748
20
-0.361364946128958
30
0
41
1
10
5.70278792617847
20
-0.363272284796068
30
0
41
1
10
5.72757062803785
20
-0.364928403487909
30
0
41
1
10
5.75245123216823
20
-0.366331165199284
30
0
41
1
10
5.77743103461154
20
-0.367478439244905
30
0
41
1
10
5.80251131210127
20
-0.368368102167494
30
0
41
1
10
5.82769332119256
20
-0.36899803866325
30
0
41
1
10
5.85297829738067
20
-0.369366142523376
30
0
41
1
10
5.8783674542083
20
-0.369470317594903
30
0
41
1
10
5.90386198235979
20
-0.369308478755727
30
0
41
1
10
5.9294630487492
20
-0.368878552918432
30
0
41
1
10
5.95517179557555
20
-0.368178480006151
30
0
41
1
10
5.98098933944888
20
-0.367206214122547
30
0
41
1
10
6.00691677019501
20
-0.365959724074173
30
0
41
1
10
6.03295515081331
20
-0.364436996406482
30
0
41
1
10
6.05910551305425
20
-0.362636029095512
30
0
41
1
10
6.08536886938037
20
-0.360554860382621
30
0
41
1
10
6.11174616340378
20
-0.358191465835574
30
0
41
1
10
6.13823845111375
20
-0.355544149925834
30
0
41
1
10
6.16484621607955
20
-0.352610082150306
30
0
41
1
10
6.19237998102869
20
-0.349293461062018
30
0
41
1
10
6.2209881314655
20
-0.345528367896264
30
0
41
1
10
6.25082304684133
20
-0.341247562144986
30
0
41
1
10
6.2812358566884
20
-0.336532004574082
30
0
41
1
10
6.31223212961271
20
-0.33137133430094
30
0
41
1
10
6.34381801010014
20
-0.325756477051641
30
0
41
1
10
6.37599939635618
20
-0.31967796196227
30
0
41
1
10
6.40878214894411
20
-0.313126402113824
30
0
41
1
10
6.44217201505793
20
-0.306092379923911
30
0
41
1
10
6.47617463051591
20
-0.29856649697507
30
0
41
1
10
6.51079549982876
20
-0.290539379258092
30
0
41
1
10
6.54603998174994
20
-0.282001695332468
30
0
41
1
10
6.58191327277356
20
-0.272944171607321
30
0
41
1
10
6.61842039065007
20
-0.263357609089041
30
0
41
1
10
6.65556615735329
20
-0.253232900411689
30
0
41
1
10
6.69335518165565
20
-0.242561047480081
30
0
41
1
10
6.73179184127406
20
-0.231333179642917
30
0
41
1
10
6.77088026459941
20
-0.219540572421693
30
0
41
1
10
6.81062431201377
20
-0.207174666794089
30
0
41
1
10
6.85102755679969
20
-0.194227089032836
30
0
41
1
10
6.89209326565094
20
-0.180689671104403
30
0
41
1
10
6.93382437879009
20
-0.166554471623641
30
0
41
1
10
6.97622348970452
20
-0.151813797367595
30
0
41
1
10
7.01929282450914
20
-0.136460225342376
30
0
41
1
10
7.06303422095013
20
-0.120486625404084
30
0
41
1
10
7.10744910705995
20
-0.103886183426397
30
0
41
1
10
7.15253847948026
20
-0.0866524250083387
30
0
41
1
10
7.19830288146824
20
-0.0687792397261262
30
0
41
1
10
7.24474238060287
20
-0.0502609058808048
30
0
41
1
10
7.29185654620898
20
-0.0310921158705924
30
0
41
1
10
7.33964442653348
20
-0.0112680016671902
30
0
41
1
10
7.3881045256351
20
0.0092158376967859
30
0
41
1
10
7.43723478024785
20
0.0303633139374426
30
0
41
1
10
7.48703253574658
20
0.0521778049146917
30
0
41
1
10
7.53749452464896
20
0.0746621930365166
30
0
41
1
10
7.58861683474237
20
0.0978185860987821
30
0
41
1
10
7.64039491603447
20
0.121649242716416
30
0
41
1
10
7.69282343978045
20
0.146152919922429
30
0
41
1
10
7.74589671904084
20
0.171338605553927
30
0
41
1
10
7.79960699686148
20
0.197173234659346
30
0
41
1
10
7.83563287865763
20
0.214811546125389
30
0
41
1
10
7.85374746848638
20
0.22368046928699
30
0
0
SPLINE
5
107
100
AcDbEntity
8
1
62
256
6
ByLayer
370
18
48
1
60
0
100
AcDbSpline
70
4
71
3
72
74
73
70
40
0
40
0
40
0
40
0
40
0.0624999999999997
40
0.0624999999999997
40
0.124999999999999
40
0.124999999999999
40
0.187499999999999
40
0.187499999999999
40
0.249999999999999
40
0.249999999999999
40
0.312499999999999
40
0.312499999999999
40
0.328124999999998
40
0.328124999999998
40
0.343749999999998
40
0.343749999999998
40
0.374999999999994
40
0.374999999999994
40
0.43749999999999
40
0.43749999999999
40
0.45312499999999
40
0.45312499999999
40
0.46874999999999
40
0.46874999999999
40
0.499999999999989
40
0.499999999999989
40
0.531249999999987
40
0.531249999999987
40
0.562499999999986
40
0.562499999999986
40
0.570312499999986
40
0.570312499999986
40
0.578124999999986
40
0.593749999999986
40
0.593749999999986
40
0.624999999999985
40
0.624999999999985
40
0.656249999999984
40
0.656249999999984
40
0.671874999999984
40
0.679687499999984
40
0.679687499999984
40
0.687499999999984
40
0.687499999999984
40
0.718749999999984
40
0.718749999999984
40
0.734374999999985
40
0.734374999999985
40
0.742187499999985
40
0.742187499999985
40
0.749999999999985
40
0.749999999999985
40
0.781249999999988
40
0.781249999999988
40
0.79687499999999
40
0.79687499999999
40
0.812499999999991
40
0.812499999999991
40
0.843749999999992
40
0.843749999999992
40
0.874999999999992
40
0.874999999999992
40
0.906249999999993
40
0.906249999999993
40
0.921874999999993
40
0.921874999999993
40
0.937499999999993
40
0.937499999999993
40
1
40
1
40
1
40
1
41
1
10
4.79753591871716
20
-0.123842132373881
30
0
41
1
10
4.69417733613051
20
-0.0428601754707074
30
0
41
1
10
4.59139080174992
20
0.0395397949909295
30
0
41
1
10
4.38697977775806
20
0.207210765550911
30
0
41
1
10
4.28602429596145
20
0.29193137136491
30
0
41
1
10
4.08670233436985
20
0.463166458501149
30
0
41
1
10
3.98833413474068
20
0.549679511494503
30
0
41
1
10
3.79442181212033
20
0.724659896167964
30
0
41
1
10
3.69887452316431
20
0.81312453306046
30
0
41
1
10
3.51105695228813
20
0.992365571797876
30
0
41
1
10
3.4187802175438
20
1.08313639280425
30
0
41
1
10
3.30598614151288
20
1.19846394046496
30
0
41
1
10
3.28355610513324
20
1.2216236974356
30
0
41
1
10
3.23897184364674
20
1.26814716618878
30
0
41
1
10
3.21680658168623
20
1.29152295930766
30
0
41
1
10
3.15094821072091
20
1.36177655391594
30
0
41
1
10
3.10783546489424
20
1.40883601825601
30
0
41
1
10
2.98120093088056
20
1.55084211000843
30
0
41
1
10
2.90032558393767
20
1.64658736962849
30
0
41
1
10
2.8053896525393
20
1.76845822253185
30
0
41
1
10
2.7867149068625
20
1.79294415688071
30
0
41
1
10
2.75005543740369
20
1.84217192867206
30
0
41
1
10
2.73205811228743
20
1.86693320809792
30
0
41
1
10
2.67950498785854
20
1.94124383397781
30
0
41
1
10
2.64628823623914
20
1.99093711701687
30
0
41
1
10
2.58422299964079
20
2.09081325294619
30
0
41
1
10
2.55536901106336
20
2.14099462767666
30
0
41
1
10
2.50307936657833
20
2.24211337659497
30
0
41
1
10
2.47963246237325
20
2.29304768559336
30
0
41
1
10
2.45471679940133
20
2.35744699522061
30
0
41
1
10
2.44995425979732
20
2.3703696976456
30
0
41
1
10
2.44096547341431
20
2.39611863176037
30
0
41
1
10
2.42826160118958
20
2.43466137170415
30
0
41
1
10
2.41799977317976
20
2.4729678250817
30
0
41
1
10
2.40106569445433
20
2.54928367592126
30
0
41
1
10
2.39452897096555
20
2.5997629284764
30
0
41
1
10
2.39338207475606
20
2.70005636588505
30
0
41
1
10
2.39883033070817
20
2.74825502439853
30
0
41
1
10
2.41659835751028
20
2.81764333803011
30
0
41
1
10
2.42788420026147
20
2.85161727852463
30
0
41
1
10
2.44290947613197
20
2.88452616018392
30
0
41
1
10
2.45377504262416
20
2.90623012538993
30
0
41
1
10
2.45964996781717
20
2.91699393611725
30
0
41
1
10
2.49097236730898
20
2.9698634794116
30
0
41
1
10
2.52192962211379
20
3.00869725185495
30
0
41
1
10
2.57618707116518
20
3.06265295685745
30
0
41
1
10
2.5955805198783
20
3.07991921112122
30
0
41
1
10
2.62653477265016
20
3.1048284852335
30
0
41
1
10
2.63717887354835
20
3.11297586977221
30
0
41
1
10
2.65887525873757
20
3.12881432561841
30
0
41
1
10
2.66994853649555
20
3.1365234368063
30
0
41
1
10
2.72637424106313
20
3.17409399307675
30
0
41
1
10
2.77488163350256
20
3.20105662740949
30
0
41
1
10
2.85173979504034
20
3.23794989179092
30
0
41
1
10
2.87804660960256
20
3.24965064525
30
0
41
1
10
2.93192008264978
20
3.27199007618472
30
0
41
1
10
2.9595199867187
20
3.28264042425263
30
0
41
1
10
3.04385645259572
20
3.31308493749023
30
0
41
1
10
3.10145693745096
20
3.33115765601824
30
0
41
1
10
3.21887014948408
20
3.36392134953493
30
0
41
1
10
3.27868635444204
20
3.3786052917695
30
0
41
1
10
3.40018332734101
20
3.40527248052777
30
0
41
1
10
3.46186584904473
20
3.41725220605682
30
0
41
1
10
3.55560702486679
20
3.43354902725338
30
0
41
1
10
3.58705767262995
20
3.43870114108785
30
0
41
1
10
3.65034248338787
20
3.44849100219855
30
0
41
1
10
3.68220701841557
20
3.45313282879701
30
0
41
1
10
3.84209247717075
20
3.47510620802083
30
0
41
1
10
3.97076916081963
20
3.48866505670171
30
0
41
1
10
4.10004414605851
20
3.49935353774811
30
0
0
SPLINE
5
108
100
AcDbEntity
8
1
62
256
6
ByLayer
370
18
48
1
60
0
100
AcDbSpline
70
4
71
3
72
12
73
8
40
0
40
0
40
0
40
0
40
0.386548150185543
40
0.386548150185543
40
0.773096300371086
40
0.773096300371086
40
1
40
1
40
1
40
1
41
1
10
26.4051909984061
20
3.9730350490288
30
0
41
1
10
26.0425828712813
20
3.94019535736669
30
0
41
1
10
25.6799747441565
20
3.87735051214099
30
0
41
1
10
24.9547584899071
20
3.69446862344535
30
0
41
1
10
24.5921503627822
20
3.57443778110365
30
0
41
1
10
24.0166913255687
20
3.34284766140473
30
0
41
1
10
23.80384041548
20
3.24826659281362
30
0
41
1
10
23.5909895053912
20
3.1455442423493
30
0
0
SPLINE
5
109
100
AcDbEntity
8
1
62
256
6
ByLayer
370
18
48
1
60
0
100
AcDbSpline
70
4
71
3
72
12
73
8
40
0
40
0
40
0
40
0
40
0.145664082826628
40
0.145664082826628
40
0.572832041413314
40
0.572832041413314
40
1
40
1
40
1
40
1
41
1
10
11.5465972866837
20
-3.96965375104517
30
0
41
1
10
11.4229480775111
20
-3.98153196762706
30
0
41
1
10
11.2992988683385
20
-3.98994153986388
30
0
41
1
10
10.8130415320411
20
-4.00921627960278
30
0
41
1
10
10.4504334049164
20
-3.99341823120363
30
0
41
1
10
9.72521715066682
20
-3.90218763974752
30
0
41
1
10
9.36260902354206
20
-3.82675819129568
30
0
41
1
10
9.00000089641736
20
-3.72320580374625
30
0
0
SPLINE
5
10A
100
AcDbEntity
8
1
62
256
6
ByLayer
370
18
48
1
60
0
100
AcDbSpline
70
4
71
3
72
26
73
22
40
0
40
0
40
0
40
0
40
0.100107614191675
40
0.100107614191675
40
0.20021522838335
40
0.20021522838335
40
0.300322842575025
40
0.300322842575025
40
0.4004304567667
40
0.4004304567667
40
0.500538070958375
40
0.500538070958375
40
0.60064568515005
40
0.60064568515005
40
0.700753299341725
40
0.700753299341725
40
0.8008609135334
40
0.8008609135334
40
0.900968527725075
40
0.900968527725075
40
1
40
1
40
1
40
1
41
1
10
26.4051909984061
20
0.185396652586121
30
0
41
1
10
26.0425828712812
20
0.468392725094333
30
0
41
1
10
25.6799747441566
20
0.749978973482314
30
0
41
1
10
24.9547584899069
20
1.29770489092937
30
0
41
1
10
24.5921503627822
20
1.56382599492829
30
0
41
1
10
23.8669341085327
20
2.06865105370196
30
0
41
1
10
23.5043259814079
20
2.30733789744889
30
0
41
1
10
22.7791097271584
20
2.74655698858791
30
0
41
1
10
22.4165016000336
20
2.94707434828106
30
0
41
1
10
21.6912853457841
20
3.3009330738243
30
0
41
1
10
21.3286772186594
20
3.45426244654229
30
0
41
1
10
20.6034609644097
20
3.70684560022252
30
0
41
1
10
20.2408528372851
20
3.80609081987524
30
0
41
1
10
19.5156365830355
20
3.94603818756966
30
0
41
1
10
19.1530284559107
20
3.98673559099862
30
0
41
1
10
18.4278122016612
20
4.00775289190773
30
0
41
1
10
18.0652040745364
20
3.98807207657191
30
0
41
1
10
17.3399878202869
20
3.88921405458586
30
0
41
1
10
16.9773796931622
20
3.81004019997056
30
0
41
1
10
16.256061422179
20
3.5969049139959
30
0
41
1
10
15.8973512783205
20
3.46354869896416
30
0
41
1
10
15.5386411344622
20
3.3057606049712
30
0
0
SPLINE
5
10B
100
AcDbEntity
8
1
62
256
6
ByLayer
370
18
48
1
60
0
100
AcDbSpline
70
4
71
3
72
26
73
22
40
0
40
0
40
0
40
0
40
0.0429349749255898
40
0.0429349749255898
40
0.149275533267191
40
0.149275533267191
40
0.255616091608792
40
0.255616091608792
40
0.361956649950393
40
0.361956649950393
40
0.468297208291994
40
0.468297208291994
40
0.574637766633595
40
0.574637766633595
40
0.680978324975197
40
0.680978324975197
40
0.787318883316798
40
0.787318883316798
40
0.893659441658399
40
0.893659441658399
40
1
40
1
40
1
40
1
41
1
10
19.2296291618609
20
-3.96981214593231
30
0
41
1
10
19.0832262175026
20
-3.9838373258346
30
0
41
1
10
18.9368232731443
20
-3.99300137635268
30
0
41
1
10
18.4278122016612
20
-4.00775289190784
30
0
41
1
10
18.0652040745364
20
-3.98807207657202
30
0
41
1
10
17.3399878202869
20
-3.88921405458598
30
0
41
1
10
16.9773796931622
20
-3.81004019997067
30
0
41
1
10
16.2521634389126
20
-3.59575313701822
30
0
41
1
10
15.8895553117878
20
-3.46064719279502
30
0
41
1
10
15.1643390575384
20
-3.14056893158241
30
0
41
1
10
14.8017309304135
20
-2.95560746287617
30
0
41
1
10
14.0765146761641
20
-2.54413392860184
30
0
41
1
10
13.7139065490392
20
-2.31763581054423
30
0
41
1
10
12.9886902947898
20
-1.83327354036518
30
0
41
1
10
12.626082167665
20
-1.57542580668027
30
0
41
1
10
11.9008659134155
20
-1.03995959416196
30
0
41
1
10
11.5382577862907
20
-0.762359264718611
30
0
41
1
10
10.8130415320412
20
-0.199872358396334
30
0
41
1
10
10.4504334049164
20
0.0849951526128052
30
0
41
1
10
9.72521715066696
20
0.64920421854444
30
0
41
1
10
9.36260902354212
20
0.928526649219293
30
0
41
1
10
9.00000089641736
20
1.19880426958011
30
0
0
SPLINE
5
10C
100
AcDbEntity
8
1
62
256
6
ByLayer
370
18
48
1
60
0
100
AcDbSpline
70
4
71
3
72
38
73
34
40
0
40
0
40
0
40
0
40
0.0625000000000001
40
0.0625000000000001
40
0.125
40
0.125
40
0.1875
40
0.1875
40
0.25
40
0.25
40
0.3125
40
0.3125
40
0.375
40
0.375
40
0.4375
40
0.4375
40
0.5
40
0.5
40
0.5625
40
0.5625
40
0.625
40
0.625
40
0.6875
40
0.6875
40
0.75
40
0.75
40
0.8125
40
0.8125
40
0.875
40
0.875
40
0.9375
40
0.9375
40
1
40
1
40
1
40
1
41
1
10
26.405190998406
20
-3.97303504902897
30
0
41
1
10
26.0425828712814
20
-3.94019535736689
30
0
41
1
10
25.6799747441565
20
-3.87735051214116
30
0
41
1
10
24.9547584899069
20
-3.69446862344552
30
0
41
1
10
24.5921503627822
20
-3.57443778110382
30
0
41
1
10
23.8669341085327
20
-3.28257874637129
30
0
41
1
10
23.504325981408
20
-3.11076044814459
30
0
41
1
10
22.7791097271583
20
-2.72305100008339
30
0
41
1
10
22.4165016000336
20
-2.50717299234978
30
0
41
1
10
21.6912853457841
20
-2.04105084964456
30
0
41
1
10
21.3286772186593
20
-1.7908225153208
30
0
41
1
10
20.6034609644097
20
-1.26725210044876
30
0
41
1
10
20.240852837285
20
-0.993927767121988
30
0
41
1
10
19.5156365830356
20
-0.436457302699438
30
0
41
1
10
19.1530284559108
20
-0.152330067553493
30
0
41
1
10
18.4278122016612
20
0.413967531966335
30
0
41
1
10
18.0652040745365
20
0.696118701076358
30
0
41
1
10
17.3399878202869
20
1.24577351498476
30
0
41
1
10
16.9773796931621
20
1.51325852888036
30
0
41
1
10
16.2521634389127
20
2.02154917061514
30
0
41
1
10
15.8895553117879
20
2.26233756949063
30
0
41
1
10
15.1643390575384
20
2.70640306156929
30
0
41
1
10
14.8017309304136
20
2.90966510195241
30
0
41
1
10
14.0765146761641
20
3.26953307340915
30
0
41
1
10
13.7139065490393
20
3.42612680679824
30
0
41
1
10
12.9886902947898
20
3.68561177637426
30
0
41
1
10
12.626082167665
20
3.78849421761834
30
0
41
1
10
11.9008659134155
20
3.93592555676437
30
0
41
1
10
11.5382577862907
20
3.98046945459538
30
0
41
1
10
10.8130415320412
20
4.00921627960273
30
0
41
1
10
10.4504334049164
20
3.99341823120358
30
0
41
1
10
9.72521715066688
20
3.90218763974747
30
0
41
1
10
9.36260902354215
20
3.82675819129565
30
0
41
1
10
9.00000089641739
20
3.72320580374622
30
0
0
SPLINE
5
10D
100
AcDbEntity
8
1
62
256
6
ByLayer
370
18
48
1
60
0
100
AcDbSpline
70
4
71
1
72
4
73
2
40
0
40
0
40
1
40
1
41
1
10
26.9720570577975
20
3.46152319547528
30
0
41
1
10
26.9733834043096
20
3.48610508211263
30
0
0
SPLINE
5
10E
100
AcDbEntity
8
1
62
256
6
ByLayer
370
18
48
1
60
0
100
AcDbSpline
70
4
71
1
72
4
73
2
40
0
40
0
40
1
40
1
41
1
10
26.9720570577977
20
-3.46152319548008
30
0
41
1
10
26.9733834043111
20
-3.48610508214034
30
0
0
SPLINE
5
10F
100
AcDbEntity
8
1
62
256
6
ByLayer
370
18
48
1
60
0
100
AcDbSpline
70
4
71
1
72
4
73
2
40
0
40
0
40
1
40
1
41
1
10
26.9720570577979
20
0.0538659671205437
30
0
41
1
10
26.9733834043109
20
0.0548716962093181
30
0
0
SPLINE
5
110
100
AcDbEntity
8
1
62
256
6
ByLayer
370
18
48
1
60
0
100
AcDbSpline
70
4
71
5
72
15
73
9
40
0
40
0
40
0
40
0
40
0
40
0
40
0.0429450065877331
40
0.458886207890852
40
0.736180342092932
40
1
40
1
40
1
40
1
40
1
40
1
41
1
10
8.99999995304938
20
1.19880504020898
30
0
41
1
10
8.99135068149238
20
1.20525196811042
30
0
41
1
10
8.89892942600369
20
1.27409451756495
30
0
41
1
10
8.7506601812272
20
1.38374658187507
30
0
41
1
10
8.54925675288385
20
1.53080811457062
30
0
41
1
10
8.34785332454049
20
1.6749574719837
30
0
41
1
10
8.15509916775414
20
1.80984304835138
30
0
41
1
10
8.04611699489948
20
1.88505269533411
30
0
41
1
10
7.99298281133264
20
1.92146241119016
30
0
0
SPLINE
5
111
100
AcDbEntity
8
1
62
256
6
ByLayer
370
18
48
1
60
0
100
AcDbSpline
70
4
71
3
72
8
73
4
40
0
40
0
40
0
40
0
40
1
40
1
40
1
40
1
41
1
10
8.30599758399649
20
2.82688245603927
30
0
41
1
10
8.40745997786399
20
2.7515704731874
30
0
41
1
10
8.51075842599778
20
2.67877457805273
30
0
41
1
10
8.61570642014621
20
2.60822253018404
30
0
0
SPLINE
5
112
100
AcDbEntity
8
1
62
256
6
ByLayer
370
18
48
1
60
0
100
AcDbSpline
70
4
71
3
72
18
73
14
40
0
40
0
40
0
40
0
40
0.25
40
0.25
40
0.375000000000001
40
0.375000000000001
40
0.500000000000003
40
0.500000000000003
40
0.750000000000002
40
0.750000000000002
40
0.875000000000001
40
0.875000000000001
40
1
40
1
40
1
40
1
41
1
10
7.99296646290648
20
1.9214726458051
30
0
41
1
10
8.00752701485024
20
2.00697950086666
30
0
41
1
10
8.02723464006573
20
2.08953869536228
30
0
41
1
10
8.06133817547823
20
2.20976312435488
30
0
41
1
10
8.07348367756569
20
2.24922974015746
30
0
41
1
10
8.09898379456641
20
2.32702827173662
30
0
41
1
10
8.11235233012471
20
2.36539500102489
30
0
41
1
10
8.15376569154952
20
2.47860613964721
30
0
41
1
10
8.18306371275531
20
2.55149922417138
30
0
41
1
10
8.22835327934848
20
2.65735852339333
30
0
41
1
10
8.24367935931178
20
2.69206222449267
30
0
41
1
10
8.27464668071798
20
2.7603428807507
30
0
41
1
10
8.29029692021572
20
2.79393718894309
30
0
41
1
10
8.30599758400874
20
2.82688245603018
30
0
0
SPLINE
5
113
100
AcDbEntity
8
1
62
256
6
ByLayer
370
18
48
1
60
0
100
AcDbSpline
70
4
71
3
72
19
73
15
40
0
40
0
40
0
40
0
40
0.250000000000008
40
0.250000000000008
40
0.500000000000016
40
0.500000000000016
40
0.562500000000018
40
0.593750000000018
40
0.593750000000018
40
0.625000000000017
40
0.625000000000017
40
0.75000000000001
40
0.75000000000001
40
1
40
1
40
1
40
1
41
1
10
8.30599758399495
20
2.82688245603779
30
0
41
1
10
8.01454502982921
20
2.98798399388596
30
0
41
1
10
7.72438734025314
20
3.13464126866359
30
0
41
1
10
7.14348040095163
20
3.39672294565304
30
0
41
1
10
6.8527396918
20
3.51215420226626
30
0
41
1
10
6.48693669371926
20
3.63516018201619
30
0
41
1
10
6.37701679946923
20
3.67046350945418
30
0
41
1
10
6.26676887523485
20
3.70331203890706
30
0
41
1
10
6.19319057822148
20
3.72465885215959
30
0
41
1
10
6.1563594005213
20
3.73505636510632
30
0
41
1
10
5.97239729897328
20
3.7855379785766
30
0
41
1
10
5.82552055242232
20
3.82120229002342
30
0
41
1
10
5.38514759326816
20
3.91389540787384
30
0
41
1
10
5.09191197141297
20
3.95664361104963
30
0
41
1
10
4.79737137829153
20
3.97976255051114
30
0
0
SPLINE
5
114
100
AcDbEntity
8
1
62
256
6
ByLayer
370
18
48
1
60
0
100
AcDbSpline
70
4
71
3
72
10
73
6
40
0
40
0
40
0
40
0
40
0.83446377403018
40
0.83446377403018
40
1
40
1
40
1
40
1
41
1
10
4.79753589242665
20
3.97970451490602
30
0
41
1
10
4.6594320689149
20
3.990596042731
30
0
41
1
10
4.5223990539659
20
3.99736352488094
30
0
41
1
10
4.35948109755472
20
3.9997708566068
30
0
41
1
10
4.33259606520932
20
3.99998159926443
30
0
41
1
10
4.30579632893517
20
4.00000001223103
30
0
0
SPLINE
5
115
100
AcDbEntity
8
1
62
256
6
ByLayer
370
18
48
1
60
0
100
AcDbSpline
70
4
71
3
72
12
73
8
40
0
40
0
40
0
40
0
40
0.230474381780933
40
0.397180834301108
40
0.504316321237359
40
0.703952314942895
40
1
40
1
40
1
40
1
41
1
10
11.5440510191555
20
-3.9699169728089
30
0
41
1
10
11.6888222345039
20
-3.9560461536731
30
0
41
1
10
11.9382915913595
20
-3.93229003473181
30
0
41
1
10
12.2552105166769
20
-3.90240518360872
30
0
41
1
10
12.5524225949882
20
-3.87462486386022
30
0
41
1
10
12.9309038692104
20
-3.83968398608206
30
0
41
1
10
13.2422551131978
20
-3.81203813181449
30
0
41
1
10
13.4282551551676
20
-3.79586084294721
30
0
0
SPLINE
5
116
100
AcDbEntity
8
1
62
256
6
ByLayer
370
18
48
1
60
0
100
AcDbSpline
70
4
71
2
72
6
73
3
40
0
40
0
40
0
40
1
40
1
40
1
41
1
10
26.9678767777218
20
0.0597129705691941
30
0
41
1
10
26.9183331573653
20
0.442837742462501
30
0
41
1
10
26.8687895370089
20
0.825962514355808
30
0
0
SPLINE
5
117
100
AcDbEntity
8
1
62
256
6
ByLayer
370
18
48
1
60
0
100
AcDbSpline
70
4
71
3
72
11
73
7
40
0
40
0
40
0
40
0
40
0.311100880899065
40
0.497777089895477
40
0.68592818534157
40
1
40
1
40
1
40
1
41
1
10
19.2289015537543
20
-3.96996910223319
30
0
41
1
10
19.4242290516208
20
-3.9512767754602
30
0
41
1
10
19.7367477853552
20
-3.92164008206282
30
0
41
1
10
20.1673371748569
20
-3.88132776308171
30
0
41
1
10
20.5998121193764
20
-3.8414418003546
30
0
41
1
10
20.9151245761652
20
-3.81330874197548
30
0
41
1
10
21.1123196935257
20
-3.79604668838479
30
0
0
SPLINE
5
118
100
AcDbEntity
8
1
62
256
6
ByLayer
370
18
48
1
60
0
100
AcDbSpline
70
4
71
3
72
12
73
8
40
0
40
0
40
0
40
0
40
0.219701962983613
40
0.382576920901364
40
0.493107772799449
40
0.699866949024754
40
1
40
1
40
1
40
1
41
1
10
13.4282551551679
20
3.79586084294712
30
0
41
1
10
13.2901052901025
20
3.80785698383662
30
0
41
1
10
13.0496963569882
20
3.82909433015746
30
0
41
1
10
12.7396539451518
20
3.85727841327056
30
0
41
1
10
12.4388625591199
20
3.88521691217744
30
0
41
1
10
12.0510644564754
20
3.9215637517483
30
0
41
1
10
11.7326944657889
20
3.9518320934319
30
0
41
1
10
11.5440510191555
20
3.96991697280882
30
0
0
SPLINE
5
119
100
AcDbEntity
8
1
62
256
6
ByLayer
370
18
48
1
60
0
100
AcDbSpline
70
4
71
3
72
11
73
7
40
0
40
0
40
0
40
0
40
0.314071814658423
40
0.502222910104519
40
0.68889911910093
40
1
40
1
40
1
40
1
41
1
10
21.1123196935259
20
3.79604668838465
30
0
41
1
10
20.9151245761654
20
3.8133087419753
30
0
41
1
10
20.5998121193766
20
3.84144180035446
30
0
41
1
10
20.167337174857
20
3.88132776308157
30
0
41
1
10
19.7367477853552
20
3.92164008206271
30
0
41
1
10
19.4242290516208
20
3.95127677546006
30
0
41
1
10
19.2289015537544
20
3.96996910223308
30
0
0
LINE
5
77
100
AcDbEntity
8
80
62
256
6
ByLayer
370
18
48
1
60
0
100
AcDbLine
10
0
20
0
30
0
11
-5
21
0
31
0
39
0
210
0
220
0
230
1
0
LINE
5
78
100
AcDbEntity
8
4
62
256
6
ByLayer
370
18
48
0.05
60
0
100
AcDbLine
10
0
20
0
30
0
11
27
21
0
31
0
39
0
210
0
220
0
230
1
0
LINE
5
7A
100
AcDbEntity
8
81
62
256
6
ByLayer
370
18
48
1
60
0
100
AcDbLine
10
27
20
0
30
0
11
32
21
0
31
0
39
0
210
0
220
0
230
1
0
LINE
5
7B
100
AcDbEntity
8
SK4
62
256
6
ByLayer
370
18
48
0.05
60
0
100
AcDbLine
10
-36
20
0
30
0
11
27
21
0
31
0
39
0
210
0
220
0
230
1
0
LINE
5
7D
100
AcDbEntity
8
1
62
256
6
ByLayer
370
18
48
1
60
0
100
AcDbLine
10
0
20
4
30
0
11
0
21
0
31
0
39
0
210
0
220
0
230
1
0
LINE
5
7E
100
AcDbEntity
8
1
62
256
6
ByLayer
370
18
48
1
60
0
100
AcDbLine
10
0
20
0
30
0
11
0
21
-4
31
0
39
0
210
0
220
0
230
1
0
LINE
5
7F
100
AcDbEntity
8
1
62
256
6
ByLayer
370
18
48
1
60
0
100
AcDbLine
10
26.973383
20
-0.054872
30
0
11
26.967883
21
-0.05971
31
0
39
0
210
0
220
0
230
1
0
LINE
5
80
100
AcDbEntity
8
1
62
256
6
ByLayer
370
18
48
1
60
0
100
AcDbLine
10
26.90102
20
-1E-06
30
0
11
26.972057
21
-0.053866
31
0
39
0
210
0
220
0
230
1
0
LINE
5
81
100
AcDbEntity
8
1
62
256
6
ByLayer
370
18
48
1
60
0
100
AcDbLine
10
26.876199
20
-0.762458
30
0
11
26.823691
21
-0.711768
31
0
39
0
210
0
220
0
230
1
0
LINE
5
82
100
AcDbEntity
8
1
62
256
6
ByLayer
370
18
48
1
60
0
100
AcDbLine
10
26.820912
20
-0.660258
30
0
11
26.879063
21
-0.014375
31
0
39
0
210
0
220
0
230
1
0
LINE
5
83
100
AcDbEntity
8
1
62
256
6
ByLayer
370
18
48
1
60
0
100
AcDbLine
10
26.775102
20
-0.018362
30
0
11
26.786239
21
-0.017654
31
0
39
0
210
0
220
0
230
1
0
LINE
5
84
100
AcDbEntity
8
1
62
256
6
ByLayer
370
18
48
1
60
0
100
AcDbLine
10
26.836456
20
0.94836
30
0
11
26.972057
21
3.461523
31
0
39
0
210
0
220
0
230
1
0
LINE
5
85
100
AcDbEntity
8
1
62
256
6
ByLayer
370
13
48
1
60
0
100
AcDbLine
10
25.224091
20
2.439848
30
0
11
25.34269
21
2.235084
31
0
39
0
210
0
220
0
230
1
0
LINE
5
86
100
AcDbEntity
8
1
62
256
6
ByLayer
370
13
48
1
60
0
100
AcDbLine
10
26.629314
20
0.013696
30
0
11
26.777897
21
-0.242836
31
0
39
0
210
0
220
0
230
1
0
LINE
5
87
100
AcDbEntity
8
1
62
256
6
ByLayer
370
18
48
1
60
0
100
AcDbLine
10
26.786239
20
-0.017654
30
0
11
26.972057
21
-3.461523
31
0
39
0
210
0
220
0
230
1
0
LINE
5
88
100
AcDbEntity
8
1
62
256
6
ByLayer
370
18
48
1
60
0
100
AcDbLine
10
26.777618
20
-0.047652
30
0
11
26.786239
21
-0.017654
31
0
39
0
210
0
220
0
230
1
0
LINE
5
89
100
AcDbEntity
8
1
62
256
6
ByLayer
370
18
48
1
60
0
100
AcDbLine
10
26.775102
20
-0.045194
30
0
11
26.777618
21
-0.047652
31
0
39
0
210
0
220
0
230
1
0
LINE
5
8A
100
AcDbEntity
8
1
62
256
6
ByLayer
370
18
48
1
60
0
100
AcDbLine
10
26.775102
20
-0.002696
30
0
11
26.775102
21
-0.045194
31
0
39
0
210
0
220
0
230
1
0
LINE
5
8B
100
AcDbEntity
8
1
62
256
6
ByLayer
370
18
48
1
60
0
100
AcDbLine
10
26.777897
20
-0.242836
30
0
11
26.765432
21
-0.001612
31
0
39
0
210
0
220
0
230
1
0
LINE
5
8C
100
AcDbEntity
8
1
62
256
6
ByLayer
370
18
48
1
60
0
100
AcDbLine
10
26.876199
20
-3.2294
30
0
11
26.76903
21
-1.199313
31
0
39
0
210
0
220
0
230
1
0
LINE
5
8D
100
AcDbEntity
8
1
62
256
6
ByLayer
370
18
48
1
60
0
100
AcDbLine
10
26.510229
20
-2.054985
30
0
11
26.76903
21
-1.199313
31
0
39
0
210
0
220
0
230
1
0
LINE
5
8E
100
AcDbEntity
8
1
62
256
6
ByLayer
370
18
48
1
60
0
100
AcDbLine
10
26.76903
20
-1.199313
30
0
11
26.769417
21
-1.192206
31
0
39
0
210
0
220
0
230
1
0
LINE
5
8F
100
AcDbEntity
8
1
62
256
6
ByLayer
370
13
48
1
60
0
100
AcDbLine
10
26.497941
20
-0.723828
30
0
11
24.772941
21
-0.315769
31
0
39
0
210
0
220
0
230
1
0
LINE
5
90
100
AcDbEntity
8
1
62
256
6
ByLayer
370
13
48
1
60
0
100
AcDbLine
10
25.236576
20
0.325157
30
0
11
26.484615
21
0.029926
31
0
39
0
210
0
220
0
230
1
0
LINE
5
91
100
AcDbEntity
8
1
62
256
6
ByLayer
370
18
48
1
60
0
100
AcDbLine
10
26.881678
20
-0.014666
30
0
11
26.484615
21
0.029926
31
0
39
0
210
0
220
0
230
1
0
LINE
5
92
100
AcDbEntity
8
1
62
256
6
ByLayer
370
18
48
1
60
0
100
AcDbLine
10
26.881678
20
-0.014666
30
0
11
26.947792
21
0.035466
31
0
39
0
210
0
220
0
230
1
0
LINE
5
93
100
AcDbEntity
8
SK1
62
256
6
ByLayer
370
18
48
1
60
0
100
AcDbLine
10
-36
20
-3.4
30
0
11
-36
21
3.4
31
0
39
0
210
0
220
0
230
1
0
LINE
5
95
100
AcDbEntity
8
SK1
62
256
6
ByLayer
370
18
48
1
60
0
100
AcDbLine
10
0
20
4
30
0
11
0
21
0
31
0
39
0
210
0
220
0
230
1
0
LINE
5
96
100
AcDbEntity
8
SK1
62
256
6
ByLayer
370
18
48
1
60
0
100
AcDbLine
10
0
20
0
30
0
11
0
21
-4
31
0
39
0
210
0
220
0
230
1
0
LINE
5
97
100
AcDbEntity
8
SK1
62
256
6
ByLayer
370
18
48
1
60
0
100
AcDbLine
10
-35.4
20
4
30
0
11
-35.4
21
-4
31
0
39
0
210
0
220
0
230
1
0
LINE
5
98
100
AcDbEntity
8
SK1
62
256
6
ByLayer
370
18
48
1
60
0
100
AcDbLine
10
-20.75
20
2.9
30
0
11
-21.85
21
4
31
0
39
0
210
0
220
0
230
1
0
LINE
5
99
100
AcDbEntity
8
SK1
62
256
6
ByLayer
370
18
48
1
60
0
100
AcDbLine
10
-14.15
20
4
30
0
11
-15.25
21
2.9
31
0
39
0
210
0
220
0
230
1
0
LINE
5
9A
100
AcDbEntity
8
SK1
62
256
6
ByLayer
370
18
48
1
60
0
100
AcDbLine
10
-20.75
20
2.9
30
0
11
-15.25
21
2.9
31
0
39
0
210
0
220
0
230
1
0
LINE
5
9B
100
AcDbEntity
8
1
62
256
6
ByLayer
370
18
48
1
60
0
100
AcDbLine
10
4.308156
20
4
30
0
11
0
21
4
31
0
39
0
210
0
220
0
230
1
0
LINE
5
9C
100
AcDbEntity
8
1
62
256
6
ByLayer
370
18
48
1
60
0
100
AcDbLine
10
0
20
-4
30
0
11
4.308156
21
-4
31
0
39
0
210
0
220
0
230
1
0
LINE
5
9D
100
AcDbEntity
8
1
62
256
6
ByLayer
370
18
48
1
60
0
100
AcDbLine
10
26.86879
20
-0.825963
30
0
11
26.869062
21
-0.823855
31
0
39
0
210
0
220
0
230
1
0
LINE
5
9E
100
AcDbEntity
8
SK1
62
256
6
ByLayer
370
18
48
1
60
0
100
AcDbLine
10
-36
20
-3.4
30
0
11
-35.4
21
-4
31
0
39
0
210
0
220
0
230
1
0
LINE
5
9F
100
AcDbEntity
8
SK1
62
256
6
ByLayer
370
18
48
1
60
0
100
AcDbLine
10
-35.4
20
4
30
0
11
-36
21
3.4
31
0
39
0
210
0
220
0
230
1
0
LINE
5
A0
100
AcDbEntity
8
SK1
62
256
6
ByLayer
370
18
48
1
60
0
100
AcDbLine
10
0
20
4
30
0
11
-14.15
21
4
31
0
39
0
210
0
220
0
230
1
0
LINE
5
A1
100
AcDbEntity
8
SK1
62
256
6
ByLayer
370
18
48
1
60
0
100
AcDbLine
10
-21.85
20
4
30
0
11
-35.4
21
4
31
0
39
0
210
0
220
0
230
1
0
LINE
5
A2
100
AcDbEntity
8
SK1
62
256
6
ByLayer
370
18
48
1
60
0
100
AcDbLine
10
-35.4
20
-4
30
0
11
0
21
-4
31
0
39
0
210
0
220
0
230
1
0
LINE
5
A3
100
AcDbEntity
8
SK2
62
256
6
ByLayer
370
18
48
1
60
0
100
AcDbLine
10
-43.65
20
4
30
0
11
-43.65
21
-20.315466
31
0
39
0
210
0
220
0
230
1
0
LINE
5
A5
100
AcDbEntity
8
SK2
62
256
6
ByLayer
370
18
48
1
60
0
100
AcDbLine
10
-36.9875
20
4
30
0
11
-45.65
21
4
31
0
39
0
210
0
220
0
230
1
0
LINE
5
A6
100
AcDbEntity
8
SK2
62
256
6
ByLayer
370
18
48
1
60
0
100
AcDbLine
10
-36.9875
20
-4
30
0
11
-45.65
21
-4
31
0
39
0
210
0
220
0
230
1
0
LINE
5
A7
100
AcDbEntity
8
1
62
256
6
ByLayer
370
18
48
1
60
1
100
AcDbLine
10
-43.65
20
4
30
0
11
-43.189216
21
0.500002
31
0
39
0
210
0
220
0
230
1
0
LINE
5
A8
100
AcDbEntity
8
1
62
256
6
ByLayer
370
18
48
1
60
1
100
AcDbLine
10
-43.189216
20
0.500002
30
0
11
-44.110784
21
0.499998
31
0
39
0
210
0
220
0
230
1
0
LINE
5
A9
100
AcDbEntity
8
1
62
256
6
ByLayer
370
18
48
1
60
1
100
AcDbLine
10
-44.110784
20
0.499998
30
0
11
-43.65
21
4
31
0
39
0
210
0
220
0
230
1
0
LINE
5
AA
100
AcDbEntity
8
1
62
256
6
ByLayer
370
18
48
1
60
1
100
AcDbLine
10
-43.65
20
-4
30
0
11
-44.110784
21
-0.500002
31
0
39
0
210
0
220
0
230
1
0
LINE
5
AB
100
AcDbEntity
8
1
62
256
6
ByLayer
370
18
48
1
60
1
100
AcDbLine
10
-44.110784
20
-0.500002
30
0
11
-43.189216
21
-0.499998
31
0
39
0
210
0
220
0
230
1
0
LINE
5
AC
100
AcDbEntity
8
1
62
256
6
ByLayer
370
18
48
1
60
1
100
AcDbLine
10
-43.189216
20
-0.499998
30
0
11
-43.65
21
-4
31
0
39
0
210
0
220
0
230
1
0
LINE
5
AD
100
AcDbEntity
8
2
62
256
6
ByLayer
370
18
48
1
60
0
100
AcDbLine
10
39
20
-4.0001
30
0
11
39
21
20.315566
31
0
39
0
210
0
220
0
230
1
0
LINE
5
AF
100
AcDbEntity
8
2
62
256
6
ByLayer
370
18
48
1
60
0
100
AcDbLine
10
28.5875
20
4.0001
30
0
11
41
21
4.0001
31
0
39
0
210
0
220
0
230
1
0
LINE
5
B0
100
AcDbEntity
8
2
62
256
6
ByLayer
370
18
48
1
60
0
100
AcDbLine
10
28.5875
20
-4.0001
30
0
11
41
21
-4.0001
31
0
39
0
210
0
220
0
230
1
0
LINE
5
B1
100
AcDbEntity
8
1
62
256
6
ByLayer
370
18
48
1
60
1
100
AcDbLine
10
39
20
4.0001
30
0
11
39.460784
21
0.500102
31
0
39
0
210
0
220
0
230
1
0
LINE
5
B2
100
AcDbEntity
8
1
62
256
6
ByLayer
370
18
48
1
60
1
100
AcDbLine
10
39.460784
20
0.500102
30
0
11
38.539216
21
0.500098
31
0
39
0
210
0
220
0
230
1
0
LINE
5
B3
100
AcDbEntity
8
1
62
256
6
ByLayer
370
18
48
1
60
1
100
AcDbLine
10
38.539216
20
0.500098
30
0
11
39
21
4.0001
31
0
39
0
210
0
220
0
230
1
0
LINE
5
B4
100
AcDbEntity
8
1
62
256
6
ByLayer
370
18
48
1
60
1
100
AcDbLine
10
39
20
-4.0001
30
0
11
38.539216
21
-0.500102
31
0
39
0
210
0
220
0
230
1
0
LINE
5
B5
100
AcDbEntity
8
1
62
256
6
ByLayer
370
18
48
1
60
1
100
AcDbLine
10
38.539216
20
-0.500102
30
0
11
39.460784
21
-0.500098
31
0
39
0
210
0
220
0
230
1
0
LINE
5
B6
100
AcDbEntity
8
1
62
256
6
ByLayer
370
18
48
1
60
1
100
AcDbLine
10
39.460784
20
-0.500098
30
0
11
39
21
-4.0001
31
0
39
0
210
0
220
0
230
1
0
LINE
5
B7
100
AcDbEntity
8
SK2
62
256
6
ByLayer
370
18
48
1
60
0
100
AcDbLine
10
27
20
-34.274279
30
0
11
-36
21
-34.274279
31
0
39
0
210
0
220
0
230
1
0
LINE
5
B8
100
AcDbEntity
8
SK2
62
256
6
ByLayer
370
18
48
1
60
0
100
AcDbLine
10
-36
20
-4.9875
30
0
11
-36
21
-36.274279
31
0
39
0
210
0
220
0
230
1
0
LINE
5
B9
100
AcDbEntity
8
SK2
62
256
6
ByLayer
370
18
48
1
60
0
100
AcDbLine
10
27
20
-5.5876
30
0
11
27
21
-36.274279
31
0
39
0
210
0
220
0
230
1
0
LINE
5
BA
100
AcDbEntity
8
1
62
256
6
ByLayer
370
18
48
1
60
1
100
AcDbLine
10
-36
20
-34.274279
30
0
11
-32.500002
21
-33.813496
31
0
39
0
210
0
220
0
230
1
0
LINE
5
BB
100
AcDbEntity
8
1
62
256
6
ByLayer
370
18
48
1
60
1
100
AcDbLine
10
-32.500002
20
-33.813496
30
0
11
-32.499998
21
-34.735063
31
0
39
0
210
0
220
0
230
1
0
LINE
5
BC
100
AcDbEntity
8
1
62
256
6
ByLayer
370
18
48
1
60
1
100
AcDbLine
10
-32.499998
20
-34.735063
30
0
11
-36
21
-34.274279
31
0
39
0
210
0
220
0
230
1
0
LINE
5
BD
100
AcDbEntity
8
1
62
256
6
ByLayer
370
18
48
1
60
1
100
AcDbLine
10
27
20
-34.274279
30
0
11
23.500002
21
-34.735063
31
0
39
0
210
0
220
0
230
1
0
LINE
5
BE
100
AcDbEntity
8
1
62
256
6
ByLayer
370
18
48
1
60
1
100
AcDbLine
10
23.500002
20
-34.735063
30
0
11
23.499998
21
-33.813496
31
0
39
0
210
0
220
0
230
1
0
LINE
5
BF
100
AcDbEntity
8
1
62
256
6
ByLayer
370
18
48
1
60
1
100
AcDbLine
10
23.499998
20
-33.813496
30
0
11
27
21
-34.274279
31
0
39
0
210
0
220
0
230
1
0
LINE
5
11E
100
AcDbEntity
8
1
62
256
6
ByLayer
370
18
48
1
60
1
100
AcDbLine
10
-43.65
20
4
30
0
11
-43.189216
21
0.500002
31
0
39
0
210
0
220
0
230
1
0
LINE
5
11F
100
AcDbEntity
8
1
62
256
6
ByLayer
370
18
48
1
60
1
100
AcDbLine
10
-43.189216
20
0.500002
30
0
11
-44.110784
21
0.499998
31
0
39
0
210
0
220
0
230
1
0
LINE
5
120
100
AcDbEntity
8
1
62
256
6
ByLayer
370
18
48
1
60
1
100
AcDbLine
10
-44.110784
20
0.499998
30
0
11
-43.65
21
4
31
0
39
0
210
0
220
0
230
1
0
LINE
5
122
100
AcDbEntity
8
1
62
256
6
ByLayer
370
18
48
1
60
1
100
AcDbLine
10
-43.65
20
-4
30
0
11
-44.110784
21
-0.500002
31
0
39
0
210
0
220
0
230
1
0
LINE
5
123
100
AcDbEntity
8
1
62
256
6
ByLayer
370
18
48
1
60
1
100
AcDbLine
10
-44.110784
20
-0.500002
30
0
11
-43.189216
21
-0.499998
31
0
39
0
210
0
220
0
230
1
0
LINE
5
124
100
AcDbEntity
8
1
62
256
6
ByLayer
370
18
48
1
60
1
100
AcDbLine
10
-43.189216
20
-0.499998
30
0
11
-43.65
21
-4
31
0
39
0
210
0
220
0
230
1
0
LINE
5
128
100
AcDbEntity
8
1
62
256
6
ByLayer
370
18
48
1
60
1
100
AcDbLine
10
39
20
4.0001
30
0
11
39.460784
21
0.500102
31
0
39
0
210
0
220
0
230
1
0
LINE
5
129
100
AcDbEntity
8
1
62
256
6
ByLayer
370
18
48
1
60
1
100
AcDbLine
10
39.460784
20
0.500102
30
0
11
38.539216
21
0.500098
31
0
39
0
210
0
220
0
230
1
0
LINE
5
12A
100
AcDbEntity
8
1
62
256
6
ByLayer
370
18
48
1
60
1
100
AcDbLine
10
38.539216
20
0.500098
30
0
11
39
21
4.0001
31
0
39
0
210
0
220
0
230
1
0
LINE
5
12C
100
AcDbEntity
8
1
62
256
6
ByLayer
370
18
48
1
60
1
100
AcDbLine
10
39
20
-4.0001
30
0
11
38.539216
21
-0.500102
31
0
39
0
210
0
220
0
230
1
0
LINE
5
12D
100
AcDbEntity
8
1
62
256
6
ByLayer
370
18
48
1
60
1
100
AcDbLine
10
38.539216
20
-0.500102
30
0
11
39.460784
21
-0.500098
31
0
39
0
210
0
220
0
230
1
0
LINE
5
12E
100
AcDbEntity
8
1
62
256
6
ByLayer
370
18
48
1
60
1
100
AcDbLine
10
39.460784
20
-0.500098
30
0
11
39
21
-4.0001
31
0
39
0
210
0
220
0
230
1
0
LINE
5
131
100
AcDbEntity
8
1
62
256
6
ByLayer
370
18
48
1
60
1
100
AcDbLine
10
-36
20
-34.274279
30
0
11
-32.500002
21
-33.813496
31
0
39
0
210
0
220
0
230
1
0
LINE
5
132
100
AcDbEntity
8
1
62
256
6
ByLayer
370
18
48
1
60
1
100
AcDbLine
10
-32.500002
20
-33.813496
30
0
11
-32.499998
21
-34.735063
31
0
39
0
210
0
220
0
230
1
0
LINE
5
133
100
AcDbEntity
8
1
62
256
6
ByLayer
370
18
48
1
60
1
100
AcDbLine
10
-32.499998
20
-34.735063
30
0
11
-36
21
-34.274279
31
0
39
0
210
0
220
0
230
1
0
LINE
5
135
100
AcDbEntity
8
1
62
256
6
ByLayer
370
18
48
1
60
1
100
AcDbLine
10
27
20
-34.274279
30
0
11
23.500002
21
-34.735063
31
0
39
0
210
0
220
0
230
1
0
LINE
5
136
100
AcDbEntity
8
1
62
256
6
ByLayer
370
18
48
1
60
1
100
AcDbLine
10
23.500002
20
-34.735063
30
0
11
23.499998
21
-33.813496
31
0
39
0
210
0
220
0
230
1
0
LINE
5
137
100
AcDbEntity
8
1
62
256
6
ByLayer
370
18
48
1
60
1
100
AcDbLine
10
23.499998
20
-33.813496
30
0
11
27
21
-34.274279
31
0
39
0
210
0
220
0
230
1
0
MTEXT
5
11A
100
AcDbEntity
8
SK2
62
256
6
ByLayer
370
18
48
1
60
0
100
AcDbMText
10
-45.214634
20
-18.380622
30
0
210
0
220
0
230
1
1
%%c
40
3.5
41
0
44
1.084337
50
90
71
7
72
5
7
iso_b_vert
0
MTEXT
5
11D
100
AcDbEntity
8
SK2
62
256
6
ByLayer
370
18
48
1
60
0
100
AcDbMText
10
-45.214634
20
-11.407966
30
0
210
0
220
0
230
1
1
\W0.5404;8
40
3.5
41
0
44
1.084337
50
90
71
7
72
5
7
iso_b_vert
0
MTEXT
5
126
100
AcDbEntity
8
2
62
256
6
ByLayer
370
18
48
1
60
0
100
AcDbMText
10
37.435366
20
11.934944
30
0
210
0
220
0
230
1
1
%%c
40
3.5
41
0
44
1.084337
50
90
71
7
72
5
7
iso_b_vert
0
MTEXT
5
127
100
AcDbEntity
8
2
62
256
6
ByLayer
370
18
48
1
60
0
100
AcDbMText
10
37.435366
20
18.9076
30
0
210
0
220
0
230
1
1
\W0.5404;8
40
3.5
41
0
44
1.084337
50
90
71
7
72
5
7
iso_b_vert
0
MTEXT
5
130
100
AcDbEntity
8
SK2
62
256
6
ByLayer
370
18
48
1
60
0
100
AcDbMText
10
-6.404966
20
-33.241646
30
0
210
0
220
0
230
1
1
\W0.6740;63
40
3.5
41
0
44
1.084337
50
0
71
7
72
5
7
iso_b_vert
0
MTEXT
5
139
100
AcDbEntity
8
SK6
62
256
6
ByLayer
370
18
48
1
60
0
100
AcDbMText
10
-30.109523
20
-62.114886
30
0
210
0
220
0
230
1
1
\W0.7505;2S342-0800-050-PB   P2BM
40
3
41
0
44
1.084337
50
0
71
7
72
5
7
iso_b_vert
0
HATCH
5
121
100
AcDbEntity
8
SK2
62
256
6
ByLayer
370
13
48
1
60
0
100
AcDbHatch
10
0
20
0
30
0
210
0
220
0
230
1
2
ANSI31
70
0
71
0
91
1
92
5
93
3
72
1
10
-43.65
20
3.99999999999997
11
-43.1892162584472
21
0.500001692553155
72
1
10
-43.1892162584472
20
0.500001692553155
11
-44.1107837415528
21
0.499998307446788
72
1
10
-44.1107837415528
20
0.499998307446788
11
-43.65
21
3.99999999999997
97
0
75
0
76
1
52
0
41
0.0062
77
0
78
1
53
45
43
0
44
0
45
-0.0139193969876572
46
0.0139193969876572
79
0
47
0
98
1
10
0
20
0
0
HATCH
5
125
100
AcDbEntity
8
SK2
62
256
6
ByLayer
370
13
48
1
60
0
100
AcDbHatch
10
0
20
0
30
0
210
0
220
0
230
1
2
ANSI31
70
0
71
0
91
1
92
5
93
3
72
1
10
-43.65
20
-4.00000000000003
11
-44.1107837415528
21
-0.500001692553212
72
1
10
-44.1107837415528
20
-0.500001692553212
11
-43.1892162584472
21
-0.499998307446845
72
1
10
-43.1892162584472
20
-0.499998307446845
11
-43.65
21
-4.00000000000003
97
0
75
0
76
1
52
0
41
0.0062
77
0
78
1
53
45
43
0
44
0
45
-0.0139193969876572
46
0.0139193969876572
79
0
47
0
98
1
10
0
20
0
0
HATCH
5
12B
100
AcDbEntity
8
2
62
256
6
ByLayer
370
13
48
1
60
0
100
AcDbHatch
10
0
20
0
30
0
210
0
220
0
230
1
2
ANSI31
70
0
71
0
91
1
92
5
93
3
72
1
10
39
20
4.00009999999992
11
39.4607837415528
21
0.500101692553102
72
1
10
39.4607837415528
20
0.500101692553102
11
38.5392162584472
21
0.500098307446734
72
1
10
38.5392162584472
20
0.500098307446734
11
39
21
4.00009999999992
97
0
75
0
76
1
52
0
41
0.0062
77
0
78
1
53
45
43
0
44
0
45
-0.0139193969876572
46
0.0139193969876572
79
0
47
0
98
1
10
0
20
0
0
HATCH
5
12F
100
AcDbEntity
8
2
62
256
6
ByLayer
370
13
48
1
60
0
100
AcDbHatch
10
0
20
0
30
0
210
0
220
0
230
1
2
ANSI31
70
0
71
0
91
1
92
5
93
3
72
1
10
39
20
-4.00010000000009
11
38.5392162584472
21
-0.500101692553272
72
1
10
38.5392162584472
20
-0.500101692553272
11
39.4607837415528
21
-0.500098307446905
72
1
10
39.4607837415528
20
-0.500098307446905
11
39
21
-4.00010000000009
97
0
75
0
76
1
52
0
41
0.0062
77
0
78
1
53
45
43
0
44
0
45
-0.0139193969876572
46
0.0139193969876572
79
0
47
0
98
1
10
0
20
0
0
HATCH
5
134
100
AcDbEntity
8
SK2
62
256
6
ByLayer
370
13
48
1
60
0
100
AcDbHatch
10
0
20
0
30
0
210
0
220
0
230
1
2
ANSI31
70
0
71
0
91
1
92
5
93
3
72
1
10
-36
20
-34.2742794163135
11
-32.5000016925532
21
-33.8134956747608
72
1
10
-32.5000016925532
20
-33.8134956747608
11
-32.4999983074468
21
-34.7350631578663
72
1
10
-32.4999983074468
20
-34.7350631578663
11
-36
21
-34.2742794163135
97
0
75
0
76
1
52
0
41
0.0062
77
0
78
1
53
45
43
0
44
0
45
-0.0139193969876572
46
0.0139193969876572
79
0
47
0
98
1
10
0
20
0
0
HATCH
5
138
100
AcDbEntity
8
SK2
62
256
6
ByLayer
370
13
48
1
60
0
100
AcDbHatch
10
0
20
0
30
0
210
0
220
0
230
1
2
ANSI31
70
0
71
0
91
1
92
5
93
3
72
1
10
27
20
-34.2742794163135
11
23.5000016925532
21
-34.7350631578663
72
1
10
23.5000016925532
20
-34.7350631578663
11
23.4999983074468
21
-33.8134956747608
72
1
10
23.4999983074468
20
-33.8134956747608
11
27
21
-34.2742794163135
97
0
75
0
76
1
52
0
41
0.0062
77
0
78
1
53
45
43
0
44
0
45
-0.0139193969876572
46
0.0139193969876572
79
0
47
0
98
1
10
0
20
0
0
DIMENSION
5
13C
100
AcDbEntity
8
2
62
256
6
ByLayer
370
18
48
1
60
0
100
AcDbDimension
2
_U0
10
9
20
-18.274279
30
0
11
18
21
-18.274279
31
0
70
32
71
1
72
1
41
1
210
0
220
0
230
1
3
Standard
100
AcDbAlignedDimension
13
27
23
-4.0001
33
0
14
9
24
-4.0001
34
0
50
0
100
AcDbRotatedDimension
1001
ACAD
1000
DSTYLE
1002
{
1070
   371
1070
    13
1070
   372
1070
    13
1070
   170
1070
     0
1070
   144
1040
1.0
1070
   277
1070
     2
1070
   284
1070
     8
1070
   278
1070
    46
1070
   146
1040
1.0
1070
   345
1005
16
1070
   347
1005
16
1070
   346
1005
16
1070
   344
1005
0
1070
   343
1005
0
1070
   172
1070
     1
1070
    76
1070
     0
1070
    75
1070
     0
1070
   282
1070
     0
1070
   281
1070
     0
1070
    71
1070
     0
1070
    74
1070
     0
1070
   279
1070
     0
1070
   173
1070
     1
1070
   340
1005
11B
1070
   271
1070
     2
1070
   272
1070
     2
1070
    77
1070
     1
1070
    73
1070
     1
1070
   171
1070
     3
1070
   274
1070
     4
1070
   177
1070
     2
1070
   176
1070
     2
1070
   178
1070
     2
1070
    78
1070
     8
1070
    48
1040
-0.1
1070
    41
1040
3.5
1070
   147
1040
1.75
1070
    42
1040
1.5875
1070
    44
1040
2.0
1070
   140
1040
3.5
1002
}
1001
ACAD_DSTYLE_DIM_LINETYPE
1070
   380
1005
16
1001
ACAD_DSTYLE_DIM_EXT1_LINETYPE
1070
   381
1005
16
1001
ACAD_DSTYLE_DIM_EXT2_LINETYPE
1070
   382
1005
16
0
ENDSEC
0
SECTION
2
OBJECTS
0
DICTIONARY
5
1c5
330
0
100
AcDbDictionary
280
0
281
1
3
ACAD_GROUP
350
1c6
3
ACAD_MLINESTYLE
350
1c7
0
DICTIONARY
5
1c6
330
0
100
AcDbDictionary
280
0
281
1
0
DICTIONARY
5
1c7
330
0
100
AcDbDictionary
280
0
281
1
3
Standard
350
18
0
MLINESTYLE
5
18
330
1c7
100
AcDbMlineStyle
2
Standard
70
0
3

62
256
51
90
52
90
71
2
49
-0.5
62
256
6
ByLayer
49
0.5
62
256
6
ByLayer
0
RASTERVARIABLES
5
1b3
330

100
AcDbRasterVariables
90
0
70
1
71
1
72
1
0
ENDSEC
0
EOF
