0
SECTION
2
HEADER
9
$ACADVER
1
AC1015
9
$DWGCODEPAGE
3
ANSI_1252
9
$HANDSEED
5
1d4
9
$ANGBASE
50
0
9
$ANGDIR
70
0
9
$ATTMODE
70
1
9
$AUNITS
70
0
9
$AUPREC
70
0
9
$CECOLOR
62
256
9
$CELTSCALE
40
1
9
$CELTYPE
6
ByLayer
9
$CELWEIGHT
370
18
9
$CLAYER
8
0
9
$CMLJUST
70
0
9
$CMLSCALE
40
1
9
$CMLSTYLE
2
Standard
9
$DIMSTYLE
2
Standard
9
$TEXTSIZE
40
0.2
9
$TEXTSTYLE
7
Standard
9
$LUNITS
70
2
9
$LUPREC
70
4
9
$EXTNAMES
290
1
9
$INSUNITS
70
4
9
$LTSCALE
40
1
9
$LWDISPLAY
290
1
9
$PDMODE
70
0
9
$PDSIZE
40
0
9
$PLINEGEN
70
0
0
ENDSEC
0
SECTION
2
CLASSES
0
CLASS
1
RASTERVARIABLES
2
AcDbRasterVariables
3
ISM
90
0
280
0
281
0
0
ENDSEC
0
SECTION
2
TABLES
0
TABLE
2
VPORT
5
1ca
100
AcDbSymbolTable
0
VPORT
5
1
100
AcDbSymbolTableRecord
100
AcDbViewportTableRecord
2
*Active
70
0
10
0
20
0
11
1
21
1
12
-1
22
1
13
0
23
0
14
0.5
24
0.5
15
10
25
10
16
0
26
0
36
1
17
0
27
0
37
0
0
ENDTAB
0
TABLE
2
LTYPE
5
1cb
100
AcDbSymbolTable
0
LTYPE
5
14
100
AcDbSymbolTableRecord
100
AcDbLinetypeTableRecord
70
0
2
ByBlock
3

72
65
73
0
40
0
0
LTYPE
5
15
100
AcDbSymbolTableRecord
100
AcDbLinetypeTableRecord
70
0
2
ByLayer
3

72
65
73
0
40
0
0
LTYPE
5
16
100
AcDbSymbolTableRecord
100
AcDbLinetypeTableRecord
70
0
2
Continuous
3
Solid line
72
65
73
0
40
0
0
LTYPE
5
6E
100
AcDbSymbolTableRecord
100
AcDbLinetypeTableRecord
70
0
2
CENTER
3
____ _ ____ _ ____ _ ____
72
65
73
4
40
47.5
49
22
74
0
49
-8.5
74
0
49
8.5
74
0
49
-8.5
74
0
0
LTYPE
5
6F
100
AcDbSymbolTableRecord
100
AcDbLinetypeTableRecord
70
0
2
DASHED
3
__ __ __ __ __ __ __ __ __
72
65
73
2
40
25.72
49
12.86
74
0
49
-12.86
74
0
0
ENDTAB
0
TABLE
2
LAYER
5
1cc
100
AcDbSymbolTable
0
LAYER
5
10
100
AcDbSymbolTableRecord
100
AcDbLayerTableRecord
2
0
70
0
62
7
6
Continuous
290
1
370
-3
390
0
0
LAYER
5
71
100
AcDbSymbolTableRecord
100
AcDbLayerTableRecord
2
81
70
0
62
-3
6
Continuous
290
1
370
-3
390
0
0
LAYER
5
73
100
AcDbSymbolTableRecord
100
AcDbLayerTableRecord
2
80
70
0
62
-6
6
Continuous
290
1
370
-3
390
0
0
LAYER
5
75
100
AcDbSymbolTableRecord
100
AcDbLayerTableRecord
2
1
70
0
62
4
6
Continuous
290
1
370
-3
390
0
0
LAYER
5
79
100
AcDbSymbolTableRecord
100
AcDbLayerTableRecord
2
4
70
0
62
-2
6
CENTER
290
1
370
-3
390
0
0
LAYER
5
BA
100
AcDbSymbolTableRecord
100
AcDbLayerTableRecord
2
2
70
0
62
7
6
Continuous
290
1
370
-3
390
0
0
LAYER
5
140
100
AcDbSymbolTableRecord
100
AcDbLayerTableRecord
2
Defpoints
70
0
62
7
6
Continuous
290
0
370
-3
390
0
0
LAYER
5
1b6
100
AcDbSymbolTableRecord
100
AcDbLayerTableRecord
2
SK4
70
0
62
2
6
CENTER
290
1
370
-3
390
0
0
LAYER
5
1b7
100
AcDbSymbolTableRecord
100
AcDbLayerTableRecord
2
SK1
70
0
62
4
6
Continuous
290
1
370
-3
390
0
0
LAYER
5
1b8
100
AcDbSymbolTableRecord
100
AcDbLayerTableRecord
2
SK2
70
0
62
7
6
Continuous
290
1
370
-3
390
0
0
LAYER
5
1b9
100
AcDbSymbolTableRecord
100
AcDbLayerTableRecord
2
SK6
70
0
62
5
6
Continuous
290
1
370
-3
390
0
0
ENDTAB
0
TABLE
2
STYLE
5
1cd
100
AcDbSymbolTable
0
STYLE
5
11
100
AcDbSymbolTableRecord
100
AcDbTextStyleTableRecord
2
Standard
3
txt
70
0
71
0
40
0
41
1
42
0
50
0
0
STYLE
5
11C
100
AcDbSymbolTableRecord
100
AcDbTextStyleTableRecord
2
iso_b_vert
3
simplex.shx
70
0
71
0
40
0
41
1
42
0
50
0
0
STYLE
5
11D
100
AcDbSymbolTableRecord
100
AcDbTextStyleTableRecord
2
DWGDirectTextStyle
3
simplex
70
0
71
0
40
0
41
1
42
0
50
0
0
ENDTAB
0
TABLE
2
DIMSTYLE
5
1ce
100
AcDbSymbolTable
100
AcDbDimStyleTable
0
DIMSTYLE
105
27
100
AcDbSymbolTableRecord
100
AcDbDimStyleTableRecord
2
Standard
70
0
3
<>
41
0.18
42
0.0625
44
0.18
140
0.18
147
0.09
73
0
74
0
77
1
271
2
275
0
278
52
280
0
340
11
0
ENDTAB
0
TABLE
2
VIEW
5
1cf
100
AcDbSymbolTable
0
ENDTAB
0
TABLE
2
UCS
5
1d0
100
AcDbSymbolTable
0
ENDTAB
0
TABLE
2
APPID
5
1d1
100
AcDbSymbolTable
0
APPID
5
12
100
AcDbSymbolTableRecord
100
AcDbRegAppTableRecord
2
ACAD
70
0
0
APPID
5
13C
100
AcDbSymbolTableRecord
100
AcDbRegAppTableRecord
2
ACAD_DSTYLE_DIMBREAK
70
0
0
APPID
5
175
100
AcDbSymbolTableRecord
100
AcDbRegAppTableRecord
2
ACAD_DSTYLE_DIM_LINETYPE
70
0
0
APPID
5
176
100
AcDbSymbolTableRecord
100
AcDbRegAppTableRecord
2
ACAD_DSTYLE_DIM_EXT1_LINETYPE
70
0
0
APPID
5
177
100
AcDbSymbolTableRecord
100
AcDbRegAppTableRecord
2
ACAD_DSTYLE_DIM_EXT2_LINETYPE
70
0
0
APPID
5
1B2
100
AcDbSymbolTableRecord
100
AcDbRegAppTableRecord
2
ACAD_MLEADERVER
70
0
0
ENDTAB
0
TABLE
2
BLOCK_RECORD
5
1d2
100
AcDbSymbolTable
0
BLOCK_RECORD
5
1F
100
AcDbSymbolTableRecord
100
AcDbBlockTableRecord
2
*Model_Space
340
0
70
0
0
BLOCK_RECORD
5
1B
100
AcDbSymbolTableRecord
100
AcDbBlockTableRecord
2
*Paper_Space
340
0
70
0
0
BLOCK_RECORD
5
23
100
AcDbSymbolTableRecord
100
AcDbBlockTableRecord
2
*Paper_Space0
340
0
70
0
0
BLOCK_RECORD
5
141
100
AcDbSymbolTableRecord
100
AcDbBlockTableRecord
2
*D1
340
0
70
0
0
BLOCK_RECORD
5
14E
100
AcDbSymbolTableRecord
100
AcDbBlockTableRecord
2
_U0
340
0
70
0
0
ENDTAB
0
ENDSEC
0
SECTION
2
BLOCKS
0
BLOCK
5
20
100
AcDbEntity
8
0
100
AcDbBlockBegin
2
*Model_Space
70
0
10
0
20
0
30
0
3
*Model_Space
0
ENDBLK
5
21
100
AcDbEntity
8
0
100
AcDbBlockEnd
0
BLOCK
5
1C
100
AcDbEntity
8
0
100
AcDbBlockBegin
2
*Paper_Space
70
0
10
0
20
0
30
0
3
*Paper_Space
0
ENDBLK
5
1D
100
AcDbEntity
8
0
100
AcDbBlockEnd
0
BLOCK
5
24
100
AcDbEntity
8
0
100
AcDbBlockBegin
2
*Paper_Space0
70
0
10
0
20
0
30
0
3
*Paper_Space0
0
ENDBLK
5
25
100
AcDbEntity
8
0
100
AcDbBlockEnd
0
BLOCK
5
142
100
AcDbEntity
8
0
100
AcDbBlockBegin
2
*D1
70
1
10
0
20
0
30
0
3
*D1
0
LINE
5
144
100
AcDbEntity
8
0
62
256
6
ByLayer
370
-2
48
1
60
0
100
AcDbLine
10
21
20
-3.5876
30
0
11
21
21
-19.1
31
0
39
0
210
0
220
0
230
1
0
LINE
5
145
100
AcDbEntity
8
0
62
256
6
ByLayer
370
-2
48
1
60
0
100
AcDbLine
10
12
20
-3.5876
30
0
11
12
21
-19.1
31
0
39
0
210
0
220
0
230
1
0
LINE
5
146
100
AcDbEntity
8
0
62
256
6
ByLayer
370
-2
48
1
60
0
100
AcDbLine
10
24.5
20
-17.1
30
0
11
28
21
-17.1
31
0
39
0
210
0
220
0
230
1
0
LINE
5
147
100
AcDbEntity
8
0
62
256
6
ByLayer
370
-2
48
1
60
0
100
AcDbLine
10
8.5
20
-17.1
30
0
11
5
21
-17.1
31
0
39
0
210
0
220
0
230
1
0
SOLID
5
148
100
AcDbEntity
8
0
62
256
6
ByLayer
370
-1
48
1
60
0
100
AcDbTrace
10
24.5
20
-16.516667
30
0
11
24.5
21
-17.683333
31
0
12
21
22
-17.1
32
0
13
21
23
-17.1
33
0
39
0
210
0
220
0
230
1
0
SOLID
5
149
100
AcDbEntity
8
0
62
256
6
ByLayer
370
-1
48
1
60
0
100
AcDbTrace
10
8.5
20
-17.683333
30
0
11
8.5
21
-16.516667
31
0
12
12
22
-17.1
32
0
13
12
23
-17.1
33
0
39
0
210
0
220
0
230
1
0
MTEXT
5
14A
100
AcDbEntity
8
0
62
256
6
ByLayer
370
18
48
1
60
0
100
AcDbMText
10
16.5
20
-10.1
30
0
210
0
220
0
230
1
1
\A1;9
40
3.5
41
0
44
1
50
0
71
5
72
5
7
iso_b_vert
0
POINT
5
14B
100
AcDbEntity
8
Defpoints
62
0
6
ByLayer
370
-1
48
1
60
0
100
AcDbPoint
10
21
20
-2.0001
30
0
39
0
210
0
220
0
230
1
50
360
0
POINT
5
14C
100
AcDbEntity
8
Defpoints
62
0
6
ByLayer
370
-1
48
1
60
0
100
AcDbPoint
10
12
20
-2.0001
30
0
39
0
210
0
220
0
230
1
50
360
0
POINT
5
14D
100
AcDbEntity
8
Defpoints
62
0
6
ByLayer
370
-1
48
1
60
0
100
AcDbPoint
10
12
20
-17.1
30
0
39
0
210
0
220
0
230
1
50
360
0
ENDBLK
5
143
100
AcDbEntity
8
0
100
AcDbBlockEnd
0
BLOCK
5
155
100
AcDbEntity
8
0
100
AcDbBlockBegin
2
_U0
70
0
10
0
20
0
30
0
3
_U0
0
MTEXT
5
14F
100
AcDbEntity
8
2
62
256
6
ByLayer
370
18
48
1
60
0
100
AcDbMText
10
15.902767
20
-16.067366
30
0
210
0
220
0
230
1
1
\W0.5742;9
40
3.5
41
0
44
1.084337
50
0
71
7
72
5
7
iso_b_vert
0
LINE
5
150
100
AcDbEntity
8
2
62
256
6
ByLayer
370
13
48
1
60
0
100
AcDbLine
10
21
20
-3.5876
30
0
11
21
21
-19.1
31
0
39
0
210
0
220
0
230
1
0
LINE
5
151
100
AcDbEntity
8
2
62
256
6
ByLayer
370
13
48
1
60
0
100
AcDbLine
10
12
20
-3.5876
30
0
11
12
21
-19.1
31
0
39
0
210
0
220
0
230
1
0
LINE
5
152
100
AcDbEntity
8
2
62
256
6
ByLayer
370
13
48
1
60
0
100
AcDbLine
10
21
20
-17.1
30
0
11
12
21
-17.1
31
0
39
0
210
0
220
0
230
1
0
SOLID
5
153
100
AcDbEntity
8
2
62
256
6
ByLayer
370
18
48
1
60
0
100
AcDbTrace
10
21
20
-17.1
30
0
11
17.500002
21
-17.560784
31
0
12
17.499998
22
-16.639216
32
0
13
17.499998
23
-16.639216
33
0
39
0
210
0
220
0
230
1
0
SOLID
5
154
100
AcDbEntity
8
2
62
256
6
ByLayer
370
18
48
1
60
0
100
AcDbTrace
10
12
20
-17.1
30
0
11
15.499998
21
-16.639216
31
0
12
15.500002
22
-17.560784
32
0
13
15.500002
23
-17.560784
33
0
39
0
210
0
220
0
230
1
0
ENDBLK
5
156
100
AcDbEntity
8
0
100
AcDbBlockEnd
0
ENDSEC
0
SECTION
2
ENTITIES
0
ARC
5
CC
100
AcDbEntity
8
1
62
256
6
ByLayer
370
18
48
1
60
0
100
AcDbCircle
39
0
10
5.997679
20
3
30
0
40
1
210
0
220
0
230
1
100
AcDbArc
50
240
51
270
0
ARC
5
CD
100
AcDbEntity
8
1
62
256
6
ByLayer
370
18
48
1
60
0
100
AcDbCircle
39
0
10
5.997679
20
-3
30
0
40
1
210
0
220
0
230
1
100
AcDbArc
50
90
51
120
0
ELLIPSE
5
CE
100
AcDbEntity
8
1
62
256
6
ByLayer
370
18
48
1
60
0
100
AcDbEllipse
10
20.858731
20
-0.114603
30
0
11
0.0247327224077174
21
-0.480463782562663
31
0
210
0
220
0
230
1
40
0.053358
41
1.16702002382119
42
1.57274277907781
0
ELLIPSE
5
CF
100
AcDbEntity
8
1
62
256
6
ByLayer
370
18
48
1
60
0
100
AcDbEllipse
10
20.847552
20
-0.260078
30
0
11
0.0258106252918792
21
-0.230682247885479
31
0
210
0
220
0
230
1
40
0.173802
41
0.807032957809826
42
1.36793530698766
0
ELLIPSE
5
D0
100
AcDbEntity
8
1
62
256
6
ByLayer
370
18
48
1
60
0
100
AcDbEllipse
10
20.858731
20
-0.114603
30
0
11
0.0247327224210938
21
-0.480463782743294
31
0
210
0
220
0
230
1
40
0.053358
41
0.0549469877999434
42
0.882906806414428
0
ELLIPSE
5
D1
100
AcDbEntity
8
1
62
256
6
ByLayer
370
18
48
1
60
0
100
AcDbEllipse
10
20.790202
20
-0.247351
30
0
11
0.0768443605563538
21
-0.233767456324686
31
0
210
0
220
0
230
1
40
0.48006
41
2.91366429985404
42
-2.21697875104112
0
ELLIPSE
5
D2
100
AcDbEntity
8
1
62
256
6
ByLayer
370
18
48
1
60
0
100
AcDbEllipse
10
27.608885
20
-11.806452
30
0
11
7.338584868016
21
-12.3443897933424
31
0
210
0
220
0
230
1
40
0.008469
41
-2.75674686397245
42
-2.71496162033757
0
ELLIPSE
5
D3
100
AcDbEntity
8
1
62
256
6
ByLayer
370
13
48
1
60
0
100
AcDbEllipse
10
8.266747
20
-70.753514
30
0
11
11.878638644818
21
-69.8093822253243
31
0
210
0
220
0
230
1
40
0.765671
41
2.89356811348717
42
2.89899404433645
0
ELLIPSE
5
D4
100
AcDbEntity
8
1
62
256
6
ByLayer
370
13
48
1
60
0
100
AcDbEllipse
10
8.266747
20
7.806943
30
0
11
54.7007283328499
21
-44.9697923343141
31
0
210
0
220
0
230
1
40
0.054227
41
-1.50232711197559
42
-1.46717941524192
0
POINT
5
70
100
AcDbEntity
8
81
62
256
6
ByLayer
370
18
48
1
60
0
100
AcDbPoint
10
21
20
0
30
0
39
0
210
0
220
0
230
1
50
360
0
POINT
5
72
100
AcDbEntity
8
80
62
256
6
ByLayer
370
18
48
1
60
0
100
AcDbPoint
10
0
20
0
30
0
39
0
210
0
220
0
230
1
50
360
0
POINT
5
74
100
AcDbEntity
8
1
62
256
6
ByLayer
370
18
48
1
60
1
100
AcDbPoint
10
21
20
-2.0001
30
0
39
0
210
0
220
0
230
1
50
360
0
POINT
5
76
100
AcDbEntity
8
1
62
256
6
ByLayer
370
18
48
1
60
1
100
AcDbPoint
10
12
20
-2.0001
30
0
39
0
210
0
220
0
230
1
50
360
0
SPLINE
5
D5
100
AcDbEntity
8
1
62
256
6
ByLayer
370
18
48
1
60
0
100
AcDbSpline
70
4
71
2
72
6
73
3
40
0
40
0
40
0
40
1
40
1
40
1
41
0.500000003201335
10
20.8926016506761
20
-0.415997852730827
30
0
41
0.499999996798666
10
20.8934205636694
20
-0.417314721696275
30
0
41
0.500000003201335
10
20.8942405051742
20
-0.418633334973374
30
0
0
SPLINE
5
D6
100
AcDbEntity
8
1
62
256
6
ByLayer
370
18
48
1
60
0
100
AcDbSpline
70
4
71
3
72
14
73
10
40
0
40
0
40
0
40
0
40
0.25
40
0.25
40
0.5
40
0.5
40
0.75
40
0.75
40
1
40
1
40
1
40
1
41
1
10
20.8926016506759
20
-0.415997852730556
30
0
41
1
10
20.8870109018771
20
-0.407007540393522
30
0
41
1
10
20.8828972651153
20
-0.397614464159091
30
0
41
1
10
20.8780476516672
20
-0.378003606886068
30
0
41
1
10
20.8773915997815
20
-0.36828007290444
30
0
41
1
10
20.8784903081023
20
-0.348886986198323
30
0
41
1
10
20.8802028584771
20
-0.339470164849132
30
0
41
1
10
20.8850857601108
20
-0.320757698477507
30
0
41
1
10
20.8882925537701
20
-0.311419048572333
30
0
41
1
10
20.8920232958183
20
-0.302160238685502
30
0
0
SPLINE
5
D7
100
AcDbEntity
8
1
62
256
6
ByLayer
370
18
48
1
60
0
100
AcDbSpline
70
4
71
3
72
43
73
39
40
0
40
0
40
0
40
0
40
0.0364352602951709
40
0.0364352602951709
40
0.0579563738424616
40
0.0579563738424616
40
0.0794774873897523
40
0.165561941578921
40
0.165561941578921
40
0.251646395768089
40
0.251646395768089
40
0.337730849957258
40
0.337730849957258
40
0.380773077051842
40
0.380773077051842
40
0.402294190599136
40
0.402294190599136
40
0.423815304146429
40
0.509899758335606
40
0.509899758335606
40
0.552941985430195
40
0.552941985430195
40
0.574463098977489
40
0.574463098977489
40
0.595984212524783
40
0.682068666713958
40
0.682068666713958
40
0.725110893808545
40
0.725110893808545
40
0.768153120903132
40
0.768153120903132
40
0.854237575092306
40
0.854237575092306
40
0.897279802186894
40
0.897279802186894
40
0.940322029281483
40
0.940322029281483
40
1
40
1
40
1
40
1
41
1
10
12.0437645807468
20
1.16341624277931
30
0
41
1
10
12.1180381416033
20
1.16138970655325
30
0
41
1
10
12.1923451277071
20
1.15789305443354
30
0
41
1
10
12.3106727487831
20
1.1499987180382
30
0
41
1
10
12.3546229552506
20
1.14655603330061
30
0
41
1
10
12.4423154346852
20
1.1386817047308
30
0
41
1
10
12.661198057453
20
1.11651444256998
30
0
41
1
10
12.8785857340488
20
1.08215469722737
30
0
41
1
10
13.225713032096
20
1.01285843297285
30
0
41
1
10
13.3989290800217
20
0.971049237186577
30
0
41
1
10
13.74586706548
20
0.874562122662383
30
0
41
1
10
13.9195878901687
20
0.819882388643066
30
0
41
1
10
14.1814582594182
20
0.729452687916734
30
0
41
1
10
14.2689634532334
20
0.697909535664706
30
0
41
1
10
14.4006607376596
20
0.64866891254627
30
0
41
1
10
14.444640949749
20
0.631930925929964
30
0
41
1
10
14.5324588680903
20
0.597965875269267
30
0
41
1
10
14.7518388167606
20
0.511760705444232
30
0
41
1
10
14.9706432486955
20
0.419582329773732
30
0
41
1
10
15.2336025283209
20
0.30516903272445
30
0
41
1
10
15.3213212272645
20
0.266398584500394
30
0
41
1
10
15.4531166942128
20
0.207543086518228
30
0
41
1
10
15.4970794231608
20
0.187810291229681
30
0
41
1
10
15.5848896982033
20
0.148248071438417
30
0
41
1
10
15.8042562284251
20
0.0490434165042473
30
0
41
1
10
16.0230755226259
20
-0.051106167709321
30
0
41
1
10
16.2860800896373
20
-0.170099499562525
30
0
41
1
10
16.373818469118
20
-0.209566383700007
30
0
41
1
10
16.5495944393302
20
-0.287754290122564
30
0
41
1
10
16.637403129621
20
-0.326372471687336
30
0
41
1
10
16.9004705563042
20
-0.440145567598421
30
0
41
1
10
17.0755243350844
20
-0.513284924089675
30
0
41
1
10
17.3385649585455
20
-0.617020432308777
30
0
41
1
10
17.4263331071204
20
-0.650608282617242
30
0
41
1
10
17.6021359328307
20
-0.71546544596913
30
0
41
1
10
17.6897325328766
20
-0.746572654387535
30
0
41
1
10
17.8982409653387
20
-0.817387379881581
30
0
41
1
10
18.0189442715477
20
-0.855768577114105
30
0
41
1
10
18.1394154736948
20
-0.891122543098049
30
0
0
SPLINE
5
D8
100
AcDbEntity
8
1
62
256
6
ByLayer
370
18
48
1
60
0
100
AcDbSpline
70
4
71
3
72
24
73
20
40
0
40
0
40
0
40
0
40
0.125
40
0.125
40
0.25
40
0.25
40
0.374999999999999
40
0.374999999999999
40
0.499999999999999
40
0.499999999999999
40
0.624999999999999
40
0.624999999999999
40
0.749999999999999
40
0.749999999999999
40
0.8125
40
0.8125
40
0.875
40
0.875
40
1
40
1
40
1
40
1
41
1
10
20.6543337819944
20
-0.136042109746057
30
0
41
1
10
20.6540183632212
20
-0.146629065653997
30
0
41
1
10
20.6548578775284
20
-0.157166250316351
30
0
41
1
10
20.6582158091619
20
-0.178200636694299
30
0
41
1
10
20.660742490563
20
-0.18869704532807
30
0
41
1
10
20.667155702966
20
-0.209698609281816
30
0
41
1
10
20.6710530289419
20
-0.220221092510997
30
0
41
1
10
20.6799830863597
20
-0.241260111206856
30
0
41
1
10
20.6849560114772
20
-0.25164069449238
30
0
41
1
10
20.6957176855121
20
-0.272253044318688
30
0
41
1
10
20.7015082047726
20
-0.282482624351758
30
0
41
1
10
20.7137563601493
20
-0.302954631809655
30
0
41
1
10
20.7202156897141
20
-0.313191777131806
30
0
41
1
10
20.730291628389
20
-0.328779329248306
30
0
41
1
10
20.7337145887208
20
-0.334015183471223
30
0
41
1
10
20.7406651524455
20
-0.344639437494862
30
0
41
1
10
20.7442053359501
20
-0.350047203551412
30
0
41
1
10
20.7546673666075
20
-0.366252413600876
30
0
41
1
10
20.7614955685306
20
-0.377135858751188
30
0
41
1
10
20.7678247531766
20
-0.388307556550728
30
0
0
SPLINE
5
D9
100
AcDbEntity
8
1
62
256
6
ByLayer
370
18
48
1
60
0
100
AcDbSpline
70
4
71
3
72
28
73
24
40
0
40
0
40
0
40
0
40
0.0786859530346442
40
0.158565303370443
40
0.239605916826302
40
0.275310722524735
40
0.31182024998246
40
0.349129988169706
40
0.387234910973875
40
0.426129457482662
40
0.465807512323568
40
0.506262383712492
40
0.547486756884968
40
0.589472697532081
40
0.632211664949698
40
0.675694501152896
40
0.719911420923322
40
0.764852003497174
40
0.810505186073373
40
0.856859259321849
40
0.903901865071648
40
0.951619996357304
40
1
40
1
40
1
40
1
41
1
10
11.8005300111117
20
-1.31433538595925
30
0
41
1
10
11.7931617245019
20
-1.32511843867564
30
0
41
1
10
11.7783133995271
20
-1.34684808620855
30
0
41
1
10
11.7554424774739
20
-1.37897903354235
30
0
41
1
10
11.7364179146745
20
-1.40491345940217
30
0
41
1
10
11.7214264483133
20
-1.42485258267038
30
0
41
1
10
11.710642244599
20
-1.43898383925998
30
0
41
1
10
11.6995519634779
20
-1.45330131517011
30
0
41
1
10
11.6881554633743
20
-1.46779583827677
30
0
41
1
10
11.6764527931019
20
-1.48245758631708
30
0
41
1
10
11.6644439507103
20
-1.49727634907339
30
0
41
1
10
11.6521289551623
20
-1.51224146132995
30
0
41
1
10
11.6395078202073
20
-1.52734172292998
30
0
41
1
10
11.6265805650718
20
-1.54256545375387
30
0
41
1
10
11.6133472130637
20
-1.55790056740028
30
0
41
1
10
11.5998077921626
20
-1.57333458271378
30
0
41
1
10
11.5859623189231
20
-1.58885460650598
30
0
41
1
10
11.5718108607408
20
-1.60444749721216
30
0
41
1
10
11.5573532974762
20
-1.62009933309483
30
0
41
1
10
11.5425902322364
20
-1.63579755900511
30
0
41
1
10
11.527519514297
20
-1.65152292066637
30
0
41
1
10
11.512149503829
20
-1.6672803815033
30
0
41
1
10
11.5017527479684
20
-1.67767716968555
30
0
41
1
10
11.4965185664021
20
-1.6829113675241
30
0
0
SPLINE
5
DA
100
AcDbEntity
8
1
62
256
6
ByLayer
370
18
48
1
60
0
100
AcDbSpline
70
4
71
3
72
8
73
4
40
0
40
0
40
0
40
0
40
1
40
1
40
1
40
1
41
1
10
20.7814147171066
20
1.99270330291736
30
0
41
1
10
20.8239948260291
20
1.99026563009127
30
0
41
1
10
20.8665716023878
20
1.98778460300719
30
0
41
1
10
20.9091445754282
20
1.98525409531285
30
0
0
SPLINE
5
DB
100
AcDbEntity
8
1
62
256
6
ByLayer
370
18
48
1
60
0
100
AcDbSpline
70
4
71
3
72
41
73
37
40
0
40
0
40
0
40
0
40
0.0624999999999994
40
0.0624999999999994
40
0.124999999999999
40
0.124999999999999
40
0.187499999999998
40
0.187499999999998
40
0.249999999999997
40
0.249999999999997
40
0.312499999999997
40
0.312499999999997
40
0.328124999999995
40
0.328124999999995
40
0.343749999999994
40
0.343749999999994
40
0.374999999999991
40
0.374999999999991
40
0.406249999999988
40
0.406249999999988
40
0.437499999999985
40
0.468749999999981
40
0.468749999999981
40
0.499999999999978
40
0.499999999999978
40
0.562499999999984
40
0.562499999999984
40
0.624999999999991
40
0.624999999999991
40
0.687499999999997
40
0.687499999999997
40
0.750000000000004
40
0.750000000000004
40
0.875000000000002
40
0.875000000000002
40
1
40
1
40
1
40
1
41
1
10
20.7972012269755
20
1.96751733141758
30
0
41
1
10
20.811601432293
20
1.94421905737693
30
0
41
1
10
20.8254607640726
20
1.92061850843754
30
0
41
1
10
20.8514226680971
20
1.87243560987326
30
0
41
1
10
20.8635415458213
20
1.84784031907841
30
0
41
1
10
20.8849554429798
20
1.79716156376693
30
0
41
1
10
20.8941167596502
20
1.77139913969188
30
0
41
1
10
20.9078157651475
20
1.71860878376316
30
0
41
1
10
20.9123826118373
20
1.69155274786416
30
0
41
1
10
20.9143158137721
20
1.63561564943581
30
0
41
1
10
20.9115740983283
20
1.60804451319646
30
0
41
1
10
20.9027225503498
20
1.57416191556817
30
0
41
1
10
20.9006721576635
20
1.56739414380624
30
0
41
1
10
20.896097885332
20
1.55414689990209
30
0
41
1
10
20.8935691349819
20
1.54764191305466
30
0
41
1
10
20.8852923564737
20
1.52846600875381
30
0
41
1
10
20.8788582633836
20
1.51613195639459
30
0
41
1
10
20.8643031743302
20
1.49229213872195
30
0
41
1
10
20.8561066906622
20
1.48073770155378
30
0
41
1
10
20.8385434230312
20
1.45905125146729
30
0
41
1
10
20.8197456623762
20
1.43863169494011
30
0
41
1
10
20.7988589965647
20
1.42035586902725
30
0
41
1
10
20.7770907645829
20
1.40298474689288
30
0
41
1
10
20.7657487978055
20
1.39474606405415
30
0
41
1
10
20.7311863440071
20
1.37153981775782
30
0
41
1
10
20.7072459578139
20
1.35789460834209
30
0
41
1
10
20.6581751144489
20
1.33302156732617
30
0
41
1
10
20.6330381322209
20
1.32180698999937
30
0
41
1
10
20.5819075037641
20
1.30111796731148
30
0
41
1
10
20.5559165156621
20
1.29165662005715
30
0
41
1
10
20.5038594706313
20
1.27421289351363
30
0
41
1
10
20.4777082757768
20
1.26619793131172
30
0
41
1
10
20.3989751595488
20
1.24376384983125
30
0
41
1
10
20.3461180912796
20
1.230930268387
30
0
41
1
10
20.239928247944
20
1.20800437256886
30
0
41
1
10
20.1865919672093
20
1.19793225965785
30
0
41
1
10
20.1330821675016
20
1.18886005225548
30
0
0
SPLINE
5
DC
100
AcDbEntity
8
1
62
256
6
ByLayer
370
18
48
1
60
0
100
AcDbSpline
70
4
71
3
72
11
73
7
40
0
40
0
40
0
40
0
40
0.274083595482845
40
0.637041797741423
40
0.637041797741423
40
1
40
1
40
1
40
1
41
1
10
20.0470483791804
20
1.17169620606146
30
0
41
1
10
20.054766808536
20
1.17332959404288
30
0
41
1
10
20.0727924235247
20
1.17717923289999
30
0
41
1
10
20.0910491286207
20
1.18097337594244
30
0
41
1
10
20.1120345971716
20
1.18511186134256
30
0
41
1
10
20.1226103647041
20
1.18708463228802
30
0
41
1
10
20.1330821675015
20
1.18886005225545
30
0
0
SPLINE
5
DD
100
AcDbEntity
8
1
62
256
6
ByLayer
370
18
48
1
60
0
100
AcDbSpline
70
4
71
3
72
8
73
4
40
0
40
0
40
0
40
0
40
1
40
1
40
1
40
1
41
1
10
20.7810889200039
20
1.99272196331825
30
0
41
1
10
20.7865500480553
20
1.98438057967277
30
0
41
1
10
20.7919244989836
20
1.97598148822951
30
0
41
1
10
20.797201251541
20
1.96751735038785
30
0
0
SPLINE
5
DE
100
AcDbEntity
8
1
62
256
6
ByLayer
370
18
48
1
60
0
100
AcDbSpline
70
4
71
5
72
15
73
9
40
0
40
0
40
0
40
0
40
0
40
0
40
0.0306281895903638
40
0.446660347267842
40
0.724015119052827
40
1
40
1
40
1
40
1
40
1
40
1
41
1
10
11.9999999829197
20
-1.86160605196866
30
0
41
1
10
11.9969163460434
20
-1.86072543790309
30
0
41
1
10
11.9519467172014
20
-1.84783392854311
30
0
41
1
10
11.8790530937154
20
-1.82577428862928
30
0
41
1
10
11.7783733957813
20
-1.79273196941116
30
0
41
1
10
11.6776936978472
20
-1.7562097843545
30
0
41
1
10
11.5800976367892
20
-1.71764480651424
30
0
41
1
10
11.5243875676972
20
-1.6946231511472
30
0
41
1
10
11.4966014932491
20
-1.68289297535856
30
0
0
SPLINE
5
DF
100
AcDbEntity
8
1
62
256
6
ByLayer
370
18
48
1
60
0
100
AcDbSpline
70
4
71
5
72
21
73
15
40
0
40
0
40
0
40
0
40
0
40
0
40
0.0357154053749646
40
0.129249672979422
40
0.269551074386048
40
0.409852475792674
40
0.503386743397091
40
0.643688144803717
40
0.737222412408134
40
0.87752381381476
40
0.971058081419177
40
1
40
1
40
1
40
1
40
1
40
1
41
1
10
19.3044865606874
20
1.55145736225702
30
0
41
1
10
19.3151491425831
20
1.55654405399176
30
0
41
1
10
19.3537357191229
20
1.57483040671261
30
0
41
1
10
19.4342082876284
20
1.6120427447425
30
0
41
1
10
19.5565668480998
20
1.66563731327116
30
0
41
1
10
19.7068494032151
20
1.72567454391671
30
0
41
1
10
19.8883553684005
20
1.78984469327813
30
0
41
1
10
20.0698613335858
20
1.84449485042021
30
0
41
1
10
20.2513672987712
20
1.89021969885266
30
0
41
1
10
20.4189112666345
20
1.92400541129922
30
0
41
1
10
20.5671716451315
20
1.94630188276633
30
0
41
1
10
20.6735460316627
20
1.95809154290512
30
0
41
1
10
20.7519964235499
20
1.96448268514155
30
0
41
1
10
20.7885608234713
20
1.96695995474687
30
0
41
1
10
20.7972012287488
20
1.96751733040304
30
0
0
SPLINE
5
E0
100
AcDbEntity
8
1
62
256
6
ByLayer
370
18
48
1
60
0
100
AcDbSpline
70
4
71
3
72
12
73
8
40
0
40
0
40
0
40
0
40
0.25
40
0.25
40
0.5
40
0.5
40
1
40
1
40
1
40
1
41
1
10
20.7694974347166
20
0.81819481395047
30
0
41
1
10
20.7770386584065
20
0.80295339538813
30
0
41
1
10
20.7845258915239
20
0.787909753612837
30
0
41
1
10
20.7992674901585
20
0.758675504280603
30
0
41
1
10
20.8064871201321
20
0.74461213901651
30
0
41
1
10
20.8277147977261
20
0.704001648414106
30
0
41
1
10
20.8413146512458
20
0.678935666101808
30
0
41
1
10
20.8549316515245
20
0.653804343327209
30
0
0
SPLINE
5
E1
100
AcDbEntity
8
1
62
256
6
ByLayer
370
18
48
1
60
0
100
AcDbSpline
70
4
71
3
72
14
73
10
40
0
40
0
40
0
40
0
40
0.25128626079627
40
0.25128626079627
40
0.438464695597199
40
0.438464695597199
40
0.625643130398128
40
0.625643130398128
40
1
40
1
40
1
40
1
41
1
10
20.1834432229958
20
1.10371082312599
30
0
41
1
10
20.2308532663248
20
1.08970867297379
30
0
41
1
10
20.278769417606
20
1.07315891429477
30
0
41
1
10
20.3632545615923
20
1.03986622771447
30
0
41
1
10
20.3995981357476
20
1.02425799492582
30
0
41
1
10
20.4728369198914
20
0.990264745963572
30
0
41
1
10
20.5097720320865
20
0.971847991174883
30
0
41
1
10
20.621197371469
20
0.912404575081126
30
0
41
1
10
20.695389941713
20
0.867681338080473
30
0
41
1
10
20.7694974347175
20
0.818194813951209
30
0
0
SPLINE
5
E2
100
AcDbEntity
8
1
62
256
6
ByLayer
370
18
48
1
60
0
100
AcDbSpline
70
4
71
3
72
52
73
48
40
0
40
0
40
0
40
0
40
0.0173399118572312
40
0.0346081540786231
40
0.0518067654212638
40
0.0689378084952485
40
0.0860033694465635
40
0.103005557606003
40
0.119946505101941
40
0.13682836643852
40
0.153653318037442
40
0.17042355774379
40
0.187141304296054
40
0.203808796759587
40
0.220428293924963
40
0.237002073669978
40
0.253532432287151
40
0.2700216837762
40
0.28647215910307
40
0.302886205425719
40
0.319266185287905
40
0.33561447578229
40
0.351933467683641
40
0.368225564553961
40
0.384493181821055
40
0.40073874583176
40
0.416964692881942
40
0.433173468225482
40
0.449367525063168
40
0.465549323515003
40
0.481721329576625
40
0.497886014063467
40
0.514045851543863
40
0.530203319264089
40
0.546360896067347
40
0.56252106130988
40
0.578686293775316
40
0.594859070591173
40
0.611041866148829
40
0.627237151030187
40
0.643447390942551
40
0.659675045665054
40
0.725339970171539
40
0.794471455879399
40
0.867167740694164
40
0.943512994554269
40
1
40
1
40
1
40
1
41
1
10
9.67026567140474
20
-1.99887424785456
30
0
41
1
10
9.67677288533568
20
-1.99604894527275
30
0
41
1
10
9.68976041746382
20
-1.99041001770064
30
0
41
1
10
9.70922940667472
20
-1.98173724708803
30
0
41
1
10
9.72863983620741
20
-1.97293220513853
30
0
41
1
10
9.74799581565176
20
-1.9639802242601
30
0
41
1
10
9.76729901101868
20
-1.95488776096198
30
0
41
1
10
9.78655176029864
20
-1.94565575183489
30
0
41
1
10
9.80575624203735
20
-1.93628671306234
30
0
41
1
10
9.82491469521338
20
-1.92678285168734
30
0
41
1
10
9.84402935897924
20
-1.91714657146667
30
0
41
1
10
9.86310248698882
20
-1.90738034067954
30
0
41
1
10
9.88213634178922
20
-1.89748672997976
30
0
41
1
10
9.90113319446641
20
-1.88746840492357
30
0
41
1
10
9.9200953228297
20
-1.87732813057957
30
0
41
1
10
9.93902500992388
20
-1.86706877291149
30
0
41
1
10
9.95792454239145
20
-1.85669330101447
30
0
41
1
10
9.97679620881112
20
-1.84620478911185
30
0
41
1
10
9.99564229797778
20
-1.83560641860231
30
0
41
1
10
10.014465097133
20
-1.82490148007574
30
0
41
1
10
10.0332668901419
20
-1.81409337531625
30
0
41
1
10
10.0520499556176
20
-1.80318561928433
30
0
41
1
10
10.0708165649915
20
-1.79218184207616
30
0
41
1
10
10.089568980529
20
-1.78108579085671
30
0
41
1
10
10.1083094532909
20
-1.76990133176477
30
0
41
1
10
10.1270402210391
20
-1.75863245178434
30
0
41
1
10
10.1457635060865
20
-1.74728326058192
30
0
41
1
10
10.1644815130909
20
-1.73585799230449
30
0
41
1
10
10.1831964267915
20
-1.72436100733469
30
0
41
1
10
10.2019104096895
20
-1.71279679400118
30
0
41
1
10
10.2206255996727
20
-1.70116997024067
30
0
41
1
10
10.239344107573
20
-1.68948528519641
30
0
41
1
10
10.2580680147075
20
-1.6777476208054
30
0
41
1
10
10.276799370204
20
-1.66596199314864
30
0
41
1
10
10.2955401888635
20
-1.65413355439924
30
0
41
1
10
10.3142924467423
20
-1.64226759222322
30
0
41
1
10
10.333058084977
20
-1.63036953836576
30
0
41
1
10
10.3518389825596
20
-1.61844494258401
30
0
41
1
10
10.3706370448038
20
-1.60649957563518
30
0
41
1
10
10.3894538593716
20
-1.59453904977764
30
0
41
1
10
10.4082919678042
20
-1.58257024163012
30
0
41
1
10
10.4462917626479
20
-1.55844168278887
30
0
41
1
10
10.5048658891931
20
-1.52151462537015
30
0
41
1
10
10.5856393148256
20
-1.47210709995463
30
0
41
1
10
10.6709985346007
20
-1.42232154995207
30
0
41
1
10
10.7518916686958
20
-1.37819622036935
30
0
41
1
10
10.8044495063051
20
-1.35159218968514
30
0
41
1
10
10.8268493375897
20
-1.34066106271598
30
0
0
SPLINE
5
E3
100
AcDbEntity
8
1
62
256
6
ByLayer
370
18
48
1
60
0
100
AcDbSpline
70
4
71
3
72
18
73
14
40
0
40
0
40
0
40
0
40
0.172398937445497
40
0.172398937445497
40
0.344797874890995
40
0.344797874890995
40
0.517196812336492
40
0.517196812336492
40
0.689595749781989
40
0.689595749781989
40
0.861994687227487
40
0.861994687227487
40
1
40
1
40
1
40
1
41
1
10
8.49862181782444
20
-1.43173125744013
30
0
41
1
10
8.61070713682531
20
-1.41631392498166
30
0
41
1
10
8.72351616932127
20
-1.40039544270743
30
0
41
1
10
8.95086234869356
20
-1.36787972701163
30
0
41
1
10
9.0654004379239
20
-1.35128076882106
30
0
41
1
10
9.29649294161601
20
-1.31796800844452
30
0
41
1
10
9.41304881218937
20
-1.30125342359284
30
0
41
1
10
9.64843576746111
20
-1.26855818202586
30
0
41
1
10
9.76726872118113
20
-1.25257851559101
30
0
41
1
10
10.0073889365877
20
-1.22248685657081
30
0
41
1
10
10.1286781616355
20
-1.20837826629904
30
0
41
1
10
10.3493051980531
20
-1.18587688120678
30
0
41
1
10
10.4481959587912
20
-1.1769090681349
30
0
41
1
10
10.5478469214568
20
-1.1693429529972
30
0
0
SPLINE
5
E4
100
AcDbEntity
8
1
62
256
6
ByLayer
370
18
48
1
60
0
100
AcDbSpline
70
4
71
3
72
21
73
17
40
0
40
0
40
0
40
0
40
0.125
40
0.125
40
0.25
40
0.25
40
0.375
40
0.375
40
0.5
40
0.625
40
0.625
40
0.75
40
0.75
40
0.875
40
0.875
40
1
40
1
40
1
40
1
41
1
10
19.9012424696191
20
0.0390885875985703
30
0
41
1
10
19.9094533038667
20
0.0474894165970738
30
0
41
1
10
19.9180929100997
20
0.0552744128017366
30
0
41
1
10
19.9361324407688
20
0.0697410493499717
30
0
41
1
10
19.9455338777486
20
0.0764206212944885
30
0
41
1
10
19.9651218133173
20
0.0886522362770847
30
0
41
1
10
19.9753781184689
20
0.0942262577392228
30
0
41
1
10
19.9962038292335
20
0.103893717941844
30
0
41
1
10
20.0174286354477
20
0.112155003676151
30
0
41
1
10
20.0395081695862
20
0.117640173196548
30
0
41
1
10
20.0620546824833
20
0.1217147219742
30
0
41
1
10
20.0733899269003
20
0.123012423326713
30
0
41
1
10
20.0960495687671
20
0.124208871880256
30
0
41
1
10
20.1074002104618
20
0.124111982051232
30
0
41
1
10
20.1301694426639
20
0.122596644100156
30
0
41
1
10
20.1416246120191
20
0.12117030449113
30
0
41
1
10
20.1530203487125
20
0.119123666416669
30
0
0
SPLINE
5
E5
100
AcDbEntity
8
1
62
256
6
ByLayer
370
18
48
1
60
0
100
AcDbSpline
70
4
71
3
72
52
73
48
40
0
40
0
40
0
40
0
40
0.0108128358359854
40
0.0214696013538695
40
0.0319703491370261
40
0.042315137849594
40
0.0525040323751041
40
0.0625371039703599
40
0.0724144304355968
40
0.0821360963043605
40
0.0917021930540243
40
0.101112819340589
40
0.110368081260016
40
0.119468092638267
40
0.128412975354913
40
0.137202859702003
40
0.145837884783671
40
0.154318198959489
40
0.162643960337322
40
0.17081533732038
40
0.17883250921493
40
0.186695666904899
40
0.194405013601407
40
0.201960765675372
40
0.209363153582898
40
0.21661242289463
40
0.223708835441098
40
0.230652670588458
40
0.237444226660991
40
0.244083822528202
40
0.250571799378583
40
0.284502878654758
40
0.319030560122798
40
0.35418145858818
40
0.389980842899337
40
0.426452686502887
40
0.463619721293499
40
0.501503493504473
40
0.545551135324606
40
0.59239375851048
40
0.642052951910935
40
0.694546780016672
40
0.74989051091183
40
0.808097175415375
40
0.869178001084237
40
0.933142752417447
40
1
40
1
40
1
40
1
41
1
10
11.4990374999597
20
0.205304299760542
30
0
41
1
10
11.4968716881737
20
0.211241558566968
30
0
41
1
10
11.4925713254976
20
0.223030378969156
30
0
41
1
10
11.4861013875533
20
0.240607416686004
30
0
41
1
10
11.4796721063496
20
0.257935473725098
30
0
41
1
10
11.4732763271337
20
0.27501063260695
30
0
41
1
10
11.4669127205268
20
0.291826948970424
30
0
41
1
10
11.4605789092316
20
0.308379656312127
30
0
41
1
10
11.4542732443492
20
0.324664299946079
30
0
41
1
10
11.4479943155996
20
0.340676937121088
30
0
41
1
10
11.4417410552206
20
0.356414057646759
30
0
41
1
10
11.4355126866606
20
0.37187257755528
30
0
41
1
10
11.4293087141919
20
0.387049813611384
30
0
41
1
10
11.4231289021739
20
0.401943462895133
30
0
41
1
10
11.4169732574317
20
0.416551581206335
30
0
41
1
10
11.4108420112753
20
0.430872562009029
30
0
41
1
10
11.4047356021072
20
0.444905115538631
30
0
41
1
10
11.3986546584094
20
0.458648248238717
30
0
41
1
10
11.3925999821898
20
0.472101242541498
30
0
41
1
10
11.3865725329038
20
0.485263637047922
30
0
41
1
10
11.3805734118348
20
0.498135207121152
30
0
41
1
10
11.3746038470771
20
0.510715945999294
30
0
41
1
10
11.3686651786551
20
0.523006046193331
30
0
41
1
10
11.3627588455126
20
0.535005882141689
30
0
41
1
10
11.3568863681282
20
0.546715990712244
30
0
41
1
10
11.3510493493752
20
0.558137061983416
30
0
41
1
10
11.3452494118168
20
0.569269895407274
30
0
41
1
10
11.3394883672002
20
0.580115483734488
30
0
41
1
10
11.3337675495414
20
0.59067463806565
30
0
41
1
10
11.32809017018
20
0.600949272213455
30
0
41
1
10
11.314460685737
20
0.625098211909204
30
0
41
1
10
11.2918743256263
20
0.66303945596141
30
0
41
1
10
11.2588586752796
20
0.714337728007536
30
0
41
1
10
11.2235266962058
20
0.765394633905714
30
0
41
1
10
11.1859370663517
20
0.816244249166999
30
0
41
1
10
11.1461439004608
20
0.866927281442713
30
0
41
1
10
11.1042060750965
20
0.917492216024783
30
0
41
1
10
11.0580875789293
20
0.970408205953817
30
0
41
1
10
11.0068191139655
20
1.02643634370185
30
0
41
1
10
10.9495148551159
20
1.08638836221439
30
0
41
1
10
10.8875742242898
20
1.14883405880147
30
0
41
1
10
10.8210394305726
20
1.21381657287688
30
0
41
1
10
10.7499532522545
20
1.28138109624913
30
0
41
1
10
10.6743600001013
20
1.35157639127789
30
0
41
1
10
10.5942903405769
20
1.42443679273021
30
0
41
1
10
10.5098222008706
20
1.5000536558951
30
0
41
1
10
10.4517826126357
20
1.55107855658363
30
0
41
1
10
10.4221211860226
20
1.57715509146678
30
0
0
SPLINE
5
E6
100
AcDbEntity
8
1
62
256
6
ByLayer
370
18
48
1
60
0
100
AcDbSpline
70
4
71
5
72
45
73
39
40
0
40
0
40
0
40
0
40
0
40
0
40
0.018324705176009
40
0.0538481956899441
40
0.0775305226992343
40
0.11305401321317
40
0.13673634022246
40
0.172259830736395
40
0.20778332125033
40
0.23146564825962
40
0.266989138773555
40
0.290671465782845
40
0.326194956296781
40
0.349877283306071
40
0.385400773820006
40
0.420924264333941
40
0.444606591343231
40
0.468288918352521
40
0.503812408866457
40
0.539335899380392
40
0.563018226389682
40
0.598541716903617
40
0.634065207417552
40
0.657747534426837
40
0.681429861436132
40
0.716953351950068
40
0.752476842464003
40
0.776159169473293
40
0.811682659987228
40
0.835364986996518
40
0.870888477510454
40
0.894570804519743
40
0.930094295033679
40
0.965617785547614
40
0.989300112556904
40
1
40
1
40
1
40
1
40
1
40
1
41
1
10
12.0886245243319
20
1.16095749665217
30
0
41
1
10
12.110231310227
20
1.1610930854925
30
0
41
1
10
12.1737240880878
20
1.16118771206445
30
0
41
1
10
12.2651408605926
20
1.16003831075764
30
0
41
1
10
12.3984436250632
20
1.15566387629229
30
0
41
1
10
12.5596703841777
20
1.14563371208223
30
0
41
1
10
12.7411763493631
20
1.12880954029666
30
0
41
1
10
12.9226823145484
20
1.10652594361363
30
0
41
1
10
13.1041882797338
20
1.07835842680967
30
0
41
1
10
13.2856942449191
20
1.04497888269543
30
0
41
1
10
13.4672002101045
20
1.00605089425233
30
0
41
1
10
13.6487061752899
20
0.962271737189781
30
0
41
1
10
13.8162501431532
20
0.917557508971896
30
0
41
1
10
13.9977561083386
20
0.864695840692633
30
0
41
1
10
14.1792620735239
20
0.807642229060008
30
0
41
1
10
14.3607680387093
20
0.746288425119104
30
0
41
1
10
14.5283120065727
20
0.686324574726683
30
0
41
1
10
14.709817971758
20
0.618080384993704
30
0
41
1
10
14.8913239369433
20
0.546850124411719
30
0
41
1
10
15.0588679048068
20
0.478626716879319
30
0
41
1
10
15.2403738699921
20
0.402404680155655
30
0
41
1
10
15.4358418324994
20
0.3180277679798
30
0
41
1
10
15.6173477976847
20
0.237976836138074
30
0
41
1
10
15.7848917655481
20
0.163021933325098
30
0
41
1
10
15.9663977307335
20
0.0810735139540668
30
0
41
1
10
16.1479036959188
20
-0.0012665878856524
30
0
41
1
10
16.3154476637822
20
-0.0773048956211255
30
0
41
1
10
16.4969536289676
20
-0.159306091350743
30
0
41
1
10
16.6784595941529
20
-0.240449524136608
30
0
41
1
10
16.8599655593383
20
-0.320411139765497
30
0
41
1
10
17.0275095272017
20
-0.392810766903068
30
0
41
1
10
17.209015492387
20
-0.469326406800462
30
0
41
1
10
17.3905214575724
20
-0.543592836483811
30
0
41
1
10
17.5720274227577
20
-0.614980379460292
30
0
41
1
10
17.7242637068462
20
-0.672362899531237
30
0
41
1
10
17.8485759962909
20
-0.717201610738755
30
0
41
1
10
17.9310022937696
20
-0.745981415231455
30
0
41
1
10
17.9715425992826
20
-0.759899057513138
30
0
41
1
10
17.9841589101516
20
-0.764207082324361
30
0
0
SPLINE
5
E7
100
AcDbEntity
8
1
62
256
6
ByLayer
370
18
48
1
60
0
100
AcDbSpline
70
4
71
3
72
28
73
24
40
0
40
0
40
0
40
0
40
0.0786859530346531
40
0.158565303370442
40
0.239605916826298
40
0.275310722524731
40
0.311820249982456
40
0.349129988169703
40
0.387234910973873
40
0.426129457482659
40
0.465807512323566
40
0.50626238371249
40
0.547486756884965
40
0.589472697532079
40
0.632211664949696
40
0.675694501152894
40
0.71991142092332
40
0.764852003497172
40
0.810505186073373
40
0.856859259321848
40
0.903901865071647
40
0.951619996357303
40
1
40
1
40
1
40
1
41
1
10
11.8005300111117
20
1.2961777362018
30
0
41
1
10
11.7931617245019
20
1.28812239715205
30
0
41
1
10
11.7783133995271
20
1.27188954705733
30
0
41
1
10
11.7554424774739
20
1.24682814008344
30
0
41
1
10
11.7364179146745
20
1.22595391508386
30
0
41
1
10
11.7214264483133
20
1.20949976776095
30
0
41
1
10
11.710642244599
20
1.19766423883669
30
0
41
1
10
11.6995519634779
20
1.18548819251575
30
0
41
1
10
11.6881554633743
20
1.17296870330651
30
0
41
1
10
11.6764527931019
20
1.16010269215124
30
0
41
1
10
11.6644439507103
20
1.14688753272301
30
0
41
1
10
11.6521289551624
20
1.13332094034106
30
0
41
1
10
11.6395078202073
20
1.11940094925441
30
0
41
1
10
11.6265805650718
20
1.10512599262816
30
0
41
1
10
11.6133472130637
20
1.09049499592578
30
0
41
1
10
11.5998077921627
20
1.07550739909703
30
0
41
1
10
11.5859623189231
20
1.06016317963173
30
0
41
1
10
11.5718108607408
20
1.0444629559091
30
0
41
1
10
11.5573532974762
20
1.02840776344158
30
0
41
1
10
11.5425902322364
20
1.01200008481109
30
0
41
1
10
11.527519514297
20
0.995240088237694
30
0
41
1
10
11.512149503829
20
0.978140143609721
30
0
41
1
10
11.5017527479685
20
0.966571675890236
30
0
41
1
10
11.4965185664021
20
0.960747603333289
30
0
0
SPLINE
5
E8
100
AcDbEntity
8
1
62
256
6
ByLayer
370
18
48
1
60
0
100
AcDbSpline
70
4
71
3
72
14
73
10
40
0
40
0
40
0
40
0
40
0.250000000000001
40
0.250000000000001
40
0.375000000000001
40
0.375000000000001
40
0.500000000000001
40
0.500000000000001
40
1
40
1
40
1
40
1
41
1
10
20.9012780658861
20
-1.81934064822005
30
0
41
1
10
20.8958386039622
20
-1.83892103217431
30
0
41
1
10
20.8918822568753
20
-1.85719540445845
30
0
41
1
10
20.8882511032402
20
-1.88257864781386
30
0
41
1
10
20.8874255582742
20
-1.89071404274699
30
0
41
1
10
20.8865627041146
20
-1.90616004077714
30
0
41
1
10
20.886521853042
20
-1.91348692236886
30
0
41
1
10
20.8882382268876
20
-1.94817345160425
30
0
41
1
10
20.8957323066841
20
-1.96971485098911
30
0
41
1
10
20.9091445754283
20
-1.985254095313
30
0
0
SPLINE
5
E9
100
AcDbEntity
8
1
62
256
6
ByLayer
370
18
48
1
60
0
100
AcDbSpline
70
4
71
3
72
8
73
4
40
0
40
0
40
0
40
0
40
1
40
1
40
1
40
1
41
1
10
20.901278065891
20
-1.81934064822005
30
0
41
1
10
20.8857675604486
20
-1.79765921502019
30
0
41
1
10
20.870318186406
20
-1.77405122482097
30
0
41
1
10
20.8549316515245
20
-1.74846285749908
30
0
0
SPLINE
5
EA
100
AcDbEntity
8
1
62
256
6
ByLayer
370
18
48
1
60
0
100
AcDbSpline
70
4
71
3
72
8
73
4
40
0
40
0
40
0
40
0
40
1
40
1
40
1
40
1
41
1
10
20.7814147171066
20
-1.9927033029175
30
0
41
1
10
20.8239948260291
20
-1.99026563009141
30
0
41
1
10
20.8665716023877
20
-1.98778460300733
30
0
41
1
10
20.9091445754281
20
-1.985254095313
30
0
0
SPLINE
5
EB
100
AcDbEntity
8
1
62
256
6
ByLayer
370
18
48
1
60
0
100
AcDbSpline
70
4
71
3
72
8
73
4
40
0
40
0
40
0
40
0
40
1
40
1
40
1
40
1
41
1
10
20.9012780658913
20
0.509505384737764
30
0
41
1
10
20.8857505275851
20
0.558295020677065
30
0
41
1
10
20.8703011713332
20
0.606399506299795
30
0
41
1
10
20.8549316515245
20
0.653804343327209
30
0
0
SPLINE
5
EC
100
AcDbEntity
8
1
62
256
6
ByLayer
370
18
48
1
60
0
100
AcDbSpline
70
4
71
3
72
26
73
22
40
0
40
0
40
0
40
0
40
0.200150132585618
40
0.200150132585618
40
0.300225198878427
40
0.300225198878427
40
0.400300265171236
40
0.400300265171236
40
0.45033779831764
40
0.45033779831764
40
0.500375331464045
40
0.500375331464045
40
0.600450397756858
40
0.600450397756858
40
0.800600530342486
40
0.800600530342486
40
0.9006755966353
40
0.9006755966353
40
0.950713129781707
40
0.950713129781707
40
1
40
1
40
1
40
1
41
1
10
20.8549316515241
20
0.653804343327181
30
0
41
1
10
20.665424303176
20
0.786863971412572
30
0
41
1
10
20.477818487203
20
0.913374269807463
30
0
41
1
10
20.1962738238899
20
1.09065205785566
30
0
41
1
10
20.1024207852347
20
1.1476665172892
30
0
41
1
10
19.9143018356883
20
1.25707904301274
30
0
41
1
10
19.8200352754209
20
1.30948515973165
30
0
41
1
10
19.6780358296249
20
1.38420377220879
30
0
41
1
10
19.6306032528884
20
1.40845703042493
30
0
41
1
10
19.5354769093054
20
1.45560077536948
30
0
41
1
10
19.4880020226629
20
1.47838251917292
30
0
41
1
10
19.3459281317404
20
1.54427887768341
30
0
41
1
10
19.2515984728296
20
1.58498722109383
30
0
41
1
10
18.9692508817857
20
1.69701544529627
30
0
41
1
10
18.7819226334687
20
1.75810751120386
30
0
41
1
10
18.4997201890148
20
1.82817733844229
30
0
41
1
10
18.405449611761
20
1.84795347280152
30
0
41
1
10
18.2634353835428
20
1.87201828357098
30
0
41
1
10
18.2159959599235
20
1.8791052648005
30
0
41
1
10
18.1215751718745
20
1.89126889043288
30
0
41
1
10
18.0747631905109
20
1.89635075040596
30
0
41
1
10
18.0281001540348
20
1.90046641385447
30
0
0
SPLINE
5
ED
100
AcDbEntity
8
1
62
256
6
ByLayer
370
18
48
1
60
0
100
AcDbSpline
70
4
71
3
72
8
73
4
40
0
40
0
40
0
40
0
40
1
40
1
40
1
40
1
41
1
10
10.4221211841188
20
1.57715509313596
30
0
41
1
10
10.407731808312
20
1.58887500499489
30
0
41
1
10
10.3933422269942
20
1.60059560079793
30
0
41
1
10
10.378952444669
20
1.6123168768757
30
0
0
SPLINE
5
EE
100
AcDbEntity
8
1
62
256
6
ByLayer
370
18
48
1
60
0
100
AcDbSpline
70
4
71
5
72
15
73
9
40
0
40
0
40
0
40
0
40
0
40
0
40
0.0306281895903621
40
0.446660347267817
40
0.724015119052787
40
1
40
1
40
1
40
1
40
1
40
1
41
1
10
11.9999999829197
20
1.86160605196858
30
0
41
1
10
11.9969163460435
20
1.860725437903
30
0
41
1
10
11.9519467172014
20
1.84783392854302
30
0
41
1
10
11.8790530937154
20
1.82577428862919
30
0
41
1
10
11.7783733957813
20
1.79273196941111
30
0
41
1
10
11.6776936978472
20
1.75620978435444
30
0
41
1
10
11.5800976367892
20
1.71764480651416
30
0
41
1
10
11.5243875676972
20
1.69462315114711
30
0
41
1
10
11.4966014932491
20
1.68289297535847
30
0
0
SPLINE
5
EF
100
AcDbEntity
8
1
62
256
6
ByLayer
370
18
48
1
60
0
100
AcDbSpline
70
4
71
5
72
22
73
16
40
0
40
0
40
0
40
0
40
0
40
0
40
0.244804630123296
40
0.30600578765412
40
0.397807523950356
40
0.45900868148118
40
0.550810417777416
40
0.61201157530824
40
0.703813311604476
40
0.795615047900712
40
0.856816205431536
40
0.948617941727772
40
1
40
1
40
1
40
1
40
1
40
1
41
1
10
11.4985585877095
20
0.20161161838837
30
0
41
1
10
11.6102545662851
20
0.15172005420024
30
0
41
1
10
11.7498745395047
20
0.0887558507722019
30
0
41
1
10
11.93138050469
20
0.0063297466380732
30
0
41
1
10
12.1408104645193
20
-0.0888680416239254
30
0
41
1
10
12.3921264163143
20
-0.201856438138435
30
0
41
1
10
12.5596703841777
20
-0.276300188934954
30
0
41
1
10
12.7411763493631
20
-0.355592676462066
30
0
41
1
10
12.9226823145484
20
-0.433186288285924
30
0
41
1
10
13.1041882797338
20
-0.508488248013037
30
0
41
1
10
13.2856942449191
20
-0.581332532651203
30
0
41
1
10
13.4627200909994
20
-0.649356139789631
30
0
41
1
10
13.5978599451139
20
-0.699005299360664
30
0
41
1
10
13.6911138072624
20
-0.73208595121244
30
0
41
1
10
13.7564436747671
20
-0.754650880314273
30
0
41
1
10
13.779887550306
20
-0.762668433923693
30
0
0
SPLINE
5
F0
100
AcDbEntity
8
1
62
256
6
ByLayer
370
18
48
1
60
0
100
AcDbSpline
70
4
71
3
72
8
73
4
40
0
40
0
40
0
40
0
40
1
40
1
40
1
40
1
41
1
10
11.6468416954201
20
-1.31945833327748
30
0
41
1
10
11.6973548918626
20
-1.31838359861385
30
0
41
1
10
11.7486171145986
20
-1.31674638071891
30
0
41
1
10
11.8006082513054
20
-1.31450265313583
30
0
0
SPLINE
5
F1
100
AcDbEntity
8
1
62
256
6
ByLayer
370
18
48
1
60
0
100
AcDbSpline
70
4
71
3
72
40
73
36
40
0
40
0
40
0
40
0
40
0.018123925038959
40
0.018123925038959
40
0.0999469312857153
40
0.0999469312857153
40
0.181769937532472
40
0.181769937532472
40
0.263592943779228
40
0.263592943779228
40
0.345415950025985
40
0.345415950025985
40
0.386327453149363
40
0.386327453149363
40
0.40678320471105
40
0.40678320471105
40
0.427238956272737
40
0.427238956272737
40
0.50906196251949
40
0.50906196251949
40
0.590884968766242
40
0.590884968766242
40
0.672707975012995
40
0.672707975012995
40
0.713619478136371
40
0.713619478136371
40
0.754530981259747
40
0.754530981259747
40
0.836353987506499
40
0.836353987506499
40
0.877265490629876
40
0.877265490629876
40
0.918176993753252
40
0.918176993753252
40
1
40
1
40
1
40
1
41
1
10
15.2610296822658
20
-1.64337594299917
30
0
41
1
10
15.2399577752897
20
-1.65144285647889
30
0
41
1
10
15.2188854326796
20
-1.65934351304986
30
0
41
1
10
15.1028479929157
20
-1.70191702735093
30
0
41
1
10
15.008330799963
20
-1.73316618328943
30
0
41
1
10
14.8198275984776
20
-1.78841693049242
30
0
41
1
10
14.725841261731
20
-1.81243266540935
30
0
41
1
10
14.5380962965318
20
-1.8528095635572
30
0
41
1
10
14.4443526740305
20
-1.86908204189243
30
0
41
1
10
14.2564865582036
20
-1.89444099186693
30
0
41
1
10
14.162389841866
20
-1.90348142426828
30
0
41
1
10
14.0207591774787
20
-1.91123412074319
30
0
41
1
10
13.973466935608
20
-1.91285121226062
30
0
41
1
10
13.9023672547166
20
-1.91379242778061
30
0
41
1
10
13.8786403947009
20
-1.91385914138897
30
0
41
1
10
13.831126479741
20
-1.9134888148011
30
0
41
1
10
13.8073176444314
20
-1.9130508614891
30
0
41
1
10
13.6883917186239
20
-1.90957852931484
30
0
41
1
10
13.5938753281196
20
-1.9025771123309
30
0
41
1
10
13.405377394392
20
-1.88107824540546
30
0
41
1
10
13.3113523270037
20
-1.86673807287266
30
0
41
1
10
13.1234535266694
20
-1.83090489081602
30
0
41
1
10
13.0295841191996
20
-1.80940952952233
30
0
41
1
10
12.8887022213581
20
-1.7714963632036
30
0
41
1
10
12.8417296033142
20
-1.75790557423369
30
0
41
1
10
12.747721096841
20
-1.72872599319553
30
0
41
1
10
12.7006853767578
20
-1.71312753621328
30
0
41
1
10
12.5593159153861
20
-1.66376889440403
30
0
41
1
10
12.4647185517662
20
-1.62748438960463
30
0
41
1
10
12.3220130973815
20
-1.56812409947045
30
0
41
1
10
12.2744108238754
20
-1.54754439684925
30
0
41
1
10
12.1794192296764
20
-1.50493348165287
30
0
41
1
10
12.1319823738469
20
-1.48288218853227
30
0
41
1
10
11.9897972153473
20
-1.41448463165744
30
0
41
1
10
11.8951886498446
20
-1.36585141634606
30
0
41
1
10
11.8005570503556
20
-1.31429544616762
30
0
0
SPLINE
5
F2
100
AcDbEntity
8
1
62
256
6
ByLayer
370
18
48
1
60
0
100
AcDbSpline
70
4
71
5
72
46
73
40
40
0
40
0
40
0
40
0
40
0
40
0
40
0.0179767340465454
40
0.052140573167789
40
0.0749164659152847
40
0.109080305036528
40
0.131856197784024
40
0.166020036905268
40
0.200183876026511
40
0.222959768774007
40
0.257123607895251
40
0.279899500642746
40
0.31406333976399
40
0.336839232511486
40
0.371003071632729
40
0.405166910753973
40
0.427942803501468
40
0.450718696248964
40
0.484882535370208
40
0.519046374491451
40
0.541822267238947
40
0.575986106360191
40
0.610149945481434
40
0.632925838228925
40
0.655701730976425
40
0.689865570097669
40
0.724029409218913
40
0.746805301966408
40
0.780969141087652
40
0.803745033835148
40
0.837908872956391
40
0.860684765703887
40
0.894848604825131
40
0.929012443946374
40
0.95178833669387
40
0.985952175815113
40
1
40
1
40
1
40
1
40
1
40
1
41
1
10
12.0864581137379
20
1.15201767944748
30
0
41
1
10
12.1084981817518
20
1.15077191552459
30
0
41
1
10
12.1724242417314
20
1.14684902921943
30
0
41
1
10
12.264274296355
20
1.13992459765186
30
0
41
1
10
12.3980103429444
20
1.12716450661546
30
0
41
1
10
12.5596703841777
20
1.10708625833237
30
0
41
1
10
12.7411763493631
20
1.07919975789821
30
0
41
1
10
12.9226823145484
20
1.04609084772338
30
0
41
1
10
13.1041882797338
20
1.00741773256624
30
0
41
1
10
13.2856942449191
20
0.963875467594477
30
0
41
1
10
13.4672002101045
20
0.915217130633323
30
0
41
1
10
13.6487061752898
20
0.862148900751379
30
0
41
1
10
13.8162501431532
20
0.809304671026268
30
0
41
1
10
13.9977561083386
20
0.748160709881603
30
0
41
1
10
14.1792620735239
20
0.6833859422986
30
0
41
1
10
14.3607680387093
20
0.614970313649195
30
0
41
1
10
14.5283120065727
20
0.549073732281414
30
0
41
1
10
14.709817971758
20
0.475068649874032
30
0
41
1
10
14.8913239369433
20
0.398768415119292
30
0
41
1
10
15.0588679048068
20
0.326523376892993
30
0
41
1
10
15.2403738699921
20
0.246679734271851
30
0
41
1
10
15.4358418324994
20
0.159294340821475
30
0
41
1
10
15.6173477976847
20
0.0772930605775741
30
0
41
1
10
15.7848917655481
20
0.001254727676212
30
0
41
1
10
15.9663977307335
20
-0.0810853441428776
30
0
41
1
10
16.1479036959188
20
-0.163033676320452
30
0
41
1
10
16.3154476637822
20
-0.237988446244799
30
0
41
1
10
16.4969536289676
20
-0.318039177943973
30
0
41
1
10
16.6784595941529
20
-0.396388907206017
30
0
41
1
10
16.8599655593383
20
-0.472804079513509
30
0
41
1
10
17.0275095272017
20
-0.541249430851963
30
0
41
1
10
17.209015492387
20
-0.612765140937057
30
0
41
1
10
17.3905214575724
20
-0.681337199228778
30
0
41
1
10
17.5720274227577
20
-0.74629751973049
30
0
41
1
10
17.7535333879431
20
-0.807650762140185
30
0
41
1
10
17.9243384536073
20
-0.861340139446781
30
0
41
1
10
18.0532575273057
20
-0.899114182200066
30
0
41
1
10
18.1402906090383
20
-0.92330135208266
30
0
41
1
10
18.199399696127
20
-0.939104367502267
30
0
41
1
10
18.2166227912498
20
-0.943655624921661
30
0
0
SPLINE
5
F3
100
AcDbEntity
8
1
62
256
6
ByLayer
370
18
48
1
60
0
100
AcDbSpline
70
4
71
3
72
8
73
4
40
0
40
0
40
0
40
0
40
1
40
1
40
1
40
1
41
1
10
11.646841695425
20
1.40730487864312
30
0
41
1
10
11.6973548918659
20
1.36923036079321
30
0
41
1
10
11.7486171146003
20
1.33221033224521
30
0
41
1
10
11.8006082513054
20
1.29622253796987
30
0
0
SPLINE
5
F4
100
AcDbEntity
8
1
62
256
6
ByLayer
370
18
48
1
60
0
100
AcDbSpline
70
4
71
3
72
72
73
68
40
0
40
0
40
0
40
0
40
0.0155990077540398
40
0.0155990077540398
40
0.0913221610037284
40
0.0913221610037284
40
0.129183737628572
40
0.129183737628572
40
0.148114525940994
40
0.148114525940994
40
0.167045314253415
40
0.167045314253415
40
0.204906890878259
40
0.204906890878259
40
0.242768467503102
40
0.242768467503102
40
0.280630044127945
40
0.280630044127945
40
0.318491620752788
40
0.318491620752788
40
0.33742240906521
40
0.33742240906521
40
0.356353197377632
40
0.356353197377632
40
0.394214774002475
40
0.394214774002475
40
0.432076350627319
40
0.432076350627319
40
0.469937927252162
40
0.469937927252162
40
0.507799503877005
40
0.507799503877005
40
0.526730292189428
40
0.526730292189428
40
0.545661080501851
40
0.545661080501851
40
0.583522657126694
40
0.583522657126694
40
0.621384233751538
40
0.621384233751538
40
0.659245810376381
40
0.659245810376381
40
0.697107387001225
40
0.697107387001225
40
0.716038175313646
40
0.716038175313646
40
0.725503569469858
40
0.725503569469858
40
0.73496896362607
40
0.73496896362607
40
0.772830540250917
40
0.772830540250917
40
0.810692116875764
40
0.810692116875764
40
0.848553693500611
40
0.848553693500611
40
0.867484481813034
40
0.867484481813034
40
0.886415270125458
40
0.886415270125458
40
0.924276846750305
40
0.924276846750305
40
0.943207635062728
40
0.943207635062728
40
0.962138423375151
40
0.962138423375151
40
1
40
1
40
1
40
1
41
1
10
19.2739310352364
20
-1.57447034399667
30
0
41
1
10
19.2350705612944
20
-1.5909881747134
30
0
41
1
10
19.1962584399038
20
-1.6069447153763
30
0
41
1
10
18.9692508817857
20
-1.69701544529642
30
0
41
1
10
18.7819226334687
20
-1.758107511204
30
0
41
1
10
18.4997201890148
20
-1.8281773384424
30
0
41
1
10
18.4054496117609
20
-1.84795347280163
30
0
41
1
10
18.2634353835427
20
-1.87201828357112
30
0
41
1
10
18.2159959599234
20
-1.87910526480061
30
0
41
1
10
18.1208615689448
20
-1.89136081932989
30
0
41
1
10
18.0733372618212
20
-1.89650532749383
30
0
41
1
10
17.9312299445394
20
-1.90895072125628
30
0
41
1
10
17.8369363634611
20
-1.91329183788227
30
0
41
1
10
17.6488286025965
20
-1.91413084447933
30
0
41
1
10
17.555026134546
20
-1.9105847790911
30
0
41
1
10
17.3674394205596
20
-1.89588070214322
30
0
41
1
10
17.2736358176733
20
-1.88480862158755
30
0
41
1
10
17.0856507536251
20
-1.85521587996786
30
0
41
1
10
16.9914741890113
20
-1.83668540984161
30
0
41
1
10
16.8496634363083
20
-1.80304895068889
30
0
41
1
10
16.8023017034058
20
-1.79086204700678
30
0
41
1
10
16.7073422477121
20
-1.76448430081433
30
0
41
1
10
16.659721058088
20
-1.75027075992722
30
0
41
1
10
16.5174718088957
20
-1.70513094976562
30
0
41
1
10
16.4230591117293
20
-1.67170500400331
30
0
41
1
10
16.2346563485699
20
-1.59867657039535
30
0
41
1
10
16.1406826192309
20
-1.55903258107915
30
0
41
1
10
15.952867660041
20
-1.47360173552269
30
0
41
1
10
15.8590352176228
20
-1.42777877260826
30
0
41
1
10
15.6711023689337
20
-1.33021360907449
30
0
41
1
10
15.5769759010065
20
-1.27858372247422
30
0
41
1
10
15.4352368457876
20
-1.1971279085943
30
0
41
1
10
15.3879009461581
20
-1.16929568283379
30
0
41
1
10
15.2929955750727
20
-1.11231080510788
30
0
41
1
10
15.2453415948181
20
-1.08310621317349
30
0
41
1
10
15.1028479929158
20
-0.994160699379933
30
0
41
1
10
15.008330799963
20
-0.933017642542097
30
0
41
1
10
14.8198275984776
20
-0.807621604810294
30
0
41
1
10
14.725841261731
20
-0.743373703416893
30
0
41
1
10
14.5380962965318
20
-0.612058912819123
30
0
41
1
10
14.4443526740304
20
-0.544942087146012
30
0
41
1
10
14.2564865582036
20
-0.408889845033485
30
0
41
1
10
14.162389841866
20
-0.339903379720226
30
0
41
1
10
14.0207591774787
20
-0.23520440236075
30
0
41
1
10
13.973466935608
20
-0.200103329022284
30
0
41
1
10
13.9023672547166
20
-0.147192065945291
30
0
41
1
10
13.8786403947008
20
-0.129511938281496
30
0
41
1
10
13.831126479741
20
-0.0940711798717757
30
0
41
1
10
13.8073176444314
20
-0.0762941435145592
30
0
41
1
10
13.6883917186239
20
0.0125675418722437
30
0
41
1
10
13.5938753281196
20
0.0834598026394531
30
0
41
1
10
13.405377394392
20
0.224078836572062
30
0
41
1
10
13.3113523270037
20
0.293784100304805
30
0
41
1
10
13.1234535266694
20
0.431571642351543
30
0
41
1
10
13.0295841191996
20
0.499659470974109
30
0
41
1
10
12.8887022213581
20
0.600223277191844
30
0
41
1
10
12.8417296033142
20
0.633482548277556
30
0
41
1
10
12.747721096841
20
0.699397564828246
30
0
41
1
10
12.7006853767578
20
0.732051065895661
30
0
41
1
10
12.5593159153861
20
0.8289795652706
30
0
41
1
10
12.4647185517662
20
0.892230690398037
30
0
41
1
10
12.3220130973815
20
0.984687722790454
30
0
41
1
10
12.2744108238754
20
1.01503694943216
30
0
41
1
10
12.1794192296764
20
1.07453598335187
30
0
41
1
10
12.1319823738469
20
1.10371675895084
30
0
41
1
10
11.9897972153473
20
1.18945046421734
30
0
41
1
10
11.8951886498447
20
1.24418230536045
30
0
41
1
10
11.8005570503556
20
1.29620727833157
30
0
0
SPLINE
5
F5
100
AcDbEntity
8
1
62
256
6
ByLayer
370
18
48
1
60
0
100
AcDbSpline
70
4
71
3
72
14
73
10
40
0
40
0
40
0
40
0
40
0.25
40
0.25
40
0.5
40
0.5
40
0.75
40
0.75
40
1
40
1
40
1
40
1
41
1
10
20.7531660558837
20
-1.04543540970499
30
0
41
1
10
20.7621541104679
20
-1.10352486110773
30
0
41
1
10
20.7710770624779
20
-1.16168596767307
30
0
41
1
10
20.788716798331
20
-1.27820704176332
30
0
41
1
10
20.7974242617678
20
-1.33657917630418
30
0
41
1
10
20.814354638921
20
-1.4538045163506
30
0
41
1
10
20.8226090171582
20
-1.51263049506122
30
0
41
1
10
20.8388790489192
20
-1.63045775369957
30
0
41
1
10
20.8469011015198
20
-1.68946378080534
30
0
41
1
10
20.8549316515245
20
-1.74846285749908
30
0
0
SPLINE
5
F6
100
AcDbEntity
8
1
62
256
6
ByLayer
370
18
48
1
60
0
100
AcDbSpline
70
4
71
3
72
16
73
12
40
0
40
0
40
0
40
0
40
0.250000000000011
40
0.250000000000011
40
0.312500000000011
40
0.312500000000011
40
0.375000000000011
40
0.375000000000011
40
0.500000000000011
40
0.500000000000011
40
1
40
1
40
1
40
1
41
1
10
19.8891731044355
20
-0.193318541111495
30
0
41
1
10
19.9537649437051
20
-0.274423599816032
30
0
41
1
10
20.0207544915918
20
-0.35355035156482
30
0
41
1
10
20.1075663744372
20
-0.449921706073667
30
0
41
1
10
20.1250822958109
20
-0.469069289873914
30
0
41
1
10
20.1604224944571
20
-0.507110038478288
30
0
41
1
10
20.1782305686834
20
-0.525984846387189
30
0
41
1
10
20.2318093638666
20
-0.581911676022514
30
0
41
1
10
20.2678296952908
20
-0.618369266233145
30
0
41
1
10
20.449372050112
20
-0.796700835721026
30
0
41
1
10
20.5991934652606
20
-0.926768011769752
30
0
41
1
10
20.7531660558837
20
-1.04543540970496
30
0
0
SPLINE
5
F7
100
AcDbEntity
8
1
62
256
6
ByLayer
370
18
48
1
60
0
100
AcDbSpline
70
4
71
3
72
26
73
22
40
0
40
0
40
0
40
0
40
0.125000000000036
40
0.125000000000036
40
0.187500000000033
40
0.187500000000033
40
0.25000000000003
40
0.25000000000003
40
0.375000000000026
40
0.375000000000026
40
0.437500000000023
40
0.437500000000023
40
0.500000000000021
40
0.500000000000021
40
0.625000000000016
40
0.625000000000016
40
0.75000000000001
40
0.75000000000001
40
0.875000000000005
40
0.875000000000005
40
1
40
1
40
1
40
1
41
1
10
19.8891731044385
20
-0.193318541115218
30
0
41
1
10
19.8824492978696
20
-0.184875760531042
30
0
41
1
10
19.8763593072369
20
-0.176061867299012
30
0
41
1
10
19.8683220441322
20
-0.162198025103038
30
0
41
1
10
19.8658265675225
20
-0.157469190836707
30
0
41
1
10
19.8612378907723
20
-0.147775820478586
30
0
41
1
10
19.8591356018395
20
-0.142785482363848
30
0
41
1
10
19.8535700379159
20
-0.127620313713834
30
0
41
1
10
19.8508603576654
20
-0.117325722429797
30
0
41
1
10
19.8483828676226
20
-0.10158805651858
30
0
41
1
10
19.8478223009737
20
-0.0962927223097552
30
0
41
1
10
19.8472573853885
20
-0.0855977482258652
30
0
41
1
10
19.8472568627433
20
-0.0801660152650925
30
0
41
1
10
19.848110089266
20
-0.0640829716242308
30
0
41
1
10
19.8497954073446
20
-0.0535658572096622
30
0
41
1
10
19.855268301317
20
-0.0329111133204378
30
0
41
1
10
19.859102593759
20
-0.0227193895257471
30
0
41
1
10
19.868452103316
20
-0.0034645971815337
30
0
41
1
10
19.8739823825697
20
0.0056998755814561
30
0
41
1
10
19.8866059363573
20
0.0231859616766315
30
0
41
1
10
19.8936338965371
20
0.0314078580752835
30
0
41
1
10
19.9012424696191
20
0.0390885875986271
30
0
0
SPLINE
5
F8
100
AcDbEntity
8
1
62
256
6
ByLayer
370
18
48
1
60
0
100
AcDbSpline
70
4
71
5
72
33
73
27
40
0
40
0
40
0
40
0
40
0
40
0
40
0.0148392317705255
40
0.0723779899224976
40
0.110737162023812
40
0.168275920175784
40
0.206635092277099
40
0.264173850429071
40
0.302533022530386
40
0.360071780682358
40
0.41761053883433
40
0.455969710935645
40
0.513508469087617
40
0.551867641188932
40
0.609406399340904
40
0.647765571442219
40
0.705304329594191
40
0.762843087746163
40
0.801202259847478
40
0.839561431948792
40
0.897100190100764
40
0.954638948252737
40
0.992998120354052
40
1
40
1
40
1
40
1
40
1
40
1
41
1
10
16.2614357279426
20
1.15336489848212
30
0
41
1
10
16.2722381151105
20
1.15280142631474
30
0
41
1
10
16.3249264942443
20
1.14992788538058
30
0
41
1
10
16.4055388680219
20
1.14459773139441
30
0
41
1
10
16.5280372337655
20
1.13433668209686
30
0
41
1
10
16.6784595941529
20
1.11774129840197
30
0
41
1
10
16.8599655593383
20
1.09232112496826
30
0
41
1
10
17.0275095272017
20
1.06397769254645
30
0
41
1
10
17.209015492387
20
1.02813922807178
30
0
41
1
10
17.3905214575724
20
0.9873231497495
30
0
41
1
10
17.5720274227577
20
0.941254146187759
30
0
41
1
10
17.7535333879431
20
0.890635781141185
30
0
41
1
10
17.9350393531284
20
0.835291506626049
30
0
41
1
10
18.1165453183138
20
0.775925158523478
30
0
41
1
10
18.2840892861771
20
0.717650487564043
30
0
41
1
10
18.4655952513625
20
0.651067836393338
30
0
41
1
10
18.6471012165478
20
0.581322259511552
30
0
41
1
10
18.8286071817332
20
0.50847758148106
30
0
41
1
10
18.9961511495966
20
0.438967764726499
30
0
41
1
10
19.1776571147819
20
0.361582196208076
30
0
41
1
10
19.3591630799673
20
0.282449751261368
30
0
41
1
10
19.5267070478307
20
0.208108024478292
30
0
41
1
10
19.6714241187981
20
0.143092952478668
30
0
41
1
10
19.7882171951217
20
0.090299261679661
30
0
41
1
10
19.8631242794794
20
0.0563665372292803
30
0
41
1
10
19.8961453718712
20
0.0413991326308576
30
0
41
1
10
19.9012424696191
20
0.0390885875985703
30
0
0
SPLINE
5
F9
100
AcDbEntity
8
1
62
256
6
ByLayer
370
18
48
1
60
0
100
AcDbSpline
70
4
71
3
72
58
73
54
40
0
40
0
40
0
40
0
40
0.0848374329081225
40
0.0848374329081225
40
0.127256149362183
40
0.127256149362183
40
0.169674865816243
40
0.169674865816243
40
0.190884224043273
40
0.190884224043273
40
0.212093582270303
40
0.212093582270303
40
0.254512298724365
40
0.254512298724365
40
0.33934973163249
40
0.33934973163249
40
0.381768448086553
40
0.381768448086553
40
0.402977806313584
40
0.402977806313584
40
0.424187164540614
40
0.424187164540614
40
0.466605880994676
40
0.466605880994676
40
0.509024597448737
40
0.509024597448737
40
0.551443313902798
40
0.551443313902798
40
0.59386203035686
40
0.59386203035686
40
0.615071388583889
40
0.615071388583889
40
0.636280746810919
40
0.636280746810919
40
0.678699463264978
40
0.678699463264978
40
0.721118179719037
40
0.721118179719037
40
0.763536896173097
40
0.763536896173097
40
0.805955612627156
40
0.805955612627156
40
0.827164970854185
40
0.827164970854185
40
0.848374329081215
40
0.848374329081215
40
0.890793045535274
40
0.890793045535274
40
0.933211761989333
40
0.933211761989333
40
0.975630478443393
40
0.975630478443393
40
1
40
1
40
1
40
1
41
1
10
20.8549316515241
20
-1.74846285749805
30
0
41
1
10
20.665424303176
20
-1.69138006624874
30
0
41
1
10
20.4778184872029
20
-1.61978288575213
30
0
41
1
10
20.1962738238899
20
-1.49414545772075
30
0
41
1
10
20.1024207852347
20
-1.44918597620409
30
0
41
1
10
19.9143018356882
20
-1.35343284788502
30
0
41
1
10
19.8200352754209
20
-1.30265280916339
30
0
41
1
10
19.6780358296248
20
-1.22219694892743
30
0
41
1
10
19.6306032528883
20
-1.19465603497767
30
0
41
1
10
19.5354769093053
20
-1.13820129394153
30
0
41
1
10
19.4880020226629
20
-1.10941916169358
30
0
41
1
10
19.3459281317403
20
-1.02170016765894
30
0
41
1
10
19.2515984728296
20
-0.961333533531729
30
0
41
1
10
18.9692508817857
20
-0.775172373817554
30
0
41
1
10
18.7819226334687
20
-0.644191047838348
30
0
41
1
10
18.4997201890148
20
-0.440771769247959
30
0
41
1
10
18.4054496117609
20
-0.371815366059963
30
0
41
1
10
18.2634353835427
20
-0.267017799795781
30
0
41
1
10
18.2159959599235
20
-0.231857483546662
30
0
41
1
10
18.1208615689448
20
-0.161140447071034
30
0
41
1
10
18.0733372618212
20
-0.125710542078849
30
0
41
1
10
17.9312299445394
20
-0.0196167748412392
30
0
41
1
10
17.8369363634612
20
0.050979209873617
30
0
41
1
10
17.6488286025964
20
0.191359407181722
30
0
41
1
10
17.555026134546
20
0.261151360968029
30
0
41
1
10
17.3674394205596
20
0.399338639165677
30
0
41
1
10
17.2736358176733
20
0.467723649401023
30
0
41
1
10
17.0856507536251
20
0.602588154207552
30
0
41
1
10
16.9914741890113
20
0.669072485298983
30
0
41
1
10
16.8496634363083
20
0.766964858035664
30
0
41
1
10
16.8023017034058
20
0.799289042645114
30
0
41
1
10
16.7073422477122
20
0.863241821575912
30
0
41
1
10
16.659721058088
20
0.894882768414703
30
0
41
1
10
16.5174718088957
20
0.987946284027487
30
0
41
1
10
16.4230591117294
20
1.04778250945498
30
0
41
1
10
16.2346563485699
20
1.16274571113021
30
0
41
1
10
16.140682619231
20
1.21786457581342
30
0
41
1
10
15.952867660041
20
1.32291692543853
30
0
41
1
10
15.8590352176228
20
1.37283389408952
30
0
41
1
10
15.6711023689338
20
1.46698145521296
30
0
41
1
10
15.5769759010065
20
1.51126564235344
30
0
41
1
10
15.4352368457877
20
1.57319753987346
30
0
41
1
10
15.3879009461581
20
1.59308555180033
30
0
41
1
10
15.2929955750727
20
1.6312900940101
30
0
41
1
10
15.2453415948181
20
1.64963688905453
30
0
41
1
10
15.1028479929158
20
1.70191702735085
30
0
41
1
10
15.008330799963
20
1.73316618328934
30
0
41
1
10
14.8198275984776
20
1.78841693049233
30
0
41
1
10
14.7258412617311
20
1.81243266540926
30
0
41
1
10
14.5380962965318
20
1.85280956355712
30
0
41
1
10
14.4443526740304
20
1.86908204189234
30
0
41
1
10
14.2964551430953
20
1.88904586597965
30
0
41
1
10
14.2424366547075
20
1.89512915122475
30
0
41
1
10
14.1883337999258
20
1.89996720687873
30
0
0
SPLINE
5
FA
100
AcDbEntity
8
1
62
256
6
ByLayer
370
18
48
1
60
0
100
AcDbSpline
70
4
71
3
72
8
73
4
40
0
40
0
40
0
40
0
40
1
40
1
40
1
40
1
41
1
10
20.7810889200038
20
0.0313941210791029
30
0
41
1
10
20.7865500480552
20
0.0300760377480458
30
0
41
1
10
20.7919244989836
20
0.0287719760821403
30
0
41
1
10
20.797201251541
20
0.0274837189443815
30
0
0
SPLINE
5
FB
100
AcDbEntity
8
1
62
256
6
ByLayer
370
18
48
1
60
0
100
AcDbSpline
70
4
71
3
72
43
73
39
40
0
40
0
40
0
40
0
40
0.0624999999999957
40
0.0624999999999957
40
0.124999999999991
40
0.124999999999991
40
0.187499999999987
40
0.187499999999987
40
0.249999999999983
40
0.249999999999983
40
0.28124999999998
40
0.28124999999998
40
0.312499999999978
40
0.312499999999978
40
0.343749999999976
40
0.343749999999976
40
0.374999999999973
40
0.374999999999973
40
0.390624999999972
40
0.390624999999972
40
0.406249999999971
40
0.406249999999971
40
0.437499999999969
40
0.468749999999966
40
0.468749999999966
40
0.499999999999964
40
0.499999999999964
40
0.562499999999972
40
0.562499999999972
40
0.62499999999998
40
0.62499999999998
40
0.687499999999989
40
0.687499999999989
40
0.749999999999997
40
0.749999999999997
40
0.874999999999999
40
0.874999999999999
40
1
40
1
40
1
40
1
41
1
10
20.7972012269755
20
0.0274837327789896
30
0
41
1
10
20.8113777714356
20
0.0240155607543215
30
0
41
1
10
20.8250297644255
20
0.0206342700652442
30
0
41
1
10
20.8506426785467
20
0.0141518321435967
30
0
41
1
10
20.8626116058979
20
0.0110493488091379
30
0
41
1
10
20.8838807707821
20
0.0052864468807172
30
0
41
1
10
20.8930377227961
20
0.0026647504544712
30
0
41
1
10
20.9069495604067
20
-0.0018035899329902
30
0
41
1
10
20.9117323392259
20
-0.0036552942897856
30
0
41
1
10
20.9138240858741
20
-0.0055383605317445
30
0
41
1
10
20.9136407417068
20
-0.0060033426054247
30
0
41
1
10
20.911337253926
20
-0.0065615814862667
30
0
41
1
10
20.9092204603752
20
-0.0066575168274028
30
0
41
1
10
20.9029084827781
20
-0.0064548709297014
30
0
41
1
10
20.8986770843656
20
-0.0061508859591584
30
0
41
1
10
20.8884374973836
20
-0.0051715969323425
30
0
41
1
10
20.8824110510237
20
-0.0044972241340133
30
0
41
1
10
20.8721354755621
20
-0.0032338521527606
30
0
41
1
10
20.8685029827728
20
-0.0027704910973512
30
0
41
1
10
20.8608219815208
20
-0.0017590068205777
30
0
41
1
10
20.8567657282481
20
-0.001209708725014
30
0
41
1
10
20.8441725601944
20
0.0005367106566609
30
0
41
1
10
20.8261451788824
20
0.0031412182239308
30
0
41
1
10
20.8060174475312
20
0.0062144622463336
30
0
41
1
10
20.785000923033
20
0.0094860588049812
30
0
41
1
10
20.7740004367786
20
0.0112287924242196
30
0
41
1
10
20.7403205779939
20
0.0166363274407217
30
0
41
1
10
20.7169455048984
20
0.0204806980709975
30
0
41
1
10
20.6689811273166
20
0.0284847054397801
30
0
41
1
10
20.6443849314033
20
0.0326461314844266
30
0
41
1
10
20.5943211804742
20
0.0411952254569599
30
0
41
1
10
20.5687992195756
20
0.0455926949983052
30
0
41
1
10
20.5176364303146
20
0.054464250355494
30
0
41
1
10
20.4919296516475
20
0.0589495603163925
30
0
41
1
10
20.4145256387074
20
0.072517555232281
30
0
41
1
10
20.3625489265101
20
0.0817106464226072
30
0
41
1
10
20.2581154667666
20
0.100286464159382
30
0
41
1
10
20.2056550443393
20
0.109670642447668
30
0
41
1
10
20.1530203487113
20
0.119123666416897
30
0
0
SPLINE
5
FC
100
AcDbEntity
8
1
62
256
6
ByLayer
370
18
48
1
60
0
100
AcDbSpline
70
4
71
3
72
8
73
4
40
0
40
0
40
0
40
0
40
1
40
1
40
1
40
1
41
1
10
11.2926653315874
20
1.59154474386909
30
0
41
1
10
11.3606440527389
20
1.62371036228805
30
0
41
1
10
11.4286227738904
20
1.65419505255946
30
0
41
1
10
11.4966014950419
20
1.68289296563225
30
0
0
SPLINE
5
FD
100
AcDbEntity
8
1
62
256
6
ByLayer
370
18
48
1
60
0
100
AcDbSpline
70
4
71
3
72
17
73
13
40
0
40
0
40
0
40
0
40
0.0848776707273025
40
0.0848776707273025
40
0.389918447151543
40
0.389918447151543
40
0.466178641257603
40
0.466178641257603
40
0.542438835363663
40
0.694959223575776
40
0.694959223575776
40
1
40
1
40
1
40
1
41
1
10
11.2924523574659
20
-1.58994929456853
30
0
41
1
10
11.2469630660911
20
-1.61150887400154
30
0
41
1
10
11.2014728212613
20
-1.6323155637572
30
0
41
1
10
10.9923791717458
20
-1.72435574629679
30
0
41
1
10
10.8284811369726
20
-1.78640448741194
30
0
41
1
10
10.6217490272461
20
-1.85019031353741
30
0
41
1
10
10.5802593394599
20
-1.86226975784029
30
0
41
1
10
10.4974692817568
20
-1.88490124232504
30
0
41
1
10
10.3734643099597
20
-1.91659433553943
30
0
41
1
10
10.2498318362719
20
-1.94150825619675
30
0
41
1
10
10.0026255441398
20
-1.98221369717507
30
0
41
1
10
9.83790359170479
20
-1.9972031134852
30
0
41
1
10
9.67208847347311
20
-1.99964475093265
30
0
0
SPLINE
5
FE
100
AcDbEntity
8
1
62
256
6
ByLayer
370
18
48
1
60
0
100
AcDbSpline
70
4
71
3
72
44
73
40
40
0
40
0
40
0
40
0
40
0.0624999999999946
40
0.0624999999999946
40
0.124999999999989
40
0.124999999999989
40
0.249999999999986
40
0.249999999999986
40
0.374999999999983
40
0.374999999999983
40
0.49999999999998
40
0.49999999999998
40
0.53124999999998
40
0.53124999999998
40
0.562499999999979
40
0.562499999999979
40
0.624999999999977
40
0.624999999999977
40
0.687499999999975
40
0.687499999999975
40
0.749999999999973
40
0.749999999999973
40
0.781249999999975
40
0.781249999999975
40
0.812499999999976
40
0.812499999999976
40
0.843749999999978
40
0.843749999999978
40
0.859374999999979
40
0.859374999999979
40
0.874999999999979
40
0.874999999999979
40
0.937499999999989
40
0.937499999999989
40
0.953124999999991
40
0.953124999999991
40
0.968749999999994
40
0.968749999999994
40
1
40
1
40
1
40
1
41
1
10
9.66832939883685
20
-1.99970907646576
30
0
41
1
10
9.63481294258833
20
-2.00015726041786
30
0
41
1
10
9.60137957479677
20
-2.00009194581602
30
0
41
1
10
9.53467942868028
20
-1.9988755704303
30
0
41
1
10
9.50136610745633
20
-1.99772142170889
30
0
41
1
10
9.40216945732547
20
-1.99255726143636
30
0
41
1
10
9.3369580400425
20
-1.98685782761584
30
0
41
1
10
9.20861650369037
20
-1.97050647893874
30
0
41
1
10
9.14548117064118
20
-1.95986113163161
30
0
41
1
10
9.02181322969901
20
-1.93290066636123
30
0
41
1
10
8.96126718816197
20
-1.91660113278351
30
0
41
1
10
8.887871915261
20
-1.89186842912173
30
0
41
1
10
8.87330924619044
20
-1.88670172470881
30
0
41
1
10
8.84444353849119
20
-1.87589607747219
30
0
41
1
10
8.83012766997288
20
-1.87025124224675
30
0
41
1
10
8.78782328803533
20
-1.85263926857607
30
0
41
1
10
8.76041709471193
20
-1.8399790306706
30
0
41
1
10
8.70756862727166
20
-1.81255754727391
30
0
41
1
10
8.68212259400281
20
-1.79779884980491
30
0
41
1
10
8.6337568210981
20
-1.76578394929052
30
0
41
1
10
8.61082852578616
20
-1.74853345695203
30
0
41
1
10
8.57902663364465
20
-1.72029971054687
30
0
41
1
10
8.56883510945434
20
-1.71046253181211
30
0
41
1
10
8.54968801338745
20
-1.69007500706823
30
0
41
1
10
8.54072105290194
20
-1.67952014734357
30
0
41
1
10
8.52420632121613
20
-1.65760611865767
30
0
41
1
10
8.51665756642146
20
-1.64624731931858
30
0
41
1
10
8.50660548613351
20
-1.62852401695224
30
0
41
1
10
8.50346727454161
20
-1.62250181788571
30
0
41
1
10
8.4976601636852
20
-1.6102111072787
30
0
41
1
10
8.49499501250708
20
-1.60394611830262
30
0
41
1
10
8.48308279185019
20
-1.57230676959986
30
0
41
1
10
8.47789873772641
20
-1.54574755650597
30
0
41
1
10
8.47857924773257
20
-1.51082039304166
30
0
41
1
10
8.47907714419839
20
-1.5037481679515
30
0
41
1
10
8.48085770523593
20
-1.48942412906987
30
0
41
1
10
8.48214903143216
20
-1.48214876323621
30
0
41
1
10
8.48719298670747
20
-1.4604508982182
30
0
41
1
10
8.4921189510973
20
-1.44604464338749
30
0
41
1
10
8.49862181785102
20
-1.43173125743621
30
0
0
SPLINE
5
FF
100
AcDbEntity
8
1
62
256
6
ByLayer
370
18
48
1
60
0
100
AcDbSpline
70
4
71
3
72
43
73
39
40
0
40
0
40
0
40
0
40
0.0312499999999931
40
0.0312499999999931
40
0.0624999999999863
40
0.0624999999999863
40
0.124999999999971
40
0.124999999999971
40
0.140624999999966
40
0.140624999999966
40
0.156249999999962
40
0.187499999999953
40
0.218749999999944
40
0.218749999999944
40
0.234374999999943
40
0.234374999999943
40
0.249999999999941
40
0.312499999999955
40
0.312499999999955
40
0.343749999999963
40
0.343749999999963
40
0.37499999999997
40
0.37499999999997
40
0.437499999999974
40
0.437499999999974
40
0.468749999999976
40
0.468749999999976
40
0.499999999999978
40
0.499999999999978
40
0.624999999999973
40
0.624999999999973
40
0.687499999999978
40
0.687499999999978
40
0.749999999999982
40
0.749999999999982
40
0.874999999999991
40
0.874999999999991
40
1
40
1
40
1
40
1
41
1
10
8.49862181784624
20
-1.43173125742428
30
0
41
1
10
8.49446579596312
20
-1.42085317109189
30
0
41
1
10
8.4908494116647
20
-1.40969620175178
30
0
41
1
10
8.48493997299713
20
-1.38715035402092
30
0
41
1
10
8.48262919692698
20
-1.37571995463577
30
0
41
1
10
8.47781981517645
20
-1.3409408346842
30
0
41
1
10
8.47742529287163
20
-1.31710579078037
30
0
41
1
10
8.48130939053934
20
-1.28642940542221
30
0
41
1
10
8.48231117054382
20
-1.28023191833509
30
0
41
1
10
8.48474770973095
20
-1.26790676330106
30
0
41
1
10
8.48905378169704
20
-1.24948109431034
30
0
41
1
10
8.49948752690798
20
-1.21910406889407
30
0
41
1
10
8.51132473380562
20
-1.19520562255099
30
0
41
1
10
8.52152385494443
20
-1.17745206087187
30
0
41
1
10
8.52515116383199
20
-1.1715535439248
30
0
41
1
10
8.53275284301304
20
-1.15995512676622
30
0
41
1
10
8.55267243447082
20
-1.13137197887403
30
0
41
1
10
8.57692809831929
20
-1.10478054151744
30
0
41
1
10
8.60958743652404
20
-1.07460437647268
30
0
41
1
10
8.62100383325193
20
-1.06489996381433
30
0
41
1
10
8.64452841299502
20
-1.04632910834042
30
0
41
1
10
8.6566743649835
20
-1.03742775476022
30
0
41
1
10
8.69412621969443
20
-1.01175615594107
30
0
41
1
10
8.72043960942503
20
-0.99601267940929
30
0
41
1
10
8.76154374362957
20
-0.974117221329408
30
0
41
1
10
8.7755530802516
20
-0.967091306588856
30
0
41
1
10
8.80390553202596
20
-0.953654188134408
30
0
41
1
10
8.81821905245408
20
-0.947254562310832
30
0
41
1
10
8.89039471461453
20
-0.916684217540251
30
0
41
1
10
8.95004151495093
20
-0.896713453817654
30
0
41
1
10
9.04148731685922
20
-0.871590857297832
30
0
41
1
10
9.07230623759975
20
-0.864038546814328
30
0
41
1
10
9.13453485996513
20
-0.850397463220645
30
0
41
1
10
9.16600361462105
20
-0.844301902481362
30
0
41
1
10
9.26033292948782
20
-0.828150251465416
30
0
41
1
10
9.32336397085723
20
-0.820145728985324
30
0
41
1
10
9.44965628253689
20
-0.808602314215477
30
0
41
1
10
9.51291815024948
20
-0.805073674400404
30
0
41
1
10
9.57627871587769
20
-0.803473280960191
30
0
0
SPLINE
5
100
100
AcDbEntity
8
1
62
256
6
ByLayer
370
18
48
1
60
0
100
AcDbSpline
70
4
71
3
72
24
73
20
40
0
40
0
40
0
40
0
40
0.124999999999971
40
0.124999999999971
40
0.187499999999969
40
0.187499999999969
40
0.249999999999967
40
0.249999999999967
40
0.374999999999962
40
0.374999999999962
40
0.499999999999957
40
0.499999999999957
40
0.624999999999952
40
0.624999999999952
40
0.68749999999995
40
0.68749999999995
40
0.749999999999947
40
0.749999999999947
40
1
40
1
40
1
40
1
41
1
10
9.57627871587758
20
-0.803473280960191
30
0
41
1
10
9.61269119832073
20
-0.802553555931127
30
0
41
1
10
9.64900966673821
20
-0.80405059250478
30
0
41
1
10
9.70337759287233
20
-0.809109676586502
30
0
41
1
10
9.72148166036621
20
-0.81127182420127
30
0
41
1
10
9.75765548368855
20
-0.816470607355342
30
0
41
1
10
9.77574345868823
20
-0.81951319931639
30
0
41
1
10
9.82941577217127
20
-0.829754086077656
30
0
41
1
10
9.86459786243699
20
-0.838080871265788
30
0
41
1
10
9.93392914108756
20
-0.857258767840563
30
0
41
1
10
9.96807673877399
20
-0.868113890963912
30
0
41
1
10
10.0354292519205
20
-0.892057297775551
30
0
41
1
10
10.0686334522405
20
-0.905147417950644
30
0
41
1
10
10.1177719938126
20
-0.92630471778395
30
0
41
1
10
10.1340399729008
20
-0.93361138072828
30
0
41
1
10
10.1663571851677
20
-0.948712437086328
30
0
41
1
10
10.1823828774314
20
-0.956496939080324
30
0
41
1
10
10.2614027751821
20
-0.996286865045562
30
0
41
1
10
10.3215343310133
20
-1.0310784217487
30
0
41
1
10
10.3789543824789
20
-1.06804948986073
30
0
0
SPLINE
5
101
100
AcDbEntity
8
1
62
256
6
ByLayer
370
18
48
1
60
0
100
AcDbSpline
70
4
71
3
72
10
73
6
40
0
40
0
40
0
40
0
40
0.5
40
0.5
40
1
40
1
40
1
40
1
41
1
10
10.378952123601
20
-1.06804803544304
30
0
41
1
10
10.5652270188411
20
-1.19109247947444
30
0
41
1
10
10.7515019140813
20
-1.30561573093522
30
0
41
1
10
11.1240517045616
20
-1.51220094780058
30
0
41
1
10
11.3103265998017
20
-1.60425511159954
30
0
41
1
10
11.4966014950419
20
-1.68289296563231
30
0
0
SPLINE
5
102
100
AcDbEntity
8
1
62
256
6
ByLayer
370
18
48
1
60
0
100
AcDbSpline
70
4
71
3
72
14
73
10
40
0
40
0
40
0
40
0
40
0.25
40
0.25
40
0.5
40
0.5
40
0.75
40
0.75
40
1
40
1
40
1
40
1
41
1
10
11.4967614244443
20
-1.68266986739928
30
0
41
1
10
11.5038933083513
20
-1.65678290646693
30
0
41
1
10
11.513286631586
20
-1.62979161193118
30
0
41
1
10
11.5349459046629
20
-1.57355035808922
30
0
41
1
10
11.5472342256365
20
-1.54427689887851
30
0
41
1
10
11.5736101674498
20
-1.48349211687093
30
0
41
1
10
11.5876401622984
20
-1.4521208504828
30
0
41
1
10
11.6166495552447
20
-1.38734161910219
30
0
41
1
10
11.6316329760601
20
-1.35393386306663
30
0
41
1
10
11.6468416954363
20
-1.31945833327714
30
0
0
SPLINE
5
103
100
AcDbEntity
8
1
62
256
6
ByLayer
370
18
48
1
60
0
100
AcDbSpline
70
4
71
3
72
17
73
13
40
0
40
0
40
0
40
0
40
0.249999999999989
40
0.249999999999989
40
0.499999999999977
40
0.499999999999977
40
0.562499999999979
40
0.562499999999979
40
0.624999999999981
40
0.749999999999985
40
0.749999999999985
40
1
40
1
40
1
40
1
41
1
10
11.6468416954178
20
-1.31945833326628
30
0
41
1
10
11.4827854297336
20
-1.22313452773904
30
0
41
1
10
11.3195352201948
20
-1.11917053560546
30
0
41
1
10
10.9923791717464
20
-0.898466972388547
30
0
41
1
10
10.8284811369732
20
-0.781719161022295
30
0
41
1
10
10.6217490272466
20
-0.629242967895323
30
0
41
1
10
10.5802593394603
20
-0.598382871450809
30
0
41
1
10
10.4974692817572
20
-0.536357515978807
30
0
41
1
10
10.3734643099601
20
-0.442786811876715
30
0
41
1
10
10.2498318362721
20
-0.347835711738952
30
0
41
1
10
10.0026255441399
20
-0.156655641078771
30
0
41
1
10
9.83790359170487
20
-0.0274952097439609
30
0
41
1
10
9.67208847347311
20
0.101885558110069
30
0
0
SPLINE
5
104
100
AcDbEntity
8
1
62
256
6
ByLayer
370
18
48
1
60
0
100
AcDbSpline
70
4
71
3
72
24
73
20
40
0
40
0
40
0
40
0
40
0.125000000000007
40
0.125000000000007
40
0.18750000000001
40
0.18750000000001
40
0.250000000000014
40
0.250000000000014
40
0.374999999999997
40
0.374999999999997
40
0.499999999999981
40
0.499999999999981
40
0.624999999999964
40
0.624999999999964
40
0.687499999999967
40
0.687499999999967
40
0.749999999999969
40
0.749999999999969
40
1
40
1
40
1
40
1
41
1
10
9.57627871588451
20
1.77100156288478
30
0
41
1
10
9.6126911983273
20
1.77146821496851
30
0
41
1
10
9.64900966674443
20
1.77071223863766
30
0
41
1
10
9.70337759287807
20
1.76813235196116
30
0
41
1
10
9.72148166037181
20
1.76702714334414
30
0
41
1
10
9.75765548369387
20
1.76435413193579
30
0
41
1
10
9.77574345869337
20
1.76278315515566
30
0
41
1
10
9.82941577217591
20
1.75745680044102
30
0
41
1
10
9.86459786244131
20
1.75308083782619
30
0
41
1
10
9.93392914109128
20
1.74279074361834
30
0
41
1
10
9.96807673877743
20
1.73687448655005
30
0
41
1
10
10.0354292519234
20
1.72349968007418
30
0
41
1
10
10.0686334522431
20
1.71604023957553
30
0
41
1
10
10.1177719938148
20
1.7036414856405
30
0
41
1
10
10.1340399729028
20
1.69930651607214
30
0
41
1
10
10.1663571851695
20
1.69021900145552
30
0
41
1
10
10.182382877433
20
1.68547210423381
30
0
41
1
10
10.2614027751831
20
1.66084712894755
30
0
41
1
10
10.3215343310138
20
1.63818946675718
30
0
41
1
10
10.3789543824789
20
1.61231528922107
30
0
0
SPLINE
5
105
100
AcDbEntity
8
1
62
256
6
ByLayer
370
18
48
1
60
0
100
AcDbSpline
70
4
71
3
72
10
73
6
40
0
40
0
40
0
40
0
40
0.5
40
0.5
40
1
40
1
40
1
40
1
41
1
10
10.378952123601
20
1.61231630709344
30
0
41
1
10
10.5652270188412
20
1.52620388211284
30
0
41
1
10
10.7515019140813
20
1.42723820334342
30
0
41
1
10
11.1240517045616
20
1.20828310090093
30
0
41
1
10
11.3103265998017
20
1.08830194597707
30
0
41
1
10
11.4966014950419
20
0.960655763717824
30
0
0
SPLINE
5
106
100
AcDbEntity
8
1
62
256
6
ByLayer
370
18
48
1
60
0
100
AcDbSpline
70
4
71
3
72
72
73
68
40
0
40
0
40
0
40
0
40
0.0111492921608029
40
0.0222525018665116
40
0.0333109400060941
40
0.0443259328055668
40
0.0552988216241864
40
0.0662309627286214
40
0.0771237270442062
40
0.0879784998832926
40
0.0987966806509985
40
0.10957968252742
40
0.120328932126616
40
0.131045869132647
40
0.141731945912549
40
0.152388627106077
40
0.163017389193434
40
0.173619720040274
40
0.184197118421204
40
0.19475109352208
40
0.205283164421651
40
0.215794859553256
40
0.226287716147714
40
0.236763279657844
40
0.24722310316591
40
0.257668746774979
40
0.26810177698522
40
0.278523766056584
40
0.288936291358907
40
0.299340934710776
40
0.309739281708925
40
0.320132921048992
40
0.330523443839674
40
0.340912442911607
40
0.351301512122291
40
0.361692245658889
40
0.372086237340621
40
0.382485079921657
40
0.392890364397028
40
0.403303679312209
40
0.413726610078443
40
0.424160738295289
40
0.466382257880325
40
0.510832722107528
40
0.557575296413893
40
0.606664100753577
40
0.658145652521455
40
0.712060068111729
40
0.722303371060992
40
0.733091267743073
40
0.744424066209961
40
0.756302033851229
40
0.768725404117796
40
0.781694381774976
40
0.795209147035304
40
0.809269858827514
40
0.823876657391224
40
0.839029666339912
40
0.854728994300103
40
0.870974736209664
40
0.887766974339634
40
0.905105779090131
40
0.922991209600211
40
0.941423314203872
40
0.96040213075805
40
0.979927686864039
40
1
40
1
40
1
40
1
41
1
10
9.67026567144561
20
0.104329329010284
30
0
41
1
10
9.67677288537618
20
0.100536317877243
30
0
41
1
10
9.68976041750358
20
0.092965972953067
30
0
41
1
10
9.70922940671335
20
0.0818515171171157
30
0
41
1
10
9.72863983624492
20
0.0709479134577009
30
0
41
1
10
9.74799581568814
20
0.060273164519657
30
0
41
1
10
9.76729901105395
20
0.0498261052434543
30
0
41
1
10
9.78655176033277
20
0.0396107262247085
30
0
41
1
10
9.8057562420704
20
0.0296296935224518
30
0
41
1
10
9.82491469524541
20
0.0198860735100936
30
0
41
1
10
9.84402935901019
20
0.0103828717321051
30
0
41
1
10
9.86310248701872
20
0.0011231541624568
30
0
41
1
10
9.88213634181804
20
-0.0078899868196913
30
0
41
1
10
9.90113319449418
20
-0.016653425138287
30
0
41
1
10
9.92009532285641
20
-0.0251640048196577
30
0
41
1
10
9.93902500994957
20
-0.0334185409114411
30
0
41
1
10
9.95792454241615
20
-0.041413821250444
30
0
41
1
10
9.9767962088348
20
-0.0491466080848397
30
0
41
1
10
9.99564229800046
20
-0.056613639819119
30
0
41
1
10
10.0144650971546
20
-0.0638116328115075
30
0
41
1
10
10.0332668901625
20
-0.0707372832445117
30
0
41
1
10
10.0520499556373
20
-0.0773872690644737
30
0
41
1
10
10.0708165650101
20
-0.0837582519938849
30
0
41
1
10
10.0895689805466
20
-0.0898468796161467
30
0
41
1
10
10.1083094533075
20
-0.0956497875352227
30
0
41
1
10
10.1270402210548
20
-0.101163601610892
30
0
41
1
10
10.1457635061013
20
-0.106384940271028
30
0
41
1
10
10.1644815131046
20
-0.111310416902143
30
0
41
1
10
10.1831964268042
20
-0.115936642319752
30
0
41
1
10
10.2019104097012
20
-0.120260227317175
30
0
41
1
10
10.2206255996835
20
-0.124277785302866
30
0
41
1
10
10.2393441075828
20
-0.127985934997127
30
0
41
1
10
10.2580680147163
20
-0.131381303295882
30
0
41
1
10
10.2767993702118
20
-0.134460527910505
30
0
41
1
10
10.2955401888703
20
-0.137220261242987
30
0
41
1
10
10.3142924467482
20
-0.139657170055301
30
0
41
1
10
10.3330580849819
20
-0.141767951247061
30
0
41
1
10
10.3518389825635
20
-0.143549287902715
30
0
41
1
10
10.3706370448068
20
-0.14499802882338
30
0
41
1
10
10.3894538593736
20
-0.146110533644844
30
0
41
1
10
10.4082919678051
20
-0.146885136078453
30
0
41
1
10
10.4462917626483
20
-0.147747204885547
30
0
41
1
10
10.5048658891931
20
-0.14650361639309
30
0
41
1
10
10.5856393148256
20
-0.1394532145749
30
0
41
1
10
10.6709985346007
20
-0.126507763289709
30
0
41
1
10
10.7611722520964
20
-0.107253764292608
30
0
41
1
10
10.8563258513202
20
-0.0812947586723283
30
0
41
1
10
10.9280089883748
20
-0.057738601439695
30
0
41
1
10
10.9745715000582
20
-0.0409540732665619
30
0
41
1
10
10.9946856310952
20
-0.0334761064586928
30
0
41
1
10
11.0158334481018
20
-0.0253951163219313
30
0
41
1
10
11.0380214827312
20
-0.0166921777100129
30
0
41
1
10
11.0612572756179
20
-0.0073517452418628
30
0
41
1
10
11.0855474137402
20
0.0026425088148585
30
0
41
1
10
11.1108979291606
20
0.0133063133743008
30
0
41
1
10
11.1373140103211
20
0.0246549990927463
30
0
41
1
10
11.164799901683
20
0.0367032342041682
30
0
41
1
10
11.1933587411517
20
0.0494648808263207
30
0
41
1
10
11.2229924065958
20
0.0629528077190571
30
0
41
1
10
11.2537013530551
20
0.077178694046836
30
0
41
1
10
11.2854844396549
20
0.0921528624200789
30
0
41
1
10
11.3183387725167
20
0.107883942257018
30
0
41
1
10
11.3522594563438
20
0.124379157609127
30
0
41
1
10
11.3872396781255
20
0.141642130502703
30
0
41
1
10
11.423269470946
20
0.159680345336199
30
0
41
1
10
11.4603396045753
20
0.178474901343805
30
0
41
1
10
11.4853843812543
20
0.191378203318266
30
0
41
1
10
11.4980796754594
20
0.197918937016226
30
0
0
SPLINE
5
107
100
AcDbEntity
8
1
62
256
6
ByLayer
370
18
48
1
60
0
100
AcDbSpline
70
4
71
3
72
69
73
65
40
0
40
0
40
0
40
0
40
0.031250000000006
40
0.031250000000006
40
0.0625000000000119
40
0.0625000000000119
40
0.125000000000024
40
0.125000000000024
40
0.187500000000036
40
0.187500000000036
40
0.250000000000048
40
0.250000000000048
40
0.31250000000006
40
0.31250000000006
40
0.343750000000065
40
0.343750000000065
40
0.375000000000071
40
0.375000000000071
40
0.406250000000077
40
0.406250000000077
40
0.437500000000083
40
0.437500000000083
40
0.468750000000089
40
0.468750000000089
40
0.500000000000095
40
0.500000000000095
40
0.531250000000101
40
0.531250000000101
40
0.562500000000107
40
0.562500000000107
40
0.57812500000011
40
0.57812500000011
40
0.585937500000112
40
0.585937500000112
40
0.593750000000113
40
0.625000000000119
40
0.625000000000119
40
0.63281250000012
40
0.63281250000012
40
0.64062500000012
40
0.656250000000122
40
0.671875000000124
40
0.671875000000124
40
0.687500000000126
40
0.687500000000126
40
0.718750000000125
40
0.718750000000125
40
0.734375000000122
40
0.734375000000122
40
0.750000000000119
40
0.750000000000119
40
0.781250000000108
40
0.781250000000108
40
0.812500000000097
40
0.812500000000097
40
0.828125000000092
40
0.828125000000092
40
0.843750000000086
40
0.843750000000086
40
0.875000000000069
40
0.875000000000069
40
0.937500000000034
40
0.937500000000034
40
1
40
1
40
1
40
1
41
1
10
9.66832939891373
20
0.105464027196831
30
0
41
1
10
9.64132841886229
20
0.126603757763263
30
0
41
1
10
9.61437698328942
20
0.147879840702075
30
0
41
1
10
9.56057287897863
20
0.190709793704286
30
0
41
1
10
9.53373903989427
20
0.212249092648051
30
0
41
1
10
9.45374269216381
20
0.277007911533275
30
0
41
1
10
9.40097311265509
20
0.320453123962523
30
0
41
1
10
9.29664956706907
20
0.407941585750194
30
0
41
1
10
9.24509435102127
20
0.451983856695136
30
0
41
1
10
9.14338661400453
20
0.540802075105915
30
0
41
1
10
9.09323158886346
20
0.58557599346139
30
0
41
1
10
8.9946597259063
20
0.676119374102711
30
0
41
1
10
8.94623725433669
20
0.721884180008743
30
0
41
1
10
8.87535448717927
20
0.791638288622863
30
0
41
1
10
8.85204248310581
20
0.815057352298822
30
0
41
1
10
8.80639756953616
20
0.862077249323931
30
0
41
1
10
8.78403301044415
20
0.885708062200024
30
0
41
1
10
8.74039347686553
20
0.933297731131546
30
0
41
1
10
8.71911740931125
20
0.957256021669821
30
0
41
1
10
8.67789850346202
20
1.00562254804174
30
0
41
1
10
8.65798985431184
20
1.02999602963845
30
0
41
1
10
8.62025879867531
20
1.07881262967257
30
0
41
1
10
8.60238514741371
20
1.10331124130036
30
0
41
1
10
8.56911379479766
20
1.15262061405349
30
0
41
1
10
8.55371080435631
20
1.17742986737338
30
0
41
1
10
8.5261295779467
20
1.22756262476815
30
0
41
1
10
8.51393885066551
20
1.25288251549026
30
0
41
1
10
8.49403605840016
20
1.3043805986789
30
0
41
1
10
8.48657920439331
20
1.32995273171693
30
0
41
1
10
8.4802247739843
20
1.36790728110083
30
0
41
1
10
8.47891191097358
20
1.38050214713539
30
0
41
1
10
8.47833092313036
20
1.39931888120563
30
0
41
1
10
8.47837124877319
20
1.40557472799034
30
0
41
1
10
8.47893561792708
20
1.41790383360507
30
0
41
1
10
8.48155340982126
20
1.44836855232603
30
0
41
1
10
8.49029457055187
20
1.47706298843391
30
0
41
1
10
8.50441092488316
20
1.50438331077194
30
0
41
1
10
8.50751633751236
20
1.50979646734976
30
0
41
1
10
8.51418670075299
20
1.52034542863967
30
0
41
1
10
8.52489334824503
20
1.53578774324322
30
0
41
1
10
8.54610662462719
20
1.55972853985861
30
0
41
1
10
8.56642883046106
20
1.57716155742611
30
0
41
1
10
8.58832880967944
20
1.59381645204459
30
0
41
1
10
8.59992524837278
20
1.60164523559388
30
0
41
1
10
8.63620625915402
20
1.62374603704092
30
0
41
1
10
8.66245572426246
20
1.63671118428439
30
0
41
1
10
8.70425849291814
20
1.65420815461323
30
0
41
1
10
8.71861797253814
20
1.65971741325706
30
0
41
1
10
8.74800626468081
20
1.67013419592541
30
0
41
1
10
8.76292114877162
20
1.67500291213085
30
0
41
1
10
8.80824051253424
20
1.68875041730811
30
0
41
1
10
8.83921543187557
20
1.69677848035798
30
0
41
1
10
8.90237193484191
20
1.7111378058145
30
0
41
1
10
8.93455583024021
20
1.71746473603568
30
0
41
1
10
8.98358877284048
20
1.72594842489815
30
0
41
1
10
9.00005995383572
20
1.72860727619894
30
0
41
1
10
9.03323745918306
20
1.7336200718556
30
0
41
1
10
9.04996676676421
20
1.73597668731483
30
0
41
1
10
9.10019480740479
20
1.74259374206412
30
0
41
1
10
9.13380142704216
20
1.74641630863343
30
0
41
1
10
9.2349301481278
20
1.75645243531193
30
0
41
1
10
9.30275816906732
20
1.76125360362173
30
0
41
1
10
9.43905716019779
20
1.76809389166718
30
0
41
1
10
9.5075300937574
20
1.77012049997407
30
0
41
1
10
9.57627871587866
20
1.77100156288472
30
0
0
SPLINE
5
108
100
AcDbEntity
8
1
62
256
6
ByLayer
370
18
48
1
60
0
100
AcDbSpline
70
4
71
3
72
12
73
8
40
0
40
0
40
0
40
0
40
0.364099809281734
40
0.364099809281734
40
0.728199618563468
40
0.728199618563468
40
1
40
1
40
1
40
1
41
1
10
20.7812101598667
20
1.99269910034602
30
0
41
1
10
20.5982683473642
20
1.98049756074317
30
0
41
1
10
20.4153265348617
20
1.95297245561451
30
0
41
1
10
20.0494429098565
20
1.86853167875719
30
0
41
1
10
19.8665010973539
20
1.81161897516168
30
0
41
1
10
19.5469932852235
20
1.68882964241399
30
0
41
1
10
19.4104272855956
20
1.62888547298675
30
0
41
1
10
19.2738612859677
20
1.56227520706398
30
0
0
SPLINE
5
109
100
AcDbEntity
8
1
62
256
6
ByLayer
370
18
48
1
60
0
100
AcDbSpline
70
4
71
3
72
12
73
8
40
0
40
0
40
0
40
0
40
0.138488156191442
40
0.138488156191442
40
0.569244078095721
40
0.569244078095721
40
1
40
1
40
1
40
1
41
1
10
13.2741015751095
20
-1.98473779081053
30
0
41
1
10
13.215285728326
20
-1.99040224038589
30
0
41
1
10
13.1564698815426
20
-1.99449693292635
30
0
41
1
10
12.9147122222566
20
-2.00480327855482
30
0
41
1
10
12.7317704097539
20
-1.99724486516294
30
0
41
1
10
12.3658867847489
20
-1.95175834179349
30
0
41
1
10
12.1829449722463
20
-1.91383183131688
30
0
41
1
10
12.0000031597437
20
-1.86158776846
30
0
0
SPLINE
5
10A
100
AcDbEntity
8
1
62
256
6
ByLayer
370
18
48
1
60
0
100
AcDbSpline
70
4
71
3
72
28
73
24
40
0
40
0
40
0
40
0
40
0.0994258158923109
40
0.0994258158923109
40
0.198851631784622
40
0.198851631784622
40
0.298277447676933
40
0.298277447676933
40
0.397703263569244
40
0.397703263569244
40
0.497129079461554
40
0.497129079461554
40
0.596554895353865
40
0.596554895353865
40
0.695980711246176
40
0.695980711246176
40
0.795406527138487
40
0.795406527138487
40
0.894832343030798
40
0.894832343030798
40
0.994258158923109
40
0.994258158923109
40
1
40
1
40
1
40
1
41
1
10
20.7812101598667
20
0.0313098906560185
30
0
41
1
10
20.5982683473642
20
0.174222279976874
30
0
41
1
10
20.4153265348616
20
0.316888793423146
30
0
41
1
10
20.0494429098566
20
0.595217283096503
30
0
41
1
10
19.8665010973539
20
0.730869480160294
30
0
41
1
10
19.5006174723489
20
0.988957207109223
30
0
41
1
10
19.3176756598463
20
1.11138366874761
30
0
41
1
10
18.9517920348411
20
1.33741298380539
30
0
41
1
10
18.7688502223386
20
1.44100789588623
30
0
41
1
10
18.4029665973335
20
1.62462909736351
30
0
41
1
10
18.2200247848309
20
1.70464893595005
30
0
41
1
10
17.8541411598258
20
1.83745417451269
30
0
41
1
10
17.6711993473232
20
1.89023490827785
30
0
41
1
10
17.3053157223181
20
1.9661431733696
30
0
41
1
10
17.1223739098155
20
1.98926803687578
30
0
41
1
10
16.7564902848104
20
2.0048035990242
30
0
41
1
10
16.5735484723079
20
1.99721375281646
30
0
41
1
10
16.2076648473027
20
1.95166531624858
30
0
41
1
10
16.0247230348001
20
1.91370832740657
30
0
41
1
10
15.658839409795
20
1.80916159303555
30
0
41
1
10
15.4758975972925
20
1.74257552079183
30
0
41
1
10
15.2823908947331
20
1.65861246798042
30
0
41
1
10
15.2718260046763
20
1.65398568883521
30
0
41
1
10
15.2612611146195
20
1.64931666851999
30
0
0
SPLINE
5
10B
100
AcDbEntity
8
1
62
256
6
ByLayer
370
18
48
1
60
0
100
AcDbSpline
70
4
71
5
72
38
73
32
40
0
40
0
40
0
40
0
40
0
40
0
40
0.0310185956840794
40
0.0606203677733778
40
0.105023025907325
40
0.134624797996624
40
0.179027456130572
40
0.20862922821987
40
0.253031886353818
40
0.297434544487765
40
0.327036316577064
40
0.371438974711011
40
0.40104074680031
40
0.445443404934257
40
0.475045177023556
40
0.519447835157503
40
0.563850493291451
40
0.59345226538075
40
0.623054037470048
40
0.667456695603995
40
0.711859353737943
40
0.741461125827242
40
0.785863783961189
40
0.830266442095137
40
0.859868214184423
40
0.889469986273734
40
0.933872644407681
40
0.978275302541629
40
1
40
1
40
1
40
1
40
1
40
1
41
1
10
15.3021376444296
20
1.64093373194331
30
0
41
1
10
15.3313981595478
20
1.65348497714695
30
0
41
1
10
15.3885826693098
20
1.67749042306633
30
0
41
1
10
15.4876531710378
20
1.71728324948418
30
0
41
1
10
15.6146476674096
20
1.76420981879002
30
0
41
1
10
15.7835281557472
20
1.81940283316209
30
0
41
1
10
15.9510721236107
20
1.86605622907936
30
0
41
1
10
16.132578088796
20
1.90756894061022
30
0
41
1
10
16.3140840539814
20
1.93987310510065
30
0
41
1
10
16.4955900191667
20
1.96187180929556
30
0
41
1
10
16.677095984352
20
1.97438820299701
30
0
41
1
10
16.8586019495374
20
1.97641100443207
30
0
41
1
10
17.0401079147227
20
1.96888415333726
30
0
41
1
10
17.2076518825861
20
1.95315136661748
30
0
41
1
10
17.3891578477715
20
1.92667495843418
30
0
41
1
10
17.5706638129568
20
1.89088084746908
30
0
41
1
10
17.7521697781422
20
1.84503234393136
30
0
41
1
10
17.9197137460056
20
1.79447902669466
30
0
41
1
10
18.1012197111909
20
1.7310711406451
30
0
41
1
10
18.2827256763763
20
1.65930010119797
30
0
41
1
10
18.4502696442397
20
1.58561406312819
30
0
41
1
10
18.631775609425
20
1.49812377755023
30
0
41
1
10
18.8272435719323
20
1.39534295039064
30
0
41
1
10
19.0087495371176
20
1.29247470584613
30
0
41
1
10
19.176293504981
20
1.19175302039335
30
0
41
1
10
19.3577994701664
20
1.07693473076736
30
0
41
1
10
19.5393054353517
20
0.956913552523019
30
0
41
1
10
19.699418787604
20
0.846905819232489
30
0
41
1
10
19.8316081452124
20
0.753278109518135
30
0
41
1
10
19.9358735081769
20
0.677939476312417
30
0
41
1
10
19.9982528791755
20
0.63238942550862
30
0
41
1
10
20.0187462582082
20
0.617375492713705
30
0
0
SPLINE
5
10C
100
AcDbEntity
8
1
62
256
6
ByLayer
370
18
48
1
60
0
100
AcDbSpline
70
4
71
3
72
26
73
22
40
0
40
0
40
0
40
0
40
0.0343347195829951
40
0.0343347195829951
40
0.141630861851551
40
0.141630861851551
40
0.248927004120107
40
0.248927004120107
40
0.356223146388663
40
0.356223146388663
40
0.463519288657219
40
0.463519288657219
40
0.570815430925776
40
0.570815430925776
40
0.678111573194332
40
0.678111573194332
40
0.785407715462888
40
0.785407715462888
40
0.892703857731444
40
0.892703857731444
40
1
40
1
40
1
40
1
41
1
10
17.1150560023148
20
-1.98487837031917
30
0
41
1
10
17.0565147006475
20
-1.99049188368218
30
0
41
1
10
16.9979733989802
20
-1.99455013133243
30
0
41
1
10
16.7564902848104
20
-2.00480359902431
30
0
41
1
10
16.5735484723077
20
-1.99721375281658
30
0
41
1
10
16.2076648473028
20
-1.95166531624869
30
0
41
1
10
16.0247230348001
20
-1.91370832740668
30
0
41
1
10
15.658839409795
20
-1.80916159303564
30
0
41
1
10
15.4758975972925
20
-1.74257552079192
30
0
41
1
10
15.1100139722873
20
-1.58381768076461
30
0
41
1
10
14.9270721597848
20
-1.49165149083322
30
0
41
1
10
14.5611885347796
20
-1.28595202405492
30
0
41
1
10
14.378246722277
20
-1.17242597481254
30
0
41
1
10
14.0123630972719
20
-0.929203779029166
30
0
41
1
10
13.8294212847694
20
-0.799516178665073
30
0
41
1
10
13.4635376597641
20
-0.529908283195056
30
0
41
1
10
13.2805958472617
20
-0.389997461225619
30
0
41
1
10
12.9147122222565
20
-0.10634906711968
30
0
41
1
10
12.7317704097539
20
0.0373785387089356
30
0
41
1
10
12.3658867847488
20
0.32207933858831
30
0
41
1
10
12.1829449722462
20
0.463042529449638
30
0
41
1
10
12.0000031597436
20
0.599400998512209
30
0
0
SPLINE
5
10D
100
AcDbEntity
8
1
62
256
6
ByLayer
370
18
48
1
60
0
100
AcDbSpline
70
4
71
3
72
38
73
34
40
0
40
0
40
0
40
0
40
0.0624999999999999
40
0.0624999999999999
40
0.125
40
0.125
40
0.1875
40
0.1875
40
0.25
40
0.25
40
0.3125
40
0.3125
40
0.375
40
0.375
40
0.4375
40
0.4375
40
0.5
40
0.5
40
0.5625
40
0.5625
40
0.625
40
0.625
40
0.6875
40
0.6875
40
0.75
40
0.75
40
0.8125
40
0.8125
40
0.875
40
0.875
40
0.9375
40
0.9375
40
1
40
1
40
1
40
1
41
1
10
20.7812101598667
20
-1.99269910034616
30
0
41
1
10
20.5982683473641
20
-1.98049756074332
30
0
41
1
10
20.4153265348616
20
-1.95297245561466
30
0
41
1
10
20.0494429098565
20
-1.86853167875734
30
0
41
1
10
19.866501097354
20
-1.81161897516182
30
0
41
1
10
19.5006174723488
20
-1.67100705748095
30
0
41
1
10
19.3176756598463
20
-1.58731278380696
30
0
41
1
10
18.9517920348411
20
-1.39696831476169
30
0
41
1
10
18.7688502223386
20
-1.29032480787623
30
0
41
1
10
18.4029665973335
20
-1.05896359330527
30
0
41
1
10
18.2200247848309
20
-0.934254015617938
30
0
41
1
10
17.8541411598258
20
-0.672469982224754
30
0
41
1
10
17.6711993473232
20
-0.535404724806796
30
0
41
1
10
17.3053157223181
20
-0.255184828185776
30
0
41
1
10
17.1223739098155
20
-0.112040034750748
30
0
41
1
10
16.7564902848104
20
0.173784616175169
30
0
41
1
10
16.5735484723079
20
0.316454430935977
30
0
41
1
10
16.2076648473027
20
0.594796103011134
30
0
41
1
10
16.0247230348002
20
0.730458180663533
30
0
41
1
10
15.658839409795
20
0.988571796308406
30
0
41
1
10
15.4758975972925
20
1.11101426502171
30
0
41
1
10
15.1100139722873
20
1.33708098994018
30
0
41
1
10
14.9270721597848
20
1.44069730281305
30
0
41
1
10
14.5611885347797
20
1.62436572234787
30
0
41
1
10
14.378246722277
20
1.70441137571734
30
0
41
1
10
14.012363097272
20
1.83727147755133
30
0
41
1
10
13.8294212847694
20
1.89008125826442
30
0
41
1
10
13.4635376597642
20
1.96604951995744
30
0
41
1
10
13.2805958472617
20
1.98920533179168
30
0
41
1
10
12.9147122222566
20
2.00480327855473
30
0
41
1
10
12.7317704097539
20
1.99724486516285
30
0
41
1
10
12.3658867847489
20
1.95175834179344
30
0
41
1
10
12.1829449722463
20
1.91383183131683
30
0
41
1
10
12.0000031597437
20
1.86158776845994
30
0
0
SPLINE
5
10E
100
AcDbEntity
8
1
62
256
6
ByLayer
370
18
48
1
60
0
100
AcDbSpline
70
4
71
5
72
40
73
34
40
0
40
0
40
0
40
0
40
0
40
0
40
0.0015593923084286
40
0.0300064644098876
40
0.0726770725620762
40
0.101124144663535
40
0.143794752815724
40
0.186465360967912
40
0.214912433069372
40
0.25758304122156
40
0.286030113323019
40
0.328700721475208
40
0.357147793576667
40
0.399818401728856
40
0.442489009881044
40
0.470936081982503
40
0.499383154083962
40
0.542053762236151
40
0.58472437038834
40
0.613171442489799
40
0.655842050641987
40
0.698512658794176
40
0.726959730895628
40
0.755406802997094
40
0.798077411149283
40
0.840748019301471
40
0.86919509140293
40
0.911865699555119
40
0.940312771656578
40
0.982983379808767
40
1
40
1
40
1
40
1
40
1
40
1
41
1
10
11.3219974170299
20
1.57947695917491
30
0
41
1
10
11.323528135633
20
1.58018540065848
30
0
41
1
10
11.35298284888
20
1.59380393718396
30
0
41
1
10
11.4243235540928
20
1.6261550976954
30
0
41
1
10
11.5235882539495
20
1.66900322959714
30
0
41
1
10
11.6647389457721
20
1.72550534093494
30
0
41
1
10
11.8462449109574
20
1.78984054927548
30
0
41
1
10
12.0277508761427
20
1.84467205819604
30
0
41
1
10
12.2092568413281
20
1.89058771788243
30
0
41
1
10
12.3907628065134
20
1.92645053370444
30
0
41
1
10
12.5722687716988
20
1.9529967139791
30
0
41
1
10
12.7398127395622
20
1.96879461159764
30
0
41
1
10
12.9213187047475
20
1.97639241462267
30
0
41
1
10
13.1028246699329
20
1.97444067261102
30
0
41
1
10
13.2843306351182
20
1.96199506897304
30
0
41
1
10
13.4518746029816
20
1.94175336800385
30
0
41
1
10
13.633380568167
20
1.91045531401929
30
0
41
1
10
13.8148865333523
20
1.86992746555887
30
0
41
1
10
13.9824305012157
20
1.82415588981752
30
0
41
1
10
14.1639364664011
20
1.76575332813789
30
0
41
1
10
14.3594044289084
20
1.69276187947872
30
0
41
1
10
14.5409103940937
20
1.61597828565121
30
0
41
1
10
14.7084543619571
20
1.53789142640397
30
0
41
1
10
14.8899603271425
20
1.44590987780444
30
0
41
1
10
15.0714662923278
20
1.34694284731901
30
0
41
1
10
15.2390102601912
20
1.2495339459033
30
0
41
1
10
15.4205162253766
20
1.13796826686115
30
0
41
1
10
15.6020221905619
20
1.02037068892588
30
0
41
1
10
15.7835281557472
20
0.897872213787878
30
0
41
1
10
15.9398518519152
20
0.788605989003514
30
0
41
1
10
16.0682515534392
20
0.696424205618058
30
0
41
1
10
16.1547652629974
20
0.633356818933891
30
0
41
1
10
16.2133549779118
20
0.590253787433028
30
0
41
1
10
16.2300587008602
20
0.577934504607867
30
0
0
SPLINE
5
10F
100
AcDbEntity
8
1
62
256
6
ByLayer
370
18
48
1
60
0
100
AcDbSpline
70
4
71
3
72
8
73
4
40
0
40
0
40
0
40
0
40
1
40
1
40
1
40
1
41
1
10
20.7814147171066
20
0.0313328691042614
30
0
41
1
10
20.8239948260291
20
0.0233275186128594
30
0
41
1
10
20.8665716023877
20
0.0153212140455707
30
0
41
1
10
20.9091445754282
20
0.0073138214490314
30
0
0
SPLINE
5
110
100
AcDbEntity
8
1
62
256
6
ByLayer
370
18
48
1
60
0
100
AcDbSpline
70
4
71
3
72
14
73
10
40
0
40
0
40
0
40
0
40
0.250000000000002
40
0.250000000000002
40
0.375000000000001
40
0.375000000000001
40
0.500000000000001
40
0.500000000000001
40
1
40
1
40
1
40
1
41
1
10
20.901278065886
20
0.509505384738759
30
0
41
1
10
20.8958386039621
20
0.469544587353141
30
0
41
1
10
20.8918822568753
20
0.428852699281236
30
0
41
1
10
20.8882511032402
20
0.366679439143979
30
0
41
1
10
20.8874255582742
20
0.345727262699654
30
0
41
1
10
20.8865627041146
20
0.303811120788737
30
0
41
1
10
20.886521853042
20
0.282810961153132
30
0
41
1
10
20.8882382268877
20
0.177603194940787
30
0
41
1
10
20.8957323066841
20
0.0927773818035007
30
0
41
1
10
20.9091445754283
20
0.0073138214490029
30
0
0
SPLINE
5
111
100
AcDbEntity
8
1
62
256
6
ByLayer
370
18
48
1
60
0
100
AcDbSpline
70
4
71
5
72
13
73
7
40
0
40
0
40
0
40
0
40
0
40
0
40
0.320139525734813
40
1
40
1
40
1
40
1
40
1
40
1
41
1
10
11.9999999829197
20
0.599402514702689
30
0
41
1
10
11.9969163460434
20
0.601700972375454
30
0
41
1
10
11.987284180602
20
0.60887712612967
30
0
41
1
10
11.9776520151605
20
0.61604260402342
30
0
41
1
10
11.968019849719
20
0.623197194487432
30
0
41
1
10
11.9583876842776
20
0.630340686590756
30
0
41
1
10
11.9518391557123
20
0.635192068602834
30
0
0
SPLINE
5
112
100
AcDbEntity
8
1
62
256
6
ByLayer
370
18
48
1
60
0
100
AcDbSpline
70
4
71
5
72
14
73
8
40
0
40
0
40
0
40
0
40
0
40
0
40
0.284671785106859
40
0.643221353736986
40
1
40
1
40
1
40
1
40
1
40
1
41
1
10
11.886003644123
20
0.683749917916998
30
0
41
1
10
11.8638332830403
20
0.70002761024827
30
0
41
1
10
11.8137389273136
20
0.736662514674208
30
0
41
1
10
11.7358584971388
20
0.793088842781685
30
0
41
1
10
11.657978066964
20
0.8486223327684
30
0
41
1
10
11.5800976367893
20
0.903155786298669
30
0
41
1
10
11.5243875676972
20
0.941615163431834
30
0
41
1
10
11.4966014932491
20
0.960655766534046
30
0
0
SPLINE
5
113
100
AcDbEntity
8
1
62
256
6
ByLayer
370
18
48
1
60
0
100
AcDbSpline
70
4
71
5
72
18
73
12
40
0
40
0
40
0
40
0
40
0
40
0
40
0.358225455744429
40
0.447781819680536
40
0.582116365584696
40
0.671672729520804
40
0.806007275424964
40
0.895563639361072
40
1
40
1
40
1
40
1
40
1
40
1
41
1
10
10.4221211841185
20
1.57715509313579
30
0
41
1
10
10.5338171626941
20
1.52532557608322
30
0
41
1
10
10.6734371359136
20
1.45584704520903
30
0
41
1
10
10.854943101099
20
1.35831838335764
30
0
41
1
10
11.0643730609282
20
1.23587251402046
30
0
41
1
10
11.3156890127233
20
1.0770345016517
30
0
41
1
10
11.4832329805867
20
0.966311636462024
30
0
41
1
10
11.655416584652
20
0.848121773629828
30
0
41
1
10
11.7857141967515
20
0.755937343566842
30
0
41
1
10
11.8880878142071
20
0.682055532265281
30
0
41
1
10
11.9485754396968
20
0.637946000041921
30
0
41
1
10
11.9811390705427
20
0.614075337444007
30
0
0
SPLINE
5
114
100
AcDbEntity
8
1
62
256
6
ByLayer
370
18
48
1
60
0
100
AcDbSpline
70
4
71
3
72
14
73
10
40
0
40
0
40
0
40
0
40
0.25
40
0.25
40
0.5
40
0.5
40
0.75
40
0.75
40
1
40
1
40
1
40
1
41
1
10
11.4967614244443
20
0.961017821568248
30
0
41
1
10
11.5038933083513
20
1.00301968681703
30
0
41
1
10
11.5132866315861
20
1.04365091717059
30
0
41
1
10
11.5349459046629
20
1.1225973982329
30
0
41
1
10
11.5472342256365
20
1.16093811541614
30
0
41
1
10
11.5736101674498
20
1.23541508121335
30
0
41
1
10
11.5876401622984
20
1.27138365880774
30
0
41
1
10
11.6166495552447
20
1.34103108811686
30
0
41
1
10
11.6316329760601
20
1.37470836507546
30
0
41
1
10
11.6468416954363
20
1.40730487863465
30
0
0
SPLINE
5
115
100
AcDbEntity
8
1
62
256
6
ByLayer
370
18
48
1
60
0
100
AcDbSpline
70
4
71
3
72
17
73
13
40
0
40
0
40
0
40
0
40
0.249999999999998
40
0.249999999999998
40
0.499999999999997
40
0.499999999999997
40
0.562499999999999
40
0.562499999999999
40
0.625000000000002
40
0.750000000000002
40
0.750000000000002
40
1
40
1
40
1
40
1
41
1
10
11.6468416954234
20
1.40730487864181
30
0
41
1
10
11.4827854297387
20
1.49837875776959
30
0
41
1
10
11.3195352201995
20
1.58034610043504
30
0
41
1
10
10.9923791717502
20
1.724355746295
30
0
41
1
10
10.8284811369764
20
1.78640448741052
30
0
41
1
10
10.6217490272493
20
1.85019031353642
30
0
41
1
10
10.5802593394629
20
1.86226975783938
30
0
41
1
10
10.4974692817596
20
1.88490124232428
30
0
41
1
10
10.3734643099621
20
1.91659433553886
30
0
41
1
10
10.2498318362738
20
1.94150825619636
30
0
41
1
10
10.0026255441408
20
1.9822136971749
30
0
41
1
10
9.83790359170536
20
1.99720311348514
30
0
41
1
10
9.67208847347311
20
1.99964475093259
30
0
0
SPLINE
5
116
100
AcDbEntity
8
1
62
256
6
ByLayer
370
18
48
1
60
0
100
AcDbSpline
70
4
71
3
72
8
73
4
40
0
40
0
40
0
40
0
40
1
40
1
40
1
40
1
41
1
10
9.66832939883685
20
1.99970907646571
30
0
41
1
10
9.65400097501262
20
1.99990067696098
30
0
41
1
10
9.63968773641736
20
1.99999843056827
30
0
41
1
10
9.62538969916758
20
2.00000004223833
30
0
0
SPLINE
5
117
100
AcDbEntity
8
1
62
256
6
ByLayer
370
18
48
1
60
0
100
AcDbSpline
70
4
71
2
72
6
73
3
40
0
40
0
40
0
40
1
40
1
40
1
41
1
10
13.2728531447863
20
-1.98485886791391
30
0
41
1
10
13.7330133506755
20
-1.94055029355855
30
0
41
1
10
14.1918685182552
20
-1.89965414960037
30
0
0
SPLINE
5
118
100
AcDbEntity
8
1
62
256
6
ByLayer
370
18
48
1
60
0
100
AcDbSpline
70
4
71
2
72
6
73
3
40
0
40
0
40
0
40
1
40
1
40
1
41
1
10
17.1146643629874
20
-1.98492586421577
30
0
41
1
10
17.5735557736559
20
-1.94056608335487
30
0
41
1
10
18.0325120718772
20
-1.90007951542319
30
0
0
SPLINE
5
119
100
AcDbEntity
8
1
62
256
6
ByLayer
370
18
48
1
60
0
100
AcDbSpline
70
4
71
2
72
6
73
3
40
0
40
0
40
0
40
1
40
1
40
1
41
1
10
14.1918685182555
20
1.89965414960025
30
0
41
1
10
13.7324598849811
20
1.94076360113513
30
0
41
1
10
13.2728531447863
20
1.98485886791383
30
0
0
SPLINE
5
11A
100
AcDbEntity
8
1
62
256
6
ByLayer
370
18
48
1
60
0
100
AcDbSpline
70
4
71
2
72
6
73
3
40
0
40
0
40
0
40
1
40
1
40
1
41
1
10
18.0325120718773
20
1.90007951542307
30
0
41
1
10
17.573555773656
20
1.94056608335475
30
0
41
1
10
17.1146643629874
20
1.98492586421565
30
0
0
LINE
5
77
100
AcDbEntity
8
80
62
256
6
ByLayer
370
18
48
1
60
0
100
AcDbLine
10
0
20
0
30
0
11
-5
21
0
31
0
39
0
210
0
220
0
230
1
0
LINE
5
78
100
AcDbEntity
8
4
62
256
6
ByLayer
370
18
48
0.05
60
0
100
AcDbLine
10
0
20
0
30
0
11
21
21
0
31
0
39
0
210
0
220
0
230
1
0
LINE
5
7A
100
AcDbEntity
8
81
62
256
6
ByLayer
370
18
48
1
60
0
100
AcDbLine
10
21
20
0
30
0
11
26
21
0
31
0
39
0
210
0
220
0
230
1
0
LINE
5
7B
100
AcDbEntity
8
SK4
62
256
6
ByLayer
370
18
48
0.05
60
0
100
AcDbLine
10
-36
20
0
30
0
11
21
21
0
31
0
39
0
210
0
220
0
230
1
0
LINE
5
7D
100
AcDbEntity
8
1
62
256
6
ByLayer
370
18
48
1
60
0
100
AcDbLine
10
0
20
3
30
0
11
0
21
0
31
0
39
0
210
0
220
0
230
1
0
LINE
5
7E
100
AcDbEntity
8
1
62
256
6
ByLayer
370
18
48
1
60
0
100
AcDbLine
10
0
20
0
30
0
11
0
21
-3
31
0
39
0
210
0
220
0
230
1
0
LINE
5
7F
100
AcDbEntity
8
1
62
256
6
ByLayer
370
18
48
1
60
0
100
AcDbLine
10
20.948785
20
-0.347144
30
0
11
20.917171
21
-0.455191
31
0
39
0
210
0
220
0
230
1
0
LINE
5
80
100
AcDbEntity
8
1
62
256
6
ByLayer
370
18
48
1
60
0
100
AcDbLine
10
20.991865
20
0.013278
30
0
11
20.995089
21
0.011706
31
0
39
0
210
0
220
0
230
1
0
LINE
5
81
100
AcDbEntity
8
1
62
256
6
ByLayer
370
18
48
1
60
0
100
AcDbLine
10
20.995089
20
0.011706
30
0
11
20.993579
21
-1E-06
31
0
39
0
210
0
220
0
230
1
0
LINE
5
82
100
AcDbEntity
8
1
62
256
6
ByLayer
370
18
48
1
60
0
100
AcDbLine
10
20.991865
20
-0.013279
30
0
11
20.948785
21
-0.347144
31
0
39
0
210
0
220
0
230
1
0
LINE
5
83
100
AcDbEntity
8
1
62
256
6
ByLayer
370
18
48
1
60
0
100
AcDbLine
10
20.948785
20
-0.347144
30
0
11
20.909908
21
-0.320375
31
0
39
0
210
0
220
0
230
1
0
LINE
5
84
100
AcDbEntity
8
1
62
256
6
ByLayer
370
18
48
1
60
0
100
AcDbLine
10
20.909432
20
-0.311548
30
0
11
20.93433
21
-0.037104
31
0
39
0
210
0
220
0
230
1
0
LINE
5
85
100
AcDbEntity
8
1
62
256
6
ByLayer
370
18
48
1
60
0
100
AcDbLine
10
20.909145
20
1.985254
30
0
11
20.995089
21
1.901475
31
0
39
0
210
0
220
0
230
1
0
LINE
5
86
100
AcDbEntity
8
1
62
256
6
ByLayer
370
18
48
1
60
0
100
AcDbLine
10
20.92029
20
0.51309
30
0
11
20.995089
21
1.901475
31
0
39
0
210
0
220
0
230
1
0
LINE
5
87
100
AcDbEntity
8
1
62
256
6
ByLayer
370
13
48
1
60
0
100
AcDbLine
10
20.894361
20
-0.416388
30
0
11
20.892602
21
-0.415998
31
0
39
0
210
0
220
0
230
1
0
LINE
5
88
100
AcDbEntity
8
1
62
256
6
ByLayer
370
13
48
1
60
0
100
AcDbLine
10
20.133082
20
1.18886
30
0
11
20.184049
21
1.100581
31
0
39
0
210
0
220
0
230
1
0
LINE
5
89
100
AcDbEntity
8
1
62
256
6
ByLayer
370
13
48
1
60
0
100
AcDbLine
10
20.833083
20
-0.023601
30
0
11
20.884319
21
-0.112348
31
0
39
0
210
0
220
0
230
1
0
LINE
5
8A
100
AcDbEntity
8
1
62
256
6
ByLayer
370
18
48
1
60
0
100
AcDbLine
10
20.89436
20
-0.031804
30
0
11
20.995089
21
-1.901475
31
0
39
0
210
0
220
0
230
1
0
LINE
5
8B
100
AcDbEntity
8
1
62
256
6
ByLayer
370
18
48
1
60
0
100
AcDbLine
10
20.884319
20
-0.112348
30
0
11
20.880065
21
-0.029871
31
0
39
0
210
0
220
0
230
1
0
LINE
5
8C
100
AcDbEntity
8
1
62
256
6
ByLayer
370
18
48
1
60
0
100
AcDbLine
10
20.894241
20
-0.418633
30
0
11
20.894361
21
-0.416388
31
0
39
0
210
0
220
0
230
1
0
LINE
5
8D
100
AcDbEntity
8
1
62
256
6
ByLayer
370
18
48
1
60
0
100
AcDbLine
10
20.909145
20
-1.985254
30
0
11
20.995089
21
-1.901475
31
0
39
0
210
0
220
0
230
1
0
LINE
5
8E
100
AcDbEntity
8
1
62
256
6
ByLayer
370
18
48
1
60
0
100
AcDbLine
10
20.995089
20
-1.901475
30
0
11
20.948785
21
-1.825699
31
0
39
0
210
0
220
0
230
1
0
LINE
5
8F
100
AcDbEntity
8
1
62
256
6
ByLayer
370
18
48
1
60
0
100
AcDbLine
10
20.948785
20
-1.825699
30
0
11
20.901278
21
-1.819341
31
0
39
0
210
0
220
0
230
1
0
LINE
5
90
100
AcDbEntity
8
1
62
256
6
ByLayer
370
18
48
1
60
0
100
AcDbLine
10
20.948785
20
-1.825699
30
0
11
20.884356
21
-0.603204
31
0
39
0
210
0
220
0
230
1
0
LINE
5
91
100
AcDbEntity
8
1
62
256
6
ByLayer
370
18
48
1
60
0
100
AcDbLine
10
20.753166
20
-1.045435
30
0
11
20.884356
21
-0.603204
31
0
39
0
210
0
220
0
230
1
0
LINE
5
92
100
AcDbEntity
8
1
62
256
6
ByLayer
370
18
48
1
60
0
100
AcDbLine
10
20.884356
20
-0.603204
30
0
11
20.884834
21
-0.594269
31
0
39
0
210
0
220
0
230
1
0
LINE
5
93
100
AcDbEntity
8
1
62
256
6
ByLayer
370
13
48
1
60
0
100
AcDbLine
10
20.767825
20
-0.388308
30
0
11
19.889173
21
-0.193319
31
0
39
0
210
0
220
0
230
1
0
LINE
5
94
100
AcDbEntity
8
1
62
256
6
ByLayer
370
18
48
1
60
0
100
AcDbLine
10
20.15302
20
0.119124
30
0
11
20.740703
21
-0.011294
31
0
39
0
210
0
220
0
230
1
0
LINE
5
95
100
AcDbEntity
8
1
62
256
6
ByLayer
370
18
48
1
60
0
100
AcDbLine
10
20.941145
20
-0.038012
30
0
11
20.740703
21
-0.011294
31
0
39
0
210
0
220
0
230
1
0
LINE
5
96
100
AcDbEntity
8
1
62
256
6
ByLayer
370
18
48
1
60
0
100
AcDbLine
10
20.941145
20
-0.038012
30
0
11
20.995089
21
-0.011706
31
0
39
0
210
0
220
0
230
1
0
LINE
5
97
100
AcDbEntity
8
1
62
256
6
ByLayer
370
18
48
1
60
0
100
AcDbLine
10
20.995089
20
-0.011706
30
0
11
20.948785
21
0.347144
31
0
39
0
210
0
220
0
230
1
0
LINE
5
98
100
AcDbEntity
8
1
62
256
6
ByLayer
370
18
48
1
60
0
100
AcDbLine
10
20.948785
20
0.347144
30
0
11
20.901278
21
0.509505
31
0
39
0
210
0
220
0
230
1
0
LINE
5
99
100
AcDbEntity
8
1
62
256
6
ByLayer
370
18
48
1
60
0
100
AcDbLine
10
20.909145
20
0.007314
30
0
11
20.995089
21
-0.011706
31
0
39
0
210
0
220
0
230
1
0
LINE
5
9A
100
AcDbEntity
8
1
62
256
6
ByLayer
370
13
48
1
60
0
100
AcDbLine
10
5.997679
20
-2
30
0
11
5.997679
21
0
31
0
39
0
210
0
220
0
230
1
0
LINE
5
9B
100
AcDbEntity
8
1
62
256
6
ByLayer
370
13
48
1
60
0
100
AcDbLine
10
5.997679
20
0
30
0
11
5.997679
21
2
31
0
39
0
210
0
220
0
230
1
0
LINE
5
9C
100
AcDbEntity
8
1
62
256
6
ByLayer
370
13
48
1
60
0
100
AcDbLine
10
5.497679
20
2.133975
30
0
11
5.497679
21
0
31
0
39
0
210
0
220
0
230
1
0
LINE
5
9D
100
AcDbEntity
8
1
62
256
6
ByLayer
370
13
48
1
60
0
100
AcDbLine
10
5.497679
20
0
30
0
11
5.497679
21
-2.133975
31
0
39
0
210
0
220
0
230
1
0
LINE
5
9E
100
AcDbEntity
8
1
62
256
6
ByLayer
370
18
48
1
60
0
100
AcDbLine
10
3.997679
20
3
30
0
11
3.997679
21
0
31
0
39
0
210
0
220
0
230
1
0
LINE
5
9F
100
AcDbEntity
8
1
62
256
6
ByLayer
370
18
48
1
60
0
100
AcDbLine
10
3.997679
20
0
30
0
11
3.997679
21
-3
31
0
39
0
210
0
220
0
230
1
0
LINE
5
A0
100
AcDbEntity
8
SK1
62
256
6
ByLayer
370
18
48
1
60
0
100
AcDbLine
10
-36
20
-2.6
30
0
11
-36
21
2.6
31
0
39
0
210
0
220
0
230
1
0
LINE
5
A2
100
AcDbEntity
8
SK1
62
256
6
ByLayer
370
18
48
1
60
0
100
AcDbLine
10
0
20
3
30
0
11
0
21
0
31
0
39
0
210
0
220
0
230
1
0
LINE
5
A3
100
AcDbEntity
8
SK1
62
256
6
ByLayer
370
18
48
1
60
0
100
AcDbLine
10
0
20
0
30
0
11
0
21
-3
31
0
39
0
210
0
220
0
230
1
0
LINE
5
A4
100
AcDbEntity
8
SK1
62
256
6
ByLayer
370
18
48
1
60
0
100
AcDbLine
10
-35.6
20
3
30
0
11
-35.6
21
-3
31
0
39
0
210
0
220
0
230
1
0
LINE
5
A5
100
AcDbEntity
8
1
62
256
6
ByLayer
370
18
48
1
60
0
100
AcDbLine
10
3.997679
20
3
30
0
11
0
21
3
31
0
39
0
210
0
220
0
230
1
0
LINE
5
A6
100
AcDbEntity
8
1
62
256
6
ByLayer
370
18
48
1
60
0
100
AcDbLine
10
0
20
-3
30
0
11
3.997679
21
-3
31
0
39
0
210
0
220
0
230
1
0
LINE
5
A7
100
AcDbEntity
8
1
62
256
6
ByLayer
370
18
48
1
60
0
100
AcDbLine
10
9.625641
20
2
30
0
11
5.997679
21
2
31
0
39
0
210
0
220
0
230
1
0
LINE
5
A8
100
AcDbEntity
8
1
62
256
6
ByLayer
370
18
48
1
60
0
100
AcDbLine
10
5.997679
20
-2
30
0
11
9.667934
21
-2
31
0
39
0
210
0
220
0
230
1
0
LINE
5
A9
100
AcDbEntity
8
1
62
256
6
ByLayer
370
18
48
1
60
0
100
AcDbLine
10
5.497679
20
2.133975
30
0
11
3.997679
21
3
31
0
39
0
210
0
220
0
230
1
0
LINE
5
AA
100
AcDbEntity
8
1
62
256
6
ByLayer
370
18
48
1
60
0
100
AcDbLine
10
3.997679
20
-3
30
0
11
5.497679
21
-2.133975
31
0
39
0
210
0
220
0
230
1
0
LINE
5
AB
100
AcDbEntity
8
SK1
62
256
6
ByLayer
370
18
48
1
60
0
100
AcDbLine
10
-36
20
-2.6
30
0
11
-35.6
21
-3
31
0
39
0
210
0
220
0
230
1
0
LINE
5
AC
100
AcDbEntity
8
SK1
62
256
6
ByLayer
370
18
48
1
60
0
100
AcDbLine
10
-35.6
20
3
30
0
11
-36
21
2.6
31
0
39
0
210
0
220
0
230
1
0
LINE
5
AD
100
AcDbEntity
8
SK1
62
256
6
ByLayer
370
18
48
1
60
0
100
AcDbLine
10
0
20
3
30
0
11
-35.6
21
3
31
0
39
0
210
0
220
0
230
1
0
LINE
5
AE
100
AcDbEntity
8
SK1
62
256
6
ByLayer
370
18
48
1
60
0
100
AcDbLine
10
-35.6
20
-3
30
0
11
0
21
-3
31
0
39
0
210
0
220
0
230
1
0
LINE
5
AF
100
AcDbEntity
8
SK2
62
256
6
ByLayer
370
18
48
1
60
0
100
AcDbLine
10
-43.85
20
11.75
30
0
11
-43.85
21
-19.315466
31
0
39
0
210
0
220
0
230
1
0
LINE
5
B1
100
AcDbEntity
8
SK2
62
256
6
ByLayer
370
18
48
1
60
0
100
AcDbLine
10
-37.1875
20
3
30
0
11
-45.85
21
3
31
0
39
0
210
0
220
0
230
1
0
LINE
5
B2
100
AcDbEntity
8
SK2
62
256
6
ByLayer
370
18
48
1
60
0
100
AcDbLine
10
-37.1875
20
-3
30
0
11
-45.85
21
-3
31
0
39
0
210
0
220
0
230
1
0
LINE
5
B3
100
AcDbEntity
8
1
62
256
6
ByLayer
370
18
48
1
60
1
100
AcDbLine
10
-43.85
20
3
30
0
11
-44.310784
21
6.499998
31
0
39
0
210
0
220
0
230
1
0
LINE
5
B4
100
AcDbEntity
8
1
62
256
6
ByLayer
370
18
48
1
60
1
100
AcDbLine
10
-44.310784
20
6.499998
30
0
11
-43.389216
21
6.500002
31
0
39
0
210
0
220
0
230
1
0
LINE
5
B5
100
AcDbEntity
8
1
62
256
6
ByLayer
370
18
48
1
60
1
100
AcDbLine
10
-43.389216
20
6.500002
30
0
11
-43.85
21
3
31
0
39
0
210
0
220
0
230
1
0
LINE
5
B6
100
AcDbEntity
8
1
62
256
6
ByLayer
370
18
48
1
60
1
100
AcDbLine
10
-43.85
20
-3
30
0
11
-43.389216
21
-6.499998
31
0
39
0
210
0
220
0
230
1
0
LINE
5
B7
100
AcDbEntity
8
1
62
256
6
ByLayer
370
18
48
1
60
1
100
AcDbLine
10
-43.389216
20
-6.499998
30
0
11
-44.310784
21
-6.500002
31
0
39
0
210
0
220
0
230
1
0
LINE
5
B8
100
AcDbEntity
8
1
62
256
6
ByLayer
370
18
48
1
60
1
100
AcDbLine
10
-44.310784
20
-6.500002
30
0
11
-43.85
21
-3
31
0
39
0
210
0
220
0
230
1
0
LINE
5
B9
100
AcDbEntity
8
2
62
256
6
ByLayer
370
18
48
1
60
0
100
AcDbLine
10
33
20
18.6841
30
0
11
33
21
-10.7501
31
0
39
0
210
0
220
0
230
1
0
LINE
5
BB
100
AcDbEntity
8
2
62
256
6
ByLayer
370
18
48
1
60
0
100
AcDbLine
10
22.5875
20
2.0001
30
0
11
35
21
2.0001
31
0
39
0
210
0
220
0
230
1
0
LINE
5
BC
100
AcDbEntity
8
2
62
256
6
ByLayer
370
18
48
1
60
0
100
AcDbLine
10
22.5875
20
-2.0001
30
0
11
35
21
-2.0001
31
0
39
0
210
0
220
0
230
1
0
LINE
5
BD
100
AcDbEntity
8
1
62
256
6
ByLayer
370
18
48
1
60
1
100
AcDbLine
10
33
20
2.0001
30
0
11
32.539216
21
5.500098
31
0
39
0
210
0
220
0
230
1
0
LINE
5
BE
100
AcDbEntity
8
1
62
256
6
ByLayer
370
18
48
1
60
1
100
AcDbLine
10
32.539216
20
5.500098
30
0
11
33.460784
21
5.500102
31
0
39
0
210
0
220
0
230
1
0
LINE
5
BF
100
AcDbEntity
8
1
62
256
6
ByLayer
370
18
48
1
60
1
100
AcDbLine
10
33.460784
20
5.500102
30
0
11
33
21
2.0001
31
0
39
0
210
0
220
0
230
1
0
LINE
5
C0
100
AcDbEntity
8
1
62
256
6
ByLayer
370
18
48
1
60
1
100
AcDbLine
10
33
20
-2.0001
30
0
11
33.460784
21
-5.500098
31
0
39
0
210
0
220
0
230
1
0
LINE
5
C1
100
AcDbEntity
8
1
62
256
6
ByLayer
370
18
48
1
60
1
100
AcDbLine
10
33.460784
20
-5.500098
30
0
11
32.539216
21
-5.500102
31
0
39
0
210
0
220
0
230
1
0
LINE
5
C2
100
AcDbEntity
8
1
62
256
6
ByLayer
370
18
48
1
60
1
100
AcDbLine
10
32.539216
20
-5.500102
30
0
11
33
21
-2.0001
31
0
39
0
210
0
220
0
230
1
0
LINE
5
C3
100
AcDbEntity
8
SK2
62
256
6
ByLayer
370
18
48
1
60
0
100
AcDbLine
10
21
20
-33.1
30
0
11
-36
21
-33.1
31
0
39
0
210
0
220
0
230
1
0
LINE
5
C4
100
AcDbEntity
8
SK2
62
256
6
ByLayer
370
18
48
1
60
0
100
AcDbLine
10
-36
20
-4.1875
30
0
11
-36
21
-35.1
31
0
39
0
210
0
220
0
230
1
0
LINE
5
C5
100
AcDbEntity
8
SK2
62
256
6
ByLayer
370
18
48
1
60
0
100
AcDbLine
10
21
20
-3.5876
30
0
11
21
21
-35.1
31
0
39
0
210
0
220
0
230
1
0
LINE
5
C6
100
AcDbEntity
8
1
62
256
6
ByLayer
370
18
48
1
60
1
100
AcDbLine
10
-36
20
-33.1
30
0
11
-32.500002
21
-32.639216
31
0
39
0
210
0
220
0
230
1
0
LINE
5
C7
100
AcDbEntity
8
1
62
256
6
ByLayer
370
18
48
1
60
1
100
AcDbLine
10
-32.500002
20
-32.639216
30
0
11
-32.499998
21
-33.560784
31
0
39
0
210
0
220
0
230
1
0
LINE
5
C8
100
AcDbEntity
8
1
62
256
6
ByLayer
370
18
48
1
60
1
100
AcDbLine
10
-32.499998
20
-33.560784
30
0
11
-36
21
-33.1
31
0
39
0
210
0
220
0
230
1
0
LINE
5
C9
100
AcDbEntity
8
1
62
256
6
ByLayer
370
18
48
1
60
1
100
AcDbLine
10
21
20
-33.1
30
0
11
17.500002
21
-33.560784
31
0
39
0
210
0
220
0
230
1
0
LINE
5
CA
100
AcDbEntity
8
1
62
256
6
ByLayer
370
18
48
1
60
1
100
AcDbLine
10
17.500002
20
-33.560784
30
0
11
17.499998
21
-32.639216
31
0
39
0
210
0
220
0
230
1
0
LINE
5
CB
100
AcDbEntity
8
1
62
256
6
ByLayer
370
18
48
1
60
1
100
AcDbLine
10
17.499998
20
-32.639216
30
0
11
21
21
-33.1
31
0
39
0
210
0
220
0
230
1
0
LINE
5
11F
100
AcDbEntity
8
1
62
256
6
ByLayer
370
18
48
1
60
1
100
AcDbLine
10
-43.85
20
3
30
0
11
-44.310784
21
6.499998
31
0
39
0
210
0
220
0
230
1
0
LINE
5
120
100
AcDbEntity
8
1
62
256
6
ByLayer
370
18
48
1
60
1
100
AcDbLine
10
-44.310784
20
6.499998
30
0
11
-43.389216
21
6.500002
31
0
39
0
210
0
220
0
230
1
0
LINE
5
121
100
AcDbEntity
8
1
62
256
6
ByLayer
370
18
48
1
60
1
100
AcDbLine
10
-43.389216
20
6.500002
30
0
11
-43.85
21
3
31
0
39
0
210
0
220
0
230
1
0
LINE
5
123
100
AcDbEntity
8
1
62
256
6
ByLayer
370
18
48
1
60
1
100
AcDbLine
10
-43.85
20
-3
30
0
11
-43.389216
21
-6.499998
31
0
39
0
210
0
220
0
230
1
0
LINE
5
124
100
AcDbEntity
8
1
62
256
6
ByLayer
370
18
48
1
60
1
100
AcDbLine
10
-43.389216
20
-6.499998
30
0
11
-44.310784
21
-6.500002
31
0
39
0
210
0
220
0
230
1
0
LINE
5
125
100
AcDbEntity
8
1
62
256
6
ByLayer
370
18
48
1
60
1
100
AcDbLine
10
-44.310784
20
-6.500002
30
0
11
-43.85
21
-3
31
0
39
0
210
0
220
0
230
1
0
LINE
5
129
100
AcDbEntity
8
1
62
256
6
ByLayer
370
18
48
1
60
1
100
AcDbLine
10
33
20
2.0001
30
0
11
32.539216
21
5.500098
31
0
39
0
210
0
220
0
230
1
0
LINE
5
12A
100
AcDbEntity
8
1
62
256
6
ByLayer
370
18
48
1
60
1
100
AcDbLine
10
32.539216
20
5.500098
30
0
11
33.460784
21
5.500102
31
0
39
0
210
0
220
0
230
1
0
LINE
5
12B
100
AcDbEntity
8
1
62
256
6
ByLayer
370
18
48
1
60
1
100
AcDbLine
10
33.460784
20
5.500102
30
0
11
33
21
2.0001
31
0
39
0
210
0
220
0
230
1
0
LINE
5
12D
100
AcDbEntity
8
1
62
256
6
ByLayer
370
18
48
1
60
1
100
AcDbLine
10
33
20
-2.0001
30
0
11
33.460784
21
-5.500098
31
0
39
0
210
0
220
0
230
1
0
LINE
5
12E
100
AcDbEntity
8
1
62
256
6
ByLayer
370
18
48
1
60
1
100
AcDbLine
10
33.460784
20
-5.500098
30
0
11
32.539216
21
-5.500102
31
0
39
0
210
0
220
0
230
1
0
LINE
5
12F
100
AcDbEntity
8
1
62
256
6
ByLayer
370
18
48
1
60
1
100
AcDbLine
10
32.539216
20
-5.500102
30
0
11
33
21
-2.0001
31
0
39
0
210
0
220
0
230
1
0
LINE
5
132
100
AcDbEntity
8
1
62
256
6
ByLayer
370
18
48
1
60
1
100
AcDbLine
10
-36
20
-33.1
30
0
11
-32.500002
21
-32.639216
31
0
39
0
210
0
220
0
230
1
0
LINE
5
133
100
AcDbEntity
8
1
62
256
6
ByLayer
370
18
48
1
60
1
100
AcDbLine
10
-32.500002
20
-32.639216
30
0
11
-32.499998
21
-33.560784
31
0
39
0
210
0
220
0
230
1
0
LINE
5
134
100
AcDbEntity
8
1
62
256
6
ByLayer
370
18
48
1
60
1
100
AcDbLine
10
-32.499998
20
-33.560784
30
0
11
-36
21
-33.1
31
0
39
0
210
0
220
0
230
1
0
LINE
5
136
100
AcDbEntity
8
1
62
256
6
ByLayer
370
18
48
1
60
1
100
AcDbLine
10
21
20
-33.1
30
0
11
17.500002
21
-33.560784
31
0
39
0
210
0
220
0
230
1
0
LINE
5
137
100
AcDbEntity
8
1
62
256
6
ByLayer
370
18
48
1
60
1
100
AcDbLine
10
17.500002
20
-33.560784
30
0
11
17.499998
21
-32.639216
31
0
39
0
210
0
220
0
230
1
0
LINE
5
138
100
AcDbEntity
8
1
62
256
6
ByLayer
370
18
48
1
60
1
100
AcDbLine
10
17.499998
20
-32.639216
30
0
11
21
21
-33.1
31
0
39
0
210
0
220
0
230
1
0
MTEXT
5
11B
100
AcDbEntity
8
SK2
62
256
6
ByLayer
370
18
48
1
60
0
100
AcDbMText
10
-45.414634
20
-17.380622
30
0
210
0
220
0
230
1
1
%%c
40
3.5
41
0
44
1.084337
50
90
71
7
72
5
7
iso_b_vert
0
MTEXT
5
11E
100
AcDbEntity
8
SK2
62
256
6
ByLayer
370
18
48
1
60
0
100
AcDbMText
10
-45.414634
20
-10.407966
30
0
210
0
220
0
230
1
1
\W0.5404;6
40
3.5
41
0
44
1.084337
50
90
71
7
72
5
7
iso_b_vert
0
MTEXT
5
127
100
AcDbEntity
8
2
62
256
6
ByLayer
370
18
48
1
60
0
100
AcDbMText
10
31.435366
20
9.934944
30
0
210
0
220
0
230
1
1
%%c
40
3.5
41
0
44
1.084337
50
90
71
7
72
5
7
iso_b_vert
0
MTEXT
5
128
100
AcDbEntity
8
2
62
256
6
ByLayer
370
18
48
1
60
0
100
AcDbMText
10
31.435366
20
16.9076
30
0
210
0
220
0
230
1
1
\W0.6380;4
40
3.5
41
0
44
1.084337
50
90
71
7
72
5
7
iso_b_vert
0
MTEXT
5
131
100
AcDbEntity
8
SK2
62
256
6
ByLayer
370
18
48
1
60
0
100
AcDbMText
10
-9.404966
20
-32.067366
30
0
210
0
220
0
230
1
1
\W0.6740;57
40
3.5
41
0
44
1.084337
50
0
71
7
72
5
7
iso_b_vert
0
MTEXT
5
13A
100
AcDbEntity
8
SK6
62
256
6
ByLayer
370
18
48
1
60
0
100
AcDbMText
10
-33.109568
20
-62.114886
30
0
210
0
220
0
230
1
1
\W0.7414;2P342-0400-PA       P2BM
40
3
41
0
44
1.084337
50
0
71
7
72
5
7
iso_b_vert
0
HATCH
5
122
100
AcDbEntity
8
SK2
62
256
6
ByLayer
370
13
48
1
60
0
100
AcDbHatch
10
0
20
0
30
0
210
0
220
0
230
1
2
ANSI31
70
0
71
0
91
1
92
5
93
3
72
1
10
-43.85
20
3
11
-44.3107837415528
21
6.49999830744682
72
1
10
-44.3107837415528
20
6.49999830744682
11
-43.3892162584472
21
6.50000169255318
72
1
10
-43.3892162584472
20
6.50000169255318
11
-43.85
21
3
97
0
75
0
76
1
52
0
41
0.0062
77
0
78
1
53
45
43
0
44
0
45
-0.0139193969876572
46
0.0139193969876572
79
0
47
0
98
1
10
0
20
0
0
HATCH
5
126
100
AcDbEntity
8
SK2
62
256
6
ByLayer
370
13
48
1
60
0
100
AcDbHatch
10
0
20
0
30
0
210
0
220
0
230
1
2
ANSI31
70
0
71
0
91
1
92
5
93
3
72
1
10
-43.85
20
-3.00000000000003
11
-43.3892162584472
21
-6.49999830744684
72
1
10
-43.3892162584472
20
-6.49999830744684
11
-44.3107837415528
21
-6.50000169255321
72
1
10
-44.3107837415528
20
-6.50000169255321
11
-43.85
21
-3.00000000000003
97
0
75
0
76
1
52
0
41
0.0062
77
0
78
1
53
45
43
0
44
0
45
-0.0139193969876572
46
0.0139193969876572
79
0
47
0
98
1
10
0
20
0
0
HATCH
5
12C
100
AcDbEntity
8
2
62
256
6
ByLayer
370
13
48
1
60
0
100
AcDbHatch
10
0
20
0
30
0
210
0
220
0
230
1
2
ANSI31
70
0
71
0
91
1
92
5
93
3
72
1
10
33
20
2.00009999999992
11
32.5392162584472
21
5.50009830744673
72
1
10
32.5392162584472
20
5.50009830744673
11
33.4607837415528
21
5.5001016925531
72
1
10
33.4607837415528
20
5.5001016925531
11
33
21
2.00009999999992
97
0
75
0
76
1
52
0
41
0.0062
77
0
78
1
53
45
43
0
44
0
45
-0.0139193969876572
46
0.0139193969876572
79
0
47
0
98
1
10
0
20
0
0
HATCH
5
130
100
AcDbEntity
8
2
62
256
6
ByLayer
370
13
48
1
60
0
100
AcDbHatch
10
0
20
0
30
0
210
0
220
0
230
1
2
ANSI31
70
0
71
0
91
1
92
5
93
3
72
1
10
33
20
-2.00010000000009
11
33.4607837415528
21
-5.5000983074469
72
1
10
33.4607837415528
20
-5.5000983074469
11
32.5392162584472
21
-5.50010169255327
72
1
10
32.5392162584472
20
-5.50010169255327
11
33
21
-2.00010000000009
97
0
75
0
76
1
52
0
41
0.0062
77
0
78
1
53
45
43
0
44
0
45
-0.0139193969876572
46
0.0139193969876572
79
0
47
0
98
1
10
0
20
0
0
HATCH
5
135
100
AcDbEntity
8
SK2
62
256
6
ByLayer
370
13
48
1
60
0
100
AcDbHatch
10
0
20
0
30
0
210
0
220
0
230
1
2
ANSI31
70
0
71
0
91
1
92
5
93
3
72
1
10
-36
20
-33.1000000000001
11
-32.5000016925532
21
-32.6392162584473
72
1
10
-32.5000016925532
20
-32.6392162584473
11
-32.4999983074468
21
-33.5607837415528
72
1
10
-32.4999983074468
20
-33.5607837415528
11
-36
21
-33.1000000000001
97
0
75
0
76
1
52
0
41
0.0062
77
0
78
1
53
45
43
0
44
0
45
-0.0139193969876572
46
0.0139193969876572
79
0
47
0
98
1
10
0
20
0
0
HATCH
5
139
100
AcDbEntity
8
SK2
62
256
6
ByLayer
370
13
48
1
60
0
100
AcDbHatch
10
0
20
0
30
0
210
0
220
0
230
1
2
ANSI31
70
0
71
0
91
1
92
5
93
3
72
1
10
21
20
-33.1000000000001
11
17.5000016925532
21
-33.5607837415528
72
1
10
17.5000016925532
20
-33.5607837415528
11
17.4999983074468
21
-32.6392162584473
72
1
10
17.4999983074468
20
-32.6392162584473
11
21
21
-33.1000000000001
97
0
75
0
76
1
52
0
41
0.0062
77
0
78
1
53
45
43
0
44
0
45
-0.0139193969876572
46
0.0139193969876572
79
0
47
0
98
1
10
0
20
0
0
DIMENSION
5
13D
100
AcDbEntity
8
2
62
256
6
ByLayer
370
18
48
1
60
0
100
AcDbDimension
2
_U0
10
12
20
-17.1
30
0
11
16.5
21
-17.1
31
0
70
32
71
1
72
1
41
1
210
0
220
0
230
1
3
Standard
100
AcDbAlignedDimension
13
21
23
-2.0001
33
0
14
12
24
-2.0001
34
0
50
0
100
AcDbRotatedDimension
1001
ACAD
1000
DSTYLE
1002
{
1070
   371
1070
    13
1070
   372
1070
    13
1070
   170
1070
     0
1070
   144
1040
1.0
1070
   277
1070
     2
1070
   284
1070
     8
1070
   278
1070
    46
1070
   146
1040
1.0
1070
   345
1005
16
1070
   347
1005
16
1070
   346
1005
16
1070
   344
1005
0
1070
   343
1005
0
1070
   172
1070
     1
1070
    76
1070
     0
1070
    75
1070
     0
1070
   282
1070
     0
1070
   281
1070
     0
1070
    71
1070
     0
1070
    74
1070
     0
1070
   279
1070
     0
1070
   173
1070
     1
1070
   340
1005
11C
1070
   271
1070
     2
1070
   272
1070
     2
1070
    77
1070
     1
1070
    73
1070
     1
1070
   171
1070
     3
1070
   274
1070
     4
1070
   177
1070
     2
1070
   176
1070
     2
1070
   178
1070
     2
1070
    78
1070
     8
1070
    48
1040
-0.1
1070
    41
1040
3.5
1070
   147
1040
1.75
1070
    42
1040
1.5875
1070
    44
1040
2.0
1070
   140
1040
3.5
1002
}
1001
ACAD_DSTYLE_DIM_LINETYPE
1070
   380
1005
16
1001
ACAD_DSTYLE_DIM_EXT1_LINETYPE
1070
   381
1005
16
1001
ACAD_DSTYLE_DIM_EXT2_LINETYPE
1070
   382
1005
16
0
ENDSEC
0
SECTION
2
OBJECTS
0
DICTIONARY
5
1c7
330
0
100
AcDbDictionary
280
0
281
1
3
ACAD_GROUP
350
1c8
3
ACAD_MLINESTYLE
350
1c9
0
DICTIONARY
5
1c8
330
0
100
AcDbDictionary
280
0
281
1
0
DICTIONARY
5
1c9
330
0
100
AcDbDictionary
280
0
281
1
3
Standard
350
18
0
MLINESTYLE
5
18
330
1c9
100
AcDbMlineStyle
2
Standard
70
0
3

62
256
51
90
52
90
71
2
49
-0.5
62
256
6
ByLayer
49
0.5
62
256
6
ByLayer
0
RASTERVARIABLES
5
1b5
330

100
AcDbRasterVariables
90
0
70
1
71
1
72
1
0
ENDSEC
0
EOF
