0
SECTION
2
HEADER
9
$ACADVER
1
AC1015
9
$DWGCODEPAGE
3
ANSI_1252
9
$HANDSEED
5
1d2
9
$ANGBASE
50
0
9
$ANGDIR
70
0
9
$ATTMODE
70
1
9
$AUNITS
70
0
9
$AUPREC
70
0
9
$CECOLOR
62
256
9
$CELTSCALE
40
1
9
$CELTYPE
6
ByLayer
9
$CELWEIGHT
370
18
9
$CLAYER
8
0
9
$CMLJUST
70
0
9
$CMLSCALE
40
1
9
$CMLSTYLE
2
Standard
9
$DIMSTYLE
2
Standard
9
$TEXTSIZE
40
0.2
9
$TEXTSTYLE
7
Standard
9
$LUNITS
70
2
9
$LUPREC
70
4
9
$EXTNAMES
290
1
9
$INSUNITS
70
4
9
$LTSCALE
40
1
9
$LWDISPLAY
290
1
9
$PDMODE
70
0
9
$PDSIZE
40
0
9
$PLINEGEN
70
0
0
ENDSEC
0
SECTION
2
CLASSES
0
CLASS
1
RASTERVARIABLES
2
AcDbRasterVariables
3
ISM
90
0
280
0
281
0
0
ENDSEC
0
SECTION
2
TABLES
0
TABLE
2
VPORT
5
1c8
100
AcDbSymbolTable
0
VPORT
5
1
100
AcDbSymbolTableRecord
100
AcDbViewportTableRecord
2
*Active
70
0
10
0
20
0
11
1
21
1
12
-1
22
1
13
0
23
0
14
0.5
24
0.5
15
10
25
10
16
0
26
0
36
1
17
0
27
0
37
0
0
ENDTAB
0
TABLE
2
LTYPE
5
1c9
100
AcDbSymbolTable
0
LTYPE
5
14
100
AcDbSymbolTableRecord
100
AcDbLinetypeTableRecord
70
0
2
ByBlock
3

72
65
73
0
40
0
0
LTYPE
5
15
100
AcDbSymbolTableRecord
100
AcDbLinetypeTableRecord
70
0
2
ByLayer
3

72
65
73
0
40
0
0
LTYPE
5
16
100
AcDbSymbolTableRecord
100
AcDbLinetypeTableRecord
70
0
2
Continuous
3
Solid line
72
65
73
0
40
0
0
LTYPE
5
6E
100
AcDbSymbolTableRecord
100
AcDbLinetypeTableRecord
70
0
2
CENTER
3
____ _ ____ _ ____ _ ____
72
65
73
4
40
47.5
49
22
74
0
49
-8.5
74
0
49
8.5
74
0
49
-8.5
74
0
0
LTYPE
5
6F
100
AcDbSymbolTableRecord
100
AcDbLinetypeTableRecord
70
0
2
DASHED
3
__ __ __ __ __ __ __ __ __
72
65
73
2
40
25.72
49
12.86
74
0
49
-12.86
74
0
0
ENDTAB
0
TABLE
2
LAYER
5
1ca
100
AcDbSymbolTable
0
LAYER
5
10
100
AcDbSymbolTableRecord
100
AcDbLayerTableRecord
2
0
70
0
62
7
6
Continuous
290
1
370
-3
390
0
0
LAYER
5
71
100
AcDbSymbolTableRecord
100
AcDbLayerTableRecord
2
81
70
0
62
-3
6
Continuous
290
1
370
-3
390
0
0
LAYER
5
73
100
AcDbSymbolTableRecord
100
AcDbLayerTableRecord
2
80
70
0
62
-6
6
Continuous
290
1
370
-3
390
0
0
LAYER
5
75
100
AcDbSymbolTableRecord
100
AcDbLayerTableRecord
2
1
70
0
62
4
6
Continuous
290
1
370
-3
390
0
0
LAYER
5
79
100
AcDbSymbolTableRecord
100
AcDbLayerTableRecord
2
4
70
0
62
-2
6
CENTER
290
1
370
-3
390
0
0
LAYER
5
B5
100
AcDbSymbolTableRecord
100
AcDbLayerTableRecord
2
2
70
0
62
7
6
Continuous
290
1
370
-3
390
0
0
LAYER
5
13F
100
AcDbSymbolTableRecord
100
AcDbLayerTableRecord
2
Defpoints
70
0
62
7
6
Continuous
290
0
370
-3
390
0
0
LAYER
5
1b4
100
AcDbSymbolTableRecord
100
AcDbLayerTableRecord
2
SK4
70
0
62
2
6
CENTER
290
1
370
-3
390
0
0
LAYER
5
1b5
100
AcDbSymbolTableRecord
100
AcDbLayerTableRecord
2
SK1
70
0
62
4
6
Continuous
290
1
370
-3
390
0
0
LAYER
5
1b6
100
AcDbSymbolTableRecord
100
AcDbLayerTableRecord
2
SK2
70
0
62
7
6
Continuous
290
1
370
-3
390
0
0
LAYER
5
1b7
100
AcDbSymbolTableRecord
100
AcDbLayerTableRecord
2
SK6
70
0
62
5
6
Continuous
290
1
370
-3
390
0
0
ENDTAB
0
TABLE
2
STYLE
5
1cb
100
AcDbSymbolTable
0
STYLE
5
11
100
AcDbSymbolTableRecord
100
AcDbTextStyleTableRecord
2
Standard
3
txt
70
0
71
0
40
0
41
1
42
0
50
0
0
STYLE
5
11B
100
AcDbSymbolTableRecord
100
AcDbTextStyleTableRecord
2
iso_b_vert
3
simplex.shx
70
0
71
0
40
0
41
1
42
0
50
0
0
STYLE
5
11C
100
AcDbSymbolTableRecord
100
AcDbTextStyleTableRecord
2
DWGDirectTextStyle
3
simplex
70
0
71
0
40
0
41
1
42
0
50
0
0
ENDTAB
0
TABLE
2
DIMSTYLE
5
1cc
100
AcDbSymbolTable
100
AcDbDimStyleTable
0
DIMSTYLE
105
27
100
AcDbSymbolTableRecord
100
AcDbDimStyleTableRecord
2
Standard
70
0
3
<>
41
0.18
42
0.0625
44
0.18
140
0.18
147
0.09
73
0
74
0
77
1
271
2
275
0
278
52
280
0
340
11
0
ENDTAB
0
TABLE
2
VIEW
5
1cd
100
AcDbSymbolTable
0
ENDTAB
0
TABLE
2
UCS
5
1ce
100
AcDbSymbolTable
0
ENDTAB
0
TABLE
2
APPID
5
1cf
100
AcDbSymbolTable
0
APPID
5
12
100
AcDbSymbolTableRecord
100
AcDbRegAppTableRecord
2
ACAD
70
0
0
APPID
5
13B
100
AcDbSymbolTableRecord
100
AcDbRegAppTableRecord
2
ACAD_DSTYLE_DIMBREAK
70
0
0
APPID
5
173
100
AcDbSymbolTableRecord
100
AcDbRegAppTableRecord
2
ACAD_DSTYLE_DIM_LINETYPE
70
0
0
APPID
5
174
100
AcDbSymbolTableRecord
100
AcDbRegAppTableRecord
2
ACAD_DSTYLE_DIM_EXT1_LINETYPE
70
0
0
APPID
5
175
100
AcDbSymbolTableRecord
100
AcDbRegAppTableRecord
2
ACAD_DSTYLE_DIM_EXT2_LINETYPE
70
0
0
APPID
5
1B0
100
AcDbSymbolTableRecord
100
AcDbRegAppTableRecord
2
ACAD_MLEADERVER
70
0
0
ENDTAB
0
TABLE
2
BLOCK_RECORD
5
1d0
100
AcDbSymbolTable
0
BLOCK_RECORD
5
1F
100
AcDbSymbolTableRecord
100
AcDbBlockTableRecord
2
*Model_Space
340
0
70
0
0
BLOCK_RECORD
5
1B
100
AcDbSymbolTableRecord
100
AcDbBlockTableRecord
2
*Paper_Space
340
0
70
0
0
BLOCK_RECORD
5
23
100
AcDbSymbolTableRecord
100
AcDbBlockTableRecord
2
*Paper_Space0
340
0
70
0
0
BLOCK_RECORD
5
140
100
AcDbSymbolTableRecord
100
AcDbBlockTableRecord
2
*D1
340
0
70
0
0
BLOCK_RECORD
5
14C
100
AcDbSymbolTableRecord
100
AcDbBlockTableRecord
2
_U0
340
0
70
0
0
ENDTAB
0
ENDSEC
0
SECTION
2
BLOCKS
0
BLOCK
5
20
100
AcDbEntity
8
0
100
AcDbBlockBegin
2
*Model_Space
70
0
10
0
20
0
30
0
3
*Model_Space
0
ENDBLK
5
21
100
AcDbEntity
8
0
100
AcDbBlockEnd
0
BLOCK
5
1C
100
AcDbEntity
8
0
100
AcDbBlockBegin
2
*Paper_Space
70
0
10
0
20
0
30
0
3
*Paper_Space
0
ENDBLK
5
1D
100
AcDbEntity
8
0
100
AcDbBlockEnd
0
BLOCK
5
24
100
AcDbEntity
8
0
100
AcDbBlockBegin
2
*Paper_Space0
70
0
10
0
20
0
30
0
3
*Paper_Space0
0
ENDBLK
5
25
100
AcDbEntity
8
0
100
AcDbBlockEnd
0
BLOCK
5
141
100
AcDbEntity
8
0
100
AcDbBlockBegin
2
*D1
70
1
10
0
20
0
30
0
3
*D1
0
LINE
5
143
100
AcDbEntity
8
0
62
256
6
ByLayer
370
-2
48
1
60
0
100
AcDbLine
10
36.5
20
-6.3501
30
0
11
36.5
21
-20.926632
31
0
39
0
210
0
220
0
230
1
0
LINE
5
144
100
AcDbEntity
8
0
62
256
6
ByLayer
370
-2
48
1
60
0
100
AcDbLine
10
14.27
20
-6.3501
30
0
11
14.27
21
-20.926632
31
0
39
0
210
0
220
0
230
1
0
LINE
5
145
100
AcDbEntity
8
0
62
256
6
ByLayer
370
-2
48
1
60
0
100
AcDbLine
10
33
20
-18.926632
30
0
11
17.77
21
-18.926632
31
0
39
0
210
0
220
0
230
1
0
SOLID
5
146
100
AcDbEntity
8
0
62
256
6
ByLayer
370
-1
48
1
60
0
100
AcDbTrace
10
33
20
-19.509966
30
0
11
33
21
-18.343299
31
0
12
36.5
22
-18.926632
32
0
13
36.5
23
-18.926632
33
0
39
0
210
0
220
0
230
1
0
SOLID
5
147
100
AcDbEntity
8
0
62
256
6
ByLayer
370
-1
48
1
60
0
100
AcDbTrace
10
17.77
20
-18.343299
30
0
11
17.77
21
-19.509966
31
0
12
14.27
22
-18.926632
32
0
13
14.27
23
-18.926632
33
0
39
0
210
0
220
0
230
1
0
MTEXT
5
148
100
AcDbEntity
8
0
62
256
6
ByLayer
370
18
48
1
60
0
100
AcDbMText
10
25.385
20
-11.926632
30
0
210
0
220
0
230
1
1
\A1;22.23
40
3.5
41
0
44
1
50
0
71
5
72
5
7
iso_b_vert
0
POINT
5
149
100
AcDbEntity
8
Defpoints
62
0
6
ByLayer
370
-1
48
1
60
0
100
AcDbPoint
10
36.5
20
-4.7626
30
0
39
0
210
0
220
0
230
1
50
360
0
POINT
5
14A
100
AcDbEntity
8
Defpoints
62
0
6
ByLayer
370
-1
48
1
60
0
100
AcDbPoint
10
14.27
20
-4.7626
30
0
39
0
210
0
220
0
230
1
50
360
0
POINT
5
14B
100
AcDbEntity
8
Defpoints
62
0
6
ByLayer
370
-1
48
1
60
0
100
AcDbPoint
10
14.27
20
-18.926632
30
0
39
0
210
0
220
0
230
1
50
360
0
ENDBLK
5
142
100
AcDbEntity
8
0
100
AcDbBlockEnd
0
BLOCK
5
153
100
AcDbEntity
8
0
100
AcDbBlockBegin
2
_U0
70
0
10
0
20
0
30
0
3
_U0
0
MTEXT
5
14D
100
AcDbEntity
8
2
62
256
6
ByLayer
370
18
48
1
60
0
100
AcDbMText
10
20.155568
20
-17.893999
30
0
210
0
220
0
230
1
1
\W0.7468;22.23
40
3.5
41
0
44
1.084337
50
0
71
7
72
5
7
iso_b_vert
0
LINE
5
14E
100
AcDbEntity
8
2
62
256
6
ByLayer
370
13
48
1
60
0
100
AcDbLine
10
36.5
20
-6.3501
30
0
11
36.5
21
-20.926632
31
0
39
0
210
0
220
0
230
1
0
LINE
5
14F
100
AcDbEntity
8
2
62
256
6
ByLayer
370
13
48
1
60
0
100
AcDbLine
10
14.27
20
-6.3501
30
0
11
14.27
21
-20.926632
31
0
39
0
210
0
220
0
230
1
0
LINE
5
150
100
AcDbEntity
8
2
62
256
6
ByLayer
370
13
48
1
60
0
100
AcDbLine
10
36.5
20
-18.926632
30
0
11
14.27
21
-18.926632
31
0
39
0
210
0
220
0
230
1
0
SOLID
5
151
100
AcDbEntity
8
2
62
256
6
ByLayer
370
18
48
1
60
0
100
AcDbTrace
10
36.5
20
-18.926632
30
0
11
33.000002
21
-19.387416
31
0
12
32.999998
22
-18.465848
32
0
13
32.999998
23
-18.465848
33
0
39
0
210
0
220
0
230
1
0
SOLID
5
152
100
AcDbEntity
8
2
62
256
6
ByLayer
370
18
48
1
60
0
100
AcDbTrace
10
14.27
20
-18.926632
30
0
11
17.769998
21
-18.465848
31
0
12
17.770002
22
-19.387416
32
0
13
17.770002
23
-19.387416
33
0
39
0
210
0
220
0
230
1
0
ENDBLK
5
154
100
AcDbEntity
8
0
100
AcDbBlockEnd
0
ENDSEC
0
SECTION
2
ENTITIES
0
ELLIPSE
5
C7
100
AcDbEntity
8
1
62
256
6
ByLayer
370
18
48
1
60
0
100
AcDbEllipse
10
36.167701
20
-0.304168
30
0
11
0.0579611560441322
21
-1.14808947678692
31
0
210
0
220
0
230
1
40
0.053945
41
1.14463584091191
42
1.58792597873402
0
ELLIPSE
5
C8
100
AcDbEntity
8
1
62
256
6
ByLayer
370
18
48
1
60
0
100
AcDbEllipse
10
36.138038
20
-0.640519
30
0
11
0.0564950533313259
21
-0.542939121343574
31
0
210
0
220
0
230
1
40
0.181405
41
0.981452538092215
42
1.29993121960296
0
ELLIPSE
5
C9
100
AcDbEntity
8
1
62
256
6
ByLayer
370
18
48
1
60
0
100
AcDbEllipse
10
36.167701
20
-0.304168
30
0
11
0.0579611559949514
21
-1.14808947609228
31
0
210
0
220
0
230
1
40
0.053945
41
-0.00386551143001706
42
0.987632987873474
0
ELLIPSE
5
CA
100
AcDbEntity
8
1
62
256
6
ByLayer
370
18
48
1
60
0
100
AcDbEllipse
10
36.00184
20
-0.614875
30
0
11
0.19194784027667
21
-0.550487582500647
31
0
210
0
220
0
230
1
40
0.473883
41
2.87972600698977
42
-2.21309193194927
0
ELLIPSE
5
CB
100
AcDbEntity
8
1
62
256
6
ByLayer
370
18
48
1
60
0
100
AcDbEllipse
10
51.675393
20
-27.340734
30
0
11
17.4748855557823
21
-29.5989314815848
31
0
210
0
220
0
230
1
40
0.008643
41
-2.67848413182504
42
-2.64057242154209
0
ELLIPSE
5
CC
100
AcDbEntity
8
1
62
256
6
ByLayer
370
13
48
1
60
0
100
AcDbEllipse
10
25.24888
20
64.315108
30
0
11
22.6317477638328
21
-68.6376239944108
31
0
210
0
220
0
230
1
40
0.678657
41
-0.778489248910122
42
-0.699064780467971
0
ELLIPSE
5
CD
100
AcDbEntity
8
1
62
256
6
ByLayer
370
13
48
1
60
0
100
AcDbEllipse
10
25.24888
20
-40.696189
30
0
11
49.7112025118244
21
-52.4606116936531
31
0
210
0
220
0
230
1
40
0.276771
41
2.10176816787052
42
2.12641170690178
0
ELLIPSE
5
CE
100
AcDbEntity
8
1
62
256
6
ByLayer
370
13
48
1
60
0
100
AcDbEllipse
10
25.24888
20
-31.723398
30
0
11
50.93988019663
21
-51.2683922119355
31
0
210
0
220
0
230
1
40
0.18209
41
2.00998602619544
42
2.07827156201634
0
POINT
5
70
100
AcDbEntity
8
81
62
256
6
ByLayer
370
18
48
1
60
0
100
AcDbPoint
10
36.5
20
0
30
0
39
0
210
0
220
0
230
1
50
360
0
POINT
5
72
100
AcDbEntity
8
80
62
256
6
ByLayer
370
18
48
1
60
0
100
AcDbPoint
10
0
20
0
30
0
39
0
210
0
220
0
230
1
50
360
0
POINT
5
74
100
AcDbEntity
8
1
62
256
6
ByLayer
370
18
48
1
60
1
100
AcDbPoint
10
36.5
20
-4.7626
30
0
39
0
210
0
220
0
230
1
50
360
0
POINT
5
76
100
AcDbEntity
8
1
62
256
6
ByLayer
370
18
48
1
60
1
100
AcDbPoint
10
14.27
20
-4.7626
30
0
39
0
210
0
220
0
230
1
50
360
0
SPLINE
5
CF
100
AcDbEntity
8
1
62
256
6
ByLayer
370
18
48
1
60
0
100
AcDbSpline
70
4
71
3
72
14
73
10
40
0
40
0
40
0
40
0
40
0.25
40
0.25
40
0.5
40
0.5
40
0.75
40
0.75
40
1
40
1
40
1
40
1
41
1
10
36.251316252992
20
-0.933773269239509
30
0
41
1
10
36.2471740041404
20
-0.920840645662025
30
0
41
1
10
36.2440867313732
20
-0.907509103326703
30
0
41
1
10
36.2401016479355
20
-0.881067095797562
30
0
41
1
10
36.2391551591411
20
-0.867853575735467
30
0
41
1
10
36.2390333701067
20
-0.841368380394215
30
0
41
1
10
36.2398698857741
20
-0.828042064885807
30
0
41
1
10
36.2429700688107
20
-0.801796727580665
30
0
41
1
10
36.2452271193807
20
-0.788815958011611
30
0
41
1
10
36.2480555458049
20
-0.775915577369176
30
0
0
SPLINE
5
D0
100
AcDbEntity
8
1
62
256
6
ByLayer
370
18
48
1
60
0
100
AcDbSpline
70
4
71
3
72
22
73
18
40
0
40
0
40
0
40
0
40
0.0293687428953329
40
0.0659147807545579
40
0.109638850852302
40
0.160541251677759
40
0.21862196644283
40
0.283880686464403
40
0.356316789742061
40
0.435929295352926
40
0.522716802628665
40
0.616677419655741
40
0.717808683852425
40
0.826107476671059
40
0.885331628441906
40
0.943295663553519
40
1
40
1
40
1
40
1
41
1
10
12.5969998057293
20
-2.26734752756789
30
0
41
1
10
12.5963908666593
20
-2.26173830082757
30
0
41
1
10
12.5950241726394
20
-2.24914903365641
30
0
41
1
10
12.5929918846875
20
-2.2283037938372
30
0
41
1
10
12.590695549316
20
-2.20349974604213
30
0
41
1
10
12.5881914021218
20
-2.17483333655912
30
0
41
1
10
12.5854950182344
20
-2.14241308914552
30
0
41
1
10
12.5826342632255
20
-2.10637073178958
30
0
41
1
10
12.5796289549019
20
-2.06685972138408
30
0
41
1
10
12.576494877347
20
-2.02405813342719
30
0
41
1
10
12.5732383475941
20
-1.97817043588233
30
0
41
1
10
12.5698581587141
20
-1.92942882033518
30
0
41
1
10
12.5663249173425
20
-1.87809811390741
30
0
41
1
10
12.5632862936044
20
-1.83374868590562
30
0
41
1
10
12.5606635306834
20
-1.79730863467091
30
0
41
1
10
12.558507906997
20
-1.76959805117679
30
0
41
1
10
12.5569726727483
20
-1.75167059895603
30
0
41
1
10
12.5562134883439
20
-1.74280534458342
30
0
0
SPLINE
5
D1
100
AcDbEntity
8
1
62
256
6
ByLayer
370
18
48
1
60
0
100
AcDbSpline
70
4
71
3
72
26
73
22
40
0
40
0
40
0
40
0
40
0.124999999999975
40
0.124999999999975
40
0.24999999999995
40
0.24999999999995
40
0.374999999999925
40
0.374999999999925
40
0.437499999999923
40
0.437499999999923
40
0.499999999999921
40
0.499999999999921
40
0.62499999999994
40
0.62499999999994
40
0.74999999999996
40
0.74999999999996
40
0.81249999999997
40
0.81249999999997
40
0.87499999999998
40
0.87499999999998
40
1
40
1
40
1
40
1
41
1
10
35.6779744871145
20
-0.357947754565657
30
0
41
1
10
35.6778521533595
20
-0.381510623180475
30
0
41
1
10
35.6800698094986
20
-0.404967598092242
30
0
41
1
10
35.6879775445506
20
-0.451818926967348
30
0
41
1
10
35.6936817417129
20
-0.475211523470563
30
0
41
1
10
35.7079192448554
20
-0.522064391678242
30
0
41
1
10
35.7164581158916
20
-0.545523029536781
30
0
41
1
10
35.7310875350256
20
-0.580884317944822
30
0
41
1
10
35.7362632596208
20
-0.592683275469113
30
0
41
1
10
35.7470708971732
20
-0.616134891492692
30
0
41
1
10
35.7527145058871
20
-0.627816092327578
30
0
41
1
10
35.770290487051
20
-0.66278244479625
30
0
41
1
10
35.7828667426071
20
-0.685985400852275
30
0
41
1
10
35.8094018458249
20
-0.732551506308852
30
0
41
1
10
35.8233628563723
20
-0.755906382244262
30
0
41
1
10
35.8451052069178
20
-0.791521337347376
30
0
41
1
10
35.8524859871115
20
-0.803492655561257
30
0
41
1
10
35.8674724509588
20
-0.827767179962791
30
0
41
1
10
35.8751107442775
20
-0.840124020272015
30
0
41
1
10
35.8977742395634
20
-0.877117630492734
30
0
41
1
10
35.9126535276171
20
-0.90188452510597
30
0
41
1
10
35.9268908502673
20
-0.926981882550422
30
0
0
SPLINE
5
D2
100
AcDbEntity
8
1
62
256
6
ByLayer
370
18
48
1
60
0
100
AcDbSpline
70
4
71
3
72
24
73
20
40
0
40
0
40
0
40
0
40
0.0624999999999999
40
0.0624999999999999
40
0.125
40
0.125
40
0.25
40
0.25
40
0.3125
40
0.3125
40
0.375
40
0.375
40
0.5
40
0.5
40
0.625
40
0.625
40
0.75
40
0.75
40
1
40
1
40
1
40
1
41
1
10
36.2573613582803
20
3.56564521381131
30
0
41
1
10
36.22921247582
20
3.53381249165435
30
0
41
1
10
36.1995514432483
20
3.50411082737836
30
0
41
1
10
36.1378048550027
20
3.44812435798562
30
0
41
1
10
36.1057164371178
20
3.42184358565817
30
0
41
1
10
36.0064470881265
20
3.34723491167816
30
0
41
1
10
35.9362930982062
20
3.30309691355328
30
0
41
1
10
35.8267906363733
20
3.24290966823622
30
0
41
1
10
35.7894901888571
20
3.2238298873645
30
0
41
1
10
35.7143105859118
20
3.18773387826266
30
0
41
1
10
35.6763697297447
20
3.1706787815335
30
0
41
1
10
35.5616609525515
20
3.12202000544678
30
0
41
1
10
35.4840148546944
20
3.09290012322387
30
0
41
1
10
35.3269860695533
20
3.03957205274577
30
0
41
1
10
35.2475811221098
20
3.01537101235147
30
0
41
1
10
35.0874920421109
20
2.97081462081289
30
0
41
1
10
35.0071322484592
20
2.95055216154066
30
0
41
1
10
34.7653107226186
20
2.89451006905762
30
0
41
1
10
34.6031148898813
20
2.86342428556893
30
0
41
1
10
34.4402656616323
20
2.83651632260944
30
0
0
SPLINE
5
D3
100
AcDbEntity
8
1
62
256
6
ByLayer
370
18
48
1
60
0
100
AcDbSpline
70
4
71
3
72
14
73
10
40
0
40
0
40
0
40
0
40
0.390396341745885
40
0.390396341745885
40
0.585594512618823
40
0.585594512618823
40
0.780792683491761
40
0.780792683491761
40
1
40
1
40
1
40
1
41
1
10
12.5763465810483
20
-1.74726175114404
30
0
41
1
10
12.7980051648313
20
-1.83823888326066
30
0
41
1
10
13.0193160914221
20
-1.92446906354886
30
0
41
1
10
13.3513296083184
20
-2.04592790755757
30
0
41
1
10
13.4620085796166
20
-2.08510003514869
30
0
41
1
10
13.683476805856
20
-2.16069049314115
30
0
41
1
10
13.7943240436765
20
-2.1971266312737
30
0
41
1
10
14.0295035373046
20
-2.27131127821036
30
0
41
1
10
14.1538161862791
20
-2.30867174258827
30
0
41
1
10
14.278106058064
20
-2.34408438973901
30
0
0
SPLINE
5
D4
100
AcDbEntity
8
1
62
256
6
ByLayer
370
18
48
1
60
0
100
AcDbSpline
70
4
71
3
72
42
73
38
40
0
40
0
40
0
40
0
40
0.0624999999999626
40
0.0624999999999626
40
0.124999999999925
40
0.124999999999925
40
0.156249999999907
40
0.156249999999907
40
0.187499999999888
40
0.187499999999888
40
0.249999999999851
40
0.249999999999851
40
0.281249999999842
40
0.281249999999842
40
0.312499999999833
40
0.312499999999833
40
0.374999999999792
40
0.374999999999792
40
0.406249999999784
40
0.406249999999784
40
0.437499999999776
40
0.437499999999776
40
0.499999999999761
40
0.499999999999761
40
0.562499999999746
40
0.562499999999746
40
0.624999999999731
40
0.624999999999731
40
0.7499999999997
40
0.7499999999997
40
0.781249999999719
40
0.781249999999719
40
0.812499999999738
40
0.812499999999738
40
0.874999999999813
40
0.874999999999813
40
1
40
1
40
1
40
1
41
1
10
33.7076817345613
20
-0.36747953846205
30
0
41
1
10
33.705539492613
20
-0.344581434004681
30
0
41
1
10
33.7058986867658
20
-0.322011349966232
30
0
41
1
10
33.710640680477
20
-0.277270601171551
30
0
41
1
10
33.715022846816
20
-0.255099046529551
30
0
41
1
10
33.7242584389117
20
-0.222025114148039
30
0
41
1
10
33.7277828710849
20
-0.21105752611453
30
0
41
1
10
33.7355670788367
20
-0.18952324333415
30
0
41
1
10
33.739838710945
20
-0.17891216731357
30
0
41
1
10
33.7537179755956
20
-0.147509248199611
30
0
41
1
10
33.7643843402958
20
-0.12714524529585
30
0
41
1
10
33.7823445395721
20
-0.0973688729450259
30
0
41
1
10
33.7886729698705
20
-0.0875557146682695
30
0
41
1
10
33.8018161268509
20
-0.0684019018372908
30
0
41
1
10
33.8086458994664
20
-0.0590339372237736
30
0
41
1
10
33.8298712768802
20
-0.0315243857346275
30
0
41
1
10
33.844999129336
20
-0.0139739284013274
30
0
41
1
10
33.8690855923173
20
0.0112283626893372
30
0
41
1
10
33.8773478808732
20
0.0194410339592537
30
0
41
1
10
33.894338573625
20
0.0354908840889436
30
0
41
1
10
33.9030689467165
20
0.0433268511701215
30
0
41
1
10
33.9296584264829
20
0.066017048829508
30
0
41
1
10
33.948008290796
20
0.0801508214505589
30
0
41
1
10
33.9859286105919
20
0.106488857416394
30
0
41
1
10
34.0054998299327
20
0.118692062900408
30
0
41
1
10
34.0458931216211
20
0.141141350543847
30
0
41
1
10
34.0668132511985
20
0.151419337978552
30
0
41
1
10
34.1302248807857
20
0.178659687403467
30
0
41
1
10
34.1736663617203
20
0.192273563789087
30
0
41
1
10
34.2295469683611
20
0.203736513705252
30
0
41
1
10
34.2408027043191
20
0.205749155100335
30
0
41
1
10
34.2634789728885
20
0.209209476593287
30
0
41
1
10
34.2748797356116
20
0.210652449331803
30
0
41
1
10
34.3089793810308
20
0.214101821360401
30
0
41
1
10
34.3316873560001
20
0.215248288849381
30
0
41
1
10
34.3997864479049
20
0.215403965171618
30
0
41
1
10
34.445153689949
20
0.211146771836468
30
0
41
1
10
34.4906044948895
20
0.202743785487002
30
0
0
SPLINE
5
D5
100
AcDbEntity
8
1
62
256
6
ByLayer
370
18
48
1
60
0
100
AcDbSpline
70
4
71
3
72
46
73
42
40
0
40
0
40
0
40
0
40
0.0088885273220061
40
0.0199492818520979
40
0.033182486728378
40
0.0485882322894072
40
0.0661665134542062
40
0.0859172367990254
40
0.107840214073794
40
0.131935148399627
40
0.158201615860563
40
0.186639043864002
40
0.217246687103091
40
0.250023601741176
40
0.287108168111869
40
0.322522272680653
40
0.356267322277525
40
0.388345076769714
40
0.41875767414136
40
0.447507670451148
40
0.474598099635911
40
0.500032560247696
40
0.527219052159813
40
0.554278991382837
40
0.581217294310011
40
0.608038960508454
40
0.634749071368703
40
0.661352788527572
40
0.68785535206428
40
0.714262078470992
40
0.740578358400863
40
0.766809654196172
40
0.792961497201856
40
0.819039484870161
40
0.845049277662719
40
0.870996595758845
40
0.896887215578918
40
0.922726966132998
40
0.948521725206465
40
0.97427741539456
40
1
40
1
40
1
40
1
41
1
10
12.5969998057293
20
1.89315614355832
30
0
41
1
10
12.5963908666591
20
1.89635226890709
30
0
41
1
10
12.5950241726387
20
1.9035256063012
30
0
41
1
10
12.5929918846915
20
1.91564964143134
30
0
41
1
10
12.5906955492964
20
1.93038795014738
30
0
41
1
10
12.5881914022131
20
1.94789437114875
30
0
41
1
10
12.5854950178216
20
1.9683260735853
30
0
41
1
10
12.5826342650529
20
1.9918676009643
30
0
41
1
10
12.5796289469537
20
2.01872125611158
30
0
41
1
10
12.5764949114308
20
2.04910841302194
30
0
41
1
10
12.5732382031515
20
2.08326676002858
30
0
41
1
10
12.5698587647721
20
2.12144865269016
30
0
41
1
10
12.5663223960108
20
2.16391720532522
30
0
41
1
10
12.5625809437814
20
2.21197136827502
30
0
41
1
10
12.5584373130754
20
2.26410178860272
30
0
41
1
10
12.5536136589464
20
2.31846292411365
30
0
41
1
10
12.5483756911363
20
2.37176680951956
30
0
41
1
10
12.5426783049679
20
2.42371021836985
30
0
41
1
10
12.5365175685774
20
2.47401966608499
30
0
41
1
10
12.5298972622868
20
2.52244841664455
30
0
41
1
10
12.5228365468039
20
2.56877628099238
30
0
41
1
10
12.5150219248518
20
2.61476950163913
30
0
41
1
10
12.506192454865
20
2.66121275018091
30
0
41
1
10
12.4961332649796
20
2.70895743000185
30
0
41
1
10
12.4850455908555
20
2.75683817380914
30
0
41
1
10
12.4729326840829
20
2.80479293380898
30
0
41
1
10
12.459798152598
20
2.85276293593401
30
0
41
1
10
12.4456484466429
20
2.90069319776748
30
0
41
1
10
12.4304919321933
20
2.94853228866774
30
0
41
1
10
12.414338880678
20
2.99623227731374
30
0
41
1
10
12.3972012218445
20
3.04374861622992
30
0
41
1
10
12.3790923722826
20
3.09104003443738
30
0
41
1
10
12.3600270384414
20
3.1380684111588
30
0
41
1
10
12.34002108945
20
3.18479867589647
30
0
41
1
10
12.3190912216663
20
3.23119858864638
30
0
41
1
10
12.2972554292594
20
3.27723894489907
30
0
41
1
10
12.2745305149371
20
3.32289218638215
30
0
41
1
10
12.2509406472001
20
3.36813693199207
30
0
41
1
10
12.2264848486977
20
3.41294047313733
30
0
41
1
10
12.2012573940941
20
3.45732329162757
30
0
41
1
10
12.1837418045948
20
3.48653638586245
30
0
41
1
10
12.1749896419666
20
3.50113353953663
30
0
0
SPLINE
5
D6
100
AcDbEntity
8
1
62
256
6
ByLayer
370
18
48
1
60
0
100
AcDbSpline
70
4
71
3
72
54
73
50
40
0
40
0
40
0
40
0
40
0.0435473968825624
40
0.0435473968825624
40
0.0563781081294686
40
0.0563781081294686
40
0.0692088193763747
40
0.0692088193763747
40
0.0948702418701858
40
0.0948702418701858
40
0.197515931845432
40
0.197515931845432
40
0.223177354339243
40
0.223177354339243
40
0.248838776833055
40
0.300161621820679
40
0.351484466808303
40
0.351484466808303
40
0.36431517805521
40
0.36431517805521
40
0.377145889302116
40
0.40280731179593
40
0.454130156783559
40
0.454130156783559
40
0.479791579277375
40
0.479791579277375
40
0.505453001771191
40
0.505453001771191
40
0.608098691746454
40
0.608098691746454
40
0.633760114240272
40
0.633760114240272
40
0.65942153673409
40
0.65942153673409
40
0.710744381721725
40
0.710744381721725
40
0.762067226709361
40
0.762067226709361
40
0.787728649203179
40
0.787728649203179
40
0.800559360450088
40
0.800559360450088
40
0.813390071696996
40
0.91603576167226
40
0.91603576167226
40
0.941697184166077
40
0.941697184166077
40
0.967358606659894
40
1
40
1
40
1
40
1
41
1
10
17.9875295503193
20
2.7632350199637
30
0
41
1
10
18.1749701156604
20
2.75043889040461
30
0
41
1
10
18.3624642848195
20
2.73243362133462
30
0
41
1
10
18.6055683375287
20
2.70244561756843
30
0
41
1
10
18.6609193699959
20
2.69517316164411
30
0
41
1
10
18.7716825648618
20
2.67973582710542
30
0
41
1
10
18.8271124970886
20
2.67156793840078
30
0
41
1
10
18.993262728896
20
2.64577048800373
30
0
41
1
10
19.1039066166119
20
2.62683944789401
30
0
41
1
10
19.656748244007
20
2.52371295188323
30
0
41
1
10
20.0978120152384
20
2.41408579702357
30
0
41
1
10
20.6513890643062
20
2.24637399700842
30
0
41
1
10
20.762272557614
20
2.21127866883924
30
0
41
1
10
20.9836687024527
20
2.13834529268334
30
0
41
1
10
21.3154363827397
20
2.02476644198339
30
0
41
1
10
21.8674591217197
20
1.81554240717398
30
0
41
1
10
22.3095920490409
20
1.62899497562418
30
0
41
1
10
22.5865579660629
20
1.50708283982351
30
0
41
1
10
22.6419821910243
20
1.4824345311431
30
0
41
1
10
22.7527265349214
20
1.43270491710265
30
0
41
1
10
22.9187541412917
20
1.35743158651147
30
0
41
1
10
23.3056542314768
20
1.17725902663153
30
0
41
1
10
23.6368539220369
20
1.01579313191274
30
0
41
1
10
23.9683305515236
20
0.850631298441357
30
0
41
1
10
24.0788689061538
20
0.794961434819896
30
0
41
1
10
24.3001321647379
20
0.682557156029105
30
0
41
1
10
24.4109140964373
20
0.625793260802027
30
0
41
1
10
24.9648868664438
20
0.340067153788482
30
0
41
1
10
25.4060184722618
20
0.106565345046761
30
0
41
1
10
25.9586371002736
20
-0.184290099701855
30
0
41
1
10
26.0692209102479
20
-0.242410287317455
30
0
41
1
10
26.2906031669412
20
-0.358368585038107
30
0
41
1
10
26.4014839680522
20
-0.41624920974823
30
0
41
1
10
26.7336520398462
20
-0.588708650386764
30
0
41
1
10
26.9546414102595
20
-0.702197778869703
30
0
41
1
10
27.3964621630028
20
-0.924836752276519
30
0
41
1
10
27.6172930874683
20
-1.03398743682666
30
0
41
1
10
27.9489836431749
20
-1.19344291553432
30
0
41
1
10
28.0596212099311
20
-1.24588302342002
30
0
41
1
10
28.2257596678226
20
-1.32334803583012
30
0
41
1
10
28.2811891640174
20
-1.34897940389845
30
0
41
1
10
28.3919602619721
20
-1.39974923010729
30
0
41
1
10
28.8901514001041
20
-1.62605335824631
30
0
41
1
10
29.3863195428031
20
-1.83214968219269
30
0
41
1
10
29.9393775667094
20
-2.03560670637893
30
0
41
1
10
30.0500885674946
20
-2.0750257709214
30
0
41
1
10
30.2717354653575
20
-2.15115765492794
30
0
41
1
10
30.5232233496922
20
-2.2343780249079
30
0
41
1
10
30.7742677115393
20
-2.30992917348499
30
0
41
1
10
30.9147748846995
20
-2.34972829963917
30
0
0
SPLINE
5
D7
100
AcDbEntity
8
1
62
256
6
ByLayer
370
18
48
1
60
0
100
AcDbSpline
70
4
71
3
72
14
73
10
40
0
40
0
40
0
40
0
40
0.25
40
0.25
40
0.5
40
0.5
40
0.749999999999999
40
0.749999999999999
40
1
40
1
40
1
40
1
41
1
10
35.9078011436149
20
2.01992741073667
30
0
41
1
10
35.9223897208235
20
1.98961493994986
30
0
41
1
10
35.937044436964
20
1.95906564451215
30
0
41
1
10
35.9663008083658
20
1.8981570495134
30
0
41
1
10
35.9809282079195
20
1.86770556857525
30
0
41
1
10
36.0102442025967
20
1.8065832314972
30
0
41
1
10
36.024934912947
20
1.77590479178511
30
0
41
1
10
36.0543498217322
20
1.7144278626775
30
0
41
1
10
36.0690748015131
20
1.68362657227272
30
0
41
1
10
36.0837430219292
20
1.65302875555602
30
0
0
SPLINE
5
D8
100
AcDbEntity
8
1
62
256
6
ByLayer
370
18
48
1
60
0
100
AcDbSpline
70
4
71
3
72
16
73
12
40
0
40
0
40
0
40
0
40
0.178708008310244
40
0.178708008310244
40
0.38403100623268
40
0.38403100623268
40
0.486692505193897
40
0.486692505193897
40
0.589354004155115
40
0.589354004155115
40
1
40
1
40
1
40
1
41
1
10
34.8416464413553
20
2.59915853522452
30
0
41
1
10
34.9032291939611
20
2.57719515235624
30
0
41
1
10
34.9653220021589
20
2.55283677022504
30
0
41
1
10
35.099831566356
20
2.49543770532966
30
0
41
1
10
35.1724094841735
20
2.46164027674789
30
0
41
1
10
35.2822623487461
20
2.40631436370529
30
0
41
1
10
35.3190400496844
20
2.3870997580602
30
0
41
1
10
35.3925201765597
20
2.34735586803481
30
0
41
1
10
35.4292729910558
20
2.32680178290389
30
0
41
1
10
35.6130992859065
20
2.22070266303581
30
0
41
1
10
35.76035906844
20
2.12519106828012
30
0
41
1
10
35.9078011436144
20
2.01992741073667
30
0
0
SPLINE
5
D9
100
AcDbEntity
8
1
62
256
6
ByLayer
370
18
48
1
60
0
100
AcDbSpline
70
4
71
5
72
16
73
10
40
0
40
0
40
0
40
0
40
0
40
0
40
0.504947485459428
40
0.631184356824285
40
0.82053966387157
40
0.946776535236427
40
1
40
1
40
1
40
1
40
1
40
1
41
1
10
12.5938382628961
20
-2.2750196892396
30
0
41
1
10
12.8246271685896
20
-2.35073583898938
30
0
41
1
10
13.1131133007066
20
-2.4386134396328
30
0
41
1
10
13.4881452724587
20
-2.54124655190282
30
0
41
1
10
13.9208744706342
20
-2.64127869867551
30
0
41
1
10
14.3779297334871
20
-2.72334032251757
30
0
41
1
10
14.6041960906464
20
-2.75771954260588
30
0
41
1
10
14.7727652213823
20
-2.77981422412148
30
0
41
1
10
14.8547885124832
20
-2.78972715710498
30
0
41
1
10
14.8791145771607
20
-2.79259325038697
30
0
0
SPLINE
5
DA
100
AcDbEntity
8
1
62
256
6
ByLayer
370
18
48
1
60
0
100
AcDbSpline
70
4
71
3
72
8
73
4
40
0
40
0
40
0
40
0
40
1
40
1
40
1
40
1
41
1
10
13.5683923437469
20
-4.733494384658
30
0
41
1
10
13.6737719710046
20
-4.65668434856173
30
0
41
1
10
13.7815072740878
20
-4.5823127309784
30
0
41
1
10
13.8912896079797
20
-4.51020261017683
30
0
0
SPLINE
5
DB
100
AcDbEntity
8
1
62
256
6
ByLayer
370
18
48
1
60
0
100
AcDbSpline
70
4
71
3
72
8
73
4
40
0
40
0
40
0
40
0
40
1
40
1
40
1
40
1
41
1
10
36.2653451926456
20
4.7576060020439
30
0
41
1
10
36.2963071856312
20
4.75516131099496
30
0
41
1
10
36.3272680831475
20
4.7527045518483
30
0
41
1
10
36.3582277704901
20
4.75023445908349
30
0
0
SPLINE
5
DC
100
AcDbEntity
8
1
62
256
6
ByLayer
370
18
48
1
60
0
100
AcDbSpline
70
4
71
3
72
18
73
14
40
0
40
0
40
0
40
0
40
0.125
40
0.125
40
0.25
40
0.25
40
0.375
40
0.375
40
0.5
40
0.5
40
0.75
40
0.75
40
1
40
1
40
1
40
1
41
1
10
11.3633917786121
20
-1.335988048275
30
0
41
1
10
11.3927890343416
20
-1.33939299976799
30
0
41
1
10
11.4219342679439
20
-1.34385226460157
30
0
41
1
10
11.4798667865826
20
-1.35428678043931
30
0
41
1
10
11.5086526522319
20
-1.36026776576361
30
0
41
1
10
11.5659506796469
20
-1.37340327109268
30
0
41
1
10
11.5944622380729
20
-1.38056023016449
30
0
41
1
10
11.6512672345836
20
-1.39582130698778
30
0
41
1
10
11.679578513818
20
-1.40393280964079
30
0
41
1
10
11.7639163709106
20
-1.42934723710974
30
0
41
1
10
11.8194639684036
20
-1.44774405958893
30
0
41
1
10
11.9296025827704
20
-1.48662383178066
30
0
41
1
10
11.9841893940413
20
-1.50711539213833
30
0
41
1
10
12.0384097633884
20
-1.52841873424435
30
0
0
SPLINE
5
DD
100
AcDbEntity
8
1
62
256
6
ByLayer
370
18
48
1
60
0
100
AcDbSpline
70
4
71
3
72
93
73
89
40
0
40
0
40
0
40
0
40
0.0079515170427701
40
0.0159346288440217
40
0.0239497720383319
40
0.0319973778933478
40
0.0400778723296072
40
0.0481916759427839
40
0.0563392040284156
40
0.0645208666086198
40
0.0727370684612414
40
0.0809882091507422
40
0.0892746830611763
40
0.0975968794308569
40
0.105955182388882
40
0.114349970993057
40
0.12278161926953
40
0.131250496253697
40
0.139756966032502
40
0.148301387787916
40
0.156884115841577
40
0.165505499700539
40
0.174165884103907
40
0.182865609070314
40
0.191605009946443
40
0.200384417456034
40
0.209204157749701
40
0.218064552455226
40
0.226965918728576
40
0.235908569305152
40
0.244892812551588
40
0.253918952517873
40
0.262987288989684
40
0.272098117541039
40
0.281251729587051
40
0.290448412436871
40
0.299688449346689
40
0.308972119572675
40
0.318299698424135
40
0.327671457316377
40
0.337087663823632
40
0.346548581731767
40
0.356054471090929
40
0.36560558826793
40
0.375202185998397
40
0.384844513438713
40
0.394532816217683
40
0.4042673364878
40
0.414048312976312
40
0.423875981035858
40
0.433750572694752
40
0.4436723167068
40
0.453641438600901
40
0.463658160729928
40
0.473722702319477
40
0.486302823754418
40
0.499090164824606
40
0.512085158895348
40
0.525288218261931
40
0.5386997353878
40
0.552320084053697
40
0.566149620424627
40
0.580188684041602
40
0.594437598744046
40
0.608896673528554
40
0.623566203348851
40
0.638446469861754
40
0.653537742123122
40
0.668840277237823
40
0.684354320967119
40
0.700080108296698
40
0.716017863968316
40
0.7321678029778
40
0.748530131041742
40
0.765105045035387
40
0.781892733403566
40
0.798893376546858
40
0.816107147184492
40
0.833534210695852
40
0.851174725442005
40
0.869028843068607
40
0.887096708791576
40
0.905378461666654
40
0.923874234843966
40
0.942584155808654
40
0.961508346608525
40
0.980646924069538
40
1
40
1
40
1
40
1
41
1
10
9.84776470923563
20
-3.94948385967581
30
0
41
1
10
9.85452140270769
20
-3.94697952342375
30
0
41
1
10
9.86806163686816
20
-3.94196090012673
30
0
41
1
10
9.88842673595224
20
-3.93416752459314
30
0
41
1
10
9.9088846145965
20
-3.92616175795462
30
0
41
1
10
9.92943802447024
20
-3.91792558217244
30
0
41
1
10
9.95008847962248
20
-3.90946415183134
30
0
41
1
10
9.97083783352451
20
-3.90077640580952
30
0
41
1
10
9.99168785329729
20
-3.89186299051391
30
0
41
1
10
10.0126403338387
20
-3.8827241247709
30
0
41
1
10
10.0336970663853
20
-3.87336017637716
30
0
41
1
10
10.0548598463065
20
-3.86377150757537
30
0
41
1
10
10.0761304703067
20
-3.85395851765213
30
0
41
1
10
10.0975107364704
20
-3.84392163239121
30
0
41
1
10
10.1190024435272
20
-3.83366130786618
30
0
41
1
10
10.140607390313
20
-3.82317803037176
30
0
41
1
10
10.1623273751647
20
-3.8124723174052
30
0
41
1
10
10.1841641953185
20
-3.80154471837008
30
0
41
1
10
10.2061196462938
20
-3.79039581536287
30
0
41
1
10
10.2281955212656
20
-3.77902622394262
30
0
41
1
10
10.2503936104265
20
-3.76743659391207
30
0
41
1
10
10.2727157003373
20
-3.75562761010195
30
0
41
1
10
10.2951635732652
20
-3.74359999316036
30
0
41
1
10
10.317739006511
20
-3.73135450034485
30
0
41
1
10
10.3404437717252
20
-3.71889192632196
30
0
41
1
10
10.3632796342114
20
-3.70621310396751
30
0
41
1
10
10.3862483522187
20
-3.69331890517304
30
0
41
1
10
10.4093516762216
20
-3.68021024165367
30
0
41
1
10
10.4325913481889
20
-3.66688806576227
30
0
41
1
10
10.45596910084
20
-3.65335337130367
30
0
41
1
10
10.479486656889
20
-3.63960719435377
30
0
41
1
10
10.503145728278
20
-3.6256506140812
30
0
41
1
10
10.5269480153965
20
-3.61148475357018
30
0
41
1
10
10.5508952062905
20
-3.59711078064723
30
0
41
1
10
10.5749889758583
20
-3.58252990870835
30
0
41
1
10
10.5992309850345
20
-3.56774339754892
30
0
41
1
10
10.6236228799621
20
-3.55275255419463
30
0
41
1
10
10.6481662911515
20
-3.53755873373245
30
0
41
1
10
10.6728628326289
20
-3.52216334014489
30
0
41
1
10
10.6977141010709
20
-3.50656782714202
30
0
41
1
10
10.7227216749273
20
-3.49077369899541
30
0
41
1
10
10.7478871135327
20
-3.47478251137108
30
0
41
1
10
10.7732119562046
20
-3.45859587216276
30
0
41
1
10
10.7986977213299
20
-3.442215442323
30
0
41
1
10
10.8243459054409
20
-3.42564293669739
30
0
41
1
10
10.8501579822708
20
-3.4088801248399
30
0
41
1
10
10.8761354018293
20
-3.39192883189458
30
0
41
1
10
10.9022795893459
20
-3.37479093921655
30
0
41
1
10
10.9285919446531
20
-3.35746838596174
30
0
41
1
10
10.9550738398596
20
-3.33996316702405
30
0
41
1
10
10.9817266233937
20
-3.322277344686
30
0
41
1
10
11.0085516000481
20
-3.30441300870675
30
0
41
1
10
11.0355501011718
20
-3.28637243020412
30
0
41
1
10
11.0627232159645
20
-3.26815748708441
30
0
41
1
10
11.0923078980985
20
-3.24826928840815
30
0
41
1
10
11.1244608869806
20
-3.22658169983166
30
0
41
1
10
11.1593443148649
20
-3.20297290694964
30
0
41
1
10
11.1948716306775
20
-3.17886551613563
30
0
41
1
10
11.2310502491655
20
-3.1542672370696
30
0
41
1
10
11.2678877841364
20
-3.12918679178227
30
0
41
1
10
11.3053916497766
20
-3.10363319004196
30
0
41
1
10
11.3435691503394
20
-3.0776159462304
30
0
41
1
10
11.3824274352893
20
-3.05114503793129
30
0
41
1
10
11.4219734908172
20
-3.02423093540219
30
0
41
1
10
11.4622141208454
20
-2.99688461161946
30
0
41
1
10
11.5031559303783
20
-2.96911755763213
30
0
41
1
10
11.5448053076752
20
-2.94094179641968
30
0
41
1
10
11.5871684062141
20
-2.91236989708847
30
0
41
1
10
11.6302511261834
20
-2.88341498887732
30
0
41
1
10
11.6740590955777
20
-2.85409077508581
30
0
41
1
10
11.7185976508829
20
-2.82441154686336
30
0
41
1
10
11.7638718173601
20
-2.79439219684252
30
0
41
1
10
11.8098862889346
20
-2.76404823258855
30
0
41
1
10
11.8566454076948
20
-2.73339578983683
30
0
41
1
10
11.9041531430114
20
-2.70245164548359
30
0
41
1
10
11.9524130702918
20
-2.67123323033204
30
0
41
1
10
12.0014283493431
20
-2.63975864143103
30
0
41
1
10
12.0512017025079
20
-2.60804665448504
30
0
41
1
10
12.1017353919934
20
-2.57611673434619
30
0
41
1
10
12.1530311986735
20
-2.54398905100757
30
0
41
1
10
12.2050903937547
20
-2.51168447271684
30
0
41
1
10
12.2579137361042
20
-2.47922464390359
30
0
41
1
10
12.3115013707026
20
-2.44663173856245
30
0
41
1
10
12.3658531013922
20
-2.41392944394752
30
0
41
1
10
12.4209672409257
20
-2.38113926909395
30
0
41
1
10
12.4768448620463
20
-2.34829460254161
30
0
41
1
10
12.5334735432055
20
-2.31538738423941
30
0
41
1
10
12.5715382879506
20
-2.29363077562411
30
0
41
1
10
12.5906767200629
20
-2.28269185091131
30
0
0
SPLINE
5
DE
100
AcDbEntity
8
1
62
256
6
ByLayer
370
18
48
1
60
0
100
AcDbSpline
70
4
71
3
72
20
73
16
40
0
40
0
40
0
40
0
40
0.25
40
0.25
40
0.5
40
0.5
40
0.625
40
0.625
40
0.75
40
0.75
40
0.875
40
0.875
40
0.9375
40
0.9375
40
1
40
1
40
1
40
1
41
1
10
7.36636739970965
20
-0.615673463068021
30
0
41
1
10
7.67165242282007
20
-0.705697053153727
30
0
41
1
10
7.98233028495872
20
-0.787081883807588
30
0
41
1
10
8.61700413157934
20
-0.932698479213258
30
0
41
1
10
8.94101690738589
20
-0.996899694822389
30
0
41
1
10
9.43887980375587
20
-1.08241549102792
30
0
41
1
10
9.60680580139677
20
-1.10914736832413
30
0
41
1
10
9.94685071526686
20
-1.15973316070961
30
0
41
1
10
10.1189704130288
20
-1.18358698975328
30
0
41
1
10
10.4675878732499
20
-1.2293091242561
30
0
41
1
10
10.6440864311789
20
-1.25117778457019
30
0
41
1
10
10.9121894456115
20
-1.28332651052122
30
0
41
1
10
11.002046537991
20
-1.2939270202387
30
0
41
1
10
11.1822520035459
20
-1.31499962509349
30
0
41
1
10
11.2726689860345
20
-1.32548003654492
30
0
41
1
10
11.3633917786121
20
-1.33598804827494
30
0
0
SPLINE
5
DF
100
AcDbEntity
8
1
62
256
6
ByLayer
370
18
48
1
60
0
100
AcDbSpline
70
4
71
3
72
8
73
4
40
0
40
0
40
0
40
0
40
1
40
1
40
1
40
1
41
1
10
12.0384097633871
20
-1.52841873424455
30
0
41
1
10
12.2097460858102
20
-1.59573727773153
30
0
41
1
10
12.3825239824611
20
-1.66484838844872
30
0
41
1
10
12.5557373564723
20
-1.73740350349499
30
0
0
SPLINE
5
E0
100
AcDbEntity
8
1
62
256
6
ByLayer
370
18
48
1
60
0
100
AcDbSpline
70
4
71
3
72
33
73
29
40
0
40
0
40
0
40
0
40
0.0177761699377715
40
0.036257371223529
40
0.0554435201555257
40
0.0753345215594922
40
0.0959302679826641
40
0.117230638862917
40
0.139235499677266
40
0.161944701073337
40
0.185358077987347
40
0.259806812878719
40
0.329751887979229
40
0.395198923533856
40
0.456155317378462
40
0.51263048653913
40
0.564636280888121
40
0.605880746120636
40
0.646933219020973
40
0.687801158220124
40
0.728492148531624
40
0.769013898902847
40
0.809374240022303
40
0.849581121583036
40
0.889642609203677
40
0.929566881012079
40
0.969362223895252
40
1
40
1
40
1
40
1
41
1
10
12.5771343950624
20
-1.74762965024081
30
0
41
1
10
12.5766371601788
20
-1.74004645202478
30
0
41
1
10
12.5756229692804
20
-1.72457929381559
30
0
41
1
10
12.5741146115721
20
-1.70110336198374
30
0
41
1
10
12.5725771256854
20
-1.67687585279262
30
0
41
1
10
12.5710128794146
20
-1.65193039197797
30
0
41
1
10
12.5694192882957
20
-1.62628561086771
30
0
41
1
10
12.5677938107134
20
-1.59996614089255
30
0
41
1
10
12.5661345106087
20
-1.5729967221917
30
0
41
1
10
12.5644317010642
20
-1.54540396649711
30
0
41
1
10
12.561462384618
20
-1.49701711380581
30
0
41
1
10
12.5570159330723
20
-1.43102102257706
30
0
41
1
10
12.5503307897069
20
-1.35108634673804
30
0
41
1
10
12.5428619368495
20
-1.27859958774985
30
0
41
1
10
12.5345649589225
20
-1.21310143800346
30
0
41
1
10
12.5254645973831
20
-1.15413289835558
30
0
41
1
10
12.5160022908202
20
-1.10338538233441
30
0
41
1
10
12.5061924063041
20
-1.05886596315034
30
0
41
1
10
12.4961332779027
20
-1.0188223672746
30
0
41
1
10
12.4850455874154
20
-0.979706673900296
30
0
41
1
10
12.4729326849988
20
-0.94147138346915
30
0
41
1
10
12.4597981523541
20
-0.904068326077663
30
0
41
1
10
12.4456484467078
20
-0.867448938874247
30
0
41
1
10
12.430491932176
20
-0.831564465400533
30
0
41
1
10
12.4143388806826
20
-0.796366155579989
30
0
41
1
10
12.3972012218433
20
-0.761805446103267
30
0
41
1
10
12.3804630410797
20
-0.730405434350786
30
0
41
1
10
12.3692499157465
20
-0.710595214437774
30
0
41
1
10
12.3642728069114
20
-0.70201871157002
30
0
0
SPLINE
5
E1
100
AcDbEntity
8
1
62
256
6
ByLayer
370
18
48
1
60
0
100
AcDbSpline
70
4
71
3
72
8
73
4
40
0
40
0
40
0
40
0
40
1
40
1
40
1
40
1
41
1
10
36.3207005290639
20
-0.905976930349709
30
0
41
1
10
36.312811246576
20
-0.931256677255732
30
0
41
1
10
36.3049321713858
20
-0.956464368733208
30
0
41
1
10
36.2970633186269
20
-0.981599897949963
30
0
0
SPLINE
5
E2
100
AcDbEntity
8
1
62
256
6
ByLayer
370
18
48
1
60
0
100
AcDbSpline
70
4
71
3
72
37
73
33
40
0
40
0
40
0
40
0
40
0.0590391262717043
40
0.118795153088567
40
0.179254029036161
40
0.240400904467403
40
0.263501748780963
40
0.28711164777704
40
0.311229103391623
40
0.335852474682085
40
0.360979972148605
40
0.386609651968623
40
0.41273941017221
40
0.43936697678733
40
0.46648990998465
40
0.494105590252885
40
0.52221121463695
40
0.550803786952707
40
0.579880008356265
40
0.609436269248938
40
0.63946876106543
40
0.669973480423144
40
0.700946227471265
40
0.732382604309733
40
0.764278025913309
40
0.796627949702742
40
0.829427830701711
40
0.862672885002214
40
0.89635807418086
40
0.930478099134958
40
0.965027392368938
40
1
40
1
40
1
40
1
41
1
10
13.8911768233596
20
4.51010081705539
30
0
41
1
10
13.8774226461893
20
4.51078701054342
30
0
41
1
10
13.8497472775696
20
4.51216772983261
30
0
41
1
10
13.8074818449866
20
4.51328523765116
30
0
41
1
10
13.7643442172508
20
4.51370116427609
30
0
41
1
10
13.729598116478
20
4.51340611874221
30
0
41
1
10
13.7035293111046
20
4.51287674232469
30
0
41
1
10
13.6863438392899
20
4.51241659623395
30
0
41
1
10
13.6687246943226
20
4.51182930003665
30
0
41
1
10
13.6506712321791
20
4.51110764238894
30
0
41
1
10
13.6321835218231
20
4.51024434433475
30
0
41
1
10
13.6132614299387
20
4.50923207112766
30
0
41
1
10
13.5939048736387
20
4.50806344232575
30
0
41
1
10
13.5741137504641
20
4.50673104322854
30
0
41
1
10
13.5538879569076
20
4.50522743704269
30
0
41
1
10
13.5332273847399
20
4.50354517716067
30
0
41
1
10
13.5121319157944
20
4.50167682293306
30
0
41
1
10
13.490601476752
20
4.49961494862362
30
0
41
1
10
13.4686359386204
20
4.49735219895678
30
0
41
1
10
13.4462351099748
20
4.49488126264137
30
0
41
1
10
13.4233988542461
20
4.49219482559019
30
0
41
1
10
13.4001270292109
20
4.48928558455336
30
0
41
1
10
13.3764194915748
20
4.48614624335607
30
0
41
1
10
13.3522761063823
20
4.48276953285372
30
0
41
1
10
13.3276966325396
20
4.47914814166609
30
0
41
1
10
13.3026809304143
20
4.47527501314804
30
0
41
1
10
13.2772289846899
20
4.47114357973595
30
0
41
1
10
13.251340452048
20
4.46674692878258
30
0
41
1
10
13.2250158190776
20
4.46208010427404
30
0
41
1
10
13.198252436977
20
4.45713171581863
30
0
41
1
10
13.1710595929817
20
4.45191590953479
30
0
41
1
10
13.1527312548456
20
4.44822815982155
30
0
41
1
10
13.1435112857397
20
4.44637305772915
30
0
0
SPLINE
5
E3
100
AcDbEntity
8
1
62
256
6
ByLayer
370
18
48
1
60
0
100
AcDbSpline
70
4
71
3
72
17
73
13
40
0
40
0
40
0
40
0
40
0.250000000000005
40
0.250000000000005
40
0.500000000000011
40
0.500000000000011
40
0.56250000000001
40
0.56250000000001
40
0.625000000000009
40
0.750000000000007
40
0.750000000000007
40
1
40
1
40
1
40
1
41
1
10
13.5683923437456
20
-4.73349438464822
30
0
41
1
10
13.2594265630576
20
-4.7641509923393
30
0
41
1
10
12.9518987961261
20
-4.7704859352738
30
0
41
1
10
12.335517691959
20
-4.73476971043945
30
0
41
1
10
12.0266794455946
20
-4.6927199807063
30
0
41
1
10
11.6371070769339
20
-4.60934805266584
30
0
41
1
10
11.558938274389
20
-4.59110750945121
30
0
41
1
10
11.4029897116639
20
-4.55173223243614
30
0
41
1
10
11.1693976480275
20
-4.48828169408412
30
0
41
1
10
10.9364869841838
20
-4.41187279970725
30
0
41
1
10
10.4707631521977
20
-4.24221679746648
30
0
41
1
10
10.1604184448407
20
-4.10669276933501
30
0
41
1
10
9.8480334034665
20
-3.94951414118512
30
0
0
SPLINE
5
E4
100
AcDbEntity
8
1
62
256
6
ByLayer
370
18
48
1
60
0
100
AcDbSpline
70
4
71
3
72
46
73
42
40
0
40
0
40
0
40
0
40
0.062500000000001
40
0.062500000000001
40
0.125000000000002
40
0.125000000000002
40
0.250000000000001
40
0.250000000000001
40
0.375000000000001
40
0.375000000000001
40
0.406250000000001
40
0.406250000000001
40
0.437500000000002
40
0.437500000000002
40
0.500000000000003
40
0.500000000000003
40
0.562500000000004
40
0.562500000000004
40
0.625000000000005
40
0.625000000000005
40
0.687500000000007
40
0.687500000000007
40
0.718750000000007
40
0.718750000000007
40
0.750000000000007
40
0.750000000000007
40
0.812500000000006
40
0.812500000000006
40
0.828125000000006
40
0.828125000000006
40
0.843750000000006
40
0.843750000000006
40
0.875000000000005
40
0.875000000000005
40
0.937500000000003
40
0.937500000000003
40
0.953125000000002
40
0.953125000000002
40
0.968750000000002
40
0.968750000000002
40
1
40
1
40
1
40
1
41
1
10
9.84766454590641
20
-3.94952098301533
30
0
41
1
10
9.77189015004285
20
-3.91125838804427
30
0
41
1
10
9.69650393459813
20
-3.87130287269497
30
0
41
1
10
9.54659011742467
20
-3.78788476918871
30
0
41
1
10
9.47240822267935
20
-3.74461542862312
30
0
41
1
10
9.25216553741876
20
-3.60997933651666
30
0
41
1
10
9.10838725074319
20
-3.51380846357824
30
0
41
1
10
8.82723129313297
20
-3.30740679663205
30
0
41
1
10
8.68983954258098
20
-3.19719830890927
30
0
41
1
10
8.52278646523624
20
-3.04926019331293
30
0
41
1
10
8.48961287916831
20
-3.01916009918739
30
0
41
1
10
8.42376980728875
20
-2.9578826426318
30
0
41
1
10
8.39107373633001
20
-2.92667918284005
30
0
41
1
10
8.29398292747558
20
-2.83154351277264
30
0
41
1
10
8.23075533224389
20
-2.7662661133852
30
0
41
1
10
8.1076747193072
20
-2.63165423032328
30
0
41
1
10
8.04781950661635
20
-2.56232168522149
30
0
41
1
10
7.9320300708674
20
-2.41910279816969
30
0
41
1
10
7.87609191669483
20
-2.34521987212651
30
0
41
1
10
7.76894455320709
20
-2.19217737272828
30
0
41
1
10
7.71772771696774
20
-2.11302434862441
30
0
41
1
10
7.6453741329812
20
-1.98951954596043
30
0
41
1
10
7.6219949511667
20
-1.94751929788413
30
0
41
1
10
7.5773347236001
20
-1.86249638462419
30
0
41
1
10
7.556002539123
20
-1.81939109970301
30
0
41
1
10
7.49533598432439
20
-1.68813779895979
30
0
41
1
10
7.45929273861853
20
-1.59807024433638
30
0
41
1
10
7.42132026170555
20
-1.48154674890765
30
0
41
1
10
7.41408289621751
20
-1.45804369222819
30
0
41
1
10
7.40037605927873
20
-1.41061606453982
30
0
41
1
10
7.39389745513336
20
-1.38665448552044
30
0
41
1
10
7.37577153576501
20
-1.31436328273307
30
0
41
1
10
7.36547148741528
20
-1.26580851794896
30
0
41
1
10
7.34046221928401
20
-1.11899865295666
30
0
41
1
10
7.33158465487895
20
-1.01960531788376
30
0
41
1
10
7.33273396431662
20
-0.893162565057111
30
0
41
1
10
7.33358078591806
20
-0.867763384964718
30
0
41
1
10
7.3365923327288
20
-0.816733610751839
30
0
41
1
10
7.33874566366183
20
-0.791311153469451
30
0
41
1
10
7.34717180839289
20
-0.715425559302105
30
0
41
1
10
7.35541185139729
20
-0.665302095913233
30
0
41
1
10
7.3663673997346
20
-0.61567346307146
30
0
0
SPLINE
5
E5
100
AcDbEntity
8
1
62
256
6
ByLayer
370
18
48
1
60
0
100
AcDbSpline
70
4
71
3
72
37
73
33
40
0
40
0
40
0
40
0
40
0.0625000000000004
40
0.0625000000000004
40
0.125000000000001
40
0.125000000000001
40
0.187500000000001
40
0.187500000000001
40
0.218750000000002
40
0.218750000000002
40
0.250000000000002
40
0.250000000000002
40
0.375000000000001
40
0.375000000000001
40
0.40625
40
0.40625
40
0.437499999999998
40
0.437499999999998
40
0.499999999999998
40
0.562499999999999
40
0.562499999999999
40
0.593749999999996
40
0.593749999999996
40
0.624999999999994
40
0.624999999999994
40
0.749999999999996
40
0.749999999999996
40
0.874999999999998
40
0.874999999999998
40
0.937499999999999
40
0.937499999999999
40
1
40
1
40
1
40
1
41
1
10
7.36636739973034
20
-0.615673463058158
30
0
41
1
10
7.35636692487853
20
-0.563826972027613
30
0
41
1
10
7.34829054583565
20
-0.510960046693526
30
0
41
1
10
7.33688051240387
20
-0.405458319260617
30
0
41
1
10
7.33349451240269
20
-0.352637143931503
30
0
41
1
10
7.33180381414871
20
-0.246851060208769
30
0
41
1
10
7.33349811922906
20
-0.193886159122684
30
0
41
1
10
7.34026172054422
20
-0.114327831566129
30
0
41
1
10
7.3432208672906
20
-0.0877898835210829
30
0
41
1
10
7.3506299935099
20
-0.0346763176423792
30
0
41
1
10
7.35507513690033
20
-0.008174566696681
30
0
41
1
10
7.38081503072689
20
0.122676985843498
30
0
41
1
10
7.41279296172257
20
0.223337694002879
30
0
41
1
10
7.46715297983565
20
0.344122599951589
30
0
41
1
10
7.47874597246158
20
0.368026968199445
30
0
41
1
10
7.50338443277127
20
0.415327787004998
30
0
41
1
10
7.51646564644369
20
0.43877695044813
30
0
41
1
10
7.55738593759037
20
0.507524086442203
30
0
41
1
10
7.61663565618494
20
0.595420470258887
30
0
41
1
10
7.68448424809168
20
0.676454860243922
30
0
41
1
10
7.73836454442434
20
0.734856950208609
30
0
41
1
10
7.75682420216319
20
0.753928204888382
30
0
41
1
10
7.79471046433315
20
0.791306474120063
30
0
41
1
10
7.81409768939477
20
0.809571030531004
30
0
41
1
10
7.91246373590747
20
0.898288577364383
30
0
41
1
10
7.99630587141752
20
0.961621931505192
30
0
41
1
10
8.17212560369558
20
1.07640335715297
30
0
41
1
10
8.26412120222676
20
1.12782310795521
30
0
41
1
10
8.40726678537214
20
1.19753372343078
30
0
41
1
10
8.45561933099196
20
1.21941506412884
30
0
41
1
10
8.55328780867788
20
1.26065748032957
30
0
41
1
10
8.60263640915031
20
1.28003379266414
30
0
41
1
10
8.65245610749437
20
1.29827863461304
30
0
0
SPLINE
5
E6
100
AcDbEntity
8
1
62
256
6
ByLayer
370
18
48
1
60
0
100
AcDbSpline
70
4
71
3
72
28
73
24
40
0
40
0
40
0
40
0
40
0.0624999999999939
40
0.0624999999999939
40
0.124999999999988
40
0.124999999999988
40
0.187499999999982
40
0.187499999999982
40
0.218749999999984
40
0.218749999999984
40
0.249999999999986
40
0.249999999999986
40
0.374999999999996
40
0.374999999999996
40
0.500000000000005
40
0.500000000000005
40
0.562500000000005
40
0.562500000000005
40
0.625000000000004
40
0.625000000000004
40
0.750000000000003
40
0.750000000000003
40
1
40
1
40
1
40
1
41
1
10
8.65245610749525
20
1.29827863461335
30
0
41
1
10
8.68983028460644
20
1.3119657097468
30
0
41
1
10
8.72771773739731
20
1.32348732987256
30
0
41
1
10
8.8043500899914
20
1.34293279624646
30
0
41
1
10
8.84309608822255
20
1.35085184392418
30
0
41
1
10
8.92133963455589
20
1.36354902927226
30
0
41
1
10
8.96083774082763
20
1.36832473349975
30
0
41
1
10
9.02059608459848
20
1.373357379119
30
0
41
1
10
9.04064080557751
20
1.37468034745049
30
0
41
1
10
9.08067647605057
20
1.37663215937479
30
0
41
1
10
9.10065485055475
20
1.37726221855715
30
0
41
1
10
9.20036226981347
20
1.37879649153731
30
0
41
1
10
9.27954392692203
20
1.37490679754259
30
0
41
1
10
9.43695121227853
20
1.35873648497628
30
0
41
1
10
9.5151743511426
20
1.34643350664956
30
0
41
1
10
9.63187101789785
20
1.3223364352279
30
0
41
1
10
9.67070631595175
20
1.31334728756872
30
0
41
1
10
9.7479854470688
20
1.29359070667832
30
0
41
1
10
9.78623495341444
20
1.28287547049669
30
0
41
1
10
9.89989462691784
20
1.24837976679595
30
0
41
1
10
9.97421968716952
20
1.22225744330086
30
0
41
1
10
10.1933139882555
20
1.13539583356604
30
0
41
1
10
10.33422380382
20
1.06621035310707
30
0
41
1
10
10.4706953594131
20
0.986953737369248
30
0
0
SPLINE
5
E7
100
AcDbEntity
8
1
62
256
6
ByLayer
370
18
48
1
60
0
100
AcDbSpline
70
4
71
3
72
28
73
24
40
0
40
0
40
0
40
0
40
0.062499999999996
40
0.062499999999996
40
0.124999999999992
40
0.124999999999992
40
0.187499999999988
40
0.187499999999988
40
0.218749999999986
40
0.218749999999986
40
0.249999999999984
40
0.249999999999984
40
0.374999999999987
40
0.374999999999987
40
0.49999999999999
40
0.49999999999999
40
0.562499999999991
40
0.562499999999991
40
0.624999999999992
40
0.624999999999992
40
0.749999999999995
40
0.749999999999995
40
1
40
1
40
1
40
1
41
1
10
8.65245610749508
20
4.66152752794224
30
0
41
1
10
8.68983028460625
20
4.65861370344737
30
0
41
1
10
8.72771773739717
20
4.65609721790096
30
0
41
1
10
8.80435008999126
20
4.65179722118154
30
0
41
1
10
8.84309608822238
20
4.6500139828228
30
0
41
1
10
8.92133963455572
20
4.64713396093816
30
0
41
1
10
8.96083774082746
20
4.64603733348429
30
0
41
1
10
9.02059608459834
20
4.64487845458549
30
0
41
1
10
9.04064080557737
20
4.64457285137559
30
0
41
1
10
9.08067647605043
20
4.64412155123563
30
0
41
1
10
9.10065485055463
20
4.64397557163051
30
0
41
1
10
9.20036226981333
20
4.64362011463208
30
0
41
1
10
9.27954392692192
20
4.64452821685731
30
0
41
1
10
9.43695121227842
20
4.64823306346409
30
0
41
1
10
9.51517435114249
20
4.6510329527419
30
0
41
1
10
9.63187101789777
20
4.65634535967135
30
0
41
1
10
9.67070631595166
20
4.6583043479078
30
0
41
1
10
9.74798544706871
20
4.66253443037849
30
0
41
1
10
9.78623495341435
20
4.66479429729583
30
0
41
1
10
9.89989462691779
20
4.67192033398047
30
0
41
1
10
9.97421968716947
20
4.67713204763498
30
0
41
1
10
10.1933139882555
20
4.69349952726685
30
0
41
1
10
10.33422380382
20
4.70538986512241
30
0
41
1
10
10.4706953594131
20
4.71660947178668
30
0
0
SPLINE
5
E8
100
AcDbEntity
8
1
62
256
6
ByLayer
370
18
48
1
60
0
100
AcDbSpline
70
4
71
3
72
16
73
12
40
0
40
0
40
0
40
0
40
0.249999999999999
40
0.249999999999999
40
0.499999999999997
40
0.499999999999997
40
0.625
40
0.625
40
0.750000000000002
40
0.750000000000002
40
1
40
1
40
1
40
1
41
1
10
13.143483602549
20
4.44639351588765
30
0
41
1
10
13.1678921881099
20
4.48410115653152
30
0
41
1
10
13.1970811506981
20
4.51794817263016
30
0
41
1
10
13.2612432216392
20
4.57879951958043
30
0
41
1
10
13.2962532212354
20
4.60579463225167
30
0
41
1
10
13.351485728549
20
4.64145751218464
30
0
41
1
10
13.3703488550643
20
4.65252978664174
30
0
41
1
10
13.4086743213054
20
4.67302912610367
30
0
41
1
10
13.4281513369676
20
4.68246560548681
30
0
41
1
10
13.4872803552453
20
4.7083896361612
30
0
41
1
10
13.5276199024019
20
4.72249740499333
30
0
41
1
10
13.5683923437627
20
4.73349438464641
30
0
0
SPLINE
5
E9
100
AcDbEntity
8
1
62
256
6
ByLayer
370
18
48
1
60
0
100
AcDbSpline
70
4
71
3
72
14
73
10
40
0
40
0
40
0
40
0
40
0.249999999999999
40
0.249999999999999
40
0.374999999999999
40
0.374999999999999
40
0.499999999999999
40
0.499999999999999
40
1
40
1
40
1
40
1
41
1
10
36.3207005290634
20
-4.46418527276393
30
0
41
1
10
36.3128477028454
20
-4.49856947110626
30
0
41
1
10
36.3076996056984
20
-4.53047156245754
30
0
41
1
10
36.3041257896312
20
-4.57451781244834
30
0
41
1
10
36.3036266444375
20
-4.58857778321226
30
0
41
1
10
36.3040318282987
20
-4.61535270701395
30
0
41
1
10
36.3049340530302
20
-4.62802442021231
30
0
41
1
10
36.3128914809879
20
-4.68785729697407
30
0
41
1
10
36.3302519451265
20
-4.72447582000223
30
0
41
1
10
36.3582277704901
20
-4.75023445908377
30
0
0
SPLINE
5
EA
100
AcDbEntity
8
1
62
256
6
ByLayer
370
18
48
1
60
0
100
AcDbSpline
70
4
71
3
72
10
73
6
40
0
40
0
40
0
40
0
40
0.5
40
0.5
40
1
40
1
40
1
40
1
41
1
10
36.3207005290638
20
-4.46418527276398
30
0
41
1
10
36.2807546486747
20
-4.41783201581748
30
0
41
1
10
36.2410328346358
20
-4.36620877565153
30
0
41
1
10
36.1620433521903
20
-4.25228090625157
30
0
41
1
10
36.1227756428066
20
-4.18997724079387
30
0
41
1
10
36.0837430219292
20
-4.12214435382478
30
0
0
SPLINE
5
EB
100
AcDbEntity
8
1
62
256
6
ByLayer
370
18
48
1
60
0
100
AcDbSpline
70
4
71
3
72
8
73
4
40
0
40
0
40
0
40
0
40
1
40
1
40
1
40
1
41
1
10
36.2653451926455
20
-4.75760600204418
30
0
41
1
10
36.2963071856312
20
-4.75516131099522
30
0
41
1
10
36.3272680831476
20
-4.75270455184855
30
0
41
1
10
36.3582277704902
20
-4.75023445908374
30
0
0
SPLINE
5
EC
100
AcDbEntity
8
1
62
256
6
ByLayer
370
18
48
1
60
0
100
AcDbSpline
70
4
71
3
72
24
73
20
40
0
40
0
40
0
40
0
40
0.0624999999999985
40
0.0624999999999985
40
0.124999999999997
40
0.124999999999997
40
0.25000000000001
40
0.25000000000001
40
0.312500000000008
40
0.312500000000008
40
0.375000000000006
40
0.375000000000006
40
0.5
40
0.5
40
0.624999999999995
40
0.624999999999995
40
0.74999999999999
40
0.74999999999999
40
1
40
1
40
1
40
1
41
1
10
36.2573613582803
20
-0.122679481608259
30
0
41
1
10
36.2299414711718
20
-0.117686531426614
30
0
41
1
10
36.2010863195926
20
-0.112421644815157
30
0
41
1
10
36.1410623670478
20
-0.101453491689398
30
0
41
1
10
36.1098910157551
20
-0.095749746888572
30
0
41
1
10
36.0134987201592
20
-0.0780931684231518
30
0
41
1
10
35.9454284149184
20
-0.0656004627732614
30
0
41
1
10
35.8392031377187
20
-0.0460808169646896
30
0
41
1
10
35.8030112970482
20
-0.0394263136495283
30
0
41
1
10
35.7299585900531
20
-0.0259876128026235
30
0
41
1
10
35.6930911267288
20
-0.0192022257260192
30
0
41
1
10
35.5816259259217
20
0.0013209700929337
30
0
41
1
10
35.5061730617211
20
0.0152243258292799
30
0
41
1
10
35.353571164246
20
0.0433594046488395
30
0
41
1
10
35.2764180510459
20
0.0575919175791739
30
0
41
1
10
35.1207882501482
20
0.0863131788899807
30
0
41
1
10
35.0425179998583
20
0.100763849538623
30
0
41
1
10
34.8071313424923
20
0.144236308606821
30
0
41
1
10
34.6492032882909
20
0.173421895638398
30
0
41
1
10
34.4906044948895
20
0.202743785486973
30
0
0
SPLINE
5
ED
100
AcDbEntity
8
1
62
256
6
ByLayer
370
18
48
1
60
0
100
AcDbSpline
70
4
71
3
72
9
73
5
40
0
40
0
40
0
40
0
40
0.5
40
1
40
1
40
1
40
1
41
1
10
36.3207005290639
20
0.905976930349397
30
0
41
1
10
36.2806786430871
20
1.03421966341762
30
0
41
1
10
36.2011602358021
20
1.28699647153638
30
0
41
1
10
36.1227004607484
20
1.53230017545704
30
0
41
1
10
36.0837430219292
20
1.65302875555602
30
0
0
SPLINE
5
EE
100
AcDbEntity
8
1
62
256
6
ByLayer
370
18
48
1
60
0
100
AcDbSpline
70
4
71
3
72
30
73
26
40
0
40
0
40
0
40
0
40
0.12108736016009
40
0.12108736016009
40
0.24217472032018
40
0.24217472032018
40
0.363262080480269
40
0.363262080480269
40
0.393533920520293
40
0.393533920520293
40
0.423805760560316
40
0.484349440640363
40
0.484349440640363
40
0.605436800800457
40
0.605436800800457
40
0.726524160960551
40
0.726524160960551
40
0.847611521120644
40
0.847611521120644
40
0.877883361160667
40
0.877883361160667
40
0.908155201200689
40
0.968698881280734
40
0.968698881280734
40
1
40
1
40
1
40
1
41
1
10
36.0837430219292
20
1.65302875555602
30
0
41
1
10
35.8516749846229
20
1.83918149933641
30
0
41
1
10
35.6210889652853
20
2.01968260549197
30
0
41
1
10
35.1605923690647
20
2.36766180665074
30
0
41
1
10
34.9306839358139
20
2.53514634094645
30
0
41
1
10
34.4695877135855
20
2.85557773219287
30
0
41
1
10
34.2384228362984
20
3.00853036414887
30
0
41
1
10
33.9476461690844
20
3.1894869028269
30
0
41
1
10
33.8893904096923
20
3.22517031336713
30
0
41
1
10
33.7727133098549
20
3.29544630434867
30
0
41
1
10
33.5980144469812
20
3.39888308121891
30
0
41
1
10
33.4241284668037
20
3.49635835528841
30
0
41
1
10
33.077098418283
20
3.68325824384172
30
0
41
1
10
32.8467352802551
20
3.79712948899064
30
0
41
1
10
32.3863193372852
20
4.00258964552418
30
0
41
1
10
32.1562811118888
20
4.09415156206632
30
0
41
1
10
31.6948418351556
20
4.25392601439574
30
0
41
1
10
31.4634577579828
20
4.32210039172739
30
0
41
1
10
31.1722846791223
20
4.39183984396016
30
0
41
1
10
31.1139018414399
20
4.40502672284089
30
0
41
1
10
30.9974355280533
20
4.4297377500865
30
0
41
1
10
30.8230229423244
20
4.4643498685852
30
0
41
1
10
30.6493544006937
20
4.49162094389979
30
0
41
1
10
30.4740552390131
20
4.51429567782429
30
0
41
1
10
30.4143714460246
20
4.52116143403498
30
0
41
1
10
30.3547330495909
20
4.52716465335291
30
0
0
SPLINE
5
EF
100
AcDbEntity
8
1
62
256
6
ByLayer
370
18
48
1
60
0
100
AcDbSpline
70
4
71
3
72
22
73
18
40
0
40
0
40
0
40
0
40
0.0115785979832998
40
0.0115785979832998
40
0.152781655414257
40
0.152781655414257
40
0.293984712845212
40
0.293984712845212
40
0.435187770276168
40
0.435187770276168
40
0.576390827707125
40
0.576390827707125
40
0.646992356422605
40
0.646992356422605
40
0.717593885138086
40
0.717593885138086
40
1
40
1
40
1
40
1
41
1
10
16.3495836861539
20
-3.73531589561424
30
0
41
1
10
16.3401474568624
20
-3.73997693932287
30
0
41
1
10
16.3307120417745
20
-3.74461948868773
30
0
41
1
10
16.2062203274728
20
-3.80563374975139
30
0
41
1
10
16.0912721446832
20
-3.85926963937604
30
0
41
1
10
15.8613362303917
20
-3.96098056561135
30
0
41
1
10
15.7463285673952
20
-4.00910016759559
30
0
41
1
10
15.51600158779
20
-4.09984688087425
30
0
41
1
10
15.4006976590428
20
-4.14244141578419
30
0
41
1
10
15.1696585597888
20
-4.22174602443013
30
0
41
1
10
15.0539247331947
20
-4.25844804027088
30
0
41
1
10
14.8798378065261
20
-4.30889357498791
30
0
41
1
10
14.8217267346305
20
-4.32494405856841
30
0
41
1
10
14.7053089798619
20
-4.35549636050081
30
0
41
1
10
14.6469607428157
20
-4.37000803042901
30
0
41
1
10
14.3556801935012
20
-4.43854331986338
30
0
41
1
10
14.1233482698816
20
-4.4809660108597
30
0
41
1
10
13.8912036569717
20
-4.51009933224393
30
0
0
SPLINE
5
F0
100
AcDbEntity
8
1
62
256
6
ByLayer
370
18
48
1
60
0
100
AcDbSpline
70
4
71
3
72
8
73
4
40
0
40
0
40
0
40
0
40
1
40
1
40
1
40
1
41
1
10
36.2653451926455
20
-0.120696960048832
30
0
41
1
10
36.2963071856312
20
-0.126443714799024
30
0
41
1
10
36.3272680831475
20
-0.132190301971036
30
0
41
1
10
36.3582277704901
20
-0.13793670309704
30
0
0
SPLINE
5
F1
100
AcDbEntity
8
1
62
256
6
ByLayer
370
18
48
1
60
0
100
AcDbSpline
70
4
71
3
72
29
73
25
40
0
40
0
40
0
40
0
40
0.125000000000007
40
0.125000000000007
40
0.250000000000015
40
0.250000000000015
40
0.312500000000019
40
0.312500000000019
40
0.375000000000022
40
0.375000000000022
40
0.50000000000003
40
0.50000000000003
40
0.625000000000038
40
0.625000000000038
40
0.656250000000038
40
0.656250000000038
40
0.687500000000039
40
0.750000000000042
40
0.812500000000044
40
0.812500000000044
40
0.84375000000004
40
0.84375000000004
40
0.875000000000035
40
1
40
1
40
1
40
1
41
1
10
36.2646575658457
20
-0.120568966475702
30
0
41
1
10
36.284987104593
20
-0.124477325576095
30
0
41
1
10
36.3042059773628
20
-0.128181041818181
30
0
41
1
10
36.3398329066596
20
-0.135070574698176
30
0
41
1
10
36.3562456915151
20
-0.138257262541885
30
0
41
1
10
36.3781174179422
20
-0.142531069927145
30
0
41
1
10
36.3849376500126
20
-0.143868921786293
30
0
41
1
10
36.3974400742921
20
-0.146333891766744
30
0
41
1
10
36.4031326044507
20
-0.147463025369291
30
0
41
1
10
36.4183064092676
20
-0.150498242117521
30
0
41
1
10
36.4259063972609
20
-0.152056303323377
30
0
41
1
10
36.4344280082357
20
-0.153936985338561
30
0
41
1
10
36.4353700685692
20
-0.15426338688323
30
0
41
1
10
36.4307654289394
20
-0.153601728494891
30
0
41
1
10
36.4295471041553
20
-0.153414472981439
30
0
41
1
10
36.4265063134911
20
-0.152927395575858
30
0
41
1
10
36.4210377946247
20
-0.152027930800955
30
0
41
1
10
36.4072007710862
20
-0.149649936162518
30
0
41
1
10
36.3906624373715
20
-0.14672984865939
30
0
41
1
10
36.3760311978218
20
-0.144125261962842
30
0
41
1
10
36.3707636822245
20
-0.14318453542586
30
0
41
1
10
36.3595709141298
20
-0.141179892477538
30
0
41
1
10
36.3299511569355
20
-0.135861594180795
30
0
41
1
10
36.2922800962048
20
-0.129035660019866
30
0
41
1
10
36.2573613733883
20
-0.122679489352976
30
0
0
SPLINE
5
F2
100
AcDbEntity
8
1
62
256
6
ByLayer
370
18
48
1
60
0
100
AcDbSpline
70
4
71
5
72
41
73
35
40
0
40
0
40
0
40
0
40
0
40
0
40
0.0063971076352726
40
0.034013728756434
40
0.075438660438176
40
0.103055281559337
40
0.144480213241079
40
0.185905144922822
40
0.213521766043983
40
0.254946697725725
40
0.282563318846886
40
0.323988250528628
40
0.351604871649789
40
0.393029803331531
40
0.434454735013273
40
0.462071356134435
40
0.489687977255596
40
0.531112908937338
40
0.57253784061908
40
0.600154461740241
40
0.641579393421983
40
0.669196014543145
40
0.710620946224887
40
0.738237567346048
40
0.77966249902779
40
0.821087430709532
40
0.848704051830694
40
0.890128983512436
40
0.917745604633597
40
0.959170536315339
40
0.9867871574365
40
1
40
1
40
1
40
1
40
1
40
1
41
1
10
25.8112560568255
20
3.32673715186144
30
0
41
1
10
25.8246210288135
20
3.32999526283945
30
0
41
1
10
25.8956832272249
20
3.34717762626039
30
0
41
1
10
26.0532912652713
20
3.38361872115107
30
0
41
1
10
26.2685965297412
20
3.42830499404451
30
0
41
1
10
26.5704476338461
20
3.48102867550045
30
0
41
1
10
26.9454796055982
20
3.52972794109482
30
0
41
1
10
27.3205115773503
20
3.5596743590846
30
0
41
1
10
27.6955435491024
20
3.57241581121164
30
0
41
1
10
28.0705755208545
20
3.56617173588899
30
0
41
1
10
28.4456074926065
20
3.54269902577653
30
0
41
1
10
28.7917908511469
20
3.50522254388443
30
0
41
1
10
29.166822822899
20
3.44769736500416
30
0
41
1
10
29.541854794651
20
3.37349606913534
30
0
41
1
10
29.9168867664031
20
3.28135544773528
30
0
41
1
10
30.2630701249435
20
3.18166278133555
30
0
41
1
10
30.6381020966956
20
3.05834565177207
30
0
41
1
10
31.0131340684476
20
2.92025303821163
30
0
41
1
10
31.359317426988
20
2.7796909619326
30
0
41
1
10
31.7343493987401
20
2.61398030608567
30
0
41
1
10
32.1093813704921
20
2.43440163993762
30
0
41
1
10
32.4844133422442
20
2.24310542898212
30
0
41
1
10
32.8305967007846
20
2.05647411613336
30
0
41
1
10
33.2056286725367
20
1.84440422079868
30
0
41
1
10
33.5806606442887
20
1.62336830058706
30
0
41
1
10
33.9556926160408
20
1.39367441019647
30
0
41
1
10
34.3307245877929
20
1.15724447653531
30
0
41
1
10
34.705756559545
20
0.914697282910197
30
0
41
1
10
35.080788531297
20
0.667790665275874
30
0
41
1
10
35.4269718898374
20
0.436841458665015
30
0
41
1
10
35.7430625708867
20
0.22424121656536
30
0
41
1
10
35.9726074123008
20
0.0693861965496865
30
0
41
1
10
36.1444550272915
20
-0.0465508238201551
30
0
41
1
10
36.2297568026472
20
-0.104069879158573
30
0
41
1
10
36.2573613515794
20
-0.12267947173612
30
0
0
SPLINE
5
F3
100
AcDbEntity
8
1
62
256
6
ByLayer
370
18
48
1
60
0
100
AcDbSpline
70
4
71
5
72
15
73
9
40
0
40
0
40
0
40
0
40
0
40
0
40
0.0435405773428358
40
0.42767647880638
40
0.811812380269924
40
1
40
1
40
1
40
1
40
1
40
1
41
1
10
14.2699999239957
20
3.98529353735108
30
0
41
1
10
14.2601902295361
20
3.9901294161927
30
0
41
1
10
14.1638346954413
20
4.0374614335588
30
0
41
1
10
13.9809333217115
20
4.12416226286626
30
0
41
1
10
13.7556332669513
20
4.22346420276105
30
0
41
1
10
13.5303332121912
20
4.31321652917538
30
0
41
1
10
13.3148428518906
20
4.39003436933061
30
0
41
1
10
13.1858983312251
20
4.43271419722015
30
0
41
1
10
13.1434996501947
20
4.44639076404306
30
0
0
SPLINE
5
F4
100
AcDbEntity
8
1
62
256
6
ByLayer
370
18
48
1
60
0
100
AcDbSpline
70
4
71
3
72
14
73
10
40
0
40
0
40
0
40
0
40
0.25
40
0.25
40
0.5
40
0.5
40
0.75
40
0.75
40
1
40
1
40
1
40
1
41
1
10
10.4706318099813
20
4.71660424873639
30
0
41
1
10
10.6933707973845
20
4.74438017692535
30
0
41
1
10
10.9161097847878
20
4.75959295740657
30
0
41
1
10
11.3615877595942
20
4.7646500029397
30
0
41
1
10
11.5843267469974
20
4.75449424653829
30
0
41
1
10
12.0298047218039
20
4.7089758767701
30
0
41
1
10
12.2525437092071
20
4.67361345650463
30
0
41
1
10
12.6980216840136
20
4.57824519060125
30
0
41
1
10
12.9207606714168
20
4.51823974954144
30
0
41
1
10
13.14349965882
20
4.4463907078767
30
0
0
SPLINE
5
F5
100
AcDbEntity
8
1
62
256
6
ByLayer
370
18
48
1
60
0
100
AcDbSpline
70
4
71
3
72
8
73
4
40
0
40
0
40
0
40
0
40
1
40
1
40
1
40
1
41
1
10
12.1749896412092
20
3.5011335407865
30
0
41
1
10
11.6039328834259
20
3.89414439605847
30
0
41
1
10
11.0357136202267
20
4.29939074184782
30
0
41
1
10
10.4706748778724
20
4.71662518271503
30
0
0
SPLINE
5
F6
100
AcDbEntity
8
1
62
256
6
ByLayer
370
18
48
1
60
0
100
AcDbSpline
70
4
71
5
72
30
73
24
40
0
40
0
40
0
40
0
40
0
40
0
40
0.153794385213296
40
0.192242981516621
40
0.249915875971607
40
0.288364472274931
40
0.346037366729917
40
0.384485963033241
40
0.442158857488227
40
0.499831751943213
40
0.538280348246537
40
0.595953242701524
40
0.634401839004848
40
0.692074733459834
40
0.730523329763158
40
0.788196224218144
40
0.84586911867313
40
0.884317714976454
40
0.94199060943144
40
0.980439205734765
40
1
40
1
40
1
40
1
40
1
40
1
41
1
10
12.1749896412089
20
3.50113354078621
30
0
41
1
10
12.4057785469025
20
3.47116109240565
30
0
41
1
10
12.6942646790195
20
3.42328056152695
30
0
41
1
10
13.0692966507716
20
3.3443524494549
30
0
41
1
10
13.502025848947
20
3.2289625947723
30
0
41
1
10
14.0213008867576
20
3.05862296827377
30
0
41
1
10
14.3674842452979
20
2.93139058320233
30
0
41
1
10
14.74251621705
20
2.77942639768074
30
0
41
1
10
15.1175481888021
20
2.61399232228663
30
0
41
1
10
15.4925801605542
20
2.43464299328142
30
0
41
1
10
15.8676121323062
20
2.24352630989117
30
0
41
1
10
16.2426441040583
20
2.04051367919399
30
0
41
1
10
16.6176760758104
20
1.8276923941865
30
0
41
1
10
16.9638594343507
20
1.62304002646533
30
0
41
1
10
17.3388914061028
20
1.39354631445119
30
0
41
1
10
17.7139233778549
20
1.15726115339865
30
0
41
1
10
18.088955349607
20
0.91479316490387
30
0
41
1
10
18.463987321359
20
0.667903708673407
30
0
41
1
10
18.8390192931111
20
0.417498774999416
30
0
41
1
10
19.1568589955597
20
0.203623460417333
30
0
41
1
10
19.3881528583733
20
0.04755961627842
30
0
41
1
10
19.5617494947634
20
-0.0695502743533893
30
0
41
1
10
19.6488002915185
20
-0.128236591265335
30
0
41
1
10
19.6781538618501
20
-0.14801994696424
30
0
0
SPLINE
5
F7
100
AcDbEntity
8
1
62
256
6
ByLayer
370
18
48
1
60
0
100
AcDbSpline
70
4
71
5
72
42
73
36
40
0
40
0
40
0
40
0
40
0
40
0
40
0.0017430985027088
40
0.0279610387832687
40
0.0672879492041085
40
0.106614859624948
40
0.132832799905508
40
0.172159710326348
40
0.198377650606908
40
0.237704561027748
40
0.263922501308308
40
0.303249411729147
40
0.342576322149987
40
0.368794262430547
40
0.395012202711107
40
0.434339113131947
40
0.473666023552787
40
0.499883963833347
40
0.539210874254187
40
0.565428814534746
40
0.604755724955586
40
0.630973665236146
40
0.670300575656986
40
0.709627486077826
40
0.735845426358386
40
0.775172336779225
40
0.801390277059785
40
0.840717187480625
40
0.866935127761185
40
0.906262038182025
40
0.945588948602865
40
0.971806888883425
40
1
40
1
40
1
40
1
40
1
40
1
41
1
10
17.3485600326503
20
3.18302840742146
30
0
41
1
10
17.3523960299831
20
3.1841973965746
30
0
41
1
10
17.4139292537394
20
3.20291557931048
30
0
41
1
10
17.5620083171307
20
3.24666403626389
30
0
41
1
10
17.7966332201571
20
3.31098912253393
30
0
41
1
10
18.088955349607
20
3.38106058216425
30
0
41
1
10
18.463987321359
20
3.45461644078065
30
0
41
1
10
18.8390192931111
20
3.50980444167391
30
0
41
1
10
19.2140512648632
20
3.5480209550044
30
0
41
1
10
19.5602346234036
20
3.56747871874739
30
0
41
1
10
19.9352665951556
20
3.57131625552083
30
0
41
1
10
20.3102985669077
20
3.55789543666884
30
0
41
1
10
20.6853305386598
20
3.52556357323544
30
0
41
1
10
21.0315138972002
20
3.4799894553046
30
0
41
1
10
21.4065458689522
20
3.41383049222765
30
0
41
1
10
21.7815778407043
20
3.33117862627123
30
0
41
1
10
22.1277611992447
20
3.23998466888099
30
0
41
1
10
22.5027931709968
20
3.12553140534899
30
0
41
1
10
22.8778251427488
20
2.99448474533625
30
0
41
1
10
23.2528571145009
20
2.84900246012992
30
0
41
1
10
23.5990404730413
20
2.70196847703986
30
0
41
1
10
23.9740724447933
20
2.5296663325833
30
0
41
1
10
24.3491044165454
20
2.3450962965984
30
0
41
1
10
24.7241363882975
20
2.14803749653459
30
0
41
1
10
25.0991683600496
20
1.94059659183023
30
0
41
1
10
25.4742003318016
20
1.72287173753909
30
0
41
1
10
25.8492323035537
20
1.49687657464432
30
0
41
1
10
26.1954156620941
20
1.2815364672397
30
0
41
1
10
26.5704476338461
20
1.04211722997601
30
0
41
1
10
26.9454796055982
20
0.797602459520164
30
0
41
1
10
27.3205115773503
20
0.548815220625528
30
0
41
1
10
27.6710416495428
20
0.313802669440975
30
0
41
1
10
27.9638744953121
20
0.116359317827317
30
0
41
1
10
28.1701615014462
20
-0.0228423488252361
30
0
41
1
10
28.2899026679452
20
-0.103594714824482
30
0
41
1
10
28.3519466080208
20
-0.145411580189261
30
0
0
SPLINE
5
F8
100
AcDbEntity
8
1
62
256
6
ByLayer
370
18
48
1
60
0
100
AcDbSpline
70
4
71
3
72
29
73
25
40
0
40
0
40
0
40
0
40
0.125000000000003
40
0.125000000000003
40
0.250000000000006
40
0.250000000000006
40
0.312500000000007
40
0.312500000000007
40
0.375000000000007
40
0.375000000000007
40
0.5
40
0.5
40
0.624999999999993
40
0.624999999999993
40
0.656249999999991
40
0.656249999999991
40
0.68749999999999
40
0.749999999999989
40
0.812499999999989
40
0.812499999999989
40
0.843749999999988
40
0.843749999999988
40
0.874999999999988
40
1
40
1
40
1
40
1
41
1
10
36.2646575658457
20
4.75778623401658
30
0
41
1
10
36.284987104593
20
4.70968763644944
30
0
41
1
10
36.3042059773629
20
4.66115890967075
30
0
41
1
10
36.3398329066598
20
4.56301290726165
30
0
41
1
10
36.3562456915151
20
4.51339746277782
30
0
41
1
10
36.3781174179423
20
4.43791028680496
30
0
41
1
10
36.3849376500126
20
4.41259628128665
30
0
41
1
10
36.3974400742921
20
4.36188802346999
30
0
41
1
10
36.4031326044507
20
4.33645967063759
30
0
41
1
10
36.4183064092676
20
4.25992168391372
30
0
41
1
10
36.4259063972609
20
4.20856211090933
30
0
41
1
10
36.4344280082357
20
4.10495570797204
30
0
41
1
10
36.4353700685693
20
4.05271159325198
30
0
41
1
10
36.4307654289394
20
3.98663825129537
30
0
41
1
10
36.4295471041554
20
3.97335238830996
30
0
41
1
10
36.4265063134911
20
3.9469776680541
30
0
41
1
10
36.4210377946246
20
3.9076392347919
30
0
41
1
10
36.4072007710863
20
3.84323930153357
30
0
41
1
10
36.3906624373715
20
3.79306733027985
30
0
41
1
10
36.3760311978217
20
3.75598740233707
30
0
41
1
10
36.3707636822245
20
3.7436801010806
30
0
41
1
10
36.3595709141298
20
3.71949935984932
30
0
41
1
10
36.3299511569356
20
3.66010536890687
30
0
41
1
10
36.2922800962048
20
3.60591163255319
30
0
41
1
10
36.2573613733884
20
3.56564520711771
30
0
0
SPLINE
5
F9
100
AcDbEntity
8
1
62
256
6
ByLayer
370
18
48
1
60
0
100
AcDbSpline
70
4
71
3
72
14
73
10
40
0
40
0
40
0
40
0
40
0.25
40
0.25
40
0.5
40
0.5
40
0.75
40
0.75
40
1
40
1
40
1
40
1
41
1
10
10.4706318099813
20
0.986990632528858
30
0
41
1
10
10.6933707973845
20
0.790789662261602
30
0
41
1
10
10.9161097847877
20
0.591960600608871
30
0
41
1
10
11.3615877595942
20
0.192212078599198
30
0
41
1
10
11.5843267469974
20
-0.0087056859160555
30
0
41
1
10
12.0298047218039
20
-0.409429181282292
30
0
41
1
10
12.2525437092071
20
-0.609233212155459
30
0
41
1
10
12.6980216840136
20
-1.00454453261921
30
0
41
1
10
12.9207606714168
20
-1.20005014519194
30
0
41
1
10
13.14349965882
20
-1.39184927628216
30
0
0
SPLINE
5
FA
100
AcDbEntity
8
1
62
256
6
ByLayer
370
18
48
1
60
0
100
AcDbSpline
70
4
71
5
72
18
73
12
40
0
40
0
40
0
40
0
40
0
40
0
40
0.18776905137019
40
0.313143553900381
40
0.501205307695668
40
0.626579810225859
40
0.814641564021145
40
0.940016066551336
40
1
40
1
40
1
40
1
40
1
40
1
41
1
10
33.9563661229244
20
3.18028261593096
30
0
41
1
10
34.0427772611827
20
3.20670410753763
30
0
41
1
10
34.1868856258645
20
3.2489979296156
30
0
41
1
10
34.4175398301814
20
3.31190322126997
30
0
41
1
10
34.7058912609217
20
3.38076176180545
30
0
41
1
10
35.080788531297
20
3.45394463745046
30
0
41
1
10
35.4269718898374
20
3.50613098240751
30
0
41
1
10
35.7430625708867
20
3.53949141243527
30
0
41
1
10
35.9726074123008
20
3.55537723538654
30
0
41
1
10
36.1444550272916
20
3.56257287139772
30
0
41
1
10
36.2297568026472
20
3.56498577209555
30
0
41
1
10
36.2573613515795
20
3.56564521328437
30
0
0
SPLINE
5
FB
100
AcDbEntity
8
1
62
256
6
ByLayer
370
18
48
1
60
0
100
AcDbSpline
70
4
71
3
72
13
73
9
40
0
40
0
40
0
40
0
40
0.25
40
0.25
40
0.5
40
0.5
40
0.75
40
1
40
1
40
1
40
1
41
1
10
35.883976241547
20
-2.66322305908619
30
0
41
1
10
35.9004411994758
20
-2.78496524649478
30
0
41
1
10
35.9170600093576
20
-2.90656848090308
30
0
41
1
10
35.9503263599412
20
-3.1497490011792
30
0
41
1
10
35.966940776958
20
-3.27135637164233
30
0
41
1
10
36.000227831381
20
-3.51451736136076
30
0
41
1
10
36.03358795167
20
-3.7576107052555
30
0
41
1
10
36.0670721108134
20
-4.00058921152564
30
0
41
1
10
36.0837430219291
20
-4.12214435382478
30
0
0
SPLINE
5
FC
100
AcDbEntity
8
1
62
256
6
ByLayer
370
18
48
1
60
0
100
AcDbSpline
70
4
71
3
72
20
73
16
40
0
40
0
40
0
40
0
40
0.249999999999978
40
0.249999999999978
40
0.374999999999967
40
0.374999999999967
40
0.406249999999968
40
0.406249999999968
40
0.43749999999997
40
0.43749999999997
40
0.499999999999973
40
0.499999999999973
40
0.749999999999987
40
0.749999999999987
40
1
40
1
40
1
40
1
41
1
10
33.7642690228196
20
-0.519792955349487
30
0
41
1
10
33.9106733529272
20
-0.735294187357965
30
0
41
1
10
34.067132416219
20
-0.942094663992378
30
0
41
1
10
34.3158356520171
20
-1.24016795999052
30
0
41
1
10
34.4010746825651
20
-1.33750260371372
30
0
41
1
10
34.5104551222975
20
-1.456720569113
30
0
41
1
10
34.532472856257
20
-1.48044159033668
30
0
41
1
10
34.5767896112248
20
-1.52764022405742
30
0
41
1
10
34.5991140141177
20
-1.55114402998836
30
0
41
1
10
34.6662677159137
20
-1.62104578396537
30
0
41
1
10
34.7112893868258
20
-1.66685022528753
30
0
41
1
10
34.9375963782644
20
-1.89209084782797
30
0
41
1
10
35.1224546649806
20
-2.060254664349
30
0
41
1
10
35.4985827478863
20
-2.37635460163128
30
0
41
1
10
35.6898571041735
20
-2.52427633572339
30
0
41
1
10
35.8839762415469
20
-2.66322305908622
30
0
0
SPLINE
5
FD
100
AcDbEntity
8
1
62
256
6
ByLayer
370
18
48
1
60
0
100
AcDbSpline
70
4
71
3
72
12
73
8
40
0
40
0
40
0
40
0
40
0.5
40
0.5
40
0.75
40
0.75
40
1
40
1
40
1
40
1
41
1
10
33.7642690228192
20
-0.519792955350226
30
0
41
1
10
33.7486352984441
20
-0.49678074757449
30
0
41
1
10
33.7356994440026
20
-0.472613983836652
30
0
41
1
10
33.7211530896447
20
-0.43426641235618
30
0
41
1
10
33.7171071894876
20
-0.421052604785217
30
0
41
1
10
33.7109645324221
20
-0.394457626072182
30
0
41
1
10
33.7088404261465
20
-0.381034589190932
30
0
41
1
10
33.7076817345641
20
-0.367479538463584
30
0
0
SPLINE
5
FE
100
AcDbEntity
8
1
62
256
6
ByLayer
370
18
48
1
60
0
100
AcDbSpline
70
4
71
5
72
31
73
25
40
0
40
0
40
0
40
0
40
0
40
0
40
0.0219825534345453
40
0.0641595345861644
40
0.127425006313593
40
0.190690478041022
40
0.232867459192641
40
0.29613293092007
40
0.338309912071689
40
0.401575383799118
40
0.443752364950737
40
0.507017836678166
40
0.570283308405595
40
0.612460289557214
40
0.654637270708833
40
0.717902742436262
40
0.781168214163691
40
0.82334519531531
40
0.886610667042739
40
0.928787648194358
40
0.992053119921787
40
1
40
1
40
1
40
1
40
1
40
1
41
1
10
26.8677865064054
20
2.62820206168561
30
0
41
1
10
26.8978581788733
20
2.62177106519619
30
0
41
1
10
26.9856270777647
20
2.60269125607519
30
0
41
1
10
27.159941816291
20
2.56300825417784
30
0
41
1
10
27.4208023944526
20
2.4983707067081
30
0
41
1
10
27.7393601990375
20
2.41009843250475
30
0
41
1
10
28.1143921707895
20
2.2945284599337
30
0
41
1
10
28.4894241425416
20
2.1667811855767
30
0
41
1
10
28.8644561142937
20
2.02859657144842
30
0
41
1
10
29.2106394728341
20
1.89196040218698
30
0
41
1
10
29.5856714445861
20
1.73483337467428
30
0
41
1
10
29.9607034163382
20
1.56928344425239
30
0
41
1
10
30.3357353880903
20
1.39537057722066
30
0
41
1
10
30.6819187466307
20
1.22861016951219
30
0
41
1
10
31.0569507183827
20
1.04210735579417
30
0
41
1
10
31.4319826901348
20
0.850569911490908
30
0
41
1
10
31.7781660486752
20
0.669883572082284
30
0
41
1
10
32.1531980204272
20
0.47090229134173
30
0
41
1
10
32.5282299921793
20
0.269445846350891
30
0
41
1
10
32.9032619639314
20
0.066737386132246
30
0
41
1
10
33.2026192614735
20
-0.0953656475759601
30
0
41
1
10
33.4442793325922
20
-0.225883474991974
30
0
41
1
10
33.5993935640758
20
-0.309367989601299
30
0
41
1
10
33.6968105691361
20
-0.361647403464673
30
0
41
1
10
33.7076817345612
20
-0.36747953846205
30
0
0
SPLINE
5
FF
100
AcDbEntity
8
1
62
256
6
ByLayer
370
18
48
1
60
0
100
AcDbSpline
70
4
71
3
72
73
73
69
40
0
40
0
40
0
40
0
40
0.050747254851483
40
0.050747254851483
40
0.101494509702966
40
0.101494509702966
40
0.152241764554449
40
0.152241764554449
40
0.16492857826732
40
0.16492857826732
40
0.177615391980191
40
0.202989019405932
40
0.202989019405932
40
0.253736274257413
40
0.253736274257413
40
0.304483529108895
40
0.304483529108895
40
0.355230783960376
40
0.355230783960376
40
0.367917597673247
40
0.367917597673247
40
0.380604411386117
40
0.405978038811861
40
0.405978038811861
40
0.456725293663347
40
0.456725293663347
40
0.507472548514833
40
0.507472548514833
40
0.55821980336632
40
0.55821980336632
40
0.564563210222755
40
0.564563210222755
40
0.570906617079191
40
0.583593430792063
40
0.583593430792063
40
0.60896705821781
40
0.60896705821781
40
0.659714313069305
40
0.659714313069305
40
0.685087940495052
40
0.685087940495052
40
0.7104615679208
40
0.7104615679208
40
0.735835195346547
40
0.735835195346547
40
0.761208822772294
40
0.761208822772294
40
0.773895636485169
40
0.773895636485169
40
0.786582450198044
40
0.786582450198044
40
0.811956077623793
40
0.811956077623793
40
0.837329705049542
40
0.837329705049542
40
0.862703332475292
40
0.862703332475292
40
0.888076959901041
40
0.888076959901041
40
0.91345058732679
40
0.91345058732679
40
0.938824214752539
40
0.938824214752539
40
0.964197842178289
40
0.964197842178289
40
0.989571469604038
40
0.989571469604038
40
1
40
1
40
1
40
1
41
1
10
36.0837430219291
20
-4.12214435382478
30
0
41
1
10
35.8516749846228
20
-4.03797990024688
30
0
41
1
10
35.6210889652853
20
-3.94151572462388
30
0
41
1
10
35.1605923690647
20
-3.72645205961092
30
0
41
1
10
34.9306839358138
20
-3.60785790180324
30
0
41
1
10
34.4695877135854
20
-3.35056660876901
30
0
41
1
10
34.2384228362983
20
-3.21182670143386
30
0
41
1
10
33.9476461690844
20
-3.02633391295626
30
0
41
1
10
33.8893904096922
20
-2.98862039994276
30
0
41
1
10
33.7727133098548
20
-2.91200118754929
30
0
41
1
10
33.5980144469812
20
-2.79565317463639
30
0
41
1
10
33.4241284668037
20
-2.67521798254094
30
0
41
1
10
33.077098418283
20
-2.42930795897973
30
0
41
1
10
32.8467352802551
20
-2.25864983519216
30
0
41
1
10
32.3863193372852
20
-1.90573566551436
30
0
41
1
10
32.1562811118888
20
-1.72344641500382
30
0
41
1
10
31.6948418351556
20
-1.34899092827362
30
0
41
1
10
31.4634577579828
20
-1.15678265726021
30
0
41
1
10
31.1722846791223
20
-0.911376633528306
30
0
41
1
10
31.1139018414399
20
-0.861999455270961
30
0
41
1
10
30.9974355280533
20
-0.763216795130802
30
0
41
1
10
30.8230229423244
20
-0.614860981781902
30
0
41
1
10
30.6493544006938
20
-0.466094821647971
30
0
41
1
10
30.3026851335658
20
-0.168389502466681
30
0
41
1
10
30.0724544228343
20
0.0303039479958613
30
0
41
1
10
29.6121884299967
20
0.426295972514907
30
0
41
1
10
29.3821662883282
20
0.623607557461497
30
0
41
1
10
28.9206741598214
20
1.01488979546372
30
0
41
1
10
28.6891976667328
20
1.20885503185582
30
0
41
1
10
28.426958176166
20
1.42398576061262
30
0
41
1
10
28.3977780837428
20
1.44786004839432
30
0
41
1
10
28.3394848767531
20
1.49541948836071
30
0
41
1
10
28.252123402089
20
1.56649314292008
30
0
41
1
10
28.1649837934563
20
1.63675596477216
30
0
41
1
10
27.9909446896162
20
1.77616894725102
30
0
41
1
10
27.8752298916535
20
1.86762969542386
30
0
41
1
10
27.5286653379634
20
2.13732520960738
30
0
41
1
10
27.2984377989108
20
2.31086429783724
30
0
41
1
10
26.9531395098892
20
2.56065300869082
30
0
41
1
10
26.8380434821745
20
2.64216729413138
30
0
41
1
10
26.6077216781484
20
2.80141548783286
30
0
41
1
10
26.49250583918
20
2.87913533846381
30
0
41
1
10
26.2617195267914
20
3.03052574345765
30
0
41
1
10
26.1461562996138
20
3.10417656919032
30
0
41
1
10
25.9143215808348
20
3.24740150324126
30
0
41
1
10
25.7980382682132
20
3.31701875478018
30
0
41
1
10
25.6229924025274
20
3.41813904781259
30
0
41
1
10
25.5646656428137
20
3.45121946526083
30
0
41
1
10
25.4482924179074
20
3.51595428348327
30
0
41
1
10
25.3902068572051
20
3.54763132036175
30
0
41
1
10
25.2162316389646
20
3.64054137332656
30
0
41
1
10
25.1006196889594
20
3.69965739242571
30
0
41
1
10
24.8698824373251
20
3.81217725234981
30
0
41
1
10
24.7547390020872
20
3.86560543297131
30
0
41
1
10
24.5245096882621
20
3.96710755454032
30
0
41
1
10
24.4094539340462
20
4.01513626793317
30
0
41
1
10
24.1793865616703
20
4.1053889013883
30
0
41
1
10
24.0643731133632
20
4.14761380549407
30
0
41
1
10
23.8342162699726
20
4.2259865852059
30
0
41
1
10
23.7190708246499
20
4.2621305186824
30
0
41
1
10
23.488351010133
20
4.32840260199822
30
0
41
1
10
23.3727494102639
20
4.35862795768094
30
0
41
1
10
23.1408682081261
20
4.41315276538822
30
0
41
1
10
23.0246026223395
20
4.43740513555525
30
0
41
1
10
22.791252477138
20
4.47947293689671
30
0
41
1
10
22.674967011551
20
4.49715214161958
30
0
41
1
10
22.5114677620386
20
4.51722109125927
30
0
41
1
10
22.4639026419124
20
4.5224939024971
30
0
41
1
10
22.4163830835469
20
4.52721185086591
30
0
0
SPLINE
5
100
100
AcDbEntity
8
1
62
256
6
ByLayer
370
18
48
1
60
0
100
AcDbSpline
70
4
71
5
72
37
73
31
40
0
40
0
40
0
40
0
40
0
40
0
40
0.115485376293624
40
0.14435672036703
40
0.187663736477139
40
0.216535080550546
40
0.259842096660655
40
0.288713440734061
40
0.33202045684417
40
0.375327472954279
40
0.404198817027685
40
0.447505833137794
40
0.4763771772112
40
0.51968419332131
40
0.548555537394716
40
0.591862553504825
40
0.635169569614934
40
0.66404091368834
40
0.707347929798449
40
0.736219273871855
40
0.779526289981964
40
0.80839763405537
40
0.851704650165479
40
0.895011666275589
40
0.923883010348995
40
0.952754354422401
40
0.99606137053251
40
1
40
1
40
1
40
1
40
1
40
1
41
1
10
12.5938382628961
20
1.88975708179643
30
0
41
1
10
12.8246271685897
20
1.79601410952966
30
0
41
1
10
13.1131133007066
20
1.67321384471521
30
0
41
1
10
13.4881452724587
20
1.50519346846809
30
0
41
1
10
13.9208744706342
20
1.30030655331964
30
0
41
1
10
14.4401495084447
20
1.04220613844805
30
0
41
1
10
14.7863328669851
20
0.865447335661941
30
0
41
1
10
15.1613648387372
20
0.66982453424265
30
0
41
1
10
15.5363968104893
20
0.470916235306817
30
0
41
1
10
15.9114287822413
20
0.269477949456132
30
0
41
1
10
16.2864607539934
20
0.0667371964636345
30
0
41
1
10
16.6614927257455
20
-0.136330476991048
30
0
41
1
10
17.0365246974976
20
-0.338689233751467
30
0
41
1
10
17.3827080560379
20
-0.524017250932332
30
0
41
1
10
17.75774002779
20
-0.722207787979755
30
0
41
1
10
18.1327719995421
20
-0.916957103421424
30
0
41
1
10
18.5078039712941
20
-1.10685968220903
30
0
41
1
10
18.8828359430462
20
-1.29141247868108
30
0
41
1
10
19.2578679147983
20
-1.46907748728569
30
0
41
1
10
19.6328998865504
20
-1.63960061285491
30
0
41
1
10
19.9790832450907
20
-1.78973124860536
30
0
41
1
10
20.3541152168428
20
-1.94368534527908
30
0
41
1
10
20.7291471885949
20
-2.08828417130559
30
0
41
1
10
21.1041791603469
20
-2.221804130143
30
0
41
1
10
21.4503625188873
20
-2.3351407319492
30
0
41
1
10
21.8253944906394
20
-2.44658032777983
30
0
41
1
10
22.121751679802
20
-2.52530163318073
30
0
41
1
10
22.3315630293294
20
-2.57604662589949
30
0
41
1
10
22.4836771524334
20
-2.6101536472838
30
0
41
1
10
22.578094049114
20
-2.63027659383428
30
0
41
1
10
22.5859651061596
20
-2.63194685618512
30
0
0
SPLINE
5
101
100
AcDbEntity
8
1
62
256
6
ByLayer
370
18
48
1
60
0
100
AcDbSpline
70
4
71
3
72
66
73
62
40
0
40
0
40
0
40
0
40
0.0061002379622653
40
0.0177865856527512
40
0.0295274309453277
40
0.0413231637895387
40
0.0531741686564535
40
0.065080824607517
40
0.0770435053632287
40
0.0890625793721361
40
0.101138409879806
40
0.113271354997785
40
0.125461767772495
40
0.137709996254024
40
0.150016383564728
40
0.162381267967699
40
0.174804982934803
40
0.187287857214698
40
0.199830214900249
40
0.212432375495778
40
0.22509465398381
40
0.237817360891392
40
0.250600802356032
40
0.263445280191047
40
0.276351091950516
40
0.289318530993508
40
0.302347886548023
40
0.315439443774069
40
0.331803164886204
40
0.34843642904987
40
0.365339799969398
40
0.38251381394208
40
0.399958981468744
40
0.417675788748503
40
0.43566469906661
40
0.453926154084495
40
0.472460575039592
40
0.491268363862365
40
0.51034990421688
40
0.52970556247111
40
0.549335688602199
40
0.569240617041935
40
0.589420667466773
40
0.609876145536741
40
0.630607343586975
40
0.651614541275478
40
0.672898006190211
40
0.69445799441865
40
0.716294751082329
40
0.738408510839139
40
0.760799498355377
40
0.783467928749962
40
0.806414008012664
40
0.829637933398115
40
0.853139893797403
40
0.876920070088696
40
0.900978635468377
40
0.925315755764048
40
0.94993158973063
40
0.974826289330683
40
1
40
1
40
1
40
1
41
1
10
10.4436743071483
20
2.47711370603776
30
0
41
1
10
10.447760765151
20
2.47440889876705
30
0
41
1
10
10.4596798225077
20
2.46654609548878
30
0
41
1
10
10.4794865604805
20
2.4536081878112
30
0
41
1
10
10.5031456353293
20
2.4383572616731
30
0
41
1
10
10.5269479259497
20
2.42322099016593
30
0
41
1
10
10.5508951203888
20
2.40820315019465
30
0
41
1
10
10.5749888935456
20
2.39330755834752
30
0
41
1
10
10.5992309063557
20
2.37853807071457
30
0
41
1
10
10.6236228049628
20
2.36389858268868
30
0
41
1
10
10.6481662198786
20
2.34939302874983
30
0
41
1
10
10.6728627651298
20
2.33502538223132
30
0
41
1
10
10.6977140373938
20
2.3207996550679
30
0
41
1
10
10.7227216151216
20
2.30671989752551
30
0
41
1
10
10.7478870576484
20
2.29279019791201
30
0
41
1
10
10.7732119042928
20
2.2790146822685
30
0
41
1
10
10.7986976734422
20
2.2653975140415
30
0
41
1
10
10.8243458616299
20
2.25194289373297
30
0
41
1
10
10.8501579425897
20
2.23865505853726
30
0
41
1
10
10.8761353663323
20
2.22553828192889
30
0
41
1
10
10.9022795580879
20
2.21259687333586
30
0
41
1
10
10.9285919176897
20
2.19983517738831
30
0
41
1
10
10.9550738172472
20
2.18725757466098
30
0
41
1
10
10.9817266051892
20
2.17486847669355
30
0
41
1
10
11.0085515863095
20
2.16267234241255
30
0
41
1
10
11.0355500919575
20
2.15067361399795
30
0
41
1
10
11.0627232113336
20
2.13887695543346
30
0
41
1
10
11.0923078965467
20
2.12633913026144
30
0
41
1
10
11.1244608869806
20
2.11308909720594
30
0
41
1
10
11.1593443148649
20
2.09917123744006
30
0
41
1
10
11.1948716306776
20
2.08546782010899
30
0
41
1
10
11.2310502491655
20
2.07199905186712
30
0
41
1
10
11.2678877841364
20
2.05878527438117
30
0
41
1
10
11.3053916497766
20
2.04584728889668
30
0
41
1
10
11.3435691503394
20
2.03320626199206
30
0
41
1
10
11.3824274352893
20
2.02088374558846
30
0
41
1
10
11.4219734908172
20
2.00890166491996
30
0
41
1
10
11.4622141208454
20
1.99728231456115
30
0
41
1
10
11.5031559303783
20
1.98604835148655
30
0
41
1
10
11.5448053076752
20
1.97522278815151
30
0
41
1
10
11.5871684062142
20
1.96482898474574
30
0
41
1
10
11.6302511261834
20
1.95489064081764
30
0
41
1
10
11.6740590955777
20
1.94543178618596
30
0
41
1
10
11.7185976508829
20
1.93647677112679
30
0
41
1
10
11.7638718173602
20
1.92805025581001
30
0
41
1
10
11.8098862889346
20
1.92017719895651
30
0
41
1
10
11.8566454076948
20
1.91288284569956
30
0
41
1
10
11.9041531430114
20
1.9061927146
30
0
41
1
10
11.9524130702919
20
1.90013258388021
30
0
41
1
10
12.0014283493431
20
1.89472847651589
30
0
41
1
10
12.0512017025079
20
1.89000664543559
30
0
41
1
10
12.1017353919934
20
1.88599355396465
30
0
41
1
10
12.1530311986735
20
1.88271586987958
30
0
41
1
10
12.2050903937547
20
1.88020040315871
30
0
41
1
10
12.2579137361043
20
1.87847425300131
30
0
41
1
10
12.3115013707027
20
1.8775641549787
30
0
41
1
10
12.3658531013922
20
1.8774988616278
30
0
41
1
10
12.4209672409257
20
1.87829999758628
30
0
41
1
10
12.4768448620463
20
1.88001667285943
30
0
41
1
10
12.5334735432056
20
1.88259396829301
30
0
41
1
10
12.5715382879506
20
1.88509868353123
30
0
41
1
10
12.5906767200629
20
1.88635802003455
30
0
0
SPLINE
5
102
100
AcDbEntity
8
1
62
256
6
ByLayer
370
18
48
1
60
0
100
AcDbSpline
70
4
71
3
72
8
73
4
40
0
40
0
40
0
40
0
40
1
40
1
40
1
40
1
41
1
10
13.5683923437528
20
-0.1933507602416
30
0
41
1
10
13.6737719710086
20
-0.245455044423238
30
0
41
1
10
13.7815072740899
20
-0.295876928021215
30
0
41
1
10
13.8912896079797
20
-0.345059658543278
30
0
0
SPLINE
5
103
100
AcDbEntity
8
1
62
256
6
ByLayer
370
18
48
1
60
0
100
AcDbSpline
70
4
71
3
72
64
73
60
40
0
40
0
40
0
40
0
40
0.0315082679071898
40
0.0315082679071898
40
0.0637913256436167
40
0.0637913256436167
40
0.0960743833800435
40
0.0960743833800435
40
0.12835744111647
40
0.12835744111647
40
0.160640498852897
40
0.160640498852897
40
0.192923556589323
40
0.192923556589323
40
0.225206614325748
40
0.225206614325748
40
0.289772729798599
40
0.289772729798599
40
0.322055787535025
40
0.322055787535025
40
0.35433884527145
40
0.35433884527145
40
0.386621903007876
40
0.386621903007876
40
0.40276343187609
40
0.40276343187609
40
0.418904960744303
40
0.418904960744303
40
0.451188018480731
40
0.451188018480731
40
0.483471076217159
40
0.483471076217159
40
0.548037191690013
40
0.548037191690013
40
0.612603307162868
40
0.612603307162868
40
0.644886364899296
40
0.644886364899296
40
0.661027893767509
40
0.661027893767509
40
0.677169422635723
40
0.677169422635723
40
0.741735538108579
40
0.741735538108579
40
0.774018595845007
40
0.774018595845007
40
0.806301653581435
40
0.806301653581435
40
0.838584711317864
40
0.838584711317864
40
0.870867769054292
40
0.870867769054292
40
0.90315082679072
40
0.90315082679072
40
0.919292355658934
40
0.919292355658934
40
0.935433884527148
40
0.935433884527148
40
1
40
1
40
1
40
1
41
1
10
24.6313362291953
20
-3.92000584669756
30
0
41
1
10
24.5189870501208
20
-3.96941125043617
30
0
41
1
10
24.4066931382503
20
-4.01621929456351
30
0
41
1
10
24.1793865616703
20
-4.10538890138847
30
0
41
1
10
24.0643731133632
20
-4.14761380549427
30
0
41
1
10
23.8342162699726
20
-4.2259865852061
30
0
41
1
10
23.7190708246498
20
-4.2621305186826
30
0
41
1
10
23.488351010133
20
-4.32840260199842
30
0
41
1
10
23.3727494102639
20
-4.35862795768111
30
0
41
1
10
23.1408682081261
20
-4.41315276538839
30
0
41
1
10
23.0246026223394
20
-4.43740513555542
30
0
41
1
10
22.791252477138
20
-4.47947293689688
30
0
41
1
10
22.674967011551
20
-4.49715214161975
30
0
41
1
10
22.4432173465069
20
-4.52559858630161
30
0
41
1
10
22.327693549148
20
-4.53643016752355
30
0
41
1
10
21.9815817477875
20
-4.55953009379084
30
0
41
1
10
21.7515311308177
20
-4.56227501964605
30
0
41
1
10
21.4065411335049
20
-4.54680487517203
30
0
41
1
10
21.2915713922243
20
-4.53832796338969
30
0
41
1
10
21.0614477276972
20
-4.51477864561679
30
0
41
1
10
20.9462679954336
20
-4.4998016670466
30
0
41
1
10
20.7154295707796
20
-4.46362602917441
30
0
41
1
10
20.5997830629536
20
-4.44238292573004
30
0
41
1
10
20.4258390484052
20
-4.40565116682953
30
0
41
1
10
20.3677785394994
20
-4.39259556800334
30
0
41
1
10
20.2514754682885
20
-4.36482854625473
30
0
41
1
10
20.1931869983205
20
-4.35010473466662
30
0
41
1
10
20.0183191727633
20
-4.30347637046592
30
0
41
1
10
19.902219643215
20
-4.26918846374144
30
0
41
1
10
19.6705881226147
20
-4.19479776032569
30
0
41
1
10
19.5550373111209
20
-4.15475039476385
30
0
41
1
10
19.2089158157892
20
-4.02621152283905
30
0
41
1
10
18.9788974955015
20
-3.92929880996491
30
0
41
1
10
18.51900410337
20
-3.71300823306964
30
0
41
1
10
18.2890337030044
20
-3.59389351426182
30
0
41
1
10
17.9426474522857
20
-3.40008814493797
30
0
41
1
10
17.8269533715861
20
-3.3329482447788
30
0
41
1
10
17.6529394722446
20
-3.22832524066627
30
0
41
1
10
17.5948567625586
20
-3.19279293485812
30
0
41
1
10
17.4785043119945
20
-3.12042875749208
30
0
41
1
10
17.4201629585481
20
-3.08355361109611
30
0
41
1
10
17.1289443453572
20
-2.89669563156562
30
0
41
1
10
16.897570858859
20
-2.73941692068712
30
0
41
1
10
16.5515072257578
20
-2.49357479783345
30
0
41
1
10
16.4363344813817
20
-2.40994178396326
30
0
41
1
10
16.2062203274728
20
-2.23934146414754
30
0
41
1
10
16.0912721446832
20
-2.15238730778057
30
0
41
1
10
15.8613362303918
20
-1.97549657862081
30
0
41
1
10
15.7463285673953
20
-1.88561176274155
30
0
41
1
10
15.51600158779
20
-1.70327137801817
30
0
41
1
10
15.4006976590428
20
-1.61077685013848
30
0
41
1
10
15.1696585597889
20
-1.42316749890657
30
0
41
1
10
15.0539247331947
20
-1.32804642627943
30
0
41
1
10
14.8798378065261
20
-1.18351747275599
30
0
41
1
10
14.8217267346305
20
-1.13503648810828
30
0
41
1
10
14.7053089798619
20
-1.03749788012473
30
0
41
1
10
14.6469607428157
20
-0.988406863414383
30
0
41
1
10
14.3556801935011
20
-0.742588157465008
30
0
41
1
10
14.1233482698817
20
-0.544295019864762
30
0
41
1
10
13.8912036569717
20
-0.344897605814566
30
0
0
SPLINE
5
104
100
AcDbEntity
8
1
62
256
6
ByLayer
370
18
48
1
60
0
100
AcDbSpline
70
4
71
5
72
48
73
42
40
0
40
0
40
0
40
0
40
0
40
0
40
0.023113340750197
40
0.0556456390275082
40
0.077333837879049
40
0.10986613615636
40
0.131554335007901
40
0.164086633285212
40
0.185774832136753
40
0.218307130414064
40
0.250839428691376
40
0.272527627542916
40
0.294215826394457
40
0.326748124671768
40
0.35928042294908
40
0.380968621800621
40
0.413500920077932
40
0.435189118929473
40
0.467721417206784
40
0.489409616058325
40
0.521941914335636
40
0.554474212612947
40
0.576162411464488
40
0.608694709741799
40
0.63038290859334
40
0.662915206870651
40
0.684603405722192
40
0.717135703999503
40
0.749668002276814
40
0.771356201128355
40
0.803888499405667
40
0.825576698257207
40
0.858108996534519
40
0.879797195386059
40
0.912329493663371
40
0.944861791940682
40
0.966549990792223
40
0.988238189643763
40
1
40
1
40
1
40
1
40
1
40
1
41
1
10
18.2003612777368
20
2.62600776627215
30
0
41
1
10
18.2618498164483
20
2.61279898390768
30
0
41
1
10
18.4098841947948
20
2.57993069428119
30
0
41
1
10
18.6156157995648
20
2.53070842058196
30
0
41
1
10
18.9078932439699
20
2.45393557723844
30
0
41
1
10
19.2578679147983
20
2.35077701266744
30
0
41
1
10
19.6328998865504
20
2.22890197389066
30
0
41
1
10
19.9790832450907
20
2.10643095819535
30
0
41
1
10
20.3541152168428
20
1.96360949034886
30
0
41
1
10
20.7291471885949
20
1.8112630394013
30
0
41
1
10
21.104179160347
20
1.64926940416876
30
0
41
1
10
21.4503625188873
20
1.49237859330211
30
0
41
1
10
21.8253944906394
20
1.31528830130895
30
0
41
1
10
22.2004264623915
20
1.13184358654604
30
0
41
1
10
22.5466098209318
20
0.957376261179007
30
0
41
1
10
22.9216417926839
20
0.763742707947387
30
0
41
1
10
23.296673764436
20
0.566077107978629
30
0
41
1
10
23.6717057361881
20
0.365725362793938
30
0
41
1
10
24.0178890947284
20
0.179108031875131
30
0
41
1
10
24.3929210664805
20
-0.0238761095431244
30
0
41
1
10
24.7679530382326
20
-0.226795082801061
30
0
41
1
10
25.1429850099847
20
-0.428536452835743
30
0
41
1
10
25.5180169817367
20
-0.628206578586742
30
0
41
1
10
25.8930489534888
20
-0.824511119762292
30
0
41
1
10
26.2680809252409
20
-1.01678342965377
30
0
41
1
10
26.6142642837813
20
-1.18977359431216
30
0
41
1
10
26.9892962555333
20
-1.37138478753653
30
0
41
1
10
27.3643282272854
20
-1.54641334245889
30
0
41
1
10
27.7393601990375
20
-1.71324708184565
30
0
41
1
10
28.1143921707895
20
-1.87180018809309
30
0
41
1
10
28.4894241425416
20
-2.02038488633022
30
0
41
1
10
28.8644561142937
20
-2.15917121858152
30
0
41
1
10
29.2106394728341
20
-2.2776812969548
30
0
41
1
10
29.5856714445861
20
-2.395030701986
30
0
41
1
10
29.9607034163382
20
-2.50083453755804
30
0
41
1
10
30.3357353880903
20
-2.59336161219591
30
0
41
1
10
30.6819187466306
20
-2.6672009228372
30
0
41
1
10
31.0016948830453
20
-2.72438731250841
30
0
41
1
10
31.2349251798248
20
-2.75945488162648
30
0
41
1
10
31.3816096369693
20
-2.77884812662432
30
0
41
1
10
31.4705968676903
20
-2.78962705158545
30
0
41
1
10
31.5018868719879
20
-2.79329498319697
30
0
0
SPLINE
5
105
100
AcDbEntity
8
1
62
256
6
ByLayer
370
18
48
1
60
0
100
AcDbSpline
70
4
71
3
72
8
73
4
40
0
40
0
40
0
40
0
40
1
40
1
40
1
40
1
41
1
10
13.5683923437519
20
4.73349438465428
30
0
41
1
10
13.673771971008
20
4.65668434855931
30
0
41
1
10
13.7815072740896
20
4.58231273097715
30
0
41
1
10
13.8912896079797
20
4.51020261017675
30
0
0
SPLINE
5
106
100
AcDbEntity
8
1
62
256
6
ByLayer
370
18
48
1
60
0
100
AcDbSpline
70
4
71
3
72
106
73
102
40
0
40
0
40
0
40
0
40
0.0183424676605878
40
0.0183424676605878
40
0.0547001540435301
40
0.0547001540435301
40
0.0910578404264724
40
0.0910578404264724
40
0.100147262022208
40
0.100147262022208
40
0.109236683617944
40
0.127415526809415
40
0.127415526809415
40
0.163773213192357
40
0.163773213192357
40
0.200130899575299
40
0.200130899575299
40
0.236488585958242
40
0.236488585958242
40
0.241033296756109
40
0.241033296756109
40
0.245578007553977
40
0.254667429149712
40
0.254667429149712
40
0.272846272341182
40
0.272846272341182
40
0.309203958724123
40
0.309203958724123
40
0.327382801915593
40
0.327382801915593
40
0.345561645107064
40
0.345561645107064
40
0.363740488298534
40
0.363740488298534
40
0.381919331490005
40
0.381919331490005
40
0.39100875308574
40
0.39100875308574
40
0.400098174681475
40
0.400098174681475
40
0.418277017872946
40
0.418277017872946
40
0.436455861064416
40
0.436455861064416
40
0.454634704255887
40
0.454634704255887
40
0.472813547447357
40
0.472813547447357
40
0.490992390638828
40
0.490992390638828
40
0.509171233830298
40
0.509171233830298
40
0.527350077021769
40
0.527350077021769
40
0.54552892021324
40
0.54552892021324
40
0.563707763404711
40
0.563707763404711
40
0.600065449787653
40
0.600065449787653
40
0.618244292979124
40
0.618244292979124
40
0.636423136170594
40
0.636423136170594
40
0.654601979362065
40
0.654601979362065
40
0.663691400957801
40
0.663691400957801
40
0.672780822553536
40
0.672780822553536
40
0.690959665745007
40
0.690959665745007
40
0.709138508936478
40
0.709138508936478
40
0.745496195319419
40
0.745496195319419
40
0.781853881702361
40
0.781853881702361
40
0.800032724893831
40
0.800032724893831
40
0.809122146489566
40
0.809122146489566
40
0.818211568085302
40
0.818211568085302
40
0.854569254468241
40
0.854569254468241
40
0.872748097659711
40
0.872748097659711
40
0.890926940851181
40
0.890926940851181
40
0.909105784042651
40
0.909105784042651
40
0.927284627234121
40
0.927284627234121
40
0.945463470425591
40
0.945463470425591
40
0.954552892021326
40
0.954552892021326
40
0.963642313617061
40
0.963642313617061
40
1
40
1
40
1
40
1
41
1
10
32.9651730622158
20
-3.73592346175076
30
0
41
1
10
32.8488468335279
20
-3.79336917701525
30
0
41
1
10
32.7326673246033
20
-3.84803220072698
30
0
41
1
10
32.3863193372852
20
-4.00258964552444
30
0
41
1
10
32.1562811118888
20
-4.09415156206657
30
0
41
1
10
31.6948418351556
20
-4.25392601439597
30
0
41
1
10
31.4634577579829
20
-4.32210039172764
30
0
41
1
10
31.1722846791224
20
-4.39183984396041
30
0
41
1
10
31.1139018414399
20
-4.40502672284114
30
0
41
1
10
30.9974355280533
20
-4.42973775008673
30
0
41
1
10
30.8230229423243
20
-4.46434986858546
30
0
41
1
10
30.6493544006937
20
-4.49162094390005
30
0
41
1
10
30.3026851335657
20
-4.53646219309127
30
0
41
1
10
30.0724544228343
20
-4.55345807068389
30
0
41
1
10
29.6121884299966
20
-4.56157888766967
30
0
41
1
10
29.3821662883282
20
-4.55266601670061
30
0
41
1
10
28.9206741598213
20
-4.50861516059649
30
0
41
1
10
28.6891976667327
20
-4.47351223560207
30
0
41
1
10
28.4269581761659
20
-4.41905084939853
30
0
41
1
10
28.3977780837428
20
-4.41278741666935
30
0
41
1
10
28.3394848767531
20
-4.39986993203462
30
0
41
1
10
28.2521234020888
20
-4.37990515829125
30
0
41
1
10
28.1649837934563
20
-4.35818002286658
30
0
41
1
10
27.9909446896162
20
-4.31245124663366
30
0
41
1
10
27.8752298916534
20
-4.27894998110958
30
0
41
1
10
27.5286653379634
20
-4.16976857441193
30
0
41
1
10
27.2984377989107
20
-4.08530629125735
30
0
41
1
10
26.9531395098892
20
-3.94181742008243
30
0
41
1
10
26.8380434821744
20
-3.89120405270401
30
0
41
1
10
26.6077216781484
20
-3.78425131366038
30
0
41
1
10
26.4925058391799
20
-3.72786843967882
30
0
41
1
10
26.2617195267913
20
-3.60942903339824
30
0
41
1
10
26.1461562996138
20
-3.54732573029571
30
0
41
1
10
25.9143215808347
20
-3.4181556836437
30
0
41
1
10
25.7980382682131
20
-3.35118264015219
30
0
41
1
10
25.6229924025273
20
-3.24679783268593
30
0
41
1
10
25.5646656428136
20
-3.21142066821375
30
0
41
1
10
25.4482924179073
20
-3.13965253646313
30
0
41
1
10
25.3902068572051
20
-3.10323824517684
30
0
41
1
10
25.2162316389645
20
-2.99240441711143
30
0
41
1
10
25.1006196889593
20
-2.91640119641932
30
0
41
1
10
24.869882437325
20
-2.76046647207033
30
0
41
1
10
24.7547390020872
20
-2.68057279332788
30
0
41
1
10
24.524509688262
20
-2.5176266566248
30
0
41
1
10
24.4094539340461
20
-2.43450860207739
30
0
41
1
10
24.1793865616702
20
-2.26487188588848
30
0
41
1
10
24.0643731133632
20
-2.17835619384073
30
0
41
1
10
23.8342162699726
20
-2.00199600401459
30
0
41
1
10
23.7190708246498
20
-1.91215192809571
30
0
41
1
10
23.488351010133
20
-1.72956278756806
30
0
41
1
10
23.3727494102638
20
-1.63690945159948
30
0
41
1
10
23.140868208126
20
-1.44908058179453
30
0
41
1
10
23.0246026223394
20
-1.35385953284239
30
0
41
1
10
22.791252477138
20
-1.16078605198916
30
0
41
1
10
22.6749670115509
20
-1.06360658336393
30
0
41
1
10
22.4432173465069
20
-0.868274873451554
30
0
41
1
10
22.327693549148
20
-0.770133296947307
30
0
41
1
10
21.9815817477875
20
-0.474991876148408
30
0
41
1
10
21.7515311308177
20
-0.277181714502348
30
0
41
1
10
21.4065411335049
20
0.0200053190035021
30
0
41
1
10
21.2915713922243
20
0.119162121695581
30
0
41
1
10
21.0614477276972
20
0.317384782266942
30
0
41
1
10
20.9462679954335
20
0.416418580029386
30
0
41
1
10
20.7154295707796
20
0.614042621677726
30
0
41
1
10
20.5997830629536
20
0.712647989792515
30
0
41
1
10
20.4258390484052
20
0.860092344496678
30
0
41
1
10
20.3677785394993
20
0.909163038475754
30
0
41
1
10
20.2514754682885
20
1.00712239873053
30
0
41
1
10
20.1931869983205
20
1.05604946561093
30
0
41
1
10
20.0183191727633
20
1.20225515288269
30
0
41
1
10
19.902219643215
20
1.29857023049044
30
0
41
1
10
19.6705881226147
20
1.48868230705776
30
0
41
1
10
19.5550373111209
20
1.58248467262786
30
0
41
1
10
19.2089158157892
20
1.85985455235786
30
0
41
1
10
18.9788974955015
20
2.03940073092147
30
0
41
1
10
18.51900410337
20
2.3859166269319
30
0
41
1
10
18.2890337030043
20
2.55290350564121
30
0
41
1
10
17.9426474522857
20
2.79278950515743
30
0
41
1
10
17.8269533715861
20
2.87098570239115
30
0
41
1
10
17.6529394722446
20
2.98539760129438
30
0
41
1
10
17.5948567625586
20
3.02305221550984
30
0
41
1
10
17.4785043119945
20
3.09736247267617
30
0
41
1
10
17.4201629585482
20
3.13406249822489
30
0
41
1
10
17.1289443453572
20
3.31435845512652
30
0
41
1
10
16.897570858859
20
3.44836041742946
30
0
41
1
10
16.5515072257578
20
3.63370150606039
30
0
41
1
10
16.4363344813817
20
3.69285319130373
30
0
41
1
10
16.2062203274728
20
3.80563374975128
30
0
41
1
10
16.0912721446832
20
3.8592696393759
30
0
41
1
10
15.8613362303918
20
3.96098056561124
30
0
41
1
10
15.7463285673953
20
4.00910016759548
30
0
41
1
10
15.51600158779
20
4.09984688087411
30
0
41
1
10
15.4006976590429
20
4.14244141578405
30
0
41
1
10
15.1696585597889
20
4.22174602443002
30
0
41
1
10
15.0539247331947
20
4.25844804027076
30
0
41
1
10
14.8798378065261
20
4.30889357498776
30
0
41
1
10
14.8217267346305
20
4.32494405856829
30
0
41
1
10
14.7053089798619
20
4.35549636050067
30
0
41
1
10
14.6469607428157
20
4.37000803042889
30
0
41
1
10
14.3556801935012
20
4.43854331986327
30
0
41
1
10
14.1233482698816
20
4.48096601085959
30
0
41
1
10
13.8912036569717
20
4.51009933224381
30
0
0
SPLINE
5
107
100
AcDbEntity
8
1
62
256
6
ByLayer
370
18
48
1
60
0
100
AcDbSpline
70
4
71
3
72
14
73
10
40
0
40
0
40
0
40
0
40
0.250000000000001
40
0.250000000000001
40
0.375000000000001
40
0.375000000000001
40
0.500000000000001
40
0.500000000000001
40
1
40
1
40
1
40
1
41
1
10
36.3207005290634
20
0.905976930349425
30
0
41
1
10
36.3128477028453
20
0.821874358944513
30
0
41
1
10
36.3076996056985
20
0.736687822935352
30
0
41
1
10
36.3041257896313
20
0.607245507670456
30
0
41
1
10
36.3036266444375
20
0.563778804778764
30
0
41
1
10
36.3040318282987
20
0.476466119699325
30
0
41
1
10
36.3049340530302
20
0.432765994955986
30
0
41
1
10
36.3128914809879
20
0.214049705540901
30
0
41
1
10
36.3302519451264
20
0.0383886496761363
30
0
41
1
10
36.3582277704901
20
-0.13793670309704
30
0
0
SPLINE
5
108
100
AcDbEntity
8
1
62
256
6
ByLayer
370
18
48
1
60
0
100
AcDbSpline
70
4
71
3
72
40
73
36
40
0
40
0
40
0
40
0
40
0.0590807022506765
40
0.0590807022506765
40
0.118161404501353
40
0.118161404501353
40
0.17724210675203
40
0.17724210675203
40
0.236322809002706
40
0.236322809002706
40
0.295403511253383
40
0.295403511253383
40
0.35448421350406
40
0.35448421350406
40
0.413564915754736
40
0.413564915754736
40
0.472645618005412
40
0.472645618005412
40
0.531726320256089
40
0.531726320256089
40
0.590807022506766
40
0.590807022506766
40
0.649887724757442
40
0.649887724757442
40
0.708968427008119
40
0.708968427008119
40
0.768049129258796
40
0.768049129258796
40
0.827129831509472
40
0.827129831509472
40
0.886210533760149
40
0.886210533760149
40
0.945291236010826
40
0.945291236010826
40
1
40
1
40
1
40
1
41
1
10
36.2648804266248
20
-0.120769566876049
30
0
41
1
10
36.0357671308434
20
0.0854587092781003
30
0
41
1
10
35.8066538350618
20
0.292026346322189
30
0
41
1
10
35.3484272434989
20
0.70236088188409
30
0
41
1
10
35.1193139477173
20
0.906125831683966
30
0
41
1
10
34.6610873561543
20
1.30741884517829
30
0
41
1
10
34.4319740603728
20
1.50494500340005
30
0
41
1
10
33.9737474688099
20
1.89042946023696
30
0
41
1
10
33.7446341730283
20
2.07838592882607
30
0
41
1
10
33.2864075814654
20
2.44156137836245
30
0
41
1
10
33.0572942856839
20
2.61677863497508
30
0
41
1
10
32.5990676941209
20
2.95152082756732
30
0
41
1
10
32.3699543983394
20
3.11104417385161
30
0
41
1
10
31.9117278067764
20
3.41170833405295
30
0
41
1
10
31.6826145109949
20
3.55284772098918
30
0
41
1
10
31.224387919432
20
3.81436373669845
30
0
41
1
10
30.9952746236505
20
3.93473912593237
30
0
41
1
10
30.5370480320875
20
4.15269704581215
30
0
41
1
10
30.307934736306
20
4.25027854450349
30
0
41
1
10
29.849708144743
20
4.42100294303182
30
0
41
1
10
29.6205948489616
20
4.49414503412856
30
0
41
1
10
29.1623682573986
20
4.61475699022381
30
0
41
1
10
28.9332549616172
20
4.66222628252675
30
0
41
1
10
28.4750283700542
20
4.73069192490937
30
0
41
1
10
28.2459150742728
20
4.75168794965825
30
0
41
1
10
27.7876884827098
20
4.76685275637775
30
0
41
1
10
27.5585751869283
20
4.76102146674771
30
0
41
1
10
27.1003485953655
20
4.72262973281568
30
0
41
1
10
26.871235299584
20
4.6900694727581
30
0
41
1
10
26.4130087080209
20
4.59876862199442
30
0
41
1
10
26.1838954122395
20
4.54002846776615
30
0
41
1
10
25.7256688206766
20
4.39735813521233
30
0
41
1
10
25.4965555248951
20
4.31342863609643
30
0
41
1
10
25.0552831865128
20
4.12888510527137
30
0
41
1
10
24.8431241439119
20
4.02996608938977
30
0
41
1
10
24.6309651013111
20
3.92157487822138
30
0
0
SPLINE
5
109
100
AcDbEntity
8
1
62
256
6
ByLayer
370
18
48
1
60
0
100
AcDbSpline
70
4
71
3
72
48
73
44
40
0
40
0
40
0
40
0
40
0.0318052282192224
40
0.0318052282192224
40
0.0802149668082611
40
0.0802149668082611
40
0.1286247053973
40
0.1286247053973
40
0.177034443986339
40
0.177034443986339
40
0.225444182575378
40
0.225444182575378
40
0.273853921164417
40
0.273853921164417
40
0.322263659753455
40
0.322263659753455
40
0.370673398342494
40
0.370673398342494
40
0.419083136931533
40
0.419083136931533
40
0.467492875520572
40
0.467492875520572
40
0.515902614109611
40
0.515902614109611
40
0.56431235269865
40
0.56431235269865
40
0.612722091287689
40
0.612722091287689
40
0.661131829876728
40
0.661131829876728
40
0.709541568465767
40
0.709541568465767
40
0.757951307054806
40
0.757951307054806
40
0.806361045643844
40
0.806361045643844
40
0.854770784232883
40
0.854770784232883
40
0.903180522821922
40
0.903180522821922
40
0.951590261410961
40
0.951590261410961
40
1
40
1
40
1
40
1
41
1
10
28.4683845099484
20
-4.72700560693548
30
0
41
1
10
28.3178569327961
20
-4.7435170784469
30
0
41
1
10
28.1673293556437
20
-4.75428870931725
30
0
41
1
10
27.7876884827098
20
-4.76685275637797
30
0
41
1
10
27.5585751869283
20
-4.76102146674793
30
0
41
1
10
27.1003485953654
20
-4.7226297328159
30
0
41
1
10
26.8712352995839
20
-4.6900694727583
30
0
41
1
10
26.413008708021
20
-4.59876862199462
30
0
41
1
10
26.1838954122396
20
-4.54002846776638
30
0
41
1
10
25.7256688206766
20
-4.39735813521253
30
0
41
1
10
25.4965555248951
20
-4.31342863609663
30
0
41
1
10
25.0383289333322
20
-4.12179470446392
30
0
41
1
10
24.8092156375508
20
-4.01409118052339
30
0
41
1
10
24.3509890459878
20
-3.77672520680906
30
0
41
1
10
24.1218757502063
20
-3.64706388187148
30
0
41
1
10
23.6636491586435
20
-3.36796860570505
30
0
41
1
10
23.434535862862
20
-3.21853597845649
30
0
41
1
10
22.9763092712991
20
-2.90241782322971
30
0
41
1
10
22.7471959755176
20
-2.73573379613313
30
0
41
1
10
22.2889693839547
20
-2.3879235036388
30
0
41
1
10
22.0598560881733
20
-2.20679888963679
30
0
41
1
10
21.6016294966104
20
-1.83316162669737
30
0
41
1
10
21.372516200829
20
-1.6406507511787
30
0
41
1
10
20.9142896092661
20
-1.24748720436801
30
0
41
1
10
20.6851763134846
20
-1.04683639915601
30
0
41
1
10
20.2269497219218
20
-0.64077652597166
30
0
41
1
10
19.9978364261403
20
-0.435369385809565
30
0
41
1
10
19.5396098345775
20
-0.0232606132242381
30
0
41
1
10
19.310496538796
20
0.183439062231656
30
0
41
1
10
18.8522699472331
20
0.594647306621255
30
0
41
1
10
18.6231566514517
20
0.799153922844113
30
0
41
1
10
18.1649300598888
20
1.20252740001524
30
0
41
1
10
17.9358167641075
20
1.40139234537855
30
0
41
1
10
17.4775901725445
20
1.79012893740807
30
0
41
1
10
17.2484768767631
20
1.97999873763263
30
0
41
1
10
16.7902502852003
20
2.34754315209238
30
0
41
1
10
16.5611369894188
20
2.52521602045576
30
0
41
1
10
16.102910397856
20
2.8653703324357
30
0
41
1
10
15.8737971020745
20
3.02785016148465
30
0
41
1
10
15.4155705105117
20
3.33487833066349
30
0
41
1
10
15.1864572147302
20
3.47942521488983
30
0
41
1
10
14.7282306231675
20
3.74814981251413
30
0
41
1
10
14.499117327386
20
3.87232625198675
30
0
41
1
10
14.2700040316046
20
3.98527100978589
30
0
0
SPLINE
5
10A
100
AcDbEntity
8
1
62
256
6
ByLayer
370
18
48
1
60
0
100
AcDbSpline
70
4
71
3
72
64
73
60
40
0
40
0
40
0
40
0
40
0.0345131065421654
40
0.0345131065421654
40
0.0690262130843308
40
0.0690262130843308
40
0.103539319626496
40
0.103539319626496
40
0.138052426168662
40
0.138052426168662
40
0.172565532710827
40
0.172565532710827
40
0.207078639252992
40
0.207078639252992
40
0.241591745795158
40
0.241591745795158
40
0.276104852337323
40
0.276104852337323
40
0.310617958879489
40
0.310617958879489
40
0.345131065421654
40
0.345131065421654
40
0.37964417196382
40
0.37964417196382
40
0.414157278505985
40
0.414157278505985
40
0.44867038504815
40
0.44867038504815
40
0.483183491590316
40
0.483183491590316
40
0.517696598132481
40
0.517696598132481
40
0.552209704674647
40
0.552209704674647
40
0.586722811216812
40
0.586722811216812
40
0.621235917758978
40
0.621235917758978
40
0.655749024301143
40
0.655749024301143
40
0.690262130843308
40
0.690262130843308
40
0.724775237385474
40
0.724775237385474
40
0.759288343927639
40
0.759288343927639
40
0.793801450469805
40
0.793801450469805
40
0.82831455701197
40
0.82831455701197
40
0.862827663554135
40
0.862827663554135
40
0.897340770096301
40
0.897340770096301
40
0.931853876638466
40
0.931853876638466
40
0.966366983180632
40
0.966366983180632
40
1
40
1
40
1
40
1
41
1
10
36.2648804266249
20
-4.75779515555473
30
0
41
1
10
36.0357671308434
20
-4.74862765939938
30
0
41
1
10
35.8066538350619
20
-4.72605070868153
30
0
41
1
10
35.3484272434989
20
-4.65445820494179
30
0
41
1
10
35.1193139477173
20
-4.60544298914849
30
0
41
1
10
34.6610873561544
20
-4.48180026429614
30
0
41
1
10
34.4319740603729
20
-4.40717334178331
30
0
41
1
10
33.9737474688098
20
-4.23356541367613
30
0
41
1
10
33.7446341730284
20
-4.13458523369692
30
0
41
1
10
33.2864075814654
20
-3.91393968771038
30
0
41
1
10
33.0572942856838
20
-3.79227537028714
30
0
41
1
10
32.5990676941208
20
-3.52831298917732
30
0
41
1
10
32.3699543983394
20
-3.38601617897285
30
0
41
1
10
31.9117278067764
20
-3.08318819884693
30
0
41
1
10
31.6826145109949
20
-2.92265846756638
30
0
41
1
10
31.224387919432
20
-2.58607151726355
30
0
41
1
10
30.9952746236505
20
-2.41001589822531
30
0
41
1
10
30.5370480320875
20
-2.04534588525624
30
0
41
1
10
30.307934736306
20
-1.85673322486355
30
0
41
1
10
29.8497081447432
20
-1.47012962158362
30
0
41
1
10
29.6205948489616
20
-1.27214051569413
30
0
41
1
10
29.1623682573986
20
-0.870122659937067
30
0
41
1
10
28.9332549616171
20
-0.666095819431064
30
0
41
1
10
28.4750283700543
20
-0.255442977941527
30
0
41
1
10
28.2459150742727
20
-0.0488189271436568
30
0
41
1
10
27.7876884827098
20
0.363544023170164
30
0
41
1
10
27.5585751869284
20
0.569280964453384
30
0
41
1
10
27.1003485953654
20
0.976400311517409
30
0
41
1
10
26.8712352995839
20
1.17778078430337
30
0
41
1
10
26.4130087080209
20
1.57279124212192
30
0
41
1
10
26.1838954122395
20
1.76641935207309
30
0
41
1
10
25.7256688206766
20
2.14265983079946
30
0
41
1
10
25.4965555248951
20
2.32527041320532
30
0
41
1
10
25.0383289333323
20
2.67639634567303
30
0
41
1
10
24.8092156375508
20
2.84491002701302
30
0
41
1
10
24.3509890459879
20
3.16500035614752
30
0
41
1
10
24.1218757502064
20
3.31657548194588
30
0
41
1
10
23.6636491586435
20
3.60023250907659
30
0
41
1
10
23.434535862862
20
3.73231306204511
30
0
41
1
10
22.9763092712991
20
3.97475346877286
30
0
41
1
10
22.7471959755177
20
4.0851121707835
30
0
41
1
10
22.2889693839548
20
4.2822476802823
30
0
41
1
10
22.0598560881733
20
4.36902355080966
30
0
41
1
10
21.6016294966104
20
4.51752986818374
30
0
41
1
10
21.372516200829
20
4.57925960755131
30
0
41
1
10
20.9142896092661
20
4.67663247676873
30
0
41
1
10
20.6851763134847
20
4.71227514145761
30
0
41
1
10
20.2269497219218
20
4.75687257459825
30
0
41
1
10
19.9978364261403
20
4.76582712988326
30
0
41
1
10
19.5396098345775
20
4.7568970970606
30
0
41
1
10
19.310496538796
20
4.73901255123343
30
0
41
1
10
18.8522699472331
20
4.67670566190739
30
0
41
1
10
18.6231566514517
20
4.6322836140977
30
0
41
1
10
18.1649300598888
20
4.51765057457288
30
0
41
1
10
17.9358167641074
20
4.44744012734304
30
0
41
1
10
17.4775901725445
20
4.28241402510676
30
0
41
1
10
17.2484768767631
20
4.18759915297846
30
0
41
1
10
16.7960927107938
20
3.97767398618205
30
0
41
1
10
16.5728218406059
20
3.86314384003532
30
0
41
1
10
16.3495509704179
20
3.73860887280091
30
0
0
SPLINE
5
10B
100
AcDbEntity
8
1
62
256
6
ByLayer
370
18
48
1
60
0
100
AcDbSpline
70
4
71
3
72
16
73
12
40
0
40
0
40
0
40
0
40
0.208289923309744
40
0.208289923309744
40
0.416579846619488
40
0.416579846619488
40
0.624869769929232
40
0.624869769929232
40
0.833159693238976
40
0.833159693238976
40
1
40
1
40
1
40
1
41
1
10
36.2648804266249
20
4.75779515555445
30
0
41
1
10
36.0357671308434
20
4.74862765939909
30
0
41
1
10
35.8066538350619
20
4.72605070868124
30
0
41
1
10
35.3484272434989
20
4.65445820494151
30
0
41
1
10
35.1193139477174
20
4.6054429891482
30
0
41
1
10
34.6610873561543
20
4.48180026429586
30
0
41
1
10
34.4319740603728
20
4.40717334178302
30
0
41
1
10
33.9737474688098
20
4.23356541367585
30
0
41
1
10
33.7446341730284
20
4.13458523369667
30
0
41
1
10
33.3320010413191
20
3.9358938781217
30
0
41
1
10
33.1484812053912
20
3.84024854247173
30
0
41
1
10
32.9649613694635
20
3.73785305602766
30
0
0
SPLINE
5
10C
100
AcDbEntity
8
1
62
256
6
ByLayer
370
18
48
1
60
0
100
AcDbSpline
70
4
71
3
72
26
73
22
40
0
40
0
40
0
40
0
40
0.011803440389431
40
0.011803440389431
40
0.121603058123939
40
0.121603058123939
40
0.231402675858446
40
0.231402675858446
40
0.341202293592954
40
0.341202293592954
40
0.451001911327462
40
0.451001911327462
40
0.560801529061969
40
0.560801529061969
40
0.670601146796477
40
0.670601146796477
40
0.780400764530985
40
0.780400764530985
40
0.890200382265492
40
0.890200382265492
40
1
40
1
40
1
40
1
41
1
10
20.5299519396771
20
-4.72692028957465
30
0
41
1
10
20.5053222990191
20
-4.72962543596998
30
0
41
1
10
20.4806926583611
20
-4.73217674975734
30
0
41
1
10
20.2269497219217
20
-4.75687257459842
30
0
41
1
10
19.9978364261403
20
-4.76582712988341
30
0
41
1
10
19.5396098345774
20
-4.75689709706077
30
0
41
1
10
19.310496538796
20
-4.73901255123357
30
0
41
1
10
18.8522699472331
20
-4.67670566190756
30
0
41
1
10
18.6231566514516
20
-4.63228361409784
30
0
41
1
10
18.1649300598889
20
-4.51765057457303
30
0
41
1
10
17.9358167641074
20
-4.44744012734319
30
0
41
1
10
17.4775901725445
20
-4.2824140251069
30
0
41
1
10
17.248476876763
20
-4.18759915297861
30
0
41
1
10
16.7902502852003
20
-3.97496285644007
30
0
41
1
10
16.5611369894188
20
-3.8571424406824
30
0
41
1
10
16.1029103978559
20
-3.60048167128846
30
0
41
1
10
15.8737971020745
20
-3.46164253696298
30
0
41
1
10
15.4155705105117
20
-3.16528540414009
30
0
41
1
10
15.1864572147302
20
-3.00776881494747
30
0
41
1
10
14.7282306231675
20
-2.67671282998572
30
0
41
1
10
14.499117327386
20
-2.50317500819375
30
0
41
1
10
14.2700040316046
20
-2.32308890898668
30
0
0
SPLINE
5
10D
100
AcDbEntity
8
1
62
256
6
ByLayer
370
18
48
1
60
0
100
AcDbSpline
70
4
71
3
72
28
73
24
40
0
40
0
40
0
40
0
40
0.0548199368556454
40
0.0548199368556454
40
0.189845660161985
40
0.189845660161985
40
0.223602090988574
40
0.223602090988574
40
0.257358521815163
40
0.257358521815163
40
0.324871383468333
40
0.324871383468333
40
0.459897106774661
40
0.459897106774661
40
0.59492283008099
40
0.59492283008099
40
0.662435691734155
40
0.662435691734155
40
0.72994855338732
40
0.72994855338732
40
0.86497427669366
40
0.86497427669366
40
1
40
1
40
1
40
1
41
1
10
7.46401704263437
20
-4.76249774254137
30
0
41
1
10
7.47621178179833
20
-4.76247223155721
30
0
41
1
10
7.48917780731193
20
-4.76223066817698
30
0
41
1
10
7.53666626306511
20
-4.76072299141504
30
0
41
1
10
7.57496662311169
20
-4.75847815230532
30
0
41
1
10
7.62813793951949
20
-4.75456461189859
30
0
41
1
10
7.63903745321494
20
-4.75372627459242
30
0
41
1
10
7.66135973007101
20
-4.75194634948238
30
0
41
1
10
7.67279819981621
20
-4.75100335385355
30
0
41
1
10
7.70763835671079
20
-4.74805267541882
30
0
41
1
10
7.73162931748266
20
-4.74591883161455
30
0
41
1
10
7.80570823899009
20
-4.73912692810146
30
0
41
1
10
7.85789447891713
20
-4.73408275939218
30
0
41
1
10
7.96710776907946
20
-4.72341567518495
30
0
41
1
10
8.02413778401632
20
-4.71779097915811
30
0
41
1
10
8.11291098501454
20
-4.7091690997996
30
0
41
1
10
8.14310047435362
20
-4.70625803694622
30
0
41
1
10
8.20407224142735
20
-4.70044814488142
30
0
41
1
10
8.23488178831491
20
-4.69754653608049
30
0
41
1
10
8.32820804983152
20
-4.68889258605967
30
0
41
1
10
8.39161942357714
20
-4.68319275633431
30
0
41
1
10
8.52052721838214
20
-4.67210016377584
30
0
41
1
10
8.58602473424403
20
-4.66670675535474
30
0
41
1
10
8.6524561074944
20
-4.66152752794247
30
0
0
SPLINE
5
10E
100
AcDbEntity
8
1
62
256
6
ByLayer
370
18
48
1
60
0
100
AcDbSpline
70
4
71
3
72
28
73
24
40
0
40
0
40
0
40
0
40
0.062499999999992
40
0.062499999999992
40
0.124999999999984
40
0.124999999999984
40
0.187499999999976
40
0.187499999999976
40
0.218749999999977
40
0.218749999999977
40
0.249999999999979
40
0.249999999999979
40
0.374999999999974
40
0.374999999999974
40
0.499999999999969
40
0.499999999999969
40
0.562499999999971
40
0.562499999999971
40
0.624999999999974
40
0.624999999999974
40
0.749999999999979
40
0.749999999999979
40
1
40
1
40
1
40
1
41
1
10
8.65245610749525
20
-4.66152752794233
30
0
41
1
10
8.68983028460642
20
-4.65861370344746
30
0
41
1
10
8.72771773739734
20
-4.65609721790102
30
0
41
1
10
8.80435008999143
20
-4.6517972211816
30
0
41
1
10
8.84309608822255
20
-4.65001398282288
30
0
41
1
10
8.92133963455589
20
-4.64713396093825
30
0
41
1
10
8.96083774082763
20
-4.64603733348437
30
0
41
1
10
9.02059608459848
20
-4.64487845458555
30
0
41
1
10
9.04064080557748
20
-4.64457285137567
30
0
41
1
10
9.08067647605054
20
-4.64412155123571
30
0
41
1
10
9.10065485055475
20
-4.64397557163059
30
0
41
1
10
9.2003622698135
20
-4.64362011463217
30
0
41
1
10
9.27954392692206
20
-4.6445282168574
30
0
41
1
10
9.43695121227856
20
-4.64823306346418
30
0
41
1
10
9.5151743511426
20
-4.65103295274199
30
0
41
1
10
9.63187101789782
20
-4.65634535967143
30
0
41
1
10
9.67070631595169
20
-4.65830434790789
30
0
41
1
10
9.74798544706874
20
-4.66253443037857
30
0
41
1
10
9.78623495341441
20
-4.66479429729591
30
0
41
1
10
9.89989462691787
20
-4.67192033398058
30
0
41
1
10
9.97421968716955
20
-4.67713204763507
30
0
41
1
10
10.1933139882555
20
-4.69349952726694
30
0
41
1
10
10.33422380382
20
-4.70538986512253
30
0
41
1
10
10.4706953594131
20
-4.71660947178677
30
0
0
SPLINE
5
10F
100
AcDbEntity
8
1
62
256
6
ByLayer
370
18
48
1
60
0
100
AcDbSpline
70
4
71
3
72
73
73
69
40
0
40
0
40
0
40
0
40
0.0312499999999983
40
0.0312499999999983
40
0.0624999999999965
40
0.0624999999999965
40
0.124999999999995
40
0.124999999999995
40
0.187499999999994
40
0.187499999999994
40
0.249999999999993
40
0.249999999999993
40
0.281249999999992
40
0.281249999999992
40
0.31249999999999
40
0.31249999999999
40
0.374999999999986
40
0.374999999999986
40
0.437499999999983
40
0.437499999999983
40
0.49999999999998
40
0.49999999999998
40
0.515624999999979
40
0.515624999999979
40
0.531249999999978
40
0.531249999999978
40
0.562499999999977
40
0.562499999999977
40
0.593749999999976
40
0.593749999999976
40
0.609374999999976
40
0.609374999999976
40
0.624999999999976
40
0.624999999999976
40
0.656249999999976
40
0.656249999999976
40
0.687499999999976
40
0.687499999999976
40
0.703124999999976
40
0.703124999999976
40
0.718749999999977
40
0.718749999999977
40
0.749999999999978
40
0.749999999999978
40
0.757812499999978
40
0.757812499999978
40
0.765624999999978
40
0.781249999999977
40
0.781249999999977
40
0.812499999999979
40
0.812499999999979
40
0.820312499999979
40
0.820312499999979
40
0.828124999999979
40
0.828124999999979
40
0.843749999999982
40
0.843749999999982
40
0.874999999999987
40
0.874999999999987
40
0.906249999999992
40
0.906249999999992
40
0.921874999999994
40
0.921874999999994
40
0.937499999999995
40
0.937499999999995
40
0.968749999999997
40
0.968749999999997
40
1
40
1
40
1
40
1
41
1
10
9.84766422674545
20
2.93035443301463
30
0
41
1
10
9.79525527012106
20
2.96768650492223
30
0
41
1
10
9.74303684980003
20
3.00489690732149
30
0
41
1
10
9.63896977091503
20
3.07902800745541
30
0
41
1
10
9.58725254387619
20
3.11585496966438
30
0
41
1
10
9.43326398156509
20
3.22539511511925
30
0
41
1
10
9.33205482549911
20
3.29723590106309
30
0
41
1
10
9.13254643602349
20
3.43823594553012
30
0
41
1
10
9.0342458626167
20
3.50739577040829
30
0
41
1
10
8.84070046107911
20
3.64274564394842
30
0
41
1
10
8.74545331863692
20
3.70893643780229
30
0
41
1
10
8.6051262198925
20
3.80577992523493
30
0
41
1
10
8.55877614212505
20
3.83765391135287
30
0
41
1
10
8.4669948804312
20
3.9005494599046
30
0
41
1
10
8.4215271655253
20
3.93159578720537
30
0
41
1
10
8.28687620316833
20
4.02323238884355
30
0
41
1
10
8.19991275025615
20
4.08199384303146
30
0
41
1
10
8.03262735410613
20
4.19455105023883
30
0
41
1
10
7.95229206670905
20
4.24834955483846
30
0
41
1
10
7.79999795393599
20
4.35055043659253
30
0
41
1
10
7.72800739382785
20
4.39895845160032
30
0
41
1
10
7.64517054115362
20
4.45567434156482
30
0
41
1
10
7.62900551491612
20
4.46679982550612
30
0
41
1
10
7.59763277844834
20
4.48854184684748
30
0
41
1
10
7.58241060624977
20
4.49916824901962
30
0
41
1
10
7.53823990426991
20
4.53029635852721
30
0
41
1
10
7.51078027585007
20
4.55004809475884
30
0
41
1
10
7.46052766336564
20
4.58743530156136
30
0
41
1
10
7.4377307785409
20
4.60507130476816
30
0
41
1
10
7.40774998004235
20
4.62982031101683
30
0
41
1
10
7.3984437501131
20
4.63780142924165
30
0
41
1
10
7.38148319781388
20
4.6530916115388
30
0
41
1
10
7.37384693082018
20
4.66038284971043
30
0
41
1
10
7.35364279638995
20
4.681183544292
30
0
41
1
10
7.34376837384991
20
4.69362106364062
30
0
41
1
10
7.33235989034233
20
4.71555213471459
30
0
41
1
10
7.33081957182728
20
4.72504604592532
30
0
41
1
10
7.33594442870577
20
4.73698662483429
30
0
41
1
10
7.33888345635364
20
4.74054263010999
30
0
41
1
10
7.34726703732966
20
4.74681408851015
30
0
41
1
10
7.35271345485501
20
4.74953415399384
30
0
41
1
10
7.37291463773099
20
4.75650054355842
30
0
41
1
10
7.3915251805297
20
4.75955310536568
30
0
41
1
10
7.42162735239057
20
4.76155339108888
30
0
41
1
10
7.42800333925618
20
4.76186304786091
30
0
41
1
10
7.44138853235796
20
4.76230329790431
30
0
41
1
10
7.46236993846637
20
4.76269482190651
30
0
41
1
10
7.48600276819275
20
4.76233147020599
30
0
41
1
10
7.53666626306511
20
4.76072299141498
30
0
41
1
10
7.57496662311164
20
4.75847815230526
30
0
41
1
10
7.62813793951943
20
4.75456461189853
30
0
41
1
10
7.63903745321488
20
4.75372627459237
30
0
41
1
10
7.66135973007096
20
4.75194634948232
30
0
41
1
10
7.67279819981616
20
4.75100335385349
30
0
41
1
10
7.70763835671073
20
4.74805267541876
30
0
41
1
10
7.73162931748254
20
4.74591883161449
30
0
41
1
10
7.80570823898998
20
4.73912692810137
30
0
41
1
10
7.85789447891702
20
4.73408275939212
30
0
41
1
10
7.96710776907938
20
4.7234156751849
30
0
41
1
10
8.02413778401618
20
4.71779097915805
30
0
41
1
10
8.11291098501442
20
4.70916909979954
30
0
41
1
10
8.1431004743535
20
4.70625803694617
30
0
41
1
10
8.20407224142721
20
4.70044814488134
30
0
41
1
10
8.23488178831477
20
4.69754653608044
30
0
41
1
10
8.32820804983137
20
4.68889258605961
30
0
41
1
10
8.391619423577
20
4.68319275633425
30
0
41
1
10
8.520527218382
20
4.67210016377578
30
0
41
1
10
8.58602473424389
20
4.66670675535465
30
0
41
1
10
8.65245610749423
20
4.66152752794241
30
0
0
SPLINE
5
110
100
AcDbEntity
8
1
62
256
6
ByLayer
370
18
48
1
60
0
100
AcDbSpline
70
4
71
3
72
10
73
6
40
0
40
0
40
0
40
0
40
0.908677561112461
40
0.908677561112461
40
1
40
1
40
1
40
1
41
1
10
10.4706318099813
20
-4.71660424873647
30
0
41
1
10
10.6933707973845
20
-4.74438017692543
30
0
41
1
10
10.9161097847877
20
-4.75959295740665
30
0
41
1
10
11.1612341247467
20
-4.76237559766849
30
0
41
1
10
11.1836194773024
20
-4.76250159980791
30
0
41
1
10
11.2060048298582
20
-4.76249956866195
30
0
0
SPLINE
5
111
100
AcDbEntity
8
1
62
256
6
ByLayer
370
18
48
1
60
0
100
AcDbSpline
70
4
71
5
72
15
73
9
40
0
40
0
40
0
40
0
40
0
40
0
40
0.0435405773428446
40
0.427676478806403
40
0.811812380269961
40
1
40
1
40
1
40
1
40
1
40
1
41
1
10
14.2699999239957
20
-2.32310730680624
30
0
41
1
10
14.260190229536
20
-2.31539672168174
30
0
41
1
10
14.1638346954413
20
-2.23956153773563
30
0
41
1
10
13.9809333217115
20
-2.09379259239927
30
0
41
1
10
13.7556332669513
20
-1.91021214014583
30
0
41
1
10
13.5303332121911
20
-1.72223754910982
30
0
41
1
10
13.3148428518905
20
-1.5390518645589
30
0
41
1
10
13.1858983312251
20
-1.4283585402336
30
0
41
1
10
13.1434996501947
20
-1.39184930409903
30
0
0
SPLINE
5
112
100
AcDbEntity
8
1
62
256
6
ByLayer
370
18
48
1
60
0
100
AcDbSpline
70
4
71
3
72
37
73
33
40
0
40
0
40
0
40
0
40
0.0590391262716934
40
0.11879515308856
40
0.17925402903615
40
0.24040090446739
40
0.263501748780951
40
0.287111647777028
40
0.311229103391611
40
0.335852474682073
40
0.360979972148595
40
0.386609651968612
40
0.412739410172201
40
0.439366976787321
40
0.466489909984641
40
0.494105590252876
40
0.522211214636942
40
0.5508037869527
40
0.579880008356258
40
0.609436269248931
40
0.639468761065424
40
0.669973480423138
40
0.70094622747126
40
0.732382604309729
40
0.764278025913305
40
0.796627949702738
40
0.829427830701708
40
0.862672885002212
40
0.896358074180858
40
0.930478099134957
40
0.965027392368938
40
1
40
1
40
1
40
1
41
1
10
13.8911768233596
20
-0.34493908954812
30
0
41
1
10
13.8774226461893
20
-0.366126644794775
30
0
41
1
10
13.8497472775696
20
-0.408759031621031
30
0
41
1
10
13.8074818449865
20
-0.472853599971018
30
0
41
1
10
13.7643442172508
20
-0.537511054143437
30
0
41
1
10
13.7295981164779
20
-0.588926783035333
30
0
41
1
10
13.7035293111046
20
-0.627151447504872
30
0
41
1
10
13.6863438392899
20
-0.652213685151963
30
0
41
1
10
13.6687246943226
20
-0.677776387587187
30
0
41
1
10
13.650671232179
20
-0.703836121375389
30
0
41
1
10
13.6321835218231
20
-0.730389607693382
30
0
41
1
10
13.6132614299386
20
-0.757433122659791
30
0
41
1
10
13.5939048736387
20
-0.784962644954362
30
0
41
1
10
13.5741137504641
20
-0.81297379701229
30
0
41
1
10
13.5538879569076
20
-0.841461842897758
30
0
41
1
10
13.5332273847399
20
-0.870421672316894
30
0
41
1
10
13.5121319157944
20
-0.899847780997277
30
0
41
1
10
13.490601476752
20
-0.929734239721455
30
0
41
1
10
13.4686359386204
20
-0.960074550326453
30
0
41
1
10
13.4462351099747
20
-0.990861632162023
30
0
41
1
10
13.423398854246
20
-1.02208795838598
30
0
41
1
10
13.4001270292109
20
-1.05374556756493
30
0
41
1
10
13.3764194915748
20
-1.08582606158987
30
0
41
1
10
13.3522761063823
20
-1.11832061154263
30
0
41
1
10
13.3276966325395
20
-1.15121999180178
30
0
41
1
10
13.3026809304143
20
-1.18451484407922
30
0
41
1
10
13.2772289846899
20
-1.21819569319803
30
0
41
1
10
13.251340452048
20
-1.25225237196312
30
0
41
1
10
13.2250158190776
20
-1.28667498814315
30
0
41
1
10
13.198252436977
20
-1.32145002663847
30
0
41
1
10
13.1710595929817
20
-1.35657502053252
30
0
41
1
10
13.1527312548456
20
-1.38005183983449
30
0
41
1
10
13.1435112857397
20
-1.39186172390924
30
0
0
SPLINE
5
113
100
AcDbEntity
8
1
62
256
6
ByLayer
370
18
48
1
60
0
100
AcDbSpline
70
4
71
3
72
16
73
12
40
0
40
0
40
0
40
0
40
0.25
40
0.25
40
0.5
40
0.5
40
0.625
40
0.625
40
0.75
40
0.75
40
1
40
1
40
1
40
1
41
1
10
13.143483602549
20
-1.39184178035265
30
0
41
1
10
13.1678921881099
20
-1.29118174090371
30
0
41
1
10
13.1970811506981
20
-1.19115965657807
30
0
41
1
10
13.2612432216392
20
-0.991374228751425
30
0
41
1
10
13.2962532212354
20
-0.891620671001107
30
0
41
1
10
13.351485728549
20
-0.741730233915348
30
0
41
1
10
13.3703488550643
20
-0.691751948739892
30
0
41
1
10
13.4086743213054
20
-0.591969330556054
30
0
41
1
10
13.4281513369677
20
-0.542126051545466
30
0
41
1
10
13.4872803552453
20
-0.392647806999776
30
0
41
1
10
13.5276199024018
20
-0.29306081086807
30
0
41
1
10
13.5683923437627
20
-0.193350760246489
30
0
0
SPLINE
5
114
100
AcDbEntity
8
1
62
256
6
ByLayer
370
18
48
1
60
0
100
AcDbSpline
70
4
71
3
72
17
73
13
40
0
40
0
40
0
40
0
40
0.250000000000003
40
0.250000000000003
40
0.500000000000006
40
0.500000000000006
40
0.562500000000006
40
0.562500000000006
40
0.625000000000006
40
0.750000000000003
40
0.750000000000003
40
1
40
1
40
1
40
1
41
1
10
13.568392343752
20
-0.193350760236882
30
0
41
1
10
13.2594265630634
20
0.0846139174560676
30
0
41
1
10
12.9518987961315
20
0.362267670909546
30
0
41
1
10
12.3355176919633
20
0.912268699991273
30
0
41
1
10
12.0266794455983
20
1.18463298796382
30
0
41
1
10
11.637107076937
20
1.51870782821951
30
0
41
1
10
11.558938274392
20
1.58526638742501
30
0
41
1
10
11.4029897116666
20
1.71697432603455
30
0
41
1
10
11.1693976480298
20
1.9126417875112
30
0
41
1
10
10.9364869841857
20
2.10235280677639
30
0
41
1
10
10.4707631521987
20
2.47307141110878
30
0
41
1
10
10.1604184448412
20
2.70863837563505
30
0
41
1
10
9.84803340346653
20
2.93036385718867
30
0
0
SPLINE
5
115
100
AcDbEntity
8
1
62
256
6
ByLayer
370
18
48
1
60
0
100
AcDbSpline
70
4
71
3
72
8
73
4
40
0
40
0
40
0
40
0
40
1
40
1
40
1
40
1
41
1
10
13.568392343751
20
4.73349438464757
30
0
41
1
10
13.3732224018562
20
4.75285979245581
30
0
41
1
10
13.1786262700004
20
4.76252013635798
30
0
41
1
10
12.9840744162747
20
4.76250783391833
30
0
0
SPLINE
5
116
100
AcDbEntity
8
1
62
256
6
ByLayer
370
18
48
1
60
0
100
AcDbSpline
70
4
71
2
72
6
73
3
40
0
40
0
40
0
40
1
40
1
40
1
41
1
10
20.5275627523538
20
-4.72717640533298
30
0
41
1
10
21.477954950765
20
-4.62229720107138
30
0
41
1
10
22.4277606134035
20
-4.52607852199631
30
0
0
SPLINE
5
117
100
AcDbEntity
8
1
62
256
6
ByLayer
370
18
48
1
60
0
100
AcDbSpline
70
4
71
3
72
11
73
7
40
0
40
0
40
0
40
0
40
0.20178705405707
40
0.435223441544686
40
0.700974181265084
40
1
40
1
40
1
40
1
41
1
10
28.4665863706002
20
-4.72735568562553
30
0
41
1
10
28.5943750098211
20
-4.71336964593178
30
0
41
1
10
28.869984803635
20
-4.68335852941897
30
0
41
1
10
29.3138605769128
20
-4.63548389044149
30
0
41
1
10
29.8192309426864
20
-4.58185361752294
30
0
41
1
10
30.1768966374345
20
-4.54513989985659
30
0
41
1
10
30.3662773138852
20
-4.52600002893561
30
0
0
SPLINE
5
118
100
AcDbEntity
8
1
62
256
6
ByLayer
370
18
48
1
60
0
100
AcDbSpline
70
4
71
2
72
6
73
3
40
0
40
0
40
0
40
1
40
1
40
1
41
1
10
22.4277606134033
20
4.52607852199617
30
0
41
1
10
21.4777110051811
20
4.62201608309761
30
0
41
1
10
20.5275627523538
20
4.72717640533281
30
0
0
SPLINE
5
119
100
AcDbEntity
8
1
62
256
6
ByLayer
370
18
48
1
60
0
100
AcDbSpline
70
4
71
3
72
10
73
6
40
0
40
0
40
0
40
0
40
0.439486678412954
40
0.704513765296076
40
1
40
1
40
1
40
1
41
1
10
30.3662773138851
20
4.52600002893539
30
0
41
1
10
30.0879761000613
20
4.55422437834196
30
0
41
1
10
29.6418530277981
20
4.60037153794721
30
0
41
1
10
29.0086853491413
20
4.66830273409317
30
0
41
1
10
28.6537220768436
20
4.70684952850968
30
0
41
1
10
28.4665863706002
20
4.7273556856253
30
0
0
LINE
5
77
100
AcDbEntity
8
80
62
256
6
ByLayer
370
18
48
1
60
0
100
AcDbLine
10
0
20
0
30
0
11
-5
21
0
31
0
39
0
210
0
220
0
230
1
0
LINE
5
78
100
AcDbEntity
8
4
62
256
6
ByLayer
370
18
48
0.05
60
0
100
AcDbLine
10
0
20
0
30
0
11
36.5
21
0
31
0
39
0
210
0
220
0
230
1
0
LINE
5
7A
100
AcDbEntity
8
81
62
256
6
ByLayer
370
18
48
1
60
0
100
AcDbLine
10
36.5
20
0
30
0
11
41.5
21
0
31
0
39
0
210
0
220
0
230
1
0
LINE
5
7B
100
AcDbEntity
8
SK4
62
256
6
ByLayer
370
18
48
0.05
60
0
100
AcDbLine
10
-39.7
20
0
30
0
11
36.5
21
0
31
0
39
0
210
0
220
0
230
1
0
LINE
5
7D
100
AcDbEntity
8
1
62
256
6
ByLayer
370
18
48
1
60
0
100
AcDbLine
10
0
20
4.7625
30
0
11
0
21
0
31
0
39
0
210
0
220
0
230
1
0
LINE
5
7E
100
AcDbEntity
8
1
62
256
6
ByLayer
370
18
48
1
60
0
100
AcDbLine
10
0
20
0
30
0
11
0
21
-4.7625
31
0
39
0
210
0
220
0
230
1
0
LINE
5
7F
100
AcDbEntity
8
1
62
256
6
ByLayer
370
18
48
1
60
0
100
AcDbLine
10
36.382423
20
-0.695363
30
0
11
36.320701
21
-0.905977
31
0
39
0
210
0
220
0
230
1
0
LINE
5
80
100
AcDbEntity
8
1
62
256
6
ByLayer
370
18
48
1
60
0
100
AcDbLine
10
36.451494
20
0.157841
30
0
11
36.492757
21
0.16326
31
0
39
0
210
0
220
0
230
1
0
LINE
5
81
100
AcDbEntity
8
1
62
256
6
ByLayer
370
18
48
1
60
0
100
AcDbLine
10
36.492757
20
0.16326
30
0
11
36.471776
21
-1.3E-05
31
0
39
0
210
0
220
0
230
1
0
LINE
5
82
100
AcDbEntity
8
1
62
256
6
ByLayer
370
18
48
1
60
0
100
AcDbLine
10
36.451494
20
-0.157852
30
0
11
36.382423
21
-0.695363
31
0
39
0
210
0
220
0
230
1
0
LINE
5
83
100
AcDbEntity
8
1
62
256
6
ByLayer
370
18
48
1
60
0
100
AcDbLine
10
36.382423
20
-0.695363
30
0
11
36.282363
21
-0.689831
31
0
39
0
210
0
220
0
230
1
0
LINE
5
84
100
AcDbEntity
8
1
62
256
6
ByLayer
370
18
48
1
60
0
100
AcDbLine
10
36.281796
20
-0.691847
30
0
11
36.282363
21
-0.689831
31
0
39
0
210
0
220
0
230
1
0
LINE
5
85
100
AcDbEntity
8
1
62
256
6
ByLayer
370
18
48
1
60
0
100
AcDbLine
10
36.282363
20
-0.689831
30
0
11
36.33308
21
-0.140984
31
0
39
0
210
0
220
0
230
1
0
LINE
5
86
100
AcDbEntity
8
1
62
256
6
ByLayer
370
18
48
1
60
0
100
AcDbLine
10
36.358228
20
4.750234
30
0
11
36.492757
21
4.617872
31
0
39
0
210
0
220
0
230
1
0
LINE
5
87
100
AcDbEntity
8
1
62
256
6
ByLayer
370
18
48
1
60
0
100
AcDbLine
10
36.297277
20
0.979882
30
0
11
36.492757
21
4.617872
31
0
39
0
210
0
220
0
230
1
0
LINE
5
88
100
AcDbEntity
8
1
62
256
6
ByLayer
370
13
48
1
60
0
100
AcDbLine
10
36.12664
20
-0.103559
30
0
11
36.228633
21
-0.281376
31
0
39
0
210
0
220
0
230
1
0
LINE
5
89
100
AcDbEntity
8
1
62
256
6
ByLayer
370
18
48
1
60
0
100
AcDbLine
10
36.250418
20
-0.107822
30
0
11
36.251363
21
-0.125406
31
0
39
0
210
0
220
0
230
1
0
LINE
5
8A
100
AcDbEntity
8
1
62
256
6
ByLayer
370
18
48
1
60
0
100
AcDbLine
10
36.251406
20
-0.126199
30
0
11
36.492757
21
-4.617872
31
0
39
0
210
0
220
0
230
1
0
LINE
5
8B
100
AcDbEntity
8
1
62
256
6
ByLayer
370
18
48
1
60
0
100
AcDbLine
10
36.228633
20
-0.281376
30
0
11
36.220365
21
-0.120552
31
0
39
0
210
0
220
0
230
1
0
LINE
5
8C
100
AcDbEntity
8
1
62
256
6
ByLayer
370
18
48
1
60
0
100
AcDbLine
10
36.358228
20
-4.750234
30
0
11
36.492757
21
-4.617872
31
0
39
0
210
0
220
0
230
1
0
LINE
5
8D
100
AcDbEntity
8
1
62
256
6
ByLayer
370
18
48
1
60
0
100
AcDbLine
10
36.492757
20
-4.617872
30
0
11
36.382423
21
-4.465443
31
0
39
0
210
0
220
0
230
1
0
LINE
5
8E
100
AcDbEntity
8
1
62
256
6
ByLayer
370
18
48
1
60
0
100
AcDbLine
10
36.382423
20
-4.465443
30
0
11
36.320701
21
-4.464185
31
0
39
0
210
0
220
0
230
1
0
LINE
5
8F
100
AcDbEntity
8
1
62
256
6
ByLayer
370
18
48
1
60
0
100
AcDbLine
10
36.382423
20
-4.465443
30
0
11
36.224761
21
-1.465019
31
0
39
0
210
0
220
0
230
1
0
LINE
5
90
100
AcDbEntity
8
1
62
256
6
ByLayer
370
18
48
1
60
0
100
AcDbLine
10
35.883976
20
-2.663223
30
0
11
36.224761
21
-1.465019
31
0
39
0
210
0
220
0
230
1
0
LINE
5
91
100
AcDbEntity
8
1
62
256
6
ByLayer
370
18
48
1
60
0
100
AcDbLine
10
36.224761
20
-1.465019
30
0
11
36.225422
21
-1.452261
31
0
39
0
210
0
220
0
230
1
0
LINE
5
92
100
AcDbEntity
8
1
62
256
6
ByLayer
370
13
48
1
60
0
100
AcDbLine
10
35.926891
20
-0.926982
30
0
11
33.764269
21
-0.519793
31
0
39
0
210
0
220
0
230
1
0
LINE
5
93
100
AcDbEntity
8
1
62
256
6
ByLayer
370
18
48
1
60
0
100
AcDbLine
10
34.490604
20
0.202744
30
0
11
35.88397
21
-0.059606
31
0
39
0
210
0
220
0
230
1
0
LINE
5
94
100
AcDbEntity
8
1
62
256
6
ByLayer
370
18
48
1
60
0
100
AcDbLine
10
36.359578
20
-0.145771
30
0
11
35.88397
21
-0.059606
31
0
39
0
210
0
220
0
230
1
0
LINE
5
95
100
AcDbEntity
8
1
62
256
6
ByLayer
370
18
48
1
60
0
100
AcDbLine
10
36.359578
20
-0.145771
30
0
11
36.492757
21
-0.16326
31
0
39
0
210
0
220
0
230
1
0
LINE
5
96
100
AcDbEntity
8
1
62
256
6
ByLayer
370
18
48
1
60
0
100
AcDbLine
10
36.358228
20
-0.137937
30
0
11
36.492757
21
-0.16326
31
0
39
0
210
0
220
0
230
1
0
LINE
5
97
100
AcDbEntity
8
1
62
256
6
ByLayer
370
18
48
1
60
0
100
AcDbLine
10
36.492757
20
-0.16326
30
0
11
36.382423
21
0.695363
31
0
39
0
210
0
220
0
230
1
0
LINE
5
98
100
AcDbEntity
8
1
62
256
6
ByLayer
370
18
48
1
60
0
100
AcDbLine
10
36.382423
20
0.695363
30
0
11
36.320701
21
0.905977
31
0
39
0
210
0
220
0
230
1
0
LINE
5
99
100
AcDbEntity
8
SK1
62
256
6
ByLayer
370
18
48
1
60
0
100
AcDbLine
10
-39.7
20
-4.1625
30
0
11
-39.7
21
4.1625
31
0
39
0
210
0
220
0
230
1
0
LINE
5
9B
100
AcDbEntity
8
SK1
62
256
6
ByLayer
370
18
48
1
60
0
100
AcDbLine
10
0
20
4.7625
30
0
11
0
21
0
31
0
39
0
210
0
220
0
230
1
0
LINE
5
9C
100
AcDbEntity
8
SK1
62
256
6
ByLayer
370
18
48
1
60
0
100
AcDbLine
10
0
20
0
30
0
11
0
21
-4.7625
31
0
39
0
210
0
220
0
230
1
0
LINE
5
9D
100
AcDbEntity
8
SK1
62
256
6
ByLayer
370
18
48
1
60
0
100
AcDbLine
10
-39.1
20
4.7625
30
0
11
-39.1
21
-4.7625
31
0
39
0
210
0
220
0
230
1
0
LINE
5
9E
100
AcDbEntity
8
SK1
62
256
6
ByLayer
370
18
48
1
60
0
100
AcDbLine
10
-23.455
20
3.4925
30
0
11
-24.725
21
4.7625
31
0
39
0
210
0
220
0
230
1
0
LINE
5
9F
100
AcDbEntity
8
SK1
62
256
6
ByLayer
370
18
48
1
60
0
100
AcDbLine
10
-16.345
20
3.4925
30
0
11
-15.075
21
4.7625
31
0
39
0
210
0
220
0
230
1
0
LINE
5
A0
100
AcDbEntity
8
SK1
62
256
6
ByLayer
370
18
48
1
60
0
100
AcDbLine
10
-23.455
20
3.4925
30
0
11
-16.345
21
3.4925
31
0
39
0
210
0
220
0
230
1
0
LINE
5
A1
100
AcDbEntity
8
1
62
256
6
ByLayer
370
18
48
1
60
0
100
AcDbLine
10
12.984202
20
4.7625
30
0
11
11.205781
21
4.7625
31
0
39
0
210
0
220
0
230
1
0
LINE
5
A2
100
AcDbEntity
8
1
62
256
6
ByLayer
370
18
48
1
60
0
100
AcDbLine
10
7.47416
20
4.7625
30
0
11
0
21
4.7625
31
0
39
0
210
0
220
0
230
1
0
LINE
5
A3
100
AcDbEntity
8
1
62
256
6
ByLayer
370
18
48
1
60
0
100
AcDbLine
10
0
20
-4.7625
30
0
11
7.47416
21
-4.7625
31
0
39
0
210
0
220
0
230
1
0
LINE
5
A4
100
AcDbEntity
8
1
62
256
6
ByLayer
370
18
48
1
60
0
100
AcDbLine
10
11.205781
20
-4.7625
30
0
11
12.984202
21
-4.7625
31
0
39
0
210
0
220
0
230
1
0
LINE
5
A5
100
AcDbEntity
8
SK1
62
256
6
ByLayer
370
18
48
1
60
0
100
AcDbLine
10
-39.7
20
-4.1625
30
0
11
-39.1
21
-4.7625
31
0
39
0
210
0
220
0
230
1
0
LINE
5
A6
100
AcDbEntity
8
SK1
62
256
6
ByLayer
370
18
48
1
60
0
100
AcDbLine
10
-39.1
20
4.7625
30
0
11
-39.7
21
4.1625
31
0
39
0
210
0
220
0
230
1
0
LINE
5
A7
100
AcDbEntity
8
SK1
62
256
6
ByLayer
370
18
48
1
60
0
100
AcDbLine
10
0
20
4.7625
30
0
11
-15.075
21
4.7625
31
0
39
0
210
0
220
0
230
1
0
LINE
5
A8
100
AcDbEntity
8
SK1
62
256
6
ByLayer
370
18
48
1
60
0
100
AcDbLine
10
-24.725
20
4.7625
30
0
11
-39.1
21
4.7625
31
0
39
0
210
0
220
0
230
1
0
LINE
5
A9
100
AcDbEntity
8
SK1
62
256
6
ByLayer
370
18
48
1
60
0
100
AcDbLine
10
-39.1
20
-4.7625
30
0
11
0
21
-4.7625
31
0
39
0
210
0
220
0
230
1
0
LINE
5
AA
100
AcDbEntity
8
SK2
62
256
6
ByLayer
370
18
48
1
60
0
100
AcDbLine
10
-47.35
20
4.7625
30
0
11
-47.35
21
-27.726898
31
0
39
0
210
0
220
0
230
1
0
LINE
5
AC
100
AcDbEntity
8
SK2
62
256
6
ByLayer
370
18
48
1
60
0
100
AcDbLine
10
-40.6875
20
4.7625
30
0
11
-49.35
21
4.7625
31
0
39
0
210
0
220
0
230
1
0
LINE
5
AD
100
AcDbEntity
8
SK2
62
256
6
ByLayer
370
18
48
1
60
0
100
AcDbLine
10
-40.6875
20
-4.7625
30
0
11
-49.35
21
-4.7625
31
0
39
0
210
0
220
0
230
1
0
LINE
5
AE
100
AcDbEntity
8
1
62
256
6
ByLayer
370
18
48
1
60
1
100
AcDbLine
10
-47.35
20
4.7625
30
0
11
-46.889216
21
1.262502
31
0
39
0
210
0
220
0
230
1
0
LINE
5
AF
100
AcDbEntity
8
1
62
256
6
ByLayer
370
18
48
1
60
1
100
AcDbLine
10
-46.889216
20
1.262502
30
0
11
-47.810784
21
1.262498
31
0
39
0
210
0
220
0
230
1
0
LINE
5
B0
100
AcDbEntity
8
1
62
256
6
ByLayer
370
18
48
1
60
1
100
AcDbLine
10
-47.810784
20
1.262498
30
0
11
-47.35
21
4.7625
31
0
39
0
210
0
220
0
230
1
0
LINE
5
B1
100
AcDbEntity
8
1
62
256
6
ByLayer
370
18
48
1
60
1
100
AcDbLine
10
-47.35
20
-4.7625
30
0
11
-47.810784
21
-1.262502
31
0
39
0
210
0
220
0
230
1
0
LINE
5
B2
100
AcDbEntity
8
1
62
256
6
ByLayer
370
18
48
1
60
1
100
AcDbLine
10
-47.810784
20
-1.262502
30
0
11
-46.889216
21
-1.262498
31
0
39
0
210
0
220
0
230
1
0
LINE
5
B3
100
AcDbEntity
8
1
62
256
6
ByLayer
370
18
48
1
60
1
100
AcDbLine
10
-46.889216
20
-1.262498
30
0
11
-47.35
21
-4.7625
31
0
39
0
210
0
220
0
230
1
0
LINE
5
B4
100
AcDbEntity
8
2
62
256
6
ByLayer
370
18
48
1
60
0
100
AcDbLine
10
48.5
20
-4.7626
30
0
11
48.5
21
27.726998
31
0
39
0
210
0
220
0
230
1
0
LINE
5
B6
100
AcDbEntity
8
2
62
256
6
ByLayer
370
18
48
1
60
0
100
AcDbLine
10
38.0875
20
4.7626
30
0
11
50.5
21
4.7626
31
0
39
0
210
0
220
0
230
1
0
LINE
5
B7
100
AcDbEntity
8
2
62
256
6
ByLayer
370
18
48
1
60
0
100
AcDbLine
10
38.0875
20
-4.7626
30
0
11
50.5
21
-4.7626
31
0
39
0
210
0
220
0
230
1
0
LINE
5
B8
100
AcDbEntity
8
1
62
256
6
ByLayer
370
18
48
1
60
1
100
AcDbLine
10
48.5
20
4.7626
30
0
11
48.960784
21
1.262602
31
0
39
0
210
0
220
0
230
1
0
LINE
5
B9
100
AcDbEntity
8
1
62
256
6
ByLayer
370
18
48
1
60
1
100
AcDbLine
10
48.960784
20
1.262602
30
0
11
48.039216
21
1.262598
31
0
39
0
210
0
220
0
230
1
0
LINE
5
BA
100
AcDbEntity
8
1
62
256
6
ByLayer
370
18
48
1
60
1
100
AcDbLine
10
48.039216
20
1.262598
30
0
11
48.5
21
4.7626
31
0
39
0
210
0
220
0
230
1
0
LINE
5
BB
100
AcDbEntity
8
1
62
256
6
ByLayer
370
18
48
1
60
1
100
AcDbLine
10
48.5
20
-4.7626
30
0
11
48.039216
21
-1.262602
31
0
39
0
210
0
220
0
230
1
0
LINE
5
BC
100
AcDbEntity
8
1
62
256
6
ByLayer
370
18
48
1
60
1
100
AcDbLine
10
48.039216
20
-1.262602
30
0
11
48.960784
21
-1.262598
31
0
39
0
210
0
220
0
230
1
0
LINE
5
BD
100
AcDbEntity
8
1
62
256
6
ByLayer
370
18
48
1
60
1
100
AcDbLine
10
48.960784
20
-1.262598
30
0
11
48.5
21
-4.7626
31
0
39
0
210
0
220
0
230
1
0
LINE
5
BE
100
AcDbEntity
8
SK2
62
256
6
ByLayer
370
18
48
1
60
0
100
AcDbLine
10
36.5
20
-34.926632
30
0
11
-39.7
21
-34.926632
31
0
39
0
210
0
220
0
230
1
0
LINE
5
BF
100
AcDbEntity
8
SK2
62
256
6
ByLayer
370
18
48
1
60
0
100
AcDbLine
10
-39.7
20
-5.75
30
0
11
-39.7
21
-36.926632
31
0
39
0
210
0
220
0
230
1
0
LINE
5
C0
100
AcDbEntity
8
SK2
62
256
6
ByLayer
370
18
48
1
60
0
100
AcDbLine
10
36.5
20
-6.3501
30
0
11
36.5
21
-36.926632
31
0
39
0
210
0
220
0
230
1
0
LINE
5
C1
100
AcDbEntity
8
1
62
256
6
ByLayer
370
18
48
1
60
1
100
AcDbLine
10
-39.7
20
-34.926632
30
0
11
-36.200002
21
-34.465848
31
0
39
0
210
0
220
0
230
1
0
LINE
5
C2
100
AcDbEntity
8
1
62
256
6
ByLayer
370
18
48
1
60
1
100
AcDbLine
10
-36.200002
20
-34.465848
30
0
11
-36.199998
21
-35.387416
31
0
39
0
210
0
220
0
230
1
0
LINE
5
C3
100
AcDbEntity
8
1
62
256
6
ByLayer
370
18
48
1
60
1
100
AcDbLine
10
-36.199998
20
-35.387416
30
0
11
-39.7
21
-34.926632
31
0
39
0
210
0
220
0
230
1
0
LINE
5
C4
100
AcDbEntity
8
1
62
256
6
ByLayer
370
18
48
1
60
1
100
AcDbLine
10
36.5
20
-34.926632
30
0
11
33.000002
21
-35.387416
31
0
39
0
210
0
220
0
230
1
0
LINE
5
C5
100
AcDbEntity
8
1
62
256
6
ByLayer
370
18
48
1
60
1
100
AcDbLine
10
33.000002
20
-35.387416
30
0
11
32.999998
21
-34.465848
31
0
39
0
210
0
220
0
230
1
0
LINE
5
C6
100
AcDbEntity
8
1
62
256
6
ByLayer
370
18
48
1
60
1
100
AcDbLine
10
32.999998
20
-34.465848
30
0
11
36.5
21
-34.926632
31
0
39
0
210
0
220
0
230
1
0
LINE
5
11E
100
AcDbEntity
8
1
62
256
6
ByLayer
370
18
48
1
60
1
100
AcDbLine
10
-47.35
20
4.7625
30
0
11
-46.889216
21
1.262502
31
0
39
0
210
0
220
0
230
1
0
LINE
5
11F
100
AcDbEntity
8
1
62
256
6
ByLayer
370
18
48
1
60
1
100
AcDbLine
10
-46.889216
20
1.262502
30
0
11
-47.810784
21
1.262498
31
0
39
0
210
0
220
0
230
1
0
LINE
5
120
100
AcDbEntity
8
1
62
256
6
ByLayer
370
18
48
1
60
1
100
AcDbLine
10
-47.810784
20
1.262498
30
0
11
-47.35
21
4.7625
31
0
39
0
210
0
220
0
230
1
0
LINE
5
122
100
AcDbEntity
8
1
62
256
6
ByLayer
370
18
48
1
60
1
100
AcDbLine
10
-47.35
20
-4.7625
30
0
11
-47.810784
21
-1.262502
31
0
39
0
210
0
220
0
230
1
0
LINE
5
123
100
AcDbEntity
8
1
62
256
6
ByLayer
370
18
48
1
60
1
100
AcDbLine
10
-47.810784
20
-1.262502
30
0
11
-46.889216
21
-1.262498
31
0
39
0
210
0
220
0
230
1
0
LINE
5
124
100
AcDbEntity
8
1
62
256
6
ByLayer
370
18
48
1
60
1
100
AcDbLine
10
-46.889216
20
-1.262498
30
0
11
-47.35
21
-4.7625
31
0
39
0
210
0
220
0
230
1
0
LINE
5
128
100
AcDbEntity
8
1
62
256
6
ByLayer
370
18
48
1
60
1
100
AcDbLine
10
48.5
20
4.7626
30
0
11
48.960784
21
1.262602
31
0
39
0
210
0
220
0
230
1
0
LINE
5
129
100
AcDbEntity
8
1
62
256
6
ByLayer
370
18
48
1
60
1
100
AcDbLine
10
48.960784
20
1.262602
30
0
11
48.039216
21
1.262598
31
0
39
0
210
0
220
0
230
1
0
LINE
5
12A
100
AcDbEntity
8
1
62
256
6
ByLayer
370
18
48
1
60
1
100
AcDbLine
10
48.039216
20
1.262598
30
0
11
48.5
21
4.7626
31
0
39
0
210
0
220
0
230
1
0
LINE
5
12C
100
AcDbEntity
8
1
62
256
6
ByLayer
370
18
48
1
60
1
100
AcDbLine
10
48.5
20
-4.7626
30
0
11
48.039216
21
-1.262602
31
0
39
0
210
0
220
0
230
1
0
LINE
5
12D
100
AcDbEntity
8
1
62
256
6
ByLayer
370
18
48
1
60
1
100
AcDbLine
10
48.039216
20
-1.262602
30
0
11
48.960784
21
-1.262598
31
0
39
0
210
0
220
0
230
1
0
LINE
5
12E
100
AcDbEntity
8
1
62
256
6
ByLayer
370
18
48
1
60
1
100
AcDbLine
10
48.960784
20
-1.262598
30
0
11
48.5
21
-4.7626
31
0
39
0
210
0
220
0
230
1
0
LINE
5
131
100
AcDbEntity
8
1
62
256
6
ByLayer
370
18
48
1
60
1
100
AcDbLine
10
-39.7
20
-34.926632
30
0
11
-36.200002
21
-34.465848
31
0
39
0
210
0
220
0
230
1
0
LINE
5
132
100
AcDbEntity
8
1
62
256
6
ByLayer
370
18
48
1
60
1
100
AcDbLine
10
-36.200002
20
-34.465848
30
0
11
-36.199998
21
-35.387416
31
0
39
0
210
0
220
0
230
1
0
LINE
5
133
100
AcDbEntity
8
1
62
256
6
ByLayer
370
18
48
1
60
1
100
AcDbLine
10
-36.199998
20
-35.387416
30
0
11
-39.7
21
-34.926632
31
0
39
0
210
0
220
0
230
1
0
LINE
5
135
100
AcDbEntity
8
1
62
256
6
ByLayer
370
18
48
1
60
1
100
AcDbLine
10
36.5
20
-34.926632
30
0
11
33.000002
21
-35.387416
31
0
39
0
210
0
220
0
230
1
0
LINE
5
136
100
AcDbEntity
8
1
62
256
6
ByLayer
370
18
48
1
60
1
100
AcDbLine
10
33.000002
20
-35.387416
30
0
11
32.999998
21
-34.465848
31
0
39
0
210
0
220
0
230
1
0
LINE
5
137
100
AcDbEntity
8
1
62
256
6
ByLayer
370
18
48
1
60
1
100
AcDbLine
10
32.999998
20
-34.465848
30
0
11
36.5
21
-34.926632
31
0
39
0
210
0
220
0
230
1
0
MTEXT
5
11A
100
AcDbEntity
8
SK2
62
256
6
ByLayer
370
18
48
1
60
0
100
AcDbMText
10
-48.914634
20
-25.792054
30
0
210
0
220
0
230
1
1
%%c
40
3.5
41
0
44
1.084337
50
90
71
7
72
5
7
iso_b_vert
0
MTEXT
5
11D
100
AcDbEntity
8
SK2
62
256
6
ByLayer
370
18
48
1
60
0
100
AcDbMText
10
-48.914634
20
-18.819398
30
0
210
0
220
0
230
1
1
\W0.7346;9.52
40
3.5
41
0
44
1.084337
50
90
71
7
72
5
7
iso_b_vert
0
MTEXT
5
126
100
AcDbEntity
8
2
62
256
6
ByLayer
370
18
48
1
60
0
100
AcDbMText
10
46.935366
20
12.697444
30
0
210
0
220
0
230
1
1
%%c
40
3.5
41
0
44
1.084337
50
90
71
7
72
5
7
iso_b_vert
0
MTEXT
5
127
100
AcDbEntity
8
2
62
256
6
ByLayer
370
18
48
1
60
0
100
AcDbMText
10
46.935366
20
19.6701
30
0
210
0
220
0
230
1
1
\W0.7346;9.53
40
3.5
41
0
44
1.084337
50
90
71
7
72
5
7
iso_b_vert
0
MTEXT
5
130
100
AcDbEntity
8
SK2
62
256
6
ByLayer
370
18
48
1
60
0
100
AcDbMText
10
-5.521699
20
-33.893999
30
0
210
0
220
0
230
1
1
\W0.7346;76.2
40
3.5
41
0
44
1.084337
50
0
71
7
72
5
7
iso_b_vert
0
MTEXT
5
139
100
AcDbEntity
8
SK6
62
256
6
ByLayer
370
18
48
1
60
0
100
AcDbMText
10
-26.538025
20
-62.114886
30
0
210
0
220
0
230
1
1
\W0.7279;2P342-0953-PB       P2BM
40
3
41
0
44
1.084337
50
0
71
7
72
5
7
iso_b_vert
0
HATCH
5
121
100
AcDbEntity
8
SK2
62
256
6
ByLayer
370
13
48
1
60
0
100
AcDbHatch
10
0
20
0
30
0
210
0
220
0
230
1
2
ANSI31
70
0
71
0
91
1
92
5
93
3
72
1
10
-47.35
20
4.76249999999996
11
-46.8892162584472
21
1.26250169255314
72
1
10
-46.8892162584472
20
1.26250169255314
11
-47.8107837415528
21
1.26249830744678
72
1
10
-47.8107837415528
20
1.26249830744678
11
-47.35
21
4.76249999999996
97
0
75
0
76
1
52
0
41
0.0062
77
0
78
1
53
45
43
0
44
0
45
-0.0139193969876572
46
0.0139193969876572
79
0
47
0
98
1
10
0
20
0
0
HATCH
5
125
100
AcDbEntity
8
SK2
62
256
6
ByLayer
370
13
48
1
60
0
100
AcDbHatch
10
0
20
0
30
0
210
0
220
0
230
1
2
ANSI31
70
0
71
0
91
1
92
5
93
3
72
1
10
-47.35
20
-4.76250000000004
11
-47.8107837415528
21
-1.26250169255323
72
1
10
-47.8107837415528
20
-1.26250169255323
11
-46.8892162584472
21
-1.26249830744686
72
1
10
-46.8892162584472
20
-1.26249830744686
11
-47.35
21
-4.76250000000004
97
0
75
0
76
1
52
0
41
0.0062
77
0
78
1
53
45
43
0
44
0
45
-0.0139193969876572
46
0.0139193969876572
79
0
47
0
98
1
10
0
20
0
0
HATCH
5
12B
100
AcDbEntity
8
2
62
256
6
ByLayer
370
13
48
1
60
0
100
AcDbHatch
10
0
20
0
30
0
210
0
220
0
230
1
2
ANSI31
70
0
71
0
91
1
92
5
93
3
72
1
10
48.5
20
4.76259999999988
11
48.9607837415528
21
1.26260169255306
72
1
10
48.9607837415528
20
1.26260169255306
11
48.0392162584472
21
1.26259830744669
72
1
10
48.0392162584472
20
1.26259830744669
11
48.5
21
4.76259999999988
97
0
75
0
76
1
52
0
41
0.0062
77
0
78
1
53
45
43
0
44
0
45
-0.0139193969876572
46
0.0139193969876572
79
0
47
0
98
1
10
0
20
0
0
HATCH
5
12F
100
AcDbEntity
8
2
62
256
6
ByLayer
370
13
48
1
60
0
100
AcDbHatch
10
0
20
0
30
0
210
0
220
0
230
1
2
ANSI31
70
0
71
0
91
1
92
5
93
3
72
1
10
48.5
20
-4.76260000000013
11
48.0392162584472
21
-1.26260169255332
72
1
10
48.0392162584472
20
-1.26260169255332
11
48.9607837415528
21
-1.26259830744695
72
1
10
48.9607837415528
20
-1.26259830744695
11
48.5
21
-4.76260000000013
97
0
75
0
76
1
52
0
41
0.0062
77
0
78
1
53
45
43
0
44
0
45
-0.0139193969876572
46
0.0139193969876572
79
0
47
0
98
1
10
0
20
0
0
HATCH
5
134
100
AcDbEntity
8
SK2
62
256
6
ByLayer
370
13
48
1
60
0
100
AcDbHatch
10
0
20
0
30
0
210
0
220
0
230
1
2
ANSI31
70
0
71
0
91
1
92
5
93
3
72
1
10
-39.7
20
-34.9266322377384
11
-36.2000016925532
21
-34.4658484961856
72
1
10
-36.2000016925532
20
-34.4658484961856
11
-36.1999983074468
21
-35.3874159792912
72
1
10
-36.1999983074468
20
-35.3874159792912
11
-39.7
21
-34.9266322377384
97
0
75
0
76
1
52
0
41
0.0062
77
0
78
1
53
45
43
0
44
0
45
-0.0139193969876572
46
0.0139193969876572
79
0
47
0
98
1
10
0
20
0
0
HATCH
5
138
100
AcDbEntity
8
SK2
62
256
6
ByLayer
370
13
48
1
60
0
100
AcDbHatch
10
0
20
0
30
0
210
0
220
0
230
1
2
ANSI31
70
0
71
0
91
1
92
5
93
3
72
1
10
36.5
20
-34.9266322377384
11
33.0000016925532
21
-35.3874159792912
72
1
10
33.0000016925532
20
-35.3874159792912
11
32.9999983074468
21
-34.4658484961856
72
1
10
32.9999983074468
20
-34.4658484961856
11
36.5
21
-34.9266322377384
97
0
75
0
76
1
52
0
41
0.0062
77
0
78
1
53
45
43
0
44
0
45
-0.0139193969876572
46
0.0139193969876572
79
0
47
0
98
1
10
0
20
0
0
DIMENSION
5
13C
100
AcDbEntity
8
2
62
256
6
ByLayer
370
18
48
1
60
0
100
AcDbDimension
2
_U0
10
14.27
20
-18.926632
30
0
11
25.385
21
-18.926632
31
0
70
32
71
1
72
1
41
1
210
0
220
0
230
1
3
Standard
100
AcDbAlignedDimension
13
36.5
23
-4.7626
33
0
14
14.27
24
-4.7626
34
0
50
0
100
AcDbRotatedDimension
1001
ACAD
1000
DSTYLE
1002
{
1070
   371
1070
    13
1070
   372
1070
    13
1070
   170
1070
     0
1070
   144
1040
1.0
1070
   277
1070
     2
1070
   284
1070
     8
1070
   278
1070
    46
1070
   146
1040
1.0
1070
   345
1005
16
1070
   347
1005
16
1070
   346
1005
16
1070
   344
1005
0
1070
   343
1005
0
1070
   172
1070
     1
1070
    76
1070
     0
1070
    75
1070
     0
1070
   282
1070
     0
1070
   281
1070
     0
1070
    71
1070
     0
1070
    74
1070
     0
1070
   279
1070
     0
1070
   173
1070
     1
1070
   340
1005
11B
1070
   271
1070
     2
1070
   272
1070
     2
1070
    77
1070
     1
1070
    73
1070
     1
1070
   171
1070
     3
1070
   274
1070
     4
1070
   177
1070
     2
1070
   176
1070
     2
1070
   178
1070
     2
1070
    78
1070
     8
1070
    48
1040
-0.1
1070
    41
1040
3.5
1070
   147
1040
1.75
1070
    42
1040
1.5875
1070
    44
1040
2.0
1070
   140
1040
3.5
1002
}
1001
ACAD_DSTYLE_DIM_LINETYPE
1070
   380
1005
16
1001
ACAD_DSTYLE_DIM_EXT1_LINETYPE
1070
   381
1005
16
1001
ACAD_DSTYLE_DIM_EXT2_LINETYPE
1070
   382
1005
16
0
ENDSEC
0
SECTION
2
OBJECTS
0
DICTIONARY
5
1c5
330
0
100
AcDbDictionary
280
0
281
1
3
ACAD_GROUP
350
1c6
3
ACAD_MLINESTYLE
350
1c7
0
DICTIONARY
5
1c6
330
0
100
AcDbDictionary
280
0
281
1
0
DICTIONARY
5
1c7
330
0
100
AcDbDictionary
280
0
281
1
3
Standard
350
18
0
MLINESTYLE
5
18
330
1c7
100
AcDbMlineStyle
2
Standard
70
0
3

62
256
51
90
52
90
71
2
49
-0.5
62
256
6
ByLayer
49
0.5
62
256
6
ByLayer
0
RASTERVARIABLES
5
1b3
330

100
AcDbRasterVariables
90
0
70
1
71
1
72
1
0
ENDSEC
0
EOF
