0
SECTION
2
HEADER
9
$ACADVER
1
AC1015
9
$DWGCODEPAGE
3
ANSI_1252
9
$HANDSEED
5
1d5
9
$ANGBASE
50
0
9
$ANGDIR
70
0
9
$ATTMODE
70
1
9
$AUNITS
70
0
9
$AUPREC
70
0
9
$CECOLOR
62
256
9
$CELTSCALE
40
1
9
$CELTYPE
6
ByLayer
9
$CELWEIGHT
370
18
9
$CLAYER
8
0
9
$CMLJUST
70
0
9
$CMLSCALE
40
1
9
$CMLSTYLE
2
Standard
9
$DIMSTYLE
2
Standard
9
$TEXTSIZE
40
0.2
9
$TEXTSTYLE
7
Standard
9
$LUNITS
70
2
9
$LUPREC
70
4
9
$EXTNAMES
290
1
9
$INSUNITS
70
4
9
$LTSCALE
40
1
9
$LWDISPLAY
290
1
9
$PDMODE
70
0
9
$PDSIZE
40
0
9
$PLINEGEN
70
0
0
ENDSEC
0
SECTION
2
CLASSES
0
CLASS
1
RASTERVARIABLES
2
AcDbRasterVariables
3
ISM
90
0
280
0
281
0
0
ENDSEC
0
SECTION
2
TABLES
0
TABLE
2
VPORT
5
1cb
100
AcDbSymbolTable
0
VPORT
5
1
100
AcDbSymbolTableRecord
100
AcDbViewportTableRecord
2
*Active
70
0
10
0
20
0
11
1
21
1
12
-1
22
1
13
0
23
0
14
0.5
24
0.5
15
10
25
10
16
0
26
0
36
1
17
0
27
0
37
0
0
ENDTAB
0
TABLE
2
LTYPE
5
1cc
100
AcDbSymbolTable
0
LTYPE
5
14
100
AcDbSymbolTableRecord
100
AcDbLinetypeTableRecord
70
0
2
ByBlock
3

72
65
73
0
40
0
0
LTYPE
5
15
100
AcDbSymbolTableRecord
100
AcDbLinetypeTableRecord
70
0
2
ByLayer
3

72
65
73
0
40
0
0
LTYPE
5
16
100
AcDbSymbolTableRecord
100
AcDbLinetypeTableRecord
70
0
2
Continuous
3
Solid line
72
65
73
0
40
0
0
LTYPE
5
6E
100
AcDbSymbolTableRecord
100
AcDbLinetypeTableRecord
70
0
2
CENTER
3
____ _ ____ _ ____ _ ____
72
65
73
4
40
47.5
49
22
74
0
49
-8.5
74
0
49
8.5
74
0
49
-8.5
74
0
0
LTYPE
5
6F
100
AcDbSymbolTableRecord
100
AcDbLinetypeTableRecord
70
0
2
DASHED
3
__ __ __ __ __ __ __ __ __
72
65
73
2
40
25.72
49
12.86
74
0
49
-12.86
74
0
0
ENDTAB
0
TABLE
2
LAYER
5
1cd
100
AcDbSymbolTable
0
LAYER
5
10
100
AcDbSymbolTableRecord
100
AcDbLayerTableRecord
2
0
70
0
62
7
6
Continuous
290
1
370
-3
390
0
0
LAYER
5
71
100
AcDbSymbolTableRecord
100
AcDbLayerTableRecord
2
81
70
0
62
-3
6
Continuous
290
1
370
-3
390
0
0
LAYER
5
73
100
AcDbSymbolTableRecord
100
AcDbLayerTableRecord
2
80
70
0
62
-6
6
Continuous
290
1
370
-3
390
0
0
LAYER
5
75
100
AcDbSymbolTableRecord
100
AcDbLayerTableRecord
2
1
70
0
62
4
6
Continuous
290
1
370
-3
390
0
0
LAYER
5
79
100
AcDbSymbolTableRecord
100
AcDbLayerTableRecord
2
4
70
0
62
-2
6
CENTER
290
1
370
-3
390
0
0
LAYER
5
AA
100
AcDbSymbolTableRecord
100
AcDbLayerTableRecord
2
2
70
0
62
7
6
Continuous
290
1
370
-3
390
0
0
LAYER
5
142
100
AcDbSymbolTableRecord
100
AcDbLayerTableRecord
2
Defpoints
70
0
62
7
6
Continuous
290
0
370
-3
390
0
0
LAYER
5
1b7
100
AcDbSymbolTableRecord
100
AcDbLayerTableRecord
2
SK4
70
0
62
2
6
CENTER
290
1
370
-3
390
0
0
LAYER
5
1b8
100
AcDbSymbolTableRecord
100
AcDbLayerTableRecord
2
SK1
70
0
62
4
6
Continuous
290
1
370
-3
390
0
0
LAYER
5
1b9
100
AcDbSymbolTableRecord
100
AcDbLayerTableRecord
2
SK2
70
0
62
7
6
Continuous
290
1
370
-3
390
0
0
LAYER
5
1ba
100
AcDbSymbolTableRecord
100
AcDbLayerTableRecord
2
SK6
70
0
62
5
6
Continuous
290
1
370
-3
390
0
0
ENDTAB
0
TABLE
2
STYLE
5
1ce
100
AcDbSymbolTable
0
STYLE
5
11
100
AcDbSymbolTableRecord
100
AcDbTextStyleTableRecord
2
Standard
3
txt
70
0
71
0
40
0
41
1
42
0
50
0
0
STYLE
5
11E
100
AcDbSymbolTableRecord
100
AcDbTextStyleTableRecord
2
iso_b_vert
3
simplex.shx
70
0
71
0
40
0
41
1
42
0
50
0
0
STYLE
5
11F
100
AcDbSymbolTableRecord
100
AcDbTextStyleTableRecord
2
DWGDirectTextStyle
3
simplex
70
0
71
0
40
0
41
1
42
0
50
0
0
ENDTAB
0
TABLE
2
DIMSTYLE
5
1cf
100
AcDbSymbolTable
100
AcDbDimStyleTable
0
DIMSTYLE
105
27
100
AcDbSymbolTableRecord
100
AcDbDimStyleTableRecord
2
Standard
70
0
3
<>
41
0.18
42
0.0625
44
0.18
140
0.18
147
0.09
73
0
74
0
77
1
271
2
275
0
278
52
280
0
340
11
0
ENDTAB
0
TABLE
2
VIEW
5
1d0
100
AcDbSymbolTable
0
ENDTAB
0
TABLE
2
UCS
5
1d1
100
AcDbSymbolTable
0
ENDTAB
0
TABLE
2
APPID
5
1d2
100
AcDbSymbolTable
0
APPID
5
12
100
AcDbSymbolTableRecord
100
AcDbRegAppTableRecord
2
ACAD
70
0
0
APPID
5
13E
100
AcDbSymbolTableRecord
100
AcDbRegAppTableRecord
2
ACAD_DSTYLE_DIMBREAK
70
0
0
APPID
5
176
100
AcDbSymbolTableRecord
100
AcDbRegAppTableRecord
2
ACAD_DSTYLE_DIM_LINETYPE
70
0
0
APPID
5
177
100
AcDbSymbolTableRecord
100
AcDbRegAppTableRecord
2
ACAD_DSTYLE_DIM_EXT1_LINETYPE
70
0
0
APPID
5
178
100
AcDbSymbolTableRecord
100
AcDbRegAppTableRecord
2
ACAD_DSTYLE_DIM_EXT2_LINETYPE
70
0
0
APPID
5
1B3
100
AcDbSymbolTableRecord
100
AcDbRegAppTableRecord
2
ACAD_MLEADERVER
70
0
0
ENDTAB
0
TABLE
2
BLOCK_RECORD
5
1d3
100
AcDbSymbolTable
0
BLOCK_RECORD
5
1F
100
AcDbSymbolTableRecord
100
AcDbBlockTableRecord
2
*Model_Space
340
0
70
0
0
BLOCK_RECORD
5
1B
100
AcDbSymbolTableRecord
100
AcDbBlockTableRecord
2
*Paper_Space
340
0
70
0
0
BLOCK_RECORD
5
23
100
AcDbSymbolTableRecord
100
AcDbBlockTableRecord
2
*Paper_Space0
340
0
70
0
0
BLOCK_RECORD
5
143
100
AcDbSymbolTableRecord
100
AcDbBlockTableRecord
2
*D1
340
0
70
0
0
BLOCK_RECORD
5
14F
100
AcDbSymbolTableRecord
100
AcDbBlockTableRecord
2
_U0
340
0
70
0
0
ENDTAB
0
ENDSEC
0
SECTION
2
BLOCKS
0
BLOCK
5
20
100
AcDbEntity
8
0
100
AcDbBlockBegin
2
*Model_Space
70
0
10
0
20
0
30
0
3
*Model_Space
0
ENDBLK
5
21
100
AcDbEntity
8
0
100
AcDbBlockEnd
0
BLOCK
5
1C
100
AcDbEntity
8
0
100
AcDbBlockBegin
2
*Paper_Space
70
0
10
0
20
0
30
0
3
*Paper_Space
0
ENDBLK
5
1D
100
AcDbEntity
8
0
100
AcDbBlockEnd
0
BLOCK
5
24
100
AcDbEntity
8
0
100
AcDbBlockBegin
2
*Paper_Space0
70
0
10
0
20
0
30
0
3
*Paper_Space0
0
ENDBLK
5
25
100
AcDbEntity
8
0
100
AcDbBlockEnd
0
BLOCK
5
144
100
AcDbEntity
8
0
100
AcDbBlockBegin
2
*D1
70
1
10
0
20
0
30
0
3
*D1
0
LINE
5
146
100
AcDbEntity
8
0
62
256
6
ByLayer
370
-2
48
1
60
0
100
AcDbLine
10
38
20
-7.5876
30
0
11
38
21
-22.388246
31
0
39
0
210
0
220
0
230
1
0
LINE
5
147
100
AcDbEntity
8
0
62
256
6
ByLayer
370
-2
48
1
60
0
100
AcDbLine
10
12
20
-7.5876
30
0
11
12
21
-22.388246
31
0
39
0
210
0
220
0
230
1
0
LINE
5
148
100
AcDbEntity
8
0
62
256
6
ByLayer
370
-2
48
1
60
0
100
AcDbLine
10
34.5
20
-20.388246
30
0
11
15.5
21
-20.388246
31
0
39
0
210
0
220
0
230
1
0
SOLID
5
149
100
AcDbEntity
8
0
62
256
6
ByLayer
370
-1
48
1
60
0
100
AcDbTrace
10
34.5
20
-20.97158
30
0
11
34.5
21
-19.804913
31
0
12
38
22
-20.388246
32
0
13
38
23
-20.388246
33
0
39
0
210
0
220
0
230
1
0
SOLID
5
14A
100
AcDbEntity
8
0
62
256
6
ByLayer
370
-1
48
1
60
0
100
AcDbTrace
10
15.5
20
-19.804913
30
0
11
15.5
21
-20.97158
31
0
12
12
22
-20.388246
32
0
13
12
23
-20.388246
33
0
39
0
210
0
220
0
230
1
0
MTEXT
5
14B
100
AcDbEntity
8
0
62
256
6
ByLayer
370
18
48
1
60
0
100
AcDbMText
10
25
20
-13.388246
30
0
210
0
220
0
230
1
1
\A1;26
40
3.5
41
0
44
1
50
0
71
5
72
5
7
iso_b_vert
0
POINT
5
14C
100
AcDbEntity
8
Defpoints
62
0
6
ByLayer
370
-1
48
1
60
0
100
AcDbPoint
10
38
20
-6.0001
30
0
39
0
210
0
220
0
230
1
50
360
0
POINT
5
14D
100
AcDbEntity
8
Defpoints
62
0
6
ByLayer
370
-1
48
1
60
0
100
AcDbPoint
10
12
20
-6.0001
30
0
39
0
210
0
220
0
230
1
50
360
0
POINT
5
14E
100
AcDbEntity
8
Defpoints
62
0
6
ByLayer
370
-1
48
1
60
0
100
AcDbPoint
10
12
20
-20.388246
30
0
39
0
210
0
220
0
230
1
50
360
0
ENDBLK
5
145
100
AcDbEntity
8
0
100
AcDbBlockEnd
0
BLOCK
5
156
100
AcDbEntity
8
0
100
AcDbBlockBegin
2
_U0
70
0
10
0
20
0
30
0
3
_U0
0
MTEXT
5
150
100
AcDbEntity
8
2
62
256
6
ByLayer
370
18
48
1
60
0
100
AcDbMText
10
23.095034
20
-19.355613
30
0
210
0
220
0
230
1
1
\W0.6740;26
40
3.5
41
0
44
1.084337
50
0
71
7
72
5
7
iso_b_vert
0
LINE
5
151
100
AcDbEntity
8
2
62
256
6
ByLayer
370
13
48
1
60
0
100
AcDbLine
10
38
20
-7.5876
30
0
11
38
21
-22.388246
31
0
39
0
210
0
220
0
230
1
0
LINE
5
152
100
AcDbEntity
8
2
62
256
6
ByLayer
370
13
48
1
60
0
100
AcDbLine
10
12
20
-7.5876
30
0
11
12
21
-22.388246
31
0
39
0
210
0
220
0
230
1
0
LINE
5
153
100
AcDbEntity
8
2
62
256
6
ByLayer
370
13
48
1
60
0
100
AcDbLine
10
38
20
-20.388246
30
0
11
12
21
-20.388246
31
0
39
0
210
0
220
0
230
1
0
SOLID
5
154
100
AcDbEntity
8
2
62
256
6
ByLayer
370
18
48
1
60
0
100
AcDbTrace
10
38
20
-20.388246
30
0
11
34.500002
21
-20.84903
31
0
12
34.499998
22
-19.927463
32
0
13
34.499998
23
-19.927463
33
0
39
0
210
0
220
0
230
1
0
SOLID
5
155
100
AcDbEntity
8
2
62
256
6
ByLayer
370
18
48
1
60
0
100
AcDbTrace
10
12
20
-20.388246
30
0
11
15.499998
21
-19.927463
31
0
12
15.500002
22
-20.84903
32
0
13
15.500002
23
-20.84903
33
0
39
0
210
0
220
0
230
1
0
ENDBLK
5
157
100
AcDbEntity
8
0
100
AcDbBlockEnd
0
ENDSEC
0
SECTION
2
ENTITIES
0
ELLIPSE
5
BC
100
AcDbEntity
8
1
62
256
6
ByLayer
370
18
48
1
60
0
100
AcDbEllipse
10
37.580158
20
-0.346518
30
0
11
0.0744334085854901
21
-1.44023139325902
31
0
210
0
220
0
230
1
40
0.053243
41
1.13864481393972
42
1.56967956723672
0
ELLIPSE
5
BD
100
AcDbEntity
8
1
62
256
6
ByLayer
370
18
48
1
60
0
100
AcDbEllipse
10
37.543677
20
-0.755816
30
0
11
0.0786426865573461
21
-0.693778977249246
31
0
210
0
220
0
230
1
40
0.172232
41
0.881485925197735
42
1.27346023446731
0
ELLIPSE
5
BE
100
AcDbEntity
8
1
62
256
6
ByLayer
370
18
48
1
60
0
100
AcDbEllipse
10
37.580158
20
-0.346518
30
0
11
0.0744334086100354
21
-1.44023139358433
31
0
210
0
220
0
230
1
40
0.053243
41
-0.00591887943700407
42
0.945256924373089
0
ELLIPSE
5
BF
100
AcDbEntity
8
1
62
256
6
ByLayer
370
18
48
1
60
0
100
AcDbEllipse
10
37.371982
20
-0.716559
30
0
11
0.228241874527638
21
-0.702832017730957
31
0
210
0
220
0
230
1
40
0.481231
41
2.92045412033892
42
-2.1812097994808
0
ELLIPSE
5
C0
100
AcDbEntity
8
1
62
256
6
ByLayer
370
18
48
1
60
0
100
AcDbEllipse
10
57.282757
20
-34.423693
30
0
11
22.0157466624321
21
-36.9765950562669
31
0
210
0
220
0
230
1
40
0.008434
41
-2.69589572094558
42
-2.65723900487323
0
ELLIPSE
5
C1
100
AcDbEntity
8
1
62
256
6
ByLayer
370
13
48
1
60
0
100
AcDbEllipse
10
12.777205
20
41.947784
30
0
11
45.1234436675072
21
-56.8289880208736
31
0
210
0
220
0
230
1
40
0.409005
41
-1.23815520508338
42
-1.14545478920447
0
ELLIPSE
5
C2
100
AcDbEntity
8
1
62
256
6
ByLayer
370
13
48
1
60
0
100
AcDbEllipse
10
12.777205
20
-60.304617
30
0
11
38.5172485947979
21
-61.4986228185464
31
0
210
0
220
0
230
1
40
0.537532
41
2.34487039382835
42
2.42307913037162
0
ELLIPSE
5
C3
100
AcDbEntity
8
1
62
256
6
ByLayer
370
13
48
1
60
0
100
AcDbEllipse
10
12.777205
20
-66.156876
30
0
11
33.2510738372553
21
-64.4982568490086
31
0
210
0
220
0
230
1
40
0.594594
41
2.47760802137027
42
2.49175854690858
0
POINT
5
70
100
AcDbEntity
8
81
62
256
6
ByLayer
370
18
48
1
60
0
100
AcDbPoint
10
38
20
0
30
0
39
0
210
0
220
0
230
1
50
360
0
POINT
5
72
100
AcDbEntity
8
80
62
256
6
ByLayer
370
18
48
1
60
0
100
AcDbPoint
10
0
20
0
30
0
39
0
210
0
220
0
230
1
50
360
0
POINT
5
74
100
AcDbEntity
8
1
62
256
6
ByLayer
370
18
48
1
60
1
100
AcDbPoint
10
38
20
-6.0001
30
0
39
0
210
0
220
0
230
1
50
360
0
POINT
5
76
100
AcDbEntity
8
1
62
256
6
ByLayer
370
18
48
1
60
1
100
AcDbPoint
10
12
20
-6.0001
30
0
39
0
210
0
220
0
230
1
50
360
0
SPLINE
5
C4
100
AcDbEntity
8
1
62
256
6
ByLayer
370
18
48
1
60
0
100
AcDbSpline
70
4
71
3
72
8
73
4
40
0
40
0
40
0
40
0
40
1
40
1
40
1
40
1
41
1
10
37.747457453693
20
-1.29013244719286
30
0
41
1
10
37.7633074091424
20
-1.23680034996957
30
0
41
1
10
37.7791568575258
20
-1.18346758730752
30
0
41
1
10
37.795005832873
20
-1.13013421272737
30
0
0
SPLINE
5
C5
100
AcDbEntity
8
1
62
256
6
ByLayer
370
18
48
1
60
0
100
AcDbSpline
70
4
71
3
72
18
73
14
40
0
40
0
40
0
40
0
40
0.249999999999987
40
0.249999999999987
40
0.374999999999988
40
0.374999999999988
40
0.499999999999989
40
0.499999999999989
40
0.749999999999997
40
0.749999999999997
40
0.874999999999998
40
0.874999999999998
40
1
40
1
40
1
40
1
41
1
10
37.7950214056689
20
-1.13006886577102
30
0
41
1
10
37.7971692569563
20
-1.12062827087988
30
0
41
1
10
37.7991185230993
20
-1.11174319605942
30
0
41
1
10
37.8016503701755
20
-1.09951230650449
30
0
41
1
10
37.8024303957129
20
-1.09560837546178
30
0
41
1
10
37.8038140051293
20
-1.08835321552573
30
0
41
1
10
37.804420830198
20
-1.08498722417849
30
0
41
1
10
37.8059632974869
20
-1.07574502815425
30
0
41
1
10
37.8066226394446
20
-1.07071934490736
30
0
41
1
10
37.8069393097318
20
-1.06525045915438
30
0
41
1
10
37.8069305357835
20
-1.06377559483039
30
0
41
1
10
37.8066750186655
20
-1.06162952883938
30
0
41
1
10
37.8064295716773
20
-1.06094583367516
30
0
41
1
10
37.8060668829052
20
-1.06064999874647
30
0
0
SPLINE
5
C6
100
AcDbEntity
8
1
62
256
6
ByLayer
370
18
48
1
60
0
100
AcDbSpline
70
4
71
3
72
8
73
4
40
0
40
0
40
0
40
0
40
1
40
1
40
1
40
1
41
1
10
37.9420683653459
20
-0.0076786276357552
30
0
41
1
10
37.896734537868
20
-0.358669084660136
30
0
41
1
10
37.8514007103901
20
-0.709659541684573
30
0
41
1
10
37.8060668829122
20
-1.06064999870898
30
0
0
SPLINE
5
C7
100
AcDbEntity
8
1
62
256
6
ByLayer
370
18
48
1
60
0
100
AcDbSpline
70
4
71
3
72
8
73
4
40
0
40
0
40
0
40
0
40
1
40
1
40
1
40
1
41
1
10
37.9436440304343
20
0.0045207263731868
30
0
41
1
10
37.943025985573
20
0.0059934633563614
30
0
41
1
10
37.9423842909846
20
0.0072759527665198
30
0
41
1
10
37.9417185923356
20
0.0083653442077889
30
0
0
SPLINE
5
C8
100
AcDbEntity
8
1
62
256
6
ByLayer
370
18
48
1
60
0
100
AcDbSpline
70
4
71
3
72
8
73
4
40
0
40
0
40
0
40
0
40
1
40
1
40
1
40
1
41
1
10
37.9436440304345
20
4.93462993577123
30
0
41
1
10
37.9430260346074
20
4.92095768675523
30
0
41
1
10
37.9423843440708
20
4.90725887133576
30
0
41
1
10
37.9417185923365
20
4.89353307860767
30
0
0
SPLINE
5
C9
100
AcDbEntity
8
1
62
256
6
ByLayer
370
18
48
1
60
0
100
AcDbSpline
70
4
71
3
72
36
73
32
40
0
40
0
40
0
40
0
40
0.124999999999985
40
0.124999999999985
40
0.187499999999978
40
0.187499999999978
40
0.24999999999997
40
0.24999999999997
40
0.374999999999934
40
0.374999999999934
40
0.437499999999906
40
0.437499999999906
40
0.468749999999901
40
0.468749999999901
40
0.499999999999895
40
0.499999999999895
40
0.624999999999923
40
0.624999999999923
40
0.687499999999938
40
0.687499999999938
40
0.718749999999945
40
0.718749999999945
40
0.749999999999952
40
0.749999999999952
40
0.874999999999972
40
0.874999999999972
40
0.906249999999979
40
0.906249999999979
40
0.937499999999986
40
0.937499999999986
40
1
40
1
40
1
40
1
41
1
10
37.0721826050609
20
5.92847701935736
30
0
41
1
10
37.1316216190677
20
5.92500365734887
30
0
41
1
10
37.1898562765286
20
5.91599452629663
30
0
41
1
10
37.2754272102986
20
5.8942223427199
30
0
41
1
10
37.3036518852202
20
5.88558022202602
30
0
41
1
10
37.3594832819097
20
5.8654333164977
30
0
41
1
10
37.3871735794257
20
5.85387394871597
30
0
41
1
10
37.4676484688081
20
5.81550596986821
30
0
41
1
10
37.5183790856125
20
5.7848682816668
30
0
41
1
10
37.5900191302643
20
5.73139584056605
30
0
41
1
10
37.6131523570277
20
5.71231343573246
30
0
41
1
10
37.6466897615361
20
5.68171127240984
30
0
41
1
10
37.6577043125519
20
5.67115015146771
30
0
41
1
10
37.6791594428542
20
5.64951910505852
30
0
41
1
10
37.6895993356165
20
5.63845499368426
30
0
41
1
10
37.7403754152486
20
5.58192778052009
30
0
41
1
10
37.7764796187086
20
5.53289107204785
30
0
41
1
10
37.8237223738801
20
5.45357379786489
30
0
41
1
10
37.8383100560204
20
5.42616133204203
30
0
41
1
10
37.8583604190238
20
5.38353345150568
30
0
41
1
10
37.8647056611062
20
5.36913746522399
30
0
41
1
10
37.8766548581032
20
5.3401375691171
30
0
41
1
10
37.8822705801105
20
5.32550901747464
30
0
41
1
10
37.9085698651738
20
5.25173481720969
30
0
41
1
10
37.923966216512
20
5.19070790324062
30
0
41
1
10
37.9358809079903
20
5.11192518514127
30
0
41
1
10
37.9378939576977
20
5.09604239312114
30
0
41
1
10
37.9411592559573
20
5.06401836119795
30
0
41
1
10
37.942408793502
20
5.04788742023376
30
0
41
1
10
37.9449707593368
20
4.99949932484654
30
0
41
1
10
37.9451127419492
20
4.96712301854632
30
0
41
1
10
37.9436440304338
20
4.93462993575722
30
0
0
SPLINE
5
CA
100
AcDbEntity
8
1
62
256
6
ByLayer
370
18
48
1
60
0
100
AcDbSpline
70
4
71
3
72
26
73
22
40
0
40
0
40
0
40
0
40
0.124999999999992
40
0.124999999999992
40
0.187499999999986
40
0.187499999999986
40
0.249999999999979
40
0.249999999999979
40
0.499999999999944
40
0.499999999999944
40
0.562499999999935
40
0.562499999999935
40
0.624999999999925
40
0.624999999999925
40
0.749999999999938
40
0.749999999999938
40
0.812499999999945
40
0.812499999999945
40
0.874999999999951
40
0.874999999999951
40
1
40
1
40
1
40
1
41
1
10
37.9417185923395
20
4.89353307860779
30
0
41
1
10
37.9408578991835
20
4.93029979926092
30
0
41
1
10
37.9375998332199
20
4.96678023485501
30
0
41
1
10
37.9290995511312
20
5.02106941578077
30
0
41
1
10
37.9256709053485
20
5.03909473072252
30
0
41
1
10
37.9175594865637
20
5.07499559754834
30
0
41
1
10
37.9128495829927
20
5.09294022320898
30
0
41
1
10
37.886380545583
20
5.1811289193748
30
0
41
1
10
37.856105938201
20
5.24715300817013
30
0
41
1
10
37.807032040285
20
5.32409596546097
30
0
41
1
10
37.7966060616441
20
5.33925732642626
30
0
41
1
10
37.7748322658705
20
5.36868294959029
30
0
41
1
10
37.7634976436738
20
5.38294272869643
30
0
41
1
10
37.7282081842875
20
5.42442123138471
30
0
41
1
10
37.7029595824113
20
5.45033085156194
30
0
41
1
10
37.6626045216517
20
5.48668369571365
30
0
41
1
10
37.6487374234459
20
5.49838097407755
30
0
41
1
10
37.6201735070167
20
5.52093597372843
30
0
41
1
10
37.6054286490768
20
5.53182477774641
30
0
41
1
10
37.5604360623672
20
5.56289557397534
30
0
41
1
10
37.5293753958314
20
5.58154550044176
30
0
41
1
10
37.4973600608418
20
5.59834636529274
30
0
0
SPLINE
5
CB
100
AcDbEntity
8
1
62
256
6
ByLayer
370
18
48
1
60
0
100
AcDbSpline
70
4
71
3
72
18
73
14
40
0
40
0
40
0
40
0
40
0.125000000000014
40
0.125000000000014
40
0.250000000000029
40
0.250000000000029
40
0.500000000000028
40
0.500000000000028
40
0.625000000000027
40
0.625000000000027
40
0.750000000000025
40
0.750000000000025
40
1
40
1
40
1
40
1
41
1
10
37.6859036689126
20
-1.18661069734966
30
0
41
1
10
37.681920580359
20
-1.1768714857011
30
0
41
1
10
37.6784472496112
20
-1.16699033183073
30
0
41
1
10
37.6725443493764
20
-1.14692686683029
30
0
41
1
10
37.6701147992407
20
-1.13671300763673
30
0
41
1
10
37.6644908913509
20
-1.1062810511014
30
0
41
1
10
37.6628762095069
20
-1.08605787737011
30
0
41
1
10
37.6630341692635
20
-1.05565576452986
30
0
41
1
10
37.6635222419086
20
-1.04547485808942
30
0
41
1
10
37.6652531172156
20
-1.02529015565418
30
0
41
1
10
37.6664921572722
20
-1.0152789611129
30
0
41
1
10
37.6711728373792
20
-0.985415067168475
30
0
41
1
10
37.6755690442856
20
-0.965728564216448
30
0
41
1
10
37.6809652275157
20
-0.946124890404917
30
0
0
SPLINE
5
CC
100
AcDbEntity
8
1
62
256
6
ByLayer
370
18
48
1
60
0
100
AcDbSpline
70
4
71
3
72
8
73
4
40
0
40
0
40
0
40
0
40
1
40
1
40
1
40
1
41
1
10
37.9436440304345
20
-4.93462993577356
30
0
41
1
10
37.9430260346074
20
-4.92095768675702
30
0
41
1
10
37.9423843440708
20
-4.90725887133698
30
0
41
1
10
37.9417185923365
20
-4.89353307860833
30
0
0
SPLINE
5
CD
100
AcDbEntity
8
1
62
256
6
ByLayer
370
18
48
1
60
0
100
AcDbSpline
70
4
71
3
72
36
73
32
40
0
40
0
40
0
40
0
40
0.125000000000001
40
0.125000000000001
40
0.187500000000002
40
0.187500000000002
40
0.250000000000003
40
0.250000000000003
40
0.375000000000025
40
0.375000000000025
40
0.437500000000026
40
0.437500000000026
40
0.468750000000027
40
0.468750000000027
40
0.500000000000027
40
0.500000000000027
40
0.625000000000027
40
0.625000000000027
40
0.68750000000002
40
0.68750000000002
40
0.718750000000016
40
0.718750000000016
40
0.750000000000012
40
0.750000000000012
40
0.875000000000004
40
0.875000000000004
40
0.906250000000003
40
0.906250000000003
40
0.937500000000002
40
0.937500000000002
40
1
40
1
40
1
40
1
41
1
10
37.0721826050607
20
-5.92847701935764
30
0
41
1
10
37.1316216190675
20
-5.92500365734918
30
0
41
1
10
37.1898562765282
20
-5.915994526297
30
0
41
1
10
37.2754272102981
20
-5.8942223427203
30
0
41
1
10
37.3036518852196
20
-5.88558022202645
30
0
41
1
10
37.359483281909
20
-5.86543331649818
30
0
41
1
10
37.387173579425
20
-5.85387394871651
30
0
41
1
10
37.4676484688073
20
-5.81550596986892
30
0
41
1
10
37.5183790856117
20
-5.78486828166757
30
0
41
1
10
37.5900191302634
20
-5.73139584056702
30
0
41
1
10
37.6131523570268
20
-5.71231343573348
30
0
41
1
10
37.6466897615351
20
-5.68171127241101
30
0
41
1
10
37.6577043125509
20
-5.67115015146888
30
0
41
1
10
37.6791594428533
20
-5.64951910505977
30
0
41
1
10
37.6895993356155
20
-5.63845499368554
30
0
41
1
10
37.7403754152477
20
-5.58192778052151
30
0
41
1
10
37.7764796187077
20
-5.53289107204944
30
0
41
1
10
37.8237223738791
20
-5.45357379786668
30
0
41
1
10
37.8383100560195
20
-5.4261613320439
30
0
41
1
10
37.8583604190229
20
-5.3835334515077
30
0
41
1
10
37.8647056611053
20
-5.36913746522606
30
0
41
1
10
37.8766548581025
20
-5.34013756911924
30
0
41
1
10
37.8822705801097
20
-5.3255090174768
30
0
41
1
10
37.9085698651732
20
-5.25173481721203
30
0
41
1
10
37.9239662165114
20
-5.19070790324309
30
0
41
1
10
37.9358809079899
20
-5.11192518514392
30
0
41
1
10
37.9378939576974
20
-5.09604239312384
30
0
41
1
10
37.9411592559571
20
-5.06401836120074
30
0
41
1
10
37.9424087935019
20
-5.04788742023655
30
0
41
1
10
37.9449707593367
20
-4.99949932484941
30
0
41
1
10
37.9451127419492
20
-4.96712301854654
30
0
41
1
10
37.9436440304338
20
-4.9346299357575
30
0
0
SPLINE
5
CE
100
AcDbEntity
8
1
62
256
6
ByLayer
370
13
48
1
60
0
100
AcDbSpline
70
4
71
3
72
8
73
4
40
0
40
0
40
0
40
0
40
1
40
1
40
1
40
1
41
1
10
37.9436440304416
20
-4.93462993577864
30
0
41
1
10
37.8977849812651
20
-4.85724402110634
30
0
41
1
10
37.8519259320887
20
-4.77985810643403
30
0
41
1
10
37.8060668829122
20
-4.70247219176173
30
0
0
SPLINE
5
CF
100
AcDbEntity
8
1
62
256
6
ByLayer
370
18
48
1
60
0
100
AcDbSpline
70
4
71
3
72
16
73
12
40
0
40
0
40
0
40
0
40
0.129970178232306
40
0.25695095604202
40
0.380942041817015
40
0.501943180416166
40
0.619954151117671
40
0.734974765604492
40
0.847004865989934
40
0.956044322886079
40
1
40
1
40
1
40
1
41
1
10
10.2242871954328
20
-3.177727979406
30
0
41
1
10
10.2230524765175
20
-3.17267954143298
30
0
41
1
10
10.2206114380421
20
-3.16269878291337
30
0
41
1
10
10.2170063213134
20
-3.14816850224705
30
0
41
1
10
10.2134928667094
20
-3.1341671977396
30
0
41
1
10
10.2100695807765
20
-3.12070030176852
30
0
41
1
10
10.2067338162344
20
-3.10774978306944
30
0
41
1
10
10.20348357081
20
-3.0953038895064
30
0
41
1
10
10.2003170025629
20
-3.08334948436033
30
0
41
1
10
10.1978180237479
20
-3.07405229231273
30
0
41
1
10
10.1963740812488
20
-3.06873708979862
30
0
41
1
10
10.1959591078527
20
-3.06721431861794
30
0
0
SPLINE
5
D0
100
AcDbEntity
8
1
62
256
6
ByLayer
370
18
48
1
60
0
100
AcDbSpline
70
4
71
3
72
45
73
41
40
0
40
0
40
0
40
0
40
0.0321658741020515
40
0.0645864713514693
40
0.0972590725353405
40
0.130180924554781
40
0.163349245589514
40
0.19676126458728
40
0.230414234887382
40
0.264305431917139
40
0.298432157199789
40
0.33279175081188
40
0.367381613126287
40
0.40219923659064
40
0.437242248171157
40
0.472508456436553
40
0.507995855575179
40
0.543702576713414
40
0.579626836232532
40
0.615766893041163
40
0.652121017597617
40
0.688687477321142
40
0.725464554013909
40
0.740301869894821
40
0.755304176930314
40
0.770471253094137
40
0.785802880098653
40
0.801298844344371
40
0.816958937943209
40
0.83278295962264
40
0.848770715101905
40
0.86492201719226
40
0.88123668584719
40
0.897714548176771
40
0.914355438430017
40
0.93115919795082
40
0.948125675113049
40
0.965254725243268
40
0.982546210539848
40
1
40
1
40
1
40
1
41
1
10
37.7950182851995
20
-4.84139456500534
30
0
41
1
10
37.7939266420587
20
-4.85143360281535
30
0
41
1
10
37.7917347110011
20
-4.87159117807209
30
0
41
1
10
37.7872701120386
20
-4.9017154814251
30
0
41
1
10
37.7819142900906
20
-4.93186243571725
30
0
41
1
10
37.7755718570235
20
-4.96197863847217
30
0
41
1
10
37.7682565593812
20
-4.99202837494482
30
0
41
1
10
37.7599546710085
20
-5.02197046818867
30
0
41
1
10
37.7506619476411
20
-5.05176466029914
30
0
41
1
10
37.7403736250286
20
-5.08137000080094
30
0
41
1
10
37.729087138109
20
-5.11074539690168
30
0
41
1
10
37.7168013851736
20
-5.1398495826713
30
0
41
1
10
37.7035169179392
20
-5.16864125265113
30
0
41
1
10
37.689235870476
20
-5.19707915839322
30
0
41
1
10
37.6739619481922
20
-5.22512222070279
30
0
41
1
10
37.6577004003201
20
-5.25272963018063
30
0
41
1
10
37.6404579956312
20
-5.27986091596259
30
0
41
1
10
37.6222429903534
20
-5.3064759659876
30
0
41
1
10
37.6030650897875
20
-5.33253503051148
30
0
41
1
10
37.5829354323972
20
-5.3579986825344
30
0
41
1
10
37.5618664533214
20
-5.3828278930223
30
0
41
1
10
37.5398721555623
20
-5.40698363831766
30
0
41
1
10
37.5215650669246
20
-5.42572174519765
30
0
41
1
10
37.5074149241054
20
-5.43950546762866
30
0
41
1
10
37.4977315322761
20
-5.4486712951603
30
0
41
1
10
37.4878177309858
20
-5.45778635542848
30
0
41
1
10
37.4776716669718
20
-5.46684401705048
30
0
41
1
10
37.4672916355406
20
-5.4758375160437
30
0
41
1
10
37.4566760339168
20
-5.48475999554003
30
0
41
1
10
37.4458233788385
20
-5.4936044978565
30
0
41
1
10
37.4347323070867
20
-5.50236397005992
30
0
41
1
10
37.4234015789385
20
-5.51103126214255
30
0
41
1
10
37.4118300876947
20
-5.51959914013409
30
0
41
1
10
37.4000168418619
20
-5.52806024605329
30
0
41
1
10
37.3879610521146
20
-5.53640725846123
30
0
41
1
10
37.3756618210037
20
-5.54463229358819
30
0
41
1
10
37.3631193370739
20
-5.55272918241459
30
0
41
1
10
37.350330372544
20
-5.56068485823994
30
0
41
1
10
37.3373053467126
20
-5.56851197024528
30
0
41
1
10
37.3284788299528
20
-5.57356403243031
30
0
41
1
10
37.3240449561017
20
-5.57610186326733
30
0
0
SPLINE
5
D1
100
AcDbEntity
8
1
62
256
6
ByLayer
370
18
48
1
60
0
100
AcDbSpline
70
4
71
3
72
8
73
4
40
0
40
0
40
0
40
0
40
1
40
1
40
1
40
1
41
1
10
37.4870657100718
20
-4.71906900724261
30
0
41
1
10
37.5897384091585
20
-4.76040651839688
30
0
41
1
10
37.6923820378478
20
-4.80111966363921
30
0
41
1
10
37.7950058328729
20
-4.84141467123121
30
0
0
SPLINE
5
D2
100
AcDbEntity
8
1
62
256
6
ByLayer
370
18
48
1
60
0
100
AcDbSpline
70
4
71
3
72
18
73
14
40
0
40
0
40
0
40
0
40
0.250000000000003
40
0.250000000000003
40
0.375000000000003
40
0.375000000000003
40
0.500000000000003
40
0.500000000000003
40
0.749999999999991
40
0.749999999999991
40
0.874999999999996
40
0.874999999999996
40
1
40
1
40
1
40
1
41
1
10
37.7950214056688
20
-4.84136330339874
30
0
41
1
10
37.7971692569562
20
-4.83237885129489
30
0
41
1
10
37.7991185230993
20
-4.82281572838485
30
0
41
1
10
37.8016503701755
20
-4.80732861653937
30
0
41
1
10
37.8024303957129
20
-4.80195427458543
30
0
41
1
10
37.8038140051293
20
-4.79095403687569
30
0
41
1
10
37.8044208301979
20
-4.78531229052237
30
0
41
1
10
37.8059632974869
20
-4.76792372205725
30
0
41
1
10
37.8066226394445
20
-4.75571641652587
30
0
41
1
10
37.8069393097318
20
-4.73628492855818
30
0
41
1
10
37.8069305357834
20
-4.72960016314474
30
0
41
1
10
37.8066750186655
20
-4.71614995213818
30
0
41
1
10
37.8064295716771
20
-4.70934890076296
30
0
41
1
10
37.8060668829051
20
-4.70247219174203
30
0
0
SPLINE
5
D3
100
AcDbEntity
8
1
62
256
6
ByLayer
370
18
48
1
60
0
100
AcDbSpline
70
4
71
5
72
47
73
41
40
0
40
0
40
0
40
0
40
0
40
0
40
0.0073671675733225
40
0.0298690710817437
40
0.0636219263443756
40
0.0861238298527968
40
0.119876685115429
40
0.14237858862385
40
0.176131443886482
40
0.209884299149114
40
0.232386202657535
40
0.254888106165956
40
0.288640961428588
40
0.32239381669122
40
0.344895720199641
40
0.378648575462273
40
0.412401430724905
40
0.434903334233325
40
0.457405237741747
40
0.491158093004379
40
0.524910948267011
40
0.547412851775432
40
0.581165707038064
40
0.603667610546485
40
0.637420465809117
40
0.659922369317538
40
0.69367522458017
40
0.727428079842802
40
0.749929983351223
40
0.783682838613855
40
0.806184742122277
40
0.839937597384909
40
0.86243950089333
40
0.896192356155962
40
0.929945211418594
40
0.952447114927015
40
0.974949018435436
40
1
40
1
40
1
40
1
40
1
40
1
41
1
10
14.7835464044035
20
3.47993330833313
30
0
41
1
10
14.8073450635362
20
3.47828445767382
30
0
41
1
10
14.9038331417851
20
3.47137449447126
30
0
41
1
10
15.1093553487081
20
3.45471501029795
30
0
41
1
10
15.3875669747472
20
3.42658565580714
30
0
41
1
10
15.7748127294605
20
3.37701895780745
30
0
41
1
10
16.210949244157
20
3.3061156230788
30
0
41
1
10
16.6834304684116
20
3.21334897405532
30
0
41
1
10
17.1559116926662
20
3.10503003851162
30
0
41
1
10
17.6283929169207
20
2.98019393271852
30
0
41
1
10
18.0645294316173
20
2.85166445309471
30
0
41
1
10
18.5370106558718
20
2.69871712390935
30
0
41
1
10
19.0094918801264
20
2.53273174865376
30
0
41
1
10
19.445628394823
20
2.36813866172327
30
0
41
1
10
19.9181096190775
20
2.17838356581351
30
0
41
1
10
20.4269355528901
20
1.96159349930184
30
0
41
1
10
20.8994167771447
20
1.74983559381462
30
0
41
1
10
21.3355532918413
20
1.54655985710051
30
0
41
1
10
21.8080345160959
20
1.31898240382085
30
0
41
1
10
22.2805157403504
20
1.08503268086699
30
0
41
1
10
22.7166522550469
20
0.864131064378682
30
0
41
1
10
23.1891334793016
20
0.620644377606538
30
0
41
1
10
23.6616147035561
20
0.373892883616179
30
0
41
1
10
24.1340959278107
20
0.125395935529383
30
0
41
1
10
24.5702324425072
20
-0.104602005146773
30
0
41
1
10
25.0427136667618
20
-0.353199420400813
30
0
41
1
10
25.5151948910164
20
-0.600151412849186
30
0
41
1
10
25.987676115271
20
-0.843947539996293
30
0
41
1
10
26.4601573395256
20
-1.08366461740141
30
0
41
1
10
26.9326385637802
20
-1.31759033481819
30
0
41
1
10
27.4051197880347
20
-1.54509217280025
30
0
41
1
10
27.8412563027313
20
-1.74825315859312
30
0
41
1
10
28.3137375269858
20
-1.95984299498414
30
0
41
1
10
28.7862187512404
20
-2.16201373438429
30
0
41
1
10
29.258699975495
20
-2.3527216273277
30
0
41
1
10
29.6948364901915
20
-2.51826300243744
30
0
41
1
10
30.1392074639468
20
-2.67540453652336
30
0
41
1
10
30.4745443090278
20
-2.78549310811587
30
0
41
1
10
30.7008470254348
20
-2.85573869664762
30
0
41
1
10
30.8544603227257
20
-2.90150417227173
30
0
41
1
10
30.9353842009004
20
-2.92507431366798
30
0
0
SPLINE
5
D4
100
AcDbEntity
8
1
62
256
6
ByLayer
370
18
48
1
60
0
100
AcDbSpline
70
4
71
3
72
26
73
22
40
0
40
0
40
0
40
0
40
0.124999999999975
40
0.124999999999975
40
0.24999999999995
40
0.24999999999995
40
0.374999999999924
40
0.374999999999924
40
0.43749999999992
40
0.43749999999992
40
0.499999999999915
40
0.499999999999915
40
0.624999999999924
40
0.624999999999924
40
0.749999999999934
40
0.749999999999934
40
0.81249999999995
40
0.81249999999995
40
0.874999999999967
40
0.874999999999967
40
1
40
1
40
1
40
1
41
1
10
36.964006833351
20
-0.403692754919518
30
0
41
1
10
36.9636763054147
20
-0.43452545432956
30
0
41
1
10
36.9664046435321
20
-0.465192578097458
30
0
41
1
10
36.976379641418
20
-0.526391206537738
30
0
41
1
10
36.9836454992226
20
-0.556920343130571
30
0
41
1
10
37.0018531964547
20
-0.618005459531304
30
0
41
1
10
37.012802514685
20
-0.648559376088969
30
0
41
1
10
37.0315925454412
20
-0.694558597628799
30
0
41
1
10
37.0382327875249
20
-0.709869385383683
30
0
41
1
10
37.0521098573297
20
-0.740290896899069
30
0
41
1
10
37.0593590361457
20
-0.755431710701174
30
0
41
1
10
37.081942841497
20
-0.800714967861126
30
0
41
1
10
37.098112165292
20
-0.830712286158445
30
0
41
1
10
37.1322459107585
20
-0.890786475277224
30
0
41
1
10
37.1502135383914
20
-0.920852583043853
30
0
41
1
10
37.1782025671455
20
-0.966580951418138
30
0
41
1
10
37.1877049087911
20
-0.981931785663846
30
0
41
1
10
37.2069980240373
20
-1.01301581997265
30
0
41
1
10
37.2168343434321
20
-1.02882294651346
30
0
41
1
10
37.2459970786861
20
-1.07606518610672
30
0
41
1
10
37.2651095778008
20
-1.10758178439437
30
0
41
1
10
37.2832825149912
20
-1.1393673934032
30
0
0
SPLINE
5
D5
100
AcDbEntity
8
1
62
256
6
ByLayer
370
18
48
1
60
0
100
AcDbSpline
70
4
71
3
72
12
73
8
40
0
40
0
40
0
40
0
40
0.500000000000003
40
0.500000000000003
40
0.750000000000001
40
0.750000000000001
40
1
40
1
40
1
40
1
41
1
10
37.31448464298
20
2.47123387754482
30
0
41
1
10
37.3463178196249
20
2.4092375413878
30
0
41
1
10
37.3771467333517
20
2.3508992366329
30
0
41
1
10
37.4208540752362
20
2.27262927344205
30
0
41
1
10
37.4349986407251
20
2.24808799869302
30
0
41
1
10
37.4621061230123
20
2.20330033358627
30
0
41
1
10
37.4750267857136
20
2.18313116859161
30
0
41
1
10
37.4870657100719
20
2.16606047379742
30
0
0
SPLINE
5
D6
100
AcDbEntity
8
1
62
256
6
ByLayer
370
18
48
1
60
0
100
AcDbSpline
70
4
71
3
72
14
73
10
40
0
40
0
40
0
40
0
40
0.0564926715224549
40
0.213743892935404
40
0.292369503641871
40
0.292369503641871
40
0.370995114348337
40
0.370995114348337
40
1
40
1
40
1
40
1
41
1
10
36.2725474432964
20
3.08061488785961
30
0
41
1
10
36.2919308490538
20
3.07160425548651
30
0
41
1
10
36.3653757893566
20
3.0369454388526
30
0
41
1
10
36.4663884735955
20
2.98660627132171
30
0
41
1
10
36.5483735104713
20
2.9433854043306
30
0
41
1
10
36.6031391327072
20
2.91399207288489
30
0
41
1
10
36.6305618449449
20
2.89901311413854
30
0
41
1
10
36.8771523972121
20
2.76199933233849
30
0
41
1
10
37.0959817983833
20
2.62394739178762
30
0
41
1
10
37.3144846429801
20
2.47123387754482
30
0
0
SPLINE
5
D7
100
AcDbEntity
8
1
62
256
6
ByLayer
370
18
48
1
60
0
100
AcDbSpline
70
4
71
5
72
12
73
6
40
0
40
0
40
0
40
0
40
0
40
0
40
1
40
1
40
1
40
1
40
1
40
1
41
1
10
10.2212337803513
20
-3.18389022086808
30
0
41
1
10
10.2500824035312
20
-3.19020811352925
30
0
41
1
10
10.2789310267111
20
-3.19645141547764
30
0
41
1
10
10.307779649891
20
-3.20261987975013
30
0
41
1
10
10.3366282730708
20
-3.20871326527703
30
0
41
1
10
10.3654768962507
20
-3.21473133691947
30
0
0
SPLINE
5
D8
100
AcDbEntity
8
1
62
256
6
ByLayer
370
18
48
1
60
0
100
AcDbSpline
70
4
71
3
72
8
73
4
40
0
40
0
40
0
40
0
40
1
40
1
40
1
40
1
41
1
10
11.1613524616651
20
-5.53974050637581
30
0
41
1
10
11.2891849996425
20
-5.41944655813907
30
0
41
1
10
11.4216345448889
20
-5.30386145207936
30
0
41
1
10
11.5579399325283
20
-5.19251595292272
30
0
0
SPLINE
5
D9
100
AcDbEntity
8
1
62
256
6
ByLayer
370
18
48
1
60
0
100
AcDbSpline
70
4
71
3
72
8
73
4
40
0
40
0
40
0
40
0
40
1
40
1
40
1
40
1
41
1
10
36.9623410816194
20
5.9274412561542
30
0
41
1
10
36.9983851958185
20
5.92841340355679
30
0
41
1
10
37.0350123232339
20
5.92873056286098
30
0
41
1
10
37.0721826050943
20
5.92847701935742
30
0
0
SPLINE
5
DA
100
AcDbEntity
8
1
62
256
6
ByLayer
370
18
48
1
60
0
100
AcDbSpline
70
4
71
3
72
8
73
4
40
0
40
0
40
0
40
0
40
1
40
1
40
1
40
1
41
1
10
37.4870657100718
20
2.16606047379761
30
0
41
1
10
37.5897384096791
20
1.82078706258025
30
0
41
1
10
37.6923820377677
20
1.4754734655983
30
0
41
1
10
37.795005832873
20
1.13013421272711
30
0
0
SPLINE
5
DB
100
AcDbEntity
8
1
62
256
6
ByLayer
370
18
48
1
60
0
100
AcDbSpline
70
4
71
3
72
23
73
19
40
0
40
0
40
0
40
0
40
0.0625000000000012
40
0.0625000000000012
40
0.125000000000002
40
0.125000000000002
40
0.249999999999999
40
0.374999999999996
40
0.374999999999996
40
0.437500000000007
40
0.437500000000007
40
0.500000000000018
40
0.500000000000018
40
0.749999999999987
40
0.749999999999987
40
0.874999999999994
40
0.874999999999994
40
1
40
1
40
1
40
1
41
1
10
37.4870657100717
20
2.16606047379753
30
0
41
1
10
37.4863121011089
20
2.16586777377384
30
0
41
1
10
37.4853622399645
20
2.16584055739199
30
0
41
1
10
37.4830583939212
20
2.16613228398214
30
0
41
1
10
37.481702846267
20
2.16645276291621
30
0
41
1
10
37.4770809339903
20
2.16793092464232
30
0
41
1
10
37.4694127571849
20
2.1712788725392
30
0
41
1
10
37.458810641955
20
2.17737813967949
30
0
41
1
10
37.4497570128874
20
2.18300572459395
30
0
41
1
10
37.4465541824971
20
2.18505807811314
30
0
41
1
10
37.4397790230526
20
2.18951878385281
30
0
41
1
10
37.4361983934841
20
2.19193301891346
30
0
41
1
10
37.4176131728323
20
2.20473243268003
30
0
41
1
10
37.4004865319274
20
2.21734244726912
30
0
41
1
10
37.3717508928338
20
2.23949640094284
30
0
41
1
10
37.3616165999487
20
2.24745989538198
30
0
41
1
10
37.3407035478155
20
2.26416114633452
30
0
41
1
10
37.3299250948286
20
2.27289670545133
30
0
41
1
10
37.3188558960812
20
2.2819782704903
30
0
0
SPLINE
5
DC
100
AcDbEntity
8
1
62
256
6
ByLayer
370
18
48
1
60
0
100
AcDbSpline
70
4
71
3
72
41
73
37
40
0
40
0
40
0
40
0
40
0.0526878658485036
40
0.106021573161113
40
0.159990162164028
40
0.214581791896064
40
0.269783782109558
40
0.289858270858827
40
0.310312743829312
40
0.331146140066021
40
0.352357312092225
40
0.373945023232618
40
0.395907944907679
40
0.418244653907153
40
0.440953631647838
40
0.464033268080286
40
0.487481853056973
40
0.51129757146485
40
0.535478500608996
40
0.560022607657429
40
0.584927747159788
40
0.61019165865312
40
0.635811964368209
40
0.661786167050407
40
0.68811164790918
40
0.714785664711123
40
0.741805350031253
40
0.769167709678128
40
0.796869620584434
40
0.824907824869385
40
0.853278931112132
40
0.881979415594786
40
0.911005621626146
40
0.940353759098125
40
0.970019904299206
40
1
40
1
40
1
40
1
41
1
10
11.5576858200513
20
-2.05697521793988
30
0
41
1
10
11.5417103662769
20
-2.08153150266028
30
0
41
1
10
11.5095636335548
20
-2.13094508005844
30
0
41
1
10
11.4605037274112
20
-2.20496497800465
30
0
41
1
10
11.4104542996756
20
-2.27944587484197
30
0
41
1
10
11.359373300121
20
-2.35430736511472
30
0
41
1
10
11.3185152489853
20
-2.41329470499247
30
0
41
1
10
11.2882128372631
20
-2.4565744562197
30
0
41
1
10
11.2687217414124
20
-2.4842436934164
30
0
41
1
10
11.2488039327815
20
-2.51235237637494
30
0
41
1
10
11.2284588365182
20
-2.54089558332703
30
0
41
1
10
11.2076865083009
20
-2.56986851029473
30
0
41
1
10
11.1864868279617
20
-2.59926599286158
30
0
41
1
10
11.1648597209454
20
-2.62908262939354
30
0
41
1
10
11.1428050944111
20
-2.65931274209169
30
0
41
1
10
11.1203228619399
20
-2.68995036699258
30
0
41
1
10
11.0974129306585
20
-2.72098925902563
30
0
41
1
10
11.0740752050074
20
-2.75242288343716
30
0
41
1
10
11.0503095871264
20
-2.78424440914148
30
0
41
1
10
11.0261159769327
20
-2.81644670374783
30
0
41
1
10
11.0014942720869
20
-2.84902232894433
30
0
41
1
10
10.9764443679861
20
-2.88196353638242
30
0
41
1
10
10.950966157748
20
-2.91526226407859
30
0
41
1
10
10.9250595321873
20
-2.94891013336809
30
0
41
1
10
10.8987243798123
20
-2.9828984465089
30
0
41
1
10
10.8719605867245
20
-3.01721818475966
30
0
41
1
10
10.8447680368563
20
-3.05186000781251
30
0
41
1
10
10.8171466111464
20
-3.0868142511313
30
0
41
1
10
10.789096193255
20
-3.12207093164759
30
0
41
1
10
10.7606166611667
20
-3.15761972155241
30
0
41
1
10
10.7317079506431
20
-3.19345005697752
30
0
41
1
10
10.7023697711387
20
-3.22955069965443
30
0
41
1
10
10.6726026670842
20
-3.26591141367686
30
0
41
1
10
10.642403986927
20
-3.30251661820515
30
0
41
1
10
10.6117831734668
20
-3.33936948500266
30
0
41
1
10
10.5911710995276
20
-3.3639287547928
30
0
41
1
10
10.5808108162986
20
-3.37627302406304
30
0
0
SPLINE
5
DD
100
AcDbEntity
8
1
62
256
6
ByLayer
370
18
48
1
60
0
100
AcDbSpline
70
4
71
3
72
20
73
16
40
0
40
0
40
0
40
0
40
0.249999999999962
40
0.249999999999962
40
0.374999999999963
40
0.374999999999963
40
0.499999999999964
40
0.499999999999964
40
0.749999999999965
40
0.749999999999965
40
0.874999999999967
40
0.874999999999967
40
0.937499999999984
40
0.937499999999984
40
1
40
1
40
1
40
1
41
1
10
36.9619046373678
20
5.92742945367786
30
0
41
1
10
37.0105244634943
20
5.91793328454028
30
0
41
1
10
37.0586153715049
20
5.90379159254056
30
0
41
1
10
37.1299885861948
20
5.87561808838436
30
0
41
1
10
37.1536518536594
20
5.86506916632135
30
0
41
1
10
37.2007042288335
20
5.84157179599669
30
0
41
1
10
37.223859819567
20
5.82873978930445
30
0
41
1
10
37.291994894392
20
5.78717176476218
30
0
41
1
10
37.3357544413512
20
5.75534189878709
30
0
41
1
10
37.3986498414534
20
5.70132809821035
30
0
41
1
10
37.4191501862749
20
5.68226410472681
30
0
41
1
10
37.4491322317628
20
5.65200993975463
30
0
41
1
10
37.4589976415998
20
5.64164792496541
30
0
41
1
10
37.4784541225647
20
5.62034986056011
30
0
41
1
10
37.4880208360197
20
5.60943819268653
30
0
41
1
10
37.4973600608343
20
5.59834636530113
30
0
0
SPLINE
5
DE
100
AcDbEntity
8
1
62
256
6
ByLayer
370
18
48
1
60
0
100
AcDbSpline
70
4
71
5
72
20
73
14
40
0
40
0
40
0
40
0
40
0
40
0
40
0.0053304569363998
40
0.166492272570612
40
0.27393348299342
40
0.435095298627632
40
0.596257114261844
40
0.703698324684652
40
0.864860140318864
40
0.972301350741671
40
1
40
1
40
1
40
1
40
1
40
1
41
1
10
36.9620903398504
20
5.92736206331105
30
0
41
1
10
36.9584840158263
20
5.92685834153852
30
0
41
1
10
36.845843563128
20
5.91105724170222
30
0
41
1
10
36.6605136913136
20
5.88157658758559
30
0
41
1
10
36.3661496908251
20
5.82569086692206
30
0
41
1
10
35.9627515616625
20
5.72956668925528
30
0
41
1
10
35.4902703374079
20
5.58651454399907
30
0
41
1
10
35.0177891131533
20
5.41646111085578
30
0
41
1
10
34.5453078888987
20
5.21764790348268
30
0
41
1
10
34.1631212545793
20
5.03647742854719
30
0
41
1
10
33.8899687489339
20
4.89648329311115
30
0
41
1
10
33.6895056624046
20
4.7882812926089
30
0
41
1
10
33.5980767045495
20
4.73781506806543
30
0
41
1
10
33.5793371658105
20
4.72742463430589
30
0
0
SPLINE
5
DF
100
AcDbEntity
8
1
62
256
6
ByLayer
370
18
48
1
60
0
100
AcDbSpline
70
4
71
5
72
25
73
19
40
0
40
0
40
0
40
0
40
0
40
0
40
0.0038900793059739
40
0.0965119371299034
40
0.189133794953833
40
0.250881700169786
40
0.312629605385739
40
0.405251463209668
40
0.497873321033597
40
0.559621226249551
40
0.65224308407348
40
0.713990989289433
40
0.806612847113363
40
0.868360752329315
40
0.960982610153245
40
1
40
1
40
1
40
1
40
1
40
1
41
1
10
17.885983140857
20
-5.95456576737078
30
0
41
1
10
17.8814037530368
20
-5.95507220913049
30
0
41
1
10
17.7677902365425
20
-5.96754969732297
30
0
41
1
10
17.5451425913741
20
-5.98776100202019
30
0
41
1
10
17.2498055270896
20
-6.00350884684394
30
0
41
1
10
16.881779043689
20
-6.00476709328021
30
0
41
1
10
16.4092978194344
20
-5.97737322124536
30
0
41
1
10
15.9368165951799
20
-5.92110145505785
30
0
41
1
10
15.5006800804833
20
-5.84271548413537
30
0
41
1
10
15.0281988562288
20
-5.72955776730424
30
0
41
1
10
14.5557176319742
20
-5.58596870386441
30
0
41
1
10
14.0832364077196
20
-5.41542620278901
30
0
41
1
10
13.647099893023
20
-5.23380515584114
30
0
41
1
10
13.1746186687685
20
-5.01181023506877
30
0
41
1
10
12.7652404376545
20
-4.79843061105581
30
0
41
1
10
12.4285516256565
20
-4.60771901161479
30
0
41
1
10
12.2008969423328
20
-4.47212512703567
30
0
41
1
10
12.0459316781251
20
-4.37685431427414
30
0
41
1
10
12.0000005425916
20
-4.34835815592905
30
0
0
SPLINE
5
E0
100
AcDbEntity
8
1
62
256
6
ByLayer
370
18
48
1
60
0
100
AcDbSpline
70
4
71
3
72
51
73
47
40
0
40
0
40
0
40
0
40
0.0322887909329402
40
0.0322887909329402
40
0.0645775818658803
40
0.0645775818658803
40
0.129155163731758
40
0.129155163731758
40
0.161443954664697
40
0.161443954664697
40
0.177588350131167
40
0.177588350131167
40
0.193732745597637
40
0.193732745597637
40
0.258310327463516
40
0.258310327463516
40
0.274454722929987
40
0.274454722929987
40
0.290599118396457
40
0.290599118396457
40
0.322887909329393
40
0.322887909329393
40
0.387465491195257
40
0.387465491195257
40
0.403609886661719
40
0.403609886661719
40
0.419754282128181
40
0.452043073061103
40
0.452043073061103
40
0.51662065492694
40
0.51662065492694
40
0.548909445859863
40
0.548909445859863
40
0.581198236792786
40
0.581198236792786
40
0.645775818658622
40
0.645775818658622
40
0.710353400524457
40
0.710353400524457
40
0.774930982390293
40
0.774930982390293
40
0.904086146121963
40
0.904086146121963
40
0.968663727987805
40
0.968663727987805
40
1
40
1
40
1
40
1
41
1
10
37.4973600608366
20
5.59834636531252
30
0
41
1
10
37.5056617146716
20
5.56466706905303
30
0
41
1
10
37.5131919845324
20
5.53073412342712
30
0
41
1
10
37.5264214762769
20
5.46226614012417
30
0
41
1
10
37.5320874150453
20
5.42788322149633
30
0
41
1
10
37.5457729204248
20
5.32465700983059
30
0
41
1
10
37.5505439903032
20
5.25557310254416
30
0
41
1
10
37.5492912560795
20
5.15143248631523
30
0
41
1
10
37.5474656519879
20
5.11663275900855
30
0
41
1
10
37.5423366784488
20
5.06428683583016
30
0
41
1
10
37.5402216991827
20
5.04677048563471
30
0
41
1
10
37.5351773485264
20
5.01190406117084
30
0
41
1
10
37.5322553679207
20
4.99458955727988
30
0
41
1
10
37.5156278229988
20
4.9086161067606
30
0
41
1
10
37.495852706404
20
4.84175930363054
30
0
41
1
10
37.4629249783941
20
4.76062562837541
30
0
41
1
10
37.4559299758485
20
4.74452046739424
30
0
41
1
10
37.441121738966
20
4.71255309104438
30
0
41
1
10
37.4332866702264
20
4.69665033197646
30
0
41
1
10
37.4087402267771
20
4.64964900165575
30
0
41
1
10
37.3910163833859
20
4.61928499940032
30
0
41
1
10
37.3341507261465
20
4.53082924310729
30
0
41
1
10
37.2914098818758
20
4.47530587545248
30
0
41
1
10
37.2325352091847
20
4.40978997828219
30
0
41
1
10
37.2204609382893
20
4.39686012403533
30
0
41
1
10
37.1959418137939
20
4.37155700257242
30
0
41
1
10
37.158579364208
20
4.33440041328711
30
0
41
1
10
37.1195666488532
20
4.29949998919648
30
0
41
1
10
37.0395848905821
20
4.23237373939691
30
0
41
1
10
36.9836644709425
20
4.19117647421044
30
0
41
1
10
36.8966912451512
20
4.13360862765606
30
0
41
1
10
36.8671822968106
20
4.11512735701271
30
0
41
1
10
36.8072383457347
20
4.07943087343273
30
0
41
1
10
36.7767346498592
20
4.06217965626499
30
0
41
1
10
36.6846231535987
20
4.01247085789853
30
0
41
1
10
36.6223809520372
20
3.98199841274152
30
0
41
1
10
36.4966197560459
20
3.92513349802087
30
0
41
1
10
36.4330985081966
20
3.8987482292313
30
0
41
1
10
36.3050402322801
20
3.84922360459606
30
0
41
1
10
36.2405020213251
20
3.82608802865309
30
0
41
1
10
36.0456432043417
20
3.76065707556782
30
0
41
1
10
35.9140912840696
20
3.72229634764415
30
0
41
1
10
35.7150352144133
20
3.67027766282183
30
0
41
1
10
35.6483908905358
20
3.65387214430245
30
0
41
1
10
35.5490324158972
20
3.63070413060692
30
0
41
1
10
35.5165029207434
20
3.62332326380437
30
0
41
1
10
35.4839222081636
20
3.61612256186987
30
0
0
SPLINE
5
E1
100
AcDbEntity
8
1
62
256
6
ByLayer
370
18
48
1
60
0
100
AcDbSpline
70
4
71
3
72
29
73
25
40
0
40
0
40
0
40
0
40
0.0625000000000076
40
0.0625000000000076
40
0.125000000000015
40
0.125000000000015
40
0.187500000000023
40
0.187500000000023
40
0.218750000000027
40
0.218750000000027
40
0.25000000000003
40
0.25000000000003
40
0.375000000000038
40
0.375000000000038
40
0.500000000000046
40
0.500000000000046
40
0.562500000000046
40
0.562500000000046
40
0.593750000000046
40
0.593750000000046
40
0.625000000000046
40
0.750000000000033
40
0.750000000000033
40
1
40
1
40
1
40
1
41
1
10
5.54264120184959
20
5.94680136112501
30
0
41
1
10
5.59983625999604
20
5.94809533817349
30
0
41
1
10
5.65710468861261
20
5.948957549151
30
0
41
1
10
5.77176409617971
20
5.95000972293889
30
0
41
1
10
5.82915525587347
20
5.95019786046146
30
0
41
1
10
5.94404563145463
20
5.94999049434858
30
0
41
1
10
6.00154493505576
20
5.94959414462249
30
0
41
1
10
6.08786802044003
20
5.94858435977608
30
0
41
1
10
6.11665477156285
20
5.94817816205787
30
0
41
1
10
6.17425222555221
20
5.94722639094576
30
0
41
1
10
6.20298323075247
20
5.94668194513912
30
0
41
1
10
6.34575205426404
20
5.94363094258134
30
0
41
1
10
6.45773016924556
20
5.94014394688179
30
0
41
1
10
6.67792895353216
20
5.93090628616372
30
0
41
1
10
6.78614093166118
20
5.92515095040378
30
0
41
1
10
6.94590335016179
20
5.91446662258102
30
0
41
1
10
6.99872965220004
20
5.91056145799919
30
0
41
1
10
7.07734845120322
20
5.90412993201554
30
0
41
1
10
7.10348341645849
20
5.90188733598094
30
0
41
1
10
7.15532882085915
20
5.89722022718618
30
0
41
1
10
7.2839349277867
20
5.8850939125395
30
0
41
1
10
7.40769114108144
20
5.87059219409809
30
0
41
1
10
7.69636326989129
20
5.83046813365581
30
0
41
1
10
7.87772034454991
20
5.79664186281272
30
0
41
1
10
8.04967280461474
20
5.75342223404749
30
0
0
SPLINE
5
E2
100
AcDbEntity
8
1
62
256
6
ByLayer
370
18
48
1
60
0
100
AcDbSpline
70
4
71
3
72
12
73
8
40
0
40
0
40
0
40
0
40
0.25
40
0.25
40
0.5
40
0.5
40
1
40
1
40
1
40
1
41
1
10
37.324054023692
20
1.37585467959127
30
0
41
1
10
37.3182895864847
20
1.45458929729384
30
0
41
1
10
37.3150383691707
20
1.53246136791603
30
0
41
1
10
37.3119022019717
20
1.68656730383341
30
0
41
1
10
37.3119948644729
20
1.76280209068193
30
0
41
1
10
37.3144198045081
20
1.98917843054889
30
0
41
1
10
37.3188487601351
20
2.13699988658848
30
0
41
1
10
37.3188558960812
20
2.28197827049036
30
0
0
SPLINE
5
E3
100
AcDbEntity
8
1
62
256
6
ByLayer
370
18
48
1
60
0
100
AcDbSpline
70
4
71
3
72
31
73
27
40
0
40
0
40
0
40
0
40
0.1157139555635
40
0.1157139555635
40
0.231427911127
40
0.231427911127
40
0.347141866690501
40
0.347141866690501
40
0.376070355581376
40
0.376070355581376
40
0.404998844472251
40
0.404998844472251
40
0.462855822254004
40
0.462855822254004
40
0.578569777817511
40
0.578569777817511
40
0.694283733381018
40
0.694283733381018
40
0.809997688944525
40
0.809997688944525
40
0.867854666726277
40
0.867854666726277
40
0.896783155617153
40
0.896783155617153
40
0.925711644508029
40
1
40
1
40
1
40
1
41
1
10
37.3188558960812
20
2.28197827049033
30
0
41
1
10
37.0501885006394
20
2.49394549559588
30
0
41
1
10
36.7827004956452
20
2.69943164330744
30
0
41
1
10
36.2481281317422
20
3.09604601832109
30
0
41
1
10
35.9810387551788
20
3.28721023315396
30
0
41
1
10
35.4456341109703
20
3.65362462770807
30
0
41
1
10
35.1773265263938
20
3.82887303471608
30
0
41
1
10
34.8401417237036
20
4.03676782295307
30
0
41
1
10
34.7726144153735
20
4.07778754280167
30
0
41
1
10
34.6373511924927
20
4.1586758878349
30
0
41
1
10
34.5695512714539
20
4.19858081929891
30
0
41
1
10
34.3666087971566
20
4.31605667400351
30
0
41
1
10
34.2317372975122
20
4.39150510982262
30
0
41
1
10
33.8280525475231
20
4.60916906303717
30
0
41
1
10
33.5601643063795
20
4.74271937141762
30
0
41
1
10
33.0252089405963
20
4.98598330677839
30
0
41
1
10
32.7581456932575
20
5.09569721655188
30
0
41
1
10
32.223232965622
20
5.29026831945038
30
0
41
1
10
31.9553805605393
20
5.3751362859112
30
0
41
1
10
31.5517369819461
20
5.48302860522966
30
0
41
1
10
31.4168782885442
20
5.51575471177671
30
0
41
1
10
31.213960793472
20
5.5598600639355
30
0
41
1
10
31.1461550592591
20
5.57374167468632
30
0
41
1
10
31.0108572747711
20
5.59971810885992
30
0
41
1
10
30.7698667073765
20
5.64291485106307
30
0
41
1
10
30.5300641659738
20
5.67493568925326
30
0
41
1
10
30.3578656122612
20
5.6922271011793
30
0
0
SPLINE
5
E4
100
AcDbEntity
8
1
62
256
6
ByLayer
370
18
48
1
60
0
100
AcDbSpline
70
4
71
3
72
12
73
8
40
0
40
0
40
0
40
0
40
0.271136812306608
40
0.271136812306608
40
0.635568406153303
40
0.635568406153303
40
1
40
1
40
1
40
1
41
1
10
12.65780965274
20
-4.72310200776886
30
0
41
1
10
12.5583188783949
20
-4.77153215510845
30
0
41
1
10
12.4588968212261
20
-4.81835996701125
30
0
41
1
10
12.2258893716922
20
-4.92437219295988
30
0
41
1
10
12.0923282156541
20
-4.98225327681214
30
0
41
1
10
11.825139680573
20
-5.0919068612566
30
0
41
1
10
11.6915182137862
20
-5.14364590619974
30
0
41
1
10
11.5577490676332
20
-5.19228253950379
30
0
0
SPLINE
5
E5
100
AcDbEntity
8
1
62
256
6
ByLayer
370
18
48
1
60
0
100
AcDbSpline
70
4
71
3
72
8
73
4
40
0
40
0
40
0
40
0
40
1
40
1
40
1
40
1
41
1
10
36.9623410816193
20
-5.92744125615445
30
0
41
1
10
36.9983851958184
20
-5.92841340355707
30
0
41
1
10
37.0350123232338
20
-5.92873056286123
30
0
41
1
10
37.0721826050943
20
-5.92847701935767
30
0
0
SPLINE
5
E6
100
AcDbEntity
8
1
62
256
6
ByLayer
370
18
48
1
60
0
100
AcDbSpline
70
4
71
3
72
21
73
17
40
0
40
0
40
0
40
0
40
0.031249999999997
40
0.031249999999997
40
0.062499999999994
40
0.062499999999994
40
0.124999999999988
40
0.24999999999999
40
0.24999999999999
40
0.374999999999992
40
0.374999999999992
40
0.499999999999994
40
0.499999999999994
40
0.749999999999997
40
0.749999999999997
40
1
40
1
40
1
40
1
41
1
10
37.0721826050565
20
-5.92847701935787
30
0
41
1
10
37.0772579420068
20
-5.92553073117961
30
0
41
1
10
37.0816679538469
20
-5.92256065186436
30
0
41
1
10
37.0899112132966
20
-5.91657330339893
30
0
41
1
10
37.0937229550004
20
-5.91355599396852
30
0
41
1
10
37.1046383744999
20
-5.90443289649906
30
0
41
1
10
37.124441014719
20
-5.8858864774561
30
0
41
1
10
37.1415138331365
20
-5.86659963224267
30
0
41
1
10
37.1634842424896
20
-5.84016358771095
30
0
41
1
10
37.1740061821177
20
-5.82658792783059
30
0
41
1
10
37.1945450890007
20
-5.7987035857347
30
0
41
1
10
37.2045513007551
20
-5.78439531624352
30
0
41
1
10
37.2340059013392
20
-5.74035936307737
30
0
41
1
10
37.2528941782902
20
-5.70952565858812
30
0
41
1
10
37.2894203051938
20
-5.64499223552841
30
0
41
1
10
37.3070541634586
20
-5.61127814465857
30
0
41
1
10
37.3240449566519
20
-5.57610186295599
30
0
0
SPLINE
5
E7
100
AcDbEntity
8
1
62
256
6
ByLayer
370
18
48
1
60
0
100
AcDbSpline
70
4
71
3
72
12
73
8
40
0
40
0
40
0
40
0
40
0.25
40
0.25
40
0.499999999999999
40
0.499999999999999
40
1
40
1
40
1
40
1
41
1
10
37.324054023692
20
-5.57609742561513
30
0
41
1
10
37.3182895864847
20
-5.5418012990188
30
0
41
1
10
37.3150383691707
20
-5.50572287781537
30
0
41
1
10
37.3119022019716
20
-5.43019774370063
30
0
41
1
10
37.311994864473
20
-5.39075316966978
30
0
41
1
10
37.3144198045081
20
-5.26766424061779
30
0
41
1
10
37.318848760135
20
-5.17928137530413
30
0
41
1
10
37.3188558960812
20
-5.08517515363408
30
0
0
SPLINE
5
E8
100
AcDbEntity
8
1
62
256
6
ByLayer
370
18
48
1
60
0
100
AcDbSpline
70
4
71
3
72
30
73
26
40
0
40
0
40
0
40
0
40
0.125000000000044
40
0.125000000000044
40
0.187500000000066
40
0.187500000000066
40
0.250000000000088
40
0.250000000000088
40
0.375000000000105
40
0.375000000000105
40
0.437500000000098
40
0.437500000000098
40
0.500000000000091
40
0.500000000000091
40
0.625000000000076
40
0.625000000000076
40
0.687500000000051
40
0.687500000000051
40
0.750000000000026
40
0.750000000000026
40
0.875000000000013
40
0.875000000000013
40
0.937500000000007
40
0.937500000000007
40
1
40
1
40
1
40
1
41
1
10
34.5613325536192
20
-0.0401610141391586
30
0
41
1
10
34.5795508453878
20
0.000317627943474
30
0
41
1
10
34.6016678296501
20
0.0383055780946222
30
0
41
1
10
34.6394906882843
20
0.09238234754622
30
0
41
1
10
34.6528891108307
20
0.109912717742418
30
0
41
1
10
34.6812263921939
20
0.144013211012805
30
0
41
1
10
34.6962373817657
20
0.160648321494392
30
0
41
1
10
34.7427649578252
20
0.208223135103907
30
0
41
1
10
34.7759223107896
20
0.237084860532235
30
0
41
1
10
34.8288293785605
20
0.276197548449346
30
0
41
1
10
34.8469973417884
20
0.288533674946081
30
0
41
1
10
34.884435368614
20
0.311765439809847
30
0
41
1
10
34.9035105974328
20
0.322536563830198
30
0
41
1
10
34.961516733357
20
0.352229786321828
30
0
41
1
10
35.0013412338696
20
0.368625549967504
30
0
41
1
10
35.0629504437605
20
0.388133633648778
30
0
41
1
10
35.0838654086981
20
0.393798867366286
30
0
41
1
10
35.1260679321621
20
0.403322426733496
30
0
41
1
10
35.1472217122825
20
0.407156937495415
30
0
41
1
10
35.2108748987196
20
0.415994741846077
30
0
41
1
10
35.2535659832753
20
0.418342112639607
30
0
41
1
10
35.3181224394063
20
0.416792222904036
30
0
41
1
10
35.3397680832761
20
0.415423378445468
30
0
41
1
10
35.3830703193824
20
0.411022523208885
30
0
41
1
10
35.4046544770838
20
0.408001420399046
30
0
41
1
10
35.4261845224968
20
0.404193837316853
30
0
0
SPLINE
5
E9
100
AcDbEntity
8
1
62
256
6
ByLayer
370
18
48
1
60
0
100
AcDbSpline
70
4
71
3
72
12
73
8
40
0
40
0
40
0
40
0
40
0.373133219695572
40
0.373133219695572
40
0.746266439391144
40
0.746266439391144
40
1
40
1
40
1
40
1
41
1
10
37.4973600608365
20
0.104635320252726
30
0
41
1
10
37.5055432580755
20
0.101684507224888
30
0
41
1
10
37.5129768701037
20
0.0988625624121653
30
0
41
1
10
37.5260691543334
20
0.0935238193182784
30
0
41
1
10
37.5316976709931
20
0.0910184247864265
30
0
41
1
10
37.5393557260343
20
0.0871424379026564
30
0
41
1
10
37.5419680993785
20
0.0856629683560186
30
0
41
1
10
37.5440462589049
20
0.0842814907009029
30
0
0
SPLINE
5
EA
100
AcDbEntity
8
1
62
256
6
ByLayer
370
18
48
1
60
0
100
AcDbSpline
70
4
71
3
72
37
73
33
40
0
40
0
40
0
40
0
40
0.0201801259033684
40
0.0201801259033684
40
0.0955508854492706
40
0.0955508854492706
40
0.133236265222222
40
0.133236265222222
40
0.170921644995173
40
0.208607024768124
40
0.208607024768124
40
0.246292404541075
40
0.246292404541075
40
0.283977784314026
40
0.283977784314026
40
0.321663164086977
40
0.321663164086977
40
0.397033923632868
40
0.397033923632868
40
0.434719303405813
40
0.434719303405813
40
0.472404683178759
40
0.472404683178759
40
0.54777544272465
40
0.54777544272465
40
0.623146202270542
40
0.623146202270542
40
0.698516961816434
40
0.698516961816434
40
0.849258480908217
40
0.849258480908217
40
1
40
1
40
1
40
1
41
1
10
37.5393509539964
20
0.072855242788961
30
0
41
1
10
37.5368842073154
20
0.0725216496079781
30
0
41
1
10
37.5339676289913
20
0.0722738941514365
30
0
41
1
10
37.5180348097252
20
0.0715320796631431
30
0
41
1
10
37.4991862646796
20
0.072195780122513
30
0
41
1
10
37.4613424224251
20
0.0750944196290675
30
0
41
1
10
37.4471255206356
20
0.0763782221694385
30
0
41
1
10
37.4155574365844
20
0.0795731396084989
30
0
41
1
10
37.3813130178513
20
0.0833481945668666
30
0
41
1
10
37.3422152676065
20
0.0881752852532713
30
0
41
1
10
37.3009114931775
20
0.0934805662819542
30
0
41
1
10
37.2791506278605
20
0.0963735951937679
30
0
41
1
10
37.2334697278696
20
0.102627686841345
30
0
41
1
10
37.2094823079552
20
0.105998882783808
30
0
41
1
10
37.1601962489292
20
0.113079030137328
30
0
41
1
10
37.1348249591205
20
0.116797440196251
30
0
41
1
10
37.0567649628873
20
0.128429237907994
30
0
41
1
10
37.0021390016402
20
0.136817020524234
30
0
41
1
10
36.9171159098931
20
0.150153941074308
30
0
41
1
10
36.8882585892058
20
0.154726010377857
30
0
41
1
10
36.8296193784773
20
0.164096557532247
30
0
41
1
10
36.7998039535577
20
0.168900467765127
30
0
41
1
10
36.7093325167063
20
0.183581337012953
30
0
41
1
10
36.6481765456961
20
0.193640895770585
30
0
41
1
10
36.5245791741359
20
0.214175894313485
30
0
41
1
10
36.4621354576469
20
0.224652083385394
30
0
41
1
10
36.336226621679
20
0.245934920813084
30
0
41
1
10
36.2727602921124
20
0.256741960674219
30
0
41
1
10
36.0811114693237
20
0.28956744492271
30
0
41
1
10
35.9516922549734
20
0.311986011477757
30
0
41
1
10
35.6905407165509
20
0.357571515788834
30
0
41
1
10
35.5588023527882
20
0.380740407594118
30
0
41
1
10
35.426184522497
20
0.404193837316484
30
0
0
SPLINE
5
EB
100
AcDbEntity
8
1
62
256
6
ByLayer
370
18
48
1
60
0
100
AcDbSpline
70
4
71
5
72
48
73
42
40
0
40
0
40
0
40
0
40
0
40
0
40
0.0002625245254447
40
0.0225165436827481
40
0.0558975724187033
40
0.0781515915760067
40
0.111532620311962
40
0.133786639469265
40
0.16716766820522
40
0.200548696941175
40
0.222802716098479
40
0.245056735255782
40
0.278437763991737
40
0.311818792727693
40
0.334072811884996
40
0.367453840620951
40
0.400834869356906
40
0.423088888514209
40
0.445342907671513
40
0.478723936407468
40
0.512104965143423
40
0.534358984300727
40
0.567740013036682
40
0.589994032193985
40
0.62337506092994
40
0.645629080087244
40
0.679010108823199
40
0.712391137559154
40
0.734645156716458
40
0.768026185452413
40
0.790280204609716
40
0.823661233345671
40
0.845915252502975
40
0.87929628123893
40
0.912677309974885
40
0.934931329132188
40
0.957185348289492
40
0.990566377025447
40
1
40
1
40
1
40
1
40
1
40
1
41
1
10
14.941758537764
20
3.36734708720275
30
0
41
1
10
14.9426160347906
20
3.36722313404664
30
0
41
1
10
15.0161629509333
20
3.35658578097508
30
0
41
1
10
15.1987439957502
20
3.32890562194012
30
0
41
1
10
15.4540144596831
20
3.28581093550341
30
0
41
1
10
15.8183190522903
20
3.21566723999268
30
0
41
1
10
16.2544555669868
20
3.11732704119737
30
0
41
1
10
16.7269367912414
20
2.99575661836204
30
0
41
1
10
17.199418015496
20
2.859678353834
30
0
41
1
10
17.6718992397505
20
2.70838309799945
30
0
41
1
10
18.1080357544471
20
2.55664247303335
30
0
41
1
10
18.5805169787016
20
2.37998742828998
30
0
41
1
10
19.0529982029563
20
2.19183418484317
30
0
41
1
10
19.4891347176528
20
2.00828921430497
30
0
41
1
10
19.9616159419073
20
1.79974217058327
30
0
41
1
10
20.47044187572
20
1.5648842625202
30
0
41
1
10
20.9429230999745
20
1.33845517898348
30
0
41
1
10
21.3790596146711
20
1.12347219226626
30
0
41
1
10
21.8515408389257
20
0.885262069145284
30
0
41
1
10
22.3240220631803
20
0.642775066660505
30
0
41
1
10
22.7601585778768
20
0.415962109521928
30
0
41
1
10
23.2326398021314
20
0.168237604273457
30
0
41
1
10
23.7051210263859
20
-0.0803470432958022
30
0
41
1
10
24.1776022506405
20
-0.328482003152487
30
0
41
1
10
24.6137387653371
20
-0.556120965748761
30
0
41
1
10
25.0862199895916
20
-0.799981911681783
30
0
41
1
10
25.5587012138462
20
-1.04003707169141
30
0
41
1
10
26.0311824381008
20
-1.27459755520908
30
0
41
1
10
26.5036636623554
20
-1.50299752926153
30
0
41
1
10
26.97614488661
20
-1.72337935941965
30
0
41
1
10
27.4486261108645
20
-1.93538006533149
30
0
41
1
10
27.884762625561
20
-2.12248769689697
30
0
41
1
10
28.3572438498156
20
-2.31488256382875
30
0
41
1
10
28.8297250740702
20
-2.49613776478071
30
0
41
1
10
29.3022062983248
20
-2.66415148426071
30
0
41
1
10
29.7383428130213
20
-2.80735494557487
30
0
41
1
10
30.2108240372759
20
-2.94885304004018
30
0
41
1
10
30.605084648803
20
-3.0550377679495
30
0
41
1
10
30.890311131656
20
-3.12484299103127
30
0
41
1
10
31.1028481953928
20
-3.17285548530532
30
0
41
1
10
31.2426958400136
20
-3.20268647111936
30
0
41
1
10
31.2735093559603
20
-3.20917354639809
30
0
0
SPLINE
5
EC
100
AcDbEntity
8
1
62
256
6
ByLayer
370
18
48
1
60
0
100
AcDbSpline
70
4
71
3
72
75
73
71
40
0
40
0
40
0
40
0
40
0.0061215657302445
40
0.0121001610845538
40
0.0179357719432536
40
0.023628385981428
40
0.0291779925663379
40
0.0345845826565778
40
0.0398481487035975
40
0.0449686845550894
40
0.0499461853609955
40
0.0547806474816483
40
0.0594720683986427
40
0.0640204466282389
40
0.0684257816374964
40
0.0726880737632851
40
0.0768073241341265
40
0.0807835345952531
40
0.0846167076365432
40
0.0883068463241595
40
0.0918539542353329
40
0.0952580353971383
40
0.0985190942290384
40
0.101637135489922
40
0.104612164229946
40
0.107444185747794
40
0.110133205554255
40
0.112679229343488
40
0.115082262973347
40
0.117342312457587
40
0.119459383973549
40
0.121433483890501
40
0.123264618827824
40
0.124952795755892
40
0.126498022162817
40
0.127900306324878
40
0.129159657749953
40
0.140958052603951
40
0.152566541495073
40
0.163985529150512
40
0.175215451212049
40
0.186256775321985
40
0.197110002330529
40
0.207775667636678
40
0.218254342675843
40
0.228546636568893
40
0.238653197947662
40
0.248574716973988
40
0.258311927570529
40
0.321844762388607
40
0.385919671476947
40
0.450750472217789
40
0.516546360149211
40
0.538960325330304
40
0.562103189506532
40
0.585981383973448
40
0.61060073716416
40
0.635966545355224
40
0.662083634526924
40
0.688956414550088
40
0.716588926717244
40
0.744984885498258
40
0.774147715280361
40
0.804080582748583
40
0.834786425471492
40
0.866267977180141
40
0.898527790160637
40
0.931568255124081
40
0.965391618867731
40
1
40
1
40
1
40
1
41
1
10
10.2242871954328
20
1.68707412789024
30
0
41
1
10
10.2230339048403
20
1.69527608455957
30
0
41
1
10
10.2205565945043
20
1.71148843958125
30
0
41
1
10
10.2168987533892
20
1.73570283755649
30
0
41
1
10
10.2133353021287
20
1.7594629601889
30
0
41
1
10
10.209864670468
20
1.7827702461334
30
0
41
1
10
10.2064841090332
20
1.80561013792669
30
0
41
1
10
10.2031915401608
20
1.82797280963735
30
0
41
1
10
10.1999850585377
20
1.84984780067379
30
0
41
1
10
10.1968630389655
20
1.87122538547644
30
0
41
1
10
10.1938240879854
20
1.89209620579567
30
0
41
1
10
10.1908670361958
20
1.91245135047228
30
0
41
1
10
10.1879909205782
20
1.93228231995846
30
0
41
1
10
10.1851949698899
20
1.95158102043976
30
0
41
1
10
10.1824785897841
20
1.97033975037439
30
0
41
1
10
10.1798413485251
20
1.98855118904166
30
0
41
1
10
10.1772829630909
20
2.00620838468501
30
0
41
1
10
10.1748032857239
20
2.02330474290866
30
0
41
1
10
10.1724022909273
20
2.03983401519946
30
0
41
1
10
10.1700800629109
20
2.05579028764282
30
0
41
1
10
10.1678367834968
20
2.0711679698511
30
0
41
1
10
10.1656727204859
20
2.085961784131
30
0
41
1
10
10.1635882164935
20
2.10016675491551
30
0
41
1
10
10.1615836782556
20
2.11377819848235
30
0
41
1
10
10.1596595664092
20
2.1267917129799
30
0
41
1
10
10.1578163857707
20
2.13920316878506
30
0
41
1
10
10.1560546760478
20
2.15100869919902
30
0
41
1
10
10.1543750032461
20
2.16220469154882
30
0
41
1
10
10.1527779509153
20
2.1727877785433
30
0
41
1
10
10.1512641142437
20
2.18275483049123
30
0
41
1
10
10.1498340868374
20
2.19210294639845
30
0
41
1
10
10.1484884748066
20
2.20082945076842
30
0
41
1
10
10.1472278218254
20
2.20893187324862
30
0
41
1
10
10.1460528344457
20
2.21640798769653
30
0
41
1
10
10.1449636184686
20
2.22325565718481
30
0
41
1
10
10.1439621563357
20
2.22947331680891
30
0
41
1
10
10.1404492637523
20
2.25084945689517
30
0
41
1
10
10.1342363014074
20
2.28742114426652
30
0
41
1
10
10.1250301707416
20
2.33932692293203
30
0
41
1
10
10.1154881667258
20
2.39061215984441
30
0
41
1
10
10.105618893343
20
2.44124218379187
30
0
41
1
10
10.0954190727318
20
2.49118249904274
30
0
41
1
10
10.0848905508945
20
2.54040175655402
30
0
41
1
10
10.0740356728634
20
2.58887085305338
30
0
41
1
10
10.0628583614027
20
2.63656303620687
30
0
41
1
10
10.0513635410707
20
2.68345375215944
30
0
41
1
10
10.0395576153341
20
2.72952052987242
30
0
41
1
10
10.0274464372722
20
2.77474295872935
30
0
41
1
10
9.99212105654362
20
2.90107008360118
30
0
41
1
10
9.92408676806159
20
3.10884301296764
30
0
41
1
10
9.80654033110807
20
3.39427617982923
30
0
41
1
10
9.66714177668243
20
3.67511072652761
30
0
41
1
10
9.54340970977819
20
3.88855520574617
30
0
41
1
10
9.44746947970839
20
4.03999765855414
30
0
41
1
10
9.38589888317918
20
4.13324361746453
30
0
41
1
10
9.3207467905284
20
4.22828674099824
30
0
41
1
10
9.25203810243448
20
4.32513028285936
30
0
41
1
10
9.17980468024408
20
4.42378303673544
30
0
41
1
10
9.10407668745469
20
4.52425524928952
30
0
41
1
10
9.02488484770694
20
4.62655956120545
30
0
41
1
10
8.94225965432821
20
4.73071054381668
30
0
41
1
10
8.85623143834238
20
4.83672462545712
30
0
41
1
10
8.76683023486794
20
4.94461994560371
30
0
41
1
10
8.67408560949499
20
5.054416110803
30
0
41
1
10
8.5780269219369
20
5.16613446469557
30
0
41
1
10
8.47868186522092
20
5.27979635642086
30
0
41
1
10
8.37608174198334
20
5.39542919712403
30
0
41
1
10
8.27024068816144
20
5.51304238783044
30
0
41
1
10
8.16123571527504
20
5.63271982576123
30
0
41
1
10
8.0871940933323
20
5.71282728060206
30
0
41
1
10
8.04974859670656
20
5.75334048589431
30
0
0
SPLINE
5
ED
100
AcDbEntity
8
1
62
256
6
ByLayer
370
18
48
1
60
0
100
AcDbSpline
70
4
71
3
72
23
73
19
40
0
40
0
40
0
40
0
40
0.0625000000000114
40
0.0625000000000114
40
0.125000000000023
40
0.125000000000023
40
0.250000000000046
40
0.375000000000069
40
0.375000000000069
40
0.437500000000064
40
0.437500000000064
40
0.50000000000006
40
0.50000000000006
40
0.750000000000032
40
0.750000000000032
40
0.875000000000016
40
0.875000000000016
40
1
40
1
40
1
40
1
41
1
10
37.4870657100717
20
-4.71906900724366
30
0
41
1
10
37.4863121011089
20
-4.72820339070734
30
0
41
1
10
37.4853622399644
20
-4.73733770599813
30
0
41
1
10
37.4830583939212
20
-4.75560625500572
30
0
41
1
10
37.481702846267
20
-4.7647385706596
30
0
41
1
10
37.4770809339903
20
-4.79177052414676
30
0
41
1
10
37.4694127571851
20
-4.82708698928408
30
0
41
1
10
37.458810641955
20
-4.86097338858968
30
0
41
1
10
37.4497570128874
20
-4.88584665760564
30
0
41
1
10
37.4465541824971
20
-4.89404691948417
30
0
41
1
10
37.4397790230526
20
-4.91026523262479
30
0
41
1
10
37.436198393484
20
-4.91830141343209
30
0
41
1
10
37.4176131728323
20
-4.95757165935837
30
0
41
1
10
37.4004865319274
20
-4.98644648423166
30
0
41
1
10
37.3717508928338
20
-5.02631005203742
30
0
41
1
10
37.3616165999487
20
-5.03908732658783
30
0
41
1
10
37.3407035478155
20
-5.06317431249977
30
0
41
1
10
37.3299250948285
20
-5.07449867659207
30
0
41
1
10
37.3188558960811
20
-5.08517515363431
30
0
0
SPLINE
5
EE
100
AcDbEntity
8
1
62
256
6
ByLayer
370
18
48
1
60
0
100
AcDbSpline
70
4
71
3
72
16
73
12
40
0
40
0
40
0
40
0
40
0.25
40
0.25
40
0.499999999999999
40
0.499999999999999
40
0.749999999999999
40
0.749999999999999
40
0.874999999999999
40
0.874999999999999
40
1
40
1
40
1
40
1
41
1
10
37.2649546258216
20
-3.10135258032946
30
0
41
1
10
37.2854637140909
20
-3.23449569862416
30
0
41
1
10
37.3057216323517
20
-3.36795787077458
30
0
41
1
10
37.345391848391
20
-3.63557644644419
30
0
41
1
10
37.3647926508743
20
-3.76975027544771
30
0
41
1
10
37.4024176984667
20
-4.03908549535424
30
0
41
1
10
37.4206510756559
20
-4.17423922110223
30
0
41
1
10
37.4467328021065
20
-4.37803441025159
30
0
41
1
10
37.4552145234057
20
-4.44616239849432
30
0
41
1
10
37.4716006293456
20
-4.58249188819698
30
0
41
1
10
37.4795067722399
20
-4.6507337724716
30
0
41
1
10
37.4870657100718
20
-4.71906900724363
30
0
0
SPLINE
5
EF
100
AcDbEntity
8
1
62
256
6
ByLayer
370
18
48
1
60
0
100
AcDbSpline
70
4
71
3
72
25
73
21
40
0
40
0
40
0
40
0
40
0.249999999999975
40
0.249999999999975
40
0.281249999999974
40
0.281249999999974
40
0.312499999999972
40
0.312499999999972
40
0.374999999999977
40
0.499999999999979
40
0.499999999999979
40
0.749999999999989
40
0.749999999999989
40
0.874999999999999
40
0.874999999999999
40
0.906249999999999
40
0.906249999999999
40
0.937499999999999
40
0.937499999999999
40
1
40
1
40
1
40
1
41
1
10
34.6281771190156
20
-0.53229037830468
30
0
41
1
10
34.8213953256555
20
-0.78215262865379
30
0
41
1
10
35.0234525867027
20
-1.02504447714281
30
0
41
1
10
35.2609263692637
20
-1.29028622019894
30
0
41
1
10
35.2874533998344
20
-1.31964629044228
30
0
41
1
10
35.3407901262887
20
-1.37814352350804
30
0
41
1
10
35.3676035350397
20
-1.40728414838642
30
0
41
1
10
35.4481991017103
20
-1.49408409831378
30
0
41
1
10
35.6102766312573
20
-1.66548810062986
30
0
41
1
10
35.7749423772804
20
-1.83048023187536
30
0
41
1
10
36.1075571362209
20
-2.1523307527695
30
0
41
1
10
36.3336711382674
20
-2.35606977183593
30
0
41
1
10
36.6788561792029
20
-2.64677953297897
30
0
41
1
10
36.7949220319371
20
-2.74119511838413
30
0
41
1
10
36.9412177252791
20
-2.85620866162086
30
0
41
1
10
36.9705375727014
20
-2.87906097453953
30
0
41
1
10
37.0292977993408
20
-2.92446700312431
30
0
41
1
10
37.0587590773131
20
-2.94703651860527
30
0
41
1
10
37.1471463726316
20
-3.0141669043376
30
0
41
1
10
37.2060572406389
20
-3.05813709343605
30
0
41
1
10
37.2649546258212
20
-3.10135258032852
30
0
0
SPLINE
5
F0
100
AcDbEntity
8
1
62
256
6
ByLayer
370
18
48
1
60
0
100
AcDbSpline
70
4
71
3
72
21
73
17
40
0
40
0
40
0
40
0
40
0.250000000000024
40
0.250000000000024
40
0.37500000000002
40
0.37500000000002
40
0.500000000000016
40
0.500000000000016
40
0.625000000000012
40
0.625000000000012
40
0.750000000000008
40
0.875000000000004
40
0.875000000000004
40
0.937500000000002
40
0.937500000000002
40
1
40
1
40
1
40
1
41
1
10
34.6281771190133
20
-0.532290378301752
30
0
41
1
10
34.6011227521376
20
-0.497304726033803
30
0
41
1
10
34.5779786018472
20
-0.46015046690485
30
0
41
1
10
34.5506526893084
20
-0.400303114883684
30
0
41
1
10
34.5427657807325
20
-0.379530052729677
30
0
41
1
10
34.5302160092888
20
-0.33771007310898
30
0
41
1
10
34.5254808220223
20
-0.316545465045294
30
0
41
1
10
34.5191931961
20
-0.27367926145314
30
0
41
1
10
34.5176398476647
20
-0.251977842497041
30
0
41
1
10
34.5179033264362
20
-0.207994009371987
30
0
41
1
10
34.5215272150341
20
-0.164630606011968
30
0
41
1
10
34.5313839282779
20
-0.122389449015373
30
0
41
1
10
34.5410155940815
20
-0.0911004590048208
30
0
41
1
10
34.544609381552
20
-0.0807150200469664
30
0
41
1
10
34.5524695949185
20
-0.0602399741595718
30
0
41
1
10
34.556738534666
20
-0.0501365802912801
30
0
41
1
10
34.5613325536192
20
-0.040161014139187
30
0
0
SPLINE
5
F1
100
AcDbEntity
8
1
62
256
6
ByLayer
370
18
48
1
60
0
100
AcDbSpline
70
4
71
5
72
31
73
25
40
0
40
0
40
0
40
0
40
0
40
0
40
0.0154415184262777
40
0.0783656608583218
40
0.120315089146351
40
0.183239231578395
40
0.225188659866424
40
0.288112802298468
40
0.330062230586498
40
0.392986373018542
40
0.455910515450586
40
0.497859943738615
40
0.539809372026644
40
0.602733514458688
40
0.665657656890732
40
0.707607085178761
40
0.770531227610805
40
0.83345537004285
40
0.875404798330875
40
0.917354226618908
40
0.980278369050952
40
1
40
1
40
1
40
1
40
1
40
1
41
1
10
25.8973981351337
20
3.36398024718974
30
0
41
1
10
25.9241549957271
20
3.36006553048364
30
0
41
1
10
26.0599459849947
20
3.3398542885096
30
0
41
1
10
26.2684263933783
20
3.30614824638664
30
0
41
1
10
26.5859409304361
20
3.24862160589939
30
0
41
1
10
26.97614488661
20
3.16654940664387
30
0
41
1
10
27.4486261108645
20
3.05189690369002
30
0
41
1
10
27.8847626255611
20
2.93242310807028
30
0
41
1
10
28.3572438498156
20
2.78885699301546
30
0
41
1
10
28.8297250740702
20
2.6317774900802
30
0
41
1
10
29.3022062983249
20
2.46068935274064
30
0
41
1
10
29.7383428130214
20
2.29178346256339
30
0
41
1
10
30.210824037276
20
2.09782144335864
30
0
41
1
10
30.6833052615305
20
1.89372442616511
30
0
41
1
10
31.1194417762271
20
1.69678484247288
30
0
41
1
10
31.5919230004816
20
1.47523256112927
30
0
41
1
10
32.1007489342942
20
1.22822801799325
30
0
41
1
10
32.5732301585488
20
0.992307606731117
30
0
41
1
10
33.0093666732453
20
0.770107733640657
30
0
41
1
10
33.4818478975
20
0.525790262969196
30
0
41
1
10
33.879468376514
20
0.318045151235566
30
0
41
1
10
34.1680547268539
20
0.166553957899453
30
0
41
1
10
34.3839516580778
20
0.0530693192448268
30
0
41
1
10
34.5271591701856
20
-0.0222007549574812
30
0
41
1
10
34.5613325536192
20
-0.040161014139187
30
0
0
SPLINE
5
F2
100
AcDbEntity
8
1
62
256
6
ByLayer
370
18
48
1
60
0
100
AcDbSpline
70
4
71
3
72
83
73
79
40
0
40
0
40
0
40
0
40
0.0474777435375664
40
0.0474777435375664
40
0.0949554870751327
40
0.0949554870751327
40
0.142433230612699
40
0.142433230612699
40
0.154302666497091
40
0.154302666497091
40
0.166172102381482
40
0.166172102381482
40
0.189910974150264
40
0.189910974150264
40
0.237388717687828
40
0.237388717687828
40
0.284866461225392
40
0.284866461225392
40
0.332344204762955
40
0.332344204762955
40
0.356083076531736
40
0.356083076531736
40
0.367952512416126
40
0.367952512416126
40
0.379821948300516
40
0.427299691838074
40
0.427299691838074
40
0.474777435375632
40
0.474777435375632
40
0.52225517891319
40
0.52225517891319
40
0.545994050681969
40
0.545994050681969
40
0.557863486566358
40
0.557863486566358
40
0.563798204508551
40
0.563798204508551
40
0.569732922450745
40
0.569732922450745
40
0.617210665988292
40
0.617210665988292
40
0.640949537757064
40
0.640949537757064
40
0.664688409525837
40
0.664688409525837
40
0.68842728129461
40
0.68842728129461
40
0.712166153063382
40
0.712166153063382
40
0.735905024832155
40
0.735905024832155
40
0.759643896600927
40
0.759643896600927
40
0.771513332485313
40
0.771513332485313
40
0.783382768369698
40
0.783382768369698
40
0.80712164013847
40
0.80712164013847
40
0.830860511907241
40
0.830860511907241
40
0.854599383676012
40
0.854599383676012
40
0.878338255444783
40
0.878338255444783
40
0.902077127213554
40
0.902077127213554
40
0.925815998982325
40
0.925815998982325
40
0.949554870751097
40
0.949554870751097
40
0.973293742519868
40
0.973293742519868
40
0.985163178404253
40
0.985163178404253
40
0.997032614288638
40
0.997032614288638
40
1
40
1
40
1
40
1
41
1
10
37.3188558960812
20
-5.08517515363405
30
0
41
1
10
37.0501885006393
20
-4.9789464643921
30
0
41
1
10
36.7827004956452
20
-4.8603134612639
30
0
41
1
10
36.2481281317421
20
-4.60042891233368
30
0
41
1
10
35.9810387551788
20
-4.45924287455355
30
0
41
1
10
35.4456341109703
20
-4.15548313735624
30
0
41
1
10
35.1773265263937
20
-3.99288984738317
30
0
41
1
10
34.8401417237036
20
-3.77671111095373
30
0
41
1
10
34.7726144153735
20
-3.73282779692738
30
0
41
1
10
34.6373511924926
20
-3.64377808850003
30
0
41
1
10
34.5695512714539
20
-3.59856815482203
30
0
41
1
10
34.3666087971566
20
-3.46159153123548
30
0
41
1
10
34.2317372975121
20
-3.36836087577089
30
0
41
1
10
33.8280525475231
20
-3.08334926654342
30
0
41
1
10
33.5601643063795
20
-2.88626257767444
30
0
41
1
10
33.0252089405963
20
-2.47979201795809
30
0
41
1
10
32.7581456932575
20
-2.27040310989855
30
0
41
1
10
32.2232329656219
20
-1.84099202615462
30
0
41
1
10
31.9553805605393
20
-1.62097881350343
30
0
41
1
10
31.5517369819461
20
-1.2843240607898
30
0
41
1
10
31.4168782885442
20
-1.17099855598448
30
0
41
1
10
31.213960793472
20
-0.999507444868783
30
0
41
1
10
31.1461550592591
20
-0.942040783218147
30
0
41
1
10
31.0108572747711
20
-0.827101674990814
30
0
41
1
10
30.6731462648404
20
-0.539527574632984
30
0
41
1
10
30.3377682632591
20
-0.251205787695625
30
0
41
1
10
29.8024818951238
20
0.209132663021194
30
0
41
1
10
29.5354990589103
20
0.438815389835071
30
0
41
1
10
29.0012105669755
20
0.895279521744584
30
0
41
1
10
28.7339100269642
20
1.12206354060911
30
0
41
1
10
28.3314292701954
20
1.45855728960814
30
0
41
1
10
28.1970157080671
20
1.57010786121958
30
0
41
1
10
27.9948378381226
20
1.73632157525879
30
0
41
1
10
27.927351764144
20
1.79154107984806
30
0
41
1
10
27.825965950234
20
1.87407097739131
30
0
41
1
10
27.7921446242945
20
1.90153103213231
30
0
41
1
10
27.7244470617383
20
1.95634730289919
30
0
41
1
10
27.6905572420232
20
1.98371438903649
30
0
41
1
10
27.3859349340637
20
2.22901169544898
30
0
41
1
10
27.1169804752505
20
2.44066455497557
30
0
41
1
10
26.7150920272663
20
2.7472085203313
30
0
41
1
10
26.5813457470315
20
2.84760406727452
30
0
41
1
10
26.3139826411343
20
3.04481539579214
30
0
41
1
10
26.1803974069367
20
3.14159610403607
30
0
41
1
10
25.913290975715
20
3.3312127368155
30
0
41
1
10
25.7797636939615
20
3.42405818940557
30
0
41
1
10
25.5125823918793
20
3.60553373702632
30
0
41
1
10
25.3789378004371
20
3.69412823596963
30
0
41
1
10
25.111233534275
20
3.86705971345387
30
0
41
1
10
24.9771641299221
20
3.95144790700789
30
0
41
1
10
24.7084508138127
20
4.11568546399408
30
0
41
1
10
24.5738081325838
20
4.19552247119981
30
0
41
1
10
24.3712545448319
20
4.31162605821487
30
0
41
1
10
24.3036315174771
20
4.34972197147351
30
0
41
1
10
24.1681872200714
20
4.42463704435983
30
0
41
1
10
24.1005878206425
20
4.46133037793592
30
0
41
1
10
23.8981002506054
20
4.56913283068241
30
0
41
1
10
23.7634951928715
20
4.63802079509563
30
0
41
1
10
23.4947405526163
20
4.77008792522443
30
0
41
1
10
23.3606276528254
20
4.83318493990956
30
0
41
1
10
23.092808845421
20
4.95320021724925
30
0
41
1
10
22.9590948405248
20
5.01013914460881
30
0
41
1
10
22.6918682295293
20
5.11769374511695
30
0
41
1
10
22.5583652188217
20
5.16826361927508
30
0
41
1
10
22.2912746647758
20
5.26324409579615
30
0
41
1
10
22.1576767307491
20
5.30771543239595
30
0
41
1
10
21.8902263877255
20
5.3903396915054
30
0
41
1
10
21.7563762429334
20
5.42848167285388
30
0
41
1
10
21.488245162643
20
5.49810139054986
30
0
41
1
10
21.3539599280433
20
5.52959334234981
30
0
41
1
10
21.0847126129676
20
5.58592728147198
30
0
41
1
10
20.949751056109
20
5.61076796440037
30
0
41
1
10
20.7466340521232
20
5.64298854824227
30
0
41
1
10
20.6789344618593
20
5.65286697516376
30
0
41
1
10
20.5438250500447
20
5.67086207931507
30
0
41
1
10
20.4763684378065
20
5.67898637825834
30
0
41
1
10
20.3921610829867
20
5.68803136055783
30
0
41
1
10
20.37532537282
20
5.68978402115559
30
0
41
1
10
20.3584953027587
20
5.69148050471838
30
0
0
SPLINE
5
F3
100
AcDbEntity
8
1
62
256
6
ByLayer
370
18
48
1
60
0
100
AcDbSpline
70
4
71
5
72
47
73
41
40
0
40
0
40
0
40
0
40
0
40
0
40
0.004719001719495
40
0.0275154459366964
40
0.0617101122624984
40
0.0845065564796998
40
0.118701222805502
40
0.141497667022703
40
0.175692333348505
40
0.209886999674307
40
0.232683443891509
40
0.25547988810871
40
0.289674554434512
40
0.323869220760314
40
0.346665664977516
40
0.380860331303318
40
0.41505499762912
40
0.43785144184632
40
0.460647886063523
40
0.494842552389325
40
0.529037218715127
40
0.551833662932328
40
0.586028329258131
40
0.608824773475332
40
0.643019439801134
40
0.665815884018335
40
0.700010550344137
40
0.73420521666994
40
0.757001660887141
40
0.791196327212943
40
0.813992771430144
40
0.848187437755946
40
0.870983881973148
40
0.90517854829895
40
0.939373214624752
40
0.962169658841953
40
0.984966103059155
40
1
40
1
40
1
40
1
40
1
40
1
41
1
10
14.8708102776797
20
3.47360428075118
30
0
41
1
10
14.8858574267232
20
3.47259204047774
30
0
41
1
10
14.9735939948828
20
3.46656080185218
30
0
41
1
10
15.1703646917165
20
3.45134697322243
30
0
41
1
10
15.4398248076663
20
3.4253461901728
30
0
41
1
10
15.8183190522903
20
3.37896824825171
30
0
41
1
10
16.2544555669868
20
3.31044041896382
30
0
41
1
10
16.7269367912414
20
3.22022570211698
30
0
41
1
10
17.199418015496
20
3.11442609655415
30
0
41
1
10
17.6718992397505
20
2.99205972785575
30
0
41
1
10
18.1080357544471
20
2.86575706624393
30
0
41
1
10
18.5805169787016
20
2.71515284689323
30
0
41
1
10
19.0529982029563
20
2.55143117718362
30
0
41
1
10
19.4891347176528
20
2.38884527373799
30
0
41
1
10
19.9616159419073
20
2.20116454538692
30
0
41
1
10
20.47044187572
20
1.98647773765816
30
0
41
1
10
20.9429230999745
20
1.7765408725501
30
0
41
1
10
21.3790596146711
20
1.57482695044467
30
0
41
1
10
21.8515408389257
20
1.34880406839105
30
0
41
1
10
22.3240220631803
20
1.11626484219391
30
0
41
1
10
22.7601585778768
20
0.89652652622425
30
0
41
1
10
23.2326398021314
20
0.65414350477451
30
0
41
1
10
23.7051210263859
20
0.408317511148596
30
0
41
1
10
24.1776022506405
20
0.160579509785322
30
0
41
1
10
24.6137387653371
20
-0.068874645513489
30
0
41
1
10
25.0862199895916
20
-0.317055724604842
30
0
41
1
10
25.5587012138462
20
-0.563765951592188
30
0
41
1
10
26.0311824381008
20
-0.807513658670047
30
0
41
1
10
26.5036636623554
20
-1.04735841180053
30
0
41
1
10
26.97614488661
20
-1.28160471833158
30
0
41
1
10
27.4486261108645
20
-1.50960093286741
30
0
41
1
10
27.884762625561
20
-1.71337670580741
30
0
41
1
10
28.3572438498156
20
-1.92580090460993
30
0
41
1
10
28.8297250740702
20
-2.12897073000639
30
0
41
1
10
29.3022062983248
20
-2.3208534598069
30
0
41
1
10
29.7383428130213
20
-2.48762147970783
30
0
41
1
10
30.1497274389144
20
-2.63438349415017
30
0
41
1
10
30.4520779361333
20
-2.73541606098917
30
0
41
1
10
30.645394304678
20
-2.79710879145387
30
0
41
1
10
30.7660212541067
20
-2.83444725112835
30
0
41
1
10
30.8139587844193
20
-2.84910136592356
30
0
0
SPLINE
5
F4
100
AcDbEntity
8
1
62
256
6
ByLayer
370
18
48
1
60
0
100
AcDbSpline
70
4
71
3
72
21
73
17
40
0
40
0
40
0
40
0
40
0.0312500000000003
40
0.0312500000000003
40
0.0625000000000007
40
0.0625000000000007
40
0.125000000000001
40
0.250000000000001
40
0.250000000000001
40
0.375000000000001
40
0.375000000000001
40
0.500000000000001
40
0.500000000000001
40
0.750000000000001
40
0.750000000000001
40
1
40
1
40
1
40
1
41
1
10
37.0721826050565
20
0.466666030819056
30
0
41
1
10
37.0772579420067
20
0.475392352290925
30
0
41
1
10
37.0816679538469
20
0.484403574979609
30
0
41
1
10
37.0899112132966
20
0.502665957651601
30
0
41
1
10
37.0937229550005
20
0.511926519901493
30
0
41
1
10
37.1046383744999
20
0.539916858155721
30
0
41
1
10
37.124441014719
20
0.596760666551404
30
0
41
1
10
37.1415138331365
20
0.654162930626569
30
0
41
1
10
37.1634842424896
20
0.730711480377124
30
0
41
1
10
37.1740061821178
20
0.76901158783005
30
0
41
1
10
37.1945450890007
20
0.845537948150081
30
0
41
1
10
37.2045513007552
20
0.88376739158025
30
0
41
1
10
37.2340059013393
20
0.998286316660085
30
0
41
1
10
37.2528941782902
20
1.07438624745794
30
0
41
1
10
37.2894203051938
20
1.2257092308524
30
0
41
1
10
37.3070541634586
20
1.3009763965691
30
0
41
1
10
37.3240449566519
20
1.37584701401329
30
0
0
SPLINE
5
F5
100
AcDbEntity
8
1
62
256
6
ByLayer
370
18
48
1
60
0
100
AcDbSpline
70
4
71
3
72
8
73
4
40
0
40
0
40
0
40
0
40
1
40
1
40
1
40
1
41
1
10
37.9436440304416
20
-0.0045207264339808
30
0
41
1
10
37.8977849812652
20
0.350536181942061
30
0
41
1
10
37.8519259320887
20
0.705593090318104
30
0
41
1
10
37.8060668829122
20
1.06064999869415
30
0
0
SPLINE
5
F6
100
AcDbEntity
8
1
62
256
6
ByLayer
370
18
48
1
60
0
100
AcDbSpline
70
4
71
3
72
18
73
14
40
0
40
0
40
0
40
0
40
0.250000000000016
40
0.250000000000016
40
0.375000000000016
40
0.375000000000016
40
0.500000000000016
40
0.500000000000016
40
0.750000000000013
40
0.750000000000013
40
0.875000000000007
40
0.875000000000007
40
1
40
1
40
1
40
1
41
1
10
37.7950214056689
20
1.13006886577057
30
0
41
1
10
37.7971692569564
20
1.12062827087942
30
0
41
1
10
37.7991185230994
20
1.11174319605891
30
0
41
1
10
37.8016503701755
20
1.0995123065041
30
0
41
1
10
37.8024303957129
20
1.09560837546141
30
0
41
1
10
37.8038140051293
20
1.08835321552539
30
0
41
1
10
37.8044208301979
20
1.08498722417809
30
0
41
1
10
37.8059632974869
20
1.07574502815376
30
0
41
1
10
37.8066226394446
20
1.07071934490699
30
0
41
1
10
37.8069393097318
20
1.06525045915416
30
0
41
1
10
37.8069305357835
20
1.06377559483013
30
0
41
1
10
37.8066750186655
20
1.06162952883918
30
0
41
1
10
37.8064295716773
20
1.06094583367505
30
0
41
1
10
37.8060668829052
20
1.06064999874636
30
0
0
SPLINE
5
F7
100
AcDbEntity
8
1
62
256
6
ByLayer
370
18
48
1
60
0
100
AcDbSpline
70
4
71
3
72
45
73
41
40
0
40
0
40
0
40
0
40
0.032165874102051
40
0.064586471351468
40
0.0972590725353499
40
0.130180924554797
40
0.163349245589527
40
0.196761264587304
40
0.230414234887403
40
0.264305431917167
40
0.298432157199811
40
0.332791750811906
40
0.367381613126316
40
0.40219923659067
40
0.437242248171206
40
0.472508456436605
40
0.507995855575219
40
0.543702576713464
40
0.579626836232599
40
0.615766893041206
40
0.652121017597678
40
0.688687477321185
40
0.725464554013971
40
0.740301869894877
40
0.755304176930376
40
0.770471253094225
40
0.785802880098718
40
0.801298844344402
40
0.816958937943257
40
0.832782959622645
40
0.848770715101926
40
0.864922017192257
40
0.881236685847246
40
0.89771454817676
40
0.914355438430023
40
0.931159197950813
40
0.948125675113036
40
0.96525472524322
40
0.98254621053983
40
1
40
1
40
1
40
1
41
1
10
37.7950182851996
20
1.130072196713
30
0
41
1
10
37.7939266420588
20
1.13117946362141
30
0
41
1
10
37.7917347110011
20
1.13340276593962
30
0
41
1
10
37.7872701120387
20
1.13722518771181
30
0
41
1
10
37.7819142900906
20
1.14142479230816
30
0
41
1
10
37.7755718570235
20
1.14603879674831
30
0
41
1
10
37.7682565593813
20
1.15105962970898
30
0
41
1
10
37.7599546710085
20
1.15649077175342
30
0
41
1
10
37.7506619476412
20
1.16233166315752
30
0
41
1
10
37.7403736250286
20
1.16858179549095
30
0
41
1
10
37.729087138109
20
1.17523960618814
30
0
41
1
10
37.7168013851737
20
1.18230278573037
30
0
41
1
10
37.7035169179393
20
1.18976820758829
30
0
41
1
10
37.6892358704761
20
1.19763196600013
30
0
41
1
10
37.6739619481922
20
1.20588939020871
30
0
41
1
10
37.6577004003201
20
1.21453506575682
30
0
41
1
10
37.6404579956313
20
1.22356285159122
30
0
41
1
10
37.6222429903535
20
1.23296589698259
30
0
41
1
10
37.6030650897875
20
1.24273665805668
30
0
41
1
10
37.5829354323973
20
1.25286691229166
30
0
41
1
10
37.5618664533214
20
1.26334779532667
30
0
41
1
10
37.5398721555623
20
1.2741697738183
30
0
41
1
10
37.5215650669246
20
1.2830838863907
30
0
41
1
10
37.5074149241055
20
1.28992587776841
30
0
41
1
10
37.4977315322761
20
1.2945902909922
30
0
41
1
10
37.4878177309858
20
1.29934780153516
30
0
41
1
10
37.4776716669718
20
1.30419889290337
30
0
41
1
10
37.4672916355406
20
1.30914393323636
30
0
41
1
10
37.4566760339168
20
1.31418324281552
30
0
41
1
10
37.4458233788386
20
1.31931707347025
30
0
41
1
10
37.4347323070867
20
1.32454561181029
30
0
41
1
10
37.4234015789386
20
1.3298689764467
30
0
41
1
10
37.4118300876947
20
1.33528721479189
30
0
41
1
10
37.400016841862
20
1.34080030762024
30
0
41
1
10
37.3879610521146
20
1.34640814256198
30
0
41
1
10
37.3756618210037
20
1.35211060576182
30
0
41
1
10
37.3631193370739
20
1.35790722596826
30
0
41
1
10
37.3503303725441
20
1.36379851338873
30
0
41
1
10
37.3373053467128
20
1.36978088246829
30
0
41
1
10
37.3284788299528
20
1.37381868312903
30
0
41
1
10
37.3240449561017
20
1.37584701426491
30
0
0
SPLINE
5
F8
100
AcDbEntity
8
1
62
256
6
ByLayer
370
18
48
1
60
0
100
AcDbSpline
70
4
71
5
72
30
73
24
40
0
40
0
40
0
40
0
40
0
40
0
40
0.150218093717564
40
0.187772617146955
40
0.244104402291042
40
0.281658925720433
40
0.33799071086452
40
0.375545234293911
40
0.431877019437997
40
0.488208804582084
40
0.525763328011475
40
0.582095113155562
40
0.619649636584953
40
0.675981421729039
40
0.713535945158431
40
0.769867730302517
40
0.826199515446604
40
0.863754038875995
40
0.901308562305386
40
0.957640347449473
40
1
40
1
40
1
40
1
40
1
40
1
41
1
10
10.2212337803514
20
1.67789772556174
30
0
41
1
10
10.5119914568157
20
1.54375454867835
30
0
41
1
10
10.8754385523962
20
1.37108425022828
30
0
41
1
10
11.3479197766508
20
1.13958248829607
30
0
41
1
10
11.8930904200214
20
0.864067223333791
30
0
41
1
10
12.5472951920663
20
0.525844562765627
30
0
41
1
10
12.9834317067628
20
0.297961206908894
30
0
41
1
10
13.4559129310173
20
0.0497090164569727
30
0
41
1
10
13.9283941552719
20
-0.198844824530937
30
0
41
1
10
14.4008753795265
20
-0.446375850421163
30
0
41
1
10
14.8733566037811
20
-0.691749408918724
30
0
41
1
10
15.3458378280357
20
-0.933413467866075
30
0
41
1
10
15.8183190522902
20
-1.17050790768212
30
0
41
1
10
16.2544555669868
20
-1.38419681644768
30
0
41
1
10
16.7269367912414
20
-1.60894804243054
30
0
41
1
10
17.199418015496
20
-1.82597921774681
30
0
41
1
10
17.6718992397505
20
-2.03333550730267
30
0
41
1
10
18.1080357544471
20
-2.21566957601993
30
0
41
1
10
18.5805169787016
20
-2.40239651328048
30
0
41
1
10
19.0259541584765
20
-2.56749338239152
30
0
41
1
10
19.3623572095772
20
-2.68402516768805
30
0
41
1
10
19.6260708415619
20
-2.77006824678827
30
0
41
1
10
19.8170950544304
20
-2.82950521419551
30
0
41
1
10
19.8990851386249
20
-2.85447616477399
30
0
0
SPLINE
5
F9
100
AcDbEntity
8
1
62
256
6
ByLayer
370
18
48
1
60
0
100
AcDbSpline
70
4
71
3
72
8
73
4
40
0
40
0
40
0
40
0
40
1
40
1
40
1
40
1
41
1
10
11.1613524616651
20
-1.91257368305236
30
0
41
1
10
11.2891849996425
20
-1.96220367345987
30
0
41
1
10
11.4216345448889
20
-2.01007416847955
30
0
41
1
10
11.5579399325283
20
-2.05733574912836
30
0
0
SPLINE
5
FA
100
AcDbEntity
8
1
62
256
6
ByLayer
370
18
48
1
60
0
100
AcDbSpline
70
4
71
3
72
59
73
55
40
0
40
0
40
0
40
0
40
0.0224146315088374
40
0.0224146315088374
40
0.0573283946692358
40
0.0573283946692358
40
0.0922421578296343
40
0.0922421578296343
40
0.127155920990033
40
0.127155920990033
40
0.162069684150431
40
0.162069684150431
40
0.19698344731083
40
0.19698344731083
40
0.214440328891028
40
0.214440328891028
40
0.231897210471226
40
0.231897210471226
40
0.301724736792025
40
0.301724736792025
40
0.336638499952425
40
0.336638499952425
40
0.371552263112824
40
0.371552263112824
40
0.441379789433625
40
0.441379789433625
40
0.476293552594026
40
0.476293552594026
40
0.493750434174225
40
0.493750434174225
40
0.511207315754424
40
0.511207315754424
40
0.581034842075221
40
0.581034842075221
40
0.615948605235619
40
0.615948605235619
40
0.650862368396018
40
0.685776131556418
40
0.685776131556418
40
0.720689894716817
40
0.720689894716817
40
0.790517421037613
40
0.790517421037613
40
0.807974302617813
40
0.807974302617813
40
0.825431184198013
40
0.825431184198013
40
0.860344947358411
40
0.860344947358411
40
0.930172473679206
40
0.930172473679206
40
0.965086236839603
40
0.965086236839603
40
1
40
1
40
1
40
1
41
1
10
23.0829702827183
20
-4.95645664638471
30
0
41
1
10
22.9970824899522
20
-4.99356329665699
30
0
41
1
10
22.9112612601643
20
-5.02939142493903
30
0
41
1
10
22.6918682295293
20
-5.11769374511712
30
0
41
1
10
22.5583652188217
20
-5.16826361927525
30
0
41
1
10
22.2912746647758
20
-5.26324409579632
30
0
41
1
10
22.1576767307491
20
-5.30771543239609
30
0
41
1
10
21.8902263877255
20
-5.39033969150555
30
0
41
1
10
21.7563762429334
20
-5.42848167285405
30
0
41
1
10
21.488245162643
20
-5.49810139055
30
0
41
1
10
21.3539599280432
20
-5.52959334234998
30
0
41
1
10
21.0847126129676
20
-5.58592728147215
30
0
41
1
10
20.9497510561089
20
-5.61076796440051
30
0
41
1
10
20.7466340521232
20
-5.64298854824241
30
0
41
1
10
20.6789344618593
20
-5.6528669751639
30
0
41
1
10
20.5438250500447
20
-5.67086207931521
30
0
41
1
10
20.4763684378065
20
-5.67898637825849
30
0
41
1
10
20.139539625592
20
-5.71516624224967
30
0
41
1
10
19.8715823944848
20
-5.72968507413157
30
0
41
1
10
19.4704178239523
20
-5.73088166473781
30
0
41
1
10
19.3368241337673
20
-5.72786455181318
30
0
41
1
10
19.0696947219371
20
-5.71504104672559
30
0
41
1
10
18.936162945872
20
-5.7052229567029
30
0
41
1
10
18.5354299313511
20
-5.66517252581741
30
0
41
1
10
18.2680504376318
20
-5.62450501962601
30
0
41
1
10
17.8652974441127
20
-5.54324231317477
30
0
41
1
10
17.7307686182955
20
-5.51277797272303
30
0
41
1
10
17.5284137615926
20
-5.46185133405348
30
0
41
1
10
17.4608688506205
20
-5.44399735382635
30
0
41
1
10
17.3255644278536
20
-5.40650894686488
30
0
41
1
10
17.2577945805712
20
-5.38687389129061
30
0
41
1
10
16.9198568466888
20
-5.28479587656312
30
0
41
1
10
16.6511668134298
20
-5.19039573863338
30
0
41
1
10
16.2492639129482
20
-5.03112336843608
30
0
41
1
10
16.1154989637226
20
-4.97504286987621
30
0
41
1
10
15.8482107388039
20
-4.85686359226932
30
0
41
1
10
15.5811431024256
20
-4.73274177096647
30
0
41
1
10
15.3140375606504
20
-4.59731887649957
30
0
41
1
10
15.0467068653569
20
-4.45642444250291
30
0
41
1
10
14.9129282203999
20
-4.38325197044588
30
0
41
1
10
14.5109970631522
20
-4.15541014855876
30
0
41
1
10
14.2422631020003
20
-3.99223992367797
30
0
41
1
10
13.9041907145477
20
-3.77544123168272
30
0
41
1
10
13.8364042252413
20
-3.73139444949996
30
0
41
1
10
13.7011237335229
20
-3.64237549190037
30
0
41
1
10
13.6335858468198
20
-3.59737726488805
30
0
41
1
10
13.4312466636459
20
-3.46094649473992
30
0
41
1
10
13.2967290472491
20
-3.36805689760007
30
0
41
1
10
12.8940591266073
20
-3.08373054115353
30
0
41
1
10
12.6267051236538
20
-2.88683135510712
30
0
41
1
10
12.2258893716922
20
-2.58238750997478
30
0
41
1
10
12.0923282156541
20
-2.47937374984255
30
0
41
1
10
11.8251396805731
20
-2.270339935203
30
0
41
1
10
11.6915182137863
20
-2.16429491385608
30
0
41
1
10
11.5577490676332
20
-2.05687758388655
30
0
0
SPLINE
5
FB
100
AcDbEntity
8
1
62
256
6
ByLayer
370
18
48
1
60
0
100
AcDbSpline
70
4
71
3
72
20
73
16
40
0
40
0
40
0
40
0
40
0.250000000000019
40
0.250000000000019
40
0.375000000000009
40
0.375000000000009
40
0.499999999999999
40
0.499999999999999
40
0.750000000000019
40
0.750000000000019
40
0.875000000000011
40
0.875000000000011
40
0.937500000000005
40
0.937500000000005
40
1
40
1
40
1
40
1
41
1
10
36.9619046373678
20
0.515176462771421
30
0
41
1
10
37.0105244634943
20
0.474247757707985
30
0
41
1
10
37.0586153715048
20
0.434684323641903
30
0
41
1
10
37.1299885861946
20
0.377419689856651
30
0
41
1
10
37.1536518536593
20
0.358676475289315
30
0
41
1
10
37.2007042288333
20
0.321894106100416
30
0
41
1
10
37.2238598195669
20
0.304037543367798
30
0
41
1
10
37.2919948943918
20
0.252170899529887
30
0
41
1
10
37.335754441351
20
0.219783764014466
30
0
41
1
10
37.3986498414532
20
0.1742731788882
30
0
41
1
10
37.4191501862746
20
0.159620424271679
30
0
41
1
10
37.4491322317626
20
0.138399727338452
30
0
41
1
10
37.4589976415995
20
0.131452873406204
30
0
41
1
10
37.4784541225644
20
0.117811292704971
30
0
41
1
10
37.4880208360194
20
0.111133727187479
30
0
41
1
10
37.4973600608341
20
0.104635320256136
30
0
0
SPLINE
5
FC
100
AcDbEntity
8
1
62
256
6
ByLayer
370
18
48
1
60
0
100
AcDbSpline
70
4
71
3
72
26
73
22
40
0
40
0
40
0
40
0
40
0.125000000000021
40
0.125000000000021
40
0.187500000000026
40
0.187500000000026
40
0.250000000000031
40
0.250000000000031
40
0.500000000000023
40
0.500000000000023
40
0.562500000000008
40
0.562500000000008
40
0.624999999999992
40
0.624999999999992
40
0.749999999999993
40
0.749999999999993
40
0.812499999999994
40
0.812499999999994
40
0.874999999999996
40
0.874999999999996
40
1
40
1
40
1
40
1
41
1
10
37.94171859234
20
-0.008365344206112
30
0
41
1
10
37.9408578991847
20
-0.0066235005893418
30
0
41
1
10
37.9375998332217
20
-0.0044479049891208
30
0
41
1
10
37.9290995511339
20
-0.0005307854171406
30
0
41
1
10
37.9256709053515
20
0.0008826128126884
30
0
41
1
10
37.9175594865671
20
0.003936316064113
30
0
41
1
10
37.9128495829963
20
0.005584640685413
30
0
41
1
10
37.8863805455875
20
0.0143034740831069
30
0
41
1
10
37.8561059382057
20
0.0227768741617353
30
0
41
1
10
37.8070320402897
20
0.0352178980912186
30
0
41
1
10
37.7966060616487
20
0.0378100504010206
30
0
41
1
10
37.7748322658749
20
0.0431272841411783
30
0
41
1
10
37.7634976436781
20
0.0458497175898458
30
0
41
1
10
37.7282081842913
20
0.0542002604617551
30
0
41
1
10
37.7029595824148
20
0.0600127771959649
30
0
41
1
10
37.6626045216547
20
0.0690853477542532
30
0
41
1
10
37.6487374234486
20
0.0721687487671545
30
0
41
1
10
37.6201735070189
20
0.0784538152967684
30
0
41
1
10
37.6054286490788
20
0.0816657565116827
30
0
41
1
10
37.5604360623684
20
0.0913739769225401
30
0
41
1
10
37.5293753958319
20
0.0979556064134783
30
0
41
1
10
37.4973600608417
20
0.104635320251362
30
0
0
SPLINE
5
FD
100
AcDbEntity
8
1
62
256
6
ByLayer
370
18
48
1
60
0
100
AcDbSpline
70
4
71
3
72
8
73
4
40
0
40
0
40
0
40
0
40
1
40
1
40
1
40
1
41
1
10
37.9436440304343
20
-0.0045207263737268
30
0
41
1
10
37.943025985573
20
-0.0059934633567877
30
0
41
1
10
37.9423842909846
20
-0.0072759527668609
30
0
41
1
10
37.9417185923357
20
-0.0083653442080447
30
0
0
SPLINE
5
FE
100
AcDbEntity
8
1
62
256
6
ByLayer
370
18
48
1
60
0
100
AcDbSpline
70
4
71
3
72
30
73
26
40
0
40
0
40
0
40
0
40
0.145719488548834
40
0.145719488548834
40
0.218579232823237
40
0.218579232823237
40
0.29143897709764
40
0.29143897709764
40
0.437158465646422
40
0.437158465646422
40
0.510018209920824
40
0.510018209920824
40
0.546448082058014
40
0.546448082058014
40
0.582877954195205
40
0.582877954195205
40
0.728597442743933
40
0.728597442743933
40
0.801457187018304
40
0.801457187018304
40
0.837887059155496
40
0.837887059155496
40
0.874316931292688
40
0.874316931292688
40
1
40
1
40
1
40
1
41
1
10
37.0721826050609
20
0.466666030817066
30
0
41
1
10
37.1316216190678
20
0.439403381160503
30
0
41
1
10
37.1898562765288
20
0.412398131440199
30
0
41
1
10
37.2754272102991
20
0.372306683061936
30
0
41
1
10
37.3036518852206
20
0.359011996405997
30
0
41
1
10
37.3594832819103
20
0.332565765547145
30
0
41
1
10
37.3871735794264
20
0.319374758562645
30
0
41
1
10
37.467648468809
20
0.280794020560563
30
0
41
1
10
37.5183790856135
20
0.256201175542515
30
0
41
1
10
37.5900191302654
20
0.220766456623266
30
0
41
1
10
37.6131523570288
20
0.209196874787977
30
0
41
1
10
37.6466897615371
20
0.192245045189963
30
0
41
1
10
37.657704312553
20
0.186644810095714
30
0
41
1
10
37.6791594428555
20
0.175686387829074
30
0
41
1
10
37.6895993356177
20
0.170325158507893
30
0
41
1
10
37.7403754152498
20
0.14404985456531
30
0
41
1
10
37.7764796187097
20
0.124682319353582
30
0
41
1
10
37.8237223738813
20
0.0979856770980234
30
0
41
1
10
37.8383100560215
20
0.0894968857404592
30
0
41
1
10
37.8583604190248
20
0.0773487570538407
30
0
41
1
10
37.8647056611072
20
0.0734168968806728
30
0
41
1
10
37.8766548581042
20
0.0658241049313233
30
0
41
1
10
37.8822705801115
20
0.0621557778691795
30
0
41
1
10
37.9056769452376
20
0.0463767437055083
30
0
41
1
10
37.9196255326584
20
0.0356018131755889
30
0
41
1
10
37.9292340669553
20
0.0261302607991922
30
0
0
SPLINE
5
FF
100
AcDbEntity
8
1
62
256
6
ByLayer
370
18
48
1
60
0
100
AcDbSpline
70
4
71
3
72
10
73
6
40
0
40
0
40
0
40
0
40
0.263766839933922
40
0.263766839933922
40
1
40
1
40
1
40
1
41
1
10
37.9408223865255
20
0.0121283602464644
30
0
41
1
10
37.9418358826944
20
0.0104487645538711
30
0
41
1
10
37.9426508730349
20
0.008826832208058
30
0
41
1
10
37.9449707593368
20
0.0029045579786384
30
0
41
1
10
37.9451127419493
20
-0.0010209387359623
30
0
41
1
10
37.9436440304338
20
-0.0045207263752616
30
0
0
SPLINE
5
100
100
AcDbEntity
8
1
62
256
6
ByLayer
370
18
48
1
60
0
100
AcDbSpline
70
4
71
3
72
14
73
10
40
0
40
0
40
0
40
0
40
0.12950596030576
40
0.259011920611519
40
0.388517880917279
40
0.518023841223038
40
0.647529801528797
40
0.777035761834557
40
1
40
1
40
1
40
1
41
1
10
10.2212337803514
20
1.67789772556174
30
0
41
1
10
10.0810059760919
20
1.58740336975086
30
0
41
1
10
9.78560742992488
20
1.43775323726862
30
0
41
1
10
9.35826396848688
20
1.26016350513018
30
0
41
1
10
8.94438851824464
20
1.14249026297745
30
0
41
1
10
8.54874512285249
20
1.0892688064294
30
0
41
1
10
8.17456859308928
20
1.10584307078355
30
0
41
1
10
7.73129381214213
20
1.2236907371998
30
0
41
1
10
7.42105702506601
20
1.41863699469033
30
0
41
1
10
7.21712288279008
20
1.58578829445699
30
0
0
SPLINE
5
101
100
AcDbEntity
8
1
62
256
6
ByLayer
370
18
48
1
60
0
100
AcDbSpline
70
4
71
5
72
42
73
36
40
0
40
0
40
0
40
0
40
0
40
0
40
0.0012991359936239
40
0.0405774038768519
40
0.0667629157990037
40
0.106041183682232
40
0.14531945156546
40
0.171504963487611
40
0.21078323137084
40
0.236968743292991
40
0.276247011176219
40
0.302432523098371
40
0.341710790981599
40
0.380989058864827
40
0.407174570786981
40
0.433360082709131
40
0.472638350592359
40
0.511916618475587
40
0.538102130397739
40
0.577380398280967
40
0.616658666164195
40
0.642844178086347
40
0.669029690008499
40
0.708307957891727
40
0.747586225774954
40
0.773771737697107
40
0.813050005580334
40
0.839235517502486
40
0.878513785385714
40
0.904699297307866
40
0.943977565191094
40
0.983255833074322
40
1
40
1
40
1
40
1
40
1
40
1
41
1
10
36.9620903398504
20
0.515025272259152
30
0
41
1
10
36.9584840158262
20
0.518260433686777
30
0
41
1
10
36.845843563128
20
0.619302050102704
30
0
41
1
10
36.6605136913136
20
0.785242269901772
30
0
41
1
10
36.3661496908251
20
1.04775138789571
30
0
41
1
10
35.9627515616625
20
1.4042702404418
30
0
41
1
10
35.4902703374079
20
1.81443777872417
30
0
41
1
10
35.0177891131533
20
2.21583559914944
30
0
41
1
10
34.5453078888987
20
2.60540360670339
30
0
41
1
10
34.0728266646441
20
2.98228708844036
30
0
41
1
10
33.6366901499476
20
3.31696160077078
30
0
41
1
10
33.1642089256931
20
3.66340987303332
30
0
41
1
10
32.6917277014385
20
3.99223948732865
30
0
41
1
10
32.2192464771839
20
4.2998964425642
30
0
41
1
10
31.7831099624873
20
4.56470346734272
30
0
41
1
10
31.3106287382328
20
4.82938384869186
30
0
41
1
10
30.8381475139781
20
5.0707325038222
30
0
41
1
10
30.4020109992816
20
5.2710033083396
30
0
41
1
10
29.929529775027
20
5.46248701987454
30
0
41
1
10
29.4207038412144
20
5.63741155214527
30
0
41
1
10
28.9482226169599
20
5.76990243576464
30
0
41
1
10
28.5120861022633
20
5.86645926254363
30
0
41
1
10
28.0396048780088
20
5.94267033162825
30
0
41
1
10
27.5671236537542
20
5.99017116321207
30
0
41
1
10
27.1309871390576
20
6.00731465419412
30
0
41
1
10
26.658505914803
20
5.99685163092374
30
0
41
1
10
26.1860246905485
20
5.95452282263895
30
0
41
1
10
25.7135434662939
20
5.88343483854939
30
0
41
1
10
25.2774069515974
20
5.79155288436752
30
0
41
1
10
24.8049257273428
20
5.66405647529601
30
0
41
1
10
24.3324445030882
20
5.50915551267292
30
0
41
1
10
23.8861718893626
20
5.33517146339611
30
0
41
1
10
23.5489334043111
20
5.18665008322799
30
0
41
1
10
23.2843843383756
20
5.06004265900103
30
0
41
1
10
23.1288694011143
20
4.98221395389112
30
0
41
1
10
23.0823885925271
20
4.9586506846332
30
0
0
SPLINE
5
102
100
AcDbEntity
8
1
62
256
6
ByLayer
370
18
48
1
60
0
100
AcDbSpline
70
4
71
5
72
46
73
40
40
0
40
0
40
0
40
0
40
0
40
0
40
0.0133565135551238
40
0.047669072178594
40
0.0819816308020641
40
0.104856669884378
40
0.139169228507848
40
0.162044267590161
40
0.196356826213631
40
0.219231865295945
40
0.253544423919415
40
0.287856982542885
40
0.310732021625198
40
0.345044580248668
40
0.367919619330982
40
0.402232177954452
40
0.425107217036765
40
0.459419775660236
40
0.493732334283706
40
0.51660737336602
40
0.539482412448333
40
0.573794971071803
40
0.608107529695273
40
0.630982568777586
40
0.665295127401056
40
0.699607686024526
40
0.72248272510684
40
0.745357764189153
40
0.779670322812624
40
0.813982881436094
40
0.836857920518407
40
0.871170479141877
40
0.894045518224191
40
0.928358076847661
40
0.951233115929974
40
0.985545674553444
40
1
40
1
40
1
40
1
40
1
40
1
41
1
10
27.8883710180526
20
-5.95452994994903
30
0
41
1
10
27.8459283709278
20
-5.9592255925956
30
0
41
1
10
27.6944515951288
20
-5.97490657544071
30
0
41
1
10
27.4339406906556
20
-5.99525158145622
30
0
41
1
10
27.1007403670664
20
-6.00664484412999
30
0
41
1
10
26.658505914803
20
-5.99685163092394
30
0
41
1
10
26.1860246905484
20
-5.95452282263915
30
0
41
1
10
25.7135434662939
20
-5.88343483854959
30
0
41
1
10
25.2774069515973
20
-5.79155288436769
30
0
41
1
10
24.8049257273427
20
-5.66405647529621
30
0
41
1
10
24.3324445030881
20
-5.50915551267309
30
0
41
1
10
23.8599632788336
20
-5.32495376227479
30
0
41
1
10
23.387482054579
20
-5.11501492510502
30
0
41
1
10
22.9150008303244
20
-4.87792364948368
30
0
41
1
10
22.4425196060698
20
-4.61732302721265
30
0
41
1
10
22.0063830913733
20
-4.35611118292911
30
0
41
1
10
21.5339018671187
20
-4.05215485853859
30
0
41
1
10
21.0614206428642
20
-3.72854025232587
30
0
41
1
10
20.5889394186096
20
-3.38506525468082
30
0
41
1
10
20.152802903913
20
-3.0529089234787
30
0
41
1
10
19.6803216796585
20
-2.67850304141513
30
0
41
1
10
19.2078404554039
20
-2.2911567715332
30
0
41
1
10
18.7717039407073
20
-1.92320695877555
30
0
41
1
10
18.2992227164528
20
-1.51529923068441
30
0
41
1
10
17.7903967826401
20
-1.06740235449442
30
0
41
1
10
17.3179155583856
20
-0.645768296466258
30
0
41
1
10
16.881779043689
20
-0.253686528519211
30
0
41
1
10
16.4092978194344
20
0.172083615436861
30
0
41
1
10
15.9368165951799
20
0.597022388786883
30
0
41
1
10
15.5006800804833
20
0.986804561903824
30
0
41
1
10
15.0281988562288
20
1.40429906246021
30
0
41
1
10
14.5557176319742
20
1.81427404732861
30
0
41
1
10
14.0832364077196
20
2.21538184992735
30
0
41
1
10
13.647099893023
20
2.57584397580266
30
0
41
1
10
13.1746186687685
20
2.95380267464404
30
0
41
1
10
12.7652404376545
20
3.26899501986196
30
0
41
1
10
12.4285516256566
20
3.51767015986866
30
0
41
1
10
12.2008969423328
20
3.68058226386646
30
0
41
1
10
12.0459316781251
20
3.78893007710198
30
0
41
1
10
12.0000005425916
20
3.82081706162313
30
0
0
SPLINE
5
103
100
AcDbEntity
8
1
62
256
6
ByLayer
370
18
48
1
60
0
100
AcDbSpline
70
4
71
5
72
65
73
59
40
0
40
0
40
0
40
0
40
0
40
0
40
0.0007419166523592
40
0.023173133369781
40
0.0381272778480622
40
0.0605584945654839
40
0.0829897112829057
40
0.0979438557611868
40
0.120375072478609
40
0.13532921695689
40
0.157760433674311
40
0.172714578152593
40
0.195145794870014
40
0.217577011587436
40
0.232531156065719
40
0.247485300543998
40
0.26991651726142
40
0.292347733978842
40
0.307301878457123
40
0.329733095174545
40
0.352164311891967
40
0.367118456370248
40
0.382072600848529
40
0.404503817565951
40
0.426935034283372
40
0.441889178761654
40
0.464320395479075
40
0.479274539957356
40
0.501705756674778
40
0.516659901153059
40
0.539091117870481
40
0.561522334587903
40
0.576476479066184
40
0.598907695783606
40
0.613861840261887
40
0.636293056979308
40
0.65124720145759
40
0.673678418175011
40
0.696109634892433
40
0.711063779370715
40
0.726017923848995
40
0.748449140566417
40
0.770880357283839
40
0.78583450176212
40
0.808265718479542
40
0.830696935196964
40
0.845651079675245
40
0.860605224153526
40
0.883036440870948
40
0.905467657588369
40
0.92042180206665
40
0.942853018784072
40
0.957807163262353
40
0.980238379979775
40
0.995192524458056
40
1
40
1
40
1
40
1
40
1
40
1
41
1
10
36.9620903398504
20
-5.92736206331134
30
0
41
1
10
36.9584840158262
20
-5.9268583415388
30
0
41
1
10
36.8458435631279
20
-5.91105724170251
30
0
41
1
10
36.6605136913135
20
-5.88157658758587
30
0
41
1
10
36.3661496908251
20
-5.82569086692234
30
0
41
1
10
35.9627515616625
20
-5.72956668925553
30
0
41
1
10
35.4902703374079
20
-5.58651454399936
30
0
41
1
10
35.0177891131533
20
-5.41646111085603
30
0
41
1
10
34.5453078888987
20
-5.21764790348294
30
0
41
1
10
34.0728266646441
20
-4.99367448288248
30
0
41
1
10
33.6366901499476
20
-4.76460182154267
30
0
41
1
10
33.164208925693
20
-4.49348068572394
30
0
41
1
10
32.6917277014384
20
-4.20057657103223
30
0
41
1
10
32.2192464771838
20
-3.88530752474401
30
0
41
1
10
31.7831099624873
20
-3.57695562277931
30
0
41
1
10
31.3106287382327
20
-3.22579346592676
30
0
41
1
10
30.8381475139781
20
-2.85904685096634
30
0
41
1
10
30.4020109992816
20
-2.50758789360683
30
0
41
1
10
29.929529775027
20
-2.11472077200267
30
0
41
1
10
29.4207038412145
20
-1.67958891194772
30
0
41
1
10
28.9482226169599
20
-1.2665561053434
30
0
41
1
10
28.5120861022633
20
-0.879644305979866
30
0
41
1
10
28.0396048780087
20
-0.456448243525671
30
0
41
1
10
27.5671236537542
20
-0.0310469876514503
30
0
41
1
10
27.1309871390576
20
0.361964439586501
30
0
41
1
10
26.658505914803
20
0.785977336928539
30
0
41
1
10
26.1860246905484
20
1.20575558342225
30
0
41
1
10
25.7135434662939
20
1.6196043174898
30
0
41
1
10
25.2774069515974
20
1.99448798041692
30
0
41
1
10
24.8049257273428
20
2.39087500413871
30
0
41
1
10
24.3324445030882
20
2.7758055774159
30
0
41
1
10
23.8599632788336
20
3.14603616610668
30
0
41
1
10
23.3874820545791
20
3.50106102551845
30
0
41
1
10
22.9150008303245
20
3.83743273626661
30
0
41
1
10
22.4425196060699
20
4.15518045405835
30
0
41
1
10
22.0063830913733
20
4.43002231704025
30
0
41
1
10
21.5339018671187
20
4.70629009689426
30
0
41
1
10
21.0614206428642
20
4.9598818686276
30
0
41
1
10
20.5889394186096
20
5.187147946854
30
0
41
1
10
20.1528029039131
20
5.37378953079079
30
0
41
1
10
19.6803216796585
20
5.5499240626321
30
0
41
1
10
19.2078404554039
20
5.6992457933186
30
0
41
1
10
18.7717039407074
20
5.81172240449118
30
0
41
1
10
18.2992227164528
20
5.90548228376264
30
0
41
1
10
17.7903967826402
20
5.97264499991556
30
0
41
1
10
17.3179155583856
20
6.00327598532971
30
0
41
1
10
16.8817790436891
20
6.00476709328007
30
0
41
1
10
16.4092978194345
20
5.97737322124522
30
0
41
1
10
15.9368165951799
20
5.92110145505774
30
0
41
1
10
15.5006800804833
20
5.84271548413525
30
0
41
1
10
15.0281988562288
20
5.72955776730413
30
0
41
1
10
14.5557176319742
20
5.5859687038643
30
0
41
1
10
14.0832364077196
20
5.41542620278892
30
0
41
1
10
13.6470998930231
20
5.23380515584105
30
0
41
1
10
13.2602845195003
20
5.05206026569394
30
0
41
1
10
12.9825032746516
20
4.91063676571508
30
0
41
1
10
12.777411448919
20
4.80048532954956
30
0
41
1
10
12.6813537518605
20
4.74765890786378
30
0
41
1
10
12.6579854739182
20
4.73473486393894
30
0
0
SPLINE
5
104
100
AcDbEntity
8
1
62
256
6
ByLayer
370
18
48
1
60
0
100
AcDbSpline
70
4
71
3
72
8
73
4
40
0
40
0
40
0
40
0
40
1
40
1
40
1
40
1
41
1
10
36.9623410816194
20
0.514959841493493
30
0
41
1
10
36.9983851958185
20
0.497078822115895
30
0
41
1
10
37.0350123232338
20
0.481024292974922
30
0
41
1
10
37.0721826050943
20
0.466666030804731
30
0
0
SPLINE
5
105
100
AcDbEntity
8
1
62
256
6
ByLayer
370
18
48
1
60
0
100
AcDbSpline
70
4
71
5
72
15
73
9
40
0
40
0
40
0
40
0
40
0
40
0
40
0.222322867916797
40
0.478416681830139
40
0.862557402700151
40
1
40
1
40
1
40
1
40
1
40
1
41
1
10
11.9999998977388
20
-4.34836208661008
30
0
41
1
10
11.9368959910956
20
-4.30921173402817
30
0
41
1
10
11.8011026653363
20
-4.22391515139671
30
0
41
1
10
11.5562752109028
20
-4.06612189771846
30
0
41
1
10
11.2724361833007
20
-3.87508824029288
30
0
41
1
10
10.9885971556985
20
-3.67528501483582
30
0
41
1
10
10.7678620347396
20
-3.51495597073074
30
0
41
1
10
10.6198163328967
20
-3.40531128995684
30
0
41
1
10
10.580804759728
20
-3.37627413667678
30
0
0
SPLINE
5
106
100
AcDbEntity
8
1
62
256
6
ByLayer
370
18
48
1
60
0
100
AcDbSpline
70
4
71
3
72
19
73
15
40
0
40
0
40
0
40
0
40
0.250000000000007
40
0.250000000000007
40
0.500000000000015
40
0.500000000000015
40
0.531250000000014
40
0.531250000000014
40
0.562500000000013
40
0.562500000000013
40
0.625000000000011
40
0.750000000000007
40
0.750000000000007
40
1
40
1
40
1
40
1
41
1
10
11.161352461665
20
-5.53974050637584
30
0
41
1
10
10.8337462208173
20
-5.65304255231231
30
0
41
1
10
10.5072176164315
20
-5.74591513194343
30
0
41
1
10
9.85315145238991
20
-5.88990201537277
30
0
41
1
10
9.52562191829145
20
-5.9410196185419
30
0
41
1
10
9.15476973658619
20
-5.97412230842414
30
0
41
1
10
9.11353072051043
20
-5.97746091746504
30
0
41
1
10
9.03097963669433
20
-5.98345510155292
30
0
41
1
10
8.98964716017019
20
-5.98611172263563
30
0
41
1
10
8.86570379465832
20
-5.9930414210765
30
0
41
1
10
8.61807917188605
20
-6.00274235803511
30
0
41
1
10
8.37100812189499
20
-6.00002934443785
30
0
41
1
10
7.87699409626654
20
-5.97814682948697
30
0
41
1
10
7.54782600571031
20
-5.94164012536206
30
0
41
1
10
7.21720179896718
20
-5.88318249697173
30
0
0
SPLINE
5
107
100
AcDbEntity
8
1
62
256
6
ByLayer
370
18
48
1
60
0
100
AcDbSpline
70
4
71
3
72
10
73
6
40
0
40
0
40
0
40
0
40
0.5
40
0.5
40
1
40
1
40
1
40
1
41
1
10
8.05000951115341
20
-1.29692362380953
30
0
41
1
10
8.47180872124954
20
-1.66773484234119
30
0
41
1
10
8.89360793134568
20
-2.03072017692028
30
0
41
1
10
9.73720635153791
20
-2.72802022345616
30
0
41
1
10
10.1590055616341
20
-3.06231984936682
30
0
41
1
10
10.5808047717302
20
-3.37627407227245
30
0
0
SPLINE
5
108
100
AcDbEntity
8
1
62
256
6
ByLayer
370
18
48
1
60
0
100
AcDbSpline
70
4
71
3
72
20
73
16
40
0
40
0
40
0
40
0
40
0.125000000000002
40
0.125000000000002
40
0.250000000000003
40
0.250000000000003
40
0.375000000000005
40
0.375000000000005
40
0.500000000000007
40
0.500000000000007
40
0.750000000000006
40
0.750000000000006
40
0.875000000000003
40
0.875000000000003
40
1
40
1
40
1
40
1
41
1
10
10.5808032691209
20
-3.37626937677311
30
0
41
1
10
10.5970545706113
20
-3.31761614413907
30
0
41
1
10
10.6151799850391
20
-3.25880960252761
30
0
41
1
10
10.6542254655226
20
-3.14070251523833
30
0
41
1
10
10.6751497753782
20
-3.08140278961966
30
0
41
1
10
10.7191221039734
20
-2.96217247516262
30
0
41
1
10
10.742172552232
20
-2.90224235574172
30
0
41
1
10
10.7898989844297
20
-2.78164369890516
30
0
41
1
10
10.8145860459789
20
-2.7209523060273
30
0
41
1
10
10.8904522234391
20
-2.53778533555493
30
0
41
1
10
10.9432158686167
20
-2.41466302055207
30
0
41
1
10
11.0240185668212
20
-2.22796974235558
30
0
41
1
10
11.0512374652899
20
-2.16540561260973
30
0
41
1
10
11.1060530732633
20
-2.03954604811454
30
0
41
1
10
11.1336645658341
20
-1.97621747098825
30
0
41
1
10
11.1613524616651
20
-1.91257368305239
30
0
0
SPLINE
5
109
100
AcDbEntity
8
1
62
256
6
ByLayer
370
18
48
1
60
0
100
AcDbSpline
70
4
71
3
72
20
73
16
40
0
40
0
40
0
40
0
40
0.124999999999999
40
0.124999999999999
40
0.249999999999998
40
0.249999999999998
40
0.374999999999997
40
0.374999999999997
40
0.499999999999996
40
0.499999999999996
40
0.749999999999998
40
0.749999999999998
40
0.874999999999999
40
0.874999999999999
40
1
40
1
40
1
40
1
41
1
10
10.5808032691181
20
4.71232110620167
30
0
41
1
10
10.5970545706086
20
4.75624116093562
30
0
41
1
10
10.6151799850395
20
4.79875995761464
30
0
41
1
10
10.654225465523
20
4.88127452439753
30
0
41
1
10
10.6751497753785
20
4.92126902797358
30
0
41
1
10
10.7191221039738
20
4.9989234719234
30
0
41
1
10
10.7421725522324
20
5.03658268713718
30
0
41
1
10
10.78989898443
20
5.10969679009614
30
0
41
1
10
10.8145860459792
20
5.14516422748838
30
0
41
1
10
10.8904522234394
20
5.24830967085433
30
0
41
1
10
10.9432158686169
20
5.31249618362199
30
0
41
1
10
11.0240185668213
20
5.40242969171911
30
0
41
1
10
11.05123746529
20
5.43134562199174
30
0
41
1
10
11.1060530732634
20
5.4870988388017
30
0
41
1
10
11.1336645658342
20
5.51394930531612
30
0
41
1
10
11.1613524616651
20
5.53974050637575
30
0
0
SPLINE
5
10A
100
AcDbEntity
8
1
62
256
6
ByLayer
370
18
48
1
60
0
100
AcDbSpline
70
4
71
3
72
30
73
26
40
0
40
0
40
0
40
0
40
0.0625000000000132
40
0.0625000000000132
40
0.125000000000026
40
0.125000000000026
40
0.18750000000004
40
0.18750000000004
40
0.218750000000042
40
0.218750000000042
40
0.250000000000045
40
0.250000000000045
40
0.375000000000049
40
0.375000000000049
40
0.500000000000053
40
0.500000000000053
40
0.562500000000052
40
0.562500000000052
40
0.593750000000048
40
0.593750000000048
40
0.625000000000044
40
0.625000000000044
40
0.750000000000027
40
0.750000000000027
40
1
40
1
40
1
40
1
41
1
10
5.54264120185377
20
-0.380446266943039
30
0
41
1
10
5.59983626000013
20
-0.37072714718704
30
0
41
1
10
5.65710468861661
20
-0.36409341037097
30
0
41
1
10
5.77176409618355
20
-0.355982589476867
30
0
41
1
10
5.82915525587725
20
-0.354513056951447
30
0
41
1
10
5.94404563145821
20
-0.356121348946658
30
0
41
1
10
6.00154493505926
20
-0.35920284075678
30
0
41
1
10
6.08786802044338
20
-0.366943752116129
30
0
41
1
10
6.11665477156615
20
-0.370045266244205
30
0
41
1
10
6.17425222555542
20
-0.377255617247101
30
0
41
1
10
6.20298323075565
20
-0.381355704243759
30
0
41
1
10
6.34575205426691
20
-0.40411573894059
30
0
41
1
10
6.45773016924824
20
-0.42955912354077
30
0
41
1
10
6.67792895353443
20
-0.492554865172536
30
0
41
1
10
6.78614093166328
20
-0.530135280504027
30
0
41
1
10
6.9459033501636
20
-0.594696675746832
30
0
41
1
10
6.99872965220175
20
-0.617588373594344
30
0
41
1
10
7.07734845120478
20
-0.653908543709917
30
0
41
1
10
7.10348341645999
20
-0.666362186961834
30
0
41
1
10
7.15532882086058
20
-0.691810993710249
30
0
41
1
10
7.18105052257107
20
-0.70481027273712
30
0
41
1
10
7.30868617044666
20
-0.771131190964098
30
0
41
1
10
7.40769114108244
20
-0.828412941920732
30
0
41
1
10
7.69636326989178
20
-1.01139250290012
30
0
41
1
10
7.87772034455009
20
-1.14818016592682
30
0
41
1
10
8.04967280461463
20
-1.29690487571494
30
0
0
SPLINE
5
10B
100
AcDbEntity
8
1
62
256
6
ByLayer
370
18
48
1
60
0
100
AcDbSpline
70
4
71
3
72
41
73
37
40
0
40
0
40
0
40
0
40
0.0526878658485037
40
0.106021573161113
40
0.159990162164027
40
0.214581791896066
40
0.269783782109557
40
0.289858270858825
40
0.310312743829311
40
0.33114614006602
40
0.352357312092224
40
0.373945023232617
40
0.395907944907678
40
0.418244653907152
40
0.440953631647837
40
0.464033268080285
40
0.487481853056971
40
0.511297571464848
40
0.535478500608994
40
0.560022607657428
40
0.584927747159787
40
0.610191658653119
40
0.635811964368209
40
0.661786167050405
40
0.688111647909179
40
0.714785664711121
40
0.741805350031252
40
0.769167709678127
40
0.796869620584433
40
0.824907824869384
40
0.853278931112132
40
0.881979415594786
40
0.911005621626146
40
0.940353759098125
40
0.970019904299205
40
1
40
1
40
1
40
1
41
1
10
11.5576858200513
20
5.19225732462192
30
0
41
1
10
11.5417103662769
20
5.1858365128729
30
0
41
1
10
11.5095636335548
20
5.17291618384377
30
0
41
1
10
11.4605037274113
20
5.1525146297478
30
0
41
1
10
11.4104542996756
20
5.13120448601114
30
0
41
1
10
11.3593733001211
20
5.10891090580435
30
0
41
1
10
11.3185152489853
20
5.0906626251936
30
0
41
1
10
11.2882128372631
20
5.0769290196078
30
0
41
1
10
11.2687217414125
20
5.06803096665655
30
0
41
1
10
11.2488039327815
20
5.05886857165638
30
0
41
1
10
11.2284588365182
20
5.04943689632634
30
0
41
1
10
11.2076865083009
20
5.03973076856386
30
0
41
1
10
11.1864868279617
20
5.02974510365016
30
0
41
1
10
11.1648597209454
20
5.01947482577316
30
0
41
1
10
11.1428050944112
20
5.00891489897506
30
0
41
1
10
11.12032286194
20
4.99806025905497
30
0
41
1
10
11.0974129306586
20
4.9869059032828
30
0
41
1
10
11.0740752050075
20
4.97544690340467
30
0
41
1
10
11.0503095871264
20
4.96367841856181
30
0
41
1
10
11.0261159769327
20
4.95159570827988
30
0
41
1
10
11.0014942720869
20
4.9391941459682
30
0
41
1
10
10.9764443679861
20
4.92646923289055
30
0
41
1
10
10.950966157748
20
4.91341661260915
30
0
41
1
10
10.9250595321875
20
4.90003208586606
30
0
41
1
10
10.8987243798124
20
4.88631162596224
30
0
41
1
10
10.8719605867246
20
4.87225139432562
30
0
41
1
10
10.8447680368564
20
4.85784775734811
30
0
41
1
10
10.8171466111464
20
4.84309730040417
30
0
41
1
10
10.789096193255
20
4.82799685571314
30
0
41
1
10
10.7606166611668
20
4.81254347766637
30
0
41
1
10
10.7317079506432
20
4.79673458214683
30
0
41
1
10
10.7023697711388
20
4.78056749567165
30
0
41
1
10
10.6726026670843
20
4.76404125218167
30
0
41
1
10
10.642403986927
20
4.74714985151809
30
0
41
1
10
10.6117831734669
20
4.7299079195719
30
0
41
1
10
10.5911710995276
20
4.71819936866555
30
0
41
1
10
10.5808108162986
20
4.71231427898712
30
0
0
SPLINE
5
10C
100
AcDbEntity
8
1
62
256
6
ByLayer
370
18
48
1
60
0
100
AcDbSpline
70
4
71
3
72
17
73
13
40
0
40
0
40
0
40
0
40
0.374786307715182
40
0.374786307715182
40
0.749572615430363
40
0.749572615430363
40
0.796420903894761
40
0.796420903894761
40
0.843269192359159
40
0.843269192359159
40
0.936965769287954
40
1
40
1
40
1
40
1
41
1
10
11.1613524616651
20
5.53974050637575
30
0
41
1
10
10.8337462208173
20
5.65304255231226
30
0
41
1
10
10.5072176164315
20
5.74591513194338
30
0
41
1
10
9.85315145238997
20
5.88990201537271
30
0
41
1
10
9.52562191829148
20
5.94101961854182
30
0
41
1
10
9.15476973658627
20
5.97412230842409
30
0
41
1
10
9.11353072051054
20
5.97746091746498
30
0
41
1
10
9.03097963669444
20
5.98345510155283
30
0
41
1
10
8.98964716017028
20
5.98611172263557
30
0
41
1
10
8.8657037946584
20
5.99304142107644
30
0
41
1
10
8.72763255665808
20
5.99845049696171
30
0
41
1
10
8.58973342366738
20
6.0000000928427
30
0
41
1
10
8.53429304287488
20
6.00000025180626
30
0
0
SPLINE
5
10D
100
AcDbEntity
8
1
62
256
6
ByLayer
370
18
48
1
60
0
100
AcDbSpline
70
4
71
3
72
8
73
4
40
0
40
0
40
0
40
0
40
1
40
1
40
1
40
1
41
1
10
11.1613524616651
20
5.53974050637572
30
0
41
1
10
11.2891849996425
20
5.41944655813901
30
0
41
1
10
11.421634544889
20
5.30386145207927
30
0
41
1
10
11.5579399325283
20
5.19251595292263
30
0
0
SPLINE
5
10E
100
AcDbEntity
8
1
62
256
6
ByLayer
370
18
48
1
60
0
100
AcDbSpline
70
4
71
3
72
106
73
102
40
0
40
0
40
0
40
0
40
0.0130496685191892
40
0.0130496685191892
40
0.0496033844999623
40
0.0496033844999623
40
0.0861571004807355
40
0.0861571004807355
40
0.104433958471122
40
0.104433958471122
40
0.113572387466316
40
0.113572387466316
40
0.12271081646151
40
0.159264532442284
40
0.159264532442284
40
0.195818248423058
40
0.195818248423058
40
0.232371964403832
40
0.232371964403832
40
0.250648822394219
40
0.250648822394219
40
0.259787251389413
40
0.259787251389413
40
0.264356465887009
40
0.264356465887009
40
0.268925680384606
40
0.268925680384606
40
0.305479396365374
40
0.305479396365374
40
0.323756254355759
40
0.323756254355759
40
0.342033112346143
40
0.342033112346143
40
0.360309970336528
40
0.360309970336528
40
0.378586828326912
40
0.378586828326912
40
0.396863686317296
40
0.396863686317296
40
0.415140544307681
40
0.415140544307681
40
0.424278973302873
40
0.424278973302873
40
0.433417402298066
40
0.433417402298066
40
0.451694260288452
40
0.451694260288452
40
0.469971118278837
40
0.469971118278837
40
0.488247976269222
40
0.488247976269222
40
0.506524834259608
40
0.506524834259608
40
0.524801692249993
40
0.524801692249993
40
0.543078550240379
40
0.543078550240379
40
0.561355408230764
40
0.561355408230764
40
0.57963226622115
40
0.57963226622115
40
0.588770695216342
40
0.588770695216342
40
0.597909124211535
40
0.597909124211535
40
0.634462840192306
40
0.634462840192306
40
0.652739698182691
40
0.652739698182691
40
0.671016556173076
40
0.671016556173076
40
0.707570272153844
40
0.707570272153844
40
0.725847130144229
40
0.725847130144229
40
0.734985559139421
40
0.734985559139421
40
0.744123988134614
40
0.744123988134614
40
0.780677704115385
40
0.780677704115385
40
0.79895456210577
40
0.79895456210577
40
0.817231420096155
40
0.83550827808654
40
0.83550827808654
40
0.853785136076925
40
0.853785136076925
40
0.890338852057696
40
0.890338852057696
40
0.899477281052888
40
0.899477281052888
40
0.90861571004808
40
0.90861571004808
40
0.926892568038464
40
0.926892568038464
40
0.963446284019232
40
0.963446284019232
40
0.981723142009616
40
0.981723142009616
40
1
40
1
40
1
40
1
41
1
10
33.5793495279401
20
-4.72954299626696
30
0
41
1
10
33.4837178959103
20
-4.77598718926473
30
0
41
1
10
33.3881760971122
20
-4.82092875354223
30
0
41
1
10
33.0252089405963
20
-4.98598330677865
30
0
41
1
10
32.7581456932575
20
-5.09569721655214
30
0
41
1
10
32.2232329656219
20
-5.2902683194506
30
0
41
1
10
31.9553805605393
20
-5.37513628591142
30
0
41
1
10
31.551736981946
20
-5.48302860522989
30
0
41
1
10
31.4168782885442
20
-5.51575471177694
30
0
41
1
10
31.2139607934719
20
-5.55986006393573
30
0
41
1
10
31.1461550592591
20
-5.57374167468654
30
0
41
1
10
31.0108572747711
20
-5.59971810886015
30
0
41
1
10
30.6731462648403
20
-5.66025166248784
30
0
41
1
10
30.3377682632591
20
-5.69883832475577
30
0
41
1
10
29.8024818951238
20
-5.73274408882992
30
0
41
1
10
29.5354990589103
20
-5.73578470327149
30
0
41
1
10
29.0012105669755
20
-5.71404251920623
30
0
41
1
10
28.7339100269642
20
-5.6892223427989
30
0
41
1
10
28.3314292701955
20
-5.63117741707751
30
0
41
1
10
28.1970157080671
20
-5.60833495071228
30
0
41
1
10
27.9948378381226
20
-5.56901991498989
30
0
41
1
10
27.927351764144
20
-5.55508307089991
30
0
41
1
10
27.825965950234
20
-5.53290394609022
30
0
41
1
10
27.7921446242945
20
-5.52529758831162
30
0
41
1
10
27.7244470617383
20
-5.5096501945176
30
0
41
1
10
27.6905572420231
20
-5.50160565963685
30
0
41
1
10
27.3859349340636
20
-5.42737307283522
30
0
41
1
10
27.1169804752505
20
-5.34811920618614
30
0
41
1
10
26.7150920272663
20
-5.20974501884893
30
0
41
1
10
26.5813457470315
20
-5.16050951418046
30
0
41
1
10
26.3139826411343
20
-5.05642559253863
30
0
41
1
10
26.1803974069367
20
-5.00146016974674
30
0
41
1
10
25.9132909757149
20
-4.88550485644146
30
0
41
1
10
25.7797636939614
20
-4.82454164444482
30
0
41
1
10
25.5125823918792
20
-4.69657666200325
30
0
41
1
10
25.378937800437
20
-4.62950242840873
30
0
41
1
10
25.1112335342749
20
-4.48984209194825
30
0
41
1
10
24.977164129922
20
-4.4173524019543
30
0
41
1
10
24.7084508138127
20
-4.26676690681344
30
0
41
1
10
24.5738081325838
20
-4.18865012496528
30
0
41
1
10
24.3712545448318
20
-4.06722467086286
30
0
41
1
10
24.3036315174771
20
-4.02603669934854
30
0
41
1
10
24.1681872200714
20
-3.94225415607693
30
0
41
1
10
24.1005878206425
20
-3.89979123673328
30
0
41
1
10
23.8981002506054
20
-3.77077037819268
30
0
41
1
10
23.7634951928715
20
-3.68264645537761
30
0
41
1
10
23.4947405526163
20
-3.50272665537167
30
0
41
1
10
23.3606276528254
20
-3.41083887134568
30
0
41
1
10
23.092808845421
20
-3.22320055569458
30
0
41
1
10
22.9590948405247
20
-3.12747167745312
30
0
41
1
10
22.6918682295293
20
-2.93233976432523
30
0
41
1
10
22.5583652188217
20
-2.83289956714506
30
0
41
1
10
22.2912746647758
20
-2.63080428517745
30
0
41
1
10
22.1576767307491
20
-2.528195455299
30
0
41
1
10
21.8902263877255
20
-2.31989736918669
30
0
41
1
10
21.7563762429334
20
-2.21419927147861
30
0
41
1
10
21.4882451626429
20
-1.9997646090136
30
0
41
1
10
21.3539599280432
20
-1.89104129163533
30
0
41
1
10
21.0847126129676
20
-1.67088295015515
30
0
41
1
10
20.9497510561089
20
-1.55944654304119
30
0
41
1
10
20.7466340521232
20
-1.39044615135586
30
0
41
1
10
20.6789344618593
20
-1.33390213804475
30
0
41
1
10
20.5438250500448
20
-1.22067681181468
30
0
41
1
10
20.4763684378065
20
-1.16395642178591
30
0
41
1
10
20.139539625592
20
-0.87985912763753
30
0
41
1
10
19.8715823944849
20
-0.65093660559279
30
0
41
1
10
19.4704178239523
20
-0.30682697168362
30
0
41
1
10
19.3368241337674
20
-0.192003497647079
30
0
41
1
10
19.0696947219371
20
0.0376516918663867
30
0
41
1
10
18.936162945872
20
0.152487947356377
30
0
41
1
10
18.5354299313511
20
0.496741067535936
30
0
41
1
10
18.2680504376318
20
0.725855964670586
30
0
41
1
10
17.8652974441127
20
1.06736778913302
30
0
41
1
10
17.7307686182956
20
1.18084827053659
30
0
41
1
10
17.5284137615927
20
1.35036184777778
30
0
41
1
10
17.4608688506206
20
1.40674882236314
30
0
41
1
10
17.3255644278537
20
1.51925448947981
30
0
41
1
10
17.2577945805713
20
1.57538017465274
30
0
41
1
10
16.9198568466888
20
1.85399282278755
30
0
41
1
10
16.6511668134299
20
2.07146290075136
30
0
41
1
10
16.2492639129483
20
2.38848539124035
30
0
41
1
10
16.1154989637226
20
2.49262190795673
30
0
41
1
10
15.848210738804
20
2.6975634817841
30
0
41
1
10
15.5811431024256
20
2.89918989971761
30
0
41
1
10
15.3140375606505
20
3.09386232344707
30
0
41
1
10
15.046706865357
20
3.28487424892242
30
0
41
1
10
14.9129282204
20
3.37855535942816
30
0
41
1
10
14.5109970631522
20
3.65367082418396
30
0
41
1
10
14.2422631020004
20
3.82908912117597
30
0
41
1
10
13.9041907145477
20
4.0374648081004
30
0
41
1
10
13.8364042252413
20
4.07863286876264
30
0
41
1
10
13.7011237335229
20
4.15953007609937
30
0
41
1
10
13.6335858468198
20
4.19928799111801
30
0
41
1
10
13.431246663646
20
4.31646201854164
30
0
41
1
10
13.2967290472491
20
4.39176165108415
30
0
41
1
10
12.8940591266074
20
4.60885822510056
30
0
41
1
10
12.6267051236538
20
4.74201162832665
30
0
41
1
10
12.2258893716923
20
4.92437219295979
30
0
41
1
10
12.0923282156541
20
4.98225327681206
30
0
41
1
10
11.8251396805731
20
5.09190686125652
30
0
41
1
10
11.6915182137863
20
5.14364590619965
30
0
41
1
10
11.5577490676332
20
5.19228253950371
30
0
0
SPLINE
5
10F
100
AcDbEntity
8
1
62
256
6
ByLayer
370
18
48
1
60
0
100
AcDbSpline
70
4
71
5
72
15
73
9
40
0
40
0
40
0
40
0
40
0
40
0
40
0.222322867916799
40
0.478416681830142
40
0.862557402700158
40
1
40
1
40
1
40
1
40
1
40
1
41
1
10
11.9999998977388
20
3.82081961922793
30
0
41
1
10
11.9368959910956
20
3.86462857501877
30
0
41
1
10
11.8011026653363
20
3.95797942117562
30
0
41
1
10
11.5562752109028
20
4.12264138999882
30
0
41
1
10
11.2724361833007
20
4.30562261884796
30
0
41
1
10
10.9885971556985
20
4.47882226313132
30
0
41
1
10
10.7678620347396
20
4.6072941174987
30
0
41
1
10
10.6198163328968
20
4.69057434131196
30
0
41
1
10
10.5808047597281
20
4.7123176564248
30
0
0
SPLINE
5
110
100
AcDbEntity
8
1
62
256
6
ByLayer
370
18
48
1
60
0
100
AcDbSpline
70
4
71
3
72
10
73
6
40
0
40
0
40
0
40
0
40
0.5
40
0.5
40
1
40
1
40
1
40
1
41
1
10
8.05000951115343
20
5.75341678579014
30
0
41
1
10
8.47180872124957
20
5.64565723511487
30
0
41
1
10
8.89360793134571
20
5.50321839339031
30
0
41
1
10
9.73720635153796
20
5.15409084825032
30
0
41
1
10
10.1590055616341
20
4.94740969818912
30
0
41
1
10
10.5808047717302
20
4.71231759016538
30
0
0
SPLINE
5
111
100
AcDbEntity
8
1
62
256
6
ByLayer
370
18
48
1
60
0
100
AcDbSpline
70
4
71
3
72
19
73
15
40
0
40
0
40
0
40
0
40
0.249999999999999
40
0.249999999999999
40
0.499999999999997
40
0.499999999999997
40
0.531249999999996
40
0.531249999999996
40
0.562499999999996
40
0.562499999999996
40
0.624999999999995
40
0.749999999999996
40
0.749999999999996
40
1
40
1
40
1
40
1
41
1
10
11.1613524616651
20
-1.91257368305236
30
0
41
1
10
10.8337462208172
20
-1.63298331548475
30
0
41
1
10
10.5072176164315
20
-1.34739085037611
30
0
41
1
10
9.85315145238997
20
-0.767687061006455
30
0
41
1
10
9.52562191829145
20
-0.473567133219149
30
0
41
1
10
9.15476973658625
20
-0.139795460691175
30
0
41
1
10
9.11353072051054
20
-0.102669672160744
30
0
41
1
10
9.03097963669438
20
-0.0283447724436314
30
0
41
1
10
8.98964716017025
20
0.0088727141796312
30
0
41
1
10
8.86570379465837
20
0.120468531917283
30
0
41
1
10
8.61807917188614
20
0.343392205894275
30
0
41
1
10
8.37100812189502
20
0.565261092800398
30
0
41
1
10
7.87699409626657
20
1.00692606492552
30
0
41
1
10
7.54782600571033
20
1.29861308611032
30
0
41
1
10
7.21720179896721
20
1.58572361397066
30
0
0
SPLINE
5
112
100
AcDbEntity
8
1
62
256
6
ByLayer
370
18
48
1
60
0
100
AcDbSpline
70
4
71
3
72
86
73
82
40
0
40
0
40
0
40
0
40
0.0624999999999988
40
0.0624999999999988
40
0.0937499999999974
40
0.0937499999999974
40
0.109374999999997
40
0.109374999999997
40
0.124999999999998
40
0.187499999999996
40
0.187499999999996
40
0.249999999999995
40
0.249999999999995
40
0.312499999999994
40
0.312499999999994
40
0.374999999999993
40
0.374999999999993
40
0.390624999999993
40
0.390624999999993
40
0.406249999999993
40
0.437499999999991
40
0.437499999999991
40
0.46874999999999
40
0.46874999999999
40
0.499999999999989
40
0.499999999999989
40
0.515624999999988
40
0.515624999999988
40
0.531249999999988
40
0.531249999999988
40
0.562499999999988
40
0.562499999999988
40
0.593749999999987
40
0.593749999999987
40
0.609374999999987
40
0.609374999999987
40
0.617187499999986
40
0.617187499999986
40
0.624999999999986
40
0.624999999999986
40
0.656249999999984
40
0.656249999999984
40
0.671874999999983
40
0.671874999999983
40
0.679687499999983
40
0.679687499999983
40
0.687499999999982
40
0.687499999999982
40
0.718749999999981
40
0.718749999999981
40
0.73437499999998
40
0.73437499999998
40
0.74218749999998
40
0.74218749999998
40
0.74999999999998
40
0.74999999999998
40
0.781249999999978
40
0.781249999999978
40
0.789062499999978
40
0.789062499999978
40
0.796874999999978
40
0.796874999999978
40
0.812499999999978
40
0.812499999999978
40
0.84374999999998
40
0.84374999999998
40
0.85156249999998
40
0.85156249999998
40
0.85937499999998
40
0.85937499999998
40
0.874999999999983
40
0.874999999999983
40
0.906249999999988
40
0.906249999999988
40
0.937499999999992
40
0.937499999999992
40
0.953124999999994
40
0.953124999999994
40
0.968749999999995
40
0.968749999999995
40
1
40
1
40
1
40
1
41
1
10
7.2168590988332
20
1.58578574508513
30
0
41
1
10
7.06968526403318
20
1.7139378967411
30
0
41
1
10
6.92356622029672
20
1.84261517879344
30
0
41
1
10
6.70563843544522
20
2.03593761957754
30
0
41
1
10
6.63320536693197
20
2.10043076006542
30
0
41
1
10
6.52483925990734
20
2.19720073886378
30
0
41
1
10
6.48874898130748
20
2.22947651568873
30
0
41
1
10
6.41682747374875
20
2.2938803078797
30
0
41
1
10
6.23758557406373
20
2.45460095885838
30
0
41
1
10
6.061075859119
20
2.61377489365827
30
0
41
1
10
5.78208402936585
20
2.86616182401829
30
0
41
1
10
5.64429747890262
20
2.99120976558032
30
0
41
1
10
5.37238800931283
20
3.23888018873731
30
0
41
1
10
5.23826022198057
20
3.36150208822616
30
0
41
1
10
4.9743277495588
20
3.60436670615601
30
0
41
1
10
4.84451268317437
20
3.72460716242003
30
0
41
1
10
4.68575342953119
20
3.87358615251941
30
0
41
1
10
4.65419760154347
20
3.90329939727261
30
0
41
1
10
4.59165798619492
20
3.96242408566903
30
0
41
1
10
4.49864402298556
20
4.05071873406698
30
0
41
1
10
4.4081618155364
20
4.13785451375944
30
0
41
1
10
4.29011549633418
20
4.25304820377713
30
0
41
1
10
4.23238923700958
20
4.31015120834425
30
0
41
1
10
4.11999847970816
20
4.42342640339908
30
0
41
1
10
4.06533160487234
20
4.47959828551129
30
0
41
1
10
3.98610757042781
20
4.56321590589229
30
0
41
1
10
3.96016384835548
20
4.59098193404728
30
0
41
1
10
3.9093093150108
20
4.64631362233521
30
0
41
1
10
3.88445538731619
20
4.67381837689476
30
0
41
1
10
3.81198180949258
20
4.75563796778695
30
0
41
1
10
3.76635483567333
20
4.80934765700212
30
0
41
1
10
3.68163075290141
20
4.91512869502623
30
0
41
1
10
3.64252498591429
20
4.96719965424214
30
0
41
1
10
3.59000200490809
20
5.04411212820972
30
0
41
1
10
3.57352165840084
20
5.06955074801047
30
0
41
1
10
3.55055554008001
20
5.10741663851169
30
0
41
1
10
3.54319304354016
20
5.11998994566622
30
0
41
1
10
3.52909604714557
20
5.14504054628802
30
0
41
1
10
3.52235368377217
20
5.15753428642259
30
0
41
1
10
3.49050640580455
20
5.21941378204193
30
0
41
1
10
3.47083717822599
20
5.26722701716614
30
0
41
1
10
3.45198441716289
20
5.33637624224482
30
0
41
1
10
3.44748229928206
20
5.35899730767838
30
0
41
1
10
3.44372814013252
20
5.39227930159282
30
0
41
1
10
3.44297728413812
20
5.40326501655369
30
0
41
1
10
3.44254062126487
20
5.4250185934996
30
0
41
1
10
3.44285842281141
20
5.43580818574219
30
0
41
1
10
3.44723184410958
20
5.48873315708158
30
0
41
1
10
3.45957639493173
20
5.52807928449846
30
0
41
1
10
3.49273946991005
20
5.5828509698872
30
0
41
1
10
3.5062393488048
20
5.60040001221964
30
0
41
1
10
3.53038005795469
20
5.62568967363069
30
0
41
1
10
3.53907319502943
20
5.63393803489419
30
0
41
1
10
3.55754982683979
20
5.64990635779475
30
0
41
1
10
3.56735660015352
20
5.65765199085544
30
0
41
1
10
3.61917456408617
20
5.69525058429605
30
0
41
1
10
3.669515770511
20
5.72172878272741
30
0
41
1
10
3.74285280854684
20
5.75118304734264
30
0
41
1
10
3.75804210168462
20
5.75689089667966
30
0
41
1
10
3.78945227818471
20
5.76795894193333
30
0
41
1
10
3.80557517534714
20
5.77328422263156
30
0
41
1
10
3.8550163279001
20
5.78864862389801
30
0
41
1
10
3.88945545143255
20
5.7980958909709
30
0
41
1
10
3.99678208668519
20
5.82442676078298
30
0
41
1
10
4.07365804800492
20
5.83931642944452
30
0
41
1
10
4.1754040807964
20
5.85550625120948
30
0
41
1
10
4.19603755283165
20
5.85862169843716
30
0
41
1
10
4.23785410837846
20
5.86462520960714
30
0
41
1
10
4.25905865430039
20
5.86751561773977
30
0
41
1
10
4.32304397017057
20
5.87581702279661
30
0
41
1
10
4.36632292644936
20
5.88087905468265
30
0
41
1
10
4.49782976398933
20
5.89489266190787
30
0
41
1
10
4.58771815464922
20
5.90268352663497
30
0
41
1
10
4.77119382376316
20
5.91607340033909
30
0
41
1
10
4.86478560414673
20
5.92166668492155
30
0
41
1
10
5.00759683542901
20
5.92884625208089
30
0
41
1
10
5.05560610089134
20
5.93103574548604
30
0
41
1
10
5.15239201410557
20
5.93506144965468
30
0
41
1
10
5.201024114098
20
5.93689122080426
30
0
41
1
10
5.34699642516151
20
5.94189041754433
30
0
41
1
10
5.44466453184674
20
5.94458474370418
30
0
41
1
10
5.54264120184956
20
5.94680136112495
30
0
0
SPLINE
5
113
100
AcDbEntity
8
1
62
256
6
ByLayer
370
18
48
1
60
0
100
AcDbSpline
70
4
71
3
72
16
73
12
40
0
40
0
40
0
40
0
40
0.31800925173529
40
0.31800925173529
40
0.477013877602935
40
0.477013877602935
40
0.636018503470579
40
0.636018503470579
40
0.954027755205835
40
0.954027755205835
40
1
40
1
40
1
40
1
41
1
10
9.50722304210476
20
-2.84192371521794
30
0
41
1
10
9.56445904541019
20
-2.84703853135807
30
0
41
1
10
9.62105431103109
20
-2.85440123588489
30
0
41
1
10
9.70532485685519
20
-2.86766925769666
30
0
41
1
10
9.73329580700747
20
-2.87247050760121
30
0
41
1
10
9.78885180659043
20
-2.88267632937803
30
0
41
1
10
9.81646565605314
20
-2.88808574916041
30
0
41
1
10
9.89888923125218
20
-2.90510001755368
30
0
41
1
10
9.95328458683815
20
-2.91748443687067
30
0
41
1
10
10.0150629574041
20
-2.93257605141639
30
0
41
1
10
10.0228569835346
20
-2.93449899703623
30
0
41
1
10
10.0306424508783
20
-2.93643829555236
30
0
0
SPLINE
5
114
100
AcDbEntity
8
1
62
256
6
ByLayer
370
18
48
1
60
0
100
AcDbSpline
70
4
71
3
72
46
73
42
40
0
40
0
40
0
40
0
40
0.0625000000000027
40
0.0625000000000027
40
0.125000000000005
40
0.125000000000005
40
0.156250000000007
40
0.156250000000007
40
0.187500000000009
40
0.187500000000009
40
0.250000000000012
40
0.250000000000012
40
0.312500000000015
40
0.312500000000015
40
0.343750000000018
40
0.343750000000018
40
0.375000000000021
40
0.375000000000021
40
0.437500000000023
40
0.437500000000023
40
0.468750000000024
40
0.468750000000024
40
0.500000000000025
40
0.500000000000025
40
0.562500000000027
40
0.562500000000027
40
0.625000000000029
40
0.625000000000029
40
0.656250000000027
40
0.656250000000027
40
0.687500000000025
40
0.687500000000025
40
0.750000000000017
40
0.750000000000017
40
0.875000000000006
40
0.875000000000006
40
0.9375
40
0.9375
40
0.96875
40
0.96875
40
1
40
1
40
1
40
1
41
1
10
3.4921561183773
20
-2.58767526810183
30
0
41
1
10
3.47646857184114
20
-2.52279415243598
30
0
41
1
10
3.46416477348387
20
-2.45711682168095
30
0
41
1
10
3.44732197080148
20
-2.32436208907569
30
0
41
1
10
3.44276866253296
20
-2.25724107965473
30
0
41
1
10
3.44265531712006
20
-2.15536894180502
30
0
41
1
10
3.44373951625931
20
-2.12121289952424
30
0
41
1
10
3.44834194416447
20
-2.05248770654697
30
0
41
1
10
3.4518832038396
20
-2.01780165305513
30
0
41
1
10
3.4662344157241
20
-1.91464661234579
30
0
41
1
10
3.4807594430508
20
-1.8467200634777
30
0
41
1
10
3.52011937703958
20
-1.7127412909602
30
0
41
1
10
3.54495298153731
20
-1.6466886509742
30
0
41
1
10
3.59033860813537
20
-1.54918226188428
30
0
41
1
10
3.60667274363078
20
-1.51727604385883
30
0
41
1
10
3.6415282625708
20
-1.45486532982838
30
0
41
1
10
3.66006914577875
20
-1.42431887371353
30
0
41
1
10
3.71889745597775
20
-1.33459345953324
30
0
41
1
10
3.76238495240474
20
-1.27732545715983
30
0
41
1
10
3.83359685417224
20
-1.19505545308996
30
0
41
1
10
3.85841690022122
20
-1.16815791594709
30
0
41
1
10
3.90937313475075
20
-1.11616698551188
30
0
41
1
10
3.93554496010543
20
-1.09102026742758
30
0
41
1
10
4.01597904186019
20
-1.01793675160062
30
0
41
1
10
4.07215317452471
20
-0.972348700671404
30
0
41
1
10
4.18893923062041
20
-0.886666206662824
30
0
41
1
10
4.24955364219372
20
-0.846574663121288
30
0
41
1
10
4.34345034901736
20
-0.790147080966591
30
0
41
1
10
4.37531045913249
20
-0.771923226790648
30
0
41
1
10
4.43965793997825
20
-0.736833384161997
30
0
41
1
10
4.47208863087565
20
-0.719993929866632
30
0
41
1
10
4.57009218675867
20
-0.671432325949297
30
0
41
1
10
4.63637413124914
20
-0.641660478139158
30
0
41
1
10
4.83769207152528
20
-0.559166391640957
30
0
41
1
10
4.97518022673125
20
-0.513211989707656
30
0
41
1
10
5.18540736803663
20
-0.45536793903716
30
0
41
1
10
5.25615486338228
20
-0.437950541468325
30
0
41
1
10
5.36321019401223
20
-0.414422108126956
30
0
41
1
10
5.39909308776168
20
-0.407005329309925
30
0
41
1
10
5.47084458635067
20
-0.393071159472385
30
0
41
1
10
5.50673562465909
20
-0.386547678777759
30
0
41
1
10
5.54264120185397
20
-0.380446266942954
30
0
0
SPLINE
5
115
100
AcDbEntity
8
1
62
256
6
ByLayer
370
18
48
1
60
0
100
AcDbSpline
70
4
71
3
72
14
73
10
40
0
40
0
40
0
40
0
40
0.12950596030576
40
0.25901192061152
40
0.388517880917279
40
0.518023841223039
40
0.647529801528799
40
0.777035761834559
40
1
40
1
40
1
40
1
41
1
10
10.2212337803513
20
-3.18389022086808
30
0
41
1
10
10.0810059760919
20
-3.25439266151241
30
0
41
1
10
9.78560742992488
20
-3.40580613408295
30
0
41
1
10
9.35826396848685
20
-3.69470857781798
30
0
41
1
10
8.94438851824464
20
-4.03260152323421
30
0
41
1
10
8.54874512285249
20
-4.41018414952831
30
0
41
1
10
8.17456859308925
20
-4.81685886556272
30
0
41
1
10
7.7312938121421
20
-5.33343304485547
30
0
41
1
10
7.42105702506598
20
-5.69847093606114
30
0
41
1
10
7.21712288279005
20
-5.88325400492857
30
0
0
SPLINE
5
116
100
AcDbEntity
8
1
62
256
6
ByLayer
370
18
48
1
60
0
100
AcDbSpline
70
4
71
3
72
24
73
20
40
0
40
0
40
0
40
0
40
0.125
40
0.125
40
0.25
40
0.25
40
0.375
40
0.375
40
0.5
40
0.5
40
0.625
40
0.625
40
0.75
40
0.75
40
0.875
40
0.875
40
0.9375
40
0.9375
40
1
40
1
40
1
40
1
41
1
10
3.49215611837727
20
-2.58767526810186
30
0
41
1
10
3.71705912313138
20
-2.60736270384785
30
0
41
1
10
3.94416597199316
20
-2.62478333921155
30
0
41
1
10
4.40359544865649
20
-2.65500060876568
30
0
41
1
10
4.63591983297647
20
-2.66779148150297
30
0
41
1
10
5.10666097240886
20
-2.68912942228818
30
0
41
1
10
5.34508068943339
20
-2.69767113322206
30
0
41
1
10
5.82888592657878
20
-2.71154321828379
30
0
41
1
10
6.07427557622407
20
-2.71687016246469
30
0
41
1
10
6.57278411365803
20
-2.72613551721551
30
0
41
1
10
6.82590791504225
20
-2.73007404435296
30
0
41
1
10
7.34040069877759
20
-2.73923153775442
30
0
41
1
10
7.60177467763882
20
-2.74445536348182
30
0
41
1
10
8.13288462497437
20
-2.75962797849371
30
0
41
1
10
8.40262477606689
20
-2.76958680073335
30
0
41
1
10
8.81318875246077
20
-2.79106694643971
30
0
41
1
10
8.95104512430575
20
-2.79932162975953
30
0
41
1
10
9.22856339147182
20
-2.81853380012131
30
0
41
1
10
9.36772565059727
20
-2.82945772408632
30
0
41
1
10
9.50722304210453
20
-2.84192371521746
30
0
0
SPLINE
5
117
100
AcDbEntity
8
1
62
256
6
ByLayer
370
18
48
1
60
0
100
AcDbSpline
70
4
71
3
72
54
73
50
40
0
40
0
40
0
40
0
40
0.125000000000001
40
0.125000000000001
40
0.156250000000002
40
0.156250000000002
40
0.187500000000003
40
0.187500000000003
40
0.250000000000002
40
0.250000000000002
40
0.375000000000001
40
0.375000000000001
40
0.437499999999999
40
0.437499999999999
40
0.499999999999998
40
0.499999999999998
40
0.531249999999997
40
0.531249999999997
40
0.562499999999996
40
0.562499999999996
40
0.624999999999996
40
0.624999999999996
40
0.687499999999996
40
0.687499999999996
40
0.718749999999996
40
0.718749999999996
40
0.734374999999996
40
0.734374999999996
40
0.749999999999996
40
0.749999999999996
40
0.812499999999999
40
0.812499999999999
40
0.84375
40
0.84375
40
0.859375
40
0.859375
40
0.875
40
0.875
40
0.90625
40
0.90625
40
0.9375
40
0.9375
40
0.9453125
40
0.9453125
40
0.953125
40
0.953125
40
0.96875
40
0.96875
40
1
40
1
40
1
40
1
41
1
10
7.21685909099307
20
-5.88316984491249
30
0
41
1
10
7.004193864565
20
-5.84546402250947
30
0
41
1
10
6.79382981869526
20
-5.79803108143278
30
0
41
1
10
6.53297737762978
20
-5.72545534385569
30
0
41
1
10
6.48091365354
20
-5.7102750183428
30
0
41
1
10
6.37698738582239
20
-5.67855062059343
30
0
41
1
10
6.32511245365544
20
-5.66200095684664
30
0
41
1
10
6.17032749511947
20
-5.61044373484071
30
0
41
1
10
6.06807325195848
20
-5.57347658858058
30
0
41
1
10
5.76407886636969
20
-5.45456383204126
30
0
41
1
10
5.56505456054646
20
-5.36465995657233
30
0
41
1
10
5.27263545798658
20
-5.2122521773091
30
0
41
1
10
5.17619381106576
20
-5.15851312114245
30
0
41
1
10
4.98566696631127
20
-5.04469443902255
30
0
41
1
10
4.89157966064528
20
-4.98461780754801
30
0
41
1
10
4.7525680443695
20
-4.88923758388341
30
0
41
1
10
4.70656761451531
20
-4.85655135296406
30
0
41
1
10
4.61543491285906
20
-4.78936096879235
30
0
41
1
10
4.57041657197573
20
-4.75494163083516
30
0
41
1
10
4.43715960153784
20
-4.64908165899493
30
0
41
1
10
4.35070359639116
20
-4.57505226716802
30
0
41
1
10
4.18368450637445
20
-4.41912805092656
30
0
41
1
10
4.10311013864779
20
-4.33724277106637
30
0
41
1
10
3.98797126456441
20
-4.20741128815899
30
0
41
1
10
3.95055118364266
20
-4.16296194668152
30
0
41
1
10
3.896097783285
20
-4.09432842906963
30
0
41
1
10
3.87820844509747
20
-4.0710984863037
30
0
41
1
10
3.84314637141256
20
-4.02409040516133
30
0
41
1
10
3.82597415374875
20
-4.00031488424625
30
0
41
1
10
3.74202872848008
20
-3.88001992177968
30
0
41
1
10
3.68091742434842
20
-3.77929113229109
30
0
41
1
10
3.60154334470497
20
-3.61985795730126
30
0
41
1
10
3.5771495726174
20
-3.56531577451764
30
0
41
1
10
3.54427240474482
20
-3.48109947055281
30
0
41
1
10
3.5339341513093
20
-3.45262593275703
30
0
41
1
10
3.51463056613977
20
-3.39481097061946
30
0
41
1
10
3.50570864484985
20
-3.36559222892774
30
0
41
1
10
3.48138554458708
20
-3.27727241397255
30
0
41
1
10
3.46837648868819
20
-3.21738531832105
30
0
41
1
10
3.44977291701511
20
-3.09543913318953
30
0
41
1
10
3.44417376882322
20
-3.03338072991309
30
0
41
1
10
3.44264040585864
20
-2.9543184207217
30
0
41
1
10
3.44260804941953
20
-2.93843132858467
30
0
41
1
10
3.44311748012768
20
-2.90650384377309
30
0
41
1
10
3.44366101308816
20
-2.89045187077352
30
0
41
1
10
3.44616922678077
20
-2.84241075738095
30
0
41
1
10
3.4490109593558
20
-2.81042638127764
30
0
41
1
10
3.46115475211784
20
-2.71463732282018
30
0
41
1
10
3.47406981038742
20
-2.65099571134704
30
0
41
1
10
3.49215611837744
20
-2.58767526810129
30
0
0
SPLINE
5
118
100
AcDbEntity
8
1
62
256
6
ByLayer
370
18
48
1
60
0
100
AcDbSpline
70
4
71
3
72
15
73
11
40
0
40
0
40
0
40
0
40
0.190107014634701
40
0.314129095468813
40
0.387375942965534
40
0.45731912834955
40
0.528874958902786
40
0.636119420572043
40
0.793120101614941
40
1
40
1
40
1
40
1
41
1
10
17.8833633973925
20
-5.95486175156742
30
0
41
1
10
18.0411904585674
20
-5.93744691149411
30
0
41
1
10
18.3019490901714
20
-5.90881256208382
30
0
41
1
10
18.6235663701503
20
-5.87371979263287
30
0
41
1
10
18.8452573548793
20
-5.84971471915148
30
0
41
1
10
19.0234700550984
20
-5.83047875212395
30
0
41
1
10
19.2299478716188
20
-5.80830889580972
30
0
41
1
10
19.5086940091714
20
-5.77869167146596
30
0
41
1
10
19.8997637401477
20
-5.73791744972661
30
0
41
1
10
20.2018329418078
20
-5.70718554140723
30
0
41
1
10
20.3735745416275
20
-5.68996571643845
30
0
0
SPLINE
5
119
100
AcDbEntity
8
1
62
256
6
ByLayer
370
18
48
1
60
0
100
AcDbSpline
70
4
71
3
72
15
73
11
40
0
40
0
40
0
40
0
40
0.179905720272314
40
0.299423312694863
40
0.373155163689836
40
0.446207161921494
40
0.523182575983503
40
0.634619585580489
40
0.793467440766797
40
1
40
1
40
1
40
1
41
1
10
30.3741220199939
20
5.69059452166206
30
0
41
1
10
30.2249704603465
20
5.70557534485846
30
0
41
1
10
29.9766844685279
20
5.73081352261124
30
0
41
1
10
29.6672310100202
20
5.76292590863181
30
0
41
1
10
29.4462620780658
20
5.78610358027191
30
0
41
1
10
29.2606450672855
20
5.8057203346678
30
0
41
1
10
29.0437827670686
20
5.8288015824152
30
0
41
1
10
28.7557897179042
20
5.85969689321391
30
0
41
1
10
28.360315159681
20
5.90261085366984
30
0
41
1
10
28.0572538852887
20
5.93586645497606
30
0
41
1
10
27.8859409142067
20
5.95479628901597
30
0
0
SPLINE
5
11A
100
AcDbEntity
8
1
62
256
6
ByLayer
370
18
48
1
60
0
100
AcDbSpline
70
4
71
3
72
15
73
11
40
0
40
0
40
0
40
0
40
0.188569687661419
40
0.311998206151722
40
0.385508548518591
40
0.455800661526939
40
0.527765431102584
40
0.635361516273645
40
0.79266122035788
40
1
40
1
40
1
40
1
41
1
10
27.8859409142067
20
-5.9547962890162
30
0
41
1
10
28.0423599341724
20
-5.93751623925073
30
0
41
1
10
28.3011374279995
20
-5.90910289223709
30
0
41
1
10
28.6209233416809
20
-5.87431466482479
30
0
41
1
10
28.8424731580163
20
-5.85040602231274
30
0
41
1
10
29.0213975119031
20
-5.83120984482912
30
0
41
1
10
29.2286282242119
20
-5.80910851042742
30
0
41
1
10
29.508024489795
20
-5.77955492030259
30
0
41
1
10
29.8996809485343
20
-5.73867796887112
30
0
41
1
10
30.2021358863626
20
-5.70787805064441
30
0
41
1
10
30.374122019994
20
-5.69059452166229
30
0
0
SPLINE
5
11B
100
AcDbEntity
8
1
62
256
6
ByLayer
370
18
48
1
60
0
100
AcDbSpline
70
4
71
3
72
15
73
11
40
0
40
0
40
0
40
0
40
0.17930639436548
40
0.298527514112512
40
0.372075721203461
40
0.445185571362014
40
0.522452093428524
40
0.634237904391796
40
0.793429756347738
40
1
40
1
40
1
40
1
41
1
10
20.3735745416277
20
5.68996571643831
30
0
41
1
10
20.2248090815699
20
5.70488975898905
30
0
41
1
10
19.9770750411225
20
5.73005254858126
30
0
41
1
10
19.6682580225692
20
5.76202255037254
30
0
41
1
10
19.4474570313101
20
5.78522474959442
30
0
41
1
10
19.2615494640359
20
5.80494706225468
30
0
41
1
10
19.0439320012565
20
5.82826081904724
30
0
41
1
10
18.7548857746117
20
5.85945759182647
30
0
41
1
10
18.3584784057157
20
5.90259547866111
30
0
41
1
10
18.0548496181464
20
5.93593241351704
30
0
41
1
10
17.8833633973925
20
5.95486175156731
30
0
0
SPLINE
5
11C
100
AcDbEntity
8
1
62
256
6
ByLayer
370
18
48
1
60
0
100
AcDbSpline
70
4
71
2
72
6
73
3
40
0
40
0
40
0
40
1
40
1
40
1
41
1
10
37.9284795169777
20
0.0313176691824992
30
0
41
1
10
37.8564538404703
20
0.588965821153778
30
0
41
1
10
37.7844281639629
20
1.14661397312503
30
0
0
LINE
5
77
100
AcDbEntity
8
80
62
256
6
ByLayer
370
18
48
1
60
0
100
AcDbLine
10
0
20
0
30
0
11
-5
21
0
31
0
39
0
210
0
220
0
230
1
0
LINE
5
78
100
AcDbEntity
8
4
62
256
6
ByLayer
370
18
48
0.05
60
0
100
AcDbLine
10
0
20
0
30
0
11
38
21
0
31
0
39
0
210
0
220
0
230
1
0
LINE
5
7A
100
AcDbEntity
8
81
62
256
6
ByLayer
370
18
48
1
60
0
100
AcDbLine
10
38
20
0
30
0
11
43
21
0
31
0
39
0
210
0
220
0
230
1
0
LINE
5
7B
100
AcDbEntity
8
SK4
62
256
6
ByLayer
370
18
48
0.05
60
0
100
AcDbLine
10
-45
20
0
30
0
11
38
21
0
31
0
39
0
210
0
220
0
230
1
0
LINE
5
7D
100
AcDbEntity
8
1
62
256
6
ByLayer
370
18
48
1
60
0
100
AcDbLine
10
0
20
6
30
0
11
0
21
0
31
0
39
0
210
0
220
0
230
1
0
LINE
5
7E
100
AcDbEntity
8
1
62
256
6
ByLayer
370
18
48
1
60
0
100
AcDbLine
10
0
20
0
30
0
11
0
21
-6
31
0
39
0
210
0
220
0
230
1
0
LINE
5
7F
100
AcDbEntity
8
1
62
256
6
ByLayer
370
18
48
1
60
0
100
AcDbLine
10
37.943644
20
0.004521
30
0
11
37.943059
21
-6E-06
31
0
39
0
210
0
220
0
230
1
0
LINE
5
80
100
AcDbEntity
8
1
62
256
6
ByLayer
370
18
48
1
60
0
100
AcDbLine
10
37.806067
20
-1.06065
30
0
11
37.731821
21
-1.000089
31
0
39
0
210
0
220
0
230
1
0
LINE
5
81
100
AcDbEntity
8
1
62
256
6
ByLayer
370
18
48
1
60
0
100
AcDbLine
10
37.729439
20
-0.955916
30
0
11
37.808703
21
-0.07912
31
0
39
0
210
0
220
0
230
1
0
LINE
5
82
100
AcDbEntity
8
1
62
256
6
ByLayer
370
18
48
1
60
0
100
AcDbLine
10
37.747456
20
1.290144
30
0
11
37.941719
21
4.893533
31
0
39
0
210
0
220
0
230
1
0
LINE
5
83
100
AcDbEntity
8
1
62
256
6
ByLayer
370
13
48
1
60
0
100
AcDbLine
10
37.480184
20
-0.038478
30
0
11
37.656923
21
-0.344163
31
0
39
0
210
0
220
0
230
1
0
LINE
5
84
100
AcDbEntity
8
1
62
256
6
ByLayer
370
18
48
1
60
0
100
AcDbLine
10
37.681321
20
-0.063387
30
0
11
37.941719
21
-4.893533
31
0
39
0
210
0
220
0
230
1
0
LINE
5
85
100
AcDbEntity
8
1
62
256
6
ByLayer
370
18
48
1
60
0
100
AcDbLine
10
37.661883
20
-0.071544
30
0
11
37.664754
21
-0.061317
31
0
39
0
210
0
220
0
230
1
0
LINE
5
86
100
AcDbEntity
8
1
62
256
6
ByLayer
370
18
48
1
60
0
100
AcDbLine
10
37.65811
20
-0.068097
30
0
11
37.661883
21
-0.071544
31
0
39
0
210
0
220
0
230
1
0
LINE
5
87
100
AcDbEntity
8
1
62
256
6
ByLayer
370
18
48
1
60
0
100
AcDbLine
10
37.65811
20
-0.060495
30
0
11
37.65811
21
-0.068097
31
0
39
0
210
0
220
0
230
1
0
LINE
5
88
100
AcDbEntity
8
1
62
256
6
ByLayer
370
18
48
1
60
0
100
AcDbLine
10
37.656923
20
-0.344163
30
0
11
37.642178
21
-0.058528
31
0
39
0
210
0
220
0
230
1
0
LINE
5
89
100
AcDbEntity
8
1
62
256
6
ByLayer
370
18
48
1
60
0
100
AcDbLine
10
37.806067
20
-4.702472
30
0
11
37.653202
21
-1.804091
31
0
39
0
210
0
220
0
230
1
0
LINE
5
8A
100
AcDbEntity
8
1
62
256
6
ByLayer
370
18
48
1
60
0
100
AcDbLine
10
37.264955
20
-3.101353
30
0
11
37.653202
21
-1.804091
31
0
39
0
210
0
220
0
230
1
0
LINE
5
8B
100
AcDbEntity
8
1
62
256
6
ByLayer
370
18
48
1
60
0
100
AcDbLine
10
37.653202
20
-1.804091
30
0
11
37.654137
21
-1.786748
31
0
39
0
210
0
220
0
230
1
0
LINE
5
8C
100
AcDbEntity
8
1
62
256
6
ByLayer
370
13
48
1
60
0
100
AcDbLine
10
37.283283
20
-1.139367
30
0
11
34.628177
21
-0.53229
31
0
39
0
210
0
220
0
230
1
0
LINE
5
8D
100
AcDbEntity
8
1
62
256
6
ByLayer
370
18
48
1
60
0
100
AcDbLine
10
37.82317
20
-0.080907
30
0
11
37.941719
21
-0.008365
31
0
39
0
210
0
220
0
230
1
0
LINE
5
8E
100
AcDbEntity
8
1
62
256
6
ByLayer
370
13
48
1
60
0
100
AcDbLine
10
35.426185
20
0.404194
30
0
11
37.223484
21
-0.00675
31
0
39
0
210
0
220
0
230
1
0
LINE
5
8F
100
AcDbEntity
8
1
62
256
6
ByLayer
370
18
48
1
60
0
100
AcDbLine
10
37.82317
20
-0.080907
30
0
11
37.223484
21
-0.00675
31
0
39
0
210
0
220
0
230
1
0
LINE
5
90
100
AcDbEntity
8
SK1
62
256
6
ByLayer
370
18
48
1
60
0
100
AcDbLine
10
-45
20
-5.2
30
0
11
-45
21
5.2
31
0
39
0
210
0
220
0
230
1
0
LINE
5
92
100
AcDbEntity
8
SK1
62
256
6
ByLayer
370
18
48
1
60
0
100
AcDbLine
10
0
20
6
30
0
11
0
21
0
31
0
39
0
210
0
220
0
230
1
0
LINE
5
93
100
AcDbEntity
8
SK1
62
256
6
ByLayer
370
18
48
1
60
0
100
AcDbLine
10
0
20
0
30
0
11
0
21
-6
31
0
39
0
210
0
220
0
230
1
0
LINE
5
94
100
AcDbEntity
8
SK1
62
256
6
ByLayer
370
18
48
1
60
0
100
AcDbLine
10
-44.2
20
6
30
0
11
-44.2
21
-6
31
0
39
0
210
0
220
0
230
1
0
LINE
5
95
100
AcDbEntity
8
SK1
62
256
6
ByLayer
370
18
48
1
60
0
100
AcDbLine
10
-26.5
20
4.4
30
0
11
-28.1
21
6
31
0
39
0
210
0
220
0
230
1
0
LINE
5
96
100
AcDbEntity
8
SK1
62
256
6
ByLayer
370
18
48
1
60
0
100
AcDbLine
10
-16.9
20
6
30
0
11
-18.5
21
4.4
31
0
39
0
210
0
220
0
230
1
0
LINE
5
97
100
AcDbEntity
8
SK1
62
256
6
ByLayer
370
18
48
1
60
0
100
AcDbLine
10
-26.5
20
4.4
30
0
11
-18.5
21
4.4
31
0
39
0
210
0
220
0
230
1
0
LINE
5
98
100
AcDbEntity
8
1
62
256
6
ByLayer
370
18
48
1
60
0
100
AcDbLine
10
8.53428
20
6
30
0
11
0
21
6
31
0
39
0
210
0
220
0
230
1
0
LINE
5
99
100
AcDbEntity
8
1
62
256
6
ByLayer
370
18
48
1
60
0
100
AcDbLine
10
0
20
-6
30
0
11
8.53428
21
-6
31
0
39
0
210
0
220
0
230
1
0
LINE
5
9A
100
AcDbEntity
8
SK1
62
256
6
ByLayer
370
18
48
1
60
0
100
AcDbLine
10
-45
20
-5.2
30
0
11
-44.2
21
-6
31
0
39
0
210
0
220
0
230
1
0
LINE
5
9B
100
AcDbEntity
8
SK1
62
256
6
ByLayer
370
18
48
1
60
0
100
AcDbLine
10
-44.2
20
6
30
0
11
-45
21
5.2
31
0
39
0
210
0
220
0
230
1
0
LINE
5
9C
100
AcDbEntity
8
SK1
62
256
6
ByLayer
370
18
48
1
60
0
100
AcDbLine
10
0
20
6
30
0
11
-16.9
21
6
31
0
39
0
210
0
220
0
230
1
0
LINE
5
9D
100
AcDbEntity
8
SK1
62
256
6
ByLayer
370
18
48
1
60
0
100
AcDbLine
10
-28.1
20
6
30
0
11
-44.2
21
6
31
0
39
0
210
0
220
0
230
1
0
LINE
5
9E
100
AcDbEntity
8
SK1
62
256
6
ByLayer
370
18
48
1
60
0
100
AcDbLine
10
-44.2
20
-6
30
0
11
0
21
-6
31
0
39
0
210
0
220
0
230
1
0
LINE
5
9F
100
AcDbEntity
8
SK2
62
256
6
ByLayer
370
18
48
1
60
0
100
AcDbLine
10
-52.45
20
6
30
0
11
-52.45
21
-24.056066
31
0
39
0
210
0
220
0
230
1
0
LINE
5
A1
100
AcDbEntity
8
SK2
62
256
6
ByLayer
370
18
48
1
60
0
100
AcDbLine
10
-45.7875
20
6
30
0
11
-54.45
21
6
31
0
39
0
210
0
220
0
230
1
0
LINE
5
A2
100
AcDbEntity
8
SK2
62
256
6
ByLayer
370
18
48
1
60
0
100
AcDbLine
10
-45.7875
20
-6
30
0
11
-54.45
21
-6
31
0
39
0
210
0
220
0
230
1
0
LINE
5
A3
100
AcDbEntity
8
1
62
256
6
ByLayer
370
18
48
1
60
1
100
AcDbLine
10
-52.45
20
6
30
0
11
-51.989216
21
2.500002
31
0
39
0
210
0
220
0
230
1
0
LINE
5
A4
100
AcDbEntity
8
1
62
256
6
ByLayer
370
18
48
1
60
1
100
AcDbLine
10
-51.989216
20
2.500002
30
0
11
-52.910784
21
2.499998
31
0
39
0
210
0
220
0
230
1
0
LINE
5
A5
100
AcDbEntity
8
1
62
256
6
ByLayer
370
18
48
1
60
1
100
AcDbLine
10
-52.910784
20
2.499998
30
0
11
-52.45
21
6
31
0
39
0
210
0
220
0
230
1
0
LINE
5
A6
100
AcDbEntity
8
1
62
256
6
ByLayer
370
18
48
1
60
1
100
AcDbLine
10
-52.45
20
-6
30
0
11
-52.910784
21
-2.500002
31
0
39
0
210
0
220
0
230
1
0
LINE
5
A7
100
AcDbEntity
8
1
62
256
6
ByLayer
370
18
48
1
60
1
100
AcDbLine
10
-52.910784
20
-2.500002
30
0
11
-51.989216
21
-2.499998
31
0
39
0
210
0
220
0
230
1
0
LINE
5
A8
100
AcDbEntity
8
1
62
256
6
ByLayer
370
18
48
1
60
1
100
AcDbLine
10
-51.989216
20
-2.499998
30
0
11
-52.45
21
-6
31
0
39
0
210
0
220
0
230
1
0
LINE
5
A9
100
AcDbEntity
8
2
62
256
6
ByLayer
370
18
48
1
60
0
100
AcDbLine
10
50
20
-6.0001
30
0
11
50
21
24.056166
31
0
39
0
210
0
220
0
230
1
0
LINE
5
AB
100
AcDbEntity
8
2
62
256
6
ByLayer
370
18
48
1
60
0
100
AcDbLine
10
39.5875
20
6.0001
30
0
11
52
21
6.0001
31
0
39
0
210
0
220
0
230
1
0
LINE
5
AC
100
AcDbEntity
8
2
62
256
6
ByLayer
370
18
48
1
60
0
100
AcDbLine
10
39.5875
20
-6.0001
30
0
11
52
21
-6.0001
31
0
39
0
210
0
220
0
230
1
0
LINE
5
AD
100
AcDbEntity
8
1
62
256
6
ByLayer
370
18
48
1
60
1
100
AcDbLine
10
50
20
6.0001
30
0
11
50.460784
21
2.500102
31
0
39
0
210
0
220
0
230
1
0
LINE
5
AE
100
AcDbEntity
8
1
62
256
6
ByLayer
370
18
48
1
60
1
100
AcDbLine
10
50.460784
20
2.500102
30
0
11
49.539216
21
2.500098
31
0
39
0
210
0
220
0
230
1
0
LINE
5
AF
100
AcDbEntity
8
1
62
256
6
ByLayer
370
18
48
1
60
1
100
AcDbLine
10
49.539216
20
2.500098
30
0
11
50
21
6.0001
31
0
39
0
210
0
220
0
230
1
0
LINE
5
B0
100
AcDbEntity
8
1
62
256
6
ByLayer
370
18
48
1
60
1
100
AcDbLine
10
50
20
-6.0001
30
0
11
49.539216
21
-2.500102
31
0
39
0
210
0
220
0
230
1
0
LINE
5
B1
100
AcDbEntity
8
1
62
256
6
ByLayer
370
18
48
1
60
1
100
AcDbLine
10
49.539216
20
-2.500102
30
0
11
50.460784
21
-2.500098
31
0
39
0
210
0
220
0
230
1
0
LINE
5
B2
100
AcDbEntity
8
1
62
256
6
ByLayer
370
18
48
1
60
1
100
AcDbLine
10
50.460784
20
-2.500098
30
0
11
50
21
-6.0001
31
0
39
0
210
0
220
0
230
1
0
LINE
5
B3
100
AcDbEntity
8
SK2
62
256
6
ByLayer
370
18
48
1
60
0
100
AcDbLine
10
38
20
-36.388246
30
0
11
-45
21
-36.388246
31
0
39
0
210
0
220
0
230
1
0
LINE
5
B4
100
AcDbEntity
8
SK2
62
256
6
ByLayer
370
18
48
1
60
0
100
AcDbLine
10
-45
20
-6.7875
30
0
11
-45
21
-38.388246
31
0
39
0
210
0
220
0
230
1
0
LINE
5
B5
100
AcDbEntity
8
SK2
62
256
6
ByLayer
370
18
48
1
60
0
100
AcDbLine
10
38
20
-7.5876
30
0
11
38
21
-38.388246
31
0
39
0
210
0
220
0
230
1
0
LINE
5
B6
100
AcDbEntity
8
1
62
256
6
ByLayer
370
18
48
1
60
1
100
AcDbLine
10
-45
20
-36.388246
30
0
11
-41.500002
21
-35.927463
31
0
39
0
210
0
220
0
230
1
0
LINE
5
B7
100
AcDbEntity
8
1
62
256
6
ByLayer
370
18
48
1
60
1
100
AcDbLine
10
-41.500002
20
-35.927463
30
0
11
-41.499998
21
-36.84903
31
0
39
0
210
0
220
0
230
1
0
LINE
5
B8
100
AcDbEntity
8
1
62
256
6
ByLayer
370
18
48
1
60
1
100
AcDbLine
10
-41.499998
20
-36.84903
30
0
11
-45
21
-36.388246
31
0
39
0
210
0
220
0
230
1
0
LINE
5
B9
100
AcDbEntity
8
1
62
256
6
ByLayer
370
18
48
1
60
1
100
AcDbLine
10
38
20
-36.388246
30
0
11
34.500002
21
-36.84903
31
0
39
0
210
0
220
0
230
1
0
LINE
5
BA
100
AcDbEntity
8
1
62
256
6
ByLayer
370
18
48
1
60
1
100
AcDbLine
10
34.500002
20
-36.84903
30
0
11
34.499998
21
-35.927463
31
0
39
0
210
0
220
0
230
1
0
LINE
5
BB
100
AcDbEntity
8
1
62
256
6
ByLayer
370
18
48
1
60
1
100
AcDbLine
10
34.499998
20
-35.927463
30
0
11
38
21
-36.388246
31
0
39
0
210
0
220
0
230
1
0
LINE
5
121
100
AcDbEntity
8
1
62
256
6
ByLayer
370
18
48
1
60
1
100
AcDbLine
10
-52.45
20
6
30
0
11
-51.989216
21
2.500002
31
0
39
0
210
0
220
0
230
1
0
LINE
5
122
100
AcDbEntity
8
1
62
256
6
ByLayer
370
18
48
1
60
1
100
AcDbLine
10
-51.989216
20
2.500002
30
0
11
-52.910784
21
2.499998
31
0
39
0
210
0
220
0
230
1
0
LINE
5
123
100
AcDbEntity
8
1
62
256
6
ByLayer
370
18
48
1
60
1
100
AcDbLine
10
-52.910784
20
2.499998
30
0
11
-52.45
21
6
31
0
39
0
210
0
220
0
230
1
0
LINE
5
125
100
AcDbEntity
8
1
62
256
6
ByLayer
370
18
48
1
60
1
100
AcDbLine
10
-52.45
20
-6
30
0
11
-52.910784
21
-2.500002
31
0
39
0
210
0
220
0
230
1
0
LINE
5
126
100
AcDbEntity
8
1
62
256
6
ByLayer
370
18
48
1
60
1
100
AcDbLine
10
-52.910784
20
-2.500002
30
0
11
-51.989216
21
-2.499998
31
0
39
0
210
0
220
0
230
1
0
LINE
5
127
100
AcDbEntity
8
1
62
256
6
ByLayer
370
18
48
1
60
1
100
AcDbLine
10
-51.989216
20
-2.499998
30
0
11
-52.45
21
-6
31
0
39
0
210
0
220
0
230
1
0
LINE
5
12B
100
AcDbEntity
8
1
62
256
6
ByLayer
370
18
48
1
60
1
100
AcDbLine
10
50
20
6.0001
30
0
11
50.460784
21
2.500102
31
0
39
0
210
0
220
0
230
1
0
LINE
5
12C
100
AcDbEntity
8
1
62
256
6
ByLayer
370
18
48
1
60
1
100
AcDbLine
10
50.460784
20
2.500102
30
0
11
49.539216
21
2.500098
31
0
39
0
210
0
220
0
230
1
0
LINE
5
12D
100
AcDbEntity
8
1
62
256
6
ByLayer
370
18
48
1
60
1
100
AcDbLine
10
49.539216
20
2.500098
30
0
11
50
21
6.0001
31
0
39
0
210
0
220
0
230
1
0
LINE
5
12F
100
AcDbEntity
8
1
62
256
6
ByLayer
370
18
48
1
60
1
100
AcDbLine
10
50
20
-6.0001
30
0
11
49.539216
21
-2.500102
31
0
39
0
210
0
220
0
230
1
0
LINE
5
130
100
AcDbEntity
8
1
62
256
6
ByLayer
370
18
48
1
60
1
100
AcDbLine
10
49.539216
20
-2.500102
30
0
11
50.460784
21
-2.500098
31
0
39
0
210
0
220
0
230
1
0
LINE
5
131
100
AcDbEntity
8
1
62
256
6
ByLayer
370
18
48
1
60
1
100
AcDbLine
10
50.460784
20
-2.500098
30
0
11
50
21
-6.0001
31
0
39
0
210
0
220
0
230
1
0
LINE
5
134
100
AcDbEntity
8
1
62
256
6
ByLayer
370
18
48
1
60
1
100
AcDbLine
10
-45
20
-36.388246
30
0
11
-41.500002
21
-35.927463
31
0
39
0
210
0
220
0
230
1
0
LINE
5
135
100
AcDbEntity
8
1
62
256
6
ByLayer
370
18
48
1
60
1
100
AcDbLine
10
-41.500002
20
-35.927463
30
0
11
-41.499998
21
-36.84903
31
0
39
0
210
0
220
0
230
1
0
LINE
5
136
100
AcDbEntity
8
1
62
256
6
ByLayer
370
18
48
1
60
1
100
AcDbLine
10
-41.499998
20
-36.84903
30
0
11
-45
21
-36.388246
31
0
39
0
210
0
220
0
230
1
0
LINE
5
138
100
AcDbEntity
8
1
62
256
6
ByLayer
370
18
48
1
60
1
100
AcDbLine
10
38
20
-36.388246
30
0
11
34.500002
21
-36.84903
31
0
39
0
210
0
220
0
230
1
0
LINE
5
139
100
AcDbEntity
8
1
62
256
6
ByLayer
370
18
48
1
60
1
100
AcDbLine
10
34.500002
20
-36.84903
30
0
11
34.499998
21
-35.927463
31
0
39
0
210
0
220
0
230
1
0
LINE
5
13A
100
AcDbEntity
8
1
62
256
6
ByLayer
370
18
48
1
60
1
100
AcDbLine
10
34.499998
20
-35.927463
30
0
11
38
21
-36.388246
31
0
39
0
210
0
220
0
230
1
0
MTEXT
5
11D
100
AcDbEntity
8
SK2
62
256
6
ByLayer
370
18
48
1
60
0
100
AcDbMText
10
-54.014634
20
-22.121222
30
0
210
0
220
0
230
1
1
%%c
40
3.5
41
0
44
1.084337
50
90
71
7
72
5
7
iso_b_vert
0
MTEXT
5
120
100
AcDbEntity
8
SK2
62
256
6
ByLayer
370
18
48
1
60
0
100
AcDbMText
10
-54.014634
20
-15.148566
30
0
210
0
220
0
230
1
1
\W0.5321;12
40
3.5
41
0
44
1.084337
50
90
71
7
72
5
7
iso_b_vert
0
MTEXT
5
129
100
AcDbEntity
8
2
62
256
6
ByLayer
370
18
48
1
60
0
100
AcDbMText
10
48.435366
20
13.934944
30
0
210
0
220
0
230
1
1
%%c
40
3.5
41
0
44
1.084337
50
90
71
7
72
5
7
iso_b_vert
0
MTEXT
5
12A
100
AcDbEntity
8
2
62
256
6
ByLayer
370
18
48
1
60
0
100
AcDbMText
10
48.435366
20
20.9076
30
0
210
0
220
0
230
1
1
\W0.5321;12
40
3.5
41
0
44
1.084337
50
90
71
7
72
5
7
iso_b_vert
0
MTEXT
5
133
100
AcDbEntity
8
SK2
62
256
6
ByLayer
370
18
48
1
60
0
100
AcDbMText
10
-5.404966
20
-35.355613
30
0
210
0
220
0
230
1
1
\W0.6740;83
40
3.5
41
0
44
1.084337
50
0
71
7
72
5
7
iso_b_vert
0
MTEXT
5
13C
100
AcDbEntity
8
SK6
62
256
6
ByLayer
370
18
48
1
60
0
100
AcDbMText
10
-28.537365
20
-62.114886
30
0
210
0
220
0
230
1
1
\W0.7297;2S342-1200-100-PB   P2BM
40
3
41
0
44
1.084337
50
0
71
7
72
5
7
iso_b_vert
0
HATCH
5
124
100
AcDbEntity
8
SK2
62
256
6
ByLayer
370
13
48
1
60
0
100
AcDbHatch
10
0
20
0
30
0
210
0
220
0
230
1
2
ANSI31
70
0
71
0
91
1
92
5
93
3
72
1
10
-52.45
20
5.99999999999994
11
-51.9892162584472
21
2.50000169255313
72
1
10
-51.9892162584472
20
2.50000169255313
11
-52.9107837415528
21
2.49999830744676
72
1
10
-52.9107837415528
20
2.49999830744676
11
-52.45
21
5.99999999999994
97
0
75
0
76
1
52
0
41
0.0062
77
0
78
1
53
45
43
0
44
0
45
-0.0139193969876572
46
0.0139193969876572
79
0
47
0
98
1
10
0
20
0
0
HATCH
5
128
100
AcDbEntity
8
SK2
62
256
6
ByLayer
370
13
48
1
60
0
100
AcDbHatch
10
0
20
0
30
0
210
0
220
0
230
1
2
ANSI31
70
0
71
0
91
1
92
5
93
3
72
1
10
-52.45
20
-6.00000000000003
11
-52.9107837415528
21
-2.50000169255321
72
1
10
-52.9107837415528
20
-2.50000169255321
11
-51.9892162584472
21
-2.49999830744685
72
1
10
-51.9892162584472
20
-2.49999830744685
11
-52.45
21
-6.00000000000003
97
0
75
0
76
1
52
0
41
0.0062
77
0
78
1
53
45
43
0
44
0
45
-0.0139193969876572
46
0.0139193969876572
79
0
47
0
98
1
10
0
20
0
0
HATCH
5
12E
100
AcDbEntity
8
2
62
256
6
ByLayer
370
13
48
1
60
0
100
AcDbHatch
10
0
20
0
30
0
210
0
220
0
230
1
2
ANSI31
70
0
71
0
91
1
92
5
93
3
72
1
10
50
20
6.00009999999986
11
50.4607837415528
21
2.50010169255305
72
1
10
50.4607837415528
20
2.50010169255305
11
49.5392162584472
21
2.50009830744668
72
1
10
49.5392162584472
20
2.50009830744668
11
50
21
6.00009999999986
97
0
75
0
76
1
52
0
41
0.0062
77
0
78
1
53
45
43
0
44
0
45
-0.0139193969876572
46
0.0139193969876572
79
0
47
0
98
1
10
0
20
0
0
HATCH
5
132
100
AcDbEntity
8
2
62
256
6
ByLayer
370
13
48
1
60
0
100
AcDbHatch
10
0
20
0
30
0
210
0
220
0
230
1
2
ANSI31
70
0
71
0
91
1
92
5
93
3
72
1
10
50
20
-6.00010000000015
11
49.5392162584472
21
-2.50010169255333
72
1
10
49.5392162584472
20
-2.50010169255333
11
50.4607837415528
21
-2.50009830744696
72
1
10
50.4607837415528
20
-2.50009830744696
11
50
21
-6.00010000000015
97
0
75
0
76
1
52
0
41
0.0062
77
0
78
1
53
45
43
0
44
0
45
-0.0139193969876572
46
0.0139193969876572
79
0
47
0
98
1
10
0
20
0
0
HATCH
5
137
100
AcDbEntity
8
SK2
62
256
6
ByLayer
370
13
48
1
60
0
100
AcDbHatch
10
0
20
0
30
0
210
0
220
0
230
1
2
ANSI31
70
0
71
0
91
1
92
5
93
3
72
1
10
-45
20
-36.3882464394152
11
-41.5000016925532
21
-35.9274626978625
72
1
10
-41.5000016925532
20
-35.9274626978625
11
-41.4999983074468
21
-36.849030180968
72
1
10
-41.4999983074468
20
-36.849030180968
11
-45
21
-36.3882464394152
97
0
75
0
76
1
52
0
41
0.0062
77
0
78
1
53
45
43
0
44
0
45
-0.0139193969876572
46
0.0139193969876572
79
0
47
0
98
1
10
0
20
0
0
HATCH
5
13B
100
AcDbEntity
8
SK2
62
256
6
ByLayer
370
13
48
1
60
0
100
AcDbHatch
10
0
20
0
30
0
210
0
220
0
230
1
2
ANSI31
70
0
71
0
91
1
92
5
93
3
72
1
10
38
20
-36.3882464394152
11
34.5000016925532
21
-36.849030180968
72
1
10
34.5000016925532
20
-36.849030180968
11
34.4999983074468
21
-35.9274626978625
72
1
10
34.4999983074468
20
-35.9274626978625
11
38
21
-36.3882464394152
97
0
75
0
76
1
52
0
41
0.0062
77
0
78
1
53
45
43
0
44
0
45
-0.0139193969876572
46
0.0139193969876572
79
0
47
0
98
1
10
0
20
0
0
DIMENSION
5
13F
100
AcDbEntity
8
2
62
256
6
ByLayer
370
18
48
1
60
0
100
AcDbDimension
2
_U0
10
12
20
-20.388246
30
0
11
25
21
-20.388246
31
0
70
32
71
1
72
1
41
1
210
0
220
0
230
1
3
Standard
100
AcDbAlignedDimension
13
38
23
-6.0001
33
0
14
12
24
-6.0001
34
0
50
0
100
AcDbRotatedDimension
1001
ACAD
1000
DSTYLE
1002
{
1070
   371
1070
    13
1070
   372
1070
    13
1070
   170
1070
     0
1070
   144
1040
1.0
1070
   277
1070
     2
1070
   284
1070
     8
1070
   278
1070
    46
1070
   146
1040
1.0
1070
   345
1005
16
1070
   347
1005
16
1070
   346
1005
16
1070
   344
1005
0
1070
   343
1005
0
1070
   172
1070
     1
1070
    76
1070
     0
1070
    75
1070
     0
1070
   282
1070
     0
1070
   281
1070
     0
1070
    71
1070
     0
1070
    74
1070
     0
1070
   279
1070
     0
1070
   173
1070
     1
1070
   340
1005
11E
1070
   271
1070
     2
1070
   272
1070
     2
1070
    77
1070
     1
1070
    73
1070
     1
1070
   171
1070
     3
1070
   274
1070
     4
1070
   177
1070
     2
1070
   176
1070
     2
1070
   178
1070
     2
1070
    78
1070
     8
1070
    48
1040
-0.1
1070
    41
1040
3.5
1070
   147
1040
1.75
1070
    42
1040
1.5875
1070
    44
1040
2.0
1070
   140
1040
3.5
1002
}
1001
ACAD_DSTYLE_DIM_LINETYPE
1070
   380
1005
16
1001
ACAD_DSTYLE_DIM_EXT1_LINETYPE
1070
   381
1005
16
1001
ACAD_DSTYLE_DIM_EXT2_LINETYPE
1070
   382
1005
16
0
ENDSEC
0
SECTION
2
OBJECTS
0
DICTIONARY
5
1c8
330
0
100
AcDbDictionary
280
0
281
1
3
ACAD_GROUP
350
1c9
3
ACAD_MLINESTYLE
350
1ca
0
DICTIONARY
5
1c9
330
0
100
AcDbDictionary
280
0
281
1
0
DICTIONARY
5
1ca
330
0
100
AcDbDictionary
280
0
281
1
3
Standard
350
18
0
MLINESTYLE
5
18
330
1ca
100
AcDbMlineStyle
2
Standard
70
0
3

62
256
51
90
52
90
71
2
49
-0.5
62
256
6
ByLayer
49
0.5
62
256
6
ByLayer
0
RASTERVARIABLES
5
1b6
330

100
AcDbRasterVariables
90
0
70
1
71
1
72
1
0
ENDSEC
0
EOF
