0
SECTION
2
HEADER
9
$ACADVER
1
AC1015
9
$DWGCODEPAGE
3
ANSI_1252
9
$HANDSEED
5
1c5
9
$ANGBASE
50
0
9
$ANGDIR
70
0
9
$ATTMODE
70
1
9
$AUNITS
70
0
9
$AUPREC
70
0
9
$CECOLOR
62
256
9
$CELTSCALE
40
1
9
$CELTYPE
6
ByLayer
9
$CELWEIGHT
370
18
9
$CLAYER
8
0
9
$CMLJUST
70
0
9
$CMLSCALE
40
1
9
$CMLSTYLE
2
Standard
9
$DIMSTYLE
2
Standard
9
$TEXTSIZE
40
0.2
9
$TEXTSTYLE
7
Standard
9
$LUNITS
70
2
9
$LUPREC
70
4
9
$EXTNAMES
290
1
9
$INSUNITS
70
4
9
$LTSCALE
40
1
9
$LWDISPLAY
290
1
9
$PDMODE
70
0
9
$PDSIZE
40
0
9
$PLINEGEN
70
0
0
ENDSEC
0
SECTION
2
CLASSES
0
CLASS
1
RASTERVARIABLES
2
AcDbRasterVariables
3
ISM
90
0
280
0
281
0
0
ENDSEC
0
SECTION
2
TABLES
0
TABLE
2
VPORT
5
1bb
100
AcDbSymbolTable
0
VPORT
5
1
100
AcDbSymbolTableRecord
100
AcDbViewportTableRecord
2
*Active
70
0
10
0
20
0
11
1
21
1
12
-1
22
1
13
0
23
0
14
0.5
24
0.5
15
10
25
10
16
0
26
0
36
1
17
0
27
0
37
0
0
ENDTAB
0
TABLE
2
LTYPE
5
1bc
100
AcDbSymbolTable
0
LTYPE
5
14
100
AcDbSymbolTableRecord
100
AcDbLinetypeTableRecord
70
0
2
ByBlock
3

72
65
73
0
40
0
0
LTYPE
5
15
100
AcDbSymbolTableRecord
100
AcDbLinetypeTableRecord
70
0
2
ByLayer
3

72
65
73
0
40
0
0
LTYPE
5
16
100
AcDbSymbolTableRecord
100
AcDbLinetypeTableRecord
70
0
2
Continuous
3
Solid line
72
65
73
0
40
0
0
LTYPE
5
6E
100
AcDbSymbolTableRecord
100
AcDbLinetypeTableRecord
70
0
2
CENTER
3
____ _ ____ _ ____ _ ____
72
65
73
4
40
47.5
49
22
74
0
49
-8.5
74
0
49
8.5
74
0
49
-8.5
74
0
0
LTYPE
5
6F
100
AcDbSymbolTableRecord
100
AcDbLinetypeTableRecord
70
0
2
DASHED
3
__ __ __ __ __ __ __ __ __
72
65
73
2
40
25.72
49
12.86
74
0
49
-12.86
74
0
0
ENDTAB
0
TABLE
2
LAYER
5
1bd
100
AcDbSymbolTable
0
LAYER
5
10
100
AcDbSymbolTableRecord
100
AcDbLayerTableRecord
2
0
70
0
62
7
6
Continuous
290
1
370
-3
390
0
0
LAYER
5
71
100
AcDbSymbolTableRecord
100
AcDbLayerTableRecord
2
80
70
0
62
-6
6
Continuous
290
1
370
-3
390
0
0
LAYER
5
73
100
AcDbSymbolTableRecord
100
AcDbLayerTableRecord
2
81
70
0
62
-3
6
Continuous
290
1
370
-3
390
0
0
LAYER
5
75
100
AcDbSymbolTableRecord
100
AcDbLayerTableRecord
2
1
70
0
62
4
6
Continuous
290
1
370
-3
390
0
0
LAYER
5
78
100
AcDbSymbolTableRecord
100
AcDbLayerTableRecord
2
4
70
0
62
-2
6
CENTER
290
1
370
-3
390
0
0
LAYER
5
B2
100
AcDbSymbolTableRecord
100
AcDbLayerTableRecord
2
2
70
0
62
7
6
Continuous
290
1
370
-3
390
0
0
LAYER
5
132
100
AcDbSymbolTableRecord
100
AcDbLayerTableRecord
2
Defpoints
70
0
62
7
6
Continuous
290
0
370
-3
390
0
0
LAYER
5
1a7
100
AcDbSymbolTableRecord
100
AcDbLayerTableRecord
2
SK4
70
0
62
2
6
CENTER
290
1
370
-3
390
0
0
LAYER
5
1a8
100
AcDbSymbolTableRecord
100
AcDbLayerTableRecord
2
SK1
70
0
62
4
6
Continuous
290
1
370
-3
390
0
0
LAYER
5
1a9
100
AcDbSymbolTableRecord
100
AcDbLayerTableRecord
2
SK2
70
0
62
7
6
Continuous
290
1
370
-3
390
0
0
LAYER
5
1aa
100
AcDbSymbolTableRecord
100
AcDbLayerTableRecord
2
SK6
70
0
62
5
6
Continuous
290
1
370
-3
390
0
0
ENDTAB
0
TABLE
2
STYLE
5
1be
100
AcDbSymbolTable
0
STYLE
5
11
100
AcDbSymbolTableRecord
100
AcDbTextStyleTableRecord
2
Standard
3
txt
70
0
71
0
40
0
41
1
42
0
50
0
0
STYLE
5
10E
100
AcDbSymbolTableRecord
100
AcDbTextStyleTableRecord
2
iso_b_vert
3
simplex.shx
70
0
71
0
40
0
41
1
42
0
50
0
0
STYLE
5
10F
100
AcDbSymbolTableRecord
100
AcDbTextStyleTableRecord
2
DWGDirectTextStyle
3
simplex
70
0
71
0
40
0
41
1
42
0
50
0
0
ENDTAB
0
TABLE
2
DIMSTYLE
5
1bf
100
AcDbSymbolTable
100
AcDbDimStyleTable
0
DIMSTYLE
105
27
100
AcDbSymbolTableRecord
100
AcDbDimStyleTableRecord
2
Standard
70
0
3
<>
41
0.18
42
0.0625
44
0.18
140
0.18
147
0.09
73
0
74
0
77
1
271
2
275
0
278
52
280
0
340
11
0
ENDTAB
0
TABLE
2
VIEW
5
1c0
100
AcDbSymbolTable
0
ENDTAB
0
TABLE
2
UCS
5
1c1
100
AcDbSymbolTable
0
ENDTAB
0
TABLE
2
APPID
5
1c2
100
AcDbSymbolTable
0
APPID
5
12
100
AcDbSymbolTableRecord
100
AcDbRegAppTableRecord
2
ACAD
70
0
0
APPID
5
12E
100
AcDbSymbolTableRecord
100
AcDbRegAppTableRecord
2
ACAD_DSTYLE_DIMBREAK
70
0
0
APPID
5
166
100
AcDbSymbolTableRecord
100
AcDbRegAppTableRecord
2
ACAD_DSTYLE_DIM_LINETYPE
70
0
0
APPID
5
167
100
AcDbSymbolTableRecord
100
AcDbRegAppTableRecord
2
ACAD_DSTYLE_DIM_EXT1_LINETYPE
70
0
0
APPID
5
168
100
AcDbSymbolTableRecord
100
AcDbRegAppTableRecord
2
ACAD_DSTYLE_DIM_EXT2_LINETYPE
70
0
0
APPID
5
1A3
100
AcDbSymbolTableRecord
100
AcDbRegAppTableRecord
2
ACAD_MLEADERVER
70
0
0
ENDTAB
0
TABLE
2
BLOCK_RECORD
5
1c3
100
AcDbSymbolTable
0
BLOCK_RECORD
5
1F
100
AcDbSymbolTableRecord
100
AcDbBlockTableRecord
2
*Model_Space
340
0
70
0
0
BLOCK_RECORD
5
1B
100
AcDbSymbolTableRecord
100
AcDbBlockTableRecord
2
*Paper_Space
340
0
70
0
0
BLOCK_RECORD
5
23
100
AcDbSymbolTableRecord
100
AcDbBlockTableRecord
2
*Paper_Space0
340
0
70
0
0
BLOCK_RECORD
5
133
100
AcDbSymbolTableRecord
100
AcDbBlockTableRecord
2
*D1
340
0
70
0
0
BLOCK_RECORD
5
13F
100
AcDbSymbolTableRecord
100
AcDbBlockTableRecord
2
_U0
340
0
70
0
0
ENDTAB
0
ENDSEC
0
SECTION
2
BLOCKS
0
BLOCK
5
20
100
AcDbEntity
8
0
100
AcDbBlockBegin
2
*Model_Space
70
0
10
0
20
0
30
0
3
*Model_Space
0
ENDBLK
5
21
100
AcDbEntity
8
0
100
AcDbBlockEnd
0
BLOCK
5
1C
100
AcDbEntity
8
0
100
AcDbBlockBegin
2
*Paper_Space
70
0
10
0
20
0
30
0
3
*Paper_Space
0
ENDBLK
5
1D
100
AcDbEntity
8
0
100
AcDbBlockEnd
0
BLOCK
5
24
100
AcDbEntity
8
0
100
AcDbBlockBegin
2
*Paper_Space0
70
0
10
0
20
0
30
0
3
*Paper_Space0
0
ENDBLK
5
25
100
AcDbEntity
8
0
100
AcDbBlockEnd
0
BLOCK
5
134
100
AcDbEntity
8
0
100
AcDbBlockBegin
2
*D1
70
1
10
0
20
0
30
0
3
*D1
0
LINE
5
136
100
AcDbEntity
8
0
62
256
6
ByLayer
370
-2
48
1
60
0
100
AcDbLine
10
27.5
20
-5.55635
30
0
11
27.5
21
-20.513882
31
0
39
0
210
0
220
0
230
1
0
LINE
5
137
100
AcDbEntity
8
0
62
256
6
ByLayer
370
-2
48
1
60
0
100
AcDbLine
10
8.45
20
-5.55635
30
0
11
8.45
21
-20.513882
31
0
39
0
210
0
220
0
230
1
0
LINE
5
138
100
AcDbEntity
8
0
62
256
6
ByLayer
370
-2
48
1
60
0
100
AcDbLine
10
24
20
-18.513882
30
0
11
11.95
21
-18.513882
31
0
39
0
210
0
220
0
230
1
0
SOLID
5
139
100
AcDbEntity
8
0
62
256
6
ByLayer
370
-1
48
1
60
0
100
AcDbTrace
10
24
20
-19.097215
30
0
11
24
21
-17.930548
31
0
12
27.5
22
-18.513882
32
0
13
27.5
23
-18.513882
33
0
39
0
210
0
220
0
230
1
0
SOLID
5
13A
100
AcDbEntity
8
0
62
256
6
ByLayer
370
-1
48
1
60
0
100
AcDbTrace
10
11.95
20
-17.930548
30
0
11
11.95
21
-19.097215
31
0
12
8.45
22
-18.513882
32
0
13
8.45
23
-18.513882
33
0
39
0
210
0
220
0
230
1
0
MTEXT
5
13B
100
AcDbEntity
8
0
62
256
6
ByLayer
370
18
48
1
60
0
100
AcDbMText
10
17.975
20
-11.513882
30
0
210
0
220
0
230
1
1
\A1;19.05
40
3.5
41
0
44
1
50
0
71
5
72
5
7
iso_b_vert
0
POINT
5
13C
100
AcDbEntity
8
Defpoints
62
0
6
ByLayer
370
-1
48
1
60
0
100
AcDbPoint
10
27.5
20
-3.96885
30
0
39
0
210
0
220
0
230
1
50
360
0
POINT
5
13D
100
AcDbEntity
8
Defpoints
62
0
6
ByLayer
370
-1
48
1
60
0
100
AcDbPoint
10
8.45
20
-3.96885
30
0
39
0
210
0
220
0
230
1
50
360
0
POINT
5
13E
100
AcDbEntity
8
Defpoints
62
0
6
ByLayer
370
-1
48
1
60
0
100
AcDbPoint
10
8.45
20
-18.513882
30
0
39
0
210
0
220
0
230
1
50
360
0
ENDBLK
5
135
100
AcDbEntity
8
0
100
AcDbBlockEnd
0
BLOCK
5
146
100
AcDbEntity
8
0
100
AcDbBlockBegin
2
_U0
70
0
10
0
20
0
30
0
3
_U0
0
MTEXT
5
140
100
AcDbEntity
8
2
62
256
6
ByLayer
370
18
48
1
60
0
100
AcDbMText
10
13.183001
20
-17.481248
30
0
210
0
220
0
230
1
1
\W0.6864;19.05
40
3.5
41
0
44
1.084337
50
0
71
7
72
5
7
iso_b_vert
0
LINE
5
141
100
AcDbEntity
8
2
62
256
6
ByLayer
370
13
48
1
60
0
100
AcDbLine
10
27.5
20
-5.55635
30
0
11
27.5
21
-20.513882
31
0
39
0
210
0
220
0
230
1
0
LINE
5
142
100
AcDbEntity
8
2
62
256
6
ByLayer
370
13
48
1
60
0
100
AcDbLine
10
8.45
20
-5.55635
30
0
11
8.45
21
-20.513882
31
0
39
0
210
0
220
0
230
1
0
LINE
5
143
100
AcDbEntity
8
2
62
256
6
ByLayer
370
13
48
1
60
0
100
AcDbLine
10
27.5
20
-18.513882
30
0
11
8.45
21
-18.513882
31
0
39
0
210
0
220
0
230
1
0
SOLID
5
144
100
AcDbEntity
8
2
62
256
6
ByLayer
370
18
48
1
60
0
100
AcDbTrace
10
27.5
20
-18.513882
30
0
11
24.000002
21
-18.974665
31
0
12
23.999998
22
-18.053098
32
0
13
23.999998
23
-18.053098
33
0
39
0
210
0
220
0
230
1
0
SOLID
5
145
100
AcDbEntity
8
2
62
256
6
ByLayer
370
18
48
1
60
0
100
AcDbTrace
10
8.45
20
-18.513882
30
0
11
11.949998
21
-18.053098
31
0
12
11.950002
22
-18.974665
32
0
13
11.950002
23
-18.974665
33
0
39
0
210
0
220
0
230
1
0
ENDBLK
5
147
100
AcDbEntity
8
0
100
AcDbBlockEnd
0
ENDSEC
0
SECTION
2
ENTITIES
0
ELLIPSE
5
C4
100
AcDbEntity
8
1
62
256
6
ByLayer
370
18
48
1
60
0
100
AcDbEllipse
10
27.228597
20
-0.263319
30
0
11
0.0483576099746694
21
-0.956528337948456
31
0
210
0
220
0
230
1
40
0.053902
41
-0.106381394620626
42
1.58682785927918
0
ELLIPSE
5
C5
100
AcDbEntity
8
1
62
256
6
ByLayer
370
18
48
1
60
0
100
AcDbEllipse
10
27.086777
20
-0.489093
30
0
11
0.159419215046221
21
-0.45911835803011
31
0
210
0
220
0
230
1
40
0.474351
41
2.88219545750348
42
-2.14765668687397
0
ELLIPSE
5
C6
100
AcDbEntity
8
1
62
256
6
ByLayer
370
18
48
1
60
0
100
AcDbEllipse
10
39.390836
20
-21.458096
30
0
11
14.5624549548385
21
-24.6544351200663
31
0
210
0
220
0
230
1
40
0.00863
41
-2.57331987092513
42
-2.53918367590754
0
ELLIPSE
5
C7
100
AcDbEntity
8
1
62
256
6
ByLayer
370
13
48
1
60
0
100
AcDbEllipse
10
10.557246
20
-63.934501
30
0
11
37.9753310494653
21
-60.8309000880654
31
0
210
0
220
0
230
1
40
0.63741
41
2.45993369989735
42
2.49590180482138
0
ELLIPSE
5
C8
100
AcDbEntity
8
1
62
256
6
ByLayer
370
13
48
1
60
0
100
AcDbEllipse
10
10.557246
20
32.590199
30
0
11
51.117784819438
21
-50.2940975562174
31
0
210
0
220
0
230
1
40
0.36258
41
-1.35743045861478
42
-1.2881798695627
0
POINT
5
70
100
AcDbEntity
8
80
62
256
6
ByLayer
370
18
48
1
60
0
100
AcDbPoint
10
0
20
0
30
0
39
0
210
0
220
0
230
1
50
360
0
POINT
5
72
100
AcDbEntity
8
81
62
256
6
ByLayer
370
18
48
1
60
0
100
AcDbPoint
10
27.5
20
0
30
0
39
0
210
0
220
0
230
1
50
360
0
POINT
5
74
100
AcDbEntity
8
1
62
256
6
ByLayer
370
18
48
1
60
1
100
AcDbPoint
10
27.5
20
-3.96885
30
0
39
0
210
0
220
0
230
1
50
360
0
POINT
5
76
100
AcDbEntity
8
1
62
256
6
ByLayer
370
18
48
1
60
1
100
AcDbPoint
10
8.45
20
-3.96885
30
0
39
0
210
0
220
0
230
1
50
360
0
SPLINE
5
C9
100
AcDbEntity
8
1
62
256
6
ByLayer
370
18
48
1
60
0
100
AcDbSpline
70
4
71
3
72
45
73
41
40
0
40
0
40
0
40
0
40
0.0763695337052814
40
0.0763695337052814
40
0.167747978964737
40
0.167747978964737
40
0.213437201594465
40
0.213437201594465
40
0.23628181290933
40
0.23628181290933
40
0.259126424224194
40
0.259126424224194
40
0.350504869483653
40
0.350504869483653
40
0.396194092113384
40
0.41903870342825
40
0.41903870342825
40
0.441883314743115
40
0.441883314743115
40
0.533261760002581
40
0.533261760002581
40
0.578950982632313
40
0.578950982632313
40
0.60179559394718
40
0.60179559394718
40
0.624640205262046
40
0.624640205262046
40
0.716018650521514
40
0.716018650521514
40
0.738863261836381
40
0.738863261836381
40
0.761707873151249
40
0.761707873151249
40
0.807397095780983
40
0.807397095780983
40
0.898775541040453
40
0.898775541040453
40
0.990153986299922
40
0.990153986299922
40
1
40
1
40
1
40
1
41
1
10
9.72706030964656
20
2.31509968255767
30
0
41
1
10
10.0396098207544
20
2.30376811787872
30
0
41
1
10
10.3509373651759
20
2.27933169110182
30
0
41
1
10
11.0340693769199
20
2.19801442817558
30
0
41
1
10
11.40573123811
20
2.13569983663288
30
0
41
1
10
11.9648143973884
20
2.01694216459452
30
0
41
1
10
12.1514405879482
20
1.97314626661907
30
0
41
1
10
12.4320674935696
20
1.90139798566963
30
0
41
1
10
12.5257244432092
20
1.87647314131007
30
0
41
1
10
12.7133166235393
20
1.8246535140633
30
0
41
1
10
12.8072993069382
20
1.79774461289315
30
0
41
1
10
13.2775089953832
20
1.65855726873085
30
0
41
1
10
13.6522744222619
20
1.53305301895799
30
0
41
1
10
14.2146973926092
20
1.32756386340395
30
0
41
1
10
14.4959769523234
20
1.22051428801393
30
0
41
1
10
14.7778041653125
20
1.10779490942829
30
0
41
1
10
14.9658605831822
20
1.0314796407045
30
0
41
1
10
15.0599131405382
20
0.992761737552257
30
0
41
1
10
15.5295802728592
20
0.796971875461679
30
0
41
1
10
15.9042003465724
20
0.632975462316978
30
0
41
1
10
16.4668345332504
20
0.380953651372039
30
0
41
1
10
16.6544963440462
20
0.295942485063108
30
0
41
1
10
16.9364626467719
20
0.167560690339911
30
0
41
1
10
17.0305613596889
20
0.124608508625755
30
0
41
1
10
17.2184987009624
20
0.0387389137881655
30
0
41
1
10
17.3123916587699
20
-0.0042031676251781
30
0
41
1
10
17.7816022523896
20
-0.218676620406256
30
0
41
1
10
18.1561576534848
20
-0.389493314868332
30
0
41
1
10
18.6253129042682
20
-0.597745856132462
30
0
41
1
10
18.719192018711
20
-0.639133107178196
30
0
41
1
10
18.9070960937761
20
-0.721273351126058
30
0
41
1
10
19.0012100012455
20
-0.7620642698555
30
0
41
1
10
19.2830608513834
20
-0.882988294231723
30
0
41
1
10
19.4702850743103
20
-0.961665230975484
30
0
41
1
10
20.0305146597528
20
-1.19078687389765
30
0
41
1
10
20.402079023412
20
-1.33430632356951
30
0
41
1
10
21.1444059433705
20
-1.59753680106269
30
0
41
1
10
21.5151651877407
20
-1.71725405060829
30
0
41
1
10
21.9270961797214
20
-1.83397227757575
30
0
41
1
10
21.9671771179245
20
-1.84515876779918
30
0
41
1
10
22.0072727622472
20
-1.85617578595208
30
0
0
SPLINE
5
CA
100
AcDbEntity
8
1
62
256
6
ByLayer
370
18
48
1
60
0
100
AcDbSpline
70
4
71
3
72
24
73
20
40
0
40
0
40
0
40
0
40
0.125
40
0.125
40
0.25
40
0.25
40
0.375
40
0.375
40
0.5
40
0.5
40
0.625
40
0.625
40
0.75
40
0.75
40
0.812499999999999
40
0.812499999999999
40
0.874999999999999
40
0.874999999999999
40
1
40
1
40
1
40
1
41
1
10
26.8172887710541
20
-0.30207583423325
30
0
41
1
10
26.8179299437487
20
-0.320479493604722
30
0
41
1
10
26.8200825561754
20
-0.338786308147263
30
0
41
1
10
26.826699536144
20
-0.375336064683069
30
0
41
1
10
26.8311707969961
20
-0.393577758264655
30
0
41
1
10
26.8420177186584
20
-0.43011250540701
30
0
41
1
10
26.8483962921914
20
-0.448404436690282
30
0
41
1
10
26.8627931797249
20
-0.48517709483022
30
0
41
1
10
26.8708377534433
20
-0.503697269397861
30
0
41
1
10
26.888054988549
20
-0.540462544109744
30
0
41
1
10
26.897256056101
20
-0.558784485260787
30
0
41
1
10
26.916615259327
20
-0.595551648501328
30
0
41
1
10
26.9267736943872
20
-0.613994051581187
30
0
41
1
10
26.9425875012546
20
-0.642009851569497
30
0
41
1
10
26.9479550115806
20
-0.65140822433807
30
0
41
1
10
26.9588639140762
20
-0.670386968108431
30
0
41
1
10
26.9643723751973
20
-0.679910460546864
30
0
41
1
10
26.9808443091534
20
-0.708361272053651
30
0
41
1
10
26.9918035382895
20
-0.727279584993198
30
0
41
1
10
27.0026302544872
20
-0.746188347739775
30
0
0
SPLINE
5
CB
100
AcDbEntity
8
1
62
256
6
ByLayer
370
18
48
1
60
0
100
AcDbSpline
70
4
71
3
72
48
73
44
40
0
40
0
40
0
40
0
40
0.0625000000000326
40
0.0625000000000326
40
0.125000000000065
40
0.125000000000065
40
0.140625000000073
40
0.140625000000073
40
0.156250000000081
40
0.187500000000095
40
0.187500000000095
40
0.203125000000101
40
0.203125000000101
40
0.218750000000108
40
0.218750000000108
40
0.250000000000121
40
0.281250000000134
40
0.281250000000134
40
0.296875000000136
40
0.296875000000136
40
0.312500000000137
40
0.312500000000137
40
0.37500000000012
40
0.37500000000012
40
0.406250000000105
40
0.406250000000105
40
0.437500000000089
40
0.437500000000089
40
0.500000000000073
40
0.500000000000073
40
0.562500000000057
40
0.562500000000057
40
0.625000000000041
40
0.625000000000041
40
0.656250000000041
40
0.656250000000041
40
0.687500000000041
40
0.687500000000041
40
0.750000000000033
40
0.750000000000033
40
0.875000000000016
40
0.875000000000016
40
1
40
1
40
1
40
1
41
1
10
27.3482076047796
20
3.6526802154682
30
0
41
1
10
27.3622759834633
20
3.60556008702923
30
0
41
1
10
27.3742106267258
20
3.55805495262359
30
0
41
1
10
27.3912424287159
20
3.46181093952083
30
0
41
1
10
27.3963626766961
20
3.41307622804314
30
0
41
1
10
27.3962275840684
20
3.3509786035525
30
0
41
1
10
27.3958679262592
20
3.33854335627913
30
0
41
1
10
27.3944484937887
20
3.31384465317274
30
0
41
1
10
27.3912696811304
20
3.27696591204022
30
0
41
1
10
27.3847934362039
20
3.24061905531519
30
0
41
1
10
27.3759328658073
20
3.20465679649374
30
0
41
1
10
27.3725815432808
20
3.19273354291053
30
0
41
1
10
27.3650497576161
20
3.16902077828254
30
0
41
1
10
27.3608569721796
20
3.1572087342937
30
0
41
1
10
27.3472191010326
20
3.12251761115434
30
0
41
1
10
27.3261135671852
20
3.07790047444848
30
0
41
1
10
27.2996003376037
20
3.03631449580806
30
0
41
1
10
27.2778528126518
20
3.00616905048574
30
0
41
1
10
27.2702690408699
20
2.99626561372898
30
0
41
1
10
27.2546420374638
20
2.97695456779678
30
0
41
1
10
27.2466060899619
20
2.96755138319301
30
0
41
1
10
27.2054169015961
20
2.92168056238424
30
0
41
1
10
27.169274912819
20
2.88860330602776
30
0
41
1
10
27.1116960978539
20
2.84280555826373
30
0
41
1
10
27.0919343014252
20
2.82818494436137
30
0
41
1
10
27.0514364065768
20
2.80004894655016
30
0
41
1
10
27.0308156824667
20
2.78661140570929
30
0
41
1
10
26.9682771930874
20
2.74807737826498
30
0
41
1
10
26.9255597314971
20
2.72467131689041
30
0
41
1
10
26.8385812751929
20
2.68129711498079
30
0
41
1
10
26.7943177448819
20
2.66133462199647
30
0
41
1
10
26.7045882163082
20
2.62408790030787
30
0
41
1
10
26.6591207257459
20
2.60680699541172
30
0
41
1
10
26.5901990772917
20
2.5824902175151
30
0
41
1
10
26.5670812357058
20
2.574646346268
30
0
41
1
10
26.5207885936266
20
2.55949184223758
30
0
41
1
10
26.4976049062956
20
2.55217736774028
30
0
41
1
10
26.4279544973153
20
2.53093259947141
30
0
41
1
10
26.3813889518331
20
2.51769728185459
30
0
41
1
10
26.2413742360821
20
2.48022821382477
30
0
41
1
10
26.1476110113234
20
2.4582030438242
30
0
41
1
10
25.9595033386924
20
2.41824014095445
30
0
41
1
10
25.8651560144976
20
2.40032263575284
30
0
41
1
10
25.7705915082315
20
2.38393245808203
30
0
0
SPLINE
5
CC
100
AcDbEntity
8
1
62
256
6
ByLayer
370
18
48
1
60
0
100
AcDbSpline
70
4
71
3
72
12
73
8
40
0
40
0
40
0
40
0
40
0.209748393072999
40
0.209748393072999
40
0.47316559538204
40
0.47316559538204
40
1
40
1
40
1
40
1
41
1
10
25.6090778675816
20
2.34992013327761
30
0
41
1
10
25.6200844208082
20
2.35249028559838
30
0
41
1
10
25.6311773827439
20
2.35506396548774
30
0
41
1
10
25.6564091902183
20
2.36082582024875
30
0
41
1
10
25.6706296526587
20
2.36400891776714
30
0
41
1
10
25.713584500901
20
2.37328581920519
30
0
41
1
10
25.7421094107426
20
2.3789958634049
30
0
41
1
10
25.7705915082316
20
2.38393245808206
30
0
0
SPLINE
5
CD
100
AcDbEntity
8
1
62
256
6
ByLayer
370
18
48
1
60
0
100
AcDbSpline
70
4
71
3
72
38
73
34
40
0
40
0
40
0
40
0
40
0.0505958522876186
40
0.101695765705936
40
0.153291276286559
40
0.205372979364861
40
0.257930722557769
40
0.281700869039745
40
0.305869962682194
40
0.330436580238544
40
0.355399181007652
40
0.380756104080254
40
0.40650556561544
40
0.4326456561601
40
0.459174338024169
40
0.486089442724664
40
0.513388668511285
40
0.541069577986746
40
0.569129595834532
40
0.5975660066674
40
0.626375956455849
40
0.65555647533342
40
0.685104458278666
40
0.715016647544652
40
0.745289630338132
40
0.775919836819699
40
0.806903538330064
40
0.838236845862336
40
0.869915708800254
40
0.901935913942002
40
0.934293084829551
40
0.966982681403096
40
1
40
1
40
1
40
1
41
1
10
8.06775759526886
20
-1.87249760460199
30
0
41
1
10
8.05819250653673
20
-1.88852046577441
30
0
41
1
10
8.03896703688497
20
-1.92072581585859
30
0
41
1
10
8.00961126654366
20
-1.96880512520858
30
0
41
1
10
7.97969465127611
20
-2.01699639516266
30
0
41
1
10
7.94918879129131
20
-2.06524086168227
30
0
41
1
10
7.92387125305845
20
-2.10456474691048
30
0
41
1
10
7.90391247757182
20
-2.13514660665692
30
0
41
1
10
7.88944514815409
20
-2.1571212366037
30
0
41
1
10
7.87467374139808
20
-2.17936604768852
30
0
41
1
10
7.85959787944043
20
-2.20187549149116
30
0
41
1
10
7.84421761751884
20
-2.22464397831152
30
0
41
1
10
7.82853288997219
20
-2.24766563376525
30
0
41
1
10
7.8125436620939
20
-2.27093436222179
30
0
41
1
10
7.79624988825103
20
-2.29444382656365
30
0
41
1
10
7.77965152313786
20
-2.31818745148777
30
0
41
1
10
7.76274851843132
20
-2.34215842091317
30
0
41
1
10
7.74554082348803
20
-2.36634967784684
30
0
41
1
10
7.72802838471065
20
-2.39075392352493
30
0
41
1
10
7.71021114534105
20
-2.41536362128352
30
0
41
1
10
7.69208903669951
20
-2.44017099650526
30
0
41
1
10
7.67366199339207
20
-2.46516810340506
30
0
41
1
10
7.65492994152291
20
-2.49034678008948
30
0
41
1
10
7.63589279985092
20
-2.51569861990569
30
0
41
1
10
7.61655048323999
20
-2.54121497081931
30
0
41
1
10
7.59690290656604
20
-2.56688694387111
30
0
41
1
10
7.57694996809792
20
-2.59270538275175
30
0
41
1
10
7.55669161251529
20
-2.61866099028722
30
0
41
1
10
7.53612759115339
20
-2.6447438604435
30
0
41
1
10
7.51525837105803
20
-2.67094526914121
30
0
41
1
10
7.49408168708774
20
-2.69725090134347
30
0
41
1
10
7.47260561164484
20
-2.72366654719755
30
0
41
1
10
7.45813932714253
20
-2.74121602099521
30
0
41
1
10
7.45087010862747
20
-2.75003452306737
30
0
0
SPLINE
5
CE
100
AcDbEntity
8
1
62
256
6
ByLayer
370
18
48
1
60
0
100
AcDbSpline
70
4
71
3
72
8
73
4
40
0
40
0
40
0
40
0
40
1
40
1
40
1
40
1
41
1
10
27.2136867779307
20
3.96235053539641
30
0
41
1
10
27.2807783388096
20
3.95814505318975
30
0
41
1
10
27.347865570209
20
3.95388234451738
30
0
41
1
10
27.4149478553681
20
3.94955425625085
30
0
0
SPLINE
5
CF
100
AcDbEntity
8
1
62
256
6
ByLayer
370
18
48
1
60
0
100
AcDbSpline
70
4
71
3
72
28
73
24
40
0
40
0
40
0
40
0
40
0.124999999999991
40
0.124999999999991
40
0.187499999999994
40
0.187499999999994
40
0.249999999999997
40
0.249999999999997
40
0.375000000000003
40
0.375000000000003
40
0.437499999999995
40
0.437499999999995
40
0.499999999999987
40
0.499999999999987
40
0.624999999999971
40
0.624999999999971
40
0.687499999999975
40
0.687499999999975
40
0.74999999999998
40
0.74999999999998
40
0.87499999999999
40
0.87499999999999
40
1
40
1
40
1
40
1
41
1
10
25.2126486644593
20
-0.120258047328804
30
0
41
1
10
25.2234948047795
20
-0.091297553041727
30
0
41
1
10
25.2373460172016
20
-0.0639836995323151
30
0
41
1
10
25.2616454035036
20
-0.0248828156762784
30
0
41
1
10
25.2703471908308
20
-0.0121697030166388
30
0
41
1
10
25.2889392822524
20
0.0126262819017597
30
0
41
1
10
25.298837245905
20
0.0247010543286876
30
0
41
1
10
25.3296838881223
20
0.0592119061449523
30
0
41
1
10
25.3519688813023
20
0.080225326724559
30
0
41
1
10
25.3879999258456
20
0.10876963244823
30
0
41
1
10
25.4005122519717
20
0.117824693306346
30
0
41
1
10
25.4260516518974
20
0.134639679458729
30
0
41
1
10
25.4390827063969
20
0.142412771417071
30
0
41
1
10
25.4789661290643
20
0.163876277846072
30
0
41
1
10
25.5066033202
20
0.175721900197601
30
0
41
1
10
25.5497625262319
20
0.189754024757292
30
0
41
1
10
25.5643635839039
20
0.193776685299127
30
0
41
1
10
25.5936315801012
20
0.200458566531637
30
0
41
1
10
25.6083537446737
20
0.203136240033331
30
0
41
1
10
25.652804503829
20
0.209251717370961
30
0
41
1
10
25.6828630682173
20
0.210777689016908
30
0
41
1
10
25.7436687948389
20
0.208910291076023
30
0
41
1
10
25.773927777488
20
0.205541230824508
30
0
41
1
10
25.8041092642721
20
0.199973747469983
30
0
0
SPLINE
5
D0
100
AcDbEntity
8
1
62
256
6
ByLayer
370
18
48
1
60
0
100
AcDbSpline
70
4
71
3
72
83
73
79
40
0
40
0
40
0
40
0
40
0.0082871456145386
40
0.0164475651412353
40
0.0244812413050424
40
0.032388158479979
40
0.0401683026347166
40
0.0478216612790825
40
0.0553482234106171
40
0.0627479794621895
40
0.0700209212500682
40
0.0771670419230662
40
0.0841863359127356
40
0.0910787988846067
40
0.0978444276909519
40
0.104483220324662
40
0.110995175875096
40
0.117380294485317
40
0.123638577311398
40
0.129770026483787
40
0.135774645070773
40
0.141652437044613
40
0.147403407250093
40
0.153027561376124
40
0.158524905930461
40
0.163895448218082
40
0.16913919632321
40
0.174256159095852
40
0.179246346142913
40
0.184109767824974
40
0.188846435258828
40
0.19345636032712
40
0.197939555695657
40
0.202296034839857
40
0.206525812081542
40
0.210628902637839
40
0.214605322684263
40
0.218455089434746
40
0.222178221241256
40
0.225774737717734
40
0.229244659892516
40
0.232588010396053
40
0.235804813691784
40
0.2388950963603
40
0.241858887450269
40
0.244696218913629
40
0.247407126148073
40
0.249991648678082
40
0.267039709545554
40
0.284024687896037
40
0.300948403709713
40
0.317812706101999
40
0.334619472911841
40
0.351370610237296
40
0.368068051919998
40
0.384713758980158
40
0.4013097190033
40
0.417857945480762
40
0.434360477105118
40
0.450819377022671
40
0.467236732044386
40
0.483614651817395
40
0.499955267958622
40
0.527603815090827
40
0.556033495640779
40
0.585253323327327
40
0.615271586960791
40
0.646095923441921
40
0.67773338318511
40
0.710190488716259
40
0.743473287141992
40
0.777587397130259
40
0.812538050985109
40
0.848330132342355
40
0.884968209960702
40
0.922456568033355
40
0.96079923340024
40
1
40
1
40
1
40
1
41
1
10
7.30021516368782
20
0.765706379898063
30
0
41
1
10
7.2976392535295
20
0.772876891129783
30
0
41
1
10
7.29252682373794
20
0.787108262951307
30
0
41
1
10
7.28492467313001
20
0.808415770996419
30
0
41
1
10
7.27744276583098
20
0.829477640473016
30
0
41
1
10
7.27007936209355
20
0.850296188093807
30
0
41
1
10
7.26283202532684
20
0.870862561755388
30
0
41
1
10
7.25569873570763
20
0.891171160638635
30
0
41
1
10
7.24867759011747
20
0.911215855888997
30
0
41
1
10
7.24176687195549
20
0.930990972516355
30
0
41
1
10
7.23496502425442
20
0.950491025884133
30
0
41
1
10
7.22827064812336
20
0.969710783574271
30
0
41
1
10
7.22168249463263
20
0.988645242051035
30
0
41
1
10
7.2151994584859
20
1.00728962542723
30
0
41
1
10
7.20882057130743
20
1.02563937833062
30
0
41
1
10
7.20254499512632
20
1.0436901602034
30
0
41
1
10
7.19637201591081
20
1.06143783914101
30
0
41
1
10
7.1903010372034
20
1.07887848578574
30
0
41
1
10
7.18433157384973
20
1.09600836715893
30
0
41
1
10
7.17846324583053
20
1.1128239404801
30
0
41
1
10
7.17269577220227
20
1.12932184697851
30
0
41
1
10
7.16702896514894
20
1.14549890571118
30
0
41
1
10
7.16146272415276
20
1.16135210739986
30
0
41
1
10
7.15599703028434
20
1.1768786082979
30
0
41
1
10
7.15063194061798
20
1.19207572409832
30
0
41
1
10
7.14536758277384
20
1.20694092389311
30
0
41
1
10
7.14020414959137
20
1.2214718241938
30
0
41
1
10
7.13514189393413
20
1.23566618302118
30
0
41
1
10
7.13018112363088
20
1.24952189407489
30
0
41
1
10
7.12532219655131
20
1.26303698098823
30
0
41
1
10
7.12056551582185
20
1.27620959167825
30
0
41
1
10
7.11591152517909
20
1.28903799279621
30
0
41
1
10
7.11136070446543
20
1.30152056428628
30
0
41
1
10
7.10691356526442
20
1.31365579405801
30
0
41
1
10
7.10257064668019
20
1.32544227277924
30
0
41
1
10
7.09833251125622
20
1.33687868879275
30
0
41
1
10
7.09419974104907
20
1.3479638231691
30
0
41
1
10
7.09017293380586
20
1.35869654487649
30
0
41
1
10
7.086252699429
20
1.36907580615642
30
0
41
1
10
7.08243965608338
20
1.37910063781604
30
0
41
1
10
7.07873442822901
20
1.38877014547759
30
0
41
1
10
7.0751376385131
20
1.39808350313345
30
0
41
1
10
7.07164992200993
20
1.40703995692058
30
0
41
1
10
7.06827186241438
20
1.41563879362818
30
0
41
1
10
7.06500420323673
20
1.42387943391987
30
0
41
1
10
7.0618470955562
20
1.43176108910342
30
0
41
1
10
7.05880271521423
20
1.43928394480915
30
0
41
1
10
7.05034040440435
20
1.45991993567463
30
0
41
1
10
7.03616093572461
20
1.49367124918768
30
0
41
1
10
7.01580560578861
20
1.54050304645062
30
0
41
1
10
6.99486530624768
20
1.58698787639736
30
0
41
1
10
6.97335182598547
20
1.63311135674877
30
0
41
1
10
6.95126621389718
20
1.67885618988666
30
0
41
1
10
6.92861394545199
20
1.72420861616769
30
0
41
1
10
6.90540072993954
20
1.76915654022261
30
0
41
1
10
6.88163348184187
20
1.81368987571983
30
0
41
1
10
6.8573199231065
20
1.85780030067556
30
0
41
1
10
6.832468546596
20
1.90148116475072
30
0
41
1
10
6.80708852268972
20
1.94472738070263
30
0
41
1
10
6.78118950027428
20
1.98753523686668
30
0
41
1
10
6.75478191126405
20
2.02990255124311
30
0
41
1
10
6.72787540013397
20
2.07182755638115
30
0
41
1
10
6.69414654104801
20
2.12291123294696
30
0
41
1
10
6.65259645879027
20
2.18347819579597
30
0
41
1
10
6.60217720814987
20
2.25378274153172
30
0
41
1
10
6.54896334628617
20
2.3250176949486
30
0
41
1
10
6.49297875965485
20
2.39718499981657
30
0
41
1
10
6.43425009549168
20
2.47029154125869
30
0
41
1
10
6.37280419540588
20
2.54434651507898
30
0
41
1
10
6.30866851482679
20
2.61936178025866
30
0
41
1
10
6.24187075733443
20
2.69535142417394
30
0
41
1
10
6.17243864158871
20
2.77233143603547
30
0
41
1
10
6.10040006245956
20
2.85031984891737
30
0
41
1
10
6.02578156786822
20
2.9293348927408
30
0
41
1
10
5.94861348492034
20
3.00940096383479
30
0
41
1
10
5.86890939399316
20
3.09052442342693
30
0
41
1
10
5.7867447620483
20
3.17278600872683
30
0
41
1
10
5.7308372083956
20
3.2276420212128
30
0
41
1
10
5.70257409305083
20
3.25537354775887
30
0
0
SPLINE
5
D1
100
AcDbEntity
8
1
62
256
6
ByLayer
370
18
48
1
60
0
100
AcDbSpline
70
4
71
5
72
45
73
39
40
0
40
0
40
0
40
0
40
0
40
0
40
0.0306202494712809
40
0.0656504220269698
40
0.0890038703974291
40
0.124034042953118
40
0.147387491323577
40
0.182417663879266
40
0.205771112249725
40
0.240801284805414
40
0.275831457361103
40
0.299184905731562
40
0.334215078287251
40
0.35756852665771
40
0.392598699213399
40
0.415952147583859
40
0.450982320139547
40
0.486012492695236
40
0.509365941065696
40
0.532719389436155
40
0.567749561991844
40
0.602779734547533
40
0.626133182917992
40
0.661163355473681
40
0.69619352802937
40
0.719546976399829
40
0.742900424770288
40
0.777930597325977
40
0.812960769881666
40
0.836314218252125
40
0.871344390807814
40
0.894697839178273
40
0.929728011733962
40
0.953081460104421
40
0.98811163266011
40
1
40
1
40
1
40
1
40
1
40
1
41
1
10
10.1218440016885
20
2.29361685284053
30
0
41
1
10
10.1944979131157
20
2.2885630139937
30
0
41
1
10
10.3502693398501
20
2.27647003578827
30
0
41
1
10
10.5614524434561
20
2.25643369260249
30
0
41
1
10
10.8557530623692
20
2.22169831981998
30
0
41
1
10
11.2054653581538
20
2.16935094173579
30
0
41
1
10
11.5656412578185
20
2.10496928011742
30
0
41
1
10
11.8981113190474
20
2.03613506899364
30
0
41
1
10
12.2582872187121
20
1.95174540571776
30
0
41
1
10
12.6184631183768
20
1.85790255215508
30
0
41
1
10
12.9786390180414
20
1.75417263854894
30
0
41
1
10
13.3388149177061
20
1.64196428635759
30
0
41
1
10
13.6989908173708
20
1.52104589287083
30
0
41
1
10
14.0591667170355
20
1.39280838052153
30
0
41
1
10
14.3916367782644
20
1.26819267844374
30
0
41
1
10
14.7518126779291
20
1.12709837497769
30
0
41
1
10
15.1119885775937
20
0.980522171001127
30
0
41
1
10
15.4721644772584
20
0.828714724876704
30
0
41
1
10
15.8046345384873
20
0.684887459242418
30
0
41
1
10
16.164810438152
20
0.525843233131042
30
0
41
1
10
16.5249863378166
20
0.364258552411485
30
0
41
1
10
16.8574563990456
20
0.213404316963818
30
0
41
1
10
17.2176322987102
20
0.0489474488006465
30
0
41
1
10
17.6055140368107
20
-0.128415846564224
30
0
41
1
10
17.9656899364753
20
-0.292450362620173
30
0
41
1
10
18.2981599977042
20
-0.442562070242246
30
0
41
1
10
18.6583358973689
20
-0.602964468133564
30
0
41
1
10
19.0185117970336
20
-0.760453823216466
30
0
41
1
10
19.3509818582625
20
-0.902507971337258
30
0
41
1
10
19.7111577579272
20
-1.05203787554191
30
0
41
1
10
20.0713336575919
20
-1.19595681504762
30
0
41
1
10
20.4315095572565
20
-1.33406181766759
30
0
41
1
10
20.7639796184855
20
-1.45562363957552
30
0
41
1
10
21.1241555181501
20
-1.58025010444916
30
0
41
1
10
21.4294219152651
20
-1.67943046448525
30
0
41
1
10
21.6792766355087
20
-1.75548667476264
30
0
41
1
10
21.846013840445
20
-1.80384810024171
30
0
41
1
10
21.9573393685098
20
-1.8350390525292
30
0
41
1
10
21.9855473812674
20
-1.84287128088207
30
0
0
SPLINE
5
D2
100
AcDbEntity
8
1
62
256
6
ByLayer
370
18
48
1
60
0
100
AcDbSpline
70
4
71
3
72
12
73
8
40
0
40
0
40
0
40
0
40
0.249999999999999
40
0.249999999999999
40
0.499999999999997
40
0.499999999999997
40
1
40
1
40
1
40
1
41
1
10
27.0186505333581
20
1.66574542385533
30
0
41
1
10
27.0313793397109
20
1.63903603796066
30
0
41
1
10
27.0440399733501
20
1.61257224921971
30
0
41
1
10
27.0690850242285
20
1.56063586423215
30
0
41
1
10
27.0814966762252
20
1.53506493876725
30
0
41
1
10
27.1185521881975
20
1.45899512240072
30
0
41
1
10
27.1430455483272
20
1.40903548260607
30
0
41
1
10
27.1675354607277
20
1.35908819625794
30
0
0
SPLINE
5
D3
100
AcDbEntity
8
1
62
256
6
ByLayer
370
18
48
1
60
0
100
AcDbSpline
70
4
71
3
72
16
73
12
40
0
40
0
40
0
40
0
40
0.276656164112534
40
0.276656164112534
40
0.457492123084404
40
0.457492123084404
40
0.547910102570339
40
0.547910102570339
40
0.638328082056274
40
0.638328082056274
40
1
40
1
40
1
40
1
41
1
10
25.8692114811838
20
2.21378281220424
30
0
41
1
10
25.9709855324905
20
2.18667011083554
30
0
41
1
10
26.0742565408683
20
2.15285800587716
30
0
41
1
10
26.2474953527016
20
2.08591365856543
30
0
41
1
10
26.3166046637231
20
2.05662346846893
30
0
41
1
10
26.4212243075751
20
2.0084111948986
30
0
41
1
10
26.456294278442
20
1.99160652627106
30
0
41
1
10
26.526408399736
20
1.95673615886324
30
0
41
1
10
26.5614852866167
20
1.93865674050085
30
0
41
1
10
26.7369671732323
20
1.84509303145813
30
0
41
1
10
26.8776656079181
20
1.76007385033324
30
0
41
1
10
27.0186505333578
20
1.6657454238553
30
0
0
SPLINE
5
D4
100
AcDbEntity
8
1
62
256
6
ByLayer
370
18
48
1
60
0
100
AcDbSpline
70
4
71
3
72
97
73
93
40
0
40
0
40
0
40
0
40
0.0087212378107464
40
0.0174539206754593
40
0.0261985634214517
40
0.0349556785165088
40
0.043725775997001
40
0.0525093633975897
40
0.0613069456831462
40
0.0701190251827247
40
0.0789461015254549
40
0.0877886715786267
40
0.0966472293879583
40
0.105522266119873
40
0.114414270005994
40
0.123323726289827
40
0.132251117175528
40
0.141196921778996
40
0.150161616081094
40
0.159145672882945
40
0.168149561763581
40
0.177173749039688
40
0.186218697727575
40
0.19528486750713
40
0.204372714688222
40
0.213482692178927
40
0.222615249456082
40
0.231770832537813
40
0.240949883958101
40
0.250152842743551
40
0.259380144392004
40
0.268632220853129
40
0.277909500511202
40
0.287212408169412
40
0.296541365036419
40
0.305896788714596
40
0.315279093189988
40
0.324688688824216
40
0.334125982348134
40
0.343591376856904
40
0.353085271807071
40
0.362608063014981
40
0.372160142656941
40
0.381741899270851
40
0.391353717759188
40
0.400995979393665
40
0.410669061821123
40
0.420373339070738
40
0.430109181562765
40
0.439876956118167
40
0.449677025969932
40
0.459509750775017
40
0.469375486627978
40
0.479274586075201
40
0.489207398130598
40
0.499174268291844
40
0.509175538558024
40
0.519211547447924
40
0.529282630019182
40
0.539389117888407
40
0.550565262020149
40
0.561948604666447
40
0.573539672411308
40
0.585338963679155
40
0.597346950568766
40
0.609564080539114
40
0.621990777960845
40
0.634627445544974
40
0.647474465660111
40
0.660532201547629
40
0.673800998443925
40
0.687281184617548
40
0.700973072328519
40
0.714876958716405
40
0.728993126623009
40
0.743321845355204
40
0.757863371392593
40
0.772617949044603
40
0.787585811061111
40
0.802767179200077
40
0.818162264755766
40
0.833771269050505
40
0.849594383892852
40
0.865631792004791
40
0.881883667420108
40
0.898350175856432
40
0.915031475062649
40
0.931927715143692
40
0.949039038864297
40
0.966365581933278
40
0.983907473269922
40
1
40
1
40
1
40
1
41
1
10
4.24464116973658
20
-3.93013232370012
30
0
41
1
10
4.25201280350447
20
-3.92648671993069
30
0
41
1
10
4.266765744982
20
-3.91919072819343
30
0
41
1
10
4.2889228419688
20
-3.90804709495251
30
0
41
1
10
4.3111197538864
20
-3.89675006411784
30
0
41
1
10
4.33335883746472
20
-3.88528681462339
30
0
41
1
10
4.35564130096512
20
-3.87366229747278
30
0
41
1
10
4.37796866663288
20
-3.86187673640501
30
0
41
1
10
4.40034237745797
20
-3.84993167015983
30
0
41
1
10
4.42276390221846
20
-3.83782833071086
30
0
41
1
10
4.44523470670046
20
-3.82556807963277
30
0
41
1
10
4.46775626084735
20
-3.81315229172537
30
0
41
1
10
4.49033003624658
20
-3.80058238710163
30
0
41
1
10
4.51295750619997
20
-3.78785982339815
30
0
41
1
10
4.53564014508743
20
-3.77498609870031
30
0
41
1
10
4.55837942790865
20
-3.761962751591
30
0
41
1
10
4.58117682976402
20
-3.74879136197251
30
0
41
1
10
4.60403382533983
20
-3.73547355168276
30
0
41
1
10
4.62695188837929
20
-3.72201098516672
30
0
41
1
10
4.64993249114465
20
-3.70840537013342
30
0
41
1
10
4.67297710386893
20
-3.69465845821688
30
0
41
1
10
4.69608719419719
20
-3.68077204563517
30
0
41
1
10
4.71926422661809
20
-3.66674797384982
30
0
41
1
10
4.74250966188421
20
-3.65258813022277
30
0
41
1
10
4.76582495642248
20
-3.63829444867324
30
0
41
1
10
4.78921156173405
20
-3.62386891033216
30
0
41
1
10
4.81267092378326
20
-3.60931354419461
30
0
41
1
10
4.83620448237625
20
-3.59463042777014
30
0
41
1
10
4.85981367052864
20
-3.57982168772972
30
0
41
1
10
4.8834999138227
20
-3.56488950055046
30
0
41
1
10
4.90726462975343
20
-3.5498360931559
30
0
41
1
10
4.93110922706398
20
-3.53466374355276
30
0
41
1
10
4.95503510507032
20
-3.51937478146414
30
0
41
1
10
4.97904365297427
20
-3.50397158895629
30
0
41
1
10
5.00313624916683
20
-3.48845660106233
30
0
41
1
10
5.02731426051935
20
-3.47283230639926
30
0
41
1
10
5.0515790416641
20
-3.45710124777901
30
0
41
1
10
5.07593193426422
20
-3.44126602281372
30
0
41
1
10
5.10037426627221
20
-3.42532928451433
30
0
41
1
10
5.12490735117737
20
-3.40929374188079
30
0
41
1
10
5.14953248724265
20
-3.39316216048624
30
0
41
1
10
5.17425095672985
20
-3.37693736305153
30
0
41
1
10
5.1990640251145
20
-3.36062223001221
30
0
41
1
10
5.22397294028943
20
-3.34421970007594
30
0
41
1
10
5.24897893175702
20
-3.32773277076993
30
0
41
1
10
5.27408320981144
20
-3.31116449897937
30
0
41
1
10
5.29928696470895
20
-3.2945180014741
30
0
41
1
10
5.32459136582852
20
-3.27779645542492
30
0
41
1
10
5.34999756081976
20
-3.26100309890705
30
0
41
1
10
5.37550667474571
20
-3.24414123139783
30
0
41
1
10
5.40111980919428
20
-3.22721421423225
30
0
41
1
10
5.42683804145773
20
-3.21022547116326
30
0
41
1
10
5.45266242340563
20
-3.19317848845753
30
0
41
1
10
5.47859398145778
20
-3.17607681667422
30
0
41
1
10
5.50463371238317
20
-3.15892406605678
30
0
41
1
10
5.53078259470615
20
-3.14172392581563
30
0
41
1
10
5.55704154151636
20
-3.12448009370962
30
0
41
1
10
5.58341157305131
20
-3.10719654206235
30
0
41
1
10
5.60989316474843
20
-3.08987652155
30
0
41
1
10
5.63739561162836
20
-3.07193464756855
30
0
41
1
10
5.66606606375407
20
-3.05327163547995
30
0
41
1
10
5.69605550042027
20
-3.0337963456802
30
0
41
1
10
5.72661418811663
20
-3.01401798518734
30
0
41
1
10
5.75774758642214
20
-2.99394990455528
30
0
41
1
10
5.78946170756743
20
-2.97360686648551
30
0
41
1
10
5.82176232481959
20
-2.95300390156802
30
0
41
1
10
5.85465517324369
20
-2.9321566361742
30
0
41
1
10
5.888145876854
20
-2.91108121504408
30
0
41
1
10
5.9222399505137
20
-2.88979433515297
30
0
41
1
10
5.95694278076127
20
-2.86831324872816
30
0
41
1
10
5.99225961191004
20
-2.84665577445921
30
0
41
1
10
6.02819553017829
20
-2.82484030613102
30
0
41
1
10
6.06475544784089
20
-2.80288582159912
30
0
41
1
10
6.1019440868572
20
-2.78081189126544
30
0
41
1
10
6.13976596212683
20
-2.75863868624177
30
0
41
1
10
6.17822536433582
20
-2.73638698610697
30
0
41
1
10
6.21732634240749
20
-2.71407818623868
30
0
41
1
10
6.25707268555928
20
-2.69173430467717
30
0
41
1
10
6.29746790497373
20
-2.66937798848824
30
0
41
1
10
6.33851521508686
20
-2.64703251958198
30
0
41
1
10
6.38021751450506
20
-2.62472181995227
30
0
41
1
10
6.42257736655625
20
-2.60247045629333
30
0
41
1
10
6.46559697948737
20
-2.58030364395378
30
0
41
1
10
6.50927818631794
20
-2.55824725018553
30
0
41
1
10
6.55362242436226
20
-2.5363277966425
30
0
41
1
10
6.59863071443456
20
-2.51457246109158
30
0
41
1
10
6.64430363975123
20
-2.4930090782693
30
0
41
1
10
6.69064132454739
20
-2.47166613991666
30
0
41
1
10
6.73764341242239
20
-2.45057279365128
30
0
41
1
10
6.78530904444952
20
-2.42975884174865
30
0
41
1
10
6.83210797058695
20
-2.40990339001271
30
0
41
1
10
6.86303550678448
20
-2.39715534688048
30
0
41
1
10
6.87784144791166
20
-2.39113886555492
30
0
0
SPLINE
5
D5
100
AcDbEntity
8
1
62
256
6
ByLayer
370
18
48
1
60
0
100
AcDbSpline
70
4
71
3
72
8
73
4
40
0
40
0
40
0
40
0
40
1
40
1
40
1
40
1
41
1
10
7.76055465934306
20
-3.37877284218706
30
0
41
1
10
7.8612623473777
20
-3.30372676476563
30
0
41
1
10
7.96375596224576
20
-3.23109604485285
30
0
41
1
10
8.06786182704201
20
-3.16065245047435
30
0
0
SPLINE
5
D6
100
AcDbEntity
8
1
62
256
6
ByLayer
370
18
48
1
60
0
100
AcDbSpline
70
4
71
3
72
10
73
6
40
0
40
0
40
0
40
0
40
0.5
40
0.5
40
1
40
1
40
1
40
1
41
1
10
27.2130691151648
20
3.96242081621671
30
0
41
1
10
27.2400801965332
20
3.91296930030907
30
0
41
1
10
27.2654259614733
20
3.86261209373723
30
0
41
1
10
27.3112381336847
20
3.75943115025748
30
0
41
1
10
27.3316399380054
20
3.70682964644416
30
0
41
1
10
27.348207638498
20
3.65268023298
30
0
0
SPLINE
5
D7
100
AcDbEntity
8
1
62
256
6
ByLayer
370
18
48
1
60
0
100
AcDbSpline
70
4
71
3
72
15
73
11
40
0
40
0
40
0
40
0
40
0.190023738101503
40
0.190023738101503
40
0.380047476203006
40
0.380047476203006
40
0.570071214304509
40
0.760094952406013
40
0.950118690507516
40
1
40
1
40
1
40
1
41
1
10
27.2132889944599
20
3.96243051051744
30
0
41
1
10
27.0178380271288
20
3.95381653469079
30
0
41
1
10
26.8223870597976
20
3.93639368563572
30
0
41
1
10
26.4314851251353
20
3.88416190665382
30
0
41
1
10
26.2360341578041
20
3.84935313207512
30
0
41
1
10
25.8451322231418
20
3.76281266740267
30
0
41
1
10
25.4542302884794
20
3.65934979950285
30
0
41
1
10
24.867877386486
20
3.45545263608108
30
0
41
1
10
24.4256694924237
20
3.26699682992569
30
0
41
1
10
24.1789125656926
20
3.15050285885391
30
0
41
1
10
24.1276066062927
20
3.12580308589824
30
0
0
SPLINE
5
D8
100
AcDbEntity
8
1
62
256
6
ByLayer
370
18
48
1
60
0
100
AcDbSpline
70
4
71
3
72
19
73
15
40
0
40
0
40
0
40
0
40
0.0529556863837244
40
0.0529556863837244
40
0.21079640531977
40
0.21079640531977
40
0.368637124255816
40
0.368637124255816
40
0.526477843191862
40
0.526477843191862
40
0.684318562127908
40
0.684318562127908
40
0.842159281063954
40
1
40
1
40
1
40
1
41
1
10
12.1648354062745
20
-3.93892012212936
30
0
41
1
10
12.0992614517262
20
-3.94519231142311
30
0
41
1
10
12.0336874971779
20
-3.95048030790764
30
0
41
1
10
11.7726625752984
20
-3.96759051720787
30
0
41
1
10
11.5772116079673
20
-3.97161042584602
30
0
41
1
10
11.186309673305
20
-3.96201293559497
30
0
41
1
10
10.9908587059739
20
-3.94839556594866
30
0
41
1
10
10.5999567713116
20
-3.90370464375147
30
0
41
1
10
10.4045058039804
20
-3.87263122435854
30
0
41
1
10
10.0136038693182
20
-3.79344165052311
30
0
41
1
10
9.81815290198705
20
-3.74532573200253
30
0
41
1
10
9.42725096732477
20
-3.63269143296247
30
0
41
1
10
9.03634903266249
20
-3.50365533870797
30
0
41
1
10
8.6454470980002
20
-3.34353189929433
30
0
41
1
10
8.44999613066909
20
-3.25623117455942
30
0
0
SPLINE
5
D9
100
AcDbEntity
8
1
62
256
6
ByLayer
370
18
48
1
60
0
100
AcDbSpline
70
4
71
5
72
15
73
9
40
0
40
0
40
0
40
0
40
0
40
0
40
0.057152844675235
40
0.473109789276466
40
0.750414419010619
40
1
40
1
40
1
40
1
40
1
40
1
41
1
10
8.44999995076884
20
-3.25620700195481
30
0
41
1
10
8.43857953213225
20
-3.25110593178223
30
0
41
1
10
8.34404159818845
20
-3.20870910008651
30
0
41
1
10
8.19409198737313
20
-3.13923190950646
30
0
41
1
10
7.99426958655491
20
-3.04203580258417
30
0
41
1
10
7.79444718573669
20
-2.93892704446688
30
0
41
1
10
7.60604520355506
20
-2.83673619481306
30
0
41
1
10
7.50076073668066
20
-2.77812716722792
30
0
41
1
10
7.45088794667774
20
-2.75003297771886
30
0
0
SPLINE
5
DA
100
AcDbEntity
8
1
62
256
6
ByLayer
370
18
48
1
60
0
100
AcDbSpline
70
4
71
5
72
21
73
15
40
0
40
0
40
0
40
0
40
0
40
0
40
0.0355132674066987
40
0.130756030087106
40
0.273620174107716
40
0.416484318128326
40
0.511727080808733
40
0.60696984348914
40
0.74983398750975
40
0.89269813153036
40
0.987940894210767
40
1
40
1
40
1
40
1
40
1
40
1
41
1
10
24.4392371804271
20
2.97477806758627
30
0
41
1
10
24.4598985896808
20
2.98342891715191
30
0
41
1
10
24.535971675806
20
3.01505391485142
30
0
41
1
10
24.6951622772384
20
3.07947883268074
30
0
41
1
10
24.937470393978
20
3.17185837688615
30
0
41
1
10
25.2351901875891
20
3.2743725327521
30
0
41
1
10
25.567660248818
20
3.37424365276812
30
0
41
1
10
25.9278361484827
20
3.46608307358616
30
0
41
1
10
26.2880120481474
20
3.54117714884688
30
0
41
1
10
26.6204821093763
20
3.59473016544033
30
0
41
1
10
26.9045564102669
20
3.62678441496303
30
0
41
1
10
27.133219034286
20
3.64338151807115
30
0
41
1
10
27.2787641429979
20
3.65020178825597
30
0
41
1
10
27.3411917364025
20
3.65243764912438
30
0
41
1
10
27.3482076529357
20
3.65268021635205
30
0
0
SPLINE
5
DB
100
AcDbEntity
8
1
62
256
6
ByLayer
370
18
48
1
60
0
100
AcDbSpline
70
4
71
3
72
22
73
18
40
0
40
0
40
0
40
0
40
0.132965449932125
40
0.132965449932125
40
0.26593089986425
40
0.26593089986425
40
0.398896349796375
40
0.398896349796375
40
0.531861799728501
40
0.531861799728501
40
0.664827249660626
40
0.664827249660626
40
0.797792699592751
40
0.797792699592751
40
0.930758149524876
40
0.930758149524876
40
1
40
1
40
1
40
1
41
1
10
1.91211772658099
20
-2.27460860856928
30
0
41
1
10
2.09550095081607
20
-2.2655187016002
30
0
41
1
10
2.28011145512559
20
-2.25536275503146
30
0
41
1
10
2.65211821904657
20
-2.23324294985215
30
0
41
1
10
2.83951530592165
20
-2.2212775713374
30
0
41
1
10
3.21742398286528
20
-2.19613060305673
30
0
41
1
10
3.40793665656943
20
-2.18294818177634
30
0
41
1
10
3.79237290562989
20
-2.15626683720925
30
0
41
1
10
3.98629773810151
20
-2.14276815430051
30
0
41
1
10
4.37778685495036
20
-2.11667230183056
30
0
41
1
10
4.57535242873775
20
-2.10407670875881
30
0
41
1
10
4.97424493348245
20
-2.08129696638753
30
0
41
1
10
5.17557301065273
20
-2.07111579063803
30
0
41
1
10
5.58196854477208
20
-2.05489849708818
30
0
41
1
10
5.78703682509058
20
-2.04886658952671
30
0
41
1
10
6.10158877829909
20
-2.04425107989201
30
0
41
1
10
6.20978133734482
20
-2.04348467476953
30
0
41
1
10
6.31842696316832
20
-2.04366032498962
30
0
0
SPLINE
5
DC
100
AcDbEntity
8
1
62
256
6
ByLayer
370
18
48
1
60
0
100
AcDbSpline
70
4
71
3
72
18
73
14
40
0
40
0
40
0
40
0
40
0.250000000000002
40
0.250000000000002
40
0.500000000000004
40
0.500000000000004
40
0.562500000000003
40
0.562500000000003
40
0.625000000000003
40
0.625000000000003
40
0.750000000000002
40
0.750000000000002
40
1
40
1
40
1
40
1
41
1
10
7.76055465934161
20
-3.37877284218371
30
0
41
1
10
7.46849654758145
20
-3.49847815771534
30
0
41
1
10
7.17774734998736
20
-3.60091183768748
30
0
41
1
10
6.59561528233769
20
-3.7697051472681
30
0
41
1
10
6.30424132283318
20
-3.83606964734145
30
0
41
1
10
5.93757423568766
20
-3.89517640702954
30
0
41
1
10
5.86411783544375
20
-3.90580372758842
30
0
41
1
10
5.71690485692415
20
-3.92463086085328
30
0
41
1
10
5.64307057539622
20
-3.93283647918236
30
0
41
1
10
5.42190544980943
20
-3.95367535017545
30
0
41
1
10
5.27475600771552
20
-3.96256299857328
30
0
41
1
10
4.83355489048515
20
-3.97426327992312
30
0
41
1
10
4.5397539825891
20
-3.9621325811338
30
0
41
1
10
4.24459867572693
20
-3.92997780487562
30
0
0
SPLINE
5
DD
100
AcDbEntity
8
1
62
256
6
ByLayer
370
18
48
1
60
0
100
AcDbSpline
70
4
71
3
72
47
73
43
40
0
40
0
40
0
40
0
40
0.0312499999999975
40
0.0312499999999975
40
0.062499999999995
40
0.124999999999994
40
0.124999999999994
40
0.249999999999991
40
0.249999999999991
40
0.281249999999991
40
0.281249999999991
40
0.31249999999999
40
0.31249999999999
40
0.374999999999993
40
0.374999999999993
40
0.499999999999998
40
0.499999999999998
40
0.562500000000002
40
0.562500000000002
40
0.625000000000007
40
0.625000000000007
40
0.656250000000007
40
0.656250000000007
40
0.687500000000008
40
0.687500000000008
40
0.750000000000006
40
0.750000000000006
40
0.781250000000005
40
0.781250000000005
40
0.812500000000004
40
0.812500000000004
40
0.875000000000002
40
0.875000000000002
40
0.906250000000002
40
0.906250000000002
40
0.937500000000001
40
0.937500000000001
40
0.96875
40
0.96875
40
0.984375
40
0.984375
40
1
40
1
40
1
40
1
41
1
10
4.2447916160437
20
-3.93005820910719
30
0
41
1
10
4.21050081089533
20
-3.92631386527816
30
0
41
1
10
4.17624981712405
20
-3.92227492763277
30
0
41
1
10
4.10800468640363
20
-3.91361229596833
30
0
41
1
10
4.00598954599707
20
-3.89973828137755
30
0
41
1
10
3.9050288620393
20
-3.88316367136142
30
0
41
1
10
3.70453165632594
20
-3.84622712537478
30
0
41
1
10
3.57275115180352
20
-3.81657130538093
30
0
41
1
10
3.4106233161277
20
-3.77238343718793
30
0
41
1
10
3.37832878084512
20
-3.76318852708451
30
0
41
1
10
3.31401297295386
20
-3.74405660350348
30
0
41
1
10
3.28197101847553
20
-3.73411277100843
30
0
41
1
10
3.18644913988686
20
-3.70317844607334
30
0
41
1
10
3.12359156452212
20
-3.68109626163465
30
0
41
1
10
2.93772630296419
20
-3.61015867842738
30
0
41
1
10
2.81737303712313
20
-3.55666670897142
30
0
41
1
10
2.64385129219446
20
-3.46514556975421
30
0
41
1
10
2.58718957588414
20
-3.43274695978178
30
0
41
1
10
2.47671075034086
20
-3.36362104278882
30
0
41
1
10
2.42288926203591
20
-3.32689827394819
30
0
41
1
10
2.34483791507264
20
-3.26796893807858
30
0
41
1
10
2.31924579806375
20
-3.24766220517955
30
0
41
1
10
2.26919617109027
20
-3.2057118564708
30
0
41
1
10
2.24481422791561
20
-3.18413345515521
30
0
41
1
10
2.17382919051656
20
-3.1174338985916
30
0
41
1
10
2.12935834345978
20
-3.07036682980885
30
0
41
1
10
2.06825947102411
20
-2.99498700429123
30
0
41
1
10
2.04880922593006
20
-2.96902355578371
30
0
41
1
10
2.01222446393746
20
-2.91543738662455
30
0
41
1
10
1.99519381545446
20
-2.88797127573648
30
0
41
1
10
1.948387062981
20
-2.80338132361962
30
0
41
1
10
1.92282555874578
20
-2.74408972096305
30
0
41
1
10
1.89591016677701
20
-2.64978620248735
30
0
41
1
10
1.88885599417003
20
-2.61744265414606
30
0
41
1
10
1.87935947031173
20
-2.5507344690129
30
0
41
1
10
1.87701463263298
20
-2.51700863111702
30
0
41
1
10
1.87754054125841
20
-2.4488430370302
30
0
41
1
10
1.88041038201132
20
-2.41440323048548
30
0
41
1
10
1.88900594213069
20
-2.3622316689318
30
0
41
1
10
1.89258711082343
20
-2.34475585968147
30
0
41
1
10
1.90125661367048
20
-2.30963793061267
30
0
41
1
10
1.90633162524529
20
-2.29206488699751
30
0
41
1
10
1.91211772658099
20
-2.27460860856937
30
0
0
SPLINE
5
DE
100
AcDbEntity
8
1
62
256
6
ByLayer
370
18
48
1
60
0
100
AcDbSpline
70
4
71
3
72
38
73
34
40
0
40
0
40
0
40
0
40
0.0625000000000024
40
0.0625000000000024
40
0.0937500000000034
40
0.0937500000000034
40
0.109375000000004
40
0.109375000000004
40
0.125000000000004
40
0.125000000000004
40
0.250000000000005
40
0.250000000000005
40
0.312500000000004
40
0.312500000000004
40
0.375000000000003
40
0.375000000000003
40
0.437500000000002
40
0.437500000000002
40
0.500000000000001
40
0.500000000000001
40
0.53125
40
0.53125
40
0.5625
40
0.5625
40
0.624999999999999
40
0.624999999999999
40
0.749999999999997
40
0.749999999999997
40
0.812499999999996
40
0.812499999999996
40
0.874999999999994
40
0.874999999999994
40
1
40
1
40
1
40
1
41
1
10
1.91211772658099
20
-2.27460860856934
30
0
41
1
10
1.89955984718199
20
-2.23075297754278
30
0
41
1
10
1.89003936054055
20
-2.1858848530978
30
0
41
1
10
1.88117416548897
20
-2.11688955095249
30
0
41
1
10
1.87912445895603
20
-2.09360836597841
30
0
41
1
10
1.87754706833576
20
-2.05823429017937
30
0
41
1
10
1.87727136296277
20
-2.04634012847359
30
0
41
1
10
1.87724503230794
20
-2.02255085676475
30
0
41
1
10
1.87749295919883
20
-2.01066122706183
30
0
41
1
10
1.88210188302193
20
-1.9037103692979
30
0
41
1
10
1.90300790151807
20
-1.80902507405551
30
0
41
1
10
1.96289116704205
20
-1.6686226145774
30
0
41
1
10
1.98700451353716
20
-1.62355527525241
30
0
41
1
10
2.0426466808411
20
-1.53679923414487
30
0
41
1
10
2.07418803292714
20
-1.49508712530334
30
0
41
1
10
2.14410128615412
20
-1.41483423318587
30
0
41
1
10
2.18166757759843
20
-1.37720023391094
30
0
41
1
10
2.26102898570537
20
-1.30618252431648
30
0
41
1
10
2.30284095664317
20
-1.27278921867097
30
0
41
1
10
2.36828332306175
20
-1.22545184841957
30
0
41
1
10
2.39055330537312
20
-1.21013309284552
30
0
41
1
10
2.43594415968059
20
-1.18036225798241
30
0
41
1
10
2.45911916406587
20
-1.16587917904053
30
0
41
1
10
2.52931781475203
20
-1.12396739093859
30
0
41
1
10
2.57705548950153
20
-1.09802418442311
30
0
41
1
10
2.72261816321853
20
-1.025247797048
30
0
41
1
10
2.82276823980382
20
-0.983418294235435
30
0
41
1
10
2.97653077463988
20
-0.928430438411539
30
0
41
1
10
3.02838220374312
20
-0.911409357570761
30
0
41
1
10
3.13316045177996
20
-0.879742199165833
30
0
41
1
10
3.18619504295435
20
-0.865072782017648
30
0
41
1
10
3.34548095545088
20
-0.824661337120943
30
0
41
1
10
3.4522005303337
20
-0.802381358727956
30
0
41
1
10
3.55935153341309
20
-0.783936944568467
30
0
0
SPLINE
5
DF
100
AcDbEntity
8
1
62
256
6
ByLayer
370
18
48
1
60
0
100
AcDbSpline
70
4
71
3
72
28
73
24
40
0
40
0
40
0
40
0
40
0.0625000000000039
40
0.0625000000000039
40
0.125000000000008
40
0.125000000000008
40
0.187500000000012
40
0.187500000000012
40
0.218750000000014
40
0.218750000000014
40
0.250000000000016
40
0.250000000000016
40
0.375
40
0.375
40
0.499999999999985
40
0.499999999999985
40
0.562499999999983
40
0.562499999999983
40
0.624999999999981
40
0.624999999999981
40
0.749999999999987
40
0.749999999999987
40
1
40
1
40
1
40
1
41
1
10
3.55935153341684
20
-0.783936944567614
30
0
41
1
10
3.59576589495862
20
-0.77766876651674
30
0
41
1
10
3.63230670605199
20
-0.773178120757365
30
0
41
1
10
3.70559794699801
20
-0.767149291917207
30
0
41
1
10
3.7423486955459
20
-0.765615504980445
30
0
41
1
10
3.81603351177506
20
-0.765131680120732
30
0
41
1
10
3.85296773443972
20
-0.76618378362042
30
0
41
1
10
3.9084937218627
20
-0.769517940269708
30
0
41
1
10
3.92701472843817
20
-0.770923389747367
30
0
41
1
10
3.96386191275431
20
-0.774271882454855
30
0
41
1
10
3.98221834526504
20
-0.776216547416396
30
0
41
1
10
4.07368409892135
20
-0.787212552243489
30
0
41
1
10
4.14585312610586
20
-0.800046652305383
30
0
41
1
10
4.2885069400817
20
-0.832442512198838
30
0
41
1
10
4.35898802677093
20
-0.85201905257091
30
0
41
1
10
4.46356785009581
20
-0.885894477195791
30
0
41
1
10
4.49823663669838
20
-0.897941385048057
30
0
41
1
10
4.56720502864349
20
-0.923483579189167
30
0
41
1
10
4.60156238459936
20
-0.937005389399445
30
0
41
1
10
4.70328122312989
20
-0.979319232510846
30
0
41
1
10
4.76951360997722
20
-1.009924847592
30
0
41
1
10
4.963920290668
20
-1.10806843412101
30
0
41
1
10
5.08782442472068
20
-1.18190347834118
30
0
41
1
10
5.20675425369112
20
-1.2625703082297
30
0
0
SPLINE
5
E0
100
AcDbEntity
8
1
62
256
6
ByLayer
370
18
48
1
60
0
100
AcDbSpline
70
4
71
3
72
10
73
6
40
0
40
0
40
0
40
0
40
0.5
40
0.5
40
1
40
1
40
1
40
1
41
1
10
5.20672648674724
20
-1.26255147554588
30
0
41
1
10
5.58075339753293
20
-1.53959221840466
30
0
41
1
10
5.95478030831859
20
-1.80631310216128
30
0
41
1
10
6.70283412988991
20
-2.3061955084882
30
0
41
1
10
7.07686104067557
20
-2.53933724186194
30
0
41
1
10
7.45088795146123
20
-2.75003295104619
30
0
0
SPLINE
5
E1
100
AcDbEntity
8
1
62
256
6
ByLayer
370
18
48
1
60
0
100
AcDbSpline
70
4
71
3
72
28
73
24
40
0
40
0
40
0
40
0
40
0.0624999999999752
40
0.0624999999999752
40
0.12499999999995
40
0.12499999999995
40
0.187499999999926
40
0.187499999999926
40
0.218749999999919
40
0.218749999999919
40
0.249999999999913
40
0.249999999999913
40
0.374999999999922
40
0.374999999999922
40
0.499999999999931
40
0.499999999999931
40
0.562499999999935
40
0.562499999999935
40
0.62499999999994
40
0.62499999999994
40
0.74999999999996
40
0.74999999999996
40
1
40
1
40
1
40
1
41
1
10
3.5593515334208
20
3.82639328325774
30
0
41
1
10
3.59576589496245
20
3.82809047449305
30
0
41
1
10
3.6323067060558
20
3.82929215168804
30
0
41
1
10
3.70559794700162
20
3.83090240398104
30
0
41
1
10
3.7423486955494
20
3.83130932084555
30
0
41
1
10
3.81603351177844
20
3.83143792978757
30
0
41
1
10
3.85296773444301
20
3.83115883280294
30
0
41
1
10
3.90849372186591
20
3.83026986570741
30
0
41
1
10
3.92701472844132
20
3.82989466887014
30
0
41
1
10
3.96386191275735
20
3.82899814271059
30
0
41
1
10
3.98221834526802
20
3.8284763778409
30
0
41
1
10
4.07368409892405
20
3.82551525746237
30
0
41
1
10
4.14585312610839
20
3.82203186969517
30
0
41
1
10
4.28850694008386
20
3.81298029442596
30
0
41
1
10
4.35898802677289
20
3.8074075293741
30
0
41
1
10
4.46356785009752
20
3.79740978482229
30
0
41
1
10
4.49823663670006
20
3.79380269732113
30
0
41
1
10
4.56720502864502
20
3.78601375295861
30
0
41
1
10
4.60156238460084
20
3.78182327328673
30
0
41
1
10
4.70328122313106
20
3.76845217967673
30
0
41
1
10
4.76951360997822
20
3.75845335399754
30
0
41
1
10
4.96392029066843
20
3.7249501346981
30
0
41
1
10
5.08782442472082
20
3.69795652889263
30
0
41
1
10
5.20675425369106
20
3.66532678354923
30
0
0
SPLINE
5
E2
100
AcDbEntity
8
1
62
256
6
ByLayer
370
18
48
1
60
0
100
AcDbSpline
70
4
71
3
72
18
73
14
40
0
40
0
40
0
40
0
40
0.249999999999999
40
0.249999999999999
40
0.375
40
0.375
40
0.500000000000001
40
0.500000000000001
40
0.749999999999998
40
0.749999999999998
40
0.874999999999999
40
0.874999999999999
40
1
40
1
40
1
40
1
41
1
10
7.45091616759862
20
2.66277230223159
30
0
41
1
10
7.46537178371162
20
2.73431224295391
30
0
41
1
10
7.4848828733312
20
2.80246833802391
30
0
41
1
10
7.51862176437334
20
2.90037701791738
30
0
41
1
10
7.53063357339644
20
2.9322867479662
30
0
41
1
10
7.55584898076245
20
2.99472689966535
30
0
41
1
10
7.56906595597164
20
3.02528396830218
30
0
41
1
10
7.61001273810516
20
3.11475601418007
30
0
41
1
10
7.63897865644489
20
3.17141319621567
30
0
41
1
10
7.68376096019833
20
3.25225993319288
30
0
41
1
10
7.69891632256272
20
3.27851637703446
30
0
41
1
10
7.7295416715717
20
3.32967587952285
30
0
41
1
10
7.74502164296956
20
3.35459312776351
30
0
41
1
10
7.76055465935482
20
3.37877284217828
30
0
0
SPLINE
5
E3
100
AcDbEntity
8
1
62
256
6
ByLayer
370
18
48
1
60
0
100
AcDbSpline
70
4
71
3
72
8
73
4
40
0
40
0
40
0
40
0
40
1
40
1
40
1
40
1
41
1
10
27.3807265485626
20
-0.686419220809398
30
0
41
1
10
27.3643792963082
20
-0.738916179123891
30
0
41
1
10
27.3480858211343
20
-0.791036168463734
30
0
41
1
10
27.3318461663367
20
-0.84277888533282
30
0
0
SPLINE
5
E4
100
AcDbEntity
8
1
62
256
6
ByLayer
370
18
48
1
60
0
100
AcDbSpline
70
4
71
3
72
38
73
34
40
0
40
0
40
0
40
0
40
0.0505958522876165
40
0.101695765705934
40
0.153291276286557
40
0.205372979364859
40
0.257930722557767
40
0.281700869039743
40
0.305869962682192
40
0.330436580238543
40
0.35539918100765
40
0.380756104080253
40
0.406505565615439
40
0.432645656160098
40
0.459174338024167
40
0.486089442724663
40
0.513388668511283
40
0.541069577986745
40
0.56912959583453
40
0.597566006667399
40
0.626375956455848
40
0.655556475333419
40
0.685104458278665
40
0.715016647544652
40
0.745289630338131
40
0.775919836819698
40
0.806903538330063
40
0.838236845862335
40
0.869915708800253
40
0.901935913942001
40
0.934293084829551
40
0.966982681403096
40
1
40
1
40
1
40
1
41
1
10
8.06775759526889
20
3.16060417129054
30
0
41
1
10
8.05819250653676
20
3.1535821857419
30
0
41
1
10
8.038967036885
20
3.13946825812022
30
0
41
1
10
8.00961126654366
20
3.11759224987324
30
0
41
1
10
7.97969465127613
20
3.09506433123738
30
0
41
1
10
7.94918879129131
20
3.07183926876621
30
0
41
1
10
7.92387125305848
20
3.0523641965338
30
0
41
1
10
7.90391247757182
20
3.03690627786307
30
0
41
1
10
7.88944514815412
20
3.02565782579083
30
0
41
1
10
7.87467374139811
20
3.01412466878389
30
0
41
1
10
7.85959787944043
20
3.00230290984749
30
0
41
1
10
7.84421761751889
20
2.99018854818621
30
0
41
1
10
7.82853288997222
20
2.97777772776442
30
0
41
1
10
7.81254366209393
20
2.96506668303195
30
0
41
1
10
7.79624988825105
20
2.95205176820633
30
0
41
1
10
7.77965152313786
20
2.93872946408803
30
0
41
1
10
7.76274851843132
20
2.92509639138473
30
0
41
1
10
7.74554082348806
20
2.91114932291961
30
0
41
1
10
7.72802838471065
20
2.89688519550066
30
0
41
1
10
7.71021114534105
20
2.88230112554075
30
0
41
1
10
7.69208903669954
20
2.86739440469503
30
0
41
1
10
7.6736619933921
20
2.85216259814544
30
0
41
1
10
7.65492994152291
20
2.83660349338726
30
0
41
1
10
7.63589279985095
20
2.82071508978834
30
0
41
1
10
7.61655048323999
20
2.80449561864688
30
0
41
1
10
7.59690290656604
20
2.78794356022138
30
0
41
1
10
7.57694996809792
20
2.77105762948508
30
0
41
1
10
7.55669161251532
20
2.75383688955242
30
0
41
1
10
7.53612759115342
20
2.7362803779379
30
0
41
1
10
7.515258371058
20
2.71838858146359
30
0
41
1
10
7.4940816870878
20
2.70015789947414
30
0
41
1
10
7.47260561164484
20
2.68160168849306
30
0
41
1
10
7.45813932714256
20
2.6690429613621
30
0
41
1
10
7.45087010862747
20
2.66273227863138
30
0
0
SPLINE
5
E5
100
AcDbEntity
8
1
62
256
6
ByLayer
370
18
48
1
60
0
100
AcDbSpline
70
4
71
3
72
9
73
5
40
0
40
0
40
0
40
0
40
0.5
40
1
40
1
40
1
40
1
41
1
10
27.3807265485626
20
0.686419220809199
30
0
41
1
10
27.3446697118667
20
0.802210806056706
30
0
41
1
10
27.2730792929296
20
1.03012604416597
30
0
41
1
10
27.2025372412769
20
1.25069239058539
30
0
41
1
10
27.1675354607277
20
1.35908819625794
30
0
0
SPLINE
5
E6
100
AcDbEntity
8
1
62
256
6
ByLayer
370
18
48
1
60
0
100
AcDbSpline
70
4
71
3
72
27
73
23
40
0
40
0
40
0
40
0
40
0.10813148568277
40
0.10813148568277
40
0.216262971365541
40
0.216262971365541
40
0.432525942731081
40
0.432525942731081
40
0.459558814151773
40
0.459558814151773
40
0.486591685572464
40
0.540657428413846
40
0.648788914096614
40
0.648788914096614
40
0.865051885462149
40
0.865051885462149
40
0.919117628303534
40
0.946150499724226
40
0.946150499724226
40
0.973183371144918
40
0.973183371144918
40
1
40
1
40
1
40
1
41
1
10
27.1675354607277
20
1.35908819625794
30
0
41
1
10
26.9675568624734
20
1.49840966917691
30
0
41
1
10
26.7686497291033
20
1.63397418504857
30
0
41
1
10
26.3716727213759
20
1.89644380201384
30
0
41
1
10
26.1736069890574
20
2.02335102014246
30
0
41
1
10
25.5789930463199
20
2.38960117493397
30
0
41
1
10
25.1821530624767
20
2.61452117028884
30
0
41
1
10
24.73087129333
20
2.84044577711049
30
0
41
1
10
24.6806119080106
20
2.86519433957454
30
0
41
1
10
24.5802443980033
20
2.91376961135447
30
0
41
1
10
24.4299052727691
20
2.98526015514173
30
0
41
1
10
24.0804252570658
20
3.14240026504027
30
0
41
1
10
23.7825416717168
20
3.26027493978612
30
0
41
1
10
23.187502978491
20
3.47294520520268
30
0
41
1
10
22.7918104760884
20
3.58398583165484
30
0
41
1
10
22.2936091519072
20
3.68126096069781
30
0
41
1
10
22.1438762396448
20
3.70733083709283
30
0
41
1
10
21.9935917498988
20
3.72863107173009
30
0
41
1
10
21.8932633399647
20
3.74175847059712
30
0
41
1
10
21.8429933270333
20
3.7477890349266
30
0
41
1
10
21.743071254352
20
3.75868340168515
30
0
41
1
10
21.6933803240757
20
3.76356183595487
30
0
41
1
10
21.6437511194674
20
3.76789609753942
30
0
0
SPLINE
5
E7
100
AcDbEntity
8
1
62
256
6
ByLayer
370
18
48
1
60
0
100
AcDbSpline
70
4
71
3
72
8
73
4
40
0
40
0
40
0
40
0
40
1
40
1
40
1
40
1
41
1
10
8.16722014859533
20
-3.11893831373192
30
0
41
1
10
8.13409095581872
20
-3.13302375392939
30
0
41
1
10
8.10094569184318
20
-3.14691886684616
30
0
41
1
10
8.06778195582103
20
-3.16062199193038
30
0
0
SPLINE
5
E8
100
AcDbEntity
8
1
62
256
6
ByLayer
370
18
48
1
60
0
100
AcDbSpline
70
4
71
3
72
14
73
10
40
0
40
0
40
0
40
0
40
0.25
40
0.25
40
0.375
40
0.375
40
0.5
40
0.5
40
1
40
1
40
1
40
1
41
1
10
27.3807265485626
20
-3.74130250046048
30
0
41
1
10
27.3764095542307
20
-3.76559697264327
30
0
41
1
10
27.3738714299419
20
-3.78822944556438
30
0
41
1
10
27.3727698403917
20
-3.81965031428695
30
0
41
1
10
27.3728537983685
20
-3.82970242330239
30
0
41
1
10
27.3739329871869
20
-3.84895523859365
30
0
41
1
10
27.3749299769068
20
-3.85815365918887
30
0
41
1
10
27.382158695767
20
-3.90174940801225
30
0
41
1
10
27.3951095319944
20
-3.9292132392367
30
0
41
1
10
27.414947855368
20
-3.94955425625102
30
0
0
SPLINE
5
E9
100
AcDbEntity
8
1
62
256
6
ByLayer
370
18
48
1
60
0
100
AcDbSpline
70
4
71
3
72
10
73
6
40
0
40
0
40
0
40
0
40
0.5
40
0.5
40
1
40
1
40
1
40
1
41
1
10
27.3807265485626
20
-3.74130250046048
30
0
41
1
10
27.3447474359156
20
-3.7010938577159
30
0
41
1
10
27.3089902418913
20
-3.65578376315406
30
0
41
1
10
27.2379234204662
20
-3.55487493968329
30
0
41
1
10
27.2026137523939
20
-3.49927714572829
30
0
41
1
10
27.1675354607277
20
-3.43836048500722
30
0
0
SPLINE
5
EA
100
AcDbEntity
8
1
62
256
6
ByLayer
370
18
48
1
60
0
100
AcDbSpline
70
4
71
3
72
8
73
4
40
0
40
0
40
0
40
0
40
1
40
1
40
1
40
1
41
1
10
27.2136867779307
20
-3.96235053539661
30
0
41
1
10
27.2807783388095
20
-3.95814505318995
30
0
41
1
10
27.347865570209
20
-3.95388234451758
30
0
41
1
10
27.414947855368
20
-3.94955425625105
30
0
0
SPLINE
5
EB
100
AcDbEntity
8
1
62
256
6
ByLayer
370
18
48
1
60
0
100
AcDbSpline
70
4
71
3
72
8
73
4
40
0
40
0
40
0
40
0
40
1
40
1
40
1
40
1
41
1
10
27.2136867779307
20
-0.0530094960858207
30
0
41
1
10
27.2807783388095
20
-0.0654713486920855
30
0
41
1
10
27.347865570209
20
-0.0779327032224444
30
0
41
1
10
27.414947855368
20
-0.0903934883733655
30
0
0
SPLINE
5
EC
100
AcDbEntity
8
1
62
256
6
ByLayer
370
18
48
1
60
0
100
AcDbSpline
70
4
71
3
72
33
73
29
40
0
40
0
40
0
40
0
40
0.0072473834427999
40
0.0072473834427999
40
0.0469574881050956
40
0.0866675927673913
40
0.0866675927673913
40
0.126377697429687
40
0.126377697429687
40
0.205797906754279
40
0.205797906754279
40
0.245508011416566
40
0.245508011416566
40
0.285218116078853
40
0.285218116078853
40
0.364638325403427
40
0.364638325403427
40
0.444058534728002
40
0.444058534728002
40
0.523478744052576
40
0.523478744052576
40
0.60289895337715
40
0.60289895337715
40
0.682319162701724
40
0.682319162701724
40
0.841159581350862
40
0.841159581350862
40
1
40
1
40
1
40
1
41
1
10
27.3636795845727
20
-0.0850596605401677
30
0
41
1
10
27.3621975523893
20
-0.0848074139889263
30
0
41
1
10
27.3606649258295
20
-0.0845456870819987
30
0
41
1
10
27.3504255776064
20
-0.0827916229154937
30
0
41
1
10
27.3302505562361
20
-0.0792866995952295
30
0
41
1
10
27.3047755948696
20
-0.074783305284484
30
0
41
1
10
27.2768617554567
20
-0.0698204437039749
30
0
41
1
10
27.2616100616619
20
-0.0670956813061423
30
0
41
1
10
27.2136292615513
20
-0.0584924175072103
30
0
41
1
10
27.178456313739
20
-0.0521470088823719
30
0
41
1
10
27.1223345170443
20
-0.0419851818989514
30
0
41
1
10
27.1030590092004
20
-0.0384891183902027
30
0
41
1
10
27.0635345787221
20
-0.0313106347712448
30
0
41
1
10
27.0433011814045
20
-0.0276310183902808
30
0
41
1
10
26.9820075210897
20
-0.0164723397280113
30
0
41
1
10
26.9401185195376
20
-0.0088307196371886
30
0
41
1
10
26.8547939308031
20
0.0067576022741775
30
0
41
1
10
26.8113558415042
20
0.0147047976658428
30
0
41
1
10
26.7232745948127
20
0.030836901933128
30
0
41
1
10
26.6786299519663
20
0.0390221038313427
30
0
41
1
10
26.5883779700946
20
0.0555824104758358
30
0
41
1
10
26.5427179348458
20
0.063967235586432
30
0
41
1
10
26.4513092488814
20
0.0807636269938143
30
0
41
1
10
26.4054718534118
20
0.0891914706112118
30
0
41
1
10
26.2676394378036
20
0.114546357721707
30
0
41
1
10
26.1753282701374
20
0.131543847959534
30
0
41
1
10
25.9901223373649
20
0.165668870697999
30
0
41
1
10
25.8972248435112
20
0.182797011241831
30
0
41
1
10
25.8041092642764
20
0.19997374746913
30
0
0
SPLINE
5
ED
100
AcDbEntity
8
1
62
256
6
ByLayer
370
18
48
1
60
0
100
AcDbSpline
70
4
71
3
72
10
73
6
40
0
40
0
40
0
40
0
40
0.5
40
0.5
40
1
40
1
40
1
40
1
41
1
10
27.2130691151648
20
-0.052894601173989
30
0
41
1
10
27.2400801965331
20
-0.058165858484756
30
0
41
1
10
27.2654259614733
20
-0.0631331677174103
30
0
41
1
10
27.3112381336846
20
-0.072176226174463
30
0
41
1
10
27.3316399380054
20
-0.0762388148833679
30
0
41
1
10
27.3482076384979
20
-0.0795987567839802
30
0
0
SPLINE
5
EE
100
AcDbEntity
8
1
62
256
6
ByLayer
370
18
48
1
60
0
100
AcDbSpline
70
4
71
5
72
39
73
33
40
0
40
0
40
0
40
0
40
0
40
0
40
0.0302707179813611
40
0.0590604515268914
40
0.0878501850724216
40
0.131034785390717
40
0.174219385709012
40
0.203009119254543
40
0.246193719572838
40
0.274983453118369
40
0.318168053436664
40
0.346957786982194
40
0.39014238730049
40
0.433326987618785
40
0.462116721164316
40
0.505301321482611
40
0.534091055028141
40
0.577275655346437
40
0.606065388891967
40
0.649249989210263
40
0.692434589528558
40
0.721224323074088
40
0.750014056619619
40
0.793198656937914
40
0.83638325725621
40
0.86517299080174
40
0.908357591120035
40
0.951542191438331
40
0.980331924983861
40
1
40
1
40
1
40
1
40
1
40
1
41
1
10
16.4935988068796
20
3.12850437426752
30
0
41
1
10
16.5518609384412
20
3.15022187965496
30
0
41
1
10
16.6655347468742
20
3.19159066477297
30
0
41
1
10
16.8346202321787
20
3.25017856408547
30
0
41
1
10
17.0868232327904
20
3.33089010588896
30
0
41
1
10
17.4221437487093
20
3.4245921983842
30
0
41
1
10
17.7546138099383
20
3.5022650151096
30
0
41
1
10
18.1147897096029
20
3.56948307798919
30
0
41
1
10
18.4749656092676
20
3.61772374933611
30
0
41
1
10
18.8351415089323
20
3.64847323241244
30
0
41
1
10
19.1676115701612
20
3.66058852971736
30
0
41
1
10
19.5277874698259
20
3.65602382901713
30
0
41
1
10
19.8879633694905
20
3.63378932313404
30
0
41
1
10
20.2481392691552
20
3.59223921282282
30
0
41
1
10
20.6083151688199
20
3.53332674100156
30
0
41
1
10
20.9684910684846
20
3.45564625783169
30
0
41
1
10
21.3286669681492
20
3.36128881990075
30
0
41
1
10
21.6611370293782
20
3.25917336546405
30
0
41
1
10
22.0213129290428
20
3.1328287552081
30
0
41
1
10
22.3814888287075
20
2.99131268526463
30
0
41
1
10
22.7416647283722
20
2.8338792814811
30
0
41
1
10
23.0741347896011
20
2.67591277168526
30
0
41
1
10
23.4343106892657
20
2.49194018016533
30
0
41
1
10
23.7944865889304
20
2.29592852361441
30
0
41
1
10
24.1269566501594
20
2.10466161669706
30
0
41
1
10
24.487132549824
20
1.88728334548915
30
0
41
1
10
24.8750142879244
20
1.64241520787908
30
0
41
1
10
25.2351901875891
20
1.40627758513861
30
0
41
1
10
25.5501037683399
20
1.19387192780917
30
0
41
1
10
25.8096056722192
20
1.01506865082857
30
0
41
1
10
25.9859900607913
20
0.892098867552875
30
0
41
1
10
26.0792569340561
20
0.826720229462182
30
0
41
1
10
26.1171121304495
20
0.80012877780328
30
0
0
SPLINE
5
EF
100
AcDbEntity
8
1
62
256
6
ByLayer
370
18
48
1
60
0
100
AcDbSpline
70
4
71
5
72
13
73
7
40
0
40
0
40
0
40
0
40
0
40
0
40
0.202064915026364
40
1
40
1
40
1
40
1
40
1
40
1
41
1
10
8.44999995076631
20
3.25620700195529
30
0
41
1
10
8.43857953212969
20
3.25110593178272
30
0
41
1
10
8.3820609690971
20
3.22575940785717
30
0
41
1
10
8.32554240606447
20
3.19991033187549
30
0
41
1
10
8.26902384303185
20
3.17356526695264
30
0
41
1
10
8.21250527999922
20
3.14673103422541
30
0
41
1
10
8.16740713560324
20
3.12501117164652
30
0
0
SPLINE
5
F0
100
AcDbEntity
8
1
62
256
6
ByLayer
370
18
48
1
60
0
100
AcDbSpline
70
4
71
5
72
40
73
34
40
0
40
0
40
0
40
0
40
0
40
0
40
0.0402974066218714
40
0.0819917722709785
40
0.10978801603705
40
0.151482381686157
40
0.179278625452228
40
0.220972991101335
40
0.248769234867407
40
0.290463600516514
40
0.332157966165621
40
0.359954209931692
40
0.401648575580799
40
0.42944481934687
40
0.471139184995977
40
0.498935428762049
40
0.540629794411156
40
0.582324160060263
40
0.610120403826334
40
0.637916647592405
40
0.679611013241512
40
0.721305378890619
40
0.749101622656691
40
0.790795988305798
40
0.832490353954905
40
0.860286597720976
40
0.888082841487048
40
0.929777207136154
40
0.971471572785262
40
0.999267816551333
40
1
40
1
40
1
40
1
40
1
40
1
41
1
10
8.48708208912541
20
2.97745864043307
30
0
41
1
10
8.56741477340034
20
3.01103424448226
30
0
41
1
10
8.73086497298257
20
3.07745554162028
30
0
41
1
10
8.94972684943627
20
3.16113783401906
30
0
41
1
10
9.25170624119718
20
3.26654412020645
30
0
41
1
10
9.60909730982959
20
3.37421259875427
30
0
41
1
10
9.96927320949428
20
3.46639048623717
30
0
41
1
10
10.3017432707232
20
3.53603522714519
30
0
41
1
10
10.6619191703879
20
3.59438046191653
30
0
41
1
10
11.0220950700525
20
3.63536936318937
30
0
41
1
10
11.3822709697172
20
3.6570429081676
30
0
41
1
10
11.7424468693819
20
3.6610408760981
30
0
41
1
10
12.1026227690465
20
3.64558355926869
30
0
41
1
10
12.4627986687112
20
3.61251620335275
30
0
41
1
10
12.7952687299401
20
3.56586947926269
30
0
41
1
10
13.1554446296048
20
3.49811930915186
30
0
41
1
10
13.5156205292695
20
3.41344681531143
30
0
41
1
10
13.8757964289341
20
3.31062123710734
30
0
41
1
10
14.2082664901631
20
3.20093496417644
30
0
41
1
10
14.5684423898277
20
3.06670369440332
30
0
41
1
10
14.9286182894924
20
2.91765656128192
30
0
41
1
10
15.2610883507213
20
2.76698918786573
30
0
41
1
10
15.621264250386
20
2.59039251846596
30
0
41
1
10
16.0091459884864
20
2.38541329922333
30
0
41
1
10
16.3693218881511
20
2.18237162635089
30
0
41
1
10
16.70179194938
20
1.98521188090123
30
0
41
1
10
17.0619678490447
20
1.76213771448144
30
0
41
1
10
17.4221437487093
20
1.53055030578366
30
0
41
1
10
17.7546138099383
20
1.30984268939179
30
0
41
1
10
18.0331317984426
20
1.12005518181411
30
0
41
1
10
18.2562381100754
20
0.965476541739122
30
0
41
1
10
18.3962269064009
20
0.86763612317975
30
0
41
1
10
18.4530981874193
20
0.827758072828544
30
0
41
1
10
18.4545577915662
20
0.826734515437863
30
0
0
SPLINE
5
F1
100
AcDbEntity
8
1
62
256
6
ByLayer
370
18
48
1
60
0
100
AcDbSpline
70
4
71
5
72
15
73
9
40
0
40
0
40
0
40
0
40
0
40
0
40
0.0571528446752191
40
0.473109789276505
40
0.750414419010696
40
1
40
1
40
1
40
1
40
1
40
1
41
1
10
8.44999995076628
20
2.03627234961735
30
0
41
1
10
8.43857953212967
20
2.04393100759188
30
0
41
1
10
8.34404159818584
20
2.10722268363247
30
0
41
1
10
8.19409198737054
20
2.20620452024144
30
0
41
1
10
7.99426958655235
20
2.33498042378125
30
0
41
1
10
7.79444718573413
20
2.45927541151042
30
0
41
1
10
7.60604520355253
20
2.57214962667203
30
0
41
1
10
7.50076073667816
20
2.63382305395777
30
0
41
1
10
7.45088794667527
20
2.66271665627002
30
0
0
SPLINE
5
F2
100
AcDbEntity
8
1
62
256
6
ByLayer
370
18
48
1
60
0
100
AcDbSpline
70
4
71
3
72
8
73
4
40
0
40
0
40
0
40
0
40
1
40
1
40
1
40
1
41
1
10
5.7025740903749
20
3.25537355030704
30
0
41
1
10
5.53721536797929
20
3.39160530410791
30
0
41
1
10
5.37193602319005
20
3.528261414193
30
0
41
1
10
5.20674314512803
20
3.66533601077023
30
0
0
SPLINE
5
F3
100
AcDbEntity
8
1
62
256
6
ByLayer
370
18
48
1
60
0
100
AcDbSpline
70
4
71
5
72
22
73
16
40
0
40
0
40
0
40
0
40
0
40
0
40
0.253852810388392
40
0.317316012985489
40
0.412510816881136
40
0.475974019478234
40
0.571168823373881
40
0.634632025970979
40
0.729826829866626
40
0.825021633762273
40
0.88848483635937
40
0.983679640255017
40
1
40
1
40
1
40
1
40
1
40
1
41
1
10
5.7025740903897
20
3.25537355032571
30
0
41
1
10
5.92422079787565
20
3.18268181000994
30
0
41
1
10
6.20127918223312
20
3.08213323170017
30
0
41
1
10
6.56145508189775
20
2.93626888069309
30
0
41
1
10
6.97704265843393
20
2.74657073030758
30
0
41
1
10
7.47574775027729
20
2.49216861631621
30
0
41
1
10
7.80821781150624
20
2.3114076646402
30
0
41
1
10
8.16839371117089
20
2.1044640277446
30
0
41
1
10
8.52856961083558
20
1.88729882806177
30
0
41
1
10
8.88874551050023
20
1.66007347139515
30
0
41
1
10
9.24892141016491
20
1.42482448544078
30
0
41
1
10
9.56793544172297
20
1.20978266149805
30
0
41
1
10
9.80383195797376
20
1.04761764978176
30
0
41
1
10
9.95661095891734
20
0.94146782484961
30
0
41
1
10
10.0539782829895
20
0.873413494581513
30
0
41
1
10
10.0682280917543
20
0.863445179559363
30
0
0
SPLINE
5
F4
100
AcDbEntity
8
1
62
256
6
ByLayer
370
18
48
1
60
0
100
AcDbSpline
70
4
71
5
72
47
73
41
40
0
40
0
40
0
40
0
40
0
40
0
40
0.0179180112867161
40
0.051163968615982
40
0.0844099259452479
40
0.106573897498092
40
0.139819854827358
40
0.161983826380202
40
0.195229783709468
40
0.217393755262312
40
0.250639712591578
40
0.283885669920843
40
0.306049641473687
40
0.339295598802953
40
0.361459570355797
40
0.394705527685063
40
0.416869499237907
40
0.450115456567173
40
0.483361413896439
40
0.505525385449283
40
0.527689357002127
40
0.560935314331393
40
0.594181271660659
40
0.616345243213503
40
0.649591200542768
40
0.682837157872034
40
0.705001129424878
40
0.727165100977722
40
0.760411058306988
40
0.793657015636254
40
0.815820987189098
40
0.849066944518364
40
0.871230916071208
40
0.904476873400474
40
0.926640844953318
40
0.959886802282584
40
0.993132759611849
40
1
40
1
40
1
40
1
40
1
40
1
41
1
10
9.84554377557231
20
2.25520942992341
30
0
41
1
10
9.89034021691552
20
2.25038278247746
30
0
41
1
10
10.018254173566
20
2.23597454196843
30
0
41
1
10
10.2292856455236
20
2.20926545897214
30
0
41
1
10
10.4957287943528
20
2.16949066717498
30
0
41
1
10
10.8452894584892
20
2.10751271258434
30
0
41
1
10
11.2054653581538
20
2.03246207908967
30
0
41
1
10
11.5656412578185
20
1.94761004247053
30
0
41
1
10
11.8981113190474
20
1.86057740626947
30
0
41
1
10
12.2582872187121
20
1.7573258765774
30
0
41
1
10
12.6184631183768
20
1.64555607247462
30
0
41
1
10
12.9786390180414
20
1.52502531843808
30
0
41
1
10
13.3388149177061
20
1.39712366302712
30
0
41
1
10
13.6989908173708
20
1.26181519290194
30
0
41
1
10
14.0591667170355
20
1.12044365236375
30
0
41
1
10
14.3916367782644
20
0.984916253376269
30
0
41
1
10
14.7518126779291
20
0.833372536303415
30
0
41
1
10
15.1119885775937
20
0.677763839197581
30
0
41
1
10
15.4721644772584
20
0.518531739805127
30
0
41
1
10
15.8046345384873
20
0.369234831128409
30
0
41
1
10
16.164810438152
20
0.205792983584757
30
0
41
1
10
16.5249863378166
20
0.0413569086618963
30
0
41
1
10
16.8574563990456
20
-0.110690061213603
30
0
41
1
10
17.2176322987102
20
-0.274872613825778
30
0
41
1
10
17.6055140368107
20
-0.450087388444985
30
0
41
1
10
17.9656899364753
20
-0.610416983265026
30
0
41
1
10
18.2981599977042
20
-0.755690153815323
30
0
41
1
10
18.6583358973689
20
-0.909340711728845
30
0
41
1
10
19.0185117970336
20
-1.0585980614826
30
0
41
1
10
19.3509818582625
20
-1.19171949295338
30
0
41
1
10
19.7111577579272
20
-1.33017444215781
30
0
41
1
10
20.0713336575919
20
-1.46154192570558
30
0
41
1
10
20.4315095572565
20
-1.58581538599557
30
0
41
1
10
20.7639796184855
20
-1.69348339725718
30
0
41
1
10
21.1241555181501
20
-1.80191272274544
30
0
41
1
10
21.4843314178148
20
-1.90166066733957
30
0
41
1
10
21.8062642831719
20
-1.98179602683007
30
0
41
1
10
22.0450796332217
20
-2.03574106519537
30
0
41
1
10
22.2284833064001
20
-2.0738158591696
30
0
41
1
10
22.3287694642712
20
-2.09361645874591
30
0
41
1
10
22.3459381068351
20
-2.09697631027689
30
0
0
SPLINE
5
F5
100
AcDbEntity
8
1
62
256
6
ByLayer
370
18
48
1
60
0
100
AcDbSpline
70
4
71
3
72
18
73
14
40
0
40
0
40
0
40
0
40
0.31294615041855
40
0.31294615041855
40
0.625892300837099
40
0.625892300837099
40
0.704128838441739
40
0.704128838441739
40
0.782365376046378
40
0.782365376046378
40
0.938838451255657
40
0.938838451255657
40
1
40
1
40
1
40
1
41
1
10
7.76055465934328
20
3.378772842183
30
0
41
1
10
7.46849654758302
20
3.49847815771477
30
0
41
1
10
7.17774734998875
20
3.60091183768699
30
0
41
1
10
6.5956152823388
20
3.76970514726779
30
0
41
1
10
6.30424132283415
20
3.83606964734122
30
0
41
1
10
5.93757423568846
20
3.8951764070294
30
0
41
1
10
5.86411783544455
20
3.90580372758831
30
0
41
1
10
5.71690485692486
20
3.92463086085317
30
0
41
1
10
5.64307057539691
20
3.93283647918224
30
0
41
1
10
5.42190544981
20
3.95367535017539
30
0
41
1
10
5.27475600771604
20
3.96256299857322
30
0
41
1
10
5.07020401241169
20
3.96798754489069
30
0
41
1
10
5.01273178195058
20
3.96875071757637
30
0
41
1
10
4.95525967964525
20
3.96875191474706
30
0
0
SPLINE
5
F6
100
AcDbEntity
8
1
62
256
6
ByLayer
370
18
48
1
60
0
100
AcDbSpline
70
4
71
3
72
8
73
4
40
0
40
0
40
0
40
0
40
1
40
1
40
1
40
1
41
1
10
7.76055465934456
20
3.37877284218592
30
0
41
1
10
7.86126234737873
20
3.30372676476486
30
0
41
1
10
7.9637559622463
20
3.23109604485248
30
0
41
1
10
8.06786182704204
20
3.16065245047432
30
0
0
SPLINE
5
F7
100
AcDbEntity
8
1
62
256
6
ByLayer
370
18
48
1
60
0
100
AcDbSpline
70
4
71
3
72
91
73
87
40
0
40
0
40
0
40
0
40
0.0338882450917389
40
0.0338882450917389
40
0.108204533930837
40
0.108204533930837
40
0.126783606140611
40
0.136073142245498
40
0.136073142245498
40
0.145362678350385
40
0.145362678350385
40
0.182520822769933
40
0.182520822769933
40
0.256837111609029
40
0.256837111609029
40
0.293995256028577
40
0.293995256028577
40
0.312574328238351
40
0.312574328238351
40
0.321863864343238
40
0.321863864343238
40
0.331153400448125
40
0.331153400448125
40
0.368311544867675
40
0.368311544867675
40
0.386890617077449
40
0.386890617077449
40
0.405469689287224
40
0.405469689287224
40
0.442627833706774
40
0.442627833706774
40
0.461206905916548
40
0.461206905916548
40
0.479785978126323
40
0.479785978126323
40
0.498365050336098
40
0.498365050336098
40
0.507654586440985
40
0.507654586440985
40
0.516944122545872
40
0.516944122545872
40
0.535523194755645
40
0.535523194755645
40
0.554102266965418
40
0.554102266965418
40
0.591260411384965
40
0.591260411384965
40
0.609839483594739
40
0.609839483594739
40
0.628418555804512
40
0.628418555804512
40
0.646997628014285
40
0.646997628014285
40
0.665576700224059
40
0.665576700224059
40
0.674866236328946
40
0.674866236328946
40
0.684155772433832
40
0.684155772433832
40
0.702734844643607
40
0.702734844643607
40
0.721313916853381
40
0.721313916853381
40
0.739892989063155
40
0.739892989063155
40
0.777051133482703
40
0.777051133482703
40
0.795630205692477
40
0.795630205692477
40
0.814209277902251
40
0.814209277902251
40
0.851367422321799
40
0.851367422321799
40
0.860656958426686
40
0.860656958426686
40
0.869946494531573
40
0.869946494531573
40
0.888525566741347
40
0.888525566741347
40
0.925683711160898
40
0.925683711160898
40
0.944262783370673
40
0.944262783370673
40
0.962841855580449
40
0.962841855580449
40
1
40
1
40
1
40
1
41
1
10
24.1278559732264
20
-3.11817976407266
30
0
41
1
10
23.9461811208093
20
-3.19546280410071
30
0
41
1
10
23.7650872961607
20
-3.2665132344122
30
0
41
1
10
23.187502978491
20
-3.47294520520285
30
0
41
1
10
22.7918104760884
20
-3.58398583165499
30
0
41
1
10
22.2936091519071
20
-3.68126096069798
30
0
41
1
10
22.1438762396447
20
-3.70733083709297
30
0
41
1
10
21.9935917498988
20
-3.72863107173026
30
0
41
1
10
21.8932633399647
20
-3.74175847059729
30
0
41
1
10
21.8429933270333
20
-3.74778903492677
30
0
41
1
10
21.5921850067101
20
-3.77513432265323
30
0
41
1
10
21.3926680043685
20
-3.78811886918416
30
0
41
1
10
20.7959811459054
20
-3.80092894413107
30
0
41
1
10
20.4006719069974
20
-3.77472077630128
30
0
41
1
10
19.8057705889381
20
-3.68372105233001
30
0
41
1
10
19.6071478298936
20
-3.64474193505001
30
0
41
1
10
19.307950324987
20
-3.57342633835074
30
0
41
1
10
19.2080098746287
20
-3.54749122197066
30
0
41
1
10
19.0576652841312
20
-3.50552063803096
30
0
41
1
10
19.0074366571978
20
-3.4910127774742
30
0
41
1
10
18.9070182514045
20
-3.46105295115743
30
0
41
1
10
18.856872954308
20
-3.4456100960127
30
0
41
1
10
18.6064602099449
20
-3.36604206579301
30
0
41
1
10
18.4071575015388
20
-3.29481338579515
30
0
41
1
10
18.1092344181149
20
-3.17658073953117
30
0
41
1
10
18.010112452984
20
-3.13521970757802
30
0
41
1
10
17.8119608825934
20
-3.04916692142587
30
0
41
1
10
17.7129095718794
20
-3.00455121800067
30
0
41
1
10
17.4157358672742
20
-2.86589171264998
30
0
41
1
10
17.2176438105644
20
-2.76689091741898
30
0
41
1
10
16.9200014515407
20
-2.60837519825265
30
0
41
1
10
16.8207102589965
20
-2.5538213460689
30
0
41
1
10
16.6217593798059
20
-2.44174900521807
30
0
41
1
10
16.5220860594968
20
-2.38430475249456
30
0
41
1
10
16.3222577582808
20
-2.26657112253025
30
0
41
1
10
16.222110249673
20
-2.20624199783631
30
0
41
1
10
16.0714563124277
20
-2.11353157938618
30
0
41
1
10
16.021259766808
20
-2.08231772501461
30
0
41
1
10
15.9210669458644
20
-2.01938761729795
30
0
41
1
10
15.8710439927255
20
-1.98765495603004
30
0
41
1
10
15.7211769687918
20
-1.89167371543786
30
0
41
1
10
15.6215506088046
20
-1.82660857790373
30
0
41
1
10
15.4225982119523
20
-1.69477724193729
30
0
41
1
10
15.3232462878742
20
-1.62806667972762
30
0
41
1
10
15.0254672362417
20
-1.42563587127697
30
0
41
1
10
14.827388608618
20
-1.2874687638564
30
0
41
1
10
14.5303656483104
20
-1.07595800892432
30
0
41
1
10
14.43138105215
20
-1.00472339555017
30
0
41
1
10
14.2332595382255
20
-0.861124605001692
30
0
41
1
10
14.1341086999223
20
-0.788797052242558
30
0
41
1
10
13.9355226053049
20
-0.643213373846748
30
0
41
1
10
13.8360936699678
20
-0.569941422088675
30
0
41
1
10
13.6368732993118
20
-0.422501599792838
30
0
41
1
10
13.5370844370616
20
-0.348324626053994
30
0
41
1
10
13.3870265685467
20
-0.236515146108047
30
0
41
1
10
13.336944424314
20
-0.199156001115455
30
0
41
1
10
13.2366362774687
20
-0.124284689964867
30
0
41
1
10
13.186386462142
20
-0.0867544400218208
30
0
41
1
10
13.0359799207453
20
0.0255929048859116
30
0
41
1
10
12.9359802060808
20
0.100302510929083
30
0
41
1
10
12.7363799393876
20
0.249174304051451
30
0
41
1
10
12.6367753460991
20
0.323334346787107
30
0
41
1
10
12.4378959901579
20
0.470989621061591
30
0
41
1
10
12.3386315862009
20
0.544490960742081
30
0
41
1
10
12.0411452494246
20
0.763747128173037
30
0
41
1
10
11.8432056227557
20
0.908236392668982
30
0
41
1
10
11.5460422178614
20
1.12146145523047
30
0
41
1
10
11.4469459728788
20
1.19195394146465
30
0
41
1
10
11.2485925843151
20
1.3316318026196
30
0
41
1
10
11.1493416129875
20
1.4008178421023
30
0
41
1
10
10.8511543592945
20
1.60615177124271
30
0
41
1
10
10.6517691340708
20
1.74007154426295
30
0
41
1
10
10.4011178411907
20
1.9029229689944
30
0
41
1
10
10.3508662701363
20
1.9352981768252
30
0
41
1
10
10.2505048404122
20
1.99938260922434
30
0
41
1
10
10.2003991986911
20
2.03108993579502
30
0
41
1
10
10.050297039618
20
2.125178746437
30
0
41
1
10
9.95052297009991
20
2.18652055336051
30
0
41
1
10
9.6518411723126
20
2.36626192431362
30
0
41
1
10
9.45355185366935
20
2.48039064158505
30
0
41
1
10
9.15653730586106
20
2.64256214885148
30
0
41
1
10
9.05760372271777
20
2.69511870955154
30
0
41
1
10
8.85980936776269
20
2.79705828969966
30
0
41
1
10
8.76095436917132
20
2.84642946182458
30
0
41
1
10
8.46429021654069
20
2.98962866111927
30
0
41
1
10
8.26636725719786
20
3.0785673276778
30
0
41
1
10
8.067781955821
20
3.16062199193024
30
0
0
SPLINE
5
F8
100
AcDbEntity
8
1
62
256
6
ByLayer
370
18
48
1
60
0
100
AcDbSpline
70
4
71
3
72
14
73
10
40
0
40
0
40
0
40
0
40
0.25
40
0.25
40
0.375
40
0.375
40
0.5
40
0.5
40
1
40
1
40
1
40
1
41
1
10
27.3807265485626
20
0.686419220809199
30
0
41
1
10
27.3764095542307
20
0.623397573001029
30
0
41
1
10
27.3738714299419
20
0.559759407604815
30
0
41
1
10
27.3727698403916
20
0.463364458596857
30
0
41
1
10
27.3728537983685
20
0.431076448612572
30
0
41
1
10
27.3739329871869
20
0.366184601329479
30
0
41
1
10
27.3749299769069
20
0.333582199919505
30
0
41
1
10
27.3821586957671
20
0.170747841657175
30
0
41
1
10
27.3951095319943
20
0.0402755659725926
30
0
41
1
10
27.414947855368
20
-0.0903934883733655
30
0
0
SPLINE
5
F9
100
AcDbEntity
8
1
62
256
6
ByLayer
370
18
48
1
60
0
100
AcDbSpline
70
4
71
3
72
14
73
10
40
0
40
0
40
0
40
0
40
0.25
40
0.25
40
0.5
40
0.5
40
0.75
40
0.75
40
1
40
1
40
1
40
1
41
1
10
26.9961792301915
20
-2.1848525867054
30
0
41
1
10
27.0108078597594
20
-2.28898840920138
30
0
41
1
10
27.025452194966
20
-2.39310910520962
30
0
41
1
10
27.0544216308512
20
-2.60165795986811
30
0
41
1
10
27.0687324138717
20
-2.70609565433148
30
0
41
1
10
27.0971560435321
20
-2.91514094513698
30
0
41
1
10
27.1112721720584
20
-3.01974895100832
30
0
41
1
10
27.1394407208609
20
-3.22902179602687
30
0
41
1
10
27.153491628207
20
-3.33368798483863
30
0
41
1
10
27.1675354607277
20
-3.43836048500717
30
0
0
SPLINE
5
FA
100
AcDbEntity
8
1
62
256
6
ByLayer
370
18
48
1
60
0
100
AcDbSpline
70
4
71
3
72
17
73
13
40
0
40
0
40
0
40
0
40
0.249999999999992
40
0.249999999999992
40
0.499999999999984
40
0.499999999999984
40
0.562499999999986
40
0.562499999999986
40
0.624999999999988
40
0.749999999999992
40
0.749999999999992
40
1
40
1
40
1
40
1
41
1
10
25.2583278560595
20
-0.41349306675832
30
0
41
1
10
25.3842170391332
20
-0.584245486186319
30
0
41
1
10
25.5155865793158
20
-0.749737415267163
30
0
41
1
10
25.7892938360485
20
-1.07019312995931
30
0
41
1
10
25.9316236327841
20
-1.22516451764955
30
0
41
1
10
26.1162658921771
20
-1.4124187405863
30
0
41
1
10
26.1535621881235
20
-1.44957337397616
30
0
41
1
10
26.2283309387396
20
-1.522753833639
30
0
41
1
10
26.340921948076
20
-1.63101054279048
30
0
41
1
10
26.4547889713974
20
-1.73485543811907
30
0
41
1
10
26.6841352408063
20
-1.93697097428685
30
0
41
1
10
26.8391788251496
20
-2.06429463080522
30
0
41
1
10
26.9961792301916
20
-2.18485258670592
30
0
0
SPLINE
5
FB
100
AcDbEntity
8
1
62
256
6
ByLayer
370
18
48
1
60
0
100
AcDbSpline
70
4
71
3
72
19
73
15
40
0
40
0
40
0
40
0
40
0.249999999999915
40
0.249999999999915
40
0.312499999999914
40
0.312499999999914
40
0.374999999999913
40
0.374999999999913
40
0.499999999999931
40
0.624999999999948
40
0.624999999999948
40
0.749999999999965
40
0.749999999999965
40
1
40
1
40
1
40
1
41
1
10
25.2583278560615
20
-0.413493066761106
30
0
41
1
10
25.2427740397789
20
-0.392396323603805
30
0
41
1
10
25.2294584109823
20
-0.370130513918326
30
0
41
1
10
25.2162017911885
20
-0.340522728636529
30
0
41
1
10
25.2137213457494
20
-0.334511601658505
30
0
41
1
10
25.2091240082734
20
-0.322298584369662
30
0
41
1
10
25.2070069399235
20
-0.316089921218691
30
0
41
1
10
25.201314946758
20
-0.297441170604174
30
0
41
1
10
25.1954101989703
20
-0.272340637504357
30
0
41
1
10
25.1929313899622
20
-0.246753324033847
30
0
41
1
10
25.1922308371976
20
-0.220908936741949
30
0
41
1
10
25.1927897023692
20
-0.207818074400024
30
0
41
1
10
25.1970624997767
20
-0.169403466693808
30
0
41
1
10
25.2033094767263
20
-0.144513811118941
30
0
41
1
10
25.2126486644593
20
-0.120258047328832
30
0
0
SPLINE
5
FC
100
AcDbEntity
8
1
62
256
6
ByLayer
370
18
48
1
60
0
100
AcDbSpline
70
4
71
5
72
32
73
26
40
0
40
0
40
0
40
0
40
0
40
0
40
0.0246052932955935
40
0.064164157183855
40
0.103723021072116
40
0.163061316904509
40
0.222399612736901
40
0.261958476625163
40
0.321296772457555
40
0.360855636345816
40
0.420193932178209
40
0.45975279606647
40
0.519091091898862
40
0.578429387731255
40
0.617988251619516
40
0.677326547451909
40
0.71688541134017
40
0.776223707172563
40
0.815782571060824
40
0.875120866893216
40
0.934459162725609
40
0.97401802661387
40
1
40
1
40
1
40
1
40
1
40
1
41
1
10
18.2089494394254
20
2.25199406784296
30
0
41
1
10
18.2434150541426
20
2.24819176259527
30
0
41
1
10
18.3332923457313
20
2.23793841792263
30
0
41
1
10
18.4785813141915
20
2.21994309807417
30
0
41
1
10
18.706987797959
20
2.18807132165489
30
0
41
1
10
19.0185117970336
20
2.13703633701266
30
0
41
1
10
19.3509818582625
20
2.07300846855421
30
0
41
1
10
19.7111577579272
20
1.99362547794581
30
0
41
1
10
20.0713336575919
20
1.90365923335051
30
0
41
1
10
20.4315095572565
20
1.80451759396138
30
0
41
1
10
20.7639796184855
20
1.70492962813859
30
0
41
1
10
21.1241555181501
20
1.5888318775211
30
0
41
1
10
21.4843314178148
20
1.46502696486704
30
0
41
1
10
21.8445073174795
20
1.33341891773782
30
0
41
1
10
22.2046832171442
20
1.19536606000503
30
0
41
1
10
22.5648591168088
20
1.05097991359634
30
0
41
1
10
22.9250350164735
20
0.901551605767708
30
0
41
1
10
23.2575050777024
20
0.759561829760656
30
0
41
1
10
23.617680977367
20
0.602107749682006
30
0
41
1
10
23.9778568770317
20
0.441704873922561
30
0
41
1
10
24.3380327766964
20
0.278932527017218
30
0
41
1
10
24.6514851464277
20
0.136102417801226
30
0
41
1
10
24.9095258392875
20
0.0181651411941743
30
0
41
1
10
25.0844490168401
20
-0.0617496825715591
30
0
41
1
10
25.1762546790854
20
-0.103653912818515
30
0
41
1
10
25.2126486644593
20
-0.120258047328804
30
0
0
SPLINE
5
FD
100
AcDbEntity
8
1
62
256
6
ByLayer
370
18
48
1
60
0
100
AcDbSpline
70
4
71
3
72
67
73
63
40
0
40
0
40
0
40
0
40
0.0454008913926953
40
0.0454008913926953
40
0.0908017827853916
40
0.0908017827853916
40
0.181603565570784
40
0.181603565570784
40
0.192953788418957
40
0.192953788418957
40
0.20430401126713
40
0.227004456963477
40
0.272405348356168
40
0.272405348356168
40
0.363207131141552
40
0.363207131141552
40
0.385907576837897
40
0.397257799686069
40
0.397257799686069
40
0.408608022534241
40
0.408608022534241
40
0.45400891392693
40
0.45400891392693
40
0.544810696712307
40
0.544810696712307
40
0.590211588104996
40
0.590211588104996
40
0.61291203380134
40
0.61291203380134
40
0.624262256649512
40
0.624262256649512
40
0.635612479497683
40
0.635612479497683
40
0.681013370890368
40
0.681013370890368
40
0.70371381658671
40
0.70371381658671
40
0.726414262283051
40
0.726414262283051
40
0.771815153675735
40
0.771815153675735
40
0.794515599372076
40
0.794515599372076
40
0.817216045068418
40
0.817216045068418
40
0.83991649076476
40
0.83991649076476
40
0.851266713612931
40
0.851266713612931
40
0.862616936461103
40
0.862616936461103
40
0.885317382157445
40
0.885317382157445
40
0.908017827853788
40
0.908017827853788
40
0.953418719246473
40
0.953418719246473
40
0.976119164942814
40
0.976119164942814
40
0.998819610639156
40
0.998819610639156
40
1
40
1
40
1
40
1
41
1
10
27.1675354607277
20
-3.43836048500722
30
0
41
1
10
26.9675568624734
20
-3.37584877672364
30
0
41
1
10
26.7686497291033
20
-3.30519184182037
30
0
41
1
10
26.3716727213759
20
-3.1491514749234
30
0
41
1
10
26.1736069890574
20
-3.06376086550205
30
0
41
1
10
25.5789930463199
20
-2.78748099277212
30
0
41
1
10
25.1821530624767
20
-2.57624475432098
30
0
41
1
10
24.73087129333
20
-2.31099133625702
30
0
41
1
10
24.6806119080106
20
-2.28110634560352
30
0
41
1
10
24.5802443980033
20
-2.22076525045833
30
0
41
1
10
24.4299052727691
20
-2.12939063998468
30
0
41
1
10
24.0804252570658
20
-1.91037627775287
30
0
41
1
10
23.7825416717168
20
-1.71346277985393
30
0
41
1
10
23.187502978491
20
-1.30936533505394
30
0
41
1
10
22.7918104760884
20
-1.02624324316116
30
0
41
1
10
22.2936091519071
20
-0.661177402494673
30
0
41
1
10
22.1438762396447
20
-0.550826470077794
30
0
41
1
10
21.9935917498988
20
-0.439402101114865
30
0
41
1
10
21.8932633399647
20
-0.36489971163715
30
0
41
1
10
21.8429933270333
20
-0.32751161074674
30
0
41
1
10
21.5921850067101
20
-0.140763709703407
30
0
41
1
10
21.3926680043685
20
0.0084632893748164
30
0
41
1
10
20.7959811459054
20
0.45365299496379
30
0
41
1
10
20.4006719069974
20
0.747140747905945
30
0
41
1
10
19.8057705889381
20
1.1747778481153
30
0
41
1
10
19.6071478298936
20
1.3152192389534
30
0
41
1
10
19.3079503249871
20
1.52168465995698
30
0
41
1
10
19.2080098746287
20
1.5898063309626
30
0
41
1
10
19.0576652841312
20
1.69080632509619
30
0
41
1
10
19.0074366571978
20
1.72430311670439
30
0
41
1
10
18.9070182514044
20
1.79075205855324
30
0
41
1
10
18.856872954308
20
1.82367578434085
30
0
41
1
10
18.6064602099449
20
1.98674571027692
30
0
41
1
10
18.4071575015388
20
2.112249388832
30
0
41
1
10
18.1092344181149
20
2.29215603570486
30
0
41
1
10
18.0101124529839
20
2.35071155949689
30
0
41
1
10
17.8119608825934
20
2.46501415935245
30
0
41
1
10
17.7129095718794
20
2.52079097676369
30
0
41
1
10
17.4157358672743
20
2.68379480425332
30
0
41
1
10
17.2176438105644
20
2.78665415235298
30
0
41
1
10
16.9200014515407
20
2.93112692327753
30
0
41
1
10
16.8207102589965
20
2.97761951042358
30
0
41
1
10
16.6217593798059
20
3.06731411382043
30
0
41
1
10
16.5220860594968
20
3.11055841566753
30
0
41
1
10
16.3222577582808
20
3.19366447268195
30
0
41
1
10
16.222110249673
20
3.23350389003619
30
0
41
1
10
16.0714563124277
20
3.29052685296327
30
0
41
1
10
16.0212597668081
20
3.30904303470877
30
0
41
1
10
15.9210669458644
20
3.34501672790503
30
0
41
1
10
15.8710439927255
20
3.36248437093056
30
0
41
1
10
15.7211769687918
20
3.41330989792022
30
0
41
1
10
15.6215506088046
20
3.44505530873707
30
0
41
1
10
15.4225982119523
20
3.50451494552428
30
0
41
1
10
15.3232462878742
20
3.53229055170419
30
0
41
1
10
15.0254672362417
20
3.60960220733148
30
0
41
1
10
14.827388608618
20
3.65297342358022
30
0
41
1
10
14.5303656483104
20
3.70505212671651
30
0
41
1
10
14.43138105215
20
3.72021430644494
30
0
41
1
10
14.2332595382255
20
3.7463188939941
30
0
41
1
10
14.1341086999223
20
3.75731539576165
30
0
41
1
10
14.0296525620639
20
3.76669173159993
30
0
41
1
10
14.024489104094
20
3.76714949468152
30
0
41
1
10
14.0193252723262
20
3.76760155063175
30
0
0
SPLINE
5
FE
100
AcDbEntity
8
1
62
256
6
ByLayer
370
18
48
1
60
0
100
AcDbSpline
70
4
71
5
72
27
73
21
40
0
40
0
40
0
40
0
40
0
40
0
40
0.175286319368471
40
0.219107899210589
40
0.284840268973766
40
0.328661848815884
40
0.39439421857906
40
0.438215798421178
40
0.503948168184355
40
0.569680537947531
40
0.613502117789649
40
0.679234487552826
40
0.723056067394944
40
0.78878843715812
40
0.832610017000238
40
0.898342386763415
40
0.964074756526591
40
1
40
1
40
1
40
1
40
1
40
1
41
1
10
7.29894213871393
20
0.758680065051777
30
0
41
1
10
7.52058884619987
20
0.66298551363559
30
0
41
1
10
7.79764723055735
20
0.541110436303626
30
0
41
1
10
8.157823130222
20
0.37977629284444
30
0
41
1
10
8.57341070675818
20
0.190777098474143
30
0
41
1
10
9.07211579860154
20
-0.0372165278031957
30
0
41
1
10
9.40458585983049
20
-0.189083860333739
30
0
41
1
10
9.76476175949514
20
-0.352652539595738
30
0
41
1
10
10.1249376591598
20
-0.514557402505147
30
0
41
1
10
10.4851135588245
20
-0.673749678134584
30
0
41
1
10
10.8452894584892
20
-0.829685520978956
30
0
41
1
10
11.2054653581538
20
-0.981191101690655
30
0
41
1
10
11.5656412578185
20
-1.12791852283201
30
0
41
1
10
11.8981113190474
20
-1.25836107604962
30
0
41
1
10
12.2582872187121
20
-1.39355903979265
30
0
41
1
10
12.6184631183768
20
-1.52205571958382
30
0
41
1
10
12.9686542287913
20
-1.63914225638533
30
0
41
1
10
13.2357278238986
20
-1.72276402124939
30
0
41
1
10
13.4473897421344
20
-1.78523485039281
30
0
41
1
10
13.575934145063
20
-1.82172261468531
30
0
41
1
10
13.6213610326843
20
-1.83443381137573
30
0
0
SPLINE
5
FF
100
AcDbEntity
8
1
62
256
6
ByLayer
370
18
48
1
60
0
100
AcDbSpline
70
4
71
3
72
8
73
4
40
0
40
0
40
0
40
0
40
1
40
1
40
1
40
1
41
1
10
7.76055465934198
20
-1.84127220447178
30
0
41
1
10
7.86126234737699
20
-1.85231214874616
30
0
41
1
10
7.96375596224541
20
-1.86271933710043
30
0
41
1
10
8.06786182704204
20
-1.87264185613216
30
0
0
SPLINE
5
100
100
AcDbEntity
8
1
62
256
6
ByLayer
370
18
48
1
60
0
100
AcDbSpline
70
4
71
3
72
58
73
54
40
0
40
0
40
0
40
0
40
0.0023278977694642
40
0.0023278977694642
40
0.0208033070700281
40
0.0208033070700281
40
0.0392787163705921
40
0.0392787163705921
40
0.0762295349717219
40
0.0762295349717219
40
0.113180353572851
40
0.113180353572851
40
0.187081990775111
40
0.187081990775111
40
0.224032809376241
40
0.224032809376241
40
0.26098362797737
40
0.26098362797737
40
0.2979344465785
40
0.2979344465785
40
0.33488526517963
40
0.33488526517963
40
0.353360674480194
40
0.353360674480194
40
0.371836083780759
40
0.371836083780759
40
0.40878690238189
40
0.40878690238189
40
0.445737720983022
40
0.445737720983022
40
0.482688539584153
40
0.482688539584153
40
0.556590176786415
40
0.556590176786415
40
0.593540995387547
40
0.593540995387547
40
0.630491813988679
40
0.630491813988679
40
0.704393451190944
40
0.704393451190944
40
0.72286886049151
40
0.72286886049151
40
0.741344269792076
40
0.741344269792076
40
0.778295088393208
40
0.778295088393208
40
0.852196725595472
40
0.852196725595472
40
0.889147544196604
40
0.889147544196604
40
0.926098362797736
40
0.926098362797736
40
1
40
1
40
1
40
1
41
1
10
16.1406532358142
20
-3.26431262509905
30
0
41
1
10
16.1343280567149
20
-3.26672203772844
30
0
41
1
10
16.1280017465385
20
-3.26912423812337
30
0
41
1
10
16.0714563124277
20
-3.29052685296338
30
0
41
1
10
16.021259766808
20
-3.30904303470888
30
0
41
1
10
15.9210669458644
20
-3.34501672790515
30
0
41
1
10
15.8710439927255
20
-3.36248437093067
30
0
41
1
10
15.7211769687917
20
-3.41330989792033
30
0
41
1
10
15.6215506088046
20
-3.44505530873718
30
0
41
1
10
15.4225982119523
20
-3.50451494552439
30
0
41
1
10
15.3232462878742
20
-3.53229055170428
30
0
41
1
10
15.0254672362417
20
-3.60960220733159
30
0
41
1
10
14.8273886086179
20
-3.65297342358031
30
0
41
1
10
14.5303656483103
20
-3.70505212671662
30
0
41
1
10
14.43138105215
20
-3.72021430644506
30
0
41
1
10
14.2332595382255
20
-3.74631889399419
30
0
41
1
10
14.1341086999223
20
-3.75731539576174
30
0
41
1
10
13.9355226053048
20
-3.77514115453596
30
0
41
1
10
13.8360936699677
20
-3.78194837718442
30
0
41
1
10
13.6368732993117
20
-3.79115574613323
30
0
41
1
10
13.5370844370616
20
-3.79353855647227
30
0
41
1
10
13.3870265685467
20
-3.79375918428787
30
0
41
1
10
13.3369444243139
20
-3.79327617858621
30
0
41
1
10
13.2366362774686
20
-3.79119800226198
30
0
41
1
10
13.186386462142
20
-3.78960030976836
30
0
41
1
10
13.0359799207453
20
-3.78316794808558
30
0
41
1
10
12.9359802060808
20
-3.77669629091085
30
0
41
1
10
12.7363799393876
20
-3.75951735658953
30
0
41
1
10
12.636775346099
20
-3.74882381983153
30
0
41
1
10
12.4378959901578
20
-3.72313126094784
30
0
41
1
10
12.3386315862009
20
-3.7080993380938
30
0
41
1
10
12.0411452494246
20
-3.65661181224266
30
0
41
1
10
11.8432056227556
20
-3.61383026233031
30
0
41
1
10
11.5460422178614
20
-3.53772916666847
30
0
41
1
10
11.4469459728787
20
-3.51037963595053
30
0
41
1
10
11.2485925843151
20
-3.45159562129183
30
0
41
1
10
11.1493416129875
20
-3.42013025419334
30
0
41
1
10
10.8511543592945
20
-3.31965204626633
30
0
41
1
10
10.6517691340707
20
-3.24462123766992
30
0
41
1
10
10.4011178411907
20
-3.14127203163204
30
0
41
1
10
10.3508662701363
20
-3.12010086720105
30
0
41
1
10
10.2505048404122
20
-3.07691999572279
30
0
41
1
10
10.2003991986911
20
-3.05491146949402
30
0
41
1
10
10.050297039618
20
-2.98762690261364
30
0
41
1
10
9.95052297009991
20
-2.94107234528269
30
0
41
1
10
9.6518411723126
20
-2.79664661489005
30
0
41
1
10
9.45355185366932
20
-2.69406476069545
30
0
41
1
10
9.15653730586104
20
-2.53186655051542
30
0
41
1
10
9.05760372271774
20
-2.47641291621824
30
0
41
1
10
8.85980936776267
20
-2.36271393973544
30
0
41
1
10
8.76095436917129
20
-2.30444809414803
30
0
41
1
10
8.46429021654069
20
-2.12571584755361
30
0
41
1
10
8.26636725719786
20
-2.00136248500627
30
0
41
1
10
8.06778195582098
20
-1.87245658672489
30
0
0
SPLINE
5
101
100
AcDbEntity
8
1
62
256
6
ByLayer
370
18
48
1
60
0
100
AcDbSpline
70
4
71
3
72
105
73
101
40
0
40
0
40
0
40
0
40
0.0075738497517127
40
0.0151576388172329
40
0.0227518142918163
40
0.0303568212217609
40
0.0379731025417398
40
0.045601099013879
40
0.0532412491685995
40
0.0608939892472566
40
0.068559753146528
40
0.0762389723646014
40
0.0839320759492811
40
0.0916394904478932
40
0.099361639859081
40
0.107098945586485
40
0.114851826394264
40
0.122620698364633
40
0.130405974857202
40
0.13820806647019
40
0.1460273810036
40
0.153864323424359
40
0.161719295833146
40
0.169592697433229
40
0.177484924501197
40
0.185396370359362
40
0.193327425350299
40
0.20127847681283
40
0.209249909060079
40
0.217242103359187
40
0.225255437912774
40
0.233290287842169
40
0.241347025172294
40
0.249426018818182
40
0.257527634573217
40
0.265652235098919
40
0.273800179916307
40
0.281971825398825
40
0.290167524766722
40
0.298387628082981
40
0.306632482250614
40
0.314902431011413
40
0.323197814945971
40
0.331518971475107
40
0.33986623486261
40
0.348239936219104
40
0.356640403507241
40
0.365067961548042
40
0.373522932028247
40
0.382005633509011
40
0.390516381435389
40
0.399055488147038
40
0.407623262889753
40
0.416220011828094
40
0.424846038058752
40
0.433501641624911
40
0.442187119531391
40
0.450902765760551
40
0.459648871289002
40
0.468425724105075
40
0.478131506506042
40
0.488017227862014
40
0.498083345478281
40
0.50833029220529
40
0.518758478031314
40
0.529368291546488
40
0.54016010129019
40
0.551134256991753
40
0.562291090714419
40
0.573630917910593
40
0.585154038396512
40
0.596860737252882
40
0.608751285658005
40
0.620825941659022
40
0.633084950886352
40
0.645528547216174
40
0.658156953384991
40
0.670970381560259
40
0.683969033870699
40
0.697153102899238
40
0.710522772141728
40
0.724078216434016
40
0.737819602349859
40
0.751747088571857
40
0.765860826237487
40
0.780160959262141
40
0.794647624640866
40
0.809320952730408
40
0.824181067513017
40
0.839228086843312
40
0.85446212267963
40
0.869883281300774
40
0.885491663509351
40
0.901287364822737
40
0.917270475652456
40
0.933441081472959
40
0.949799262980458
40
0.966345096242702
40
0.983078652840242
40
1
40
1
40
1
40
1
41
1
10
4.2446411697521
20
0.825714958370611
30
0
41
1
10
4.25201280351993
20
0.82149586385583
30
0
41
1
10
4.26676574499737
20
0.813052138024545
30
0
41
1
10
4.28892284198389
20
0.800566643912589
30
0
41
1
10
4.31111975390138
20
0.788205390397877
30
0
41
1
10
4.33335883747938
20
0.775983886065291
30
0
41
1
10
4.35564130097958
20
0.763900672684883
30
0
41
1
10
4.37796866664709
20
0.751958878136207
30
0
41
1
10
4.40034237747196
20
0.740160428806888
30
0
41
1
10
4.42276390223216
20
0.728507603500418
30
0
41
1
10
4.44523470671388
20
0.717002615811509
30
0
41
1
10
4.46775626086051
20
0.705647725975979
30
0
41
1
10
4.49033003625951
20
0.694445210496156
30
0
41
1
10
4.51295750621264
20
0.683397369955628
30
0
41
1
10
4.5356401450999
20
0.672506526560909
30
0
41
1
10
4.55837942792081
20
0.661775024428664
30
0
41
1
10
4.58117682977598
20
0.651205229120592
30
0
41
1
10
4.60403382535151
20
0.640799527365402
30
0
41
1
10
4.62695188839075
20
0.630560326714971
30
0
41
1
10
4.64993249115594
20
0.620490055202964
30
0
41
1
10
4.67297710387987
20
0.610591160986587
30
0
41
1
10
4.69608719420793
20
0.60086611197616
30
0
41
1
10
4.71926422662858
20
0.591317395452222
30
0
41
1
10
4.74250966189439
20
0.58194751766851
30
0
41
1
10
4.76582495643248
20
0.572759003441178
30
0
41
1
10
4.78921156174377
20
0.563754395725397
30
0
41
1
10
4.81267092379269
20
0.554936255175505
30
0
41
1
10
4.83620448238545
20
0.546307159693441
30
0
41
1
10
4.85981367053759
20
0.537869703960524
30
0
41
1
10
4.88349991383137
20
0.529626498955139
30
0
41
1
10
4.90726462976184
20
0.521580171455298
30
0
41
1
10
4.93110922707214
20
0.513733363525716
30
0
41
1
10
4.95503510507814
20
0.506088731988996
30
0
41
1
10
4.97904365298191
20
0.498648947881605
30
0
41
1
10
5.00313624917422
20
0.491416695892895
30
0
41
1
10
5.02731426052642
20
0.484394673788529
30
0
41
1
10
5.05157904167089
20
0.477585591816649
30
0
41
1
10
5.07593193427078
20
0.470992172097709
30
0
41
1
10
5.10037426627844
20
0.464617147997132
30
0
41
1
10
5.12490735118337
20
0.45846326348024
30
0
41
1
10
5.14953248724825
20
0.452533272450438
30
0
41
1
10
5.17425095673525
20
0.446829938068589
30
0
41
1
10
5.19906402511964
20
0.441356032055665
30
0
41
1
10
5.22397294029426
20
0.436114333976292
30
0
41
1
10
5.24897893176166
20
0.431107630503675
30
0
41
1
10
5.2740832098157
20
0.426338714667082
30
0
41
1
10
5.29928696471293
20
0.421810385079283
30
0
41
1
10
5.32459136583228
20
0.417525445144804
30
0
41
1
10
5.34999756082317
20
0.413486702252499
30
0
41
1
10
5.37550667474886
20
0.409696966936195
30
0
41
1
10
5.40111980919716
20
0.40615905205712
30
0
41
1
10
5.42683804146026
20
0.402875771818799
30
0
41
1
10
5.45266242340779
20
0.399849941309469
30
0
41
1
10
5.47859398145971
20
0.39708437397482
30
0
41
1
10
5.50463371238473
20
0.394581886754992
30
0
41
1
10
5.5307825947074
20
0.392345276378052
30
0
41
1
10
5.55704154151741
20
0.390377403753376
30
0
41
1
10
5.58341157305205
20
0.388680872742015
30
0
41
1
10
5.60989316474874
20
0.387259230532266
30
0
41
1
10
5.63739561162851
20
0.386073353824742
30
0
41
1
10
5.66606606375407
20
0.385167622363099
30
0
41
1
10
5.69605550042027
20
0.384590111466622
30
0
41
1
10
5.72661418811663
20
0.384374029151786
30
0
41
1
10
5.7577475864222
20
0.384532830393681
30
0
41
1
10
5.78946170756743
20
0.385079029866659
30
0
41
1
10
5.82176232481962
20
0.386025597695777
30
0
41
1
10
5.85465517324371
20
0.387385561814625
30
0
41
1
10
5.88814587685403
20
0.389172103202697
30
0
41
1
10
5.9222399505137
20
0.391398514870815
30
0
41
1
10
5.9569427807613
20
0.394078197626811
30
0
41
1
10
5.99225961191004
20
0.397224645024664
30
0
41
1
10
6.02819553017829
20
0.400851430563762
30
0
41
1
10
6.06475544784092
20
0.404972193529659
30
0
41
1
10
6.10194408685723
20
0.409600624449922
30
0
41
1
10
6.1397659621268
20
0.414750449882263
30
0
41
1
10
6.17822536433582
20
0.420435416595268
30
0
41
1
10
6.21732634240746
20
0.426669275110697
30
0
41
1
10
6.25707268555931
20
0.433465762601088
30
0
41
1
10
6.29746790497373
20
0.440838585128375
30
0
41
1
10
6.33851521508689
20
0.448801399217444
30
0
41
1
10
6.38021751450503
20
0.457367792750461
30
0
41
1
10
6.42257736655631
20
0.466551265177088
30
0
41
1
10
6.46559697948734
20
0.476365207029488
30
0
41
1
10
6.50927818631797
20
0.486822878736604
30
0
41
1
10
6.55362242436226
20
0.497937388731344
30
0
41
1
10
6.59863071443462
20
0.509721670846858
30
0
41
1
10
6.6443036397512
20
0.52218846098566
30
0
41
1
10
6.69064132454741
20
0.535350273111874
30
0
41
1
10
6.73764341242236
20
0.549219374359183
30
0
41
1
10
6.78530904444955
20
0.563807760035587
30
0
41
1
10
6.83363683700404
20
0.5791271255585
30
0
41
1
10
6.88262485959473
20
0.595188846595931
30
0
41
1
10
6.93227061171552
20
0.612003924575617
30
0
41
1
10
6.98257100257911
20
0.629583060380043
30
0
41
1
10
7.03352231918353
20
0.647936237604881
30
0
41
1
10
7.08512023811249
20
0.667074165489055
30
0
41
1
10
7.13735967080081
20
0.687002655583228
30
0
41
1
10
7.19023524087695
20
0.707743827274157
30
0
41
1
10
7.24373936170591
20
0.729255454620926
30
0
41
1
10
7.27962578233726
20
0.744159929914304
30
0
41
1
10
7.29766911374011
20
0.751653750205435
30
0
0
SPLINE
5
102
100
AcDbEntity
8
1
62
256
6
ByLayer
370
18
48
1
60
0
100
AcDbSpline
70
4
71
3
72
36
73
32
40
0
40
0
40
0
40
0
40
0.0529548811650229
40
0.0529548811650229
40
0.105909762330047
40
0.105909762330047
40
0.158864643495071
40
0.158864643495071
40
0.211819524660095
40
0.264774405825119
40
0.317729286990143
40
0.370684168155167
40
0.423639049320191
40
0.476593930485215
40
0.529548811650239
40
0.582503692815263
40
0.582503692815263
40
0.635458573980287
40
0.635458573980287
40
0.688413455145311
40
0.688413455145311
40
0.741368336310335
40
0.741368336310335
40
0.794323217475359
40
0.794323217475359
40
0.847278098640383
40
0.847278098640383
40
0.900232979805407
40
0.900232979805407
40
0.953187860970431
40
1
40
1
40
1
40
1
41
1
10
27.2132889944598
20
-0.0530663743206219
30
0
41
1
10
27.0178380271287
20
0.0996229362260124
30
0
41
1
10
26.8223870597976
20
0.252429798323078
30
0
41
1
10
26.4314851251351
20
0.556246709809329
30
0
41
1
10
26.236034157804
20
0.707255860866184
30
0
41
1
10
25.8451322231417
20
1.00546754153314
30
0
41
1
10
25.6496812558105
20
1.15266918950195
30
0
41
1
10
25.2587793211482
20
1.44130671710843
30
0
41
1
10
24.8678773864858
20
1.72417676949419
30
0
41
1
10
24.2815244844923
20
2.12553568384814
30
0
41
1
10
23.6951715824987
20
2.49860585722419
30
0
41
1
10
23.1088186805054
20
2.83842206201578
30
0
41
1
10
22.5224657785118
20
3.14046164598156
30
0
41
1
10
21.9361128765184
20
3.40070472769338
30
0
41
1
10
21.3497599745249
20
3.61568769822813
30
0
41
1
10
20.9588580398625
20
3.72692890257139
30
0
41
1
10
20.5679561052002
20
3.82138932519877
30
0
41
1
10
20.372505137869
20
3.86022905662009
30
0
41
1
10
19.9816032032068
20
3.92061108547381
30
0
41
1
10
19.7861522358756
20
3.94215320576845
30
0
41
1
10
19.3952503012133
20
3.96765319823004
30
0
41
1
10
19.1997993338821
20
3.97161099597884
30
0
41
1
10
18.8088973992199
20
3.96188955600917
30
0
41
1
10
18.6134464318887
20
3.94821034939298
30
0
41
1
10
18.2225444972263
20
3.90339684691997
30
0
41
1
10
18.0270935298952
20
3.87226268526874
30
0
41
1
10
17.636191595233
20
3.79295353255961
30
0
41
1
10
17.4407406279018
20
3.74477877576962
30
0
41
1
10
17.0498386932395
20
3.63202948919701
30
0
41
1
10
16.6816089819119
20
3.51037167305248
30
0
41
1
10
16.3133792705844
20
3.36113396850473
30
0
41
1
10
16.140600526588
20
3.28540591275842
30
0
0
SPLINE
5
103
100
AcDbEntity
8
1
62
256
6
ByLayer
370
18
48
1
60
0
100
AcDbSpline
70
4
71
3
72
55
73
51
40
0
40
0
40
0
40
0
40
0.0312499999999993
40
0.0312499999999993
40
0.0624999999999993
40
0.0624999999999993
40
0.0937499999999994
40
0.124999999999999
40
0.156249999999999
40
0.187499999999999
40
0.218749999999999
40
0.25
40
0.28125
40
0.3125
40
0.3125
40
0.34375
40
0.34375
40
0.375
40
0.375
40
0.40625
40
0.40625
40
0.4375
40
0.4375
40
0.46875
40
0.46875
40
0.5
40
0.5
40
0.53125
40
0.5625
40
0.59375
40
0.625
40
0.65625
40
0.6875
40
0.71875
40
0.75
40
0.75
40
0.78125
40
0.78125
40
0.8125
40
0.8125
40
0.84375
40
0.84375
40
0.875
40
0.875
40
0.90625
40
0.90625
40
0.9375
40
0.9375
40
0.96875
40
1
40
1
40
1
40
1
41
1
10
27.2132889944599
20
-3.96243051051764
30
0
41
1
10
27.0178380271288
20
-3.95381653469099
30
0
41
1
10
26.8223870597976
20
-3.93639368563592
30
0
41
1
10
26.4314851251352
20
-3.88416190665402
30
0
41
1
10
26.2360341578041
20
-3.84935313207529
30
0
41
1
10
25.8451322231417
20
-3.76281266740284
30
0
41
1
10
25.4542302884793
20
-3.65934944557134
30
0
41
1
10
24.8678773864858
20
-3.45545218926341
30
0
41
1
10
24.2815244844924
20
-3.20556599601719
30
0
41
1
10
23.6951715824988
20
-2.9130165988517
30
0
41
1
10
23.1088186805054
20
-2.58169754205616
30
0
41
1
10
22.5224657785119
20
-2.21601910852661
30
0
41
1
10
21.9361128765185
20
-1.82084668648022
30
0
41
1
10
21.5452109418561
20
-1.54124218075708
30
0
41
1
10
21.1543090071937
20
-1.25542030108088
30
0
41
1
10
20.9588580398626
20
-1.10940111823385
30
0
41
1
10
20.5679561052003
20
-0.813087921283966
30
0
41
1
10
20.3725051378691
20
-0.662794783933748
30
0
41
1
10
19.9816032032068
20
-0.359933918829626
30
0
41
1
10
19.7861522358757
20
-0.20736708694281
30
0
41
1
10
19.3952503012133
20
0.0980106525350095
30
0
41
1
10
19.1997993338821
20
0.250820657200137
30
0
41
1
10
18.8088973992199
20
0.554650978371228
30
0
41
1
10
18.6134464318888
20
0.705670396848973
30
0
41
1
10
18.2225444972264
20
1.00390960022116
30
0
41
1
10
18.0270935298953
20
1.15112850357482
30
0
41
1
10
17.6361915952329
20
1.43980730062538
30
0
41
1
10
17.2452896605706
20
1.72272619464482
30
0
41
1
10
16.6589367585771
20
2.12417565365058
30
0
41
1
10
16.0725838565837
20
2.49735598948035
30
0
41
1
10
15.4862309545902
20
2.83729759340946
30
0
41
1
10
14.8998780525968
20
3.13947824597847
30
0
41
1
10
14.3135251506033
20
3.39987548604503
30
0
41
1
10
13.7271722486099
20
3.61502365025004
30
0
41
1
10
13.3362703139477
20
3.72638087437852
30
0
41
1
10
12.9453683792854
20
3.82095949299114
30
0
41
1
10
12.7499174119542
20
3.85985940806287
30
0
41
1
10
12.3590154772919
20
3.92036317857276
30
0
41
1
10
12.1635645099608
20
3.94196685694661
30
0
41
1
10
11.7726625752985
20
3.96759051720781
30
0
41
1
10
11.5772116079673
20
3.97161042584597
30
0
41
1
10
11.1863096733051
20
3.96201293559491
30
0
41
1
10
10.9908587059739
20
3.9483955659486
30
0
41
1
10
10.5999567713116
20
3.90370464375138
30
0
41
1
10
10.4045058039805
20
3.87263122435849
30
0
41
1
10
10.0136038693182
20
3.79344165052305
30
0
41
1
10
9.81815290198708
20
3.7453257320025
30
0
41
1
10
9.42725096732482
20
3.63269143296245
30
0
41
1
10
9.03634903266246
20
3.50365533870791
30
0
41
1
10
8.64544709800023
20
3.34353189929428
30
0
41
1
10
8.44999613066915
20
3.25623117455936
30
0
0
SPLINE
5
104
100
AcDbEntity
8
1
62
256
6
ByLayer
370
18
48
1
60
0
100
AcDbSpline
70
4
71
3
72
39
73
35
40
0
40
0
40
0
40
0
40
0.0177832993098909
40
0.0177832993098909
40
0.0694789151356861
40
0.0694789151356861
40
0.121174530961481
40
0.121174530961481
40
0.172870146787276
40
0.172870146787276
40
0.224565762613072
40
0.224565762613072
40
0.276261378438867
40
0.327956994264662
40
0.379652610090457
40
0.431348225916253
40
0.483043841742048
40
0.534739457567843
40
0.586435073393638
40
0.586435073393638
40
0.638130689219434
40
0.638130689219434
40
0.689826305045229
40
0.689826305045229
40
0.741521920871024
40
0.741521920871024
40
0.793217536696819
40
0.793217536696819
40
0.844913152522614
40
0.844913152522614
40
0.89660876834841
40
0.89660876834841
40
0.948304384174205
40
1
40
1
40
1
40
1
41
1
10
19.7924067515105
20
-3.93862975391656
30
0
41
1
10
19.7251715905218
20
-3.94509077524307
30
0
41
1
10
19.6579364295331
20
-3.95051720145463
30
0
41
1
10
19.3952503012132
20
-3.96765319823018
30
0
41
1
10
19.1997993338821
20
-3.97161099597898
30
0
41
1
10
18.8088973992198
20
-3.96188955600928
30
0
41
1
10
18.6134464318886
20
-3.94821034939312
30
0
41
1
10
18.2225444972263
20
-3.90339684692009
30
0
41
1
10
18.0270935298952
20
-3.87226268526885
30
0
41
1
10
17.6361915952329
20
-3.79295353255972
30
0
41
1
10
17.4407406279017
20
-3.74477877576973
30
0
41
1
10
17.0498386932394
20
-3.6320294891971
30
0
41
1
10
16.6589367585773
20
-3.50288066770861
30
0
41
1
10
16.0725838565837
20
-3.26253748760041
30
0
41
1
10
15.4862309545903
20
-2.97877287107468
30
0
41
1
10
14.8998780525967
20
-2.65536344235696
30
0
41
1
10
14.3135251506032
20
-2.29661346568395
30
0
41
1
10
13.7271722486098
20
-1.9072975548055
30
0
41
1
10
13.3362703139476
20
-1.63083116302531
30
0
41
1
10
12.9453683792853
20
-1.34774219632723
30
0
41
1
10
12.7499174119541
20
-1.20288726258119
30
0
41
1
10
12.3590154772919
20
-0.90848266817278
30
0
41
1
10
12.1635645099607
20
-0.758933878428962
30
0
41
1
10
11.7726625752984
20
-0.457131903270778
30
0
41
1
10
11.5772116079673
20
-0.304879610677347
30
0
41
1
10
11.186309673305
20
0.0003030445303693
30
0
41
1
10
10.9908587059739
20
0.153232504666079
30
0
41
1
10
10.5999567713116
20
0.457734143989171
30
0
41
1
10
10.4045058039805
20
0.609305423074915
30
0
41
1
10
10.0136038693182
20
0.909073412662281
30
0
41
1
10
9.81815290198705
20
1.05726923724833
30
0
41
1
10
9.42725096732477
20
1.34831394226848
30
0
41
1
10
9.03634903266249
20
1.63400998205734
30
0
41
1
10
8.64544709800023
20
1.90520888375306
30
0
41
1
10
8.44999613066909
20
2.03628147002598
30
0
0
SPLINE
5
105
100
AcDbEntity
8
1
62
256
6
ByLayer
370
18
48
1
60
0
100
AcDbSpline
70
4
71
3
72
18
73
14
40
0
40
0
40
0
40
0
40
0.250000000000004
40
0.250000000000004
40
0.375000000000006
40
0.375000000000006
40
0.500000000000008
40
0.500000000000008
40
0.750000000000007
40
0.750000000000007
40
0.875000000000003
40
0.875000000000003
40
1
40
1
40
1
40
1
41
1
10
7.45091616759859
20
-2.74997882716931
30
0
41
1
10
7.46537178371162
20
-2.68041576015637
30
0
41
1
10
7.48488287333123
20
-2.60943261200177
30
0
41
1
10
7.51862176437331
20
-2.50051130034615
30
0
41
1
10
7.53063357339639
20
-2.46379782781108
30
0
41
1
10
7.55584898076245
20
-2.38951636851596
30
0
41
1
10
7.56906595597164
20
-2.35191385317967
30
0
41
1
10
7.61001273810513
20
-2.23803132451081
30
0
41
1
10
7.63897865644492
20
-2.16077381372713
30
0
41
1
10
7.68376096019836
20
-2.04265685753947
30
0
41
1
10
7.69891632256275
20
-2.00291323787792
30
0
41
1
10
7.7295416715717
20
-1.92264904478125
30
0
41
1
10
7.74502164296956
20
-1.88210268678773
30
0
41
1
10
7.76055465935482
20
-1.8412722044732
30
0
0
SPLINE
5
106
100
AcDbEntity
8
1
62
256
6
ByLayer
370
18
48
1
60
0
100
AcDbSpline
70
4
71
3
72
10
73
6
40
0
40
0
40
0
40
0
40
0.5
40
0.5
40
1
40
1
40
1
40
1
41
1
10
5.20672648674207
20
3.66533440132162
30
0
41
1
10
5.58075339752821
20
3.55327291642252
30
0
41
1
10
5.95478030831435
20
3.41128795109532
30
0
41
1
10
6.70283412988661
20
3.07434864275328
30
0
41
1
10
7.07686104067275
20
2.87940763839194
30
0
41
1
10
7.45088795145889
20
2.66271663925761
30
0
0
SPLINE
5
107
100
AcDbEntity
8
1
62
256
6
ByLayer
370
18
48
1
60
0
100
AcDbSpline
70
4
71
3
72
18
73
14
40
0
40
0
40
0
40
0
40
0.249999999999999
40
0.249999999999999
40
0.499999999999998
40
0.499999999999998
40
0.562499999999998
40
0.562499999999998
40
0.624999999999998
40
0.624999999999998
40
0.749999999999997
40
0.749999999999997
40
1
40
1
40
1
40
1
41
1
10
7.76055465934041
20
-1.84127220446322
30
0
41
1
10
7.46849654758037
20
-1.6391347563131
30
0
41
1
10
7.17774734998633
20
-1.4287902826616
30
0
41
1
10
6.59561528233689
20
-0.995715086058993
30
0
41
1
10
6.30424132283247
20
-0.77297357382389
30
0
41
1
10
5.93757423568707
20
-0.489225551382333
30
0
41
1
10
5.86411783544324
20
-0.43221001295521
30
0
41
1
10
5.71690485692369
20
-0.317709098259883
30
0
41
1
10
5.64307057539577
20
-0.260162993828516
30
0
41
1
10
5.42190544980906
20
-0.0875952443869608
30
0
41
1
10
5.27475600771518
20
0.0274759792823431
30
0
41
1
10
4.83355489048498
20
0.371958414359256
30
0
41
1
10
4.53975398258905
20
0.600644301728096
30
0
41
1
10
4.24459867572696
20
0.826192848380799
30
0
0
SPLINE
5
108
100
AcDbEntity
8
1
62
256
6
ByLayer
370
18
48
1
60
0
100
AcDbSpline
70
4
71
3
72
72
73
68
40
0
40
0
40
0
40
0
40
0.125000000000011
40
0.125000000000011
40
0.187500000000015
40
0.187500000000015
40
0.218750000000016
40
0.218750000000016
40
0.250000000000016
40
0.250000000000016
40
0.312500000000018
40
0.312500000000018
40
0.37500000000002
40
0.37500000000002
40
0.437500000000021
40
0.437500000000021
40
0.453125000000021
40
0.453125000000021
40
0.46875000000002
40
0.46875000000002
40
0.500000000000021
40
0.500000000000021
40
0.531250000000021
40
0.531250000000021
40
0.562500000000022
40
0.562500000000022
40
0.570312500000022
40
0.570312500000022
40
0.578125000000022
40
0.578125000000022
40
0.593750000000024
40
0.593750000000024
40
0.625000000000025
40
0.625000000000025
40
0.632812500000026
40
0.632812500000026
40
0.640625000000026
40
0.656250000000027
40
0.656250000000027
40
0.687500000000027
40
0.687500000000027
40
0.695312500000027
40
0.695312500000027
40
0.703125000000027
40
0.718750000000026
40
0.734375000000025
40
0.734375000000025
40
0.742187500000024
40
0.742187500000024
40
0.750000000000024
40
0.750000000000024
40
0.781250000000023
40
0.781250000000023
40
0.812500000000023
40
0.812500000000023
40
0.828125000000022
40
0.828125000000022
40
0.84375000000002
40
0.84375000000002
40
0.87500000000002
40
0.87500000000002
40
0.937500000000016
40
0.937500000000016
40
0.953125000000013
40
0.953125000000013
40
0.96875000000001
40
1
40
1
40
1
40
1
41
1
10
4.24479161605484
20
0.825628555728116
30
0
41
1
10
4.03987564543345
20
0.982748164142976
30
0
41
1
10
3.83908332514488
20
1.14160086900549
30
0
41
1
10
3.54433771703501
20
1.38198442948061
30
0
41
1
10
3.44717395769831
20
1.46247311002097
30
0
41
1
10
3.30323156529315
20
1.58380479157984
30
0
41
1
10
3.25553497599921
20
1.62436453957116
30
0
41
1
10
3.16086731332541
20
1.70564574635327
30
0
41
1
10
3.11401052420391
20
1.74626876169833
30
0
41
1
10
2.97497340957185
20
1.86810886618073
30
0
41
1
10
2.88431164701905
20
1.94929105589304
30
0
41
1
10
2.70787962361828
20
2.11181332209131
30
0
41
1
10
2.6220968083804
20
2.19314865682051
30
0
41
1
10
2.45685178352517
20
2.35646274785168
30
0
41
1
10
2.37735753885008
20
2.43842884159915
30
0
41
1
10
2.28358947815366
20
2.54188953787826
30
0
41
1
10
2.26512258393274
20
2.56263326761925
30
0
41
1
10
2.22906694650121
20
2.60396207811681
30
0
41
1
10
2.21144697715178
20
2.62458114274713
30
0
41
1
10
2.1599135452071
20
2.68631536128183
30
0
41
1
10
2.12731862193453
20
2.7273064551934
30
0
41
1
10
2.06635786992592
20
2.80904946919213
30
0
41
1
10
2.03798673709531
20
2.84980058159323
30
0
41
1
10
1.98648930966377
20
2.93119750042862
30
0
41
1
10
1.96335219542584
20
2.97184160265974
30
0
41
1
10
1.93868135878543
20
3.02271390019848
30
0
41
1
10
1.93396158332325
20
3.03289199728459
30
0
41
1
10
1.9249841217721
20
3.05326015388158
30
0
41
1
10
1.92072334920073
20
3.06346057666153
30
0
41
1
10
1.90878219928064
20
3.09384086766593
30
0
41
1
10
1.90190663352979
20
3.1138748745702
30
0
41
1
10
1.88484231902962
20
3.17331915102193
30
0
41
1
10
1.87818755655351
20
3.21207164614523
30
0
41
1
10
1.8771376145628
20
3.25941780922872
30
0
41
1
10
1.87729519484213
20
3.26885703551005
30
0
41
1
10
1.87837620451373
20
3.28749230469961
30
0
41
1
10
1.88113794159071
20
3.31505257007777
30
0
41
1
10
1.8873571922488
20
3.34145380848509
30
0
41
1
10
1.90452539657855
20
3.39275773072424
30
0
41
1
10
1.92226730312146
20
3.42496327304062
30
0
41
1
10
1.95284586418779
20
3.46286310533586
30
0
41
1
10
1.95934998930864
20
3.47028276457178
30
0
41
1
10
1.97304378576766
20
3.48473988519382
30
0
41
1
10
1.99464416727304
20
3.50589064097051
30
0
41
1
10
2.03576439275383
20
3.53861552175084
30
0
41
1
10
2.07379921198225
20
3.56237315118952
30
0
41
1
10
2.10415155719906
20
3.57937071410478
30
0
41
1
10
2.11459669122544
20
3.58491105706753
30
0
41
1
10
2.13596122007044
20
3.59567143897144
30
0
41
1
10
2.14686603937616
20
3.6008857098733
30
0
41
1
10
2.20243627531917
20
3.62619293147492
30
0
41
1
10
2.25021679306119
20
3.64401633264779
30
0
41
1
10
2.35114918850792
20
3.67607296474165
30
0
41
1
10
2.40430913871225
20
3.69029812475404
30
0
41
1
10
2.48746148920742
20
3.70955142694467
30
0
41
1
10
2.51563612362676
20
3.71559149877285
30
0
41
1
10
2.57248841335402
20
3.72695721858216
30
0
41
1
10
2.60121761622577
20
3.7322946650051
30
0
41
1
10
2.68822439826079
20
3.74741303790009
30
0
41
1
10
2.74731716594721
20
3.75630637937957
30
0
41
1
10
2.92733046727218
20
3.78026142480527
30
0
41
1
10
3.05095728067443
20
3.79264347725521
30
0
41
1
10
3.20897720472158
20
3.80524387957857
30
0
41
1
10
3.24072860650412
20
3.80761328156996
30
0
41
1
10
3.30423696181285
20
3.81206203783461
30
0
41
1
10
3.39962755583471
20
3.81830883820859
30
0
41
1
10
3.49537671962514
20
3.82341156152316
30
0
41
1
10
3.55935153341727
20
3.82639328325749
30
0
0
SPLINE
5
109
100
AcDbEntity
8
1
62
256
6
ByLayer
370
18
48
1
60
0
100
AcDbSpline
70
4
71
3
72
11
73
7
40
0
40
0
40
0
40
0
40
0.311364723574491
40
0.498404070733743
40
0.686429093044275
40
1
40
1
40
1
40
1
41
1
10
12.1636016232054
20
-3.9390311191822
30
0
41
1
10
12.3574140423771
20
-3.92043287610878
30
0
41
1
10
12.6676433059601
20
-3.89097589469174
30
0
41
1
10
13.0948785021517
20
-3.85094826012542
30
0
41
1
10
13.5234978993809
20
-3.81161279790527
30
0
41
1
10
13.8357078845716
20
-3.78372359029319
30
0
41
1
10
14.0308880830315
20
-3.7665906652318
30
0
0
SPLINE
5
10A
100
AcDbEntity
8
1
62
256
6
ByLayer
370
18
48
1
60
0
100
AcDbSpline
70
4
71
3
72
11
73
7
40
0
40
0
40
0
40
0
40
0.311061487525069
40
0.498058207803509
40
0.686149888350321
40
1
40
1
40
1
40
1
41
1
10
19.7881002887544
20
-3.93913599912295
30
0
41
1
10
19.98162883942
20
-3.92064254632191
30
0
41
1
10
20.2914861114807
20
-3.89129447978141
30
0
41
1
10
20.7183218187639
20
-3.85135466829183
30
0
41
1
10
21.1468961054704
20
-3.81186870289776
30
0
41
1
10
21.459165418093
20
-3.78403753654067
30
0
41
1
10
21.6544252491875
20
-3.76696605448183
30
0
0
SPLINE
5
10B
100
AcDbEntity
8
1
62
256
6
ByLayer
370
18
48
1
60
0
100
AcDbSpline
70
4
71
3
72
11
73
7
40
0
40
0
40
0
40
0
40
0.313850111649674
40
0.501941792196495
40
0.68893851247493
40
1
40
1
40
1
40
1
41
1
10
21.6544252491874
20
3.76696605448169
30
0
41
1
10
21.4591654180929
20
3.78403753654055
30
0
41
1
10
21.1468961054704
20
3.81186870289761
30
0
41
1
10
20.7183218187638
20
3.85135466829169
30
0
41
1
10
20.2914861114807
20
3.89129447978127
30
0
41
1
10
19.98162883942
20
3.92064254632177
30
0
41
1
10
19.7881002887544
20
3.93913599912281
30
0
0
SPLINE
5
10C
100
AcDbEntity
8
1
62
256
6
ByLayer
370
18
48
1
60
0
100
AcDbSpline
70
4
71
3
72
11
73
7
40
0
40
0
40
0
40
0
40
0.313570906955715
40
0.501595929266254
40
0.688635276425501
40
1
40
1
40
1
40
1
41
1
10
14.0308880830316
20
3.76659066523172
30
0
41
1
10
13.8357078845716
20
3.78372359029311
30
0
41
1
10
13.523497899381
20
3.81161279790518
30
0
41
1
10
13.0948785021517
20
3.85094826012533
30
0
41
1
10
12.6676433059601
20
3.89097589469165
30
0
41
1
10
12.3574140423771
20
3.92043287610872
30
0
41
1
10
12.1636016232054
20
3.93903111918212
30
0
0
LINE
5
77
100
AcDbEntity
8
4
62
256
6
ByLayer
370
18
48
0.05
60
0
100
AcDbLine
10
0
20
0
30
0
11
27.5
21
0
31
0
39
0
210
0
220
0
230
1
0
LINE
5
79
100
AcDbEntity
8
81
62
256
6
ByLayer
370
18
48
1
60
0
100
AcDbLine
10
27.5
20
0
30
0
11
32.5
21
0
31
0
39
0
210
0
220
0
230
1
0
LINE
5
7A
100
AcDbEntity
8
SK4
62
256
6
ByLayer
370
18
48
0.05
60
0
100
AcDbLine
10
-36
20
0
30
0
11
27.5
21
0
31
0
39
0
210
0
220
0
230
1
0
LINE
5
7C
100
AcDbEntity
8
80
62
256
6
ByLayer
370
18
48
1
60
0
100
AcDbLine
10
0
20
0
30
0
11
-5
21
0
31
0
39
0
210
0
220
0
230
1
0
LINE
5
7D
100
AcDbEntity
8
1
62
256
6
ByLayer
370
18
48
1
60
0
100
AcDbLine
10
0
20
3.96875
30
0
11
0
21
0
31
0
39
0
210
0
220
0
230
1
0
LINE
5
7E
100
AcDbEntity
8
1
62
256
6
ByLayer
370
18
48
1
60
0
100
AcDbLine
10
0
20
0
30
0
11
0
21
-3.96875
31
0
39
0
210
0
220
0
230
1
0
LINE
5
7F
100
AcDbEntity
8
1
62
256
6
ByLayer
370
18
48
1
60
0
100
AcDbLine
10
27.403262
20
-0.609512
30
0
11
27.380727
21
-0.686419
31
0
39
0
210
0
220
0
230
1
0
LINE
5
80
100
AcDbEntity
8
1
62
256
6
ByLayer
370
18
48
1
60
0
100
AcDbLine
10
27.468317
20
0.103369
30
0
11
27.49519
21
0.105691
31
0
39
0
210
0
220
0
230
1
0
LINE
5
81
100
AcDbEntity
8
1
62
256
6
ByLayer
370
18
48
1
60
0
100
AcDbLine
10
27.49519
20
0.105691
30
0
11
27.481605
21
-3E-06
31
0
39
0
210
0
220
0
230
1
0
LINE
5
82
100
AcDbEntity
8
1
62
256
6
ByLayer
370
18
48
1
60
0
100
AcDbLine
10
27.468318
20
-0.103372
30
0
11
27.403262
21
-0.609512
31
0
39
0
210
0
220
0
230
1
0
LINE
5
83
100
AcDbEntity
8
1
62
256
6
ByLayer
370
18
48
1
60
0
100
AcDbLine
10
27.403262
20
-0.609512
30
0
11
27.319477
21
-0.60103
31
0
39
0
210
0
220
0
230
1
0
LINE
5
84
100
AcDbEntity
8
1
62
256
6
ByLayer
370
18
48
1
60
0
100
AcDbLine
10
27.319044
20
-0.592985
30
0
11
27.365193
21
-0.092878
31
0
39
0
210
0
220
0
230
1
0
LINE
5
85
100
AcDbEntity
8
1
62
256
6
ByLayer
370
18
48
1
60
0
100
AcDbLine
10
27.414948
20
3.949554
30
0
11
27.49519
21
3.870654
31
0
39
0
210
0
220
0
230
1
0
LINE
5
86
100
AcDbEntity
8
1
62
256
6
ByLayer
370
18
48
1
60
0
100
AcDbLine
10
27.332283
20
0.839335
30
0
11
27.49519
21
3.870654
31
0
39
0
210
0
220
0
230
1
0
LINE
5
87
100
AcDbEntity
8
1
62
256
6
ByLayer
370
13
48
1
60
0
100
AcDbLine
10
25.770592
20
2.383932
30
0
11
25.869841
21
2.210973
31
0
39
0
210
0
220
0
230
1
0
LINE
5
88
100
AcDbEntity
8
1
62
256
6
ByLayer
370
13
48
1
60
0
100
AcDbLine
10
27.172156
20
-0.058533
30
0
11
27.279374
21
-0.245378
31
0
39
0
210
0
220
0
230
1
0
LINE
5
89
100
AcDbEntity
8
1
62
256
6
ByLayer
370
18
48
1
60
0
100
AcDbLine
10
27.291464
20
-0.079788
30
0
11
27.49519
21
-3.870654
31
0
39
0
210
0
220
0
230
1
0
LINE
5
8A
100
AcDbEntity
8
1
62
256
6
ByLayer
370
18
48
1
60
0
100
AcDbLine
10
27.279374
20
-0.245378
30
0
11
27.270668
21
-0.076072
31
0
39
0
210
0
220
0
230
1
0
LINE
5
8B
100
AcDbEntity
8
1
62
256
6
ByLayer
370
18
48
1
60
0
100
AcDbLine
10
27.414948
20
-3.949554
30
0
11
27.49519
21
-3.870654
31
0
39
0
210
0
220
0
230
1
0
LINE
5
8C
100
AcDbEntity
8
1
62
256
6
ByLayer
370
18
48
1
60
0
100
AcDbLine
10
27.49519
20
-3.870654
30
0
11
27.403262
21
-3.741947
31
0
39
0
210
0
220
0
230
1
0
LINE
5
8D
100
AcDbEntity
8
1
62
256
6
ByLayer
370
18
48
1
60
0
100
AcDbLine
10
27.403262
20
-3.741947
30
0
11
27.380727
21
-3.741303
31
0
39
0
210
0
220
0
230
1
0
LINE
5
8E
100
AcDbEntity
8
1
62
256
6
ByLayer
370
18
48
1
60
0
100
AcDbLine
10
27.403262
20
-3.741947
30
0
11
27.270826
21
-1.222047
31
0
39
0
210
0
220
0
230
1
0
LINE
5
8F
100
AcDbEntity
8
1
62
256
6
ByLayer
370
18
48
1
60
0
100
AcDbLine
10
26.996179
20
-2.184853
30
0
11
27.270826
21
-1.222047
31
0
39
0
210
0
220
0
230
1
0
LINE
5
90
100
AcDbEntity
8
1
62
256
6
ByLayer
370
18
48
1
60
0
100
AcDbLine
10
27.270826
20
-1.222047
30
0
11
27.271207
21
-1.214716
31
0
39
0
210
0
220
0
230
1
0
LINE
5
91
100
AcDbEntity
8
1
62
256
6
ByLayer
370
13
48
1
60
0
100
AcDbLine
10
27.00263
20
-0.746188
30
0
11
25.258328
21
-0.413493
31
0
39
0
210
0
220
0
230
1
0
LINE
5
92
100
AcDbEntity
8
1
62
256
6
ByLayer
370
18
48
1
60
0
100
AcDbLine
10
25.804109
20
0.199974
30
0
11
26.988552
21
-0.025938
31
0
39
0
210
0
220
0
230
1
0
LINE
5
93
100
AcDbEntity
8
1
62
256
6
ByLayer
370
18
48
1
60
0
100
AcDbLine
10
27.382619
20
-0.095965
30
0
11
26.988552
21
-0.025938
31
0
39
0
210
0
220
0
230
1
0
LINE
5
94
100
AcDbEntity
8
1
62
256
6
ByLayer
370
18
48
1
60
0
100
AcDbLine
10
27.382619
20
-0.095965
30
0
11
27.49519
21
-0.105691
31
0
39
0
210
0
220
0
230
1
0
LINE
5
95
100
AcDbEntity
8
1
62
256
6
ByLayer
370
18
48
1
60
0
100
AcDbLine
10
27.414948
20
-0.090393
30
0
11
27.49519
21
-0.105691
31
0
39
0
210
0
220
0
230
1
0
LINE
5
96
100
AcDbEntity
8
1
62
256
6
ByLayer
370
18
48
1
60
0
100
AcDbLine
10
27.49519
20
-0.105691
30
0
11
27.403262
21
0.609512
31
0
39
0
210
0
220
0
230
1
0
LINE
5
97
100
AcDbEntity
8
1
62
256
6
ByLayer
370
18
48
1
60
0
100
AcDbLine
10
27.403262
20
0.609512
30
0
11
27.380727
21
0.686419
31
0
39
0
210
0
220
0
230
1
0
LINE
5
98
100
AcDbEntity
8
SK1
62
256
6
ByLayer
370
18
48
1
60
0
100
AcDbLine
10
0
20
3.96875
30
0
11
0
21
0
31
0
39
0
210
0
220
0
230
1
0
LINE
5
9A
100
AcDbEntity
8
SK1
62
256
6
ByLayer
370
18
48
1
60
0
100
AcDbLine
10
0
20
0
30
0
11
0
21
-3.96875
31
0
39
0
210
0
220
0
230
1
0
LINE
5
9B
100
AcDbEntity
8
SK1
62
256
6
ByLayer
370
18
48
1
60
0
100
AcDbLine
10
-21.25
20
2.93125
30
0
11
-22.2875
21
3.96875
31
0
39
0
210
0
220
0
230
1
0
LINE
5
9C
100
AcDbEntity
8
SK1
62
256
6
ByLayer
370
18
48
1
60
0
100
AcDbLine
10
-15.75
20
2.93125
30
0
11
-14.7125
21
3.96875
31
0
39
0
210
0
220
0
230
1
0
LINE
5
9D
100
AcDbEntity
8
SK1
62
256
6
ByLayer
370
18
48
1
60
0
100
AcDbLine
10
-21.25
20
2.93125
30
0
11
-15.75
21
2.93125
31
0
39
0
210
0
220
0
230
1
0
LINE
5
9E
100
AcDbEntity
8
SK1
62
256
6
ByLayer
370
18
48
1
60
0
100
AcDbLine
10
-35.5
20
3.96875
30
0
11
-35.5
21
-3.96875
31
0
39
0
210
0
220
0
230
1
0
LINE
5
9F
100
AcDbEntity
8
SK1
62
256
6
ByLayer
370
18
48
1
60
0
100
AcDbLine
10
-36
20
-3.46875
30
0
11
-36
21
3.46875
31
0
39
0
210
0
220
0
230
1
0
LINE
5
A0
100
AcDbEntity
8
1
62
256
6
ByLayer
370
18
48
1
60
0
100
AcDbLine
10
4.955235
20
3.96875
30
0
11
0
21
3.96875
31
0
39
0
210
0
220
0
230
1
0
LINE
5
A1
100
AcDbEntity
8
1
62
256
6
ByLayer
370
18
48
1
60
0
100
AcDbLine
10
0
20
-3.96875
30
0
11
4.955235
21
-3.96875
31
0
39
0
210
0
220
0
230
1
0
LINE
5
A2
100
AcDbEntity
8
SK1
62
256
6
ByLayer
370
18
48
1
60
0
100
AcDbLine
10
0
20
3.96875
30
0
11
-14.7125
21
3.96875
31
0
39
0
210
0
220
0
230
1
0
LINE
5
A3
100
AcDbEntity
8
SK1
62
256
6
ByLayer
370
18
48
1
60
0
100
AcDbLine
10
-22.2875
20
3.96875
30
0
11
-35.5
21
3.96875
31
0
39
0
210
0
220
0
230
1
0
LINE
5
A4
100
AcDbEntity
8
SK1
62
256
6
ByLayer
370
18
48
1
60
0
100
AcDbLine
10
-35.5
20
-3.96875
30
0
11
0
21
-3.96875
31
0
39
0
210
0
220
0
230
1
0
LINE
5
A5
100
AcDbEntity
8
SK1
62
256
6
ByLayer
370
18
48
1
60
0
100
AcDbLine
10
-36
20
-3.46875
30
0
11
-35.5
21
-3.96875
31
0
39
0
210
0
220
0
230
1
0
LINE
5
A6
100
AcDbEntity
8
SK1
62
256
6
ByLayer
370
18
48
1
60
0
100
AcDbLine
10
-35.5
20
3.96875
30
0
11
-36
21
3.46875
31
0
39
0
210
0
220
0
230
1
0
LINE
5
A7
100
AcDbEntity
8
SK2
62
256
6
ByLayer
370
18
48
1
60
0
100
AcDbLine
10
-43.75
20
3.96875
30
0
11
-43.75
21
-27.301681
31
0
39
0
210
0
220
0
230
1
0
LINE
5
A9
100
AcDbEntity
8
SK2
62
256
6
ByLayer
370
18
48
1
60
0
100
AcDbLine
10
-37.0875
20
3.96875
30
0
11
-45.75
21
3.96875
31
0
39
0
210
0
220
0
230
1
0
LINE
5
AA
100
AcDbEntity
8
SK2
62
256
6
ByLayer
370
18
48
1
60
0
100
AcDbLine
10
-37.0875
20
-3.96875
30
0
11
-45.75
21
-3.96875
31
0
39
0
210
0
220
0
230
1
0
LINE
5
AB
100
AcDbEntity
8
1
62
256
6
ByLayer
370
18
48
1
60
1
100
AcDbLine
10
-43.75
20
3.96875
30
0
11
-43.289216
21
0.468752
31
0
39
0
210
0
220
0
230
1
0
LINE
5
AC
100
AcDbEntity
8
1
62
256
6
ByLayer
370
18
48
1
60
1
100
AcDbLine
10
-43.289216
20
0.468752
30
0
11
-44.210784
21
0.468748
31
0
39
0
210
0
220
0
230
1
0
LINE
5
AD
100
AcDbEntity
8
1
62
256
6
ByLayer
370
18
48
1
60
1
100
AcDbLine
10
-44.210784
20
0.468748
30
0
11
-43.75
21
3.96875
31
0
39
0
210
0
220
0
230
1
0
LINE
5
AE
100
AcDbEntity
8
1
62
256
6
ByLayer
370
18
48
1
60
1
100
AcDbLine
10
-43.75
20
-3.96875
30
0
11
-44.210784
21
-0.468752
31
0
39
0
210
0
220
0
230
1
0
LINE
5
AF
100
AcDbEntity
8
1
62
256
6
ByLayer
370
18
48
1
60
1
100
AcDbLine
10
-44.210784
20
-0.468752
30
0
11
-43.289216
21
-0.468748
31
0
39
0
210
0
220
0
230
1
0
LINE
5
B0
100
AcDbEntity
8
1
62
256
6
ByLayer
370
18
48
1
60
1
100
AcDbLine
10
-43.289216
20
-0.468748
30
0
11
-43.75
21
-3.96875
31
0
39
0
210
0
220
0
230
1
0
LINE
5
B1
100
AcDbEntity
8
2
62
256
6
ByLayer
370
18
48
1
60
0
100
AcDbLine
10
39.5
20
-3.96885
30
0
11
39.5
21
27.301781
31
0
39
0
210
0
220
0
230
1
0
LINE
5
B3
100
AcDbEntity
8
2
62
256
6
ByLayer
370
18
48
1
60
0
100
AcDbLine
10
29.0875
20
3.96885
30
0
11
41.5
21
3.96885
31
0
39
0
210
0
220
0
230
1
0
LINE
5
B4
100
AcDbEntity
8
2
62
256
6
ByLayer
370
18
48
1
60
0
100
AcDbLine
10
29.0875
20
-3.96885
30
0
11
41.5
21
-3.96885
31
0
39
0
210
0
220
0
230
1
0
LINE
5
B5
100
AcDbEntity
8
1
62
256
6
ByLayer
370
18
48
1
60
1
100
AcDbLine
10
39.5
20
3.96885
30
0
11
39.960784
21
0.468852
31
0
39
0
210
0
220
0
230
1
0
LINE
5
B6
100
AcDbEntity
8
1
62
256
6
ByLayer
370
18
48
1
60
1
100
AcDbLine
10
39.960784
20
0.468852
30
0
11
39.039216
21
0.468848
31
0
39
0
210
0
220
0
230
1
0
LINE
5
B7
100
AcDbEntity
8
1
62
256
6
ByLayer
370
18
48
1
60
1
100
AcDbLine
10
39.039216
20
0.468848
30
0
11
39.5
21
3.96885
31
0
39
0
210
0
220
0
230
1
0
LINE
5
B8
100
AcDbEntity
8
1
62
256
6
ByLayer
370
18
48
1
60
1
100
AcDbLine
10
39.5
20
-3.96885
30
0
11
39.039216
21
-0.468852
31
0
39
0
210
0
220
0
230
1
0
LINE
5
B9
100
AcDbEntity
8
1
62
256
6
ByLayer
370
18
48
1
60
1
100
AcDbLine
10
39.039216
20
-0.468852
30
0
11
39.960784
21
-0.468848
31
0
39
0
210
0
220
0
230
1
0
LINE
5
BA
100
AcDbEntity
8
1
62
256
6
ByLayer
370
18
48
1
60
1
100
AcDbLine
10
39.960784
20
-0.468848
30
0
11
39.5
21
-3.96885
31
0
39
0
210
0
220
0
230
1
0
LINE
5
BB
100
AcDbEntity
8
SK2
62
256
6
ByLayer
370
18
48
1
60
0
100
AcDbLine
10
27.5
20
-34.513882
30
0
11
-36
21
-34.513882
31
0
39
0
210
0
220
0
230
1
0
LINE
5
BC
100
AcDbEntity
8
SK2
62
256
6
ByLayer
370
18
48
1
60
0
100
AcDbLine
10
-36
20
-5.05625
30
0
11
-36
21
-36.513882
31
0
39
0
210
0
220
0
230
1
0
LINE
5
BD
100
AcDbEntity
8
SK2
62
256
6
ByLayer
370
18
48
1
60
0
100
AcDbLine
10
27.5
20
-5.55635
30
0
11
27.5
21
-36.513882
31
0
39
0
210
0
220
0
230
1
0
LINE
5
BE
100
AcDbEntity
8
1
62
256
6
ByLayer
370
18
48
1
60
1
100
AcDbLine
10
-36
20
-34.513882
30
0
11
-32.500002
21
-34.053098
31
0
39
0
210
0
220
0
230
1
0
LINE
5
BF
100
AcDbEntity
8
1
62
256
6
ByLayer
370
18
48
1
60
1
100
AcDbLine
10
-32.500002
20
-34.053098
30
0
11
-32.499998
21
-34.974665
31
0
39
0
210
0
220
0
230
1
0
LINE
5
C0
100
AcDbEntity
8
1
62
256
6
ByLayer
370
18
48
1
60
1
100
AcDbLine
10
-32.499998
20
-34.974665
30
0
11
-36
21
-34.513882
31
0
39
0
210
0
220
0
230
1
0
LINE
5
C1
100
AcDbEntity
8
1
62
256
6
ByLayer
370
18
48
1
60
1
100
AcDbLine
10
27.5
20
-34.513882
30
0
11
24.000002
21
-34.974665
31
0
39
0
210
0
220
0
230
1
0
LINE
5
C2
100
AcDbEntity
8
1
62
256
6
ByLayer
370
18
48
1
60
1
100
AcDbLine
10
24.000002
20
-34.974665
30
0
11
23.999998
21
-34.053098
31
0
39
0
210
0
220
0
230
1
0
LINE
5
C3
100
AcDbEntity
8
1
62
256
6
ByLayer
370
18
48
1
60
1
100
AcDbLine
10
23.999998
20
-34.053098
30
0
11
27.5
21
-34.513882
31
0
39
0
210
0
220
0
230
1
0
LINE
5
111
100
AcDbEntity
8
1
62
256
6
ByLayer
370
18
48
1
60
1
100
AcDbLine
10
-43.75
20
3.96875
30
0
11
-43.289216
21
0.468752
31
0
39
0
210
0
220
0
230
1
0
LINE
5
112
100
AcDbEntity
8
1
62
256
6
ByLayer
370
18
48
1
60
1
100
AcDbLine
10
-43.289216
20
0.468752
30
0
11
-44.210784
21
0.468748
31
0
39
0
210
0
220
0
230
1
0
LINE
5
113
100
AcDbEntity
8
1
62
256
6
ByLayer
370
18
48
1
60
1
100
AcDbLine
10
-44.210784
20
0.468748
30
0
11
-43.75
21
3.96875
31
0
39
0
210
0
220
0
230
1
0
LINE
5
115
100
AcDbEntity
8
1
62
256
6
ByLayer
370
18
48
1
60
1
100
AcDbLine
10
-43.75
20
-3.96875
30
0
11
-44.210784
21
-0.468752
31
0
39
0
210
0
220
0
230
1
0
LINE
5
116
100
AcDbEntity
8
1
62
256
6
ByLayer
370
18
48
1
60
1
100
AcDbLine
10
-44.210784
20
-0.468752
30
0
11
-43.289216
21
-0.468748
31
0
39
0
210
0
220
0
230
1
0
LINE
5
117
100
AcDbEntity
8
1
62
256
6
ByLayer
370
18
48
1
60
1
100
AcDbLine
10
-43.289216
20
-0.468748
30
0
11
-43.75
21
-3.96875
31
0
39
0
210
0
220
0
230
1
0
LINE
5
11B
100
AcDbEntity
8
1
62
256
6
ByLayer
370
18
48
1
60
1
100
AcDbLine
10
39.5
20
3.96885
30
0
11
39.960784
21
0.468852
31
0
39
0
210
0
220
0
230
1
0
LINE
5
11C
100
AcDbEntity
8
1
62
256
6
ByLayer
370
18
48
1
60
1
100
AcDbLine
10
39.960784
20
0.468852
30
0
11
39.039216
21
0.468848
31
0
39
0
210
0
220
0
230
1
0
LINE
5
11D
100
AcDbEntity
8
1
62
256
6
ByLayer
370
18
48
1
60
1
100
AcDbLine
10
39.039216
20
0.468848
30
0
11
39.5
21
3.96885
31
0
39
0
210
0
220
0
230
1
0
LINE
5
11F
100
AcDbEntity
8
1
62
256
6
ByLayer
370
18
48
1
60
1
100
AcDbLine
10
39.5
20
-3.96885
30
0
11
39.039216
21
-0.468852
31
0
39
0
210
0
220
0
230
1
0
LINE
5
120
100
AcDbEntity
8
1
62
256
6
ByLayer
370
18
48
1
60
1
100
AcDbLine
10
39.039216
20
-0.468852
30
0
11
39.960784
21
-0.468848
31
0
39
0
210
0
220
0
230
1
0
LINE
5
121
100
AcDbEntity
8
1
62
256
6
ByLayer
370
18
48
1
60
1
100
AcDbLine
10
39.960784
20
-0.468848
30
0
11
39.5
21
-3.96885
31
0
39
0
210
0
220
0
230
1
0
LINE
5
124
100
AcDbEntity
8
1
62
256
6
ByLayer
370
18
48
1
60
1
100
AcDbLine
10
-36
20
-34.513882
30
0
11
-32.500002
21
-34.053098
31
0
39
0
210
0
220
0
230
1
0
LINE
5
125
100
AcDbEntity
8
1
62
256
6
ByLayer
370
18
48
1
60
1
100
AcDbLine
10
-32.500002
20
-34.053098
30
0
11
-32.499998
21
-34.974665
31
0
39
0
210
0
220
0
230
1
0
LINE
5
126
100
AcDbEntity
8
1
62
256
6
ByLayer
370
18
48
1
60
1
100
AcDbLine
10
-32.499998
20
-34.974665
30
0
11
-36
21
-34.513882
31
0
39
0
210
0
220
0
230
1
0
LINE
5
128
100
AcDbEntity
8
1
62
256
6
ByLayer
370
18
48
1
60
1
100
AcDbLine
10
27.5
20
-34.513882
30
0
11
24.000002
21
-34.974665
31
0
39
0
210
0
220
0
230
1
0
LINE
5
129
100
AcDbEntity
8
1
62
256
6
ByLayer
370
18
48
1
60
1
100
AcDbLine
10
24.000002
20
-34.974665
30
0
11
23.999998
21
-34.053098
31
0
39
0
210
0
220
0
230
1
0
LINE
5
12A
100
AcDbEntity
8
1
62
256
6
ByLayer
370
18
48
1
60
1
100
AcDbLine
10
23.999998
20
-34.053098
30
0
11
27.5
21
-34.513882
31
0
39
0
210
0
220
0
230
1
0
MTEXT
5
10D
100
AcDbEntity
8
SK2
62
256
6
ByLayer
370
18
48
1
60
0
100
AcDbMText
10
-45.314634
20
-25.366838
30
0
210
0
220
0
230
1
1
%%c
40
3.5
41
0
44
1.084337
50
90
71
7
72
5
7
iso_b_vert
0
MTEXT
5
110
100
AcDbEntity
8
SK2
62
256
6
ByLayer
370
18
48
1
60
0
100
AcDbMText
10
-45.314634
20
-18.394181
30
0
210
0
220
0
230
1
1
\W0.7528;7.94
40
3.5
41
0
44
1.084337
50
90
71
7
72
5
7
iso_b_vert
0
MTEXT
5
119
100
AcDbEntity
8
2
62
256
6
ByLayer
370
18
48
1
60
0
100
AcDbMText
10
37.935366
20
11.903694
30
0
210
0
220
0
230
1
1
%%c
40
3.5
41
0
44
1.084337
50
90
71
7
72
5
7
iso_b_vert
0
MTEXT
5
11A
100
AcDbEntity
8
2
62
256
6
ByLayer
370
18
48
1
60
0
100
AcDbMText
10
37.935366
20
18.87635
30
0
210
0
220
0
230
1
1
\W0.7528;7.94
40
3.5
41
0
44
1.084337
50
90
71
7
72
5
7
iso_b_vert
0
MTEXT
5
123
100
AcDbEntity
8
SK2
62
256
6
ByLayer
370
18
48
1
60
0
100
AcDbMText
10
-8.171699
20
-33.481248
30
0
210
0
220
0
230
1
1
\W0.7346;63.5
40
3.5
41
0
44
1.084337
50
0
71
7
72
5
7
iso_b_vert
0
MTEXT
5
12C
100
AcDbEntity
8
SK6
62
256
6
ByLayer
370
18
48
1
60
0
100
AcDbMText
10
-29.177603
20
-62.114886
30
0
210
0
220
0
230
1
1
\W0.7324;2P342-0794-PB       P2BM
40
3
41
0
44
1.084337
50
0
71
7
72
5
7
iso_b_vert
0
HATCH
5
114
100
AcDbEntity
8
SK2
62
256
6
ByLayer
370
13
48
1
60
0
100
AcDbHatch
10
0
20
0
30
0
210
0
220
0
230
1
2
ANSI31
70
0
71
0
91
1
92
5
93
3
72
1
10
-43.75
20
3.96874999999997
11
-43.2892162584472
21
0.468751692553155
72
1
10
-43.2892162584472
20
0.468751692553155
11
-44.2107837415528
21
0.468748307446788
72
1
10
-44.2107837415528
20
0.468748307446788
11
-43.75
21
3.96874999999997
97
0
75
0
76
1
52
0
41
0.0062
77
0
78
1
53
45
43
0
44
0
45
-0.0139193969876572
46
0.0139193969876572
79
0
47
0
98
1
10
0
20
0
0
HATCH
5
118
100
AcDbEntity
8
SK2
62
256
6
ByLayer
370
13
48
1
60
0
100
AcDbHatch
10
0
20
0
30
0
210
0
220
0
230
1
2
ANSI31
70
0
71
0
91
1
92
5
93
3
72
1
10
-43.75
20
-3.96875000000003
11
-44.2107837415528
21
-0.468751692553212
72
1
10
-44.2107837415528
20
-0.468751692553212
11
-43.2892162584472
21
-0.468748307446845
72
1
10
-43.2892162584472
20
-0.468748307446845
11
-43.75
21
-3.96875000000003
97
0
75
0
76
1
52
0
41
0.0062
77
0
78
1
53
45
43
0
44
0
45
-0.0139193969876572
46
0.0139193969876572
79
0
47
0
98
1
10
0
20
0
0
HATCH
5
11E
100
AcDbEntity
8
2
62
256
6
ByLayer
370
13
48
1
60
0
100
AcDbHatch
10
0
20
0
30
0
210
0
220
0
230
1
2
ANSI31
70
0
71
0
91
1
92
5
93
3
72
1
10
39.5
20
3.96884999999992
11
39.9607837415528
21
0.468851692553102
72
1
10
39.9607837415528
20
0.468851692553102
11
39.0392162584472
21
0.468848307446734
72
1
10
39.0392162584472
20
0.468848307446734
11
39.5
21
3.96884999999992
97
0
75
0
76
1
52
0
41
0.0062
77
0
78
1
53
45
43
0
44
0
45
-0.0139193969876572
46
0.0139193969876572
79
0
47
0
98
1
10
0
20
0
0
HATCH
5
122
100
AcDbEntity
8
2
62
256
6
ByLayer
370
13
48
1
60
0
100
AcDbHatch
10
0
20
0
30
0
210
0
220
0
230
1
2
ANSI31
70
0
71
0
91
1
92
5
93
3
72
1
10
39.5
20
-3.96885000000009
11
39.0392162584472
21
-0.468851692553272
72
1
10
39.0392162584472
20
-0.468851692553272
11
39.9607837415528
21
-0.468848307446905
72
1
10
39.9607837415528
20
-0.468848307446905
11
39.5
21
-3.96885000000009
97
0
75
0
76
1
52
0
41
0.0062
77
0
78
1
53
45
43
0
44
0
45
-0.0139193969876572
46
0.0139193969876572
79
0
47
0
98
1
10
0
20
0
0
HATCH
5
127
100
AcDbEntity
8
SK2
62
256
6
ByLayer
370
13
48
1
60
0
100
AcDbHatch
10
0
20
0
30
0
210
0
220
0
230
1
2
ANSI31
70
0
71
0
91
1
92
5
93
3
72
1
10
-36
20
-34.51388170916
11
-32.5000016925532
21
-34.0530979676072
72
1
10
-32.5000016925532
20
-34.0530979676072
11
-32.4999983074468
21
-34.9746654507127
72
1
10
-32.4999983074468
20
-34.9746654507127
11
-36
21
-34.51388170916
97
0
75
0
76
1
52
0
41
0.0062
77
0
78
1
53
45
43
0
44
0
45
-0.0139193969876572
46
0.0139193969876572
79
0
47
0
98
1
10
0
20
0
0
HATCH
5
12B
100
AcDbEntity
8
SK2
62
256
6
ByLayer
370
13
48
1
60
0
100
AcDbHatch
10
0
20
0
30
0
210
0
220
0
230
1
2
ANSI31
70
0
71
0
91
1
92
5
93
3
72
1
10
27.5
20
-34.51388170916
11
24.0000016925532
21
-34.9746654507127
72
1
10
24.0000016925532
20
-34.9746654507127
11
23.9999983074468
21
-34.0530979676072
72
1
10
23.9999983074468
20
-34.0530979676072
11
27.5
21
-34.51388170916
97
0
75
0
76
1
52
0
41
0.0062
77
0
78
1
53
45
43
0
44
0
45
-0.0139193969876572
46
0.0139193969876572
79
0
47
0
98
1
10
0
20
0
0
DIMENSION
5
12F
100
AcDbEntity
8
2
62
256
6
ByLayer
370
18
48
1
60
0
100
AcDbDimension
2
_U0
10
8.45
20
-18.513882
30
0
11
17.975
21
-18.513882
31
0
70
32
71
1
72
1
41
1
210
0
220
0
230
1
3
Standard
100
AcDbAlignedDimension
13
27.5
23
-3.96885
33
0
14
8.45
24
-3.96885
34
0
50
0
100
AcDbRotatedDimension
1001
ACAD
1000
DSTYLE
1002
{
1070
   371
1070
    13
1070
   372
1070
    13
1070
   170
1070
     0
1070
   144
1040
1.0
1070
   277
1070
     2
1070
   284
1070
     8
1070
   278
1070
    46
1070
   146
1040
1.0
1070
   345
1005
16
1070
   347
1005
16
1070
   346
1005
16
1070
   344
1005
0
1070
   343
1005
0
1070
   172
1070
     1
1070
    76
1070
     0
1070
    75
1070
     0
1070
   282
1070
     0
1070
   281
1070
     0
1070
    71
1070
     0
1070
    74
1070
     0
1070
   279
1070
     0
1070
   173
1070
     1
1070
   340
1005
10E
1070
   271
1070
     2
1070
   272
1070
     2
1070
    77
1070
     1
1070
    73
1070
     1
1070
   171
1070
     3
1070
   274
1070
     4
1070
   177
1070
     2
1070
   176
1070
     2
1070
   178
1070
     2
1070
    78
1070
     8
1070
    48
1040
-0.1
1070
    41
1040
3.5
1070
   147
1040
1.75
1070
    42
1040
1.5875
1070
    44
1040
2.0
1070
   140
1040
3.5
1002
}
1001
ACAD_DSTYLE_DIM_LINETYPE
1070
   380
1005
16
1001
ACAD_DSTYLE_DIM_EXT1_LINETYPE
1070
   381
1005
16
1001
ACAD_DSTYLE_DIM_EXT2_LINETYPE
1070
   382
1005
16
0
ENDSEC
0
SECTION
2
OBJECTS
0
DICTIONARY
5
1b8
330
0
100
AcDbDictionary
280
0
281
1
3
ACAD_GROUP
350
1b9
3
ACAD_MLINESTYLE
350
1ba
0
DICTIONARY
5
1b9
330
0
100
AcDbDictionary
280
0
281
1
0
DICTIONARY
5
1ba
330
0
100
AcDbDictionary
280
0
281
1
3
Standard
350
18
0
MLINESTYLE
5
18
330
1ba
100
AcDbMlineStyle
2
Standard
70
0
3

62
256
51
90
52
90
71
2
49
-0.5
62
256
6
ByLayer
49
0.5
62
256
6
ByLayer
0
RASTERVARIABLES
5
1a6
330

100
AcDbRasterVariables
90
0
70
1
71
1
72
1
0
ENDSEC
0
EOF
