0
SECTION
2
HEADER
9
$ACADVER
1
AC1015
9
$DWGCODEPAGE
3
ANSI_1252
9
$HANDSEED
5
1c6
9
$ANGBASE
50
0
9
$ANGDIR
70
0
9
$ATTMODE
70
1
9
$AUNITS
70
0
9
$AUPREC
70
0
9
$CECOLOR
62
256
9
$CELTSCALE
40
1
9
$CELTYPE
6
ByLayer
9
$CELWEIGHT
370
18
9
$CLAYER
8
0
9
$CMLJUST
70
0
9
$CMLSCALE
40
1
9
$CMLSTYLE
2
Standard
9
$DIMSTYLE
2
Standard
9
$TEXTSIZE
40
0.2
9
$TEXTSTYLE
7
Standard
9
$LUNITS
70
2
9
$LUPREC
70
4
9
$EXTNAMES
290
1
9
$INSUNITS
70
4
9
$LTSCALE
40
1
9
$LWDISPLAY
290
1
9
$PDMODE
70
0
9
$PDSIZE
40
0
9
$PLINEGEN
70
0
0
ENDSEC
0
SECTION
2
CLASSES
0
CLASS
1
RASTERVARIABLES
2
AcDbRasterVariables
3
ISM
90
0
280
0
281
0
0
ENDSEC
0
SECTION
2
TABLES
0
TABLE
2
VPORT
5
1bc
100
AcDbSymbolTable
0
VPORT
5
1
100
AcDbSymbolTableRecord
100
AcDbViewportTableRecord
2
*Active
70
0
10
0
20
0
11
1
21
1
12
-1
22
1
13
0
23
0
14
0.5
24
0.5
15
10
25
10
16
0
26
0
36
1
17
0
27
0
37
0
0
ENDTAB
0
TABLE
2
LTYPE
5
1bd
100
AcDbSymbolTable
0
LTYPE
5
14
100
AcDbSymbolTableRecord
100
AcDbLinetypeTableRecord
70
0
2
ByBlock
3

72
65
73
0
40
0
0
LTYPE
5
15
100
AcDbSymbolTableRecord
100
AcDbLinetypeTableRecord
70
0
2
ByLayer
3

72
65
73
0
40
0
0
LTYPE
5
16
100
AcDbSymbolTableRecord
100
AcDbLinetypeTableRecord
70
0
2
Continuous
3
Solid line
72
65
73
0
40
0
0
LTYPE
5
6E
100
AcDbSymbolTableRecord
100
AcDbLinetypeTableRecord
70
0
2
CENTER
3
____ _ ____ _ ____ _ ____
72
65
73
4
40
47.5
49
22
74
0
49
-8.5
74
0
49
8.5
74
0
49
-8.5
74
0
0
LTYPE
5
6F
100
AcDbSymbolTableRecord
100
AcDbLinetypeTableRecord
70
0
2
DASHED
3
__ __ __ __ __ __ __ __ __
72
65
73
2
40
25.72
49
12.86
74
0
49
-12.86
74
0
0
ENDTAB
0
TABLE
2
LAYER
5
1be
100
AcDbSymbolTable
0
LAYER
5
10
100
AcDbSymbolTableRecord
100
AcDbLayerTableRecord
2
0
70
0
62
7
6
Continuous
290
1
370
-3
390
0
0
LAYER
5
71
100
AcDbSymbolTableRecord
100
AcDbLayerTableRecord
2
81
70
0
62
-3
6
Continuous
290
1
370
-3
390
0
0
LAYER
5
73
100
AcDbSymbolTableRecord
100
AcDbLayerTableRecord
2
80
70
0
62
-6
6
Continuous
290
1
370
-3
390
0
0
LAYER
5
75
100
AcDbSymbolTableRecord
100
AcDbLayerTableRecord
2
1
70
0
62
4
6
Continuous
290
1
370
-3
390
0
0
LAYER
5
79
100
AcDbSymbolTableRecord
100
AcDbLayerTableRecord
2
4
70
0
62
-2
6
CENTER
290
1
370
-3
390
0
0
LAYER
5
B8
100
AcDbSymbolTableRecord
100
AcDbLayerTableRecord
2
2
70
0
62
7
6
Continuous
290
1
370
-3
390
0
0
LAYER
5
132
100
AcDbSymbolTableRecord
100
AcDbLayerTableRecord
2
Defpoints
70
0
62
7
6
Continuous
290
0
370
-3
390
0
0
LAYER
5
1a8
100
AcDbSymbolTableRecord
100
AcDbLayerTableRecord
2
SK4
70
0
62
2
6
CENTER
290
1
370
-3
390
0
0
LAYER
5
1a9
100
AcDbSymbolTableRecord
100
AcDbLayerTableRecord
2
SK1
70
0
62
4
6
Continuous
290
1
370
-3
390
0
0
LAYER
5
1aa
100
AcDbSymbolTableRecord
100
AcDbLayerTableRecord
2
SK2
70
0
62
7
6
Continuous
290
1
370
-3
390
0
0
LAYER
5
1ab
100
AcDbSymbolTableRecord
100
AcDbLayerTableRecord
2
SK6
70
0
62
5
6
Continuous
290
1
370
-3
390
0
0
ENDTAB
0
TABLE
2
STYLE
5
1bf
100
AcDbSymbolTable
0
STYLE
5
11
100
AcDbSymbolTableRecord
100
AcDbTextStyleTableRecord
2
Standard
3
txt
70
0
71
0
40
0
41
1
42
0
50
0
0
STYLE
5
10E
100
AcDbSymbolTableRecord
100
AcDbTextStyleTableRecord
2
iso_b_vert
3
simplex.shx
70
0
71
0
40
0
41
1
42
0
50
0
0
STYLE
5
10F
100
AcDbSymbolTableRecord
100
AcDbTextStyleTableRecord
2
DWGDirectTextStyle
3
simplex
70
0
71
0
40
0
41
1
42
0
50
0
0
ENDTAB
0
TABLE
2
DIMSTYLE
5
1c0
100
AcDbSymbolTable
100
AcDbDimStyleTable
0
DIMSTYLE
105
27
100
AcDbSymbolTableRecord
100
AcDbDimStyleTableRecord
2
Standard
70
0
3
<>
41
0.18
42
0.0625
44
0.18
140
0.18
147
0.09
73
0
74
0
77
1
271
2
275
0
278
52
280
0
340
11
0
ENDTAB
0
TABLE
2
VIEW
5
1c1
100
AcDbSymbolTable
0
ENDTAB
0
TABLE
2
UCS
5
1c2
100
AcDbSymbolTable
0
ENDTAB
0
TABLE
2
APPID
5
1c3
100
AcDbSymbolTable
0
APPID
5
12
100
AcDbSymbolTableRecord
100
AcDbRegAppTableRecord
2
ACAD
70
0
0
APPID
5
12E
100
AcDbSymbolTableRecord
100
AcDbRegAppTableRecord
2
ACAD_DSTYLE_DIMBREAK
70
0
0
APPID
5
167
100
AcDbSymbolTableRecord
100
AcDbRegAppTableRecord
2
ACAD_DSTYLE_DIM_LINETYPE
70
0
0
APPID
5
168
100
AcDbSymbolTableRecord
100
AcDbRegAppTableRecord
2
ACAD_DSTYLE_DIM_EXT1_LINETYPE
70
0
0
APPID
5
169
100
AcDbSymbolTableRecord
100
AcDbRegAppTableRecord
2
ACAD_DSTYLE_DIM_EXT2_LINETYPE
70
0
0
APPID
5
1A4
100
AcDbSymbolTableRecord
100
AcDbRegAppTableRecord
2
ACAD_MLEADERVER
70
0
0
ENDTAB
0
TABLE
2
BLOCK_RECORD
5
1c4
100
AcDbSymbolTable
0
BLOCK_RECORD
5
1F
100
AcDbSymbolTableRecord
100
AcDbBlockTableRecord
2
*Model_Space
340
0
70
0
0
BLOCK_RECORD
5
1B
100
AcDbSymbolTableRecord
100
AcDbBlockTableRecord
2
*Paper_Space
340
0
70
0
0
BLOCK_RECORD
5
23
100
AcDbSymbolTableRecord
100
AcDbBlockTableRecord
2
*Paper_Space0
340
0
70
0
0
BLOCK_RECORD
5
133
100
AcDbSymbolTableRecord
100
AcDbBlockTableRecord
2
*D1
340
0
70
0
0
BLOCK_RECORD
5
140
100
AcDbSymbolTableRecord
100
AcDbBlockTableRecord
2
_U0
340
0
70
0
0
ENDTAB
0
ENDSEC
0
SECTION
2
BLOCKS
0
BLOCK
5
20
100
AcDbEntity
8
0
100
AcDbBlockBegin
2
*Model_Space
70
0
10
0
20
0
30
0
3
*Model_Space
0
ENDBLK
5
21
100
AcDbEntity
8
0
100
AcDbBlockEnd
0
BLOCK
5
1C
100
AcDbEntity
8
0
100
AcDbBlockBegin
2
*Paper_Space
70
0
10
0
20
0
30
0
3
*Paper_Space
0
ENDBLK
5
1D
100
AcDbEntity
8
0
100
AcDbBlockEnd
0
BLOCK
5
24
100
AcDbEntity
8
0
100
AcDbBlockBegin
2
*Paper_Space0
70
0
10
0
20
0
30
0
3
*Paper_Space0
0
ENDBLK
5
25
100
AcDbEntity
8
0
100
AcDbBlockEnd
0
BLOCK
5
134
100
AcDbEntity
8
0
100
AcDbBlockBegin
2
*D1
70
1
10
0
20
0
30
0
3
*D1
0
LINE
5
136
100
AcDbEntity
8
0
62
256
6
ByLayer
370
-2
48
1
60
0
100
AcDbLine
10
27.5
20
-3.96885
30
0
11
27.5
21
-19.275
31
0
39
0
210
0
220
0
230
1
0
LINE
5
137
100
AcDbEntity
8
0
62
256
6
ByLayer
370
-2
48
1
60
0
100
AcDbLine
10
16.39
20
-3.96885
30
0
11
16.39
21
-19.275
31
0
39
0
210
0
220
0
230
1
0
LINE
5
138
100
AcDbEntity
8
0
62
256
6
ByLayer
370
-2
48
1
60
0
100
AcDbLine
10
31
20
-17.275
30
0
11
34.5
21
-17.275
31
0
39
0
210
0
220
0
230
1
0
LINE
5
139
100
AcDbEntity
8
0
62
256
6
ByLayer
370
-2
48
1
60
0
100
AcDbLine
10
12.89
20
-17.275
30
0
11
9.39
21
-17.275
31
0
39
0
210
0
220
0
230
1
0
SOLID
5
13A
100
AcDbEntity
8
0
62
256
6
ByLayer
370
-1
48
1
60
0
100
AcDbTrace
10
31
20
-16.691667
30
0
11
31
21
-17.858333
31
0
12
27.5
22
-17.275
32
0
13
27.5
23
-17.275
33
0
39
0
210
0
220
0
230
1
0
SOLID
5
13B
100
AcDbEntity
8
0
62
256
6
ByLayer
370
-1
48
1
60
0
100
AcDbTrace
10
12.89
20
-17.858333
30
0
11
12.89
21
-16.691667
31
0
12
16.39
22
-17.275
32
0
13
16.39
23
-17.275
33
0
39
0
210
0
220
0
230
1
0
MTEXT
5
13C
100
AcDbEntity
8
0
62
256
6
ByLayer
370
18
48
1
60
0
100
AcDbMText
10
21.945
20
-10.275
30
0
210
0
220
0
230
1
1
\A1;11.11
40
3.5
41
0
44
1
50
0
71
5
72
5
7
iso_b_vert
0
POINT
5
13D
100
AcDbEntity
8
Defpoints
62
0
6
ByLayer
370
-1
48
1
60
0
100
AcDbPoint
10
27.5
20
-2.38135
30
0
39
0
210
0
220
0
230
1
50
360
0
POINT
5
13E
100
AcDbEntity
8
Defpoints
62
0
6
ByLayer
370
-1
48
1
60
0
100
AcDbPoint
10
16.39
20
-2.38135
30
0
39
0
210
0
220
0
230
1
50
360
0
POINT
5
13F
100
AcDbEntity
8
Defpoints
62
0
6
ByLayer
370
-1
48
1
60
0
100
AcDbPoint
10
16.39
20
-17.275
30
0
39
0
210
0
220
0
230
1
50
360
0
ENDBLK
5
135
100
AcDbEntity
8
0
100
AcDbBlockEnd
0
BLOCK
5
147
100
AcDbEntity
8
0
100
AcDbBlockBegin
2
_U0
70
0
10
0
20
0
30
0
3
_U0
0
MTEXT
5
141
100
AcDbEntity
8
2
62
256
6
ByLayer
370
18
48
1
60
0
100
AcDbMText
10
18.465301
20
-16.242366
30
0
210
0
220
0
230
1
1
\W0.5428;11.11
40
3.5
41
0
44
1.084337
50
0
71
7
72
5
7
iso_b_vert
0
LINE
5
142
100
AcDbEntity
8
2
62
256
6
ByLayer
370
13
48
1
60
0
100
AcDbLine
10
27.5
20
-3.96885
30
0
11
27.5
21
-19.275
31
0
39
0
210
0
220
0
230
1
0
LINE
5
143
100
AcDbEntity
8
2
62
256
6
ByLayer
370
13
48
1
60
0
100
AcDbLine
10
16.39
20
-3.96885
30
0
11
16.39
21
-19.275
31
0
39
0
210
0
220
0
230
1
0
LINE
5
144
100
AcDbEntity
8
2
62
256
6
ByLayer
370
13
48
1
60
0
100
AcDbLine
10
27.5
20
-17.275
30
0
11
16.39
21
-17.275
31
0
39
0
210
0
220
0
230
1
0
SOLID
5
145
100
AcDbEntity
8
2
62
256
6
ByLayer
370
18
48
1
60
0
100
AcDbTrace
10
27.5
20
-17.275
30
0
11
24.000002
21
-17.735784
31
0
12
23.999998
22
-16.814216
32
0
13
23.999998
23
-16.814216
33
0
39
0
210
0
220
0
230
1
0
SOLID
5
146
100
AcDbEntity
8
2
62
256
6
ByLayer
370
18
48
1
60
0
100
AcDbTrace
10
16.39
20
-17.275
30
0
11
19.889998
21
-16.814216
31
0
12
19.890002
22
-17.735784
32
0
13
19.890002
23
-17.735784
33
0
39
0
210
0
220
0
230
1
0
ENDBLK
5
148
100
AcDbEntity
8
0
100
AcDbBlockEnd
0
ENDSEC
0
SECTION
2
ENTITIES
0
ARC
5
CA
100
AcDbEntity
8
1
62
256
6
ByLayer
370
18
48
1
60
0
100
AcDbCircle
39
0
10
9.207679
20
3.38125
30
0
40
1
210
0
220
0
230
1
100
AcDbArc
50
240
51
270
0
ARC
5
CB
100
AcDbEntity
8
1
62
256
6
ByLayer
370
18
48
1
60
0
100
AcDbCircle
39
0
10
9.207679
20
-3.38125
30
0
40
1
210
0
220
0
230
1
100
AcDbArc
50
90
51
120
0
ELLIPSE
5
CC
100
AcDbEntity
8
1
62
256
6
ByLayer
370
18
48
1
60
0
100
AcDbEllipse
10
27.335835
20
-0.148348
30
0
11
0.0293098137652446
21
-0.572692947399979
31
0
210
0
220
0
230
1
40
0.053529
41
-0.077424499301094
42
1.5772405204705
0
ELLIPSE
5
CD
100
AcDbEntity
8
1
62
256
6
ByLayer
370
18
48
1
60
0
100
AcDbEllipse
10
27.251608
20
-0.285441
30
0
11
0.0928251204781003
21
-0.277428320356027
31
0
210
0
220
0
230
1
40
0.478296
41
2.90365863197195
42
-2.15169609570927
0
ELLIPSE
5
CE
100
AcDbEntity
8
1
62
256
6
ByLayer
370
18
48
1
60
0
100
AcDbEllipse
10
34.815827
20
-13.130898
30
0
11
8.73754213698541
21
-14.7294424916397
31
0
210
0
220
0
230
1
40
0.00852
41
-2.61339473806902
42
-2.577976744443
0
ELLIPSE
5
CF
100
AcDbEntity
8
1
62
256
6
ByLayer
370
13
48
1
60
0
100
AcDbEllipse
10
7.863441
20
5.446163
30
0
11
53.7431651286438
21
-46.3119557974668
31
0
210
0
220
0
230
1
40
0.020505
41
1.43477623142098
42
1.47580537381795
0
ELLIPSE
5
D0
100
AcDbEntity
8
1
62
256
6
ByLayer
370
13
48
1
60
0
100
AcDbEllipse
10
7.863441
20
-71.077815
30
0
11
3.5150921415084
21
-70.8573861715763
31
0
210
0
220
0
230
1
40
0.756964
41
2.95512827308168
42
2.96349180204443
0
POINT
5
70
100
AcDbEntity
8
81
62
256
6
ByLayer
370
18
48
1
60
0
100
AcDbPoint
10
27.5
20
0
30
0
39
0
210
0
220
0
230
1
50
360
0
POINT
5
72
100
AcDbEntity
8
80
62
256
6
ByLayer
370
18
48
1
60
0
100
AcDbPoint
10
0
20
0
30
0
39
0
210
0
220
0
230
1
50
360
0
POINT
5
74
100
AcDbEntity
8
1
62
256
6
ByLayer
370
18
48
1
60
1
100
AcDbPoint
10
27.5
20
-2.38135
30
0
39
0
210
0
220
0
230
1
50
360
0
POINT
5
76
100
AcDbEntity
8
1
62
256
6
ByLayer
370
18
48
1
60
1
100
AcDbPoint
10
16.39
20
-2.38135
30
0
39
0
210
0
220
0
230
1
50
360
0
SPLINE
5
D1
100
AcDbEntity
8
1
62
256
6
ByLayer
370
18
48
1
60
0
100
AcDbSpline
70
4
71
3
72
46
73
42
40
0
40
0
40
0
40
0
40
0.0228448709518802
40
0.0228448709518802
40
0.0663174626872573
40
0.0663174626872573
40
0.153262646158011
40
0.153262646158011
40
0.196735237893387
40
0.196735237893387
40
0.240207829628763
40
0.240207829628763
40
0.327153013099518
40
0.327153013099518
40
0.348889308967207
40
0.348889308967207
40
0.370625604834897
40
0.370625604834897
40
0.414098196570277
40
0.414098196570277
40
0.501043380041038
40
0.501043380041038
40
0.52277967590873
40
0.52277967590873
40
0.544515971776421
40
0.544515971776421
40
0.587988563511802
40
0.587988563511802
40
0.674933746982563
40
0.674933746982563
40
0.718406338717945
40
0.718406338717945
40
0.761878930453327
40
0.761878930453327
40
0.848824113924091
40
0.848824113924091
40
0.892296705659473
40
0.892296705659473
40
0.935769297394854
40
0.935769297394854
40
1
40
1
40
1
40
1
41
1
10
16.8042602551301
20
1.38868135790943
30
0
41
1
10
16.8597771394921
20
1.38776220639812
30
0
41
1
10
16.9153199063344
20
1.38615160357781
30
0
41
1
10
17.0766741063409
20
1.37946664627427
30
0
41
1
10
17.1822964168197
20
1.37258907908418
30
0
41
1
10
17.4988129678492
20
1.34463117711329
30
0
41
1
10
17.7094427727818
20
1.31621402221558
30
0
41
1
10
18.0259816909282
20
1.25967536406432
30
0
41
1
10
18.1316422266756
20
1.23850148424742
30
0
41
1
10
18.34315127573
20
1.19171756190607
30
0
41
1
10
18.4487240084436
20
1.16617099963818
30
0
41
1
10
18.7651903049539
20
1.08345816221288
30
0
41
1
10
18.9758317180033
20
1.02021195570845
30
0
41
1
10
19.2396852899259
20
0.932415626789862
30
0
41
1
10
19.2924836101736
20
0.914419962654392
30
0
41
1
10
19.3981599204534
20
0.877592917695409
30
0
41
1
10
19.4510682191549
20
0.858750306997507
30
0
41
1
10
19.6096330049138
20
0.801142410555741
30
0
41
1
10
19.7151735739217
20
0.761283633976859
30
0
41
1
10
20.0315805214733
20
0.637909944257416
30
0
41
1
10
20.2422317969866
20
0.550593192619885
30
0
41
1
10
20.5061596720006
20
0.437038398764741
30
0
41
1
10
20.5589759590622
20
0.41410734309278
30
0
41
1
10
20.6646944494601
20
0.367854771481433
30
0
41
1
10
20.7175992544792
20
0.344531876360349
30
0
41
1
10
20.8761017261086
20
0.274222254488535
30
0
41
1
10
20.9816132435106
20
0.22683994858437
30
0
41
1
10
21.2979701764553
20
0.0838085685513477
30
0
41
1
10
21.5086375345307
20
-0.0127264906430753
30
0
41
1
10
21.825449617703
20
-0.156726425657524
30
0
41
1
10
21.9312984635467
20
-0.204640886303537
30
0
41
1
10
22.1425583676125
20
-0.299362617864034
30
0
41
1
10
22.248043994299
20
-0.346204339819451
30
0
41
1
10
22.5643603736666
20
-0.484554098466333
30
0
41
1
10
22.7750500926157
20
-0.573885038781754
30
0
41
1
10
23.0919703269459
20
-0.701112008459745
30
0
41
1
10
23.1978146055842
20
-0.742411219074086
30
0
41
1
10
23.4090041367019
20
-0.821994685637833
30
0
41
1
10
23.5144670308644
20
-0.860327788220445
30
0
41
1
10
23.7756658350001
20
-0.951278059290672
30
0
41
1
10
23.9313606282074
20
-1.00197313684515
30
0
41
1
10
24.0872938068653
20
-1.04862285356992
30
0
0
SPLINE
5
D2
100
AcDbEntity
8
1
62
256
6
ByLayer
370
18
48
1
60
0
100
AcDbSpline
70
4
71
3
72
24
73
20
40
0
40
0
40
0
40
0
40
0.125000000000015
40
0.125000000000015
40
0.250000000000031
40
0.250000000000031
40
0.375000000000046
40
0.375000000000046
40
0.500000000000062
40
0.500000000000062
40
0.625000000000077
40
0.625000000000077
40
0.750000000000092
40
0.750000000000092
40
0.812500000000069
40
0.812500000000069
40
0.875000000000046
40
0.875000000000046
40
1
40
1
40
1
40
1
41
1
10
27.0897403228094
20
-0.170309775718465
30
0
41
1
10
27.0899548753507
20
-0.181812538032631
30
0
41
1
10
27.0911738417694
20
-0.19325164399109
30
0
41
1
10
27.095130011092
20
-0.216081994023853
30
0
41
1
10
27.0978723470812
20
-0.22747240821181
30
0
41
1
10
27.1046019121301
20
-0.250274090418202
30
0
41
1
10
27.1085912555757
20
-0.261684624695562
30
0
41
1
10
27.117639904033
20
-0.284608741066023
30
0
41
1
10
27.1227009048928
20
-0.296111300814147
30
0
41
1
10
27.133558676268
20
-0.318931389622492
30
0
41
1
10
27.1393757997011
20
-0.330299461402774
30
0
41
1
10
27.1516412565265
20
-0.353114776256575
30
0
41
1
10
27.1580899604139
20
-0.364559451959337
30
0
41
1
10
27.1681431541002
20
-0.381971330240276
30
0
41
1
10
27.1715712584973
20
-0.38784002921372
30
0
41
1
10
27.178442942695
20
-0.399542371255734
30
0
41
1
10
27.1818909814524
20
-0.405384445933095
30
0
41
1
10
27.1922206336355
20
-0.422912015011775
30
0
41
1
10
27.1990807477802
20
-0.434603090889169
30
0
41
1
10
27.2058197184514
20
-0.44635098469999
30
0
0
SPLINE
5
D3
100
AcDbEntity
8
1
62
256
6
ByLayer
370
18
48
1
60
0
100
AcDbSpline
70
4
71
3
72
30
73
26
40
0
40
0
40
0
40
0
40
0.0725746350644079
40
0.146120819241814
40
0.220614394007636
40
0.253866130018553
40
0.287748973392269
40
0.322259594459321
40
0.357394331839442
40
0.39314918162399
40
0.429519785036807
40
0.466501385822723
40
0.50408882845012
40
0.542276587676048
40
0.581058764174864
40
0.620429079252275
40
0.660380870284312
40
0.700907086953543
40
0.742000288354311
40
0.783652641038932
40
0.825855918076221
40
0.868601499193456
40
0.91188037207161
40
0.955683134863224
40
1
40
1
40
1
40
1
41
1
10
16.1443270676621
20
-1.35079781327625
30
0
41
1
10
16.1363967713162
20
-1.36321647597785
30
0
41
1
10
16.1204300165696
20
-1.38822004873077
30
0
41
1
10
16.0959109867753
20
-1.4253737878835
30
0
41
1
10
16.0755179160601
20
-1.45553704889005
30
0
41
1
10
16.0594304133201
20
-1.47886513347987
30
0
41
1
10
16.0478163298351
20
-1.49550445149419
30
0
41
1
10
16.0359194325029
20
-1.51234515046607
30
0
41
1
10
16.0237396917984
20
-1.52938010724097
30
0
41
1
10
16.011277211255
20
-1.54660167339668
30
0
41
1
10
15.9985320676654
20
-1.56400189799962
30
0
41
1
10
15.9855043438237
20
-1.58157235458404
30
0
41
1
10
15.9721941175849
20
-1.59930416801717
30
0
41
1
10
15.9586014773777
20
-1.61718812350736
30
0
41
1
10
15.9447265130757
20
-1.63521465391631
30
0
41
1
10
15.9305693175654
20
-1.65337385247548
30
0
41
1
10
15.9161299854628
20
-1.67165547616437
30
0
41
1
10
15.9014086175932
20
-1.69004896449729
30
0
41
1
10
15.8864053052389
20
-1.70854341624658
30
0
41
1
10
15.8711201911635
20
-1.72712773376986
30
0
41
1
10
15.8555532384927
20
-1.74579013935647
30
0
41
1
10
15.839705111691
20
-1.7645200917728
30
0
41
1
10
15.8235738270757
20
-1.78330108237958
30
0
41
1
10
15.8071674880232
20
-1.80213811835145
30
0
41
1
10
15.7960902028255
20
-1.81460984118758
30
0
41
1
10
15.790519247004
20
-1.8208820835012
30
0
0
SPLINE
5
D4
100
AcDbEntity
8
1
62
256
6
ByLayer
370
18
48
1
60
0
100
AcDbSpline
70
4
71
3
72
8
73
4
40
0
40
0
40
0
40
0
40
1
40
1
40
1
40
1
41
1
10
27.2528312242234
20
2.37339481313913
30
0
41
1
10
27.3057362157764
20
2.37032415333042
30
0
41
1
10
27.3586369820715
20
2.36719765874506
30
0
41
1
10
27.4115326500197
20
2.36400378998795
30
0
0
SPLINE
5
D5
100
AcDbEntity
8
1
62
256
6
ByLayer
370
18
48
1
60
0
100
AcDbSpline
70
4
71
3
72
48
73
44
40
0
40
0
40
0
40
0
40
0.0625000000000558
40
0.0625000000000558
40
0.0937500000000895
40
0.0937500000000895
40
0.125000000000123
40
0.125000000000123
40
0.18750000000019
40
0.18750000000019
40
0.218750000000224
40
0.218750000000224
40
0.234375000000241
40
0.234375000000241
40
0.250000000000258
40
0.250000000000258
40
0.312500000000325
40
0.312500000000325
40
0.328125000000339
40
0.328125000000339
40
0.343750000000353
40
0.375000000000372
40
0.375000000000372
40
0.390625000000375
40
0.390625000000375
40
0.406250000000379
40
0.406250000000379
40
0.43750000000037
40
0.468750000000362
40
0.468750000000362
40
0.500000000000353
40
0.500000000000353
40
0.562500000000316
40
0.562500000000316
40
0.625000000000278
40
0.625000000000278
40
0.68750000000024
40
0.68750000000024
40
0.750000000000202
40
0.750000000000202
40
0.875000000000101
40
0.875000000000101
40
1
40
1
40
1
40
1
41
1
10
27.2525458322138
20
2.37340677988013
30
0
41
1
10
27.2689450495582
20
2.34500863093211
30
0
41
1
10
27.2845736692756
20
2.31618384084737
30
0
41
1
10
27.3063803939314
20
2.27204077137503
30
0
41
1
10
27.3133746963343
20
2.25717437945994
30
0
41
1
10
27.3267016074477
20
2.22707524912238
30
0
41
1
10
27.3330331141913
20
2.21184000916716
30
0
41
1
10
27.3506852410929
20
2.16584699377322
30
0
41
1
10
27.3607380969079
20
2.1347003737032
30
0
41
1
10
27.3721221154671
20
2.08693640693437
30
0
41
1
10
27.3752952610921
20
2.07083948233705
30
0
41
1
10
27.3789121439194
20
2.04637120595274
30
0
41
1
10
27.3799267094438
20
2.03816113236115
30
0
41
1
10
27.3815299036085
20
2.02162064368591
30
0
41
1
10
27.3821192436292
20
2.01326185596997
30
0
41
1
10
27.3838602738464
20
1.97155357454659
30
0
41
1
10
27.3814371875106
20
1.93848366929558
30
0
41
1
10
27.3724779885301
20
1.89760742279486
30
0
41
1
10
27.370377579318
20
1.88942168064975
30
0
41
1
10
27.3656221377
20
1.87332849840413
30
0
41
1
10
27.3576584719748
20
1.84957190534115
30
0
41
1
10
27.3472654265307
20
1.82693618737136
30
0
41
1
10
27.3353400957926
20
1.80500744016086
30
0
41
1
10
27.331110459486
20
1.79781529181722
30
0
41
1
10
27.3221508371324
20
1.783661848115
30
0
41
1
10
27.3174014562692
20
1.77667767085433
30
0
41
1
10
27.3026034068236
20
1.75633450857686
30
0
41
1
10
27.2813577785608
20
1.73072133551042
30
0
41
1
10
27.2575126650801
20
1.70770103719707
30
0
41
1
10
27.2325524852167
20
1.68579296966396
30
0
41
1
10
27.2194613509307
20
1.67535714926652
30
0
41
1
10
27.1791529853579
20
1.64577637647889
30
0
41
1
10
27.1510852576418
20
1.62841160455122
30
0
41
1
10
27.0933591191871
20
1.59681655753005
30
0
41
1
10
27.0636922025166
20
1.58260304367346
30
0
41
1
10
27.0032096621813
20
1.55643958348952
30
0
41
1
10
26.9723166530605
20
1.54447463878438
30
0
41
1
10
26.9103484751451
20
1.52248030370592
30
0
41
1
10
26.8791950277068
20
1.51241613283682
30
0
41
1
10
26.7853551494954
20
1.48431448527714
30
0
41
1
10
26.7222959520454
20
1.46833058197285
30
0
41
1
10
26.5955444169024
20
1.43985074795529
30
0
41
1
10
26.5318469764141
20
1.42738292856518
30
0
41
1
10
26.4679213870259
20
1.41617198254451
30
0
0
SPLINE
5
D6
100
AcDbEntity
8
1
62
256
6
ByLayer
370
18
48
1
60
0
100
AcDbSpline
70
4
71
3
72
12
73
8
40
0
40
0
40
0
40
0
40
0.37296042322326
40
0.37296042322326
40
0.745920846446515
40
0.745920846446515
40
1
40
1
40
1
40
1
41
1
10
27.252647335123
20
2.37341320972928
30
0
41
1
10
27.0263420744458
20
2.35908050890305
30
0
41
1
10
26.8000368137685
20
2.32504023899625
30
0
41
1
10
26.3474262924142
20
2.21922103521263
30
0
41
1
10
26.1211210317369
20
2.14744643267667
30
0
41
1
10
25.7406453939972
20
1.99803020035395
30
0
41
1
10
25.5864750169351
20
1.92955449321209
30
0
41
1
10
25.4323046398729
20
1.85397218804894
30
0
0
SPLINE
5
D7
100
AcDbEntity
8
1
62
256
6
ByLayer
370
18
48
1
60
0
100
AcDbSpline
70
4
71
3
72
12
73
8
40
0
40
0
40
0
40
0
40
0.289267932400583
40
0.289267932400583
40
0.644633966200292
40
0.644633966200292
40
1
40
1
40
1
40
1
41
1
10
18.3004637967229
20
-2.3632113725057
30
0
41
1
10
18.1162513267021
20
-2.38089141040234
30
0
41
1
10
17.9320388566813
20
-2.38561734443104
30
0
41
1
10
17.5215211259823
20
-2.36700029324342
30
0
41
1
10
17.295215865304
20
-2.33699760754729
30
0
41
1
10
16.8426053439476
20
-2.2389904473969
30
0
41
1
10
16.6163000832693
20
-2.17098998572993
30
0
41
1
10
16.389994822591
20
-2.08566717589972
30
0
0
SPLINE
5
D8
100
AcDbEntity
8
1
62
256
6
ByLayer
370
18
48
1
60
0
100
AcDbSpline
70
4
71
5
72
15
73
9
40
0
40
0
40
0
40
0
40
0
40
0
40
0.252550702869003
40
0.529864087664309
40
0.94583416485727
40
1
40
1
40
1
40
1
40
1
40
1
41
1
10
16.3899999707546
20
-2.08563537467799
30
0
41
1
10
16.359721754033
20
-2.07421972809814
30
0
41
1
10
16.2961965311885
20
-2.04972932485353
30
0
41
1
10
16.1828007991597
20
-2.00400953343655
30
0
41
1
10
16.0629111438247
20
-1.95196722282978
30
0
41
1
10
15.9430214884897
20
-1.89616522330368
30
0
41
1
10
15.8534100498763
20
-1.85243183286568
30
0
41
1
10
15.7970456173857
20
-1.82414335543075
30
0
41
1
10
15.7905516940795
20
-1.82087381839014
30
0
0
SPLINE
5
D9
100
AcDbEntity
8
1
62
256
6
ByLayer
370
18
48
1
60
0
100
AcDbSpline
70
4
71
3
72
12
73
8
40
0
40
0
40
0
40
0
40
0.330433577066727
40
0.330433577066727
40
0.665216788533364
40
0.665216788533364
40
1
40
1
40
1
40
1
41
1
10
26.3463527797925
20
1.39068589984834
30
0
41
1
10
26.3592664841684
20
1.39347259703251
30
0
41
1
10
26.3723644884114
20
1.39640663403219
30
0
41
1
10
26.3991624690593
20
1.4023493258093
30
0
41
1
10
26.4129663193649
20
1.40537850047647
30
0
41
1
10
26.4404869415461
20
1.41108610986854
30
0
41
1
10
26.4542110071655
20
1.41376752558122
30
0
41
1
10
26.4679213870259
20
1.41617198254451
30
0
0
SPLINE
5
DA
100
AcDbEntity
8
1
62
256
6
ByLayer
370
18
48
1
60
0
100
AcDbSpline
70
4
71
3
72
14
73
10
40
0
40
0
40
0
40
0
40
0.25
40
0.25
40
0.5
40
0.5
40
0.75
40
0.75
40
1
40
1
40
1
40
1
41
1
10
27.2217656457098
20
0.987802981403433
30
0
41
1
10
27.2310306299064
20
0.968301334869864
30
0
41
1
10
27.2403024975427
20
0.948774433451433
30
0
41
1
10
27.2587552013036
20
0.910054619209347
30
0
41
1
10
27.2679546495847
20
0.890793419614909
30
0
41
1
10
27.2863533747422
20
0.85227164929853
30
0
41
1
10
27.2955546546232
20
0.833003755120387
30
0
41
1
10
27.3139257497285
20
0.794583214018331
30
0
41
1
10
27.3230706552671
20
0.775521818845448
30
0
41
1
10
27.3321633339488
20
0.756651735379762
30
0
0
SPLINE
5
DB
100
AcDbEntity
8
1
62
256
6
ByLayer
370
18
48
1
60
0
100
AcDbSpline
70
4
71
3
72
16
73
12
40
0
40
0
40
0
40
0
40
0.0182448461022614
40
0.345496564068149
40
0.345496564068149
40
0.42730949355963
40
0.42730949355963
40
0.509122423051112
40
0.509122423051112
40
0.672748282034075
40
1
40
1
40
1
40
1
41
1
10
26.4263558684079
20
1.35116630607143
30
0
41
1
10
26.4309701173745
20
1.35020137977125
30
0
41
1
10
26.5184491939928
20
1.33148403533971
30
0
41
1
10
26.607836314306
20
1.30432784666388
30
0
41
1
10
26.7157895788161
20
1.26279994320041
30
0
41
1
10
26.7374859206482
20
1.25402692435549
30
0
41
1
10
26.7810905863089
20
1.23554333840329
30
0
41
1
10
26.8030278278825
20
1.22581831693904
30
0
41
1
10
26.8689439246822
20
1.19532066369936
30
0
41
1
10
27.0009217707878
20
1.12917686895773
30
0
41
1
10
27.1333228632606
20
1.04807226775645
30
0
41
1
10
27.22176564571
20
0.987802981403377
30
0
0
SPLINE
5
DC
100
AcDbEntity
8
1
62
256
6
ByLayer
370
18
48
1
60
0
100
AcDbSpline
70
4
71
3
72
12
73
8
40
0
40
0
40
0
40
0
40
0.104141724449911
40
0.315035889953183
40
0.525930055456454
40
0.736824220959726
40
1
40
1
40
1
40
1
41
1
10
15.381878917098
20
-1.59066656517837
30
0
41
1
10
15.335683726131
20
-1.61256672329031
30
0
41
1
10
15.1964909192974
20
-1.68273350938043
30
0
41
1
10
14.9669783762383
20
-1.81691937790313
30
0
41
1
10
14.6951860530255
20
-1.99623435840883
30
0
41
1
10
14.4043800598588
20
-2.19225290898626
30
0
41
1
10
14.2051351700247
20
-2.31584423614217
30
0
41
1
10
14.0952741869412
20
-2.37757215605103
30
0
0
SPLINE
5
DD
100
AcDbEntity
8
1
62
256
6
ByLayer
370
18
48
1
60
0
100
AcDbSpline
70
4
71
3
72
8
73
4
40
0
40
0
40
0
40
0
40
1
40
1
40
1
40
1
41
1
10
27.3992073557095
20
0.546637364163047
30
0
41
1
10
27.3767150200304
20
0.617835880132958
30
0
41
1
10
27.3543659847114
20
0.687849173561631
30
0
41
1
10
27.3321633339488
20
0.756651735379762
30
0
0
SPLINE
5
DE
100
AcDbEntity
8
1
62
256
6
ByLayer
370
18
48
1
60
0
100
AcDbSpline
70
4
71
3
72
29
73
25
40
0
40
0
40
0
40
0
40
0.102923012535639
40
0.102923012535639
40
0.205846025071279
40
0.205846025071279
40
0.411692050142554
40
0.411692050142554
40
0.437422803276463
40
0.437422803276463
40
0.463153556410372
40
0.463153556410372
40
0.514615062678195
40
0.514615062678195
40
0.61753807521384
40
0.61753807521384
40
0.823384100285134
40
0.823384100285134
40
0.926307112820779
40
0.926307112820779
40
0.95203786595469
40
0.95203786595469
40
0.9777686190886
40
1
40
1
40
1
40
1
41
1
10
27.3321633339482
20
0.756651735379592
30
0
41
1
10
27.2150062539373
20
0.839288361694912
30
0
41
1
10
27.0984978913614
20
0.919886759127422
30
0
41
1
10
26.8660175178852
20
1.07635108764526
30
0
41
1
10
26.7500388081472
20
1.15222443776892
30
0
41
1
10
26.4020028037295
20
1.37189249159803
30
0
41
1
10
26.1698682184483
20
1.50777409527788
30
0
41
1
10
25.9061766129374
20
1.64581099267227
30
0
41
1
10
25.876842387256
20
1.66094101596099
30
0
41
1
10
25.8180950430533
20
1.69077283877536
30
0
41
1
10
25.7886685450876
20
1.70548061325388
30
0
41
1
10
25.7005906427513
20
1.74878077183666
30
0
41
1
10
25.6420353920166
20
1.7766048172345
30
0
41
1
10
25.4667398556674
20
1.85691255309186
30
0
41
1
10
25.350367740607
20
1.90623333625709
30
0
41
1
10
25.0018402865225
20
2.04123464731737
30
0
41
1
10
24.7702618123593
20
2.114042495729
30
0
41
1
10
24.4209193517977
20
2.19534669834869
30
0
41
1
10
24.3041411767662
20
2.21779241170884
30
0
41
1
10
24.1574069568358
20
2.23972900074423
30
0
41
1
10
24.1279949436954
20
2.24381290932069
30
0
41
1
10
24.0692277996508
20
2.25133927118412
30
0
41
1
10
24.0145374484114
20
2.25775365937972
30
0
41
1
10
23.9599831175302
20
2.26304982697985
30
0
41
1
10
23.93472275356
20
2.26526414896634
30
0
0
SPLINE
5
DF
100
AcDbEntity
8
1
62
256
6
ByLayer
370
18
48
1
60
0
100
AcDbSpline
70
4
71
3
72
30
73
26
40
0
40
0
40
0
40
0
40
0.0725746350644147
40
0.146120819241829
40
0.22061439400764
40
0.253866130018558
40
0.287748973392273
40
0.322259594459325
40
0.357394331839446
40
0.393149181623993
40
0.42951978503681
40
0.466501385822727
40
0.504088828450123
40
0.54227658767605
40
0.581058764174866
40
0.620429079252278
40
0.660380870284313
40
0.700907086953544
40
0.742000288354312
40
0.783652641038932
40
0.825855918076221
40
0.868601499193457
40
0.91188037207161
40
0.955683134863224
40
1
40
1
40
1
40
1
41
1
10
16.1443270676621
20
1.73926860561576
30
0
41
1
10
16.1363967713162
20
1.73207509024053
30
0
41
1
10
16.1204300165696
20
1.7175917606458
30
0
41
1
10
16.0959109867753
20
1.69513386659173
30
0
41
1
10
16.0755179160601
20
1.67633241388495
30
0
41
1
10
16.0594304133201
20
1.66143331019572
30
0
41
1
10
16.0478163298351
20
1.65065093044566
30
0
41
1
10
16.0359194325029
20
1.63957494458214
30
0
41
1
10
16.0237396917984
20
1.62820208880842
30
0
41
1
10
16.0112772112551
20
1.61652882031001
30
0
41
1
10
15.9985320676654
20
1.60455193139765
30
0
41
1
10
15.9855043438237
20
1.59226827537393
30
0
41
1
10
15.9721941175849
20
1.57967485346441
30
0
41
1
10
15.9586014773777
20
1.56676896261121
30
0
41
1
10
15.9447265130757
20
1.55354818640717
30
0
41
1
10
15.9305693175654
20
1.5400104277779
30
0
41
1
10
15.9161299854628
20
1.52615393016612
30
0
41
1
10
15.9014086175932
20
1.51197730918261
30
0
41
1
10
15.8864053052389
20
1.49747955537592
30
0
41
1
10
15.8711201911634
20
1.4826601450157
30
0
41
1
10
15.8555532384928
20
1.46751874028348
30
0
41
1
10
15.839705111691
20
1.45205645148445
30
0
41
1
10
15.8235738270757
20
1.43627115577013
30
0
41
1
10
15.8071674880233
20
1.42017541137696
30
0
41
1
10
15.7960902028255
20
1.40927357229367
30
0
41
1
10
15.7905192470041
20
1.40379085131815
30
0
0
SPLINE
5
E0
100
AcDbEntity
8
1
62
256
6
ByLayer
370
18
48
1
60
0
100
AcDbSpline
70
4
71
3
72
14
73
10
40
0
40
0
40
0
40
0
40
0.250000000000002
40
0.250000000000002
40
0.375000000000001
40
0.375000000000001
40
0.5
40
0.5
40
1
40
1
40
1
40
1
41
1
10
27.3992073557094
20
-2.19216953592334
30
0
41
1
10
27.3941501128498
20
-2.21229124684857
30
0
41
1
10
27.3905816892505
20
-2.23108817105194
30
0
41
1
10
27.3875345683786
20
-2.25723205579877
30
0
41
1
10
27.3869055907019
20
-2.26560267247422
30
0
41
1
10
27.3864278437483
20
-2.2815181242637
30
0
41
1
10
27.3865763625151
20
-2.28908201075589
30
0
41
1
10
27.3892272217629
20
-2.32496141957702
30
0
41
1
10
27.3974335356357
20
-2.34747804037934
30
0
41
1
10
27.4115326500198
20
-2.36400378998815
30
0
0
SPLINE
5
E1
100
AcDbEntity
8
1
62
256
6
ByLayer
370
18
48
1
60
0
100
AcDbSpline
70
4
71
3
72
8
73
4
40
0
40
0
40
0
40
0
40
1
40
1
40
1
40
1
41
1
10
27.3992073557095
20
-2.19216953592337
30
0
41
1
10
27.3767468569873
20
-2.16273390571087
30
0
41
1
10
27.3543977256645
20
-2.12992648114084
30
0
41
1
10
27.3321633339488
20
-2.09364516419447
30
0
0
SPLINE
5
E2
100
AcDbEntity
8
1
62
256
6
ByLayer
370
18
48
1
60
0
100
AcDbSpline
70
4
71
3
72
8
73
4
40
0
40
0
40
0
40
0
40
1
40
1
40
1
40
1
41
1
10
27.2528312242235
20
-2.3733948131393
30
0
41
1
10
27.3057362157765
20
-2.37032415333061
30
0
41
1
10
27.3586369820715
20
-2.36719765874525
30
0
41
1
10
27.4115326500197
20
-2.36400378998815
30
0
0
SPLINE
5
E3
100
AcDbEntity
8
1
62
256
6
ByLayer
370
18
48
1
60
0
100
AcDbSpline
70
4
71
3
72
8
73
4
40
0
40
0
40
0
40
0
40
1
40
1
40
1
40
1
41
1
10
15.9631777012408
20
-1.34429619769119
30
0
41
1
10
16.0227567127149
20
-1.34722104648412
30
0
41
1
10
16.0831723525765
20
-1.34951927014316
30
0
41
1
10
16.1444335515887
20
-1.35106013649835
30
0
0
SPLINE
5
E4
100
AcDbEntity
8
1
62
256
6
ByLayer
370
18
48
1
60
0
100
AcDbSpline
70
4
71
3
72
50
73
46
40
0
40
0
40
0
40
0
40
0.0113979099728461
40
0.0113979099728461
40
0.0307822646792619
40
0.0307822646792619
40
0.0695509740920936
40
0.0695509740920936
40
0.147088392917755
40
0.147088392917755
40
0.224625811743416
40
0.224625811743416
40
0.302163230569076
40
0.302163230569076
40
0.340931939981905
40
0.340931939981905
40
0.379700649394734
40
0.379700649394734
40
0.457238068220392
40
0.457238068220392
40
0.496006777633221
40
0.496006777633221
40
0.53477548704605
40
0.53477548704605
40
0.612312905871708
40
0.612312905871708
40
0.651081615284535
40
0.651081615284535
40
0.689850324697363
40
0.689850324697363
40
0.72861903411019
40
0.72861903411019
40
0.748003388816604
40
0.748003388816604
40
0.767387743523018
40
0.767387743523018
40
0.806156452935848
40
0.806156452935848
40
0.844925162348679
40
0.844925162348679
40
0.922462581174339
40
0.922462581174339
40
0.96123129058717
40
0.96123129058717
40
1
40
1
40
1
40
1
41
1
10
20.6545177048284
20
-1.95333253168121
30
0
41
1
10
20.6372394627965
20
-1.96000162879557
30
0
41
1
10
20.6199689475138
20
-1.96657120170926
30
0
41
1
10
20.573389705113
20
-1.98402584301081
30
0
41
1
10
20.5441018845705
20
-1.99471759097739
30
0
41
1
10
20.4563508756411
20
-2.02589892279164
30
0
41
1
10
20.3979952102162
20
-2.04550088201989
30
0
41
1
10
20.2231374431882
20
-2.10097827739264
30
0
41
1
10
20.106833866582
20
-2.13358208417762
30
0
41
1
10
19.8745474581204
20
-2.18932736932859
30
0
41
1
10
19.7585492989515
20
-2.2125031683172
30
0
41
1
10
19.5264361996115
20
-2.24872942751472
30
0
41
1
10
19.4103192450538
20
-2.26170313842843
30
0
41
1
10
19.2353840121916
20
-2.27431639334162
30
0
41
1
10
19.1769587043704
20
-2.2773425193829
30
0
41
1
10
19.0598368918856
20
-2.28091012096024
30
0
41
1
10
19.0011122165043
20
-2.28145274013562
30
0
41
1
10
18.8246104314252
20
-2.27918612792973
30
0
41
1
10
18.7076950082069
20
-2.27246614041741
30
0
41
1
10
18.5330942001982
20
-2.25446009940669
30
0
41
1
10
18.4750028945128
20
-2.24718520004817
30
0
41
1
10
18.3588695168833
20
-2.23043237767149
30
0
41
1
10
18.3008276070391
20
-2.22096028739082
30
0
41
1
10
18.1267540971554
20
-2.18912217154391
30
0
41
1
10
18.0107864275913
20
-2.1633085205103
30
0
41
1
10
17.8366880302655
20
-2.11740631230199
30
0
41
1
10
17.7786296937827
20
-2.10090845153351
30
0
41
1
10
17.6624066267518
20
-2.06544890764081
30
0
41
1
10
17.6042447187886
20
-2.04646885900809
30
0
41
1
10
17.4877086642513
20
-2.00619378901087
30
0
41
1
10
17.4293312136092
20
-1.98491879399069
30
0
41
1
10
17.3415426915413
20
-1.95135965579539
30
0
41
1
10
17.3122437318752
20
-1.93989359389147
30
0
41
1
10
17.2535670124904
20
-1.91638836400529
30
0
41
1
10
17.2241654506299
20
-1.90433883370235
30
0
41
1
10
17.1360074574636
20
-1.86738459324511
30
0
41
1
10
17.0773894726164
20
-1.84172479805082
30
0
41
1
10
16.9603253159138
20
-1.78860746196059
30
0
41
1
10
16.9018727449301
20
-1.76116904527987
30
0
41
1
10
16.72669329359
20
-1.67624046943521
30
0
41
1
10
16.6101749418302
20
-1.61606169706533
30
0
41
1
10
16.4355136093264
20
-1.52049198079354
30
0
41
1
10
16.3773104215678
20
-1.48775603939293
30
0
41
1
10
16.2608804240651
20
-1.42053506742073
30
0
41
1
10
16.2026593086472
20
-1.38602725870101
30
0
41
1
10
16.144375552574
20
-1.35072131489395
30
0
0
SPLINE
5
E5
100
AcDbEntity
8
1
62
256
6
ByLayer
370
18
48
1
60
0
100
AcDbSpline
70
4
71
3
72
24
73
20
40
0
40
0
40
0
40
0
40
0.124999999999945
40
0.124999999999945
40
0.24999999999989
40
0.24999999999989
40
0.312499999999886
40
0.312499999999886
40
0.374999999999881
40
0.499999999999872
40
0.499999999999872
40
0.562499999999868
40
0.562499999999868
40
0.624999999999863
40
0.624999999999863
40
0.749999999999909
40
0.874999999999954
40
0.874999999999954
40
1
40
1
40
1
40
1
41
1
10
26.1709215528523
20
0.0247693880674547
30
0
41
1
10
26.1807424374351
20
0.0364463638732389
30
0
41
1
10
26.1912334086409
20
0.0473530695299758
30
0
41
1
10
26.2133583744347
20
0.0678438423705359
30
0
41
1
10
26.2249952765432
20
0.0774245589640259
30
0
41
1
10
26.2433714931154
20
0.0907350630878057
30
0
41
1
10
26.2496790318051
20
0.0950083435720614
30
0
41
1
10
26.2624636288609
20
0.103068290899586
30
0
41
1
10
26.2819027793868
20
0.114443255596257
30
0
41
1
10
26.3021497370859
20
0.123696745640046
30
0
41
1
10
26.3229801875655
20
0.131515684714429
30
0
41
1
10
26.330021125802
20
0.133882331734725
30
0
41
1
10
26.3443083831948
20
0.138125741922124
30
0
41
1
10
26.3515441867619
20
0.139996887897951
30
0
41
1
10
26.3732435848936
20
0.144797849000895
30
0
41
1
10
26.4023666485593
20
0.149102624562204
30
0
41
1
10
26.4319687088512
20
0.149406019519319
30
0
41
1
10
26.4618581717199
20
0.147751527011963
30
0
41
1
10
26.4767378375842
20
0.145957175586346
30
0
41
1
10
26.4915665445751
20
0.143273524976053
30
0
0
SPLINE
5
E6
100
AcDbEntity
8
1
62
256
6
ByLayer
370
18
48
1
60
0
100
AcDbSpline
70
4
71
3
72
14
73
10
40
0
40
0
40
0
40
0
40
0.25
40
0.25
40
0.5
40
0.5
40
0.75
40
0.75
40
1
40
1
40
1
40
1
41
1
10
27.2040741977161
20
-1.26462858262283
30
0
41
1
10
27.2147820786046
20
-1.33367476174993
30
0
41
1
10
27.2255405493186
20
-1.40266643809682
30
0
41
1
10
27.247008965083
20
-1.54070245575997
30
0
41
1
10
27.2576894862551
20
-1.60978044836512
30
0
41
1
10
27.2790271308093
20
-1.74796257575775
30
0
41
1
10
27.2896922690497
20
-1.81705786615751
30
0
41
1
10
27.3110039322566
20
-1.95526859998361
30
0
41
1
10
27.3216219210137
20
-2.02441518212979
30
0
41
1
10
27.3321633339488
20
-2.09364516419441
30
0
0
SPLINE
5
E7
100
AcDbEntity
8
1
62
256
6
ByLayer
370
18
48
1
60
0
100
AcDbSpline
70
4
71
3
72
17
73
13
40
0
40
0
40
0
40
0
40
0.249999999999986
40
0.249999999999986
40
0.374999999999974
40
0.437499999999973
40
0.437499999999973
40
0.499999999999971
40
0.499999999999971
40
0.749999999999986
40
0.749999999999986
40
1
40
1
40
1
40
1
41
1
10
26.1636884357725
20
-0.225414734126701
30
0
41
1
10
26.2398212018816
20
-0.324858262346652
30
0
41
1
10
26.3191537460364
20
-0.42150496172556
30
0
41
1
10
26.4429339762507
20
-0.562295722001949
30
0
41
1
10
26.5060176614698
20
-0.631647838743845
30
0
41
1
10
26.5708829236558
20
-0.699442733149255
30
0
41
1
10
26.6145215716789
20
-0.744293949630674
30
0
41
1
10
26.6365532551927
20
-0.766560421087377
30
0
41
1
10
26.7469660276946
20
-0.876305830227096
30
0
41
1
10
26.8366655281106
20
-0.95961448463035
30
0
41
1
10
27.0185512462966
20
-1.11808185009238
30
0
41
1
10
27.1107370937396
20
-1.19324177485785
30
0
41
1
10
27.2040741977162
20
-1.2646285826228
30
0
0
SPLINE
5
E8
100
AcDbEntity
8
1
62
256
6
ByLayer
370
18
48
1
60
0
100
AcDbSpline
70
4
71
3
72
24
73
20
40
0
40
0
40
0
40
0
40
0.125000000000007
40
0.125000000000007
40
0.250000000000015
40
0.250000000000015
40
0.375000000000022
40
0.375000000000022
40
0.500000000000029
40
0.500000000000029
40
0.625000000000037
40
0.625000000000037
40
0.68750000000004
40
0.68750000000004
40
0.750000000000044
40
0.750000000000044
40
0.875000000000022
40
0.875000000000022
40
1
40
1
40
1
40
1
41
1
10
26.1636884357725
20
-0.225414734126701
30
0
41
1
10
26.1566977275217
20
-0.216283571176291
30
0
41
1
10
26.1503703898828
20
-0.206785822854897
30
0
41
1
10
26.1392286319179
20
-0.186953000917015
30
0
41
1
10
26.1344005180556
20
-0.176585902595633
30
0
41
1
10
26.1265952572155
20
-0.154990695519587
30
0
41
1
10
26.1237108943274
20
-0.144027619752961
30
0
41
1
10
26.1200555801595
20
-0.121752062126575
30
0
41
1
10
26.119285980779
20
-0.110377951606097
30
0
41
1
10
26.1200230583065
20
-0.0875101215316079
30
0
41
1
10
26.1215073067671
20
-0.0762914104615788
30
0
41
1
10
26.1252796821981
20
-0.0597549390486449
30
0
41
1
10
26.126795884014
20
-0.054291600547117
30
0
41
1
10
26.1303364759533
20
-0.043459771870431
30
0
41
1
10
26.132365954871
20
-0.0380859739037192
30
0
41
1
10
26.1390770551108
20
-0.0223853634053057
30
0
41
1
10
26.1444062060228
20
-0.0123761999566625
30
0
41
1
10
26.1565826425883
20
0.0068350190612989
30
0
41
1
10
26.163456579621
20
0.016057695933398
30
0
41
1
10
26.1709215528522
20
0.0247693880674547
30
0
0
SPLINE
5
E9
100
AcDbEntity
8
1
62
256
6
ByLayer
370
18
48
1
60
0
100
AcDbSpline
70
4
71
5
72
32
73
26
40
0
40
0
40
0
40
0
40
0
40
0
40
0.0539925889417017
40
0.0924128353377544
40
0.150043204931833
40
0.188463451327886
40
0.246093820921964
40
0.284514067318017
40
0.342144436912096
40
0.399774806506174
40
0.438195052902227
40
0.495825422496306
40
0.534245668892358
40
0.591876038486437
40
0.63029628488249
40
0.687926654476568
40
0.745557024070647
40
0.7839772704667
40
0.822397516862752
40
0.880027886456831
40
0.93765825605091
40
0.976078502446962
40
1
40
1
40
1
40
1
40
1
40
1
41
1
10
21.8441655789097
20
1.37013950033059
30
0
41
1
10
21.8908881302601
20
1.3673235677897
30
0
41
1
10
21.9708576877335
20
1.36181499594528
30
0
41
1
10
22.1006977543911
20
1.35096339831938
30
0
41
1
10
22.2637848271717
20
1.33347190841676
30
0
41
1
10
22.4767424091366
20
1.30440651564879
30
0
41
1
10
22.6762244458739
20
1.27135462305631
30
0
41
1
10
22.8923299856727
20
1.22941463390148
30
0
41
1
10
23.1084355254715
20
1.18152280618941
30
0
41
1
10
23.3245410652703
20
1.12734496931023
30
0
41
1
10
23.5406466050692
20
1.06771833860165
30
0
41
1
10
23.756752144868
20
1.00242601501148
30
0
41
1
10
23.9728576846668
20
0.932306557692698
30
0
41
1
10
24.1723397214041
20
0.863405865573583
30
0
41
1
10
24.3884452612029
20
0.784610312669315
30
0
41
1
10
24.6045508010017
20
0.702003434146206
30
0
41
1
10
24.8206563408006
20
0.615654309365056
30
0
41
1
10
25.0201383775379
20
0.533200679903075
30
0
41
1
10
25.2362439173367
20
0.441344371537156
30
0
41
1
10
25.4523494571355
20
0.347355839606308
30
0
41
1
10
25.6518314938728
20
0.259004418944414
30
0
41
1
10
25.838767020976
20
0.175127028650991
30
0
41
1
10
25.9924555419562
20
0.105660707133808
30
0
41
1
10
26.096273553752
20
0.0586178336230034
30
0
41
1
10
26.1502210563636
20
0.0341568691244447
30
0
41
1
10
26.1709215528523
20
0.0247693880674262
30
0
0
SPLINE
5
EA
100
AcDbEntity
8
1
62
256
6
ByLayer
370
18
48
1
60
0
100
AcDbSpline
70
4
71
3
72
63
73
59
40
0
40
0
40
0
40
0
40
0.0438577242324111
40
0.0438577242324111
40
0.0877154484648223
40
0.0877154484648223
40
0.175430896929646
40
0.175430896929646
40
0.18639532798775
40
0.18639532798775
40
0.197359759045853
40
0.197359759045853
40
0.219288621162058
40
0.219288621162058
40
0.263146345394469
40
0.263146345394469
40
0.350861793859291
40
0.350861793859291
40
0.394719518091703
40
0.394719518091703
40
0.405683949149806
40
0.405683949149806
40
0.41664838020791
40
0.438577242324118
40
0.438577242324118
40
0.482434966556535
40
0.482434966556535
40
0.526292690788952
40
0.526292690788952
40
0.570150415021369
40
0.570150415021369
40
0.614008139253786
40
0.614008139253786
40
0.624972570311889
40
0.624972570311889
40
0.635937001369992
40
0.635937001369992
40
0.657865863486198
40
0.657865863486198
40
0.701723587718608
40
0.701723587718608
40
0.745581311951019
40
0.745581311951019
40
0.789439036183429
40
0.789439036183429
40
0.833296760415839
40
0.833296760415839
40
0.844261191473942
40
0.844261191473942
40
0.855225622532046
40
0.855225622532046
40
0.877154484648252
40
0.877154484648252
40
0.921012208880664
40
0.921012208880664
40
0.964869933113076
40
0.964869933113076
40
1
40
1
40
1
40
1
41
1
10
27.3321633339481
20
-2.0936451641941
30
0
41
1
10
27.2150062539373
20
-2.05918935076019
30
0
41
1
10
27.0984978913614
20
-2.01998089108923
30
0
41
1
10
26.8660175178851
20
-1.93299634293345
30
0
41
1
10
26.7500388081472
20
-1.88524858831457
30
0
41
1
10
26.4020028037294
20
-1.73015585475903
30
0
41
1
10
26.1698682184482
20
-1.6109631554591
30
0
41
1
10
25.9061766129374
20
-1.46076125440322
30
0
41
1
10
25.876842387256
20
-1.44384590204325
30
0
41
1
10
25.8180950430532
20
-1.40956410755854
30
0
41
1
10
25.7886685450876
20
-1.39218887202057
30
0
41
1
10
25.7005906427512
20
-1.3395947100025
30
0
41
1
10
25.6420353920167
20
-1.30384829849186
30
0
41
1
10
25.4667398556674
20
-1.19472319399574
30
0
41
1
10
25.350367740607
20
-1.11946233454316
30
0
41
1
10
25.0018402865225
20
-0.887350496454474
30
0
41
1
10
24.7702618123593
20
-0.724225457038528
30
0
41
1
10
24.4209193517977
20
-0.470787375164605
30
0
41
1
10
24.3041411767662
20
-0.384850086704347
30
0
41
1
10
24.1574069568358
20
-0.276003329912555
30
0
41
1
10
24.1279949436954
20
-0.254142269151401
30
0
41
1
10
24.0692277996508
20
-0.210392182306322
30
0
41
1
10
23.9812068668112
20
-0.144758490949783
30
0
41
1
10
23.8935382678651
20
-0.079149156043826
30
0
41
1
10
23.7185742579075
20
0.051903884727011
30
0
41
1
10
23.6024239107062
20
0.139043173678829
30
0
41
1
10
23.3703171535128
20
0.311935456269083
30
0
41
1
10
23.2543956676677
20
0.397722578790763
30
0
41
1
10
23.0223527266634
20
0.56733998367082
30
0
41
1
10
22.9062305859427
20
0.651170289574452
30
0
41
1
10
22.673286935448
20
0.816173334168354
30
0
41
1
10
22.5564678113616
20
0.897349154188504
30
0
41
1
10
22.4096668504439
20
0.996656991599025
30
0
41
1
10
22.3802464672521
20
1.01642404711967
30
0
41
1
10
22.321538543782
20
1.05557969678102
30
0
41
1
10
22.2922277688989
20
1.074984089569
30
0
41
1
10
22.2044025563016
20
1.13266824156233
30
0
41
1
10
22.1459918247903
20
1.17042054991245
30
0
41
1
10
21.971052710669
20
1.28148965994996
30
0
41
1
10
21.8548408354564
20
1.35260497318154
30
0
41
1
10
21.6227002999043
20
1.48848692361435
30
0
41
1
10
21.5067620961741
20
1.55326328857652
30
0
41
1
10
21.2746204753009
20
1.67601495175899
30
0
41
1
10
21.1584273514332
20
1.73398561261811
30
0
41
1
10
20.9253193681992
20
1.84241663326461
30
0
41
1
10
20.8084053625405
20
1.89287568065612
30
0
41
1
10
20.6614536252782
20
1.95074279704212
30
0
41
1
10
20.6320539110161
20
1.96204260286976
30
0
41
1
10
20.5733897051131
20
1.98402584301067
30
0
41
1
10
20.5441018845705
20
1.99471759097724
30
0
41
1
10
20.456350875641
20
2.0258989227915
30
0
41
1
10
20.3979952102162
20
2.04550088201975
30
0
41
1
10
20.2231374431882
20
2.1009782773925
30
0
41
1
10
20.106833866582
20
2.13358208417748
30
0
41
1
10
19.8745474581204
20
2.18932736932845
30
0
41
1
10
19.7585492989515
20
2.21250316831706
30
0
41
1
10
19.5495313742004
20
2.24512492702218
30
0
41
1
10
19.4565312432173
20
2.25633609437079
30
0
41
1
10
19.3632630799957
20
2.26454507193989
30
0
0
SPLINE
5
EB
100
AcDbEntity
8
1
62
256
6
ByLayer
370
18
48
1
60
0
100
AcDbSpline
70
4
71
5
72
47
73
41
40
0
40
0
40
0
40
0
40
0
40
0
40
0.0106349719465885
40
0.0443962475478335
40
0.0669037646153302
40
0.100665040216575
40
0.123172557284072
40
0.156933832885317
40
0.190695108486562
40
0.213202625554059
40
0.246963901155304
40
0.2694714182228
40
0.303232693824045
40
0.325740210891542
40
0.359501486492787
40
0.393262762094032
40
0.415770279161529
40
0.438277796229026
40
0.472039071830271
40
0.505800347431516
40
0.528307864499012
40
0.562069140100257
40
0.595830415701502
40
0.618337932768997
40
0.640845449836496
40
0.674606725437741
40
0.708368001038986
40
0.730875518106482
40
0.764636793707727
40
0.787144310775224
40
0.820905586376469
40
0.843413103443966
40
0.877174379045211
40
0.910935654646456
40
0.933443171713953
40
0.967204447315198
40
0.989711964382694
40
1
40
1
40
1
40
1
40
1
40
1
41
1
10
16.8459450780932
20
1.37001083972115
30
0
41
1
10
16.8616545397973
20
1.36905910915755
30
0
41
1
10
16.9272345106857
20
1.36489613759934
30
0
41
1
10
17.026061487697
20
1.35742926518063
30
0
41
1
10
17.1747589738926
20
1.34350282287784
30
0
41
1
10
17.3567034662111
20
1.3215614899535
30
0
41
1
10
17.5728090060099
20
1.2891217950457
30
0
41
1
10
17.7889145458087
20
1.25044406166231
30
0
41
1
10
18.0050200856075
20
1.20511528215425
30
0
41
1
10
18.2211256254063
20
1.15396182171884
30
0
41
1
10
18.4372311652051
20
1.09668321280668
30
0
41
1
10
18.6533367050039
20
1.03412007852773
30
0
41
1
10
18.8528187417413
20
0.971741988712552
30
0
41
1
10
19.0689242815401
20
0.899487407851524
30
0
41
1
10
19.2850298213389
20
0.822867946528561
30
0
41
1
10
19.5011353611377
20
0.741864696946095
30
0
41
1
10
19.700617397875
20
0.663782633201777
30
0
41
1
10
19.9167229376738
20
0.576029010603236
30
0
41
1
10
20.1328284774726
20
0.485492475816727
30
0
41
1
10
20.33231051421
20
0.39971279758231
30
0
41
1
10
20.5484160540088
20
0.304852882057048
30
0
41
1
10
20.781145096869
20
0.200965417932252
30
0
41
1
10
20.9972506366678
20
0.103417220910075
30
0
41
1
10
21.1967326734052
20
0.0129113348173178
30
0
41
1
10
21.412838213204
20
-0.0851504591012997
30
0
41
1
10
21.6289437530028
20
-0.182800873987333
30
0
41
1
10
21.8284257897402
20
-0.272168873995582
30
0
41
1
10
22.044531329539
20
-0.367668734092348
30
0
41
1
10
22.2606368693378
20
-0.461201748420734
30
0
41
1
10
22.4767424091366
20
-0.552483303032574
30
0
41
1
10
22.6762244458739
20
-0.634299414374993
30
0
41
1
10
22.8923299856727
20
-0.719846954922815
30
0
41
1
10
23.1084355254715
20
-0.801936814816258
30
0
41
1
10
23.3245410652703
20
-0.879775832537717
30
0
41
1
10
23.5406466050692
20
-0.953362631743516
30
0
41
1
10
23.7567521448679
20
-1.02187320921954
30
0
41
1
10
23.9381841597671
20
-1.07523215393206
30
0
41
1
10
24.0697456654818
20
-1.11140446310503
30
0
41
1
10
24.1680601650737
20
-1.13697101268357
30
0
41
1
10
24.2165041554812
20
-1.14920669697372
30
0
41
1
10
24.2317011397659
20
-1.15300922584029
30
0
0
SPLINE
5
EC
100
AcDbEntity
8
1
62
256
6
ByLayer
370
18
48
1
60
0
100
AcDbSpline
70
4
71
3
72
8
73
4
40
0
40
0
40
0
40
0
40
1
40
1
40
1
40
1
41
1
10
15.9631777012411
20
1.86694614916297
30
0
41
1
10
16.0227567127151
20
1.8232648530454
30
0
41
1
10
16.0831723525766
20
1.78073997662631
30
0
41
1
10
16.1444335515887
20
1.73938470383345
30
0
0
SPLINE
5
ED
100
AcDbEntity
8
1
62
256
6
ByLayer
370
18
48
1
60
0
100
AcDbSpline
70
4
71
3
72
83
73
79
40
0
40
0
40
0
40
0
40
0.021397499286667
40
0.021397499286667
40
0.096674614726163
40
0.096674614726163
40
0.134313172445911
40
0.134313172445911
40
0.143722811875849
40
0.143722811875849
40
0.153132451305786
40
0.171951730165662
40
0.171951730165662
40
0.209590287885413
40
0.209590287885413
40
0.247228845605164
40
0.247228845605164
40
0.284867403324914
40
0.284867403324914
40
0.322505961044665
40
0.322505961044665
40
0.331915600474602
40
0.331915600474602
40
0.341325239904539
40
0.341325239904539
40
0.36014451876441
40
0.36014451876441
40
0.397783076484153
40
0.397783076484153
40
0.435421634203895
40
0.435421634203895
40
0.473060191923637
40
0.473060191923637
40
0.510698749643379
40
0.510698749643379
40
0.520108389073315
40
0.520108389073315
40
0.529518028503252
40
0.529518028503252
40
0.548337307363123
40
0.548337307363123
40
0.585975865082863
40
0.585975865082863
40
0.623614422802604
40
0.623614422802604
40
0.661252980522344
40
0.661252980522344
40
0.680072259382214
40
0.680072259382214
40
0.698891538242084
40
0.698891538242084
40
0.736530095961823
40
0.736530095961823
40
0.755349374821692
40
0.755349374821692
40
0.774168653681561
40
0.774168653681561
40
0.8118072114013
40
0.8118072114013
40
0.830626490261169
40
0.830626490261169
40
0.849445769121038
40
0.849445769121038
40
0.868265047980907
40
0.868265047980907
40
0.877674687410842
40
0.877674687410842
40
0.887084326840777
40
0.887084326840777
40
0.905903605700648
40
0.905903605700648
40
0.924722884560518
40
0.924722884560518
40
0.962361442280259
40
0.962361442280259
40
0.98118072114013
40
0.98118072114013
40
1
40
1
40
1
40
1
41
1
10
25.4325741653355
20
-1.8703155616754
30
0
41
1
10
25.3663471409718
20
-1.89867202638749
30
0
41
1
10
25.3002378109971
20
-1.92565104967235
30
0
41
1
10
25.0018402865225
20
-2.04123464731757
30
0
41
1
10
24.7702618123592
20
-2.11404249572917
30
0
41
1
10
24.4209193517976
20
-2.19534669834886
30
0
41
1
10
24.3041411767661
20
-2.21779241170901
30
0
41
1
10
24.1574069568357
20
-2.2397290007444
30
0
41
1
10
24.1279949436953
20
-2.24381290932089
30
0
41
1
10
24.0692277996508
20
-2.25133927118429
30
0
41
1
10
23.9812068668112
20
-2.26166285513972
30
0
41
1
10
23.893538267865
20
-2.26908990933163
30
0
41
1
10
23.7185742579074
20
-2.28007064354
30
0
41
1
10
23.6024239107062
20
-2.28221842517266
30
0
41
1
10
23.3703171535127
20
-2.27701201833312
30
0
41
1
10
23.2543956676677
20
-2.26958120178745
30
0
41
1
10
23.0223527266634
20
-2.24501280793825
30
0
41
1
10
22.9062305859427
20
-2.22788072926542
30
0
41
1
10
22.673286935448
20
-2.183780445346
30
0
41
1
10
22.5564678113616
20
-2.15681132528334
30
0
41
1
10
22.4096668504438
20
-2.11672627344947
30
0
41
1
10
22.3802464672521
20
-2.10838177781017
30
0
41
1
10
22.321538543782
20
-2.09112554089373
30
0
41
1
10
22.2922277688989
20
-2.08220893383614
30
0
41
1
10
22.2044025563015
20
-2.05462849133741
30
0
41
1
10
22.1459918247902
20
-2.03514269722459
30
0
41
1
10
21.9710527106689
20
-1.97355075243493
30
0
41
1
10
21.8548408354564
20
-1.92824715168894
30
0
41
1
10
21.6227002999043
20
-1.82968128215791
30
0
41
1
10
21.5067620961741
20
-1.77644947188236
30
0
41
1
10
21.2746204753009
20
-1.66260009444858
30
0
41
1
10
21.1584273514332
20
-1.60195649132197
30
0
41
1
10
20.9253193681992
20
-1.47337316757816
30
0
41
1
10
20.8084053625405
20
-1.40543020749988
30
0
41
1
10
20.6614536252782
20
-1.31606256724047
30
0
41
1
10
20.6320539110161
20
-1.29798571086317
30
0
41
1
10
20.573389705113
20
-1.26153470528877
30
0
41
1
10
20.5441018845705
20
-1.24314470733327
30
0
41
1
10
20.456350875641
20
-1.18751173027601
30
0
41
1
10
20.3979952102162
20
-1.14981481878476
30
0
41
1
10
20.2231374431882
20
-1.03529345206761
30
0
41
1
10
20.106833866582
20
-0.957072783576166
30
0
41
1
10
19.8745474581204
20
-0.79694808045798
30
0
41
1
10
19.7585492989516
20
-0.715077235366948
30
0
41
1
10
19.5264361996116
20
-0.548038095943753
30
0
41
1
10
19.4103192450538
20
-0.462846388083477
30
0
41
1
10
19.2353840121916
20
-0.33378207484472
30
0
41
1
10
19.1769587043704
20
-0.29051687493282
30
0
41
1
10
19.0598368918856
20
-0.203516874663961
30
0
41
1
10
19.0011122165043
20
-0.159762418044266
30
0
41
1
10
18.8246104314253
20
-0.0279957492915344
30
0
41
1
10
18.7076950082069
20
0.0596595450095663
30
0
41
1
10
18.5330942001982
20
0.190327483500681
30
0
41
1
10
18.4750028945129
20
0.233731258038802
30
0
41
1
10
18.3588695168833
20
0.320078214444038
30
0
41
1
10
18.3008276070391
20
0.363023029559599
30
0
41
1
10
18.1267540971554
20
0.491107745305868
30
0
41
1
10
18.0107864275913
20
0.575508280475162
30
0
41
1
10
17.8366880302655
20
0.700172656976179
30
0
41
1
10
17.7786296937828
20
0.741403177667763
30
0
41
1
10
17.6624066267518
20
0.823120660669218
30
0
41
1
10
17.6042447187886
20
0.863607196126651
30
0
41
1
10
17.4877086642513
20
0.943722779287754
30
0
41
1
10
17.4293312136092
20
0.983351972358491
30
0
41
1
10
17.3415426915413
20
1.04208483496549
30
0
41
1
10
17.3122437318752
20
1.06154403454497
30
0
41
1
10
17.2535670124904
20
1.10021299922204
30
0
41
1
10
17.2241654506299
20
1.11943817561215
30
0
41
1
10
17.1360074574636
20
1.17660424810319
30
0
41
1
10
17.0773894726164
20
1.2139750095956
30
0
41
1
10
16.9603253159138
20
1.28721990142836
30
0
41
1
10
16.9018727449301
20
1.32310082084919
30
0
41
1
10
16.72669329359
20
1.42842514932838
30
0
41
1
10
16.6101749418302
20
1.49553353988455
30
0
41
1
10
16.4355136093265
20
1.59100252211414
30
0
41
1
10
16.3773104215678
20
1.62196002427965
30
0
41
1
10
16.2608804240651
20
1.6820377891008
30
0
41
1
10
16.2026593086472
20
1.71114611524604
30
0
41
1
10
16.144375552574
20
1.73931248235857
30
0
0
SPLINE
5
EE
100
AcDbEntity
8
1
62
256
6
ByLayer
370
18
48
1
60
0
100
AcDbSpline
70
4
71
5
72
44
73
38
40
0
40
0
40
0
40
0
40
0
40
0
40
0.0165394376718655
40
0.0406721529808884
40
0.0768712259444227
40
0.101003941253446
40
0.13720301421698
40
0.173402087180514
40
0.197534802489537
40
0.233733875453072
40
0.257866590762094
40
0.294065663725629
40
0.318198379034651
40
0.354397451998186
40
0.39059652496172
40
0.414729240270743
40
0.438861955579766
40
0.4750610285433
40
0.511260101506835
40
0.535392816815857
40
0.571591889779392
40
0.607790962742926
40
0.631923678051947
40
0.656056393360972
40
0.692255466324506
40
0.72845453928804
40
0.752587254597063
40
0.788786327560598
40
0.812919042869621
40
0.849118115833155
40
0.873250831142178
40
0.909449904105712
40
0.945648977069246
40
0.969781692378269
40
1
40
1
40
1
40
1
40
1
40
1
41
1
10
17.0599151947282
20
1.37951936236215
30
0
41
1
10
17.0827011422896
20
1.37885271771813
30
0
41
1
10
17.1387340959739
20
1.37697636571832
30
0
41
1
10
17.2446375588425
20
1.37232936599557
30
0
41
1
10
17.383788027834
20
1.36349715335444
30
0
41
1
10
17.5728090060099
20
1.34666995903905
30
0
41
1
10
17.7889145458087
20
1.32091872999507
30
0
41
1
10
18.0050200856075
20
1.28814366952699
30
0
41
1
10
18.2211256254063
20
1.24914262721629
30
0
41
1
10
18.4372311652051
20
1.20350898491731
30
0
41
1
10
18.6533367050039
20
1.15207180160394
30
0
41
1
10
18.8528187417413
20
1.099440177838
30
0
41
1
10
19.0689242815401
20
1.03712467520401
30
0
41
1
10
19.2850298213389
20
0.969781583587235
30
0
41
1
10
19.5011353611377
20
0.897275167719158
30
0
41
1
10
19.700617397875
20
0.826342970459706
30
0
41
1
10
19.9167229376738
20
0.745545882444389
30
0
41
1
10
20.1328284774726
20
0.661146912084547
30
0
41
1
10
20.33231051421
20
0.580251805523972
30
0
41
1
10
20.5484160540088
20
0.48981091058252
30
0
41
1
10
20.781145096869
20
0.389623270690123
30
0
41
1
10
20.9972506366678
20
0.294508431297658
30
0
41
1
10
21.1967326734052
20
0.205396167033769
30
0
41
1
10
21.412838213204
20
0.107913506143831
30
0
41
1
10
21.6289437530028
20
0.0099094933777906
30
0
41
1
10
21.8284257897402
20
-0.0806448450957475
30
0
41
1
10
22.044531329539
20
-0.178355597804625
30
0
41
1
10
22.2606368693378
20
-0.275105210736115
30
0
41
1
10
22.4767424091366
20
-0.370501705311511
30
0
41
1
10
22.6762244458739
20
-0.456928983609572
30
0
41
1
10
22.8923299856727
20
-0.54832769566201
30
0
41
1
10
23.1084355254715
20
-0.63709908560017
30
0
41
1
10
23.3245410652703
20
-0.722496613033201
30
0
41
1
10
23.5324070622165
20
-0.801279255815786
30
0
41
1
10
23.7070260530399
20
-0.864154070396182
30
0
41
1
10
23.8317745346788
20
-0.907228012404801
30
0
41
1
10
23.9066525071334
20
-0.932385840702096
30
0
41
1
10
23.9482834734652
20
-0.946152539612086
30
0
0
SPLINE
5
EF
100
AcDbEntity
8
1
62
256
6
ByLayer
370
18
48
1
60
0
100
AcDbSpline
70
4
71
5
72
14
73
8
40
0
40
0
40
0
40
0
40
0
40
0
40
0.327701923262098
40
0.687535131055098
40
1
40
1
40
1
40
1
40
1
40
1
41
1
10
16.3899999707546
20
2.08563537467791
30
0
41
1
10
16.359721754033
20
2.07421972809806
30
0
41
1
10
16.2961965311885
20
2.04972932485342
30
0
41
1
10
16.2038009284402
20
2.01247653226659
30
0
41
1
10
16.1114053256919
20
1.97289766208479
30
0
41
1
10
16.0190097229436
20
1.93106854461925
30
0
41
1
10
15.9568923369168
20
1.90195463184642
30
0
41
1
10
15.928021957013
20
1.88821154469906
30
0
0
SPLINE
5
F0
100
AcDbEntity
8
1
62
256
6
ByLayer
370
18
48
1
60
0
100
AcDbSpline
70
4
71
5
72
23
73
17
40
0
40
0
40
0
40
0
40
0
40
0
40
0.232933145608855
40
0.291166432011068
40
0.378516361614389
40
0.436749648016602
40
0.524099577619923
40
0.582332864022137
40
0.669682793625457
40
0.757032723228778
40
0.815266009630991
40
0.902615939234312
40
0.960849225636526
40
1
40
1
40
1
40
1
40
1
40
1
41
1
10
16.0933172335411
20
0.251266663990407
30
0
41
1
10
16.2263052580327
20
0.191952903857327
30
0
41
1
10
16.3925402886472
20
0.117063243489326
30
0
41
1
10
16.608645828446
20
0.0189699212475603
30
0
41
1
10
16.8579983743677
20
-0.094405694267067
30
0
41
1
10
17.1572214294737
20
-0.229083378928692
30
0
41
1
10
17.3567034662111
20
-0.317868772975828
30
0
41
1
10
17.5728090060099
20
-0.412493356562521
30
0
41
1
10
17.7889145458087
20
-0.505147870513724
30
0
41
1
10
18.0050200856075
20
-0.595130336413774
30
0
41
1
10
18.2211256254063
20
-0.682236360216535
30
0
41
1
10
18.4372311652051
20
-0.765705076366629
30
0
41
1
10
18.625818464005
20
-0.835298654695805
30
0
41
1
10
18.7645352536205
20
-0.884310757472917
30
0
41
1
10
18.8700050371131
20
-0.920224708256541
30
0
41
1
10
18.9256043114213
20
-0.93876860023272
30
0
41
1
10
18.9479565796067
20
-0.946160088073867
30
0
0
SPLINE
5
F1
100
AcDbEntity
8
1
62
256
6
ByLayer
370
18
48
1
60
0
100
AcDbSpline
70
4
71
5
72
15
73
9
40
0
40
0
40
0
40
0
40
0
40
0
40
0.252550702868999
40
0.529864087664301
40
0.945834164857255
40
1
40
1
40
1
40
1
40
1
40
1
41
1
10
16.3899999707546
20
1.00083422184954
30
0
41
1
10
16.359721754033
20
1.02229929169297
30
0
41
1
10
16.2961965311885
20
1.06707505383605
30
0
41
1
10
16.1828007991597
20
1.1459972558649
30
0
41
1
10
16.0629111438247
20
1.22740710310714
30
0
41
1
10
15.9430214884897
20
1.30641928630641
30
0
41
1
10
15.8534100498763
20
1.36403172776963
30
0
41
1
10
15.7970456173857
20
1.39967202273519
30
0
41
1
10
15.7905516940795
20
1.40377028725035
30
0
0
SPLINE
5
F2
100
AcDbEntity
8
1
62
256
6
ByLayer
370
18
48
1
60
0
100
AcDbSpline
70
4
71
3
72
52
73
48
40
0
40
0
40
0
40
0
40
0.0121638732447518
40
0.0241217357094258
40
0.0358735602200263
40
0.0474193245360381
40
0.058759011290239
40
0.0698926079314192
40
0.0808201066717079
40
0.0915415044406216
40
0.102056802847221
40
0.112366008152585
40
0.122469131254441
40
0.13236618768625
40
0.142057197632848
40
0.151542185965515
40
0.160821182298948
40
0.169894221073592
40
0.178761341666668
40
0.187422588536158
40
0.195878011402049
40
0.204127665470515
40
0.212171611706997
40
0.220009917165673
40
0.2276426553836
40
0.23506990684984
40
0.242291759561831
40
0.249308309682819
40
0.256119662318719
40
0.262725932434591
40
0.269127245937369
40
0.301055043037014
40
0.333460305030082
40
0.366349560228881
40
0.399729082705643
40
0.433604906744793
40
0.467982840276722
40
0.502868477352214
40
0.538267209721402
40
0.585908147503745
40
0.636413921634748
40
0.689792901329586
40
0.746052131618898
40
0.805197610567078
40
0.867234503590396
40
0.932167310960874
40
1
40
1
40
1
40
1
41
1
10
16.0919344664377
20
0.25804725886195
30
0
41
1
10
16.0871380210397
20
0.266114359709007
30
0
41
1
10
16.0776263641927
20
0.282111934713129
30
0
41
1
10
16.0634441588215
20
0.305947838336948
30
0
41
1
10
16.0494738952698
20
0.329397071790083
30
0
41
1
10
16.0357101771678
20
0.352456257757496
30
0
41
1
10
16.0221508333307
20
0.375118061518919
30
0
41
1
10
16.0087933786053
20
0.397376874376477
30
0
41
1
10
15.9956359084823
20
0.419227302831331
30
0
41
1
10
15.9826768369473
20
0.440664534329016
30
0
41
1
10
15.9699149362473
20
0.461684213148374
30
0
41
1
10
15.9573492982768
20
0.482282443686444
30
0
41
1
10
15.9449793167865
20
0.502455760394014
30
0
41
1
10
15.9328046646449
20
0.522201106364776
30
0
41
1
10
15.9208252729282
20
0.541515809758408
30
0
41
1
10
15.90904131013
20
0.560397560979624
30
0
41
1
10
15.8974531619862
20
0.57884438995049
30
0
41
1
10
15.8860614118301
20
0.596854643736293
30
0
41
1
10
15.8748668215312
20
0.614426964534744
30
0
41
1
10
15.8638703130463
20
0.631560268104352
30
0
41
1
10
15.8530729505599
20
0.648253722646643
30
0
41
1
10
15.8424759233798
20
0.664506728297567
30
0
41
1
10
15.8320805290589
20
0.680318896864918
30
0
41
1
10
15.8218881586828
20
0.695690033284222
30
0
41
1
10
15.8119002773973
20
0.710620113651061
30
0
41
1
10
15.8021184250335
20
0.725109278401106
30
0
41
1
10
15.7925441477583
20
0.739157774194069
30
0
41
1
10
15.7831791795818
20
0.752766082424756
30
0
41
1
10
15.7740247337838
20
0.76593438379129
30
0
41
1
10
15.7650839747999
20
0.778664396247592
30
0
41
1
10
15.7446548382461
20
0.807417770871211
30
0
41
1
10
15.7119342888447
20
0.852292387724674
30
0
41
1
10
15.665844780799
20
0.91315945708908
30
0
41
1
10
15.6179697180341
20
0.974100810056996
30
0
41
1
10
15.5683420448273
20
1.03512576648964
30
0
41
1
10
15.5169887791013
20
1.096243812615
30
0
41
1
10
15.4639425778701
20
1.15747203089939
30
0
41
1
10
15.4092364154256
20
1.21883072405754
30
0
41
1
10
15.3466895108278
20
1.28713785168418
30
0
41
1
10
15.2747431246493
20
1.36344626777316
30
0
41
1
10
15.191903904268
20
1.44885265174628
30
0
41
1
10
15.1032693193087
20
1.5380272392438
30
0
41
1
10
15.0088752798228
20
1.63100130116334
30
0
41
1
10
14.9087620946032
20
1.72781366825049
30
0
41
1
10
14.8029549505428
20
1.82848800206079
30
0
41
1
10
14.6915339690781
20
1.93311340910452
30
0
41
1
10
14.6150848035325
20
2.00383917177078
30
0
41
1
10
14.5760253143279
20
2.03997445387142
30
0
0
SPLINE
5
F3
100
AcDbEntity
8
1
62
256
6
ByLayer
370
18
48
1
60
0
100
AcDbSpline
70
4
71
3
72
14
73
10
40
0
40
0
40
0
40
0
40
0.249999999999998
40
0.249999999999998
40
0.374999999999999
40
0.374999999999999
40
0.5
40
0.5
40
1
40
1
40
1
40
1
41
1
10
27.3992073557094
20
0.546637364163047
30
0
41
1
10
27.3941501128498
20
0.502581003436177
30
0
41
1
10
27.3905816892506
20
0.457821115328414
30
0
41
1
10
27.3875345683786
20
0.38959183420539
30
0
41
1
10
27.3869055907019
20
0.366665670222261
30
0
41
1
10
27.3864278437483
20
0.320835736267384
30
0
41
1
10
27.3865763625151
20
0.297883779272127
30
0
41
1
10
27.3892272217629
20
0.182941784216126
30
0
41
1
10
27.3974335356356
20
0.0904071041786949
30
0
41
1
10
27.4115326500198
20
-0.0026902479292517
30
0
0
SPLINE
5
F4
100
AcDbEntity
8
1
62
256
6
ByLayer
370
18
48
1
60
0
100
AcDbSpline
70
4
71
3
72
17
73
13
40
0
40
0
40
0
40
0
40
0.25
40
0.25
40
0.5
40
0.5
40
0.625000000000003
40
0.625000000000003
40
0.687500000000002
40
0.687500000000002
40
0.75
40
1
40
1
40
1
40
1
41
1
10
15.9631777012376
20
-1.86694614916172
30
0
41
1
10
15.8080482846287
20
-1.94217963227618
30
0
41
1
10
15.6535155180284
20
-2.00987477896189
30
0
41
1
10
15.3442883459319
20
-2.12936305028163
30
0
41
1
10
15.1895968359961
20
-2.1811581273526
30
0
41
1
10
14.9564187418961
20
-2.2461640185347
30
0
41
1
10
14.8785022271696
20
-2.26571651826305
30
0
41
1
10
14.7612076836516
20
-2.29175835257982
30
0
41
1
10
14.7220040742572
20
-2.29989756847434
30
0
41
1
10
14.6436321671178
20
-2.31502240649752
30
0
41
1
10
14.4478319257146
20
-2.34994676437654
30
0
41
1
10
14.2524036498808
20
-2.37042146086668
30
0
41
1
10
14.0955942921035
20
-2.37739227931877
30
0
0
SPLINE
5
F5
100
AcDbEntity
8
1
62
256
6
ByLayer
370
18
48
1
60
0
100
AcDbSpline
70
4
71
3
72
10
73
6
40
0
40
0
40
0
40
0
40
0.5
40
0.5
40
1
40
1
40
1
40
1
41
1
10
14.5762586103275
20
-1.08294024194069
30
0
41
1
10
14.7786407915267
20
-1.22376115032185
30
0
41
1
10
14.9810229727258
20
-1.35739252088553
30
0
41
1
10
15.3857873351241
20
-1.60500476378061
30
0
41
1
10
15.5881695163233
20
-1.71897914986351
30
0
41
1
10
15.7905516975225
20
-1.82087379866519
30
0
0
SPLINE
5
F6
100
AcDbEntity
8
1
62
256
6
ByLayer
370
18
48
1
60
0
100
AcDbSpline
70
4
71
3
72
14
73
10
40
0
40
0
40
0
40
0
40
0.25
40
0.25
40
0.5
40
0.5
40
0.75
40
0.75
40
1
40
1
40
1
40
1
41
1
10
15.7905929444222
20
-1.82079948015377
30
0
41
1
10
15.7988203164959
20
-1.78520693641312
30
0
41
1
10
15.8096153642805
20
-1.74860709712283
30
0
41
1
10
15.8344812533206
20
-1.6732720164147
30
0
41
1
10
15.8485680302234
20
-1.6345322197933
30
0
41
1
10
15.8788566557892
20
-1.55481954503449
30
0
41
1
10
15.8949792805202
20
-1.51406670283362
30
0
41
1
10
15.9283608417918
20
-1.43064699066565
30
0
41
1
10
15.9456289675041
20
-1.38796893148913
30
0
41
1
10
15.9631777012532
20
-1.34429619769179
30
0
0
SPLINE
5
F7
100
AcDbEntity
8
1
62
256
6
ByLayer
370
18
48
1
60
0
100
AcDbSpline
70
4
71
3
72
17
73
13
40
0
40
0
40
0
40
0
40
0.250000000000002
40
0.250000000000002
40
0.500000000000004
40
0.500000000000004
40
0.625000000000001
40
0.625000000000001
40
0.6875
40
0.6875
40
0.749999999999998
40
1
40
1
40
1
40
1
41
1
10
15.9631777012393
20
-1.34429619768281
30
0
41
1
10
15.8080482846302
20
-1.24425619810071
30
0
41
1
10
15.6535155180298
20
-1.1393843819861
30
0
41
1
10
15.344288345933
20
-0.921583241092861
30
0
41
1
10
15.1895968359971
20
-0.808650582421649
30
0
41
1
10
14.9564187418969
20
-0.63434446011459
30
0
41
1
10
14.8785022271703
20
-0.575424207377836
30
0
41
1
10
14.7612076836522
20
-0.485959191092803
30
0
41
1
10
14.7220040742578
20
-0.455929494809823
30
0
41
1
10
14.6436321671183
20
-0.395685545615265
30
0
41
1
10
14.447831925715
20
-0.244647413558397
30
0
41
1
10
14.2524036498809
20
-0.0918240897004523
30
0
41
1
10
14.0955942921035
20
0.0306786496788618
30
0
0
SPLINE
5
F8
100
AcDbEntity
8
1
62
256
6
ByLayer
370
18
48
1
60
0
100
AcDbSpline
70
4
71
3
72
20
73
16
40
0
40
0
40
0
40
0
40
0.125000000000032
40
0.125000000000032
40
0.187500000000034
40
0.187500000000034
40
0.250000000000036
40
0.250000000000036
40
0.500000000000016
40
0.500000000000016
40
0.625000000000005
40
0.625000000000005
40
0.749999999999995
40
0.749999999999995
40
1
40
1
40
1
40
1
41
1
10
13.9062351381267
20
2.15060397365789
30
0
41
1
10
13.9363862497113
20
2.15158165884333
30
0
41
1
10
13.966660424018
20
2.15153789637765
30
0
41
1
10
14.0122162792736
20
2.15027277009318
30
0
41
1
10
14.0274171739435
20
2.14964656765076
30
0
41
1
10
14.0575122057272
20
2.14803798026776
30
0
41
1
10
14.0724537792626
20
2.1470544012806
30
0
41
1
10
14.146683057564
20
2.14131090105991
30
0
41
1
10
14.2045676445174
20
2.13413815277571
30
0
41
1
10
14.2895887181015
20
2.11984503391292
30
0
41
1
10
14.3177120818559
20
2.1144559953286
30
0
41
1
10
14.3725415106009
20
2.10261204381885
30
0
41
1
10
14.399333314015
20
2.09614667677968
30
0
41
1
10
14.4779602930443
20
2.07508264515852
30
0
41
1
10
14.5280627574659
20
2.05883289941798
30
0
41
1
10
14.5759339812505
20
2.04005806555057
30
0
0
SPLINE
5
F9
100
AcDbEntity
8
1
62
256
6
ByLayer
370
18
48
1
60
0
100
AcDbSpline
70
4
71
3
72
10
73
6
40
0
40
0
40
0
40
0
40
0.5
40
0.5
40
1
40
1
40
1
40
1
41
1
10
14.5762586103275
20
2.0400445558314
30
0
41
1
10
14.7786407915267
20
1.95848782394336
30
0
41
1
10
14.9810229727259
20
1.86339651465926
30
0
41
1
10
15.3857873351241
20
1.64989585508638
30
0
41
1
10
15.5881695163233
20
1.5314920974869
30
0
41
1
10
15.7905516975225
20
1.40377027779266
30
0
0
SPLINE
5
FA
100
AcDbEntity
8
1
62
256
6
ByLayer
370
18
48
1
60
0
100
AcDbSpline
70
4
71
3
72
14
73
10
40
0
40
0
40
0
40
0
40
0.25
40
0.25
40
0.5
40
0.5
40
0.75
40
0.75
40
1
40
1
40
1
40
1
41
1
10
15.7905929444223
20
1.40386342944643
30
0
41
1
10
15.7988203164959
20
1.44847345184502
30
0
41
1
10
15.8096153642805
20
1.4913832099711
30
0
41
1
10
15.8344812533206
20
1.5742731932537
30
0
41
1
10
15.8485680302235
20
1.61425474450402
30
0
41
1
10
15.8788566557892
20
1.69152058154364
30
0
41
1
10
15.8949792805203
20
1.72859214574635
30
0
41
1
10
15.9283608417919
20
1.79987971796535
30
0
41
1
10
15.9456289675041
20
1.83410276756212
30
0
41
1
10
15.9631777012532
20
1.86694614915407
30
0
0
SPLINE
5
FB
100
AcDbEntity
8
1
62
256
6
ByLayer
370
18
48
1
60
0
100
AcDbSpline
70
4
71
3
72
8
73
4
40
0
40
0
40
0
40
0
40
1
40
1
40
1
40
1
41
1
10
27.2528312242234
20
0.0270356351367695
30
0
41
1
10
27.3057362157764
20
0.0171277444824511
30
0
41
1
10
27.3586369820715
20
0.0072191640578865
30
0
41
1
10
27.4115326500197
20
-0.0026902479292232
30
0
0
SPLINE
5
FC
100
AcDbEntity
8
1
62
256
6
ByLayer
370
18
48
1
60
0
100
AcDbSpline
70
4
71
3
72
42
73
38
40
0
40
0
40
0
40
0
40
0.0625000000000067
40
0.0625000000000067
40
0.0937500000000046
40
0.0937500000000046
40
0.125000000000002
40
0.125000000000002
40
0.187499999999998
40
0.187499999999998
40
0.249999999999994
40
0.249999999999994
40
0.31249999999999
40
0.31249999999999
40
0.343749999999986
40
0.343749999999986
40
0.374999999999981
40
0.374999999999981
40
0.406249999999977
40
0.406249999999977
40
0.437499999999972
40
0.437499999999972
40
0.499999999999981
40
0.499999999999981
40
0.56249999999999
40
0.56249999999999
40
0.624999999999998
40
0.624999999999998
40
0.656250000000003
40
0.656250000000003
40
0.687500000000007
40
0.687500000000007
40
0.750000000000016
40
0.750000000000016
40
0.875000000000008
40
0.875000000000008
40
1
40
1
40
1
40
1
41
1
10
27.2525458322138
20
0.0270889607566005
30
0
41
1
10
27.2686921915542
20
0.0233516143024701
30
0
41
1
10
27.2840911752223
20
0.0197421634825048
30
0
41
1
10
27.3056117556227
20
0.0145980066047855
30
0
41
1
10
27.3125205134128
20
0.0129285965869599
30
0
41
1
10
27.325702162387
20
0.0096985900513005
30
0
41
1
10
27.3319774782539
20
0.0081372692845321
30
0
41
1
10
27.3495155151919
20
0.003685203435623
30
0
41
1
10
27.3595604141019
20
0.0010108168526415
30
0
41
1
10
27.3749562319767
20
-0.0035010915007092
30
0
41
1
10
27.3803328569149
20
-0.0053446471237066
30
0
41
1
10
27.3839996000747
20
-0.007762442226408
30
0
41
1
10
27.3821834035483
20
-0.0082859594253364
30
0
41
1
10
27.3726729871297
20
-0.007796817457546
30
0
41
1
10
27.3683223630981
20
-0.0074143495706664
30
0
41
1
10
27.3575290982228
20
-0.0062288784020268
30
0
41
1
10
27.3510764735808
20
-0.0054271337912155
30
0
41
1
10
27.3361694255125
20
-0.0034274351903321
30
0
41
1
10
27.3277180537703
20
-0.0022302880005327
30
0
41
1
10
27.308899574596
20
0.0005439986539955
30
0
41
1
10
27.2987334584932
20
0.0020916610145605
30
0
41
1
10
27.2662810571757
20
0.007149065367372
30
0
41
1
10
27.242055196608
20
0.0110701541966591
30
0
41
1
10
27.1897701042172
20
0.0197253165833615
30
0
41
1
10
27.1623801467244
20
0.0243478806346218
30
0
41
1
10
27.1060005452937
20
0.0339749802599272
30
0
41
1
10
27.0769908526485
20
0.0389834786449796
30
0
41
1
10
27.0326004910222
20
0.0467044736399771
30
0
41
1
10
27.0176557919904
20
0.0493133081499195
30
0
41
1
10
26.9875115705081
20
0.05459156742549
30
0
41
1
10
26.9723068056092
20
0.0572619443173323
30
0
41
1
10
26.9266353276627
20
0.0653035372939712
30
0
41
1
10
26.8960144247355
20
0.0707219802250165
30
0
41
1
10
26.8037649462693
20
0.0871054076462485
30
0
41
1
10
26.7417571238303
20
0.0981959992082864
30
0
41
1
10
26.6171018507848
20
0.120589028022238
30
0
41
1
10
26.5544489252271
20
0.131893278585238
30
0
41
1
10
26.4915665445823
20
0.143273524974745
30
0
0
SPLINE
5
FD
100
AcDbEntity
8
1
62
256
6
ByLayer
370
18
48
1
60
0
100
AcDbSpline
70
4
71
3
72
15
73
11
40
0
40
0
40
0
40
0
40
0.0689854563712062
40
0.137970912742413
40
0.275941825484826
40
0.413912738227238
40
0.551883650969651
40
0.689854563712064
40
0.827825476454476
40
1
40
1
40
1
40
1
41
1
10
16.0933172335411
20
0.251266663990407
30
0
41
1
10
16.0483458752823
20
0.222386430188834
30
0
41
1
10
15.9526955335325
20
0.174625486671232
30
0
41
1
10
15.761328756317
20
0.0868819367045148
30
0
41
1
10
15.523781952659
20
-0.0101670281395627
30
0
41
1
10
15.2430770080172
20
-0.0970653768808347
30
0
41
1
10
14.9669783762383
20
-0.146584221637426
30
0
41
1
10
14.6951860530255
20
-0.149782442785437
30
0
41
1
10
14.4043800598029
20
-0.0999085577433902
30
0
41
1
10
14.2051351699139
20
-0.0222837482207865
30
0
41
1
10
14.0952741867763
20
0.0308333893224528
30
0
0
SPLINE
5
FE
100
AcDbEntity
8
1
62
256
6
ByLayer
370
18
48
1
60
0
100
AcDbSpline
70
4
71
3
72
69
73
65
40
0
40
0
40
0
40
0
40
0.0625000000000058
40
0.0625000000000058
40
0.0937500000000087
40
0.0937500000000087
40
0.125000000000012
40
0.125000000000012
40
0.187500000000017
40
0.187500000000017
40
0.250000000000023
40
0.250000000000023
40
0.312500000000029
40
0.312500000000029
40
0.34375000000003
40
0.34375000000003
40
0.375000000000032
40
0.375000000000032
40
0.437500000000034
40
0.437500000000034
40
0.453125000000035
40
0.453125000000035
40
0.468750000000036
40
0.468750000000036
40
0.500000000000037
40
0.500000000000037
40
0.531250000000038
40
0.531250000000038
40
0.546875000000039
40
0.546875000000039
40
0.56250000000004
40
0.56250000000004
40
0.593750000000041
40
0.593750000000041
40
0.601562500000042
40
0.601562500000042
40
0.609375000000042
40
0.625000000000042
40
0.640625000000042
40
0.640625000000042
40
0.656250000000042
40
0.656250000000042
40
0.68750000000004
40
0.68750000000004
40
0.703125000000039
40
0.703125000000039
40
0.718750000000038
40
0.718750000000038
40
0.750000000000033
40
0.750000000000033
40
0.765625000000028
40
0.765625000000028
40
0.781250000000023
40
0.781250000000023
40
0.812500000000017
40
0.812500000000017
40
0.875000000000006
40
0.875000000000006
40
0.890625000000005
40
0.890625000000005
40
0.906250000000004
40
0.937500000000001
40
0.937500000000001
40
1
40
1
40
1
40
1
41
1
10
14.0949089575258
20
0.0312759653227488
30
0
41
1
10
14.0286389747215
20
0.0832229843640278
30
0
41
1
10
13.9627569783566
20
0.136000379292938
30
0
41
1
10
13.8644989380003
20
0.216427748699317
30
0
41
1
10
13.8317998914031
20
0.243482175710852
30
0
41
1
10
13.7668375520152
20
0.297819465607318
30
0
41
1
10
13.7345749675729
20
0.325100732279424
30
0
41
1
10
13.6384594772544
20
0.407285898091487
30
0
41
1
10
13.5752742832208
20
0.462527399185745
30
0
41
1
10
13.4508686601077
20
0.574010587187161
30
0
41
1
10
13.3896454236273
20
0.630250178647003
30
0
41
1
10
13.2695190589184
20
0.74396871037888
30
0
41
1
10
13.2106098211402
20
0.801442970886171
30
0
41
1
10
13.1244783091212
20
0.888941556524486
30
0
41
1
10
13.0961014376407
20
0.918368687647046
30
0
41
1
10
13.0404351121428
20
0.97753821035036
30
0
41
1
10
13.0131852126946
20
1.00723586296075
30
0
41
1
10
12.9334687025321
20
1.09678815911281
30
0
41
1
10
12.882974158744
20
1.15707454910509
30
0
41
1
10
12.8247677015791
20
1.23386046997183
30
0
41
1
10
12.8133925265498
20
1.24927221136269
30
0
41
1
10
12.7913419042763
20
1.28007268029097
30
0
41
1
10
12.7806505149001
20
1.29548212258865
30
0
41
1
10
12.7496814760203
20
1.34175988048145
30
0
41
1
10
12.7304989378687
20
1.37267543075117
30
0
41
1
10
12.6958057304508
20
1.43479230174952
30
0
41
1
10
12.6802862759806
20
1.46599158615126
30
0
41
1
10
12.660626759562
20
1.5131917546054
30
0
41
1
10
12.6546758226866
20
1.52900817163297
30
0
41
1
10
12.6442256257015
20
1.56076116442901
30
0
41
1
10
12.6397854384027
20
1.57651861769895
30
0
41
1
10
12.6290628389396
20
1.62344077850568
30
0
41
1
10
12.6253530298877
20
1.65425464961933
30
0
41
1
10
12.6261268057309
20
1.69221721678352
30
0
41
1
10
12.6265571464922
20
1.69979967440344
30
0
41
1
10
12.6279776412
20
1.71473400221154
30
0
41
1
10
12.6309455219235
20
1.73684295619839
30
0
41
1
10
12.6401201128693
20
1.77225128147629
30
0
41
1
10
12.6520836026411
20
1.79908558697642
30
0
41
1
10
12.6664295986107
20
1.82519295973751
30
0
41
1
10
12.6748617761894
20
1.83795680894093
30
0
41
1
10
12.7031452277085
20
1.87434435206219
30
0
41
1
10
12.7260004141278
20
1.89627113351173
30
0
41
1
10
12.7654761063645
20
1.92636070588645
30
0
41
1
10
12.7795681323673
20
1.93595505107478
30
0
41
1
10
12.8088558353842
20
1.95398775187533
30
0
41
1
10
12.8240890628965
20
1.96246386170967
30
0
41
1
10
12.8713420383199
20
1.986515045738
30
0
41
1
10
12.9049047591622
20
2.00072461960255
30
0
41
1
10
12.9577425322099
20
2.01997850403023
30
0
41
1
10
12.9757980888962
20
2.02605725185902
30
0
41
1
10
13.0125704399935
20
2.03756937419121
30
0
41
1
10
13.0311776767478
20
2.04297011082241
30
0
41
1
10
13.087583871735
20
2.05826232928007
30
0
41
1
10
13.1259636000208
20
2.06725127468897
30
0
41
1
10
13.2429872718737
20
2.09147041479102
30
0
41
1
10
13.3234920685075
20
2.10399966974379
30
0
41
1
10
13.4264230328588
20
2.11671302114377
30
0
41
1
10
13.4471472798844
20
2.11910582098707
30
0
41
1
10
13.4885983540658
20
2.12359001643853
30
0
41
1
10
13.550848893295
20
2.12987285411404
30
0
41
1
10
13.6133048692335
20
2.13495637444839
30
0
41
1
10
13.7384582729798
20
2.14377773090152
30
0
41
1
10
13.8222140847916
20
2.14787949237686
30
0
41
1
10
13.9062351381267
20
2.15060397365787
30
0
0
SPLINE
5
FF
100
AcDbEntity
8
1
62
256
6
ByLayer
370
18
48
1
60
0
100
AcDbSpline
70
4
71
3
72
26
73
22
40
0
40
0
40
0
40
0
40
0.102888594596551
40
0.102888594596551
40
0.205777189193101
40
0.205777189193101
40
0.308665783789651
40
0.308665783789651
40
0.411554378386202
40
0.411554378386202
40
0.514442972982752
40
0.514442972982752
40
0.617331567579303
40
0.617331567579303
40
0.720220162175853
40
0.720220162175853
40
0.823108756772404
40
0.823108756772404
40
0.925997351368954
40
0.925997351368954
40
1
40
1
40
1
40
1
41
1
10
27.252647335123
20
0.0270096631784895
30
0
41
1
10
27.0263420744458
20
0.203807181794701
30
0
41
1
10
26.8000368137686
20
0.380373332025698
30
0
41
1
10
26.3474262924141
20
0.724346725803542
30
0
41
1
10
26.1211210317368
20
0.891739888444391
30
0
41
1
10
25.6685105103821
20
1.20909474405593
30
0
41
1
10
25.4422052497048
20
1.35904344624674
30
0
41
1
10
24.98959472835
20
1.6340981525864
30
0
41
1
10
24.7632894676726
20
1.75919289693832
30
0
41
1
10
24.3106789463176
20
1.97835600829435
30
0
41
1
10
24.0843736856401
20
2.07241540273819
30
0
41
1
10
23.6317631642851
20
2.22485724066996
30
0
41
1
10
23.4054579036075
20
2.28323344333842
30
0
41
1
10
22.9528473822522
20
2.36142123419023
30
0
41
1
10
22.7265421215746
20
2.38122962192378
30
0
41
1
10
22.2739316002193
20
2.38129971961459
30
0
41
1
10
22.0476263395416
20
2.36156142783983
30
0
41
1
10
21.595015818186
20
2.28351023900279
30
0
41
1
10
21.3687105575083
20
2.22520053632931
30
0
41
1
10
20.9796351787724
20
2.09426601593998
30
0
41
1
10
20.8168650607145
20
2.03025938262235
30
0
41
1
10
20.6540949426566
20
1.95788401489742
30
0
0
SPLINE
5
100
100
AcDbEntity
8
1
62
256
6
ByLayer
370
18
48
1
60
0
100
AcDbSpline
70
4
71
3
72
38
73
34
40
0
40
0
40
0
40
0
40
0.062499999999999
40
0.062499999999999
40
0.124999999999999
40
0.124999999999999
40
0.187499999999999
40
0.187499999999999
40
0.249999999999999
40
0.249999999999999
40
0.312499999999999
40
0.312499999999999
40
0.374999999999999
40
0.374999999999999
40
0.437499999999999
40
0.437499999999999
40
0.499999999999999
40
0.499999999999999
40
0.5625
40
0.5625
40
0.625
40
0.625
40
0.6875
40
0.6875
40
0.75
40
0.75
40
0.8125
40
0.8125
40
0.875
40
0.875
40
0.9375
40
0.9375
40
1
40
1
40
1
40
1
41
1
10
27.252647335123
20
-2.37341320972945
30
0
41
1
10
27.0263420744458
20
-2.35908050890325
30
0
41
1
10
26.8000368137686
20
-2.32504023899642
30
0
41
1
10
26.3474262924142
20
-2.21922103521283
30
0
41
1
10
26.1211210317368
20
-2.14744643267687
30
0
41
1
10
25.6685105103823
20
-1.96970217758548
30
0
41
1
10
25.4422052497048
20
-1.86373980208592
30
0
41
1
10
24.98959472835
20
-1.62285331579071
30
0
41
1
10
24.7632894676726
20
-1.48793906582171
30
0
41
1
10
24.3106789463176
20
-1.19581325062512
30
0
41
1
10
24.0843736856403
20
-1.03861364313252
30
0
41
1
10
23.631763164285
20
-0.709683328064301
30
0
41
1
10
23.4054579036075
20
-0.537966085276821
30
0
41
1
10
22.9528473822523
20
-0.188484758088521
30
0
41
1
10
22.7265421215745
20
-0.0107349799501435
30
0
41
1
10
22.2739316002194
20
0.34202835016535
30
0
41
1
10
22.0476263395416
20
0.517027461548395
30
0
41
1
10
21.595015818186
20
0.855641581733749
30
0
41
1
10
21.3687105575082
20
1.0192427289351
30
0
41
1
10
20.9161000361527
20
1.32697555743408
30
0
41
1
10
20.6897947754749
20
1.47109464048432
30
0
41
1
10
20.2371842541189
20
1.73274001398065
30
0
41
1
10
20.010878993441
20
1.8502555936835
30
0
41
1
10
19.5582684720852
20
2.05288466093003
30
0
41
1
10
19.3319632114071
20
2.13798985369655
30
0
41
1
10
18.8793526900511
20
2.27158993365688
30
0
41
1
10
18.653047429373
20
2.32007935223666
30
0
41
1
10
18.2004369080168
20
2.37804870201452
30
0
41
1
10
17.9741316473387
20
2.38752625988013
30
0
41
1
10
17.5215211259823
20
2.36700029324331
30
0
41
1
10
17.2952158653041
20
2.33699760754718
30
0
41
1
10
16.8426053439476
20
2.23899044739679
30
0
41
1
10
16.6163000832694
20
2.17098998572982
30
0
41
1
10
16.389994822591
20
2.0856671758996
30
0
0
SPLINE
5
101
100
AcDbEntity
8
1
62
256
6
ByLayer
370
18
48
1
60
0
100
AcDbSpline
70
4
71
3
72
26
73
22
40
0
40
0
40
0
40
0
40
0.0577396425304102
40
0.0577396425304102
40
0.162435237804809
40
0.162435237804809
40
0.267130833079208
40
0.267130833079208
40
0.371826428353607
40
0.371826428353607
40
0.476522023628006
40
0.476522023628006
40
0.581217618902405
40
0.581217618902405
40
0.685913214176803
40
0.685913214176803
40
0.790608809451202
40
0.790608809451202
40
0.895304404725601
40
0.895304404725601
40
1
40
1
40
1
40
1
41
1
10
22.8746590556426
20
-2.36324618119042
30
0
41
1
10
22.749851657394
20
-2.3752119018373
30
0
41
1
10
22.6250442591455
20
-2.38124534132379
30
0
41
1
10
22.2739316002193
20
-2.38129971961473
30
0
41
1
10
22.0476263395416
20
-2.36156142783997
30
0
41
1
10
21.595015818186
20
-2.28351023900294
30
0
41
1
10
21.3687105575083
20
-2.22520053632945
30
0
41
1
10
20.9161000361526
20
-2.07288470043812
30
0
41
1
10
20.6897947754749
20
-1.97888480052623
30
0
41
1
10
20.2371842541189
20
-1.75983062723395
30
0
41
1
10
20.010878993441
20
-1.63478532084176
30
0
41
1
10
19.5582684720852
20
-1.35981690034444
30
0
41
1
10
19.3319632114072
20
-1.20990504231699
30
0
41
1
10
18.879352690051
20
-0.892609391406836
30
0
41
1
10
18.653047429373
20
-0.725238587456289
30
0
41
1
10
18.2004369080168
20
-0.381294276969584
30
0
41
1
10
17.9741316473386
20
-0.204734850115386
30
0
41
1
10
17.5215211259823
20
0.148862723755826
30
0
41
1
10
17.2952158653041
20
0.325886395948231
30
0
41
1
10
16.8426053439476
20
0.671664808041271
30
0
41
1
10
16.6163000832694
20
0.840405393466995
30
0
41
1
10
16.389994822591
20
1.00084197706874
30
0
0
SPLINE
5
102
100
AcDbEntity
8
1
62
256
6
ByLayer
370
18
48
1
60
0
100
AcDbSpline
70
4
71
3
72
20
73
16
40
0
40
0
40
0
40
0
40
0.165923442272148
40
0.165923442272148
40
0.331846884544296
40
0.331846884544296
40
0.497770326816443
40
0.497770326816443
40
0.663693769088591
40
0.663693769088591
40
0.829617211360739
40
0.829617211360739
40
0.995540653632887
40
0.995540653632887
40
1
40
1
40
1
40
1
41
1
10
12.6473723497148
20
-1.69396720205054
30
0
41
1
10
12.7724560256233
20
-1.67596762792161
30
0
41
1
10
12.8983629406965
20
-1.65738965649612
30
0
41
1
10
13.152101800852
20
-1.61947434305259
30
0
41
1
10
13.2799346256098
20
-1.60013583447372
30
0
41
1
10
13.537800193652
20
-1.5613365671889
30
0
41
1
10
13.6678341212754
20
-1.54187557160475
30
0
41
1
10
13.9303408776087
20
-1.50373437258236
30
0
41
1
10
14.0628150749927
20
-1.48505531643329
30
0
41
1
10
14.3303665812514
20
-1.44963493689943
30
0
41
1
10
14.4654452310829
20
-1.43289637534807
30
0
41
1
10
14.7382535360415
20
-1.40270977938053
30
0
41
1
10
14.8759842447869
20
-1.38926600181105
30
0
41
1
10
15.0187236193304
20
-1.37789104528585
30
0
41
1
10
15.0224603877309
20
-1.37759504724514
30
0
41
1
10
15.0261980731214
20
-1.37730077576333
30
0
0
SPLINE
5
103
100
AcDbEntity
8
1
62
256
6
ByLayer
370
18
48
1
60
0
100
AcDbSpline
70
4
71
3
72
40
73
36
40
0
40
0
40
0
40
0
40
0.124999999999998
40
0.124999999999998
40
0.1875
40
0.1875
40
0.250000000000002
40
0.250000000000002
40
0.375
40
0.375
40
0.437499999999999
40
0.437499999999999
40
0.499999999999998
40
0.499999999999998
40
0.562499999999998
40
0.562499999999998
40
0.624999999999997
40
0.624999999999997
40
0.687499999999996
40
0.687499999999996
40
0.718749999999996
40
0.718749999999996
40
0.749999999999995
40
0.749999999999995
40
0.812499999999994
40
0.812499999999994
40
0.843749999999995
40
0.843749999999995
40
0.874999999999996
40
0.874999999999996
40
0.906249999999997
40
0.906249999999997
40
0.937499999999998
40
0.937499999999998
40
1
40
1
40
1
40
1
41
1
10
14.0949089578151
20
-2.37742619382573
30
0
41
1
10
14.0115234008922
20
-2.38112923114329
30
0
41
1
10
13.9288034108243
20
-2.38222603038966
30
0
41
1
10
13.805702250994
20
-2.37941823605829
30
0
41
1
10
13.7648290151386
20
-2.37773871832522
30
0
41
1
10
13.6834375555249
20
-2.37278094769215
30
0
41
1
10
13.6430848160682
20
-2.36951281969556
30
0
41
1
10
13.5231092374851
20
-2.3572050087588
30
0
41
1
10
13.4445531963074
20
-2.34567906446381
30
0
41
1
10
13.3293021127466
20
-2.32263549452486
30
0
41
1
10
13.2912766262271
20
-2.31398038561528
30
0
41
1
10
13.2164217801134
20
-2.29460197227641
30
0
41
1
10
13.1796688362012
20
-2.28390151223155
30
0
41
1
10
13.1077113724346
20
-2.26029266145952
30
0
41
1
10
13.0725055554494
20
-2.24738536564516
30
0
41
1
10
13.0039317327259
20
-2.21910346644032
30
0
41
1
10
12.9705613065997
20
-2.20373085879743
30
0
41
1
10
12.9060920600418
20
-2.17013954845083
30
0
41
1
10
12.874988258128
20
-2.15192487765182
30
0
41
1
10
12.8305478043132
20
-2.12203107742678
30
0
41
1
10
12.8160903879467
20
-2.11162379773924
30
0
41
1
10
12.7881129796344
20
-2.08989389696342
30
0
41
1
10
12.774651499205
20
-2.07861812855185
30
0
41
1
10
12.7360710997828
20
-2.043444181696
30
0
41
1
10
12.7127232998285
20
-2.01821569542895
30
0
41
1
10
12.6825955718446
20
-1.97702462190304
30
0
41
1
10
12.6733708388484
20
-1.96270391563326
30
0
41
1
10
12.6571438128762
20
-1.93325600997116
30
0
41
1
10
12.6501021167698
20
-1.91808235006405
30
0
41
1
10
12.6384789324468
20
-1.88676512949704
30
0
41
1
10
12.6338961710397
20
-1.87062183122512
30
0
41
1
10
12.6276057424611
20
-1.83727301527657
30
0
41
1
10
12.6258960860419
20
-1.82003325654381
30
0
41
1
10
12.6259253257709
20
-1.76674900545217
30
0
41
1
10
12.6327972538119
20
-1.73056157367449
30
0
41
1
10
12.6473723497148
20
-1.69396720205054
30
0
0
SPLINE
5
104
100
AcDbEntity
8
1
62
256
6
ByLayer
370
18
48
1
60
0
100
AcDbSpline
70
4
71
3
72
45
73
41
40
0
40
0
40
0
40
0
40
0.0312499999999961
40
0.0312499999999961
40
0.0624999999999922
40
0.0624999999999922
40
0.124999999999985
40
0.124999999999985
40
0.140624999999983
40
0.140624999999983
40
0.156249999999982
40
0.156249999999982
40
0.187499999999981
40
0.187499999999981
40
0.24999999999998
40
0.24999999999998
40
0.281249999999977
40
0.281249999999977
40
0.312499999999974
40
0.34374999999997
40
0.34374999999997
40
0.374999999999967
40
0.374999999999967
40
0.437499999999961
40
0.437499999999961
40
0.499999999999955
40
0.499999999999955
40
0.531249999999957
40
0.531249999999957
40
0.562499999999959
40
0.562499999999959
40
0.624999999999972
40
0.624999999999972
40
0.749999999999989
40
0.749999999999989
40
0.812499999999992
40
0.812499999999992
40
0.874999999999995
40
0.874999999999995
40
1
40
1
40
1
40
1
41
1
10
12.6473723497147
20
-1.6939672020506
30
0
41
1
10
12.6428870048309
20
-1.68082891895435
30
0
41
1
10
12.6390082813746
20
-1.66740266195183
30
0
41
1
10
12.6326349701187
20
-1.63991658688062
30
0
41
1
10
12.6301583837698
20
-1.62590240979264
30
0
41
1
10
12.6251410024703
20
-1.58355003548561
30
0
41
1
10
12.624952562652
20
-1.55470897085027
30
0
41
1
10
12.6293388758403
20
-1.51790168583625
30
0
41
1
10
12.6304481583905
20
-1.5105024122453
30
0
41
1
10
12.6331517817459
20
-1.49562820041302
30
0
41
1
10
12.6347521853848
20
-1.48813216328813
30
0
41
1
10
12.6402490768259
20
-1.46577935527316
30
0
41
1
10
12.6448443898677
20
-1.45100843198492
30
0
41
1
10
12.6613789227939
20
-1.40711902176082
30
0
41
1
10
12.6760628536385
20
-1.37842351407454
30
0
41
1
10
12.7034781026985
20
-1.33635288382942
30
0
41
1
10
12.7135389996512
20
-1.32247823133417
30
0
41
1
10
12.7349558381817
20
-1.29563625095659
30
0
41
1
10
12.7577600862804
20
-1.26954608521618
30
0
41
1
10
12.7831041634135
20
-1.24486852031424
30
0
41
1
10
12.8096219693717
20
-1.22086032258042
30
0
41
1
10
12.8235214694008
20
-1.20915077930383
30
0
41
1
10
12.8663476748114
20
-1.17537199332276
30
0
41
1
10
12.8964194242516
20
-1.15458809991728
30
0
41
1
10
12.9589734693659
20
-1.1158542595596
30
0
41
1
10
12.9914600846951
20
-1.09790859094576
30
0
41
1
10
13.0416979870417
20
-1.07281213375143
30
0
41
1
10
13.0586966152276
20
-1.06475166279466
30
0
41
1
10
13.0931611202772
20
-1.04920223760058
30
0
41
1
10
13.1105978363251
20
-1.04172797415666
30
0
41
1
10
13.1631315165284
20
-1.02027362342054
30
0
41
1
10
13.1985848042345
20
-1.00719617203831
30
0
41
1
10
13.3060216103902
20
-0.97108102557732
30
0
41
1
10
13.3790705691029
20
-0.951130945241914
30
0
41
1
10
13.4902722489347
20
-0.926066307611677
30
0
41
1
10
13.5276144848748
20
-0.918530846278031
30
0
41
1
10
13.6027963831187
20
-0.904959751445318
30
0
41
1
10
13.6407124509083
20
-0.898914517271294
30
0
41
1
10
13.7545226605605
20
-0.882955134816541
30
0
41
1
10
13.830383951668
20
-0.875200432350312
30
0
41
1
10
13.9062351381254
20
-0.86986768933221
30
0
0
SPLINE
5
105
100
AcDbEntity
8
1
62
256
6
ByLayer
370
18
48
1
60
0
100
AcDbSpline
70
4
71
3
72
20
73
16
40
0
40
0
40
0
40
0
40
0.124999999999993
40
0.124999999999993
40
0.18749999999999
40
0.18749999999999
40
0.249999999999987
40
0.249999999999987
40
0.499999999999973
40
0.499999999999973
40
0.62499999999998
40
0.62499999999998
40
0.749999999999987
40
0.749999999999987
40
1
40
1
40
1
40
1
41
1
10
13.9062351381254
20
-0.869867689332239
30
0
41
1
10
13.9363862497102
20
-0.867747905353923
30
0
41
1
10
13.9666604240169
20
-0.867842363808194
30
0
41
1
10
14.0122162792726
20
-0.870585974106149
30
0
41
1
10
14.0274171739425
20
-0.871942779903861
30
0
41
1
10
14.0575122057264
20
-0.875415545638504
30
0
41
1
10
14.0724537792618
20
-0.877534049037877
30
0
41
1
10
14.1466830575634
20
-0.889846114555155
30
0
41
1
10
14.2045676445169
20
-0.905084265036152
30
0
41
1
10
14.289588718101
20
-0.934251857507462
30
0
41
1
10
14.3177120818554
20
-0.945092888419964
30
0
41
1
10
14.3725415106006
20
-0.968432942956809
30
0
41
1
10
14.3993333140148
20
-0.98095462507311
30
0
41
1
10
14.4779602930443
20
-1.02083807865384
30
0
41
1
10
14.5280627574659
20
-1.05049834872625
30
0
41
1
10
14.5759339812506
20
-1.08291691494532
30
0
0
SPLINE
5
106
100
AcDbEntity
8
1
62
256
6
ByLayer
370
18
48
1
60
0
100
AcDbSpline
70
4
71
3
72
17
73
13
40
0
40
0
40
0
40
0
40
0.250000000000007
40
0.250000000000007
40
0.500000000000014
40
0.500000000000014
40
0.625000000000014
40
0.625000000000014
40
0.68750000000001
40
0.68750000000001
40
0.750000000000007
40
1
40
1
40
1
40
1
41
1
10
15.9631777012396
20
1.8669461491607
30
0
41
1
10
15.8080482846305
20
1.94217963227527
30
0
41
1
10
15.65351551803
20
2.00987477896115
30
0
41
1
10
15.3442883459332
20
2.12936305028109
30
0
41
1
10
15.1895968359972
20
2.18115812735215
30
0
41
1
10
14.9564187418971
20
2.24616401853439
30
0
41
1
10
14.8785022271704
20
2.26571651826276
30
0
41
1
10
14.7612076836523
20
2.29175835257959
30
0
41
1
10
14.7220040742579
20
2.29989756847411
30
0
41
1
10
14.6436321671184
20
2.31502240649732
30
0
41
1
10
14.447831925715
20
2.34994676437643
30
0
41
1
10
14.2524036498809
20
2.37042146086657
30
0
41
1
10
14.0955942921035
20
2.37739227931868
30
0
0
SPLINE
5
107
100
AcDbEntity
8
1
62
256
6
ByLayer
370
18
48
1
60
0
100
AcDbSpline
70
4
71
3
72
8
73
4
40
0
40
0
40
0
40
0
40
1
40
1
40
1
40
1
41
1
10
14.0949089578152
20
2.37742619382564
30
0
41
1
10
14.0391655452423
20
2.37990168172286
30
0
41
1
10
13.9837195711293
20
2.38121245501358
30
0
41
1
10
13.9285671467424
20
2.38125023944872
30
0
0
SPLINE
5
108
100
AcDbEntity
8
1
62
256
6
ByLayer
370
18
48
1
60
0
100
AcDbSpline
70
4
71
2
72
6
73
3
40
0
40
0
40
0
40
1
40
1
40
1
41
1
10
18.2981217573314
20
-2.36341857461861
30
0
41
1
10
18.8324292056289
20
-2.31220973993351
30
0
41
1
10
19.366988173129
20
-2.26421199972415
30
0
0
SPLINE
5
109
100
AcDbEntity
8
1
62
256
6
ByLayer
370
18
48
1
60
0
100
AcDbSpline
70
4
71
2
72
6
73
3
40
0
40
0
40
0
40
1
40
1
40
1
41
1
10
23.9389758426691
20
2.26489321365099
30
0
41
1
10
23.4058763795887
20
2.31146527825089
30
0
41
1
10
22.8728163025101
20
2.363386926385
30
0
0
SPLINE
5
10A
100
AcDbEntity
8
1
62
256
6
ByLayer
370
18
48
1
60
0
100
AcDbSpline
70
4
71
2
72
6
73
3
40
0
40
0
40
0
40
1
40
1
40
1
41
1
10
22.8728163025101
20
-2.36338692638518
30
0
41
1
10
23.4064456358605
20
-2.31152751203348
30
0
41
1
10
23.938975842669
20
-2.26489321365116
30
0
0
SPLINE
5
10B
100
AcDbEntity
8
1
62
256
6
ByLayer
370
18
48
1
60
0
100
AcDbSpline
70
4
71
2
72
6
73
3
40
0
40
0
40
0
40
1
40
1
40
1
41
1
10
19.3669881731292
20
2.26421199972401
30
0
41
1
10
18.832429205629
20
2.31220973993339
30
0
41
1
10
18.2981217573314
20
2.36341857461849
30
0
0
SPLINE
5
10C
100
AcDbEntity
8
1
62
256
6
ByLayer
370
18
48
1
60
0
100
AcDbSpline
70
4
71
1
72
4
73
2
40
0
40
0
40
1
40
1
41
1
10
16.7896969627044
20
0.710655207805672
30
0
41
1
10
16.7361907741499
20
0.74951372443266
30
0
0
LINE
5
77
100
AcDbEntity
8
80
62
256
6
ByLayer
370
18
48
1
60
0
100
AcDbLine
10
0
20
0
30
0
11
-5
21
0
31
0
39
0
210
0
220
0
230
1
0
LINE
5
78
100
AcDbEntity
8
4
62
256
6
ByLayer
370
18
48
0.05
60
0
100
AcDbLine
10
0
20
0
30
0
11
27.5
21
0
31
0
39
0
210
0
220
0
230
1
0
LINE
5
7A
100
AcDbEntity
8
81
62
256
6
ByLayer
370
18
48
1
60
0
100
AcDbLine
10
27.5
20
0
30
0
11
32.5
21
0
31
0
39
0
210
0
220
0
230
1
0
LINE
5
7B
100
AcDbEntity
8
SK4
62
256
6
ByLayer
370
18
48
0.05
60
0
100
AcDbLine
10
-36
20
0
30
0
11
27.5
21
0
31
0
39
0
210
0
220
0
230
1
0
LINE
5
7D
100
AcDbEntity
8
1
62
256
6
ByLayer
370
18
48
1
60
0
100
AcDbLine
10
0
20
3.175
30
0
11
0
21
0
31
0
39
0
210
0
220
0
230
1
0
LINE
5
7E
100
AcDbEntity
8
1
62
256
6
ByLayer
370
18
48
1
60
0
100
AcDbLine
10
0
20
0
30
0
11
0
21
-3.175
31
0
39
0
210
0
220
0
230
1
0
LINE
5
7F
100
AcDbEntity
8
1
62
256
6
ByLayer
370
18
48
1
60
0
100
AcDbLine
10
27.439969
20
-0.407377
30
0
11
27.401282
21
-0.53955
31
0
39
0
210
0
220
0
230
1
0
LINE
5
80
100
AcDbEntity
8
1
62
256
6
ByLayer
370
18
48
1
60
0
100
AcDbLine
10
27.489625
20
0.022033
30
0
11
27.495089
21
0.020367
31
0
39
0
210
0
220
0
230
1
0
LINE
5
81
100
AcDbEntity
8
1
62
256
6
ByLayer
370
18
48
1
60
0
100
AcDbLine
10
27.495089
20
0.020367
30
0
11
27.492464
21
-4E-06
31
0
39
0
210
0
220
0
230
1
0
LINE
5
82
100
AcDbEntity
8
1
62
256
6
ByLayer
370
18
48
1
60
0
100
AcDbLine
10
27.489626
20
-0.022033
30
0
11
27.439969
21
-0.407377
31
0
39
0
210
0
220
0
230
1
0
LINE
5
83
100
AcDbEntity
8
1
62
256
6
ByLayer
370
18
48
1
60
0
100
AcDbLine
10
27.439969
20
-0.407377
30
0
11
27.392897
21
-0.38377
31
0
39
0
210
0
220
0
230
1
0
LINE
5
84
100
AcDbEntity
8
1
62
256
6
ByLayer
370
18
48
1
60
0
100
AcDbLine
10
27.392186
20
-0.37056
30
0
11
27.422402
21
-0.039245
31
0
39
0
210
0
220
0
230
1
0
LINE
5
85
100
AcDbEntity
8
1
62
256
6
ByLayer
370
18
48
1
60
0
100
AcDbLine
10
27.411533
20
2.364004
30
0
11
27.495089
21
2.282319
31
0
39
0
210
0
220
0
230
1
0
LINE
5
86
100
AcDbEntity
8
1
62
256
6
ByLayer
370
18
48
1
60
0
100
AcDbLine
10
27.401282
20
0.53956
30
0
11
27.495089
21
2.282319
31
0
39
0
210
0
220
0
230
1
0
LINE
5
87
100
AcDbEntity
8
1
62
256
6
ByLayer
370
13
48
1
60
0
100
AcDbLine
10
26.467921
20
1.416172
30
0
11
26.519817
21
1.3261
31
0
39
0
210
0
220
0
230
1
0
LINE
5
88
100
AcDbEntity
8
1
62
256
6
ByLayer
370
13
48
1
60
0
100
AcDbLine
10
27.295694
20
-0.020541
30
0
11
27.366301
21
-0.143089
31
0
39
0
210
0
220
0
230
1
0
LINE
5
89
100
AcDbEntity
8
1
62
256
6
ByLayer
370
18
48
1
60
0
100
AcDbLine
10
27.373967
20
-0.032097
30
0
11
27.495089
21
-2.282319
31
0
39
0
210
0
220
0
230
1
0
LINE
5
8A
100
AcDbEntity
8
1
62
256
6
ByLayer
370
18
48
1
60
0
100
AcDbLine
10
27.366301
20
-0.143089
30
0
11
27.360479
21
-0.030108
31
0
39
0
210
0
220
0
230
1
0
LINE
5
8B
100
AcDbEntity
8
1
62
256
6
ByLayer
370
18
48
1
60
0
100
AcDbLine
10
27.411533
20
-2.364004
30
0
11
27.495089
21
-2.282319
31
0
39
0
210
0
220
0
230
1
0
LINE
5
8C
100
AcDbEntity
8
1
62
256
6
ByLayer
370
18
48
1
60
0
100
AcDbLine
10
27.495089
20
-2.282319
30
0
11
27.439969
21
-2.196259
31
0
39
0
210
0
220
0
230
1
0
LINE
5
8D
100
AcDbEntity
8
1
62
256
6
ByLayer
370
18
48
1
60
0
100
AcDbLine
10
27.439969
20
-2.196259
30
0
11
27.399207
21
-2.19217
31
0
39
0
210
0
220
0
230
1
0
LINE
5
8E
100
AcDbEntity
8
1
62
256
6
ByLayer
370
18
48
1
60
0
100
AcDbLine
10
27.439969
20
-2.196259
30
0
11
27.362449
21
-0.723907
31
0
39
0
210
0
220
0
230
1
0
LINE
5
8F
100
AcDbEntity
8
1
62
256
6
ByLayer
370
18
48
1
60
0
100
AcDbLine
10
27.204074
20
-1.264629
30
0
11
27.362449
21
-0.723907
31
0
39
0
210
0
220
0
230
1
0
LINE
5
90
100
AcDbEntity
8
1
62
256
6
ByLayer
370
18
48
1
60
0
100
AcDbLine
10
27.362449
20
-0.723907
30
0
11
27.362686
21
-0.719447
31
0
39
0
210
0
220
0
230
1
0
LINE
5
91
100
AcDbEntity
8
1
62
256
6
ByLayer
370
13
48
1
60
0
100
AcDbLine
10
27.20582
20
-0.446351
30
0
11
26.163688
21
-0.225415
31
0
39
0
210
0
220
0
230
1
0
LINE
5
92
100
AcDbEntity
8
1
62
256
6
ByLayer
370
18
48
1
60
0
100
AcDbLine
10
27.495089
20
-0.020367
30
0
11
27.439969
21
0.407377
31
0
39
0
210
0
220
0
230
1
0
LINE
5
93
100
AcDbEntity
8
1
62
256
6
ByLayer
370
18
48
1
60
0
100
AcDbLine
10
27.439969
20
0.407377
30
0
11
27.399207
21
0.546637
31
0
39
0
210
0
220
0
230
1
0
LINE
5
94
100
AcDbEntity
8
1
62
256
6
ByLayer
370
18
48
1
60
0
100
AcDbLine
10
27.411533
20
-0.00269
30
0
11
27.495089
21
-0.020367
31
0
39
0
210
0
220
0
230
1
0
LINE
5
95
100
AcDbEntity
8
1
62
256
6
ByLayer
370
18
48
1
60
0
100
AcDbLine
10
26.491567
20
0.143274
30
0
11
27.192673
21
-0.005364
31
0
39
0
210
0
220
0
230
1
0
LINE
5
96
100
AcDbEntity
8
1
62
256
6
ByLayer
370
18
48
1
60
0
100
AcDbLine
10
27.429658
20
-0.040309
30
0
11
27.192673
21
-0.005364
31
0
39
0
210
0
220
0
230
1
0
LINE
5
97
100
AcDbEntity
8
1
62
256
6
ByLayer
370
18
48
1
60
0
100
AcDbLine
10
27.429658
20
-0.040309
30
0
11
27.495089
21
-0.020367
31
0
39
0
210
0
220
0
230
1
0
LINE
5
98
100
AcDbEntity
8
1
62
256
6
ByLayer
370
13
48
1
60
0
100
AcDbLine
10
9.207679
20
-2.38125
30
0
11
9.207679
21
0
31
0
39
0
210
0
220
0
230
1
0
LINE
5
99
100
AcDbEntity
8
1
62
256
6
ByLayer
370
13
48
1
60
0
100
AcDbLine
10
9.207679
20
0
30
0
11
9.207679
21
2.38125
31
0
39
0
210
0
220
0
230
1
0
LINE
5
9A
100
AcDbEntity
8
1
62
256
6
ByLayer
370
13
48
1
60
0
100
AcDbLine
10
8.707679
20
2.515225
30
0
11
8.707679
21
0
31
0
39
0
210
0
220
0
230
1
0
LINE
5
9B
100
AcDbEntity
8
1
62
256
6
ByLayer
370
13
48
1
60
0
100
AcDbLine
10
8.707679
20
0
30
0
11
8.707679
21
-2.515225
31
0
39
0
210
0
220
0
230
1
0
LINE
5
9C
100
AcDbEntity
8
1
62
256
6
ByLayer
370
18
48
1
60
0
100
AcDbLine
10
7.564914
20
3.175
30
0
11
7.564914
21
0
31
0
39
0
210
0
220
0
230
1
0
LINE
5
9D
100
AcDbEntity
8
1
62
256
6
ByLayer
370
18
48
1
60
0
100
AcDbLine
10
7.564914
20
0
30
0
11
7.564914
21
-3.175
31
0
39
0
210
0
220
0
230
1
0
LINE
5
9E
100
AcDbEntity
8
SK1
62
256
6
ByLayer
370
18
48
1
60
0
100
AcDbLine
10
0
20
3.175
30
0
11
0
21
0
31
0
39
0
210
0
220
0
230
1
0
LINE
5
A0
100
AcDbEntity
8
SK1
62
256
6
ByLayer
370
18
48
1
60
0
100
AcDbLine
10
0
20
0
30
0
11
0
21
-3.175
31
0
39
0
210
0
220
0
230
1
0
LINE
5
A1
100
AcDbEntity
8
SK1
62
256
6
ByLayer
370
18
48
1
60
0
100
AcDbLine
10
-35.6
20
3.175
30
0
11
-35.6
21
-3.175
31
0
39
0
210
0
220
0
230
1
0
LINE
5
A2
100
AcDbEntity
8
SK1
62
256
6
ByLayer
370
18
48
1
60
0
100
AcDbLine
10
-36
20
-2.775
30
0
11
-36
21
2.775
31
0
39
0
210
0
220
0
230
1
0
LINE
5
A3
100
AcDbEntity
8
1
62
256
6
ByLayer
370
18
48
1
60
0
100
AcDbLine
10
7.564914
20
3.175
30
0
11
0
21
3.175
31
0
39
0
210
0
220
0
230
1
0
LINE
5
A4
100
AcDbEntity
8
1
62
256
6
ByLayer
370
18
48
1
60
0
100
AcDbLine
10
0
20
-3.175
30
0
11
7.564914
21
-3.175
31
0
39
0
210
0
220
0
230
1
0
LINE
5
A5
100
AcDbEntity
8
1
62
256
6
ByLayer
370
18
48
1
60
0
100
AcDbLine
10
13.93023
20
2.38125
30
0
11
9.207679
21
2.38125
31
0
39
0
210
0
220
0
230
1
0
LINE
5
A6
100
AcDbEntity
8
1
62
256
6
ByLayer
370
18
48
1
60
0
100
AcDbLine
10
9.207679
20
-2.38125
30
0
11
13.93023
21
-2.38125
31
0
39
0
210
0
220
0
230
1
0
LINE
5
A7
100
AcDbEntity
8
1
62
256
6
ByLayer
370
18
48
1
60
0
100
AcDbLine
10
8.707679
20
2.515225
30
0
11
7.564914
21
3.175
31
0
39
0
210
0
220
0
230
1
0
LINE
5
A8
100
AcDbEntity
8
1
62
256
6
ByLayer
370
18
48
1
60
0
100
AcDbLine
10
7.564914
20
-3.175
30
0
11
8.707679
21
-2.515225
31
0
39
0
210
0
220
0
230
1
0
LINE
5
A9
100
AcDbEntity
8
SK1
62
256
6
ByLayer
370
18
48
1
60
0
100
AcDbLine
10
0
20
3.175
30
0
11
-35.6
21
3.175
31
0
39
0
210
0
220
0
230
1
0
LINE
5
AA
100
AcDbEntity
8
SK1
62
256
6
ByLayer
370
18
48
1
60
0
100
AcDbLine
10
-35.6
20
-3.175
30
0
11
0
21
-3.175
31
0
39
0
210
0
220
0
230
1
0
LINE
5
AB
100
AcDbEntity
8
SK1
62
256
6
ByLayer
370
18
48
1
60
0
100
AcDbLine
10
-36
20
-2.775
30
0
11
-35.6
21
-3.175
31
0
39
0
210
0
220
0
230
1
0
LINE
5
AC
100
AcDbEntity
8
SK1
62
256
6
ByLayer
370
18
48
1
60
0
100
AcDbLine
10
-35.6
20
3.175
30
0
11
-36
21
2.775
31
0
39
0
210
0
220
0
230
1
0
LINE
5
AD
100
AcDbEntity
8
SK2
62
256
6
ByLayer
370
18
48
1
60
0
100
AcDbLine
10
-43.85
20
11.925
30
0
11
-43.85
21
-26.139398
31
0
39
0
210
0
220
0
230
1
0
LINE
5
AF
100
AcDbEntity
8
SK2
62
256
6
ByLayer
370
18
48
1
60
0
100
AcDbLine
10
-37.1875
20
3.175
30
0
11
-45.85
21
3.175
31
0
39
0
210
0
220
0
230
1
0
LINE
5
B0
100
AcDbEntity
8
SK2
62
256
6
ByLayer
370
18
48
1
60
0
100
AcDbLine
10
-37.1875
20
-3.175
30
0
11
-45.85
21
-3.175
31
0
39
0
210
0
220
0
230
1
0
LINE
5
B1
100
AcDbEntity
8
1
62
256
6
ByLayer
370
18
48
1
60
1
100
AcDbLine
10
-43.85
20
3.175
30
0
11
-44.310784
21
6.674998
31
0
39
0
210
0
220
0
230
1
0
LINE
5
B2
100
AcDbEntity
8
1
62
256
6
ByLayer
370
18
48
1
60
1
100
AcDbLine
10
-44.310784
20
6.674998
30
0
11
-43.389216
21
6.675002
31
0
39
0
210
0
220
0
230
1
0
LINE
5
B3
100
AcDbEntity
8
1
62
256
6
ByLayer
370
18
48
1
60
1
100
AcDbLine
10
-43.389216
20
6.675002
30
0
11
-43.85
21
3.175
31
0
39
0
210
0
220
0
230
1
0
LINE
5
B4
100
AcDbEntity
8
1
62
256
6
ByLayer
370
18
48
1
60
1
100
AcDbLine
10
-43.85
20
-3.175
30
0
11
-43.389216
21
-6.674998
31
0
39
0
210
0
220
0
230
1
0
LINE
5
B5
100
AcDbEntity
8
1
62
256
6
ByLayer
370
18
48
1
60
1
100
AcDbLine
10
-43.389216
20
-6.674998
30
0
11
-44.310784
21
-6.675002
31
0
39
0
210
0
220
0
230
1
0
LINE
5
B6
100
AcDbEntity
8
1
62
256
6
ByLayer
370
18
48
1
60
1
100
AcDbLine
10
-44.310784
20
-6.675002
30
0
11
-43.85
21
-3.175
31
0
39
0
210
0
220
0
230
1
0
LINE
5
B7
100
AcDbEntity
8
2
62
256
6
ByLayer
370
18
48
1
60
0
100
AcDbLine
10
39.5
20
25.714281
30
0
11
39.5
21
-11.13135
31
0
39
0
210
0
220
0
230
1
0
LINE
5
B9
100
AcDbEntity
8
2
62
256
6
ByLayer
370
18
48
1
60
0
100
AcDbLine
10
29.0875
20
2.38135
30
0
11
41.5
21
2.38135
31
0
39
0
210
0
220
0
230
1
0
LINE
5
BA
100
AcDbEntity
8
2
62
256
6
ByLayer
370
18
48
1
60
0
100
AcDbLine
10
29.0875
20
-2.38135
30
0
11
41.5
21
-2.38135
31
0
39
0
210
0
220
0
230
1
0
LINE
5
BB
100
AcDbEntity
8
1
62
256
6
ByLayer
370
18
48
1
60
1
100
AcDbLine
10
39.5
20
2.38135
30
0
11
39.039216
21
5.881348
31
0
39
0
210
0
220
0
230
1
0
LINE
5
BC
100
AcDbEntity
8
1
62
256
6
ByLayer
370
18
48
1
60
1
100
AcDbLine
10
39.039216
20
5.881348
30
0
11
39.960784
21
5.881352
31
0
39
0
210
0
220
0
230
1
0
LINE
5
BD
100
AcDbEntity
8
1
62
256
6
ByLayer
370
18
48
1
60
1
100
AcDbLine
10
39.960784
20
5.881352
30
0
11
39.5
21
2.38135
31
0
39
0
210
0
220
0
230
1
0
LINE
5
BE
100
AcDbEntity
8
1
62
256
6
ByLayer
370
18
48
1
60
1
100
AcDbLine
10
39.5
20
-2.38135
30
0
11
39.960784
21
-5.881348
31
0
39
0
210
0
220
0
230
1
0
LINE
5
BF
100
AcDbEntity
8
1
62
256
6
ByLayer
370
18
48
1
60
1
100
AcDbLine
10
39.960784
20
-5.881348
30
0
11
39.039216
21
-5.881352
31
0
39
0
210
0
220
0
230
1
0
LINE
5
C0
100
AcDbEntity
8
1
62
256
6
ByLayer
370
18
48
1
60
1
100
AcDbLine
10
39.039216
20
-5.881352
30
0
11
39.5
21
-2.38135
31
0
39
0
210
0
220
0
230
1
0
LINE
5
C1
100
AcDbEntity
8
SK2
62
256
6
ByLayer
370
18
48
1
60
0
100
AcDbLine
10
27.5
20
-33.275
30
0
11
-36
21
-33.275
31
0
39
0
210
0
220
0
230
1
0
LINE
5
C2
100
AcDbEntity
8
SK2
62
256
6
ByLayer
370
18
48
1
60
0
100
AcDbLine
10
-36
20
-4.3625
30
0
11
-36
21
-35.275
31
0
39
0
210
0
220
0
230
1
0
LINE
5
C3
100
AcDbEntity
8
SK2
62
256
6
ByLayer
370
18
48
1
60
0
100
AcDbLine
10
27.5
20
-3.96885
30
0
11
27.5
21
-35.275
31
0
39
0
210
0
220
0
230
1
0
LINE
5
C4
100
AcDbEntity
8
1
62
256
6
ByLayer
370
18
48
1
60
1
100
AcDbLine
10
-36
20
-33.275
30
0
11
-32.500002
21
-32.814216
31
0
39
0
210
0
220
0
230
1
0
LINE
5
C5
100
AcDbEntity
8
1
62
256
6
ByLayer
370
18
48
1
60
1
100
AcDbLine
10
-32.500002
20
-32.814216
30
0
11
-32.499998
21
-33.735784
31
0
39
0
210
0
220
0
230
1
0
LINE
5
C6
100
AcDbEntity
8
1
62
256
6
ByLayer
370
18
48
1
60
1
100
AcDbLine
10
-32.499998
20
-33.735784
30
0
11
-36
21
-33.275
31
0
39
0
210
0
220
0
230
1
0
LINE
5
C7
100
AcDbEntity
8
1
62
256
6
ByLayer
370
18
48
1
60
1
100
AcDbLine
10
27.5
20
-33.275
30
0
11
24.000002
21
-33.735784
31
0
39
0
210
0
220
0
230
1
0
LINE
5
C8
100
AcDbEntity
8
1
62
256
6
ByLayer
370
18
48
1
60
1
100
AcDbLine
10
24.000002
20
-33.735784
30
0
11
23.999998
21
-32.814216
31
0
39
0
210
0
220
0
230
1
0
LINE
5
C9
100
AcDbEntity
8
1
62
256
6
ByLayer
370
18
48
1
60
1
100
AcDbLine
10
23.999998
20
-32.814216
30
0
11
27.5
21
-33.275
31
0
39
0
210
0
220
0
230
1
0
LINE
5
111
100
AcDbEntity
8
1
62
256
6
ByLayer
370
18
48
1
60
1
100
AcDbLine
10
-43.85
20
3.175
30
0
11
-44.310784
21
6.674998
31
0
39
0
210
0
220
0
230
1
0
LINE
5
112
100
AcDbEntity
8
1
62
256
6
ByLayer
370
18
48
1
60
1
100
AcDbLine
10
-44.310784
20
6.674998
30
0
11
-43.389216
21
6.675002
31
0
39
0
210
0
220
0
230
1
0
LINE
5
113
100
AcDbEntity
8
1
62
256
6
ByLayer
370
18
48
1
60
1
100
AcDbLine
10
-43.389216
20
6.675002
30
0
11
-43.85
21
3.175
31
0
39
0
210
0
220
0
230
1
0
LINE
5
115
100
AcDbEntity
8
1
62
256
6
ByLayer
370
18
48
1
60
1
100
AcDbLine
10
-43.85
20
-3.175
30
0
11
-43.389216
21
-6.674998
31
0
39
0
210
0
220
0
230
1
0
LINE
5
116
100
AcDbEntity
8
1
62
256
6
ByLayer
370
18
48
1
60
1
100
AcDbLine
10
-43.389216
20
-6.674998
30
0
11
-44.310784
21
-6.675002
31
0
39
0
210
0
220
0
230
1
0
LINE
5
117
100
AcDbEntity
8
1
62
256
6
ByLayer
370
18
48
1
60
1
100
AcDbLine
10
-44.310784
20
-6.675002
30
0
11
-43.85
21
-3.175
31
0
39
0
210
0
220
0
230
1
0
LINE
5
11B
100
AcDbEntity
8
1
62
256
6
ByLayer
370
18
48
1
60
1
100
AcDbLine
10
39.5
20
2.38135
30
0
11
39.039216
21
5.881348
31
0
39
0
210
0
220
0
230
1
0
LINE
5
11C
100
AcDbEntity
8
1
62
256
6
ByLayer
370
18
48
1
60
1
100
AcDbLine
10
39.039216
20
5.881348
30
0
11
39.960784
21
5.881352
31
0
39
0
210
0
220
0
230
1
0
LINE
5
11D
100
AcDbEntity
8
1
62
256
6
ByLayer
370
18
48
1
60
1
100
AcDbLine
10
39.960784
20
5.881352
30
0
11
39.5
21
2.38135
31
0
39
0
210
0
220
0
230
1
0
LINE
5
11F
100
AcDbEntity
8
1
62
256
6
ByLayer
370
18
48
1
60
1
100
AcDbLine
10
39.5
20
-2.38135
30
0
11
39.960784
21
-5.881348
31
0
39
0
210
0
220
0
230
1
0
LINE
5
120
100
AcDbEntity
8
1
62
256
6
ByLayer
370
18
48
1
60
1
100
AcDbLine
10
39.960784
20
-5.881348
30
0
11
39.039216
21
-5.881352
31
0
39
0
210
0
220
0
230
1
0
LINE
5
121
100
AcDbEntity
8
1
62
256
6
ByLayer
370
18
48
1
60
1
100
AcDbLine
10
39.039216
20
-5.881352
30
0
11
39.5
21
-2.38135
31
0
39
0
210
0
220
0
230
1
0
LINE
5
124
100
AcDbEntity
8
1
62
256
6
ByLayer
370
18
48
1
60
1
100
AcDbLine
10
-36
20
-33.275
30
0
11
-32.500002
21
-32.814216
31
0
39
0
210
0
220
0
230
1
0
LINE
5
125
100
AcDbEntity
8
1
62
256
6
ByLayer
370
18
48
1
60
1
100
AcDbLine
10
-32.500002
20
-32.814216
30
0
11
-32.499998
21
-33.735784
31
0
39
0
210
0
220
0
230
1
0
LINE
5
126
100
AcDbEntity
8
1
62
256
6
ByLayer
370
18
48
1
60
1
100
AcDbLine
10
-32.499998
20
-33.735784
30
0
11
-36
21
-33.275
31
0
39
0
210
0
220
0
230
1
0
LINE
5
128
100
AcDbEntity
8
1
62
256
6
ByLayer
370
18
48
1
60
1
100
AcDbLine
10
27.5
20
-33.275
30
0
11
24.000002
21
-33.735784
31
0
39
0
210
0
220
0
230
1
0
LINE
5
129
100
AcDbEntity
8
1
62
256
6
ByLayer
370
18
48
1
60
1
100
AcDbLine
10
24.000002
20
-33.735784
30
0
11
23.999998
21
-32.814216
31
0
39
0
210
0
220
0
230
1
0
LINE
5
12A
100
AcDbEntity
8
1
62
256
6
ByLayer
370
18
48
1
60
1
100
AcDbLine
10
23.999998
20
-32.814216
30
0
11
27.5
21
-33.275
31
0
39
0
210
0
220
0
230
1
0
MTEXT
5
10D
100
AcDbEntity
8
SK2
62
256
6
ByLayer
370
18
48
1
60
0
100
AcDbMText
10
-45.414634
20
-24.204554
30
0
210
0
220
0
230
1
1
%%c
40
3.5
41
0
44
1.084337
50
90
71
7
72
5
7
iso_b_vert
0
MTEXT
5
110
100
AcDbEntity
8
SK2
62
256
6
ByLayer
370
18
48
1
60
0
100
AcDbMText
10
-45.414634
20
-17.231898
30
0
210
0
220
0
230
1
1
\W0.7346;6.35
40
3.5
41
0
44
1.084337
50
90
71
7
72
5
7
iso_b_vert
0
MTEXT
5
119
100
AcDbEntity
8
2
62
256
6
ByLayer
370
18
48
1
60
0
100
AcDbMText
10
37.935366
20
10.316194
30
0
210
0
220
0
230
1
1
%%c
40
3.5
41
0
44
1.084337
50
90
71
7
72
5
7
iso_b_vert
0
MTEXT
5
11A
100
AcDbEntity
8
2
62
256
6
ByLayer
370
18
48
1
60
0
100
AcDbMText
10
37.935366
20
17.28885
30
0
210
0
220
0
230
1
1
\W0.7640;4.76
40
3.5
41
0
44
1.084337
50
90
71
7
72
5
7
iso_b_vert
0
MTEXT
5
123
100
AcDbEntity
8
SK2
62
256
6
ByLayer
370
18
48
1
60
0
100
AcDbMText
10
-8.171699
20
-32.242366
30
0
210
0
220
0
230
1
1
\W0.7346;63.5
40
3.5
41
0
44
1.084337
50
0
71
7
72
5
7
iso_b_vert
0
MTEXT
5
12C
100
AcDbEntity
8
SK6
62
256
6
ByLayer
370
18
48
1
60
0
100
AcDbMText
10
-29.771681
20
-62.114886
30
0
210
0
220
0
230
1
1
\W0.7414;2P342-0476-PA       P2BM
40
3
41
0
44
1.084337
50
0
71
7
72
5
7
iso_b_vert
0
HATCH
5
114
100
AcDbEntity
8
SK2
62
256
6
ByLayer
370
13
48
1
60
0
100
AcDbHatch
10
0
20
0
30
0
210
0
220
0
230
1
2
ANSI31
70
0
71
0
91
1
92
5
93
3
72
1
10
-43.85
20
3.17499999999998
11
-44.3107837415528
21
6.6749983074468
72
1
10
-44.3107837415528
20
6.6749983074468
11
-43.3892162584472
21
6.67500169255317
72
1
10
-43.3892162584472
20
6.67500169255317
11
-43.85
21
3.17499999999998
97
0
75
0
76
1
52
0
41
0.0062
77
0
78
1
53
45
43
0
44
0
45
-0.0139193969876572
46
0.0139193969876572
79
0
47
0
98
1
10
0
20
0
0
HATCH
5
118
100
AcDbEntity
8
SK2
62
256
6
ByLayer
370
13
48
1
60
0
100
AcDbHatch
10
0
20
0
30
0
210
0
220
0
230
1
2
ANSI31
70
0
71
0
91
1
92
5
93
3
72
1
10
-43.85
20
-3.17500000000001
11
-43.3892162584472
21
-6.67499830744683
72
1
10
-43.3892162584472
20
-6.67499830744683
11
-44.3107837415528
21
-6.6750016925532
72
1
10
-44.3107837415528
20
-6.6750016925532
11
-43.85
21
-3.17500000000001
97
0
75
0
76
1
52
0
41
0.0062
77
0
78
1
53
45
43
0
44
0
45
-0.0139193969876572
46
0.0139193969876572
79
0
47
0
98
1
10
0
20
0
0
HATCH
5
11E
100
AcDbEntity
8
2
62
256
6
ByLayer
370
13
48
1
60
0
100
AcDbHatch
10
0
20
0
30
0
210
0
220
0
230
1
2
ANSI31
70
0
71
0
91
1
92
5
93
3
72
1
10
39.5
20
2.38134999999991
11
39.0392162584472
21
5.88134830744673
72
1
10
39.0392162584472
20
5.88134830744673
11
39.9607837415528
21
5.8813516925531
72
1
10
39.9607837415528
20
5.8813516925531
11
39.5
21
2.38134999999991
97
0
75
0
76
1
52
0
41
0.0062
77
0
78
1
53
45
43
0
44
0
45
-0.0139193969876572
46
0.0139193969876572
79
0
47
0
98
1
10
0
20
0
0
HATCH
5
122
100
AcDbEntity
8
2
62
256
6
ByLayer
370
13
48
1
60
0
100
AcDbHatch
10
0
20
0
30
0
210
0
220
0
230
1
2
ANSI31
70
0
71
0
91
1
92
5
93
3
72
1
10
39.5
20
-2.38135000000008
11
39.9607837415528
21
-5.8813483074469
72
1
10
39.9607837415528
20
-5.8813483074469
11
39.0392162584472
21
-5.88135169255327
72
1
10
39.0392162584472
20
-5.88135169255327
11
39.5
21
-2.38135000000008
97
0
75
0
76
1
52
0
41
0.0062
77
0
78
1
53
45
43
0
44
0
45
-0.0139193969876572
46
0.0139193969876572
79
0
47
0
98
1
10
0
20
0
0
HATCH
5
127
100
AcDbEntity
8
SK2
62
256
6
ByLayer
370
13
48
1
60
0
100
AcDbHatch
10
0
20
0
30
0
210
0
220
0
230
1
2
ANSI31
70
0
71
0
91
1
92
5
93
3
72
1
10
-36
20
-33.2750000000001
11
-32.5000016925532
21
-32.8142162584473
72
1
10
-32.5000016925532
20
-32.8142162584473
11
-32.4999983074468
21
-33.7357837415529
72
1
10
-32.4999983074468
20
-33.7357837415529
11
-36
21
-33.2750000000001
97
0
75
0
76
1
52
0
41
0.0062
77
0
78
1
53
45
43
0
44
0
45
-0.0139193969876572
46
0.0139193969876572
79
0
47
0
98
1
10
0
20
0
0
HATCH
5
12B
100
AcDbEntity
8
SK2
62
256
6
ByLayer
370
13
48
1
60
0
100
AcDbHatch
10
0
20
0
30
0
210
0
220
0
230
1
2
ANSI31
70
0
71
0
91
1
92
5
93
3
72
1
10
27.5
20
-33.2750000000001
11
24.0000016925532
21
-33.7357837415529
72
1
10
24.0000016925532
20
-33.7357837415529
11
23.9999983074468
21
-32.8142162584473
72
1
10
23.9999983074468
20
-32.8142162584473
11
27.5
21
-33.2750000000001
97
0
75
0
76
1
52
0
41
0.0062
77
0
78
1
53
45
43
0
44
0
45
-0.0139193969876572
46
0.0139193969876572
79
0
47
0
98
1
10
0
20
0
0
DIMENSION
5
12F
100
AcDbEntity
8
2
62
256
6
ByLayer
370
18
48
1
60
0
100
AcDbDimension
2
_U0
10
16.39
20
-17.275
30
0
11
21.945
21
-17.275
31
0
70
32
71
1
72
1
41
1
210
0
220
0
230
1
3
Standard
100
AcDbAlignedDimension
13
27.5
23
-2.38135
33
0
14
16.39
24
-2.38135
34
0
50
0
100
AcDbRotatedDimension
1001
ACAD
1000
DSTYLE
1002
{
1070
   371
1070
    13
1070
   372
1070
    13
1070
   170
1070
     0
1070
   144
1040
1.0
1070
   277
1070
     2
1070
   284
1070
     8
1070
   278
1070
    46
1070
   146
1040
1.0
1070
   345
1005
16
1070
   347
1005
16
1070
   346
1005
16
1070
   344
1005
0
1070
   343
1005
0
1070
   172
1070
     1
1070
    76
1070
     0
1070
    75
1070
     0
1070
   282
1070
     0
1070
   281
1070
     0
1070
    71
1070
     0
1070
    74
1070
     0
1070
   279
1070
     0
1070
   173
1070
     1
1070
   340
1005
10E
1070
   271
1070
     2
1070
   272
1070
     2
1070
    77
1070
     1
1070
    73
1070
     1
1070
   171
1070
     3
1070
   274
1070
     4
1070
   177
1070
     2
1070
   176
1070
     2
1070
   178
1070
     2
1070
    78
1070
     8
1070
    48
1040
-0.1
1070
    41
1040
3.5
1070
   147
1040
1.75
1070
    42
1040
1.5875
1070
    44
1040
2.0
1070
   140
1040
3.5
1002
}
1001
ACAD_DSTYLE_DIM_LINETYPE
1070
   380
1005
16
1001
ACAD_DSTYLE_DIM_EXT1_LINETYPE
1070
   381
1005
16
1001
ACAD_DSTYLE_DIM_EXT2_LINETYPE
1070
   382
1005
16
0
ENDSEC
0
SECTION
2
OBJECTS
0
DICTIONARY
5
1b9
330
0
100
AcDbDictionary
280
0
281
1
3
ACAD_GROUP
350
1ba
3
ACAD_MLINESTYLE
350
1bb
0
DICTIONARY
5
1ba
330
0
100
AcDbDictionary
280
0
281
1
0
DICTIONARY
5
1bb
330
0
100
AcDbDictionary
280
0
281
1
3
Standard
350
18
0
MLINESTYLE
5
18
330
1bb
100
AcDbMlineStyle
2
Standard
70
0
3

62
256
51
90
52
90
71
2
49
-0.5
62
256
6
ByLayer
49
0.5
62
256
6
ByLayer
0
RASTERVARIABLES
5
1a7
330

100
AcDbRasterVariables
90
0
70
1
71
1
72
1
0
ENDSEC
0
EOF
