0
SECTION
2
HEADER
9
$ACADVER
1
AC1015
9
$DWGCODEPAGE
3
ANSI_1252
9
$HANDSEED
5
1bf
9
$ANGBASE
50
0
9
$ANGDIR
70
0
9
$ATTMODE
70
1
9
$AUNITS
70
0
9
$AUPREC
70
0
9
$CECOLOR
62
256
9
$CELTSCALE
40
1
9
$CELTYPE
6
ByLayer
9
$CELWEIGHT
370
18
9
$CLAYER
8
0
9
$CMLJUST
70
0
9
$CMLSCALE
40
1
9
$CMLSTYLE
2
Standard
9
$DIMSTYLE
2
Standard
9
$TEXTSIZE
40
0.2
9
$TEXTSTYLE
7
Standard
9
$LUNITS
70
2
9
$LUPREC
70
4
9
$EXTNAMES
290
1
9
$INSUNITS
70
4
9
$LTSCALE
40
1
9
$LWDISPLAY
290
1
9
$PDMODE
70
0
9
$PDSIZE
40
0
9
$PLINEGEN
70
0
0
ENDSEC
0
SECTION
2
CLASSES
0
CLASS
1
RASTERVARIABLES
2
AcDbRasterVariables
3
ISM
90
0
280
0
281
0
0
ENDSEC
0
SECTION
2
TABLES
0
TABLE
2
VPORT
5
1b5
100
AcDbSymbolTable
0
VPORT
5
1
100
AcDbSymbolTableRecord
100
AcDbViewportTableRecord
2
*Active
70
0
10
0
20
0
11
1
21
1
12
-1
22
1
13
0
23
0
14
0.5
24
0.5
15
10
25
10
16
0
26
0
36
1
17
0
27
0
37
0
0
ENDTAB
0
TABLE
2
LTYPE
5
1b6
100
AcDbSymbolTable
0
LTYPE
5
14
100
AcDbSymbolTableRecord
100
AcDbLinetypeTableRecord
70
0
2
ByBlock
3

72
65
73
0
40
0
0
LTYPE
5
15
100
AcDbSymbolTableRecord
100
AcDbLinetypeTableRecord
70
0
2
ByLayer
3

72
65
73
0
40
0
0
LTYPE
5
16
100
AcDbSymbolTableRecord
100
AcDbLinetypeTableRecord
70
0
2
Continuous
3
Solid line
72
65
73
0
40
0
0
LTYPE
5
6E
100
AcDbSymbolTableRecord
100
AcDbLinetypeTableRecord
70
0
2
CENTER
3
____ _ ____ _ ____ _ ____
72
65
73
4
40
47.5
49
22
74
0
49
-8.5
74
0
49
8.5
74
0
49
-8.5
74
0
0
LTYPE
5
6F
100
AcDbSymbolTableRecord
100
AcDbLinetypeTableRecord
70
0
2
DASHED
3
__ __ __ __ __ __ __ __ __
72
65
73
2
40
25.72
49
12.86
74
0
49
-12.86
74
0
0
ENDTAB
0
TABLE
2
LAYER
5
1b7
100
AcDbSymbolTable
0
LAYER
5
10
100
AcDbSymbolTableRecord
100
AcDbLayerTableRecord
2
0
70
0
62
7
6
Continuous
290
1
370
-3
390
0
0
LAYER
5
71
100
AcDbSymbolTableRecord
100
AcDbLayerTableRecord
2
81
70
0
62
-3
6
Continuous
290
1
370
-3
390
0
0
LAYER
5
73
100
AcDbSymbolTableRecord
100
AcDbLayerTableRecord
2
80
70
0
62
-6
6
Continuous
290
1
370
-3
390
0
0
LAYER
5
75
100
AcDbSymbolTableRecord
100
AcDbLayerTableRecord
2
1
70
0
62
4
6
Continuous
290
1
370
-3
390
0
0
LAYER
5
79
100
AcDbSymbolTableRecord
100
AcDbLayerTableRecord
2
4
70
0
62
-2
6
CENTER
290
1
370
-3
390
0
0
LAYER
5
B1
100
AcDbSymbolTableRecord
100
AcDbLayerTableRecord
2
2
70
0
62
7
6
Continuous
290
1
370
-3
390
0
0
LAYER
5
12C
100
AcDbSymbolTableRecord
100
AcDbLayerTableRecord
2
Defpoints
70
0
62
7
6
Continuous
290
0
370
-3
390
0
0
LAYER
5
1a1
100
AcDbSymbolTableRecord
100
AcDbLayerTableRecord
2
SK4
70
0
62
2
6
CENTER
290
1
370
-3
390
0
0
LAYER
5
1a2
100
AcDbSymbolTableRecord
100
AcDbLayerTableRecord
2
SK1
70
0
62
4
6
Continuous
290
1
370
-3
390
0
0
LAYER
5
1a3
100
AcDbSymbolTableRecord
100
AcDbLayerTableRecord
2
SK2
70
0
62
7
6
Continuous
290
1
370
-3
390
0
0
LAYER
5
1a4
100
AcDbSymbolTableRecord
100
AcDbLayerTableRecord
2
SK6
70
0
62
5
6
Continuous
290
1
370
-3
390
0
0
ENDTAB
0
TABLE
2
STYLE
5
1b8
100
AcDbSymbolTable
0
STYLE
5
11
100
AcDbSymbolTableRecord
100
AcDbTextStyleTableRecord
2
Standard
3
txt
70
0
71
0
40
0
41
1
42
0
50
0
0
STYLE
5
108
100
AcDbSymbolTableRecord
100
AcDbTextStyleTableRecord
2
iso_b_vert
3
simplex.shx
70
0
71
0
40
0
41
1
42
0
50
0
0
STYLE
5
109
100
AcDbSymbolTableRecord
100
AcDbTextStyleTableRecord
2
DWGDirectTextStyle
3
simplex
70
0
71
0
40
0
41
1
42
0
50
0
0
ENDTAB
0
TABLE
2
DIMSTYLE
5
1b9
100
AcDbSymbolTable
100
AcDbDimStyleTable
0
DIMSTYLE
105
27
100
AcDbSymbolTableRecord
100
AcDbDimStyleTableRecord
2
Standard
70
0
3
<>
41
0.18
42
0.0625
44
0.18
140
0.18
147
0.09
73
0
74
0
77
1
271
2
275
0
278
52
280
0
340
11
0
ENDTAB
0
TABLE
2
VIEW
5
1ba
100
AcDbSymbolTable
0
ENDTAB
0
TABLE
2
UCS
5
1bb
100
AcDbSymbolTable
0
ENDTAB
0
TABLE
2
APPID
5
1bc
100
AcDbSymbolTable
0
APPID
5
12
100
AcDbSymbolTableRecord
100
AcDbRegAppTableRecord
2
ACAD
70
0
0
APPID
5
128
100
AcDbSymbolTableRecord
100
AcDbRegAppTableRecord
2
ACAD_DSTYLE_DIMBREAK
70
0
0
APPID
5
160
100
AcDbSymbolTableRecord
100
AcDbRegAppTableRecord
2
ACAD_DSTYLE_DIM_LINETYPE
70
0
0
APPID
5
161
100
AcDbSymbolTableRecord
100
AcDbRegAppTableRecord
2
ACAD_DSTYLE_DIM_EXT1_LINETYPE
70
0
0
APPID
5
162
100
AcDbSymbolTableRecord
100
AcDbRegAppTableRecord
2
ACAD_DSTYLE_DIM_EXT2_LINETYPE
70
0
0
APPID
5
19D
100
AcDbSymbolTableRecord
100
AcDbRegAppTableRecord
2
ACAD_MLEADERVER
70
0
0
ENDTAB
0
TABLE
2
BLOCK_RECORD
5
1bd
100
AcDbSymbolTable
0
BLOCK_RECORD
5
1F
100
AcDbSymbolTableRecord
100
AcDbBlockTableRecord
2
*Model_Space
340
0
70
0
0
BLOCK_RECORD
5
1B
100
AcDbSymbolTableRecord
100
AcDbBlockTableRecord
2
*Paper_Space
340
0
70
0
0
BLOCK_RECORD
5
23
100
AcDbSymbolTableRecord
100
AcDbBlockTableRecord
2
*Paper_Space0
340
0
70
0
0
BLOCK_RECORD
5
12D
100
AcDbSymbolTableRecord
100
AcDbBlockTableRecord
2
*D1
340
0
70
0
0
BLOCK_RECORD
5
139
100
AcDbSymbolTableRecord
100
AcDbBlockTableRecord
2
_U0
340
0
70
0
0
ENDTAB
0
ENDSEC
0
SECTION
2
BLOCKS
0
BLOCK
5
20
100
AcDbEntity
8
0
100
AcDbBlockBegin
2
*Model_Space
70
0
10
0
20
0
30
0
3
*Model_Space
0
ENDBLK
5
21
100
AcDbEntity
8
0
100
AcDbBlockEnd
0
BLOCK
5
1C
100
AcDbEntity
8
0
100
AcDbBlockBegin
2
*Paper_Space
70
0
10
0
20
0
30
0
3
*Paper_Space
0
ENDBLK
5
1D
100
AcDbEntity
8
0
100
AcDbBlockEnd
0
BLOCK
5
24
100
AcDbEntity
8
0
100
AcDbBlockBegin
2
*Paper_Space0
70
0
10
0
20
0
30
0
3
*Paper_Space0
0
ENDBLK
5
25
100
AcDbEntity
8
0
100
AcDbBlockEnd
0
BLOCK
5
12E
100
AcDbEntity
8
0
100
AcDbBlockBegin
2
*D1
70
1
10
0
20
0
30
0
3
*D1
0
LINE
5
130
100
AcDbEntity
8
0
62
256
6
ByLayer
370
-2
48
1
60
0
100
AcDbLine
10
47.6
20
-9.5251
30
0
11
47.6
21
-24.580246
31
0
39
0
210
0
220
0
230
1
0
LINE
5
131
100
AcDbEntity
8
0
62
256
6
ByLayer
370
-2
48
1
60
0
100
AcDbLine
10
14.2
20
-9.5251
30
0
11
14.2
21
-24.580246
31
0
39
0
210
0
220
0
230
1
0
LINE
5
132
100
AcDbEntity
8
0
62
256
6
ByLayer
370
-2
48
1
60
0
100
AcDbLine
10
44.1
20
-22.580246
30
0
11
17.7
21
-22.580246
31
0
39
0
210
0
220
0
230
1
0
SOLID
5
133
100
AcDbEntity
8
0
62
256
6
ByLayer
370
-1
48
1
60
0
100
AcDbTrace
10
44.1
20
-23.16358
30
0
11
44.1
21
-21.996913
31
0
12
47.6
22
-22.580246
32
0
13
47.6
23
-22.580246
33
0
39
0
210
0
220
0
230
1
0
SOLID
5
134
100
AcDbEntity
8
0
62
256
6
ByLayer
370
-1
48
1
60
0
100
AcDbTrace
10
17.7
20
-21.996913
30
0
11
17.7
21
-23.16358
31
0
12
14.2
22
-22.580246
32
0
13
14.2
23
-22.580246
33
0
39
0
210
0
220
0
230
1
0
MTEXT
5
135
100
AcDbEntity
8
0
62
256
6
ByLayer
370
18
48
1
60
0
100
AcDbMText
10
30.9
20
-15.580246
30
0
210
0
220
0
230
1
1
\A1;33.4
40
3.5
41
0
44
1
50
0
71
5
72
5
7
iso_b_vert
0
POINT
5
136
100
AcDbEntity
8
Defpoints
62
0
6
ByLayer
370
-1
48
1
60
0
100
AcDbPoint
10
47.6
20
-7.9376
30
0
39
0
210
0
220
0
230
1
50
360
0
POINT
5
137
100
AcDbEntity
8
Defpoints
62
0
6
ByLayer
370
-1
48
1
60
0
100
AcDbPoint
10
14.2
20
-7.9376
30
0
39
0
210
0
220
0
230
1
50
360
0
POINT
5
138
100
AcDbEntity
8
Defpoints
62
0
6
ByLayer
370
-1
48
1
60
0
100
AcDbPoint
10
14.2
20
-22.580246
30
0
39
0
210
0
220
0
230
1
50
360
0
ENDBLK
5
12F
100
AcDbEntity
8
0
100
AcDbBlockEnd
0
BLOCK
5
140
100
AcDbEntity
8
0
100
AcDbBlockBegin
2
_U0
70
0
10
0
20
0
30
0
3
_U0
0
MTEXT
5
13A
100
AcDbEntity
8
2
62
256
6
ByLayer
370
18
48
1
60
0
100
AcDbMText
10
26.794034
20
-21.547613
30
0
210
0
220
0
230
1
1
\W0.7528;33.4
40
3.5
41
0
44
1.084337
50
0
71
7
72
5
7
iso_b_vert
0
LINE
5
13B
100
AcDbEntity
8
2
62
256
6
ByLayer
370
13
48
1
60
0
100
AcDbLine
10
47.6
20
-9.5251
30
0
11
47.6
21
-24.580246
31
0
39
0
210
0
220
0
230
1
0
LINE
5
13C
100
AcDbEntity
8
2
62
256
6
ByLayer
370
13
48
1
60
0
100
AcDbLine
10
14.2
20
-9.5251
30
0
11
14.2
21
-24.580246
31
0
39
0
210
0
220
0
230
1
0
LINE
5
13D
100
AcDbEntity
8
2
62
256
6
ByLayer
370
13
48
1
60
0
100
AcDbLine
10
47.6
20
-22.580246
30
0
11
14.2
21
-22.580246
31
0
39
0
210
0
220
0
230
1
0
SOLID
5
13E
100
AcDbEntity
8
2
62
256
6
ByLayer
370
18
48
1
60
0
100
AcDbTrace
10
47.6
20
-22.580246
30
0
11
44.100002
21
-23.04103
31
0
12
44.099998
22
-22.119462
32
0
13
44.099998
23
-22.119462
33
0
39
0
210
0
220
0
230
1
0
SOLID
5
13F
100
AcDbEntity
8
2
62
256
6
ByLayer
370
18
48
1
60
0
100
AcDbTrace
10
14.2
20
-22.580246
30
0
11
17.699998
21
-22.119462
31
0
12
17.700002
22
-23.04103
32
0
13
17.700002
23
-23.04103
33
0
39
0
210
0
220
0
230
1
0
ENDBLK
5
141
100
AcDbEntity
8
0
100
AcDbBlockEnd
0
ENDSEC
0
SECTION
2
ENTITIES
0
ELLIPSE
5
C3
100
AcDbEntity
8
1
62
256
6
ByLayer
370
18
48
1
60
0
100
AcDbEllipse
10
47.050577
20
-0.509271
30
0
11
0.0968817591007543
21
-1.91241435445811
31
0
210
0
220
0
230
1
40
0.053838
41
-0.0492478945256045
42
1.58521158580168
0
ELLIPSE
5
C4
100
AcDbEntity
8
1
62
256
6
ByLayer
370
18
48
1
60
0
100
AcDbEllipse
10
46.771261
20
-0.995876
30
0
11
0.31725493754828
21
-0.919347830334078
31
0
210
0
220
0
230
1
40
0.475034
41
2.88582611790585
42
-2.18211716364522
0
ELLIPSE
5
C5
100
AcDbEntity
8
1
62
256
6
ByLayer
370
18
48
1
60
0
100
AcDbEllipse
10
72.28796
20
-44.461107
30
0
11
29.1247715548943
21
-49.2745048569192
31
0
210
0
220
0
230
1
40
0.008611
41
-2.63413214703983
42
-2.59797352562211
0
ELLIPSE
5
C6
100
AcDbEntity
8
1
62
256
6
ByLayer
370
13
48
1
60
0
100
AcDbEllipse
10
13.034163
20
34.222916
30
0
11
48.5072908298205
21
-54.9877178412101
31
0
210
0
220
0
230
1
40
0.324651
41
-1.36647225915243
42
-1.2423321878475
0
ELLIPSE
5
C7
100
AcDbEntity
8
1
62
256
6
ByLayer
370
13
48
1
60
0
100
AcDbEllipse
10
13.034163
20
-72.261622
30
0
11
26.9416789872093
21
-68.1964244692015
31
0
210
0
220
0
230
1
40
0.646825
41
2.63211672465553
42
2.64501503219509
0
ELLIPSE
5
C8
100
AcDbEntity
8
1
62
256
6
ByLayer
370
13
48
1
60
0
100
AcDbEllipse
10
13.034163
20
-67.487082
30
0
11
33.7330314923914
21
-65.105214563556
31
0
210
0
220
0
230
1
40
0.601532
41
2.48726056130668
42
2.57886085996335
0
POINT
5
70
100
AcDbEntity
8
81
62
256
6
ByLayer
370
18
48
1
60
0
100
AcDbPoint
10
47.6
20
0
30
0
39
0
210
0
220
0
230
1
50
360
0
POINT
5
72
100
AcDbEntity
8
80
62
256
6
ByLayer
370
18
48
1
60
0
100
AcDbPoint
10
0
20
0
30
0
39
0
210
0
220
0
230
1
50
360
0
POINT
5
74
100
AcDbEntity
8
1
62
256
6
ByLayer
370
18
48
1
60
1
100
AcDbPoint
10
47.6
20
-7.9376
30
0
39
0
210
0
220
0
230
1
50
360
0
POINT
5
76
100
AcDbEntity
8
1
62
256
6
ByLayer
370
18
48
1
60
1
100
AcDbPoint
10
14.2
20
-7.9376
30
0
39
0
210
0
220
0
230
1
50
360
0
SPLINE
5
C9
100
AcDbEntity
8
1
62
256
6
ByLayer
370
18
48
1
60
0
100
AcDbSpline
70
4
71
3
72
26
73
22
40
0
40
0
40
0
40
0
40
0.125000000000009
40
0.125000000000009
40
0.250000000000019
40
0.250000000000019
40
0.375000000000028
40
0.375000000000028
40
0.437500000000033
40
0.437500000000033
40
0.500000000000038
40
0.500000000000038
40
0.625000000000033
40
0.625000000000033
40
0.750000000000028
40
0.750000000000028
40
0.812500000000026
40
0.812500000000026
40
0.875000000000024
40
0.875000000000024
40
1
40
1
40
1
40
1
41
1
10
46.231545895968
20
-0.591629086440804
30
0
41
1
10
46.2319641878473
20
-0.630037216331829
30
0
41
1
10
46.2359057647983
20
-0.668254131220976
30
0
41
1
10
46.2490824372283
20
-0.744564561335693
30
0
41
1
10
46.2583365762761
20
-0.782655258974188
30
0
41
1
10
46.281175702668
20
-0.858940081905928
30
0
41
1
10
46.2947684259377
20
-0.897131639816024
30
0
41
1
10
46.3179473969915
20
-0.95470478867685
30
0
41
1
10
46.3261557110022
20
-0.973974014664634
30
0
41
1
10
46.3432984645375
20
-1.01233111290392
30
0
41
1
10
46.3522457132292
20
-1.03145379895184
30
0
41
1
10
46.3801034846968
20
-1.08874333808646
30
0
41
1
10
46.4000275526121
20
-1.12682417874305
30
0
41
1
10
46.4420818105085
20
-1.20335385865161
30
0
41
1
10
46.4642136714561
20
-1.24179161972654
30
0
41
1
10
46.4987405636092
20
-1.30043152044868
30
0
41
1
10
46.5104698839997
20
-1.32014278339059
30
0
41
1
10
46.5339310141828
20
-1.35943876298242
30
0
41
1
10
46.545703275788
20
-1.37909314954635
30
0
41
1
10
46.5809557629269
20
-1.43820884930406
30
0
41
1
10
46.6043475774444
20
-1.47783441606373
30
0
41
1
10
46.6272482859189
20
-1.51798549629385
30
0
0
SPLINE
5
CA
100
AcDbEntity
8
1
62
256
6
ByLayer
370
18
48
1
60
0
100
AcDbSpline
70
4
71
3
72
33
73
29
40
0
40
0
40
0
40
0
40
0.044136598042309
40
0.0887189216498522
40
0.133740875180425
40
0.179195817501654
40
0.225076672358063
40
0.271375943951686
40
0.357667868814605
40
0.447208330471304
40
0.539921259845166
40
0.635717607949194
40
0.655699522943281
40
0.676062516816615
40
0.696804841728268
40
0.717924656611479
40
0.739420025141721
40
0.761288916339327
40
0.783529200185614
40
0.806138643207538
40
0.829114906129115
40
0.852455541629177
40
0.876157992197788
40
0.900219588104278
40
0.924637545490542
40
0.949408964603306
40
0.974530828179616
40
1
40
1
40
1
40
1
41
1
10
13.6174630951579
20
-3.49598172457945
30
0
41
1
10
13.599732927856
20
-3.52252529498259
30
0
41
1
10
13.5640935402849
20
-3.57588049332949
30
0
41
1
10
13.5098572696774
20
-3.65571215742193
30
0
41
1
10
13.4547107805307
20
-3.73587774460751
30
0
41
1
10
13.3986167482002
20
-3.81630259739524
30
0
41
1
10
13.3415860111133
20
-3.89696612395539
30
0
41
1
10
13.2670933245284
20
-4.0008753035986
30
0
41
1
10
13.173428428516
20
-4.12896995048774
30
0
41
1
10
13.0587718705404
20
-4.28185312348347
30
0
41
1
10
12.9385908139318
20
-4.43800485072356
30
0
41
1
10
12.8473688771714
20
-4.55340785615209
30
0
41
1
10
12.7873627061467
20
-4.6280698877504
30
0
41
1
10
12.7603681344655
20
-4.66146205859008
30
0
41
1
10
12.7328010036633
20
-4.6953637943268
30
0
41
1
10
12.7046612529452
20
-4.72976609789597
30
0
41
1
10
12.6759490699796
20
-4.76465973952276
30
0
41
1
10
12.6466645880663
20
-4.80003511712863
30
0
41
1
10
12.6168079673756
20
-4.835882296271
30
0
41
1
10
12.5863793696435
20
-4.87219099880895
30
0
41
1
10
12.5553789710669
20
-4.90895060984022
30
0
41
1
10
12.5238069441862
20
-4.9461501457898
30
0
41
1
10
12.4916635223315
20
-4.98377837283704
30
0
41
1
10
12.4589487576956
20
-5.02182335729583
30
0
41
1
10
12.4256634464857
20
-5.06027418851818
30
0
41
1
10
12.3918056020414
20
-5.09911441807293
30
0
41
1
10
12.3573839051598
20
-5.13834709324792
30
0
41
1
10
12.3341971145263
20
-5.16453661219617
30
0
41
1
10
12.3225241303705
20
-5.17772126739754
30
0
0
SPLINE
5
CB
100
AcDbEntity
8
1
62
256
6
ByLayer
370
18
48
1
60
0
100
AcDbSpline
70
4
71
3
72
8
73
4
40
0
40
0
40
0
40
0
40
1
40
1
40
1
40
1
41
1
10
47.1183316214887
20
7.92564387682637
30
0
41
1
10
47.2030020931308
20
7.91904492288086
30
0
41
1
10
47.2876688317894
20
7.91240483748749
30
0
41
1
10
47.3723316150922
20
7.90572121228382
30
0
0
SPLINE
5
CC
100
AcDbEntity
8
1
62
256
6
ByLayer
370
18
48
1
60
0
100
AcDbSpline
70
4
71
3
72
18
73
14
40
0
40
0
40
0
40
0
40
0.125000000000001
40
0.125000000000001
40
0.250000000000001
40
0.250000000000001
40
0.500000000000001
40
0.500000000000001
40
0.750000000000001
40
0.750000000000001
40
0.875000000000001
40
0.875000000000001
40
1
40
1
40
1
40
1
41
1
10
46.6379119003801
20
3.32321279175755
30
0
41
1
10
46.649453407712
20
3.30015025716406
30
0
41
1
10
46.6608630645921
20
3.27755713750725
30
0
41
1
10
46.6833371906993
20
3.23359983778224
30
0
41
1
10
46.6944085068954
20
3.21221128108576
30
0
41
1
10
46.7271592309903
20
3.14969478620375
30
0
41
1
10
46.74838249314
20
3.11019082142724
30
0
41
1
10
46.7896579653536
20
3.03535208001827
30
0
41
1
10
46.809715922884
20
2.99999335202287
30
0
41
1
10
46.8386879825702
20
2.95084438736288
30
0
41
1
10
46.8481592489686
20
2.93511329805904
30
0
41
1
10
46.8666729335078
20
2.90515345958758
30
0
41
1
10
46.8757169422605
20
2.89091913819263
30
0
41
1
10
46.8844834624557
20
2.87765691401427
30
0
0
SPLINE
5
CD
100
AcDbEntity
8
1
62
256
6
ByLayer
370
18
48
1
60
0
100
AcDbSpline
70
4
71
3
72
14
73
10
40
0
40
0
40
0
40
0
40
0.121683588007562
40
0.268069656672971
40
0.268069656672971
40
0.341262691005675
40
0.341262691005675
40
0.414455725338379
40
1
40
1
40
1
40
1
41
1
10
45.2185359493809
20
4.1455239231417
30
0
41
1
10
45.2751529558416
20
4.12002268714033
30
0
41
1
10
45.4003631380691
20
4.06156514326071
30
0
41
1
10
45.5266337122696
20
3.99810174118184
30
0
41
1
10
45.6305363707196
20
3.94388564401871
30
0
41
1
10
45.6652698368529
20
3.92543017012952
30
0
41
1
10
45.7347061057811
20
3.88787931633505
30
0
41
1
10
46.0471899988307
20
3.71593892394989
30
0
41
1
10
46.3598569640455
20
3.51778469607353
30
0
41
1
10
46.6379119003802
20
3.32321279175753
30
0
0
SPLINE
5
CE
100
AcDbEntity
8
1
62
256
6
ByLayer
370
18
48
1
60
0
100
AcDbSpline
70
4
71
3
72
10
73
6
40
0
40
0
40
0
40
0
40
0.5
40
0.5
40
1
40
1
40
1
40
1
41
1
10
13.090054674754
20
-6.9249152326891
30
0
41
1
10
13.1749841920818
20
-6.84461908093047
30
0
41
1
10
13.2615474205564
20
-6.76621435023671
30
0
41
1
10
13.4375190903784
20
-6.61281222101056
30
0
41
1
10
13.5269310597114
20
-6.53781775721922
30
0
41
1
10
13.6176161259
20
-6.46439182533302
30
0
0
SPLINE
5
CF
100
AcDbEntity
8
1
62
256
6
ByLayer
370
18
48
1
60
0
100
AcDbSpline
70
4
71
3
72
55
73
51
40
0
40
0
40
0
40
0
40
0.0644724603202764
40
0.0644724603202764
40
0.128944920640553
40
0.128944920640553
40
0.145063035720621
40
0.145063035720621
40
0.161181150800689
40
0.161181150800689
40
0.193417380960825
40
0.193417380960825
40
0.22565361112096
40
0.22565361112096
40
0.241771726201028
40
0.241771726201028
40
0.257889841281095
40
0.257889841281095
40
0.322362301601365
40
0.322362301601365
40
0.338480416681433
40
0.338480416681433
40
0.354598531761502
40
0.386834761921634
40
0.386834761921634
40
0.419070992081766
40
0.419070992081766
40
0.451307222241899
40
0.451307222241899
40
0.515779682562164
40
0.515779682562164
40
0.548015912722296
40
0.548015912722296
40
0.564134027802363
40
0.564134027802363
40
0.580252142882429
40
0.580252142882429
40
0.644724603202695
40
0.644724603202695
40
0.709197063522961
40
0.709197063522961
40
0.773669523843226
40
0.773669523843226
40
0.838141984163492
40
0.838141984163492
40
0.870378214323621
40
0.870378214323621
40
0.90261444448375
40
0.90261444448375
40
1
40
1
40
1
40
1
41
1
10
47.1179768499265
20
7.92563685848515
30
0
41
1
10
47.1597640882004
20
7.82354769869082
30
0
41
1
10
47.1990989720047
20
7.72060103812098
30
0
41
1
10
47.269079022365
20
7.51166923320116
30
0
41
1
10
47.2997518654341
20
7.4056937663394
30
0
41
1
10
47.3294473664275
20
7.2702013916973
30
0
41
1
10
47.334938900918
20
7.2429909262909
30
0
41
1
10
47.344898270278
20
7.18854674248229
30
0
41
1
10
47.3493729799814
20
7.16128233817997
30
0
41
1
10
47.3611536385943
20
7.07935141711098
30
0
41
1
10
47.3668209796146
20
7.02454759962367
30
0
41
1
10
47.3730315319125
20
6.9145106082953
30
0
41
1
10
47.3735669173523
20
6.85927677871948
30
0
41
1
10
47.3698064795991
20
6.77604365244011
30
0
41
1
10
47.3677916870541
20
6.74823548575245
30
0
41
1
10
47.362111316552
20
6.69248083128863
30
0
41
1
10
47.3584706969815
20
6.66479313713941
30
0
41
1
10
47.3362201433554
20
6.52751324067535
30
0
41
1
10
47.3053887121341
20
6.42120924939516
30
0
41
1
10
47.2501807352648
20
6.29283180027602
30
0
41
1
10
47.2382727669433
20
6.26731719365284
30
0
41
1
10
47.2131255423958
20
6.21734860724945
30
0
41
1
10
47.173337744623
20
6.14379338291059
30
0
41
1
10
47.1277282457868
20
6.07417472599641
30
0
41
1
10
47.0623291352997
20
5.98445115181795
30
0
41
1
10
47.0273371469757
20
5.94111047010347
30
0
41
1
10
46.953244226308
20
5.85732495179536
30
0
41
1
10
46.9146141483975
20
5.81746229490471
30
0
41
1
10
46.7945058967151
20
5.70328156896028
30
0
41
1
10
46.7088309252173
20
5.63434354158397
30
0
41
1
10
46.5737724962364
20
5.53932804165345
30
0
41
1
10
46.5276572220085
20
5.50906095519122
30
0
41
1
10
46.4570300774392
20
5.46552456482581
30
0
41
1
10
46.4332122208547
20
5.45130521832752
30
0
41
1
10
46.3853708771483
20
5.42359525848431
30
0
41
1
10
46.3613289570105
20
5.41009194104905
30
0
41
1
10
46.2405620191817
20
5.34419182675643
30
0
41
1
10
46.1421852056638
20
5.29658581625296
30
0
41
1
10
45.9428591418118
20
5.20883476287642
30
0
41
1
10
45.8419021617034
20
5.16871213905546
30
0
41
1
10
45.6379988392263
20
5.09423673863967
30
0
41
1
10
45.5350489924796
20
5.05989412596853
30
0
41
1
10
45.3275565350383
20
4.99582847385773
30
0
41
1
10
45.223012120277
20
4.96611066684386
30
0
41
1
10
45.065212447779
20
4.92438514661814
30
0
41
1
10
45.0124479640651
20
4.9109540168719
30
0
41
1
10
44.9066179281874
20
4.88496496131771
30
0
41
1
10
44.8535186503428
20
4.87239919456388
30
0
41
1
10
44.6398520879343
20
4.8235575897846
30
0
41
1
10
44.4789979628351
20
4.79062031054053
30
0
41
1
10
44.317889340294
20
4.76062311746844
30
0
0
SPLINE
5
D0
100
AcDbEntity
8
1
62
256
6
ByLayer
370
18
48
1
60
0
100
AcDbSpline
70
4
71
5
72
16
73
10
40
0
40
0
40
0
40
0
40
0
40
0
40
0.0590311102747912
40
0.3151269652186
40
0.571222820162409
40
0.955366602578122
40
1
40
1
40
1
40
1
40
1
40
1
41
1
10
14.1999999267515
20
-6.33236875844165
30
0
41
1
10
14.177834194209
20
-6.32033500635129
30
0
41
1
10
14.0595064176276
20
-6.25582783684263
30
0
41
1
10
13.8450165970072
20
-6.13632038312048
30
0
41
1
10
13.4862837103282
20
-5.92876613643068
30
0
41
1
10
13.1107913226826
20
-5.69851503895549
30
0
41
1
10
12.7574646675795
20
-5.47049278626943
30
0
41
1
10
12.5003000565153
20
-5.29880741046071
30
0
41
1
10
12.3392974894901
20
-5.18915387598395
30
0
41
1
10
12.3225379885235
20
-5.1777161404616
30
0
0
SPLINE
5
D1
100
AcDbEntity
8
1
62
256
6
ByLayer
370
18
48
1
60
0
100
AcDbSpline
70
4
71
3
72
10
73
6
40
0
40
0
40
0
40
0
40
0.5
40
0.5
40
1
40
1
40
1
40
1
41
1
10
9.28106913533381
20
-2.83784274057501
30
0
41
1
10
9.78798061235099
20
-3.2641000740945
30
0
41
1
10
10.2948920893681
20
-3.67624123254984
30
0
41
1
10
11.3087150434025
20
-4.46008091167002
30
0
41
1
10
11.8156265204196
20
-4.83176787949319
30
0
41
1
10
12.3225379974368
20
-5.17771608918071
30
0
0
SPLINE
5
D2
100
AcDbEntity
8
1
62
256
6
ByLayer
370
18
48
1
60
0
100
AcDbSpline
70
4
71
3
72
37
73
33
40
0
40
0
40
0
40
0
40
0.0624999999999965
40
0.0624999999999965
40
0.124999999999993
40
0.124999999999993
40
0.18749999999999
40
0.18749999999999
40
0.218749999999988
40
0.218749999999988
40
0.249999999999986
40
0.249999999999986
40
0.312499999999987
40
0.312499999999987
40
0.374999999999989
40
0.374999999999989
40
0.499999999999996
40
0.499999999999996
40
0.531249999999998
40
0.531249999999998
40
0.5625
40
0.624999999999999
40
0.624999999999999
40
0.749999999999997
40
0.749999999999997
40
0.874999999999994
40
0.874999999999994
40
0.937499999999995
40
0.937499999999995
40
0.968749999999998
40
0.968749999999998
40
1
40
1
40
1
40
1
41
1
10
5.39606147932119
20
7.64524026101751
30
0
41
1
10
5.48230564589321
20
7.65193951571797
30
0
41
1
10
5.56918914496688
20
7.656927030867
30
0
41
1
10
5.74397529063597
20
7.66434958729303
30
0
41
1
10
5.83188049510014
20
7.66677523817967
30
0
41
1
10
6.00856795476852
20
7.66950668161252
30
0
41
1
10
6.09735131293482
20
7.6698085349235
30
0
41
1
10
6.2311205451276
20
7.66883135233917
30
0
41
1
10
6.27587777708868
20
7.66826459446401
30
0
41
1
10
6.36527416912517
20
7.66667048394081
30
0
41
1
10
6.40976664266606
20
7.66564656443646
30
0
41
1
10
6.54266734904627
20
7.66192779401436
30
0
41
1
10
6.63050073127761
20
7.65858886152142
30
0
41
1
10
6.80479085665903
20
7.65028141841162
30
0
41
1
10
6.8912468091028
20
7.64531183519648
30
0
41
1
10
7.14870636889637
20
7.62796603918653
30
0
41
1
10
7.31781144338314
20
7.61317347182731
30
0
41
1
10
7.52632939661379
20
7.59027234117335
30
0
41
1
10
7.56794761774452
20
7.58546258623505
30
0
41
1
10
7.65058441884281
20
7.57542193425314
30
0
41
1
10
7.77357228103401
20
7.55973967963558
30
0
41
1
10
7.89377054686659
20
7.54216321663731
30
0
41
1
10
8.13069038060905
20
7.50437247201819
30
0
41
1
10
8.28401037867226
20
7.47566738463146
30
0
41
1
10
8.58236142655801
20
7.41044269762293
30
0
41
1
10
8.72738610400879
20
7.37391987448547
30
0
41
1
10
8.93925065869621
20
7.31256047868834
30
0
41
1
10
9.0089256041625
20
7.29101058234642
30
0
41
1
10
9.11208089757642
20
7.25694618232407
30
0
41
1
10
9.14627660819068
20
7.24528816530491
30
0
41
1
10
9.21399563916842
20
7.22145852033665
30
0
41
1
10
9.24752414248209
20
7.209286197842
30
0
41
1
10
9.28073395021039
20
7.19685321179401
30
0
0
SPLINE
5
D3
100
AcDbEntity
8
1
62
256
6
ByLayer
370
18
48
1
60
0
100
AcDbSpline
70
4
71
3
72
14
73
10
40
0
40
0
40
0
40
0
40
0.250000000000001
40
0.250000000000001
40
0.375000000000001
40
0.375000000000001
40
0.500000000000001
40
0.500000000000001
40
1
40
1
40
1
40
1
41
1
10
47.3117063166656
20
-7.42778493412655
30
0
41
1
10
47.2992068824448
20
-7.48444552771306
30
0
41
1
10
47.2910178686809
20
-7.53715384144885
30
0
41
1
10
47.285357159296
20
-7.61014377138875
30
0
41
1
10
47.2845747215491
20
-7.63346104954894
30
0
41
1
10
47.2852534494777
20
-7.67803841708957
30
0
41
1
10
47.2867140370481
20
-7.69919586662863
30
0
41
1
10
47.2995400766874
20
-7.79926576046475
30
0
41
1
10
47.327424102034
20
-7.86123101154811
30
0
41
1
10
47.3723316150922
20
-7.90572121228419
30
0
0
SPLINE
5
D4
100
AcDbEntity
8
1
62
256
6
ByLayer
370
18
48
1
60
0
100
AcDbSpline
70
4
71
3
72
10
73
6
40
0
40
0
40
0
40
0
40
0.5
40
0.5
40
1
40
1
40
1
40
1
41
1
10
47.3117063166658
20
-7.42778493412658
30
0
41
1
10
47.23957625894
20
-7.34299587831754
30
0
41
1
10
47.1679047680186
20
-7.24789418074613
30
0
41
1
10
47.0254895837903
20
-7.03682568080382
30
0
41
1
10
46.9547457890172
20
-6.92086116029446
30
0
41
1
10
46.8844834624557
20
-6.79406897162352
30
0
0
SPLINE
5
D5
100
AcDbEntity
8
1
62
256
6
ByLayer
370
18
48
1
60
0
100
AcDbSpline
70
4
71
3
72
8
73
4
40
0
40
0
40
0
40
0
40
1
40
1
40
1
40
1
41
1
10
47.1183316214887
20
-7.92564387682674
30
0
41
1
10
47.2030020931307
20
-7.91904492288123
30
0
41
1
10
47.2876688317893
20
-7.91240483748788
30
0
41
1
10
47.3723316150921
20
-7.90572121228419
30
0
0
SPLINE
5
D6
100
AcDbEntity
8
1
62
256
6
ByLayer
370
18
48
1
60
0
100
AcDbSpline
70
4
71
3
72
8
73
4
40
0
40
0
40
0
40
0
40
1
40
1
40
1
40
1
41
1
10
47.3117063166659
20
-1.53564983387463
30
0
41
1
10
47.2959921160446
20
-1.58592477564164
30
0
41
1
10
47.2803036966148
20
-1.63602002896207
30
0
41
1
10
47.2646410837021
20
-1.68593541732281
30
0
0
SPLINE
5
D7
100
AcDbEntity
8
1
62
256
6
ByLayer
370
18
48
1
60
0
100
AcDbSpline
70
4
71
3
72
10
73
6
40
0
40
0
40
0
40
0
40
0.5
40
0.5
40
1
40
1
40
1
40
1
41
1
10
47.3117063166659
20
1.53564983387429
30
0
41
1
10
47.2394053443425
20
1.76696463383402
30
0
41
1
10
47.1676501382677
20
1.99447557976214
30
0
41
1
10
47.0252361920031
20
2.44185537907308
30
0
41
1
10
46.9545773665979
20
2.6617248263866
30
0
41
1
10
46.8844834624557
20
2.87765691401429
30
0
0
SPLINE
5
D8
100
AcDbEntity
8
1
62
256
6
ByLayer
370
18
48
1
60
0
100
AcDbSpline
70
4
71
3
72
36
73
32
40
0
40
0
40
0
40
0
40
0.110809462905401
40
0.110809462905401
40
0.221618925810801
40
0.221618925810801
40
0.332428388716202
40
0.332428388716202
40
0.387833120168902
40
0.387833120168902
40
0.401684303032077
40
0.401684303032077
40
0.415535485895252
40
0.415535485895252
40
0.443237851621605
40
0.443237851621605
40
0.554047314527021
40
0.554047314527021
40
0.664856777432437
40
0.664856777432437
40
0.775666240337852
40
0.775666240337852
40
0.886475703243268
40
0.886475703243268
40
0.900326886106445
40
0.900326886106445
40
0.914178068969623
40
0.941880434695977
40
0.997285166148686
40
0.997285166148686
40
1
40
1
40
1
40
1
41
1
10
46.8844834624557
20
2.87765691401424
30
0
41
1
10
46.5371733424143
20
3.15388906909104
30
0
41
1
10
46.1915175348865
20
3.42215226285589
30
0
41
1
10
45.501139026755
20
3.94099340208359
30
0
41
1
10
45.1564167317113
20
4.19159931223507
30
0
41
1
10
44.4659609011872
20
4.67314985283338
30
0
41
1
10
44.1202288308698
20
4.90409521829878
30
0
41
1
10
43.5993340481975
20
5.23409693644558
30
0
41
1
10
43.4253191656988
20
5.34135907711962
30
0
41
1
10
43.2071535771748
20
5.4718195203375
30
0
41
1
10
43.1634880833256
20
5.49773068580595
30
0
41
1
10
43.0760880321969
20
5.5491860531323
30
0
41
1
10
43.03234231994
20
5.57473648293711
30
0
41
1
10
42.9012742921931
20
5.65066935823552
30
0
41
1
10
42.8140331767832
20
5.70038563243077
30
0
41
1
10
42.3784268311611
20
5.94441995760667
30
0
41
1
10
42.0318455104569
20
6.12512240214673
30
0
41
1
10
41.3404125151623
20
6.45671901803951
30
0
41
1
10
40.9955759916606
20
6.6075835001009
30
0
41
1
10
40.3056290820049
20
6.87847838122536
30
0
41
1
10
39.960519680574
20
6.99852358196765
30
0
41
1
10
39.2680224062468
20
7.20642050091598
30
0
41
1
10
38.9206302890085
20
7.29429548255726
30
0
41
1
10
38.5273249635847
20
7.3742018250968
30
0
41
1
10
38.4835762107435
20
7.38281860820635
30
0
41
1
10
38.3961900122537
20
7.39948577856549
30
0
41
1
10
38.2652147992429
20
7.42365022289337
30
0
41
1
10
37.9602914776279
20
7.47419010007417
30
0
41
1
10
37.6999576464245
20
7.50752380398458
30
0
41
1
10
37.5182438209337
20
7.52619632427798
30
0
41
1
10
37.5097565476039
20
7.5270579173731
30
0
41
1
10
37.501270054076
20
7.52790888973652
30
0
0
SPLINE
5
D9
100
AcDbEntity
8
1
62
256
6
ByLayer
370
18
48
1
60
0
100
AcDbSpline
70
4
71
3
72
8
73
4
40
0
40
0
40
0
40
0
40
1
40
1
40
1
40
1
41
1
10
14.0571918074443
20
-6.25922859262582
30
0
41
1
10
13.9105857263976
20
-6.33032654580634
30
0
41
1
10
13.7640549806881
20
-6.398707538357
30
0
41
1
10
13.6174810656923
20
-6.4644074336064
30
0
0
SPLINE
5
DA
100
AcDbEntity
8
1
62
256
6
ByLayer
370
18
48
1
60
0
100
AcDbSpline
70
4
71
5
72
48
73
42
40
0
40
0
40
0
40
0
40
0
40
0
40
0.0076792263045049
40
0.0407236443019122
40
0.0627532563001838
40
0.0957976742975911
40
0.117827286295863
40
0.15087170429327
40
0.172901316291542
40
0.205945734288949
40
0.238990152286356
40
0.261019764284628
40
0.294064182282035
40
0.316093794280307
40
0.349138212277714
40
0.371167824275985
40
0.404212242273393
40
0.4372566602708
40
0.459286272269072
40
0.481315884267343
40
0.514360302264751
40
0.547404720262158
40
0.56943433226043
40
0.602478750257837
40
0.635523168255244
40
0.657552780253516
40
0.679582392251787
40
0.712626810249195
40
0.745671228246602
40
0.767700840244874
40
0.800745258242281
40
0.822774870240552
40
0.85581928823796
40
0.877848900236231
40
0.910893318233639
40
0.943937736231046
40
0.965967348229317
40
0.999011766226725
40
1
40
1
40
1
40
1
40
1
40
1
41
1
10
17.1411514837946
20
4.41529574498975
30
0
41
1
10
17.1746722783568
20
4.40942679149512
30
0
41
1
10
17.3524361389775
20
4.37788000101065
30
0
41
1
10
17.6263620436372
20
4.3258172847267
30
0
41
1
10
18.0445310143554
20
4.23832065081155
30
0
41
1
10
18.5588620291125
20
4.11597049015992
30
0
41
1
10
19.183915315366
20
3.94743169014501
30
0
41
1
10
19.7608875795999
20
3.77420940428169
30
0
41
1
10
20.3859408658534
20
3.56836301793172
30
0
41
1
10
21.0109941521068
20
3.34522067170189
30
0
41
1
10
21.6360474383603
20
3.10426890839849
30
0
41
1
10
22.2611007246137
20
2.84831328929644
30
0
41
1
10
22.8861540108672
20
2.5772567555523
30
0
41
1
10
23.5112072971206
20
2.29381509059121
30
0
41
1
10
24.0881795613545
20
2.02187917520462
30
0
41
1
10
24.713232847608
20
1.71758596660882
30
0
41
1
10
25.3382861338614
20
1.40491679792544
30
0
41
1
10
25.9633394201149
20
1.08473813692331
30
0
41
1
10
26.5403116843488
20
0.784349038319533
30
0
41
1
10
27.1653649706023
20
0.455299780953538
30
0
41
1
10
27.7904182568557
20
0.124050878588406
30
0
41
1
10
28.3673905210897
20
-0.182422500640712
30
0
41
1
10
28.9924438073431
20
-0.513553625736591
30
0
41
1
10
29.6655781156161
20
-0.867168674160098
30
0
41
1
10
30.2906314018696
20
-1.1909616499405
30
0
41
1
10
30.8676036661035
20
-1.48453399221108
30
0
41
1
10
31.4926569523569
20
-1.79524134220807
30
0
41
1
10
32.1177102386103
20
-2.09727551964002
30
0
41
1
10
32.6946825028443
20
-2.36685761920626
30
0
41
1
10
33.3197357890977
20
-2.64746516663243
30
0
41
1
10
33.9447890753512
20
-2.91396574113372
30
0
41
1
10
34.5698423616047
20
-3.16632139243265
30
0
41
1
10
35.1468146258386
20
-3.38519772138307
30
0
41
1
10
35.7718679120921
20
-3.6058993030606
30
0
41
1
10
36.3969211983455
20
-3.80922905126039
30
0
41
1
10
37.021974484599
20
-3.99234162764006
30
0
41
1
10
37.6470277708524
20
-4.15615802847148
30
0
41
1
10
38.1802327785401
20
-4.2770429709301
30
0
41
1
10
38.5691947201692
20
-4.35475481949518
30
0
41
1
10
38.8139135957399
20
-4.39942699950103
30
0
41
1
10
38.9624704272716
20
-4.42497469185017
30
0
41
1
10
38.9667841927449
20
-4.4257152162705
30
0
0
SPLINE
5
DB
100
AcDbEntity
8
1
62
256
6
ByLayer
370
18
48
1
60
0
100
AcDbSpline
70
4
71
3
72
37
73
33
40
0
40
0
40
0
40
0
40
0.0624999999999673
40
0.0624999999999673
40
0.124999999999935
40
0.124999999999935
40
0.187499999999902
40
0.187499999999902
40
0.218749999999886
40
0.218749999999886
40
0.249999999999869
40
0.249999999999869
40
0.374999999999842
40
0.374999999999842
40
0.406249999999846
40
0.406249999999846
40
0.43749999999985
40
0.43749999999985
40
0.49999999999988
40
0.49999999999988
40
0.624999999999917
40
0.624999999999917
40
0.65624999999992
40
0.65624999999992
40
0.687499999999923
40
0.749999999999954
40
0.749999999999954
40
0.87499999999999
40
0.87499999999999
40
0.937499999999995
40
0.937499999999995
40
1
40
1
40
1
40
1
41
1
10
42.9875943963791
20
-0.265625107796325
30
0
41
1
10
42.9996235625738
20
-0.236177907244951
30
0
41
1
10
43.013362980309
20
-0.207721772523541
30
0
41
1
10
43.0435952750639
20
-0.152321740739666
30
0
41
1
10
43.0600919432577
20
-0.125380038378609
30
0
41
1
10
43.0955547983064
20
-0.0728038086188292
30
0
41
1
10
43.1145317400635
20
-0.0471777144630607
30
0
41
1
10
43.1448484894179
20
-0.0097207071321748
30
0
41
1
10
43.155291886234
20
0.0026320509443849
30
0
41
1
10
43.1766328436181
20
0.0268147307469349
30
0
41
1
10
43.187529591938
20
0.0386472267614408
30
0
41
1
10
43.2431152459375
20
0.096549367125391
30
0
41
1
10
43.2910669226222
20
0.13888651201205
30
0
41
1
10
43.3552601359341
20
0.18694701785023
30
0
41
1
10
43.3683138605897
20
0.196313356715564
30
0
41
1
10
43.3948581944492
20
0.214547072445583
30
0
41
1
10
43.4083392168742
20
0.223405567361624
30
0
41
1
10
43.4490616906477
20
0.248986838436821
30
0
41
1
10
43.4767038453266
20
0.264803137189261
30
0
41
1
10
43.5611095252058
20
0.308617677721742
30
0
41
1
10
43.6193427212855
20
0.333001691838263
30
0
41
1
10
43.694812858736
20
0.357254780764436
30
0
41
1
10
43.7100739654535
20
0.361800355309413
30
0
41
1
10
43.7406267216951
20
0.370189553172111
30
0
41
1
10
43.7865534659707
20
0.381741230635072
30
0
41
1
10
43.8327882906838
20
0.390260336153915
30
0
41
1
10
43.9257122608629
20
0.403365372753427
30
0
41
1
10
43.9882657830329
20
0.406873040390593
30
0
41
1
10
44.0832000469793
20
0.404414358044278
30
0
41
1
10
44.1148817006172
20
0.402302496566676
30
0
41
1
10
44.1779351752007
20
0.395617185578288
30
0
41
1
10
44.2093718050812
20
0.391042338698952
30
0
41
1
10
44.2407352394463
20
0.385275889480312
30
0
0
SPLINE
5
DC
100
AcDbEntity
8
1
62
256
6
ByLayer
370
18
48
1
60
0
100
AcDbSpline
70
4
71
3
72
16
73
12
40
0
40
0
40
0
40
0
40
0.25
40
0.25
40
0.499999999999999
40
0.499999999999999
40
0.749999999999999
40
0.749999999999999
40
0.874999999999999
40
0.874999999999999
40
1
40
1
40
1
40
1
41
1
10
46.5928968718189
20
-4.35048152797481
30
0
41
1
10
46.6203173207049
20
-4.55191046817757
30
0
41
1
10
46.6473004221133
20
-4.75376728534556
30
0
41
1
10
46.6994043892205
20
-5.15878473972072
30
0
41
1
10
46.7245761766971
20
-5.36194184947357
30
0
41
1
10
46.7733567352091
20
-5.76940744040292
30
0
41
1
10
46.7969860330442
20
-5.97377542882697
30
0
41
1
10
46.8310191778994
20
-6.28085464270885
30
0
41
1
10
46.842121335948
20
-6.38331964180796
30
0
41
1
10
46.8637649192178
20
-6.58849331313345
30
0
41
1
10
46.874310160719
20
-6.69120032695099
30
0
41
1
10
46.8844834624557
20
-6.79406897162343
30
0
0
SPLINE
5
DD
100
AcDbEntity
8
1
62
256
6
ByLayer
370
18
48
1
60
0
100
AcDbSpline
70
4
71
3
72
25
73
21
40
0
40
0
40
0
40
0
40
0.250000000000016
40
0.250000000000016
40
0.312500000000021
40
0.343750000000021
40
0.343750000000021
40
0.375000000000021
40
0.375000000000021
40
0.500000000000021
40
0.500000000000021
40
0.750000000000016
40
0.750000000000016
40
0.875000000000014
40
0.875000000000014
40
0.906250000000011
40
0.906250000000011
40
0.937500000000007
40
0.937500000000007
40
1
40
1
40
1
40
1
41
1
10
43.0582385954233
20
-0.824415601677629
30
0
41
1
10
43.308511299389
20
-1.17200406570177
30
0
41
1
10
43.5730931383194
20
-1.50842335913495
30
0
41
1
10
43.9216440482097
20
-1.9150350378346
30
0
41
1
10
44.0275453946619
20
-2.03597565291835
30
0
41
1
10
44.1354479713723
20
-2.15535418320763
30
0
41
1
10
44.2078274540487
20
-2.23459296358718
30
0
41
1
10
44.2442569623384
20
-2.274056930066
30
0
41
1
10
44.4268122596665
20
-2.46976457026622
30
0
41
1
10
44.5746806463335
20
-2.62175367405138
30
0
41
1
10
45.023397167294
20
-3.06489596704031
30
0
41
1
10
45.3293399720729
20
-3.34326601628112
30
0
41
1
10
45.7973108862891
20
-3.73809672472495
30
0
41
1
10
45.9548149511089
20
-3.86590875507324
30
0
41
1
10
46.1535003690901
20
-4.0211439858187
30
0
41
1
10
46.193327801247
20
-4.05196433658094
30
0
41
1
10
46.2731615151163
20
-4.11315628309657
30
0
41
1
10
46.3131542460883
20
-4.14351699562729
30
0
41
1
10
46.4330455572531
20
-4.23367151468952
30
0
41
1
10
46.5129718243319
20
-4.29262626419452
30
0
41
1
10
46.5928968718185
20
-4.35048152797401
30
0
0
SPLINE
5
DE
100
AcDbEntity
8
1
62
256
6
ByLayer
370
18
48
1
60
0
100
AcDbSpline
70
4
71
3
72
22
73
18
40
0
40
0
40
0
40
0
40
0.249999999999977
40
0.249999999999977
40
0.312499999999985
40
0.312499999999985
40
0.374999999999993
40
0.374999999999993
40
0.499999999999991
40
0.624999999999988
40
0.624999999999988
40
0.687499999999987
40
0.687499999999987
40
0.749999999999986
40
0.874999999999993
40
0.874999999999993
40
1
40
1
40
1
40
1
41
1
10
43.0582385954254
20
-0.824415601680528
30
0
41
1
10
43.0289320525266
20
-0.783713535212058
30
0
41
1
10
43.004175066067
20
-0.74078206205732
30
0
41
1
10
42.9801551044086
20
-0.683701515088387
30
0
41
1
10
42.9757003060519
20
-0.672113107694742
30
0
41
1
10
42.9675337089754
20
-0.648568924017837
30
0
41
1
10
42.9638440162848
20
-0.636667799469933
30
0
41
1
10
42.9540770397995
20
-0.600931848394708
30
0
41
1
10
42.9444226684483
20
-0.552913798389795
30
0
41
1
10
42.9415301802294
20
-0.504125917955434
30
0
41
1
10
42.941951849492
20
-0.467228547512093
30
0
41
1
10
42.9425297122347
20
-0.454864376910166
30
0
41
1
10
42.9445193902978
20
-0.430414753117844
30
0
41
1
10
42.9487533736788
20
-0.394014341794872
30
0
41
1
10
42.9565575436368
20
-0.358385569615422
30
0
41
1
10
42.9699158336229
20
-0.311499770399507
30
0
41
1
10
42.9781058631499
20
-0.288296618034934
30
0
41
1
10
42.9875943963791
20
-0.265625107796325
30
0
0
SPLINE
5
DF
100
AcDbEntity
8
1
62
256
6
ByLayer
370
18
48
1
60
0
100
AcDbSpline
70
4
71
5
72
30
73
24
40
0
40
0
40
0
40
0
40
0
40
0
40
0.0293435273803935
40
0.0929030191380705
40
0.156462510895748
40
0.198835505400866
40
0.262394997158543
40
0.304767991663661
40
0.368327483421338
40
0.410700477926456
40
0.474259969684133
40
0.53781946144181
40
0.580192455946928
40
0.643751947704606
40
0.686124942209724
40
0.749684433967401
40
0.792057428472519
40
0.855616920230196
40
0.919176411987873
40
0.961549406492991
40
1
40
1
40
1
40
1
40
1
40
1
41
1
10
31.6405035001506
20
4.4088530747652
30
0
41
1
10
31.7070962346309
20
4.39705545301766
30
0
41
1
10
31.9179320351696
20
4.35870794780865
30
0
41
1
10
32.2730109017668
20
4.28883972520981
30
0
41
1
10
32.724251812403
20
4.18890697518708
30
0
41
1
10
33.3197357890977
20
4.03889543673168
30
0
41
1
10
33.9447890753512
20
3.85999381132592
30
0
41
1
10
34.5698423616047
20
3.66248663716641
30
0
41
1
10
35.1468146258386
20
3.46378883975675
30
0
41
1
10
35.7718679120921
20
3.23185062504223
30
0
41
1
10
36.3969211983455
20
2.98423627791695
30
0
41
1
10
37.021974484599
20
2.72072769734567
30
0
41
1
10
37.6470277708524
20
2.44406902982206
30
0
41
1
10
38.2720810571059
20
2.15446042869434
30
0
41
1
10
38.8971343433593
20
1.85451405168038
30
0
41
1
10
39.4741066075933
20
1.5692989731273
30
0
41
1
10
40.0991598938467
20
1.25281023183138
30
0
41
1
10
40.7242131801002
20
0.930188661576636
30
0
41
1
10
41.3492664663536
20
0.602579284009579
30
0
41
1
10
41.9173371624562
20
0.302189275460677
30
0
41
1
10
42.3892458145197
20
0.0517053225991901
30
0
41
1
10
42.7169114005248
20
-0.1221703622181
30
0
41
1
10
42.9003339204714
20
-0.219401435418092
30
0
41
1
10
42.987594396379
20
-0.265625107796239
30
0
0
SPLINE
5
E0
100
AcDbEntity
8
1
62
256
6
ByLayer
370
18
48
1
60
0
100
AcDbSpline
70
4
71
3
72
89
73
85
40
0
40
0
40
0
40
0
40
0.0459717271505436
40
0.0459717271505436
40
0.0919434543010872
40
0.0919434543010872
40
0.137915181451631
40
0.137915181451631
40
0.160901045026902
40
0.160901045026902
40
0.16664751092072
40
0.16664751092072
40
0.172393976814538
40
0.172393976814538
40
0.183886908602173
40
0.183886908602173
40
0.229858635752714
40
0.229858635752714
40
0.275830362903254
40
0.275830362903254
40
0.321802090053795
40
0.321802090053795
40
0.367773817204335
40
0.367773817204335
40
0.373520283098153
40
0.373520283098153
40
0.37926674899197
40
0.390759680779606
40
0.413745544354877
40
0.413745544354877
40
0.459717271505418
40
0.459717271505418
40
0.48270313508069
40
0.48270313508069
40
0.505688998655961
40
0.505688998655961
40
0.528674862231232
40
0.528674862231232
40
0.551660725806503
40
0.551660725806503
40
0.563153657594139
40
0.568900123487956
40
0.568900123487956
40
0.574646589381773
40
0.574646589381773
40
0.59763245295704
40
0.59763245295704
40
0.620618316532307
40
0.620618316532307
40
0.643604180107574
40
0.643604180107574
40
0.666590043682841
40
0.666590043682841
40
0.689575907258108
40
0.689575907258108
40
0.735547634408641
40
0.735547634408641
40
0.758533497983908
40
0.758533497983908
40
0.770026429771541
40
0.770026429771541
40
0.781519361559174
40
0.781519361559174
40
0.827491088709705
40
0.827491088709705
40
0.850476952284971
40
0.850476952284971
40
0.873462815860236
40
0.873462815860236
40
0.896448679435502
40
0.896448679435502
40
0.919434543010767
40
0.919434543010767
40
0.942420406586033
40
0.942420406586033
40
0.965406270161299
40
0.965406270161299
40
0.976899201948931
40
0.976899201948931
40
0.982645667842748
40
0.982645667842748
40
0.988392133736564
40
0.988392133736564
40
1
40
1
40
1
40
1
41
1
10
46.8844834624557
20
-6.79406897162352
30
0
41
1
10
46.5371733424143
20
-6.66197489489494
30
0
41
1
10
46.1915175348865
20
-6.51428086770187
30
0
41
1
10
45.5011390267549
20
-6.19027075836902
30
0
41
1
10
45.1564167317112
20
-6.01399581410976
30
0
41
1
10
44.4659609011872
20
-5.63411349130087
30
0
41
1
10
44.1202288308698
20
-5.43050400779029
30
0
41
1
10
43.5993340481975
20
-5.10544983569085
30
0
41
1
10
43.4253191656987
20
-4.99382266267702
30
0
41
1
10
43.2071535771748
20
-4.8502698747233
30
0
41
1
10
43.1634880833256
20
-4.82135834242899
30
0
41
1
10
43.0760880321969
20
-4.76313508198248
30
0
41
1
10
43.03234231994
20
-4.73381561934994
30
0
41
1
10
42.9012742921931
20
-4.64544966967665
30
0
41
1
10
42.8140331767832
20
-4.58593755805438
30
0
41
1
10
42.3784268311611
20
-4.28547873274496
30
0
41
1
10
42.0318455104569
20
-4.03586734586958
30
0
41
1
10
41.3404125151623
20
-3.5205682944341
30
0
41
1
10
40.9955759916605
20
-3.25484676290736
30
0
41
1
10
40.3056290820049
20
-2.70951726846829
30
0
41
1
10
39.9605196805739
20
-2.42991483711302
30
0
41
1
10
39.2680224062468
20
-1.85886067701466
30
0
41
1
10
38.9206302890085
20
-1.56742534336428
30
0
41
1
10
38.5273249635846
20
-1.23411082053391
30
0
41
1
10
38.4835762107435
20
-1.19698825576853
30
0
41
1
10
38.3961900122538
20
-1.12275192077874
30
0
41
1
10
38.2652147992429
20
-1.01135740332691
30
0
41
1
10
37.9602914776278
20
-0.751206315288755
30
0
41
1
10
37.6999576464245
20
-0.52799286917832
30
0
41
1
10
37.1802803751014
20
-0.0817067966091543
30
0
41
1
10
36.8351533957142
20
0.215633409683818
30
0
41
1
10
36.3178941229351
20
0.659559445867643
30
0
41
1
10
36.1455453823158
20
0.807185491590189
30
0
41
1
10
35.8006179995286
20
1.10135900754776
30
0
41
1
10
35.628060043441
20
1.2479241029767
30
0
41
1
10
35.2825989862302
20
1.53978739335281
30
0
41
1
10
35.1096919684275
20
1.68508268759822
30
0
41
1
10
34.7633032589483
20
1.97410933080494
30
0
41
1
10
34.5898311198743
20
2.11784259489812
30
0
41
1
10
34.3289039437367
20
2.33198012418083
30
0
41
1
10
34.1982609528165
20
2.43868480719919
30
0
41
1
10
34.0673236751567
20
2.54480621982969
30
0
41
1
10
33.9799634727692
20
2.61541946635165
30
0
41
1
10
33.9362262356019
20
2.650677269559
30
0
41
1
10
33.7176628049558
20
2.82637402218614
30
0
41
1
10
33.543378597431
20
2.96490065001828
30
0
41
1
10
33.1957515343789
20
3.23761454029241
30
0
41
1
10
33.0224334307262
20
3.37177808729263
30
0
41
1
10
32.6763211955242
20
3.63563177830977
30
0
41
1
10
32.5034932480992
20
3.76536017535943
30
0
41
1
10
32.1581823613607
20
4.02010627924844
30
0
41
1
10
31.9856994246291
20
4.14512169482859
30
0
41
1
10
31.6408714990584
20
4.39013511610906
30
0
41
1
10
31.4685424184333
20
4.51010619648105
30
0
41
1
10
30.9512933963734
20
4.86219288890334
30
0
41
1
10
30.6059563822488
20
5.08683538863559
30
0
41
1
10
30.0860828141846
20
5.40641836132113
30
0
41
1
10
29.9124760754777
20
5.5100324656166
30
0
41
1
10
29.6513742107204
20
5.66086256348737
30
0
41
1
10
29.5642217491293
20
5.71038392229326
30
0
41
1
10
29.3896337866138
20
5.8079355330546
30
0
41
1
10
29.3021233710053
20
5.85600392728418
30
0
41
1
10
28.8655343168989
20
6.09151111855269
30
0
41
1
10
28.5184119527242
20
6.26492351923943
30
0
41
1
10
27.9995670658129
20
6.50154126784758
30
0
41
1
10
27.8268814720759
20
6.57658755494367
30
0
41
1
10
27.4817020805837
20
6.71919295635789
30
0
41
1
10
27.3092463734456
20
6.78665978607606
30
0
41
1
10
26.9644166696607
20
6.91361697317549
30
0
41
1
10
26.7920368735745
20
6.97312336577491
30
0
41
1
10
26.4471120463272
20
7.08394851738629
30
0
41
1
10
26.2745571660733
20
7.13528875769859
30
0
41
1
10
25.9289089109606
20
7.23012242840846
30
0
41
1
10
25.7558344062927
20
7.2735560720572
30
0
41
1
10
25.4089873700617
20
7.35202188560035
30
0
41
1
10
25.2352172830003
20
7.38702902392018
30
0
41
1
10
24.9738261034592
20
7.43309968937095
30
0
41
1
10
24.886572478722
20
7.44738683699089
30
0
41
1
10
24.755479998757
20
7.46720275255996
30
0
41
1
10
24.7117564892251
20
7.47353714870118
30
0
41
1
10
24.624422438949
20
7.48564196960626
30
0
41
1
10
24.5807888700964
20
7.49141598687413
30
0
41
1
10
24.4491090457525
20
7.50801851319838
30
0
41
1
10
24.3611565819952
20
7.51800008633907
30
0
41
1
10
24.2733137705966
20
7.52686031256437
30
0
0
SPLINE
5
E1
100
AcDbEntity
8
1
62
256
6
ByLayer
370
18
48
1
60
0
100
AcDbSpline
70
4
71
3
72
12
73
8
40
0
40
0
40
0
40
0
40
0.359453817159423
40
0.359453817159423
40
0.718907634318847
40
0.718907634318847
40
1
40
1
40
1
40
1
41
1
10
10.3619407641603
20
-3.99974410034372
30
0
41
1
10
10.411884962083
20
-4.00006769313558
30
0
41
1
10
10.4613803005373
20
-4.00157390847721
30
0
41
1
10
10.5597059692058
20
-4.00637120893759
30
0
41
1
10
10.6085343946325
20
-4.00966701412787
30
0
41
1
10
10.6950803690574
20
-4.01681453675158
30
0
41
1
10
10.7329012471111
20
-4.02038420667424
30
0
41
1
10
10.7705837742955
20
-4.02433692803103
30
0
0
SPLINE
5
E2
100
AcDbEntity
8
1
62
256
6
ByLayer
370
18
48
1
60
0
100
AcDbSpline
70
4
71
3
72
82
73
78
40
0
40
0
40
0
40
0
40
0.0049660536548884
40
0.0099287532656472
40
0.0148880913941482
40
0.0198440606458525
40
0.0247966536711532
40
0.0297458631667517
40
0.0346916818770271
40
0.0396341025953596
40
0.0445731181654338
40
0.0495087214826264
40
0.0544409054952187
40
0.0593696632057876
40
0.0642949876724086
40
0.0692168720099883
40
0.0741353093914633
40
0.0790502930491123
40
0.0839618162757392
40
0.0888698724259164
40
0.0937744549171913
40
0.0986755572312794
40
0.103573172915247
40
0.10846729558267
40
0.113357918914824
40
0.118245036661772
40
0.12312864264354
40
0.128008730751205
40
0.136974301195305
40
0.145965820035732
40
0.154983680575277
40
0.164028270391397
40
0.173099971388945
40
0.182199159856509
40
0.191326206526191
40
0.200481476636567
40
0.209665329998729
40
0.218878121064982
40
0.22812019900021
40
0.237391907755577
40
0.246693586144435
40
0.256025567920087
40
0.274660627989412
40
0.293213414241082
40
0.311690678897996
40
0.330099284471049
40
0.348446199071974
40
0.36673849105604
40
0.384983323016968
40
0.403187945164143
40
0.42135968811947
40
0.439505955177728
40
0.457634214081078
40
0.475751988363802
40
0.493866848328502
40
0.511986401718917
40
0.52992752318086
40
0.548369293179445
40
0.567318042597717
40
0.586779579578984
40
0.606759241222989
40
0.627261940155159
40
0.648292206435054
40
0.669854225248371
40
0.69195187079661
40
0.714588736767487
40
0.737768163735976
40
0.761493263813993
40
0.785766942836055
40
0.8105919203392
40
0.835970747569384
40
0.861905823721548
40
0.888399410599351
40
0.915453645859657
40
0.943070554990163
40
0.971252062151236
40
1
40
1
40
1
40
1
41
1
10
11.7846548498628
20
1.57839207498998
30
0
41
1
10
11.7842505270541
20
1.58750599425971
30
0
41
1
10
11.7834421545141
20
1.6057276773104
30
0
41
1
10
11.7822920405745
20
1.63322609803788
30
0
41
1
10
11.7811857550036
20
1.66083198657202
30
0
41
1
10
11.7801259659709
20
1.68855615441424
30
0
41
1
10
11.7791095302048
20
1.71639332459031
30
0
41
1
10
11.778134855793
20
1.74434250458211
30
0
41
1
10
11.7771999316428
20
1.77240153331596
30
0
41
1
10
11.7763028552559
20
1.800568541145
30
0
41
1
10
11.7754416917662
20
1.82884155939561
30
0
41
1
10
11.7746145119808
20
1.85721862523135
30
0
41
1
10
11.7738193825097
20
1.8856977539362
30
0
41
1
10
11.7730543687176
20
1.91427694668877
30
0
41
1
10
11.7723175342453
20
1.94295418883891
30
0
41
1
10
11.771606941455
20
1.97172745072964
30
0
41
1
10
11.7709206515997
20
2.00059468783894
30
0
41
1
10
11.7702567251822
20
2.02955384111101
30
0
41
1
10
11.7696132218281
20
2.05860283722063
30
0
41
1
10
11.7689882019157
20
2.08773958892729
30
0
41
1
10
11.7683797216694
20
2.11696199514833
30
0
41
1
10
11.7677858526232
20
2.14626794207632
30
0
41
1
10
11.7672046102251
20
2.17565530041472
30
0
41
1
10
11.7666342211772
20
2.20512193709232
30
0
41
1
10
11.7660721279456
20
2.23466567300838
30
0
41
1
10
11.7655187011635
20
2.26428444198467
30
0
41
1
10
11.7649634008281
20
2.29397569961958
30
0
41
1
10
11.7642891695216
20
2.33205137820633
30
0
41
1
10
11.7632596563492
20
2.37866842707305
30
0
41
1
10
11.7614988644994
20
2.43398955976534
30
0
41
1
10
11.7592385432093
20
2.48971348341678
30
0
41
1
10
11.7564529476949
20
2.54582268982583
30
0
41
1
10
11.7531368547031
20
2.60230098931453
30
0
41
1
10
11.7492799972686
20
2.65913217746967
30
0
41
1
10
11.7448739366166
20
2.7163004016418
30
0
41
1
10
11.7399102315798
20
2.77379007434064
30
0
41
1
10
11.7343808449282
20
2.8315858895692
30
0
41
1
10
11.7282783411568
20
2.88967288015786
30
0
41
1
10
11.7215946631259
20
2.94803620387788
30
0
41
1
10
11.7143258294027
20
3.00666197571579
30
0
41
1
10
11.7064542681746
20
3.06553416672037
30
0
41
1
10
11.695219969737
20
3.14422434684693
30
0
41
1
10
11.679460981524
20
3.24246040782432
30
0
41
1
10
11.6575096441288
20
3.3597969215237
30
0
41
1
10
11.6326466673352
20
3.47631778724642
30
0
41
1
10
11.6048772231986
20
3.59193090997209
30
0
41
1
10
11.5742424623631
20
3.70656490228259
30
0
41
1
10
11.5407835270587
20
3.82015993471785
30
0
41
1
10
11.5045498007379
20
3.93266894256581
30
0
41
1
10
11.4655954454756
20
4.04405607681318
30
0
41
1
10
11.4239790955839
20
4.15429587758115
30
0
41
1
10
11.379762906475
20
4.26337234900038
30
0
41
1
10
11.3330113706363
20
4.37127779960082
30
0
41
1
10
11.2837920367628
20
4.47801284253302
30
0
41
1
10
11.232169186242
20
4.58358214987175
30
0
41
1
10
11.1784133826675
20
4.68763980475433
30
0
41
1
10
11.1220750067944
20
4.79110175330212
30
0
41
1
10
11.0627555568484
20
4.8949202476679
30
0
41
1
10
10.9998034716122
20
5.0003853311654
30
0
41
1
10
10.9332458514834
20
5.10750316178886
30
0
41
1
10
10.8631147827821
20
5.21628483606372
30
0
41
1
10
10.7894412849916
20
5.32674263127208
30
0
41
1
10
10.7122568532508
20
5.43889088357236
30
0
41
1
10
10.6315928912674
20
5.55274557671305
30
0
41
1
10
10.5474807405253
20
5.66832429373923
30
0
41
1
10
10.4599515518437
20
5.78564607171103
30
0
41
1
10
10.3690362083865
20
5.90473128706356
30
0
41
1
10
10.2747652443499
20
6.02560153907817
30
0
41
1
10
10.1771687644371
20
6.14827953000602
30
0
41
1
10
10.0762764016602
20
6.2727889837189
30
0
41
1
10
9.97211715130905
20
6.39915443189338
30
0
41
1
10
9.86471971009573
20
6.52740153062308
30
0
41
1
10
9.75411089260311
20
6.65755535089014
30
0
41
1
10
9.64032148075339
20
6.78964649586214
30
0
41
1
10
9.52336346960973
20
6.92368709443696
30
0
41
1
10
9.40331743601806
20
7.05976276651748
30
0
41
1
10
9.32191491970818
20
7.15079890248501
30
0
41
1
10
9.28080869639606
20
7.19676986142082
30
0
0
SPLINE
5
E3
100
AcDbEntity
8
1
62
256
6
ByLayer
370
18
48
1
60
0
100
AcDbSpline
70
4
71
5
72
29
73
23
40
0
40
0
40
0
40
0
40
0
40
0
40
0.15747967013263
40
0.196849587665788
40
0.255904463965524
40
0.31495934026526
40
0.354329257798418
40
0.393699175331575
40
0.452754051631311
40
0.511808927931048
40
0.551178845464205
40
0.610233721763941
40
0.649603639297099
40
0.708658515596835
40
0.748028433129993
40
0.807083309429729
40
0.866138185729465
40
0.905508103262623
40
0.964562979562359
40
1
40
1
40
1
40
1
40
1
40
1
41
1
10
11.7794379243636
20
1.56747693435139
30
0
41
1
10
12.1640861005196
20
1.37519298609553
30
0
41
1
10
12.6448963207144
20
1.13017519019832
30
0
41
1
10
13.269949606968
20
0.805623908289448
30
0
41
1
10
14.0392459592798
20
0.39975028509096
30
0
41
1
10
14.9047043556308
20
-0.0598608328379271
30
0
41
1
10
15.4816766198647
20
-0.366001176280975
30
0
41
1
10
16.1067299061182
20
-0.695720630367333
30
0
41
1
10
16.7317831923716
20
-1.02207891808294
30
0
41
1
10
17.3087554566056
20
-1.31892217882557
30
0
41
1
10
17.9338087428591
20
-1.63412763453604
30
0
41
1
10
18.5588620291125
20
-1.94060625333893
30
0
41
1
10
19.183915315366
20
-2.2376329072238
30
0
41
1
10
19.7608875795999
20
-2.50189709500467
30
0
41
1
10
20.3859408658534
20
-2.77602441668682
30
0
41
1
10
21.0109941521068
20
-3.03680370660962
30
0
41
1
10
21.6360474383602
20
-3.2814789033028
30
0
41
1
10
22.2611007246136
20
-3.51029373562486
30
0
41
1
10
22.8765478077711
20
-3.71719420813744
30
0
41
1
10
23.3477518248699
20
-3.862284493711
30
0
41
1
10
23.6747127759103
20
-3.95625975069566
30
0
41
1
10
23.9055116829117
20
-4.01916560426378
30
0
41
1
10
23.9920675238546
20
-4.04226988356004
30
0
0
SPLINE
5
E4
100
AcDbEntity
8
1
62
256
6
ByLayer
370
18
48
1
60
0
100
AcDbSpline
70
4
71
3
72
10
73
6
40
0
40
0
40
0
40
0
40
0.5
40
0.5
40
1
40
1
40
1
40
1
41
1
10
13.090054674754
20
-3.38685513993406
30
0
41
1
10
13.1749841920818
20
-3.40444556222872
30
0
41
1
10
13.2615474205564
20
-3.42214089602521
30
0
41
1
10
13.4375190903784
20
-3.45838900605196
30
0
41
1
10
13.5269310597115
20
-3.47693516171799
30
0
41
1
10
13.6176161259
20
-3.49612649674623
30
0
0
SPLINE
5
E5
100
AcDbEntity
8
1
62
256
6
ByLayer
370
18
48
1
60
0
100
AcDbSpline
70
4
71
3
72
68
73
64
40
0
40
0
40
0
40
0
40
0.0148502097580082
40
0.0148502097580082
40
0.0513372390262311
40
0.0513372390262311
40
0.087824268294454
40
0.087824268294454
40
0.124311297562677
40
0.124311297562677
40
0.1607983268309
40
0.1607983268309
40
0.197285356099122
40
0.197285356099122
40
0.215528870733234
40
0.215528870733234
40
0.22465062805029
40
0.22465062805029
40
0.233772385367345
40
0.233772385367345
40
0.270259414635568
40
0.270259414635568
40
0.343233473172013
40
0.343233473172013
40
0.416207531708458
40
0.416207531708458
40
0.452694560976682
40
0.452694560976682
40
0.489181590244905
40
0.489181590244905
40
0.525668619513129
40
0.525668619513129
40
0.534790376830184
40
0.534790376830184
40
0.543912134147239
40
0.543912134147239
40
0.562155648781349
40
0.562155648781349
40
0.598642678049571
40
0.598642678049571
40
0.635129707317793
40
0.635129707317793
40
0.671616736586014
40
0.671616736586014
40
0.708103765854236
40
0.708103765854236
40
0.744590795122458
40
0.744590795122458
40
0.78107782439068
40
0.78107782439068
40
0.817564853658901
40
0.817564853658901
40
0.854051882927123
40
0.854051882927123
40
0.872295397561233
40
0.872295397561233
40
0.890538912195343
40
0.890538912195343
40
0.927025941463562
40
0.927025941463562
40
0.96351297073178
40
0.96351297073178
40
1
40
1
40
1
40
1
41
1
10
27.8650825384513
20
-6.55896378606593
30
0
41
1
10
27.7947955685276
20
-6.58922978045996
30
0
41
1
10
27.7245357297375
20
-6.61887007826056
30
0
41
1
10
27.4817020805837
20
-6.71919295635809
30
0
41
1
10
27.3092463734457
20
-6.78665978607626
30
0
41
1
10
26.9644166696606
20
-6.91361697317569
30
0
41
1
10
26.7920368735746
20
-6.97312336577511
30
0
41
1
10
26.4471120463272
20
-7.08394851738649
30
0
41
1
10
26.2745571660733
20
-7.13528875769879
30
0
41
1
10
25.9289089109607
20
-7.23012242840866
30
0
41
1
10
25.7558344062926
20
-7.2735560720574
30
0
41
1
10
25.4089873700617
20
-7.35202188560055
30
0
41
1
10
25.2352172830003
20
-7.38702902392038
30
0
41
1
10
24.9738261034592
20
-7.43309968937115
30
0
41
1
10
24.886572478722
20
-7.44738683699109
30
0
41
1
10
24.755479998757
20
-7.46720275256013
30
0
41
1
10
24.7117564892251
20
-7.47353714870138
30
0
41
1
10
24.624422438949
20
-7.48564196960643
30
0
41
1
10
24.5807888700964
20
-7.49141598687433
30
0
41
1
10
24.3627759806809
20
-7.51890360506931
30
0
41
1
10
24.1888549646784
20
-7.53648852936297
30
0
41
1
10
23.6682073550077
20
-7.57607630449496
30
0
41
1
10
23.3227210228874
20
-7.58451163852996
30
0
41
1
10
22.6326274515654
20
-7.56685304932466
30
0
41
1
10
22.2879902234496
20
-7.5409678635416
30
0
41
1
10
21.7703845563649
20
-7.47568336118488
30
0
41
1
10
21.5977264356752
20
-7.44955910340963
30
0
41
1
10
21.2518789409635
20
-7.38874539712447
30
0
41
1
10
21.0786888070334
20
-7.35406614060003
30
0
41
1
10
20.7315280682069
20
-7.27611861916148
30
0
41
1
10
20.5575632214289
20
-7.23282089699583
30
0
41
1
10
20.3394754999864
20
-7.17308907427613
30
0
41
1
10
20.295825879406
20
-7.1608653788156
30
0
41
1
10
20.2084574762668
20
-7.13586727027885
30
0
41
1
10
20.164720858663
20
-7.12308732387828
30
0
41
1
10
20.0336685929096
20
-7.0840083063224
30
0
41
1
10
19.9464381834507
20
-7.05695051104988
30
0
41
1
10
19.6850980757371
20
-6.97284182975196
30
0
41
1
10
19.5113321688061
20
-6.91287751820823
30
0
41
1
10
19.1644794715095
20
-6.78535854187814
30
0
41
1
10
18.9913964639624
20
-6.71779661747868
30
0
41
1
10
18.6457584392929
20
-6.57493762725807
30
0
41
1
10
18.4731906181952
20
-6.49967455642312
30
0
41
1
10
18.1282224416956
20
-6.34194486987039
30
0
41
1
10
17.9558160227217
20
-6.25950579888172
30
0
41
1
10
17.6109233759716
20
-6.08763159007268
30
0
41
1
10
17.4384454702383
20
-5.99816583510565
30
0
41
1
10
17.0932148516281
20
-5.81214473972216
30
0
41
1
10
16.9204623824644
20
-5.7155805484806
30
0
41
1
10
16.5743874939941
20
-5.51566214496685
30
0
41
1
10
16.4010632848704
20
-5.4123207995581
30
0
41
1
10
16.053576521534
20
-5.19906673077739
30
0
41
1
10
15.8794162036565
20
-5.08915421040086
30
0
41
1
10
15.6173798238673
20
-4.91918236833215
30
0
41
1
10
15.5298852837306
20
-4.86164330637899
30
0
41
1
10
15.3552732074712
20
-4.7453694337697
30
0
41
1
10
15.2680646194377
20
-4.68659238832154
30
0
41
1
10
15.0066539210735
20
-4.5084673710482
30
0
41
1
10
14.8326664268214
20
-4.38732843243076
30
0
41
1
10
14.4850468567901
20
-4.14047925629819
30
0
41
1
10
14.3114121673349
20
-4.01477880842498
30
0
41
1
10
13.964340894665
20
-3.75880980294744
30
0
41
1
10
13.7909412096743
20
-3.62842725180266
30
0
41
1
10
13.6174810656924
20
-3.49595471680041
30
0
0
SPLINE
5
E6
100
AcDbEntity
8
1
62
256
6
ByLayer
370
18
48
1
60
0
100
AcDbSpline
70
4
71
5
72
47
73
41
40
0
40
0
40
0
40
0
40
0
40
0
40
0.0203315825251339
40
0.0540495252056135
40
0.0765281536592666
40
0.110246096339746
40
0.132724724793399
40
0.166442667473879
40
0.188921295927532
40
0.222639238608011
40
0.256357181288491
40
0.278835809742144
40
0.312553752422624
40
0.335032380876277
40
0.368750323556756
40
0.391228952010409
40
0.424946894690889
40
0.458664837371368
40
0.481143465825022
40
0.503622094278675
40
0.537340036959154
40
0.571057979639634
40
0.593536608093287
40
0.627254550773767
40
0.660972493454246
40
0.683451121907899
40
0.705929750361552
40
0.739647693042032
40
0.773365635722512
40
0.795844264176165
40
0.829562206856644
40
0.852040835310297
40
0.885758777990777
40
0.90823740644443
40
0.941955349124909
40
0.975673291805389
40
0.998151920259042
40
1
40
1
40
1
40
1
40
1
40
1
41
1
10
16.8745036562204
20
4.60657262822804
30
0
41
1
10
16.9614807837706
20
4.60037510456129
30
0
41
1
10
17.1927009773792
20
4.58240945679265
30
0
41
1
10
17.5200832150267
20
4.55137578163354
30
0
41
1
10
17.9917085187329
20
4.49533443194767
30
0
41
1
10
18.5594958664778
20
4.40848671050975
30
0
41
1
10
19.1845491527313
20
4.29160346652236
30
0
41
1
10
19.7615214169652
20
4.16453967660601
30
0
41
1
10
20.3865747032187
20
4.00680005422879
30
0
41
1
10
21.0116279894721
20
3.82965751404413
30
0
41
1
10
21.6366812757256
20
3.63213720212352
30
0
41
1
10
22.261734561979
20
3.41706168980548
30
0
41
1
10
22.8867878482325
20
3.18385734950988
30
0
41
1
10
23.511841134486
20
2.93532768722079
30
0
41
1
10
24.0888133987199
20
2.6927644168143
30
0
41
1
10
24.7138666849734
20
2.41704227960113
30
0
41
1
10
25.3389199712268
20
2.12957094826902
30
0
41
1
10
25.9639732574802
20
1.83074223819432
30
0
41
1
10
26.5409455217142
20
1.54673248530619
30
0
41
1
10
27.1659988079676
20
1.23173572034216
30
0
41
1
10
27.791052094221
20
0.910788191944874
30
0
41
1
10
28.368024358455
20
0.610318457856891
30
0
41
1
10
28.9930776447085
20
0.281859728850378
30
0
41
1
10
29.6662119529814
20
-0.0734297075088364
30
0
41
1
10
30.2912652392349
20
-0.402996183241527
30
0
41
1
10
30.8682375034688
20
-0.705413422221312
30
0
41
1
10
31.4932907897223
20
-1.0294618465548
30
0
41
1
10
32.1183440759757
20
-1.34853673333046
30
0
41
1
10
32.6953163402097
20
-1.63719702555522
30
0
41
1
10
33.3203696264631
20
-1.94199928168294
30
0
41
1
10
33.9454229127165
20
-2.23644009616041
30
0
41
1
10
34.57047619897
20
-2.52000258367158
30
0
41
1
10
35.1474484632039
20
-2.77057558231345
30
0
41
1
10
35.7725017494574
20
-3.02857631435123
30
0
41
1
10
36.3975550357108
20
-3.27200450280154
30
0
41
1
10
37.0226083219643
20
-3.49807619951088
30
0
41
1
10
37.5113245016266
20
-3.66161754022443
30
0
41
1
10
37.9038786372501
20
-3.78378334618392
30
0
41
1
10
38.1521897068149
20
-3.85725563096105
30
0
41
1
10
38.2562577103213
20
-3.8873711917345
30
0
41
1
10
38.2641636697887
20
-3.88965513523124
30
0
0
SPLINE
5
E7
100
AcDbEntity
8
1
62
256
6
ByLayer
370
18
48
1
60
0
100
AcDbSpline
70
4
71
5
72
13
73
7
40
0
40
0
40
0
40
0
40
0
40
0
40
0.774811862090841
40
1
40
1
40
1
40
1
40
1
40
1
41
1
10
14.1999999267515
20
6.33236875844153
30
0
41
1
10
14.177834194209
20
6.32033500635117
30
0
41
1
10
14.1492263041819
20
6.30473922601468
30
0
41
1
10
14.1206184141547
20
6.28906035016624
30
0
41
1
10
14.0920105241275
20
6.27329872239349
30
0
41
1
10
14.0634026341004
20
6.25745468990851
30
0
41
1
10
14.0569604766156
20
6.25388262699241
30
0
0
SPLINE
5
E8
100
AcDbEntity
8
1
62
256
6
ByLayer
370
18
48
1
60
0
100
AcDbSpline
70
4
71
3
72
14
73
10
40
0
40
0
40
0
40
0
40
0.25
40
0.25
40
0.375
40
0.375
40
0.5
40
0.5
40
1
40
1
40
1
40
1
41
1
10
47.3117063166656
20
1.53564983387429
30
0
41
1
10
47.2992068824448
20
1.39841848455609
30
0
41
1
10
47.2910178686811
20
1.2594626450759
30
0
41
1
10
47.2853571592961
20
1.04837926664132
30
0
41
1
10
47.2845747215491
20
0.977576271842707
30
0
41
1
10
47.2852534494777
20
0.83507267328406
30
0
41
1
10
47.2867140370481
20
0.763696950494278
30
0
41
1
10
47.2995400766874
20
0.40666398443102
30
0
41
1
10
47.3274241020341
20
0.120065689338105
30
0
41
1
10
47.3723316150923
20
-0.167471454109489
30
0
0
SPLINE
5
E9
100
AcDbEntity
8
1
62
256
6
ByLayer
370
18
48
1
60
0
100
AcDbSpline
70
4
71
3
72
8
73
4
40
0
40
0
40
0
40
0
40
1
40
1
40
1
40
1
41
1
10
47.1183316214887
20
-0.120187518874104
30
0
41
1
10
47.2030020931307
20
-0.135949167779984
30
0
41
1
10
47.2876688317894
20
-0.151710479536291
30
0
41
1
10
47.3723316150922
20
-0.167471454109489
30
0
0
SPLINE
5
EA
100
AcDbEntity
8
1
62
256
6
ByLayer
370
18
48
1
60
0
100
AcDbSpline
70
4
71
3
72
56
73
52
40
0
40
0
40
0
40
0
40
0.0625000000000052
40
0.0625000000000052
40
0.12500000000001
40
0.12500000000001
40
0.140625000000011
40
0.140625000000011
40
0.156250000000012
40
0.187500000000014
40
0.187500000000014
40
0.218750000000017
40
0.218750000000017
40
0.234375000000018
40
0.234375000000018
40
0.242187500000018
40
0.242187500000018
40
0.250000000000018
40
0.250000000000018
40
0.312500000000023
40
0.312500000000023
40
0.328125000000025
40
0.328125000000025
40
0.343750000000027
40
0.375000000000031
40
0.375000000000031
40
0.406250000000035
40
0.406250000000035
40
0.421875000000036
40
0.421875000000036
40
0.437500000000038
40
0.437500000000038
40
0.500000000000045
40
0.500000000000045
40
0.531250000000045
40
0.531250000000045
40
0.562500000000045
40
0.562500000000045
40
0.625000000000038
40
0.625000000000038
40
0.687500000000032
40
0.687500000000032
40
0.750000000000026
40
0.750000000000026
40
0.812500000000019
40
0.812500000000019
40
0.875000000000013
40
0.875000000000013
40
0.937500000000006
40
0.937500000000006
40
1
40
1
40
1
40
1
41
1
10
47.1179768499264
20
-0.120121774943783
30
0
41
1
10
47.1591163565442
20
-0.128643664248926
30
0
41
1
10
47.1978776899187
20
-0.136731878599562
30
0
41
1
10
47.2670404096774
20
-0.151383818014381
30
0
41
1
10
47.2974670612847
20
-0.157952150352003
30
0
41
1
10
47.3272329874098
20
-0.164654955135745
30
0
41
1
10
47.3327656654287
20
-0.165918793702417
30
0
41
1
10
47.342846369304
20
-0.168263927286745
30
0
41
1
10
47.3565145576658
20
-0.171513259714601
30
0
41
1
10
47.3654692170387
20
-0.173891927648498
30
0
41
1
10
47.372518284082
20
-0.176160134929859
30
0
41
1
10
47.3735920817105
20
-0.176841548297034
30
0
41
1
10
47.3708571271189
20
-0.177060956819076
30
0
41
1
10
47.369220534666
20
-0.177000184763585
30
0
41
1
10
47.3655876703419
20
-0.176691435662775
30
0
41
1
10
47.364177707816
20
-0.176551919804069
30
0
41
1
10
47.3609712654931
20
-0.176199987593151
30
0
41
1
10
47.3591738806676
20
-0.175987546467439
30
0
41
1
10
47.3412360392596
20
-0.173744689000728
30
0
41
1
10
47.3127050461803
20
-0.169386622572659
30
0
41
1
10
47.2608830297519
20
-0.160903593057526
30
0
41
1
10
47.2496839094082
20
-0.159050800215027
30
0
41
1
10
47.2258181936586
20
-0.155066636511975
30
0
41
1
10
47.1879754712776
20
-0.148699015852941
30
0
41
1
10
47.1443704078207
20
-0.141228130652394
30
0
41
1
10
47.0816848736876
20
-0.130396673319126
30
0
41
1
10
47.048074097084
20
-0.124546708901988
30
0
41
1
10
46.9946028857529
20
-0.115186839525308
30
0
41
1
10
46.9762511645692
20
-0.111965939646922
30
0
41
1
10
46.9388870647057
20
-0.105392281375117
30
0
41
1
10
46.9198338216808
20
-0.10203238774119
30
0
41
1
10
46.822817551587
20
-0.0848884441754763
30
0
41
1
10
46.7396253638108
20
-0.0700751024570252
30
0
41
1
10
46.6082902980338
20
-0.0465664411852629
30
0
41
1
10
46.5634164570635
20
-0.0385145887495639
30
0
41
1
10
46.4717279365081
20
-0.0220288552198156
30
0
41
1
10
46.4247912081088
20
-0.0135728988033748
30
0
41
1
10
46.2828708193195
20
0.0120373956468427
30
0
41
1
10
46.1864635836281
20
0.0294897353342662
30
0
41
1
10
45.991041211433
20
0.0649451926265669
30
0
41
1
10
45.892018467676
20
0.0829499168520726
30
0
41
1
10
45.6919625062586
20
0.119383969116484
30
0
41
1
10
45.5909256209116
20
0.137814071755656
30
0
41
1
10
45.3872455522188
20
0.175013520559929
30
0
41
1
10
45.2846004966621
20
0.193783262128221
30
0
41
1
10
45.0779909679688
20
0.23160140082706
30
0
41
1
10
44.9740246053672
20
0.250650197004774
30
0
41
1
10
44.7649869062013
20
0.288981155313138
30
0
41
1
10
44.6602478324413
20
0.30820233721451
30
0
41
1
10
44.4506438451268
20
0.346693089829046
30
0
41
1
10
44.3457351147541
20
0.365970718947182
30
0
41
1
10
44.2407352394595
20
0.385275889477896
30
0
0
SPLINE
5
EB
100
AcDbEntity
8
1
62
256
6
ByLayer
370
18
48
1
60
0
100
AcDbSpline
70
4
71
3
72
11
73
7
40
0
40
0
40
0
40
0
40
0.257845406424783
40
0.515690812849566
40
0.773536219274348
40
1
40
1
40
1
40
1
41
1
10
11.7794379243636
20
1.56747693435139
30
0
41
1
10
11.3819590350471
20
1.35227609096097
30
0
41
1
10
10.5643691742841
20
1.03503427709072
30
0
41
1
10
9.4288025440585
20
0.821196643109317
30
0
41
1
10
8.41058945548841
20
0.991894307896672
30
0
41
1
10
7.75961781155164
20
1.34740658801655
30
0
41
1
10
7.45138279216604
20
1.56761392652302
30
0
0
SPLINE
5
EC
100
AcDbEntity
8
1
62
256
6
ByLayer
370
18
48
1
60
0
100
AcDbSpline
70
4
71
3
72
26
73
22
40
0
40
0
40
0
40
0
40
0.125
40
0.125
40
0.25
40
0.25
40
0.375
40
0.375
40
0.5
40
0.5
40
0.625
40
0.625
40
0.75
40
0.75
40
0.875
40
0.875
40
0.9375
40
0.9375
40
0.96875
40
0.96875
40
1
40
1
40
1
40
1
41
1
10
3.09883862026575
20
-4.41003228876968
30
0
41
1
10
3.37298310199512
20
-4.39542431392826
30
0
41
1
10
3.64967893246632
20
-4.37929052875538
30
0
41
1
10
4.20894634760933
20
-4.34408323364332
30
0
41
1
10
4.49151923790402
20
-4.32500581093024
30
0
41
1
10
5.06336989307619
20
-4.28445441944615
30
0
41
1
10
5.35264967893656
20
-4.26297711103584
30
0
41
1
10
5.93874828195158
20
-4.21871964553304
30
0
41
1
10
6.23556979311419
20
-4.19593752737342
30
0
41
1
10
6.83752000895052
20
-4.15079735799378
30
0
41
1
10
7.14265189529314
20
-4.1284394722752
30
0
41
1
10
7.76183603799748
20
-4.08653758521942
30
0
41
1
10
8.07589166701311
20
-4.06699636773496
30
0
41
1
10
8.71328193630163
20
-4.03373790067923
30
0
41
1
10
9.03661979581381
20
-4.02002620728976
30
0
41
1
10
9.52858874031682
20
-4.00645580792335
30
0
41
1
10
9.69373566882533
20
-4.00310186297955
30
0
41
1
10
9.9431613466989
20
-4.00017541258998
30
0
41
1
10
10.026587228022
20
-3.9995507898781
30
0
41
1
10
10.1939990614829
20
-3.99906265788769
30
0
41
1
10
10.2779250246665
20
-3.9991997550778
30
0
41
1
10
10.3619407641603
20
-3.99974410034378
30
0
0
SPLINE
5
ED
100
AcDbEntity
8
1
62
256
6
ByLayer
370
18
48
1
60
0
100
AcDbSpline
70
4
71
3
72
18
73
14
40
0
40
0
40
0
40
0
40
0.192030724450733
40
0.192030724450733
40
0.384061448901466
40
0.384061448901466
40
0.576092173352199
40
0.576092173352199
40
0.768122897802931
40
0.768122897802931
40
0.960153622253664
40
0.960153622253664
40
1
40
1
40
1
40
1
41
1
10
47.1180911354093
20
7.92564248174006
30
0
41
1
10
46.7751943870118
20
7.9087727324619
30
0
41
1
10
46.432297638614
20
7.87389560097841
30
0
41
1
10
45.7465041418186
20
7.76860052439932
30
0
41
1
10
45.4036073934209
20
7.6981829065848
30
0
41
1
10
44.7178138966256
20
7.52276442728072
30
0
41
1
10
44.3749171482278
20
7.41776410736088
30
0
41
1
10
43.6891236514326
20
7.17460817326634
30
0
41
1
10
43.3462269030348
20
7.03645330980396
30
0
41
1
10
42.6604334062394
20
6.72886719431131
30
0
41
1
10
42.3175366578418
20
6.5594368940763
30
0
41
1
10
41.9034888298253
20
6.3373579104269
30
0
41
1
10
41.8323377502066
20
6.29857160177693
30
0
41
1
10
41.7611866705878
20
6.25917367117572
30
0
0
SPLINE
5
EE
100
AcDbEntity
8
1
62
256
6
ByLayer
370
18
48
1
60
0
100
AcDbSpline
70
4
71
3
72
20
73
16
40
0
40
0
40
0
40
0
40
0.0913909185404249
40
0.0913909185404249
40
0.242825765450354
40
0.242825765450354
40
0.394260612360283
40
0.394260612360283
40
0.545695459270212
40
0.545695459270212
40
0.697130306180142
40
0.697130306180142
40
0.848565153090071
40
0.848565153090071
40
1
40
1
40
1
40
1
41
1
10
20.9929592447716
20
-7.87714565444693
30
0
41
1
10
20.7860210833111
20
-7.90007446731445
30
0
41
1
10
20.5790829218506
20
-7.91649547905058
30
0
41
1
10
20.0292480119924
20
-7.94269858869359
30
0
41
1
10
19.6863512635948
20
-7.94103067231279
30
0
41
1
10
19.0005577667994
20
-7.90169928908563
30
0
41
1
10
18.6576610184017
20
-7.86403594161911
30
0
41
1
10
17.9718675216063
20
-7.75322575385059
30
0
41
1
10
17.6289707732086
20
-7.6800792533499
30
0
41
1
10
16.9431772764133
20
-7.49929744817578
30
0
41
1
10
16.6002805280156
20
-7.39166269674266
30
0
41
1
10
15.9144870312202
20
-7.14336817063827
30
0
41
1
10
15.5715902828226
20
-7.00270915989699
30
0
41
1
10
14.8857967860271
20
-6.69027907846572
30
0
41
1
10
14.5429000376294
20
-6.5185089731041
30
0
41
1
10
14.2000032892318
20
-6.33235090551548
30
0
0
SPLINE
5
EF
100
AcDbEntity
8
1
62
256
6
ByLayer
370
18
48
1
60
0
100
AcDbSpline
70
4
71
3
72
44
73
40
40
0
40
0
40
0
40
0
40
0.0534302207678917
40
0.0534302207678917
40
0.106860441535783
40
0.106860441535783
40
0.160290662303675
40
0.160290662303675
40
0.213720883071567
40
0.213720883071567
40
0.267151103839459
40
0.267151103839459
40
0.32058132460735
40
0.32058132460735
40
0.374011545375242
40
0.374011545375242
40
0.427441766143134
40
0.427441766143134
40
0.480871986911025
40
0.480871986911025
40
0.534302207678917
40
0.534302207678917
40
0.587732428446809
40
0.587732428446809
40
0.6411626492147
40
0.6411626492147
40
0.694592869982592
40
0.694592869982592
40
0.748023090750484
40
0.748023090750484
40
0.801453311518375
40
0.801453311518375
40
0.854883532286267
40
0.854883532286267
40
0.908313753054159
40
0.908313753054159
40
0.961743973822051
40
0.961743973822051
40
1
40
1
40
1
40
1
41
1
10
47.1180911354093
20
-0.120224666276386
30
0
41
1
10
46.7751943870116
20
0.188485583141556
30
0
41
1
10
46.4322976386139
20
0.49746801076941
30
0
41
1
10
45.7465041418186
20
1.11177842991555
30
0
41
1
10
45.4036073934209
20
1.41710452420577
30
0
41
1
10
44.7178138966256
20
2.01994937714528
30
0
41
1
10
44.3749171482278
20
2.31746627372541
30
0
41
1
10
43.6891236514324
20
2.9006460226224
30
0
41
1
10
43.3462269030349
20
3.18630707389559
30
0
41
1
10
42.6604334062394
20
3.74188965523592
30
0
41
1
10
42.3175366578417
20
4.01180947071282
30
0
41
1
10
41.6317431610464
20
4.53223818344827
30
0
41
1
10
41.2888464126487
20
4.78274547484611
30
0
41
1
10
40.6030529158534
20
5.26094176129786
30
0
41
1
10
40.2601561674557
20
5.4886292799595
30
0
41
1
10
39.5743626706603
20
5.91808900344307
30
0
41
1
10
39.2314659222627
20
6.11985988201101
30
0
41
1
10
38.5456724254673
20
6.49474179239732
30
0
41
1
10
38.2027756770695
20
6.66785166721542
30
0
41
1
10
37.5169821802743
20
6.98305685139357
30
0
41
1
10
37.1740854318766
20
7.12515118737397
30
0
41
1
10
36.4882919350813
20
7.37639242138235
30
0
41
1
10
36.1453951866835
20
7.48553854011598
30
0
41
1
10
35.4596016898883
20
7.66939859853389
30
0
41
1
10
35.1167049414906
20
7.74411196609876
30
0
41
1
10
34.4309114446952
20
7.85809010245708
30
0
41
1
10
34.0880146962974
20
7.89735451732159
30
0
41
1
10
33.4022211995021
20
7.93990048077791
30
0
41
1
10
33.0593244511045
20
7.94318189501834
30
0
41
1
10
32.3735309543091
20
7.91371701248653
30
0
41
1
10
32.0306342059114
20
7.8809708015057
30
0
41
1
10
31.3448407091161
20
7.77989584620937
30
0
41
1
10
31.0019439607183
20
7.71156741208168
30
0
41
1
10
30.3161504639231
20
7.54025715708352
30
0
41
1
10
29.9732537155254
20
7.43727586658162
30
0
41
1
10
29.28746021873
20
7.19806038633476
30
0
41
1
10
28.9445634703323
20
7.06182693508407
30
0
41
1
10
28.3561527263998
20
6.80110905825893
30
0
41
1
10
28.1106387308649
20
6.68427645026262
30
0
41
1
10
27.8651247353301
20
6.55981367603695
30
0
0
SPLINE
5
F0
100
AcDbEntity
8
1
62
256
6
ByLayer
370
18
48
1
60
0
100
AcDbSpline
70
4
71
3
72
46
73
42
40
0
40
0
40
0
40
0
40
0.0239642484060469
40
0.0239642484060469
40
0.0753345511215181
40
0.0753345511215181
40
0.126704853836989
40
0.126704853836989
40
0.178075156552461
40
0.178075156552461
40
0.229445459267932
40
0.229445459267932
40
0.280815761983403
40
0.280815761983403
40
0.332186064698874
40
0.332186064698874
40
0.383556367414345
40
0.383556367414345
40
0.434926670129817
40
0.434926670129817
40
0.486296972845288
40
0.486296972845288
40
0.537667275560759
40
0.537667275560759
40
0.58903757827623
40
0.58903757827623
40
0.640407880991702
40
0.640407880991702
40
0.691778183707173
40
0.691778183707173
40
0.743148486422644
40
0.743148486422644
40
0.794518789138115
40
0.794518789138115
40
0.845889091853586
40
0.845889091853586
40
0.897259394569058
40
0.897259394569058
40
0.948629697284529
40
0.948629697284529
40
1
40
1
40
1
40
1
41
1
10
34.2250019911226
20
-7.87713703147884
30
0
41
1
10
34.0650406433817
20
-7.8948644684092
30
0
41
1
10
33.9050792956407
20
-7.90870365216722
30
0
41
1
10
33.4022211995022
20
-7.93990048077819
30
0
41
1
10
33.0593244511044
20
-7.9431818950186
30
0
41
1
10
32.373530954309
20
-7.91371701248679
30
0
41
1
10
32.0306342059114
20
-7.88097080150595
30
0
41
1
10
31.344840709116
20
-7.77989584620963
30
0
41
1
10
31.0019439607184
20
-7.71156741208193
30
0
41
1
10
30.316150463923
20
-7.54025715708374
30
0
41
1
10
29.9732537155253
20
-7.43727586658184
30
0
41
1
10
29.28746021873
20
-7.19806038633499
30
0
41
1
10
28.9445634703323
20
-7.06182693508433
30
0
41
1
10
28.2587699735369
20
-6.7579599063655
30
0
41
1
10
27.9158732251392
20
-6.59032726718536
30
0
41
1
10
27.2300797283439
20
-6.22594171967356
30
0
41
1
10
26.8871829799461
20
-6.02918993834203
30
0
41
1
10
26.2013894831509
20
-5.60924203898952
30
0
41
1
10
25.8584927347532
20
-5.38604722009552
30
0
41
1
10
25.1726992379577
20
-4.91624886177121
30
0
41
1
10
24.82980248956
20
-4.66964677375745
30
0
41
1
10
24.1440089927648
20
-4.15638788341587
30
0
41
1
10
23.8011122443671
20
-3.88973266607374
30
0
41
1
10
23.1153187475717
20
-3.33999429423784
30
0
41
1
10
22.772421999174
20
-3.05691283776602
30
0
41
1
10
22.0866285023786
20
-2.47817220672582
30
0
41
1
10
21.7437317539809
20
-2.1825148198464
30
0
41
1
10
21.0579382571857
20
-1.58264362261119
30
0
41
1
10
20.715041508788
20
-1.27843166430898
30
0
41
1
10
20.0292480119926
20
-0.66558899742617
30
0
41
1
10
19.6863512635949
20
-0.356960180702401
30
0
41
1
10
19.0005577667995
20
0.260518430332951
30
0
41
1
10
18.6576610184018
20
0.569366317933884
30
0
41
1
10
17.9718675216064
20
1.18308229331944
30
0
41
1
10
17.6289707732087
20
1.48794848525895
30
0
41
1
10
16.9431772764135
20
2.08955442373499
30
0
41
1
10
16.6002805280158
20
2.38629231104792
30
0
41
1
10
15.9144870312203
20
2.96760552577297
30
0
41
1
10
15.5715902828228
20
3.25217905703019
30
0
41
1
10
14.8857967860273
20
3.80529287216746
30
0
41
1
10
14.5429000376296
20
4.07383144790987
30
0
41
1
10
14.2000032892319
20
4.33252709480905
30
0
0
SPLINE
5
F1
100
AcDbEntity
8
1
62
256
6
ByLayer
370
18
48
1
60
0
100
AcDbSpline
70
4
71
3
72
70
73
66
40
0
40
0
40
0
40
0
40
0.0312500000000001
40
0.0312500000000001
40
0.0625000000000001
40
0.0625000000000001
40
0.0937500000000001
40
0.0937500000000001
40
0.125
40
0.125
40
0.15625
40
0.15625
40
0.1875
40
0.1875
40
0.21875
40
0.21875
40
0.25
40
0.25
40
0.28125
40
0.28125
40
0.3125
40
0.3125
40
0.34375
40
0.34375
40
0.375
40
0.375
40
0.40625
40
0.40625
40
0.4375
40
0.4375
40
0.46875
40
0.46875
40
0.5
40
0.5
40
0.53125
40
0.53125
40
0.5625
40
0.5625
40
0.59375
40
0.59375
40
0.625
40
0.625
40
0.65625
40
0.65625
40
0.6875
40
0.6875
40
0.71875
40
0.71875
40
0.75
40
0.75
40
0.78125
40
0.78125
40
0.8125
40
0.8125
40
0.84375
40
0.84375
40
0.875
40
0.875
40
0.90625
40
0.90625
40
0.9375
40
0.9375
40
0.96875
40
0.96875
40
1
40
1
40
1
40
1
41
1
10
47.1180911354093
20
-7.92564248174045
30
0
41
1
10
46.7751943870116
20
-7.90877273246227
30
0
41
1
10
46.432297638614
20
-7.87389560097878
30
0
41
1
10
45.7465041418186
20
-7.76860052439969
30
0
41
1
10
45.4036073934209
20
-7.69818290658517
30
0
41
1
10
44.7178138966256
20
-7.52276442728109
30
0
41
1
10
44.3749171482279
20
-7.41776410736125
30
0
41
1
10
43.6891236514324
20
-7.17460817326673
30
0
41
1
10
43.3462269030348
20
-7.03645330980433
30
0
41
1
10
42.6604334062394
20
-6.7288671943117
30
0
41
1
10
42.3175366578417
20
-6.55943689407664
30
0
41
1
10
41.6317431610464
20
-6.19160421278644
30
0
41
1
10
41.2888464126487
20
-5.99320296995319
30
0
41
1
10
40.6030529158534
20
-5.57012677584692
30
0
41
1
10
40.2601561674556
20
-5.34545313184776
30
0
41
1
10
39.5743626706604
20
-4.87288786568845
30
0
41
1
10
39.2314659222627
20
-4.62499770288667
30
0
41
1
10
38.5456724254673
20
-4.10937092554445
30
0
41
1
10
38.2027756770695
20
-3.84163590352793
30
0
41
1
10
37.5169821802744
20
-3.2899608724745
30
0
41
1
10
37.1740854318766
20
-3.00602256726191
30
0
41
1
10
36.4882919350813
20
-2.42580284647911
30
0
41
1
10
36.1453951866835
20
-2.12952322166268
30
0
41
1
10
35.4596016898882
20
-1.52865062095304
30
0
41
1
10
35.1167049414905
20
-1.22405949944346
30
0
41
1
10
34.4309114446952
20
-0.610706735636143
30
0
41
1
10
34.0880146962974
20
-0.301946987205838
30
0
41
1
10
33.4022211995022
20
0.315543475798989
30
0
41
1
10
33.0593244511045
20
0.624272283073623
30
0
41
1
10
32.3735309543091
20
1.23750170430571
30
0
41
1
10
32.0306342059114
20
1.54200042374694
30
0
41
1
10
31.3448407091161
20
2.14262801952617
30
0
41
1
10
31.0019439607184
20
2.43875504062569
30
0
41
1
10
30.3161504639231
20
3.01861143121852
30
0
41
1
10
29.9732537155254
20
3.30233901019605
30
0
41
1
10
29.28746021873
20
3.85353733579805
30
0
41
1
10
28.9445634703323
20
4.12100637978216
30
0
41
1
10
28.2587699735369
20
4.63604957040067
30
0
41
1
10
27.9158732251393
20
4.8836221263858
30
0
41
1
10
27.230079728344
20
5.35550487435725
30
0
41
1
10
26.8871829799462
20
5.57981361059009
30
0
41
1
10
26.201389483151
20
6.00211765294443
30
0
41
1
10
25.8584927347533
20
6.20011165687151
30
0
41
1
10
25.1726992379578
20
6.56709307250492
30
0
41
1
10
24.8298024895602
20
6.73607935125293
30
0
41
1
10
24.1440089927649
20
7.0427466841098
30
0
41
1
10
23.8011122443672
20
7.18042679112136
30
0
41
1
10
23.1153187475718
20
7.42260894213675
30
0
41
1
10
22.7724219991741
20
7.52711023956192
30
0
41
1
10
22.0866285023788
20
7.70151320111944
30
0
41
1
10
21.743731753981
20
7.77141432767561
30
0
41
1
10
21.0579382571857
20
7.87566598587688
30
0
41
1
10
20.7150415087881
20
7.91001619282
30
0
41
1
10
20.0292480119926
20
7.94269858869342
30
0
41
1
10
19.686351263595
20
7.94103067231262
30
0
41
1
10
19.0005577667996
20
7.90169928908551
30
0
41
1
10
18.6576610184019
20
7.86403594161899
30
0
41
1
10
17.9718675216066
20
7.7532257538505
30
0
41
1
10
17.6289707732089
20
7.68007925334982
30
0
41
1
10
16.9431772764135
20
7.49929744817572
30
0
41
1
10
16.6002805280158
20
7.3916626967426
30
0
41
1
10
15.9144870312205
20
7.14336817063824
30
0
41
1
10
15.5715902828228
20
7.00270915989697
30
0
41
1
10
14.8857967860274
20
6.69027907846572
30
0
41
1
10
14.5429000376298
20
6.5185089731041
30
0
41
1
10
14.2000032892321
20
6.33235090551548
30
0
0
SPLINE
5
F2
100
AcDbEntity
8
1
62
256
6
ByLayer
370
18
48
1
60
0
100
AcDbSpline
70
4
71
3
72
19
73
15
40
0
40
0
40
0
40
0
40
0.249999999999996
40
0.249999999999996
40
0.499999999999993
40
0.499999999999993
40
0.531249999999992
40
0.531249999999992
40
0.562499999999991
40
0.562499999999991
40
0.624999999999991
40
0.749999999999993
40
0.749999999999993
40
1
40
1
40
1
40
1
41
1
10
13.0900546747539
20
-6.92491523268919
30
0
41
1
10
12.6216552360873
20
-7.13104013131408
30
0
41
1
10
12.1550470890604
20
-7.30709749082629
30
0
41
1
10
11.220133822613
20
-7.59697597495534
30
0
41
1
10
10.7518443746035
20
-7.71080540035504
30
0
41
1
10
10.2210273557766
20
-7.80195302224163
30
0
41
1
10
10.1619919718255
20
-7.81156695099739
30
0
41
1
10
10.0437986063309
20
-7.82975933148293
30
0
41
1
10
9.98468871092351
20
-7.83832991911461
30
0
41
1
10
9.80753429943329
20
-7.86243215451285
30
0
41
1
10
9.4536450644089
20
-7.9042414988665
30
0
41
1
10
9.10062622200385
20
-7.9269339482685
30
0
41
1
10
8.39473265504913
20
-7.94689084342059
30
0
41
1
10
7.92433706905734
20
-7.92633481786308
30
0
41
1
10
7.45141718823274
20
-7.87156261399164
30
0
0
SPLINE
5
F3
100
AcDbEntity
8
1
62
256
6
ByLayer
370
18
48
1
60
0
100
AcDbSpline
70
4
71
3
72
37
73
33
40
0
40
0
40
0
40
0
40
0.0625000000000046
40
0.0625000000000046
40
0.125000000000009
40
0.125000000000009
40
0.187500000000014
40
0.187500000000014
40
0.218750000000016
40
0.218750000000016
40
0.250000000000019
40
0.250000000000019
40
0.312500000000023
40
0.312500000000023
40
0.375000000000028
40
0.375000000000028
40
0.500000000000032
40
0.500000000000032
40
0.531250000000032
40
0.531250000000032
40
0.562500000000032
40
0.625000000000028
40
0.625000000000028
40
0.750000000000018
40
0.750000000000018
40
0.875000000000009
40
0.875000000000009
40
0.937500000000007
40
0.937500000000007
40
0.968750000000003
40
0.968750000000003
40
1
40
1
40
1
40
1
41
1
10
5.39606147932113
20
-1.59555548794296
30
0
41
1
10
5.48230564589315
20
-1.57114663577352
30
0
41
1
10
5.56918914496683
20
-1.55257194701716
30
0
41
1
10
5.74397529063592
20
-1.52475865148978
30
0
41
1
10
5.83188049510014
20
-1.51554286750201
30
0
41
1
10
6.00856795476852
20
-1.50516133859597
30
0
41
1
10
6.09735131293476
20
-1.5040054573787
30
0
41
1
10
6.23112054512757
20
-1.50772674377197
30
0
41
1
10
6.27587777708865
20
-1.50988445478896
30
0
41
1
10
6.36527416912514
20
-1.51593545323317
30
0
41
1
10
6.40976664266603
20
-1.51981558994782
30
0
41
1
10
6.54266734904624
20
-1.53384945782918
30
0
41
1
10
6.63050073127758
20
-1.54638909496086
30
0
41
1
10
6.804790856659
20
-1.57716312637487
30
0
41
1
10
6.89124680910277
20
-1.59540076186519
30
0
41
1
10
7.14870636889631
20
-1.65796899728613
30
0
41
1
10
7.31781144338308
20
-1.71011651912343
30
0
41
1
10
7.52632939661379
20
-1.78692386749989
30
0
41
1
10
7.56794761774452
20
-1.80289359410847
30
0
41
1
10
7.65058441884278
20
-1.835850027731
30
0
41
1
10
7.77357228103395
20
-1.88677726720749
30
0
41
1
10
7.89377054686659
20
-1.94197745193884
30
0
41
1
10
8.13069038060902
20
-2.05761854283639
30
0
41
1
10
8.28401037867226
20
-2.14168629289662
30
0
41
1
10
8.58236142655801
20
-2.32185010000512
30
0
41
1
10
8.72738610400879
20
-2.41795625519825
30
0
41
1
10
8.93925065869621
20
-2.56997176736599
30
0
41
1
10
9.0089256041625
20
-2.62195473021896
30
0
41
1
10
9.11208089757642
20
-2.70175789031353
30
0
41
1
10
9.14627660819068
20
-2.72869365903492
30
0
41
1
10
9.21399563916845
20
-2.78296596215441
30
0
41
1
10
9.24752414248212
20
-2.81030517376783
30
0
41
1
10
9.28073395021042
20
-2.83783314449184
30
0
0
SPLINE
5
F4
100
AcDbEntity
8
1
62
256
6
ByLayer
370
18
48
1
60
0
100
AcDbSpline
70
4
71
3
72
22
73
18
40
0
40
0
40
0
40
0
40
0.125000000000003
40
0.125000000000003
40
0.250000000000006
40
0.250000000000006
40
0.312500000000007
40
0.312500000000007
40
0.375000000000008
40
0.375000000000008
40
0.500000000000007
40
0.500000000000007
40
0.750000000000004
40
0.750000000000004
40
0.875000000000002
40
0.875000000000002
40
1
40
1
40
1
40
1
41
1
10
12.3225409002024
20
-5.17771990034271
30
0
41
1
10
12.3435354973203
20
-5.1078097839052
30
0
41
1
10
12.3672402270852
20
-5.03733242335889
30
0
41
1
10
12.4186331499784
20
-4.89506312568278
30
0
41
1
10
12.4463286909301
20
-4.82327207802413
30
0
41
1
10
12.490125604772
20
-4.71450074654589
30
0
41
1
10
12.5050949201506
20
-4.67808382486427
30
0
41
1
10
12.5356105034641
20
-4.60506792882663
30
0
41
1
10
12.5511660392222
20
-4.5684461091611
30
0
41
1
10
12.5985999251577
20
-4.45821035512452
30
0
41
1
10
12.631240752887
20
-4.38422522884315
30
0
41
1
10
12.7314240165233
20
-4.16059774075961
30
0
41
1
10
12.8011866904107
20
-4.00927684823338
30
0
41
1
10
12.9082130957387
20
-3.77838467720321
30
0
41
1
10
12.9443420430812
20
-3.70073825706481
30
0
41
1
10
13.0169595176092
20
-3.54456169595198
30
0
41
1
10
13.0534692321201
20
-3.4659772320833
30
0
41
1
10
13.090054674754
20
-3.38685513993408
30
0
0
SPLINE
5
F5
100
AcDbEntity
8
1
62
256
6
ByLayer
370
18
48
1
60
0
100
AcDbSpline
70
4
71
3
72
22
73
18
40
0
40
0
40
0
40
0
40
0.125
40
0.125
40
0.25
40
0.25
40
0.312499999999999
40
0.312499999999999
40
0.374999999999999
40
0.374999999999999
40
0.499999999999998
40
0.499999999999998
40
0.749999999999997
40
0.749999999999997
40
0.874999999999999
40
0.874999999999999
40
1
40
1
40
1
40
1
41
1
10
12.3225409002025
20
5.64040353053136
30
0
41
1
10
12.3435354973204
20
5.7052999855884
30
0
41
1
10
12.3672402270852
20
5.7686102369569
30
0
41
1
10
12.4186331499784
20
5.89236149210794
30
0
41
1
10
12.4463286909301
20
5.95280091029227
30
0
41
1
10
12.490125604772
20
6.04145533426518
30
0
41
1
10
12.5050949201507
20
6.07065451400752
30
0
41
1
10
12.5356105034641
20
6.1282540580101
30
0
41
1
10
12.5511660392222
20
6.15667311873889
30
0
41
1
10
12.5985999251577
20
6.24083358344777
30
0
41
1
10
12.6312407528871
20
6.29548029658838
30
0
41
1
10
12.7314240165234
20
6.45531470036445
30
0
41
1
10
12.8011866904107
20
6.55641550252699
30
0
41
1
10
12.9082130957387
20
6.70050692710288
30
0
41
1
10
12.9443420430812
20
6.74728843975393
30
0
41
1
10
13.0169595176092
20
6.83809594963216
30
0
41
1
10
13.0534692321201
20
6.88215747316713
30
0
41
1
10
13.0900546747541
20
6.92491523268899
30
0
0
SPLINE
5
F6
100
AcDbEntity
8
1
62
256
6
ByLayer
370
18
48
1
60
0
100
AcDbSpline
70
4
71
3
72
33
73
29
40
0
40
0
40
0
40
0
40
0.0441365980423095
40
0.0887189216498523
40
0.133740875180425
40
0.179195817501654
40
0.225076672358063
40
0.271375943951686
40
0.357667868814605
40
0.447208330471304
40
0.539921259845166
40
0.635717607949194
40
0.655699522943281
40
0.676062516816614
40
0.696804841728269
40
0.717924656611479
40
0.739420025141721
40
0.761288916339327
40
0.783529200185614
40
0.806138643207538
40
0.829114906129114
40
0.852455541629177
40
0.876157992197788
40
0.900219588104278
40
0.924637545490542
40
0.949408964603307
40
0.974530828179617
40
1
40
1
40
1
40
1
41
1
10
13.6174630951579
20
6.46439724918466
30
0
41
1
10
13.599732927856
20
6.45431283004893
30
0
41
1
10
13.564093540285
20
6.43404215149937
30
0
41
1
10
13.5098572696774
20
6.40271828663555
30
0
41
1
10
13.4547107805307
20
6.37052418516834
30
0
41
1
10
13.3986167482002
20
6.33739782473251
30
0
41
1
10
13.3415860111133
20
6.30334988003423
30
0
41
1
10
13.2670933245284
20
6.25840613523494
30
0
41
1
10
13.173428428516
20
6.20106262067196
30
0
41
1
10
13.0587718705405
20
6.12950597778416
30
0
41
1
10
12.9385908139318
20
6.05306368105772
30
0
41
1
10
12.8473688771714
20
5.9939577788445
30
0
41
1
10
12.7873627061467
20
5.95466890032077
30
0
41
1
10
12.7603681344655
20
5.93693216327659
30
0
41
1
10
12.7328010036633
20
5.9187530029559
30
0
41
1
10
12.7046612529453
20
5.90012697023118
30
0
41
1
10
12.6759490699796
20
5.88104965120186
30
0
41
1
10
12.6466645880663
20
5.86151676377332
30
0
41
1
10
12.6168079673756
20
5.84152417061958
30
0
41
1
10
12.5863793696435
20
5.82106791968309
30
0
41
1
10
12.555378971067
20
5.80014426461446
30
0
41
1
10
12.5238069441863
20
5.77874965860693
30
0
41
1
10
12.4916635223316
20
5.75688087809272
30
0
41
1
10
12.4589487576956
20
5.7345346456178
30
0
41
1
10
12.4256634464858
20
5.71170916919706
30
0
41
1
10
12.3918056020414
20
5.68839837170637
30
0
41
1
10
12.3573839051598
20
5.66461399859131
30
0
41
1
10
12.3341971145263
20
5.6485154709828
30
0
41
1
10
12.3225241303706
20
5.64041094885746
30
0
0
SPLINE
5
F7
100
AcDbEntity
8
1
62
256
6
ByLayer
370
18
48
1
60
0
100
AcDbSpline
70
4
71
3
72
19
73
15
40
0
40
0
40
0
40
0
40
0.312915624235606
40
0.312915624235606
40
0.625831248471212
40
0.625831248471212
40
0.664945701500664
40
0.664945701500664
40
0.704060154530116
40
0.704060154530116
40
0.782289060589021
40
0.938746872706828
40
0.938746872706828
40
1
40
1
40
1
40
1
41
1
10
13.0900546747539
20
6.92491523268907
30
0
41
1
10
12.6216552360873
20
7.13104013131399
30
0
41
1
10
12.1550470890605
20
7.30709749082618
30
0
41
1
10
11.2201338226131
20
7.59697597495523
30
0
41
1
10
10.7518443746036
20
7.71080540035493
30
0
41
1
10
10.2210273557768
20
7.80195302224155
30
0
41
1
10
10.1619919718256
20
7.81156695099727
30
0
41
1
10
10.043798606331
20
7.82975933148282
30
0
41
1
10
9.98468871092362
20
7.83832991911453
30
0
41
1
10
9.80753429943334
20
7.86243215451273
30
0
41
1
10
9.45364506440896
20
7.90424149886641
30
0
41
1
10
9.10062622200397
20
7.92693394826841
30
0
41
1
10
8.77320941550585
20
7.93619061695645
30
0
41
1
10
8.6810981330469
20
7.9374975183149
30
0
41
1
10
8.5889740838582
20
7.93750428380127
30
0
0
SPLINE
5
F8
100
AcDbEntity
8
1
62
256
6
ByLayer
370
18
48
1
60
0
100
AcDbSpline
70
4
71
3
72
10
73
6
40
0
40
0
40
0
40
0
40
0.5
40
0.5
40
1
40
1
40
1
40
1
41
1
10
13.0900546747541
20
6.92491523268899
30
0
41
1
10
13.1749841920819
20
6.84461908093036
30
0
41
1
10
13.2615474205564
20
6.7662143502366
30
0
41
1
10
13.4375190903784
20
6.61281222101044
30
0
41
1
10
13.5269310597115
20
6.5378177572191
30
0
41
1
10
13.6176161259
20
6.46439182533291
30
0
0
SPLINE
5
F9
100
AcDbEntity
8
1
62
256
6
ByLayer
370
18
48
1
60
0
100
AcDbSpline
70
4
71
3
72
117
73
113
40
0
40
0
40
0
40
0
40
0.0026779837239261
40
0.0026779837239261
40
0.0396158361786059
40
0.0396158361786059
40
0.0765536886332857
40
0.0765536886332857
40
0.113491541087965
40
0.113491541087965
40
0.1181087726448
40
0.1181087726448
40
0.122726004201635
40
0.131960467315303
40
0.15042939354264
40
0.15042939354264
40
0.187367245997313
40
0.187367245997313
40
0.20583617222465
40
0.20583617222465
40
0.224305098451986
40
0.224305098451986
40
0.242774024679322
40
0.242774024679322
40
0.261242950906658
40
0.261242950906658
40
0.270477414020326
40
0.27509464557716
40
0.27509464557716
40
0.279711877133993
40
0.279711877133993
40
0.298180803361326
40
0.298180803361326
40
0.316649729588659
40
0.316649729588659
40
0.335118655815992
40
0.335118655815992
40
0.353587582043324
40
0.353587582043324
40
0.372056508270657
40
0.372056508270657
40
0.408994360725323
40
0.408994360725323
40
0.427463286952655
40
0.427463286952655
40
0.436697750066322
40
0.436697750066322
40
0.445932213179988
40
0.445932213179988
40
0.482870065634655
40
0.482870065634655
40
0.501338991861988
40
0.501338991861988
40
0.519807918089321
40
0.519807918089321
40
0.538276844316654
40
0.538276844316654
40
0.556745770543988
40
0.556745770543988
40
0.575214696771321
40
0.575214696771321
40
0.593683622998654
40
0.593683622998654
40
0.60291808611232
40
0.60291808611232
40
0.607535317669153
40
0.607535317669153
40
0.612152549225987
40
0.612152549225987
40
0.630621475453319
40
0.630621475453319
40
0.667559327907984
40
0.667559327907984
40
0.704497180362649
40
0.704497180362649
40
0.722966106589981
40
0.722966106589981
40
0.741435032817313
40
0.741435032817313
40
0.759903959044646
40
0.759903959044646
40
0.764521190601479
40
0.764521190601479
40
0.769138422158312
40
0.769138422158312
40
0.778372885271979
40
0.778372885271979
40
0.796841811499314
40
0.796841811499314
40
0.815310737726649
40
0.815310737726649
40
0.833779663953984
40
0.833779663953984
40
0.852248590181319
40
0.852248590181319
40
0.870717516408654
40
0.870717516408654
40
0.889186442635989
40
0.889186442635989
40
0.907655368863324
40
0.907655368863324
40
0.926124295090659
40
0.926124295090659
40
0.935358758204327
40
0.935358758204327
40
0.944593221317995
40
0.944593221317995
40
0.96306214754533
40
0.96306214754533
40
0.981531073772664
40
0.981531073772664
40
1
40
1
40
1
40
1
41
1
10
41.7613360869878
20
-6.25462484729547
30
0
41
1
10
41.7362622526315
20
-6.26680171116183
30
0
41
1
10
41.7111933598754
20
-6.27890038025217
30
0
41
1
10
41.3404125151622
20
-6.45671901803985
30
0
41
1
10
40.9955759916604
20
-6.60758350010127
30
0
41
1
10
40.3056290820049
20
-6.8784783812257
30
0
41
1
10
39.9605196805739
20
-6.99852358196802
30
0
41
1
10
39.2680224062467
20
-7.20642050091629
30
0
41
1
10
38.9206302890084
20
-7.29429548255757
30
0
41
1
10
38.5273249635846
20
-7.37420182509712
30
0
41
1
10
38.4835762107434
20
-7.38281860820666
30
0
41
1
10
38.3961900122537
20
-7.3994857785658
30
0
41
1
10
38.2652147992428
20
-7.42365022289371
30
0
41
1
10
37.9602914776277
20
-7.47419010007448
30
0
41
1
10
37.6999576464244
20
-7.50752380398489
30
0
41
1
10
37.1802803751013
20
-7.56092471813429
30
0
41
1
10
36.8351533957141
20
-7.57882859110706
30
0
41
1
10
36.317894122935
20
-7.57931780235279
30
0
41
1
10
36.1455453823157
20
-7.57507703374577
30
0
41
1
10
35.8006179995285
20
-7.55836412535476
30
0
41
1
10
35.6280600434409
20
-7.54582422600112
30
0
41
1
10
35.2825989862301
20
-7.51197312542558
30
0
41
1
10
35.1096919684274
20
-7.49067919593747
30
0
41
1
10
34.7633032589482
20
-7.4390389835107
30
0
41
1
10
34.5898311198743
20
-7.40859805939695
30
0
41
1
10
34.3289039437367
20
-7.35664224785188
30
0
41
1
10
34.1982609528163
20
-7.32910205540361
30
0
41
1
10
34.0673236751566
20
-7.29914120369259
30
0
41
1
10
33.9799634727692
20
-7.27862034045657
30
0
41
1
10
33.9362262356018
20
-7.26808054314
30
0
41
1
10
33.7176628049558
20
-7.21407436042563
30
0
41
1
10
33.5433785974309
20
-7.16673417464332
30
0
41
1
10
33.1957515343788
20
-7.06376253010029
30
0
41
1
10
33.0224334307261
20
-7.00804607245658
30
0
41
1
10
32.676321195524
20
-6.88896941841546
30
0
41
1
10
32.503493248099
20
-6.82573396067673
30
0
41
1
10
32.1581823613606
20
-6.69163233486807
30
0
41
1
10
31.985699424629
20
-6.62076278968149
30
0
41
1
10
31.6408714990583
20
-6.47136070589585
30
0
41
1
10
31.4685424184333
20
-6.39275634445136
30
0
41
1
10
30.9512933963733
20
-6.1459553074514
30
0
41
1
10
30.6059563822488
20
-5.96760512392933
30
0
41
1
10
30.0860828141845
20
-5.67828271146468
30
0
41
1
10
29.9124760754777
20
-5.57819290832407
30
0
41
1
10
29.6513742107203
20
-5.42270198734013
30
0
41
1
10
29.5642217491292
20
-5.36999995752774
30
0
41
1
10
29.3896337866138
20
-5.26297441603225
30
0
41
1
10
29.3021233710052
20
-5.20859773076293
30
0
41
1
10
28.8655343168988
20
-4.93359041386935
30
0
41
1
10
28.5184119527241
20
-4.7028545780278
30
0
41
1
10
27.9995670658128
20
-4.34190942140529
30
0
41
1
10
27.8268814720759
20
-4.21922534719405
30
0
41
1
10
27.4817020805836
20
-3.96963809100308
30
0
41
1
10
27.3092463734456
20
-3.84263672791349
30
0
41
1
10
26.9644166696606
20
-3.58429765760471
30
0
41
1
10
26.7920368735745
20
-3.45297595143103
30
0
41
1
10
26.4471120463271
20
-3.18620337917255
30
0
41
1
10
26.2745571660733
20
-3.0507766370375
30
0
41
1
10
25.9289089109606
20
-2.77645721508529
30
0
41
1
10
25.7558344062926
20
-2.63750843402499
30
0
41
1
10
25.4089873700617
20
-2.35605694000239
30
0
41
1
10
25.2352172830003
20
-2.21353779067229
30
0
41
1
10
24.9738261034591
20
-1.99729462524399
30
0
41
1
10
24.8865724787219
20
-1.92480545862051
30
0
41
1
10
24.755479998757
20
-1.81548928526914
30
0
41
1
10
24.7117564892251
20
-1.77896117679575
30
0
41
1
10
24.6244224389489
20
-1.70587383262625
30
0
41
1
10
24.5807888700964
20
-1.66929544540477
30
0
41
1
10
24.3627759806809
20
-1.4862442925016
30
0
41
1
10
24.1888549646784
20
-1.33930128754571
30
0
41
1
10
23.6682073550077
20
-0.897380340846979
30
0
41
1
10
23.3227210228873
20
-0.601170193076314
30
0
41
1
10
22.6326274515654
20
-0.0082963512778349
30
0
41
1
10
22.2879902234494
20
0.288335537817147
30
0
41
1
10
21.7703845563648
20
0.732072112444939
30
0
41
1
10
21.5977264356752
20
0.879766024586928
30
0
41
1
10
21.2518789409634
20
1.17438376476073
30
0
41
1
10
21.0786888070334
20
1.32130686948884
30
0
41
1
10
20.731528068207
20
1.61408905072631
30
0
41
1
10
20.5575632214289
20
1.75995441305127
30
0
41
1
10
20.3394754999864
20
1.94144757115472
30
0
41
1
10
20.295825879406
20
1.97770374781129
30
0
41
1
10
20.2084574762668
20
2.05012535731555
30
0
41
1
10
20.164720858663
20
2.08630544772922
30
0
41
1
10
20.0336685929096
20
2.19447967504414
30
0
41
1
10
19.9464381834507
20
2.26616785951123
30
0
41
1
10
19.6850980757371
20
2.47990948984872
30
0
41
1
10
19.5113321688061
20
2.62064314055559
30
0
41
1
10
19.1644794715095
20
2.89836280396415
30
0
41
1
10
18.9913964639624
20
3.03534970551496
30
0
41
1
10
18.6457584392929
20
3.30527013688197
30
0
41
1
10
18.4731906181952
20
3.43820651415715
30
0
41
1
10
18.1282224416956
20
3.69984157110068
30
0
41
1
10
17.9558160227217
20
3.82854871240718
30
0
41
1
10
17.6109233759716
20
4.08150122166685
30
0
41
1
10
17.4384454702383
20
4.20573944283484
30
0
41
1
10
17.0932148516281
20
4.44941760717813
30
0
41
1
10
16.9204623824644
20
4.56885239777634
30
0
41
1
10
16.5743874939941
20
4.80268851544361
30
0
41
1
10
16.4010632848704
20
4.91709528366496
30
0
41
1
10
16.053576521534
20
5.14062806732426
30
0
41
1
10
15.8794162036566
20
5.24975740157981
30
0
41
1
10
15.6173798238674
20
5.40914375443924
30
0
41
1
10
15.5298852837306
20
5.46155433737792
30
0
41
1
10
15.3552732074712
20
5.56450922793803
30
0
41
1
10
15.2680646194377
20
5.61511567534444
30
0
41
1
10
15.0066539210736
20
5.7643544410048
30
0
41
1
10
14.8326664268214
20
5.86041013351047
30
0
41
1
10
14.4850468567902
20
6.04548201413118
30
0
41
1
10
14.3114121673349
20
6.13450882020643
30
0
41
1
10
13.964340894665
20
6.3051499199924
30
0
41
1
10
13.7909412096743
20
6.38665612778976
30
0
41
1
10
13.6174810656923
20
6.46440743360631
30
0
0
SPLINE
5
FA
100
AcDbEntity
8
1
62
256
6
ByLayer
370
18
48
1
60
0
100
AcDbSpline
70
4
71
3
72
46
73
42
40
0
40
0
40
0
40
0
40
0.0625000000000051
40
0.0625000000000051
40
0.12500000000001
40
0.12500000000001
40
0.140625000000011
40
0.140625000000011
40
0.156250000000012
40
0.156250000000012
40
0.187500000000013
40
0.187500000000013
40
0.250000000000015
40
0.250000000000015
40
0.281250000000015
40
0.296875000000016
40
0.296875000000016
40
0.312500000000016
40
0.312500000000016
40
0.37500000000001
40
0.37500000000001
40
0.437500000000005
40
0.437500000000005
40
0.468750000000003
40
0.468750000000003
40
0.484375000000001
40
0.484375000000001
40
0.5
40
0.562499999999995
40
0.562499999999995
40
0.624999999999989
40
0.624999999999989
40
0.656249999999988
40
0.656249999999988
40
0.687499999999988
40
0.687499999999988
40
0.74999999999999
40
0.74999999999999
40
0.874999999999995
40
0.874999999999995
40
1
40
1
40
1
40
1
41
1
10
3.09883862028406
20
-4.41003228875894
30
0
41
1
10
3.08053246698353
20
-4.33827042158245
30
0
41
1
10
3.06577760350248
20
-4.26517755821484
30
0
41
1
10
3.04446449706401
20
-4.11607633677292
30
0
41
1
10
3.03790157202329
20
-4.04006899766958
30
0
41
1
10
3.03572043703008
20
-3.94302944651892
30
0
41
1
10
3.03558641636013
20
-3.92351977156204
30
0
41
1
10
3.0359501717746
20
-3.88429058003783
30
0
41
1
10
3.03644964836099
20
-3.86456861675023
30
0
41
1
10
3.03891165620533
20
-3.80553356614573
30
0
41
1
10
3.04183723787563
20
-3.76620356084186
30
0
41
1
10
3.05456393925084
20
-3.6483253871283
30
0
41
1
10
3.06831061981174
20
-3.56988835422965
30
0
41
1
10
3.09728407134565
20
-3.45259333534915
30
0
41
1
10
3.11386071761882
20
-3.39403620421149
30
0
41
1
10
3.13367458637512
20
-3.33564314929362
30
0
41
1
10
3.14761586908227
20
-3.29675429589017
30
0
41
1
10
3.15496515951227
20
-3.27729830304727
30
0
41
1
10
3.19342036650426
20
-3.18050964492335
30
0
41
1
10
3.22940011651818
20
-3.10521118832582
30
0
41
1
10
3.31119519362218
20
-2.95877450716949
30
0
41
1
10
3.35701135474915
20
-2.88763642240531
30
0
41
1
10
3.43277853658057
20
-2.78400710689556
30
0
41
1
10
3.45920917018751
20
-2.74997733105312
30
0
41
1
10
3.50058482210463
20
-2.69970052527506
30
0
41
1
10
3.51465558916527
20
-2.68308284998903
30
0
41
1
10
3.54318031784882
20
-2.65031069615185
30
0
41
1
10
3.61556060925059
20
-2.56940744356046
30
0
41
1
10
3.69307098025806
20
-2.49345742248923
30
0
41
1
10
3.82286932629754
20
-2.37760619794838
30
0
41
1
10
3.89066177800959
20
-2.32251704956977
30
0
41
1
10
3.99625340853172
20
-2.24376692012905
30
0
41
1
10
4.03210245420965
20
-2.21816531939109
30
0
41
1
10
4.10504546782093
20
-2.16820952332466
30
0
41
1
10
4.14219420139699
20
-2.14382113638578
30
0
41
1
10
4.25505700621343
20
-2.07269738374635
30
0
41
1
10
4.3317204024153
20
-2.02827376442346
30
0
41
1
10
4.5654146828891
20
-1.90286607787846
30
0
41
1
10
4.72612019521503
20
-1.82968652349407
30
0
41
1
10
5.05542606142427
20
-1.70035707240137
30
0
41
1
10
5.22404305604317
20
-1.64424019823838
30
0
41
1
10
5.39606147932116
20
-1.5955554879431
30
0
0
SPLINE
5
FB
100
AcDbEntity
8
1
62
256
6
ByLayer
370
18
48
1
60
0
100
AcDbSpline
70
4
71
5
72
16
73
10
40
0
40
0
40
0
40
0
40
0
40
0
40
0.059031110274778
40
0.315126965218592
40
0.571222820162407
40
0.955366602578129
40
1
40
1
40
1
40
1
40
1
40
1
41
1
10
14.1999999267515
20
4.3325362502984
30
0
41
1
10
14.177834194209
20
4.34925905688411
30
0
41
1
10
14.0595064176276
20
4.43834797228695
30
0
41
1
10
13.8450165970072
20
4.59805716236056
30
0
41
1
10
13.4862837103283
20
4.85958976886272
30
0
41
1
10
13.1107913226826
20
5.12300333441445
30
0
41
1
10
12.7574646675795
20
5.3604925065946
30
0
41
1
10
12.5003000565154
20
5.52754671898535
30
0
41
1
10
12.3392974894902
20
5.62978965276346
30
0
41
1
10
12.3225379885235
20
5.64040710908949
30
0
0
SPLINE
5
FC
100
AcDbEntity
8
1
62
256
6
ByLayer
370
18
48
1
60
0
100
AcDbSpline
70
4
71
3
72
10
73
6
40
0
40
0
40
0
40
0
40
0.5
40
0.5
40
1
40
1
40
1
40
1
41
1
10
9.28106913533387
20
7.19684887772354
30
0
41
1
10
9.78798061235102
20
7.00432946148158
30
0
41
1
10
10.2948920893682
20
6.77602979902233
30
0
41
1
10
11.3087150434025
20
6.25463369476765
30
0
41
1
10
11.8156265204197
20
5.96154493771539
30
0
41
1
10
12.3225379974369
20
5.64040706837065
30
0
0
SPLINE
5
FD
100
AcDbEntity
8
1
62
256
6
ByLayer
370
18
48
1
60
0
100
AcDbSpline
70
4
71
3
72
19
73
15
40
0
40
0
40
0
40
0
40
0.249999999999993
40
0.249999999999993
40
0.499999999999985
40
0.499999999999985
40
0.531249999999985
40
0.531249999999985
40
0.562499999999984
40
0.562499999999984
40
0.624999999999985
40
0.74999999999999
40
0.74999999999999
40
1
40
1
40
1
40
1
41
1
10
13.0900546747539
20
-3.38685513993397
30
0
41
1
10
12.6216552360873
20
-3.00542651959421
30
0
41
1
10
12.1550470890604
20
-2.61114215683636
30
0
41
1
10
11.2201338226131
20
-1.80253181700937
30
0
41
1
10
10.7518443746035
20
-1.38818974295933
30
0
41
1
10
10.2210273557767
20
-0.913796375648815
30
0
41
1
10
10.1619919718255
20
-0.860971305404661
30
0
41
1
10
10.0437986063309
20
-0.755102393478438
30
0
41
1
10
9.98468871092356
20
-0.702101593266633
30
0
41
1
10
9.80753429943331
20
-0.543125308194107
30
0
41
1
10
9.45364506440893
20
-0.225025120156971
30
0
41
1
10
9.10062622200391
20
0.0930893794263454
30
0
41
1
10
8.39473265504918
20
0.728210034677858
30
0
41
1
10
7.9243370690574
20
1.15015703982462
30
0
41
1
10
7.4514171882328
20
1.56758935371235
30
0
0
SPLINE
5
FE
100
AcDbEntity
8
1
62
256
6
ByLayer
370
18
48
1
60
0
100
AcDbSpline
70
4
71
3
72
77
73
73
40
0
40
0
40
0
40
0
40
0.0624999999999995
40
0.0624999999999995
40
0.0937499999999999
40
0.0937499999999999
40
0.109375000000001
40
0.109375000000001
40
0.125000000000002
40
0.187500000000005
40
0.187500000000005
40
0.250000000000009
40
0.250000000000009
40
0.312500000000012
40
0.312500000000012
40
0.343750000000013
40
0.343750000000013
40
0.359375000000014
40
0.359375000000014
40
0.375000000000014
40
0.375000000000014
40
0.437500000000015
40
0.437500000000015
40
0.468750000000016
40
0.468750000000016
40
0.500000000000018
40
0.500000000000018
40
0.531250000000019
40
0.531250000000019
40
0.56250000000002
40
0.56250000000002
40
0.593750000000021
40
0.593750000000021
40
0.609375000000021
40
0.609375000000021
40
0.617187500000021
40
0.617187500000021
40
0.625000000000021
40
0.625000000000021
40
0.65625000000002
40
0.65625000000002
40
0.687500000000019
40
0.687500000000019
40
0.695312500000019
40
0.695312500000019
40
0.703125000000018
40
0.718750000000018
40
0.718750000000018
40
0.750000000000017
40
0.750000000000017
40
0.757812500000017
40
0.757812500000017
40
0.765625000000017
40
0.781250000000016
40
0.781250000000016
40
0.812500000000013
40
0.812500000000013
40
0.843750000000011
40
0.843750000000011
40
0.875000000000009
40
0.875000000000009
40
0.890625000000008
40
0.890625000000008
40
0.898437500000007
40
0.898437500000007
40
0.906250000000006
40
0.906250000000006
40
0.937500000000004
40
0.937500000000004
40
0.968750000000002
40
0.968750000000002
40
1
40
1
40
1
40
1
41
1
10
7.45115294185615
20
1.56736539780039
30
0
41
1
10
7.27464372175893
20
1.72362978093346
30
0
41
1
10
7.09936263273883
20
1.88103050953691
30
0
41
1
10
6.83809013751565
20
2.11855077053366
30
0
41
1
10
6.75127528636716
20
2.19796205579135
30
0
41
1
10
6.62145424468534
20
2.31741346431514
30
0
41
1
10
6.57822417732868
20
2.35730811709266
30
0
41
1
10
6.49206064236861
20
2.43705490034611
30
0
41
1
10
6.2773519943718
20
2.63635750957158
30
0
41
1
10
6.06610908194236
20
2.83526840769369
30
0
41
1
10
5.73272410452191
20
3.15289656086827
30
0
41
1
10
5.56832998684001
20
3.31139495250864
30
0
41
1
10
5.2446640828467
20
3.627846070598
30
0
41
1
10
5.08538571633875
20
3.78579631211269
30
0
41
1
10
4.8510717126683
20
4.02257082644681
30
0
41
1
10
4.77373874428716
20
4.10147276748967
30
0
41
1
10
4.65904450562164
20
4.21984896453142
30
0
41
1
10
4.6210464622522
20
4.25929628891103
30
0
41
1
10
4.54573234739203
20
4.33798352472198
30
0
41
1
10
4.50839052767728
20
4.37724992819872
30
0
41
1
10
4.32334294766909
20
4.57321396977946
30
0
41
1
10
4.18056074610436
20
4.72879432357018
30
0
41
1
10
3.97656383879652
20
4.96087033893269
30
0
41
1
10
3.91027231071803
20
5.03801573867796
30
0
41
1
10
3.78167883674726
20
5.19200401738348
30
0
41
1
10
3.71937427780452
20
5.26884629477937
30
0
41
1
10
3.59952634226468
20
5.42239579404713
30
0
41
1
10
3.54197841663302
20
5.49910193708487
30
0
41
1
10
3.43271853238784
20
5.65261489983325
30
0
41
1
10
3.38153306364708
20
5.7286860281001
30
0
41
1
10
3.28733579139725
20
5.87954265715575
30
0
41
1
10
3.2443156078896
20
5.95432873214503
30
0
41
1
10
3.18723882995752
20
6.06563891408427
30
0
41
1
10
3.16946000985754
20
6.10259779874517
30
0
41
1
10
3.14488158909214
20
6.15783505993087
30
0
41
1
10
3.137037514778
20
6.17621400230638
30
0
41
1
10
3.1220893530427
20
6.21290801196608
30
0
41
1
10
3.11499759917047
20
6.23119520933597
30
0
41
1
10
3.08166412839969
20
6.32199368703704
30
0
41
1
10
3.06163850359545
20
6.39291397640827
30
0
41
1
10
3.03717470774794
20
6.5313099867692
30
0
41
1
10
3.0327218707431
20
6.59878558441821
30
0
41
1
10
3.03889928080054
20
6.68096268384485
30
0
41
1
10
3.04073180478181
20
6.69732509612385
30
0
41
1
10
3.04559488545519
20
6.72957010747666
30
0
41
1
10
3.05468235841448
20
6.77727127824591
30
0
41
1
10
3.06920733590914
20
6.82300423464113
30
0
41
1
10
3.10569473453685
20
6.91192302090982
30
0
41
1
10
3.13992179487477
20
6.96780753477583
30
0
41
1
10
3.19589863506027
20
7.03365258497362
30
0
41
1
10
3.20774825662622
20
7.04660733355794
30
0
41
1
10
3.23252305876574
20
7.07187219716138
30
0
41
1
10
3.27138051045642
20
7.10890129229961
30
0
41
1
10
3.31519483605587
20
7.1434507010587
30
0
41
1
10
3.4091410388512
20
7.2095369461714
30
0
41
1
10
3.4802121801458
20
7.24960182203102
30
0
41
1
10
3.63787864527117
20
7.32294661610666
30
0
41
1
10
3.72253607256511
20
7.35536369594891
30
0
41
1
10
3.90152758628068
20
7.4137532406221
30
0
41
1
10
3.99587269103577
20
7.43971414412013
30
0
41
1
10
4.14368041153045
20
7.47485635618162
30
0
41
1
10
4.19400210082924
20
7.48593315103096
30
0
41
1
10
4.27097120576698
20
7.50169344196294
30
0
41
1
10
4.29688701853399
20
7.50680586801769
30
0
41
1
10
4.34892490789267
20
7.51670981582737
30
0
41
1
10
4.37508057512261
20
7.52150844613493
30
0
41
1
10
4.5065106621295
20
7.54478785886047
30
0
41
1
10
4.61373016909647
20
7.56114440441914
30
0
41
1
10
4.83168705959935
20
7.59037398214522
30
0
41
1
10
4.94242759737244
20
7.60324167715814
30
0
41
1
10
5.16699977093739
20
7.62620093289226
30
0
41
1
10
5.28083314935992
20
7.63628958108384
30
0
41
1
10
5.39606147932122
20
7.64524026101739
30
0
0
SPLINE
5
FF
100
AcDbEntity
8
1
62
256
6
ByLayer
370
18
48
1
60
0
100
AcDbSpline
70
4
71
3
72
11
73
7
40
0
40
0
40
0
40
0
40
0.220707265757383
40
0.491455508137296
40
0.762203750517208
40
1
40
1
40
1
40
1
41
1
10
11.5580534503695
20
-4.60995572409666
30
0
41
1
10
11.2313652531059
20
-4.76988560962275
30
0
41
1
10
10.4944089008619
20
-5.18756969469737
30
0
41
1
10
9.42880254405847
20
-6.05231589219861
30
0
41
1
10
8.41058945548841
20
-7.06747703249451
30
0
41
1
10
7.75961781155161
20
-7.65031728377554
30
0
41
1
10
7.45138279216602
20
-7.87158730582445
30
0
0
SPLINE
5
100
100
AcDbEntity
8
1
62
256
6
ByLayer
370
18
48
1
60
0
100
AcDbSpline
70
4
71
3
72
53
73
49
40
0
40
0
40
0
40
0
40
0.124999999999999
40
0.124999999999999
40
0.15625
40
0.15625
40
0.187500000000001
40
0.187500000000001
40
0.250000000000001
40
0.250000000000001
40
0.375000000000003
40
0.375000000000003
40
0.437500000000003
40
0.437500000000003
40
0.468750000000004
40
0.468750000000004
40
0.500000000000004
40
0.500000000000004
40
0.562500000000005
40
0.562500000000005
40
0.625000000000005
40
0.625000000000005
40
0.687500000000006
40
0.687500000000006
40
0.718750000000005
40
0.718750000000005
40
0.734375000000005
40
0.734375000000005
40
0.750000000000005
40
0.750000000000005
40
0.812500000000003
40
0.812500000000003
40
0.843750000000002
40
0.843750000000002
40
0.859375000000002
40
0.859375000000002
40
0.875000000000001
40
0.875000000000001
40
0.906250000000001
40
0.906250000000001
40
0.937500000000001
40
0.937500000000001
40
0.968750000000001
40
0.968750000000001
40
0.976562500000001
40
0.976562500000001
40
0.984375000000001
40
1
40
1
40
1
40
1
41
1
10
7.45115293962405
20
-7.87159199613029
30
0
41
1
10
7.1953676027081
20
-7.84188604220944
30
0
41
1
10
6.94228184529482
20
-7.80164145716134
30
0
41
1
10
6.62887775249337
20
-7.73668495114654
30
0
41
1
10
6.5663463558673
20
-7.72295958542443
30
0
41
1
10
6.44157952438988
20
-7.6939961367336
30
0
41
1
10
6.37929316013586
20
-7.67874440793125
30
0
41
1
10
6.19336995675008
20
-7.63077623977699
30
0
41
1
10
6.07062846274223
20
-7.59584657312016
30
0
41
1
10
5.70612748267894
20
-7.48183177916351
30
0
41
1
10
5.46802922898544
20
-7.39358342697872
30
0
41
1
10
5.11957773995076
20
-7.24051429680449
30
0
41
1
10
5.00489032916394
20
-7.1860286755614
30
0
41
1
10
4.83538883912789
20
-7.09863708897566
30
0
41
1
10
4.77931134123943
20
-7.06856115622949
30
0
41
1
10
4.66807815824663
20
-7.00641758968459
30
0
41
1
10
4.61287257070074
20
-6.97431807161777
30
0
41
1
10
4.4494108971781
20
-6.87524633699908
30
0
41
1
10
4.34315317782588
20
-6.80543844134669
30
0
41
1
10
4.13704523343364
20
-6.65753899800086
30
0
41
1
10
4.03718837066069
20
-6.57945269046715
30
0
41
1
10
3.84530265503548
20
-6.41388422624453
30
0
41
1
10
3.75326085222167
20
-6.32641204695361
30
0
41
1
10
3.62268299098011
20
-6.18689468499085
30
0
41
1
10
3.58041130078826
20
-6.13899875578917
30
0
41
1
10
3.5191733298015
20
-6.06484498031239
30
0
41
1
10
3.49912297465895
20
-6.03974152889381
30
0
41
1
10
3.45980493656012
20
-5.98871841333877
30
0
41
1
10
3.44052456383642
20
-5.96278103020154
30
0
41
1
10
3.34638313136358
20
-5.83111833123672
30
0
41
1
10
3.27894694585888
20
-5.72053685062562
30
0
41
1
10
3.19316914495045
20
-5.54529574852094
30
0
41
1
10
3.16715490660778
20
-5.48531388711226
30
0
41
1
10
3.1326498216645
20
-5.39271684033707
30
0
41
1
10
3.12190259333914
20
-5.36141305106031
30
0
41
1
10
3.1020507932266
20
-5.2978733343659
30
0
41
1
10
3.09299510064929
20
-5.26578590241363
30
0
41
1
10
3.06865945636847
20
-5.16884440087094
30
0
41
1
10
3.05616747393483
20
-5.10319188126422
30
0
41
1
10
3.03947267096402
20
-4.96978202947162
30
0
41
1
10
3.03526762801769
20
-4.90202483862717
30
0
41
1
10
3.03617791265262
20
-4.76433225545816
30
0
41
1
10
3.04128975471542
20
-4.69439708348722
30
0
41
1
10
3.0543316806189
20
-4.60555603009951
30
0
41
1
10
3.05727956994397
20
-4.58768491652282
30
0
41
1
10
3.06383695923282
20
-4.55195738782467
30
0
41
1
10
3.07464639341487
20
-4.49847095307325
30
0
41
1
10
3.08837904943701
20
-4.44531275059782
30
0
41
1
10
3.09883862028724
20
-4.41003228876613
30
0
0
SPLINE
5
101
100
AcDbEntity
8
1
62
256
6
ByLayer
370
18
48
1
60
0
100
AcDbSpline
70
4
71
3
72
15
73
11
40
0
40
0
40
0
40
0
40
0.163895986869698
40
0.275852983219536
40
0.349209835512809
40
0.425565563724759
40
0.509180120898258
40
0.627126413347562
40
0.790734091058802
40
1
40
1
40
1
40
1
41
1
10
20.9907696974564
20
-7.87741444347759
30
0
41
1
10
21.1710067182794
20
-7.85746098087978
30
0
41
1
10
21.4744589809788
20
-7.82400365800166
30
0
41
1
10
21.8589734499593
20
-7.78181584214258
30
0
41
1
10
22.1469991962162
20
-7.75046617925008
30
0
41
1
10
22.4039858447533
20
-7.72256070972065
30
0
41
1
10
22.7099823403634
20
-7.68956031811163
30
0
41
1
10
23.1120063520857
20
-7.64669176451358
30
0
41
1
10
23.6523684656841
20
-7.5901150995756
30
0
41
1
10
24.0628830916235
20
-7.54810792029076
30
0
41
1
10
24.2932754611441
20
-7.5248463991758
30
0
0
SPLINE
5
102
100
AcDbEntity
8
1
62
256
6
ByLayer
370
18
48
1
60
0
100
AcDbSpline
70
4
71
3
72
16
73
12
40
0
40
0
40
0
40
0
40
0.146784755574888
40
0.259887263178863
40
0.339314672447804
40
0.41196725906062
40
0.477877524468785
40
0.542483757608626
40
0.643079684986652
40
0.79554979527013
40
1
40
1
40
1
40
1
41
1
10
24.2932754611441
20
7.5248463991756
30
0
41
1
10
24.1315116185308
20
7.54117598628744
30
0
41
1
10
23.8451447498949
20
7.5703544285283
30
0
41
1
10
23.4714133864772
20
7.60904843069218
30
0
41
1
10
23.1793088752289
20
7.63966886935813
30
0
41
1
10
22.9401024588437
20
7.66502875525222
30
0
41
1
10
22.7166824196944
20
7.68888160606977
30
0
41
1
10
22.4622524190698
20
7.71625203544033
30
0
41
1
10
22.1125496554128
20
7.75417405752984
30
0
41
1
10
21.608850223423
20
7.80918763969427
30
0
41
1
10
21.2158802542088
20
7.85248369719088
30
0
41
1
10
20.9907696974564
20
7.87741444347742
30
0
0
SPLINE
5
103
100
AcDbEntity
8
1
62
256
6
ByLayer
370
18
48
1
60
0
100
AcDbSpline
70
4
71
3
72
14
73
10
40
0
40
0
40
0
40
0
40
0.1546459634963
40
0.274098220992732
40
0.380369211338155
40
0.470063234920995
40
0.585008776889684
40
0.761226715492277
40
1
40
1
40
1
40
1
41
1
10
34.2228527044242
20
-7.87738070482945
30
0
41
1
10
34.391671442044
20
-7.85861506894656
30
0
41
1
10
34.6915404025152
20
-7.82546278010406
30
0
41
1
10
35.1116311867652
20
-7.77949937852074
30
0
41
1
10
35.4573833024245
20
-7.74191797500799
30
0
41
1
10
35.8002812314551
20
-7.70468862419179
30
0
41
1
10
36.2195478120543
20
-7.65972673831987
30
0
41
1
10
36.8032550605106
20
-7.59870121856014
30
0
41
1
10
37.2602636729141
20
-7.55208604265658
30
0
41
1
10
37.5232275610441
20
-7.5257069663929
30
0
0
SPLINE
5
104
100
AcDbEntity
8
1
62
256
6
ByLayer
370
18
48
1
60
0
100
AcDbSpline
70
4
71
3
72
17
73
13
40
0
40
0
40
0
40
0
40
0.159917650599138
40
0.284585140934454
40
0.374053138613702
40
0.430412602886359
40
0.477121942503228
40
0.520880132976117
40
0.586559505421337
40
0.685138547897459
40
0.822835142815623
40
1
40
1
40
1
40
1
41
1
10
37.523227561044
20
7.52570696639262
30
0
41
1
10
37.3468135978072
20
7.54339423630407
30
0
41
1
10
37.0329139297245
20
7.57520224431636
30
0
41
1
10
36.620535223799
20
7.61779419628076
30
0
41
1
10
36.3222457435954
20
7.64900845051665
30
0
41
1
10
36.1108725891628
20
7.67142795394525
30
0
41
1
10
35.95033975815
20
7.68860601301887
30
0
41
1
10
35.7798893855575
20
7.70693939075395
30
0
41
1
10
35.55318748829
20
7.7313595088591
30
0
41
1
10
35.2197525838629
20
7.76764044006134
30
0
41
1
10
34.7643244959987
20
7.81757707919058
30
0
41
1
10
34.4177190008954
20
7.85580316465732
30
0
41
1
10
34.2228527044242
20
7.87738070482916
30
0
0
SPLINE
5
105
100
AcDbEntity
8
1
62
256
6
ByLayer
370
18
48
1
60
0
100
AcDbSpline
70
4
71
3
72
8
73
4
40
0
40
0
40
0
40
0
40
1
40
1
40
1
40
1
41
1
10
16.8709119304501
20
4.60590784976503
30
0
41
1
10
16.9403584661809
20
4.60162324175701
30
0
41
1
10
17.0098249012215
20
4.5965659296603
30
0
41
1
10
17.0793102481083
20
4.59073737133619
30
0
0
SPLINE
5
106
100
AcDbEntity
8
1
62
256
6
ByLayer
370
18
48
1
60
0
100
AcDbSpline
70
4
71
1
72
4
73
2
40
0
40
0
40
1
40
1
41
1
10
31.5204858316987
20
1.98960008389955
30
0
41
1
10
31.4131862043659
20
2.08189550212273
30
0
0
LINE
5
77
100
AcDbEntity
8
80
62
256
6
ByLayer
370
18
48
1
60
0
100
AcDbLine
10
0
20
0
30
0
11
-5
21
0
31
0
39
0
210
0
220
0
230
1
0
LINE
5
78
100
AcDbEntity
8
4
62
256
6
ByLayer
370
18
48
0.05
60
0
100
AcDbLine
10
0
20
0
30
0
11
47.6
21
0
31
0
39
0
210
0
220
0
230
1
0
LINE
5
7A
100
AcDbEntity
8
81
62
256
6
ByLayer
370
18
48
1
60
0
100
AcDbLine
10
47.6
20
0
30
0
11
52.6
21
0
31
0
39
0
210
0
220
0
230
1
0
LINE
5
7B
100
AcDbEntity
8
SK4
62
256
6
ByLayer
370
18
48
0.05
60
0
100
AcDbLine
10
-48.4
20
0
30
0
11
47.6
21
0
31
0
39
0
210
0
220
0
230
1
0
LINE
5
7D
100
AcDbEntity
8
1
62
256
6
ByLayer
370
18
48
1
60
0
100
AcDbLine
10
0
20
7.9375
30
0
11
0
21
0
31
0
39
0
210
0
220
0
230
1
0
LINE
5
7E
100
AcDbEntity
8
1
62
256
6
ByLayer
370
18
48
1
60
0
100
AcDbLine
10
0
20
0
30
0
11
0
21
-7.9375
31
0
39
0
210
0
220
0
230
1
0
LINE
5
7F
100
AcDbEntity
8
1
62
256
6
ByLayer
370
18
48
1
60
0
100
AcDbLine
10
47.404039
20
-1.220473
30
0
11
47.311706
21
-1.53565
31
0
39
0
210
0
220
0
230
1
0
LINE
5
80
100
AcDbEntity
8
1
62
256
6
ByLayer
370
18
48
1
60
0
100
AcDbLine
10
47.534197
20
0.208237
30
0
11
47.587891
21
0.209329
31
0
39
0
210
0
220
0
230
1
0
LINE
5
81
100
AcDbEntity
8
1
62
256
6
ByLayer
370
18
48
1
60
0
100
AcDbLine
10
47.587891
20
0.209329
30
0
11
47.560974
21
-3E-06
31
0
39
0
210
0
220
0
230
1
0
LINE
5
82
100
AcDbEntity
8
1
62
256
6
ByLayer
370
18
48
1
60
0
100
AcDbLine
10
47.534198
20
-0.20824
30
0
11
47.404039
21
-1.220473
31
0
39
0
210
0
220
0
230
1
0
LINE
5
83
100
AcDbEntity
8
1
62
256
6
ByLayer
370
18
48
1
60
0
100
AcDbLine
10
47.404039
20
-1.220473
30
0
11
47.238411
21
-1.192508
31
0
39
0
210
0
220
0
230
1
0
LINE
5
84
100
AcDbEntity
8
1
62
256
6
ByLayer
370
18
48
1
60
0
100
AcDbLine
10
47.237889
20
-1.182754
30
0
11
47.328539
21
-0.198401
31
0
39
0
210
0
220
0
230
1
0
LINE
5
85
100
AcDbEntity
8
1
62
256
6
ByLayer
370
18
48
1
60
0
100
AcDbLine
10
47.372332
20
7.905721
30
0
11
47.587891
21
7.693968
31
0
39
0
210
0
220
0
230
1
0
LINE
5
86
100
AcDbEntity
8
1
62
256
6
ByLayer
370
18
48
1
60
0
100
AcDbLine
10
47.264843
20
1.684238
30
0
11
47.587891
21
7.693968
31
0
39
0
210
0
220
0
230
1
0
LINE
5
87
100
AcDbEntity
8
1
62
256
6
ByLayer
370
13
48
1
60
0
100
AcDbLine
10
46.955476
20
-0.134007
30
0
11
47.152131
21
-0.476489
31
0
39
0
210
0
220
0
230
1
0
LINE
5
88
100
AcDbEntity
8
1
62
256
6
ByLayer
370
18
48
1
60
0
100
AcDbLine
10
47.183635
20
-0.1735
30
0
11
47.587891
21
-7.693968
31
0
39
0
210
0
220
0
230
1
0
LINE
5
89
100
AcDbEntity
8
1
62
256
6
ByLayer
370
18
48
1
60
0
100
AcDbLine
10
47.152131
20
-0.476489
30
0
11
47.136118
21
-0.165193
31
0
39
0
210
0
220
0
230
1
0
LINE
5
8A
100
AcDbEntity
8
1
62
256
6
ByLayer
370
18
48
1
60
0
100
AcDbLine
10
47.372332
20
-7.905721
30
0
11
47.587891
21
-7.693968
31
0
39
0
210
0
220
0
230
1
0
LINE
5
8B
100
AcDbEntity
8
1
62
256
6
ByLayer
370
18
48
1
60
0
100
AcDbLine
10
47.587891
20
-7.693968
30
0
11
47.404039
21
-7.431545
31
0
39
0
210
0
220
0
230
1
0
LINE
5
8C
100
AcDbEntity
8
1
62
256
6
ByLayer
370
18
48
1
60
0
100
AcDbLine
10
47.404039
20
-7.431545
30
0
11
47.311706
21
-7.427785
31
0
39
0
210
0
220
0
230
1
0
LINE
5
8D
100
AcDbEntity
8
1
62
256
6
ByLayer
370
18
48
1
60
0
100
AcDbLine
10
47.404039
20
-7.431545
30
0
11
47.14142
21
-2.43598
31
0
39
0
210
0
220
0
230
1
0
LINE
5
8E
100
AcDbEntity
8
1
62
256
6
ByLayer
370
18
48
1
60
0
100
AcDbLine
10
46.592897
20
-4.350482
30
0
11
47.14142
21
-2.43598
31
0
39
0
210
0
220
0
230
1
0
LINE
5
8F
100
AcDbEntity
8
1
62
256
6
ByLayer
370
18
48
1
60
0
100
AcDbLine
10
47.14142
20
-2.43598
30
0
11
47.142273
21
-2.419624
31
0
39
0
210
0
220
0
230
1
0
LINE
5
90
100
AcDbEntity
8
1
62
256
6
ByLayer
370
13
48
1
60
0
100
AcDbLine
10
46.627248
20
-1.517985
30
0
11
43.058239
21
-0.824416
31
0
39
0
210
0
220
0
230
1
0
LINE
5
91
100
AcDbEntity
8
1
62
256
6
ByLayer
370
18
48
1
60
0
100
AcDbLine
10
47.587891
20
-0.209329
30
0
11
47.404039
21
1.220473
31
0
39
0
210
0
220
0
230
1
0
LINE
5
92
100
AcDbEntity
8
1
62
256
6
ByLayer
370
18
48
1
60
0
100
AcDbLine
10
47.404039
20
1.220473
30
0
11
47.311706
21
1.53565
31
0
39
0
210
0
220
0
230
1
0
LINE
5
93
100
AcDbEntity
8
1
62
256
6
ByLayer
370
18
48
1
60
0
100
AcDbLine
10
47.372332
20
-0.167471
30
0
11
47.587891
21
-0.209329
31
0
39
0
210
0
220
0
230
1
0
LINE
5
94
100
AcDbEntity
8
1
62
256
6
ByLayer
370
18
48
1
60
0
100
AcDbLine
10
44.240735
20
0.385276
30
0
11
46.574812
21
-0.068308
31
0
39
0
210
0
220
0
230
1
0
LINE
5
95
100
AcDbEntity
8
1
62
256
6
ByLayer
370
18
48
1
60
0
100
AcDbLine
10
47.365672
20
-0.20481
30
0
11
46.574812
21
-0.068308
31
0
39
0
210
0
220
0
230
1
0
LINE
5
96
100
AcDbEntity
8
1
62
256
6
ByLayer
370
18
48
1
60
0
100
AcDbLine
10
47.365672
20
-0.20481
30
0
11
47.587891
21
-0.209329
31
0
39
0
210
0
220
0
230
1
0
LINE
5
97
100
AcDbEntity
8
SK1
62
256
6
ByLayer
370
18
48
1
60
0
100
AcDbLine
10
-48.4
20
-7.1375
30
0
11
-48.4
21
7.1375
31
0
39
0
210
0
220
0
230
1
0
LINE
5
99
100
AcDbEntity
8
SK1
62
256
6
ByLayer
370
18
48
1
60
0
100
AcDbLine
10
0
20
7.9375
30
0
11
0
21
0
31
0
39
0
210
0
220
0
230
1
0
LINE
5
9A
100
AcDbEntity
8
SK1
62
256
6
ByLayer
370
18
48
1
60
0
100
AcDbLine
10
0
20
0
30
0
11
0
21
-7.9375
31
0
39
0
210
0
220
0
230
1
0
LINE
5
9B
100
AcDbEntity
8
SK1
62
256
6
ByLayer
370
18
48
1
60
0
100
AcDbLine
10
-47.6
20
7.9375
30
0
11
-47.6
21
-7.9375
31
0
39
0
210
0
220
0
230
1
0
LINE
5
9C
100
AcDbEntity
8
SK1
62
256
6
ByLayer
370
18
48
1
60
0
100
AcDbLine
10
-29.28
20
6.2865
30
0
11
-30.931
21
7.9375
31
0
39
0
210
0
220
0
230
1
0
LINE
5
9D
100
AcDbEntity
8
SK1
62
256
6
ByLayer
370
18
48
1
60
0
100
AcDbLine
10
-19.12
20
6.2865
30
0
11
-17.469
21
7.9375
31
0
39
0
210
0
220
0
230
1
0
LINE
5
9E
100
AcDbEntity
8
SK1
62
256
6
ByLayer
370
18
48
1
60
0
100
AcDbLine
10
-29.28
20
6.2865
30
0
11
-19.12
21
6.2865
31
0
39
0
210
0
220
0
230
1
0
LINE
5
9F
100
AcDbEntity
8
1
62
256
6
ByLayer
370
18
48
1
60
0
100
AcDbLine
10
8.588697
20
7.9375
30
0
11
0
21
7.9375
31
0
39
0
210
0
220
0
230
1
0
LINE
5
A0
100
AcDbEntity
8
1
62
256
6
ByLayer
370
18
48
1
60
0
100
AcDbLine
10
0
20
-7.9375
30
0
11
8.588697
21
-7.9375
31
0
39
0
210
0
220
0
230
1
0
LINE
5
A1
100
AcDbEntity
8
SK1
62
256
6
ByLayer
370
18
48
1
60
0
100
AcDbLine
10
-48.4
20
-7.1375
30
0
11
-47.6
21
-7.9375
31
0
39
0
210
0
220
0
230
1
0
LINE
5
A2
100
AcDbEntity
8
SK1
62
256
6
ByLayer
370
18
48
1
60
0
100
AcDbLine
10
-47.6
20
7.9375
30
0
11
-48.4
21
7.1375
31
0
39
0
210
0
220
0
230
1
0
LINE
5
A3
100
AcDbEntity
8
SK1
62
256
6
ByLayer
370
18
48
1
60
0
100
AcDbLine
10
0
20
7.9375
30
0
11
-17.469
21
7.9375
31
0
39
0
210
0
220
0
230
1
0
LINE
5
A4
100
AcDbEntity
8
SK1
62
256
6
ByLayer
370
18
48
1
60
0
100
AcDbLine
10
-30.931
20
7.9375
30
0
11
-47.6
21
7.9375
31
0
39
0
210
0
220
0
230
1
0
LINE
5
A5
100
AcDbEntity
8
SK1
62
256
6
ByLayer
370
18
48
1
60
0
100
AcDbLine
10
-47.6
20
-7.9375
30
0
11
0
21
-7.9375
31
0
39
0
210
0
220
0
230
1
0
LINE
5
A6
100
AcDbEntity
8
SK2
62
256
6
ByLayer
370
18
48
1
60
0
100
AcDbLine
10
-55.85
20
7.9375
30
0
11
-55.85
21
-32.642498
31
0
39
0
210
0
220
0
230
1
0
LINE
5
A8
100
AcDbEntity
8
SK2
62
256
6
ByLayer
370
18
48
1
60
0
100
AcDbLine
10
-49.1875
20
7.9375
30
0
11
-57.85
21
7.9375
31
0
39
0
210
0
220
0
230
1
0
LINE
5
A9
100
AcDbEntity
8
SK2
62
256
6
ByLayer
370
18
48
1
60
0
100
AcDbLine
10
-49.1875
20
-7.9375
30
0
11
-57.85
21
-7.9375
31
0
39
0
210
0
220
0
230
1
0
LINE
5
AA
100
AcDbEntity
8
1
62
256
6
ByLayer
370
18
48
1
60
1
100
AcDbLine
10
-55.85
20
7.9375
30
0
11
-55.389216
21
4.437502
31
0
39
0
210
0
220
0
230
1
0
LINE
5
AB
100
AcDbEntity
8
1
62
256
6
ByLayer
370
18
48
1
60
1
100
AcDbLine
10
-55.389216
20
4.437502
30
0
11
-56.310784
21
4.437498
31
0
39
0
210
0
220
0
230
1
0
LINE
5
AC
100
AcDbEntity
8
1
62
256
6
ByLayer
370
18
48
1
60
1
100
AcDbLine
10
-56.310784
20
4.437498
30
0
11
-55.85
21
7.9375
31
0
39
0
210
0
220
0
230
1
0
LINE
5
AD
100
AcDbEntity
8
1
62
256
6
ByLayer
370
18
48
1
60
1
100
AcDbLine
10
-55.85
20
-7.9375
30
0
11
-56.310784
21
-4.437502
31
0
39
0
210
0
220
0
230
1
0
LINE
5
AE
100
AcDbEntity
8
1
62
256
6
ByLayer
370
18
48
1
60
1
100
AcDbLine
10
-56.310784
20
-4.437502
30
0
11
-55.389216
21
-4.437498
31
0
39
0
210
0
220
0
230
1
0
LINE
5
AF
100
AcDbEntity
8
1
62
256
6
ByLayer
370
18
48
1
60
1
100
AcDbLine
10
-55.389216
20
-4.437498
30
0
11
-55.85
21
-7.9375
31
0
39
0
210
0
220
0
230
1
0
LINE
5
B0
100
AcDbEntity
8
2
62
256
6
ByLayer
370
18
48
1
60
0
100
AcDbLine
10
59.6
20
-7.9376
30
0
11
59.6
21
32.642598
31
0
39
0
210
0
220
0
230
1
0
LINE
5
B2
100
AcDbEntity
8
2
62
256
6
ByLayer
370
18
48
1
60
0
100
AcDbLine
10
49.1875
20
7.9376
30
0
11
61.6
21
7.9376
31
0
39
0
210
0
220
0
230
1
0
LINE
5
B3
100
AcDbEntity
8
2
62
256
6
ByLayer
370
18
48
1
60
0
100
AcDbLine
10
49.1875
20
-7.9376
30
0
11
61.6
21
-7.9376
31
0
39
0
210
0
220
0
230
1
0
LINE
5
B4
100
AcDbEntity
8
1
62
256
6
ByLayer
370
18
48
1
60
1
100
AcDbLine
10
59.6
20
7.9376
30
0
11
60.060784
21
4.437602
31
0
39
0
210
0
220
0
230
1
0
LINE
5
B5
100
AcDbEntity
8
1
62
256
6
ByLayer
370
18
48
1
60
1
100
AcDbLine
10
60.060784
20
4.437602
30
0
11
59.139216
21
4.437598
31
0
39
0
210
0
220
0
230
1
0
LINE
5
B6
100
AcDbEntity
8
1
62
256
6
ByLayer
370
18
48
1
60
1
100
AcDbLine
10
59.139216
20
4.437598
30
0
11
59.6
21
7.9376
31
0
39
0
210
0
220
0
230
1
0
LINE
5
B7
100
AcDbEntity
8
1
62
256
6
ByLayer
370
18
48
1
60
1
100
AcDbLine
10
59.6
20
-7.9376
30
0
11
59.139216
21
-4.437602
31
0
39
0
210
0
220
0
230
1
0
LINE
5
B8
100
AcDbEntity
8
1
62
256
6
ByLayer
370
18
48
1
60
1
100
AcDbLine
10
59.139216
20
-4.437602
30
0
11
60.060784
21
-4.437598
31
0
39
0
210
0
220
0
230
1
0
LINE
5
B9
100
AcDbEntity
8
1
62
256
6
ByLayer
370
18
48
1
60
1
100
AcDbLine
10
60.060784
20
-4.437598
30
0
11
59.6
21
-7.9376
31
0
39
0
210
0
220
0
230
1
0
LINE
5
BA
100
AcDbEntity
8
SK2
62
256
6
ByLayer
370
18
48
1
60
0
100
AcDbLine
10
47.6
20
-38.580246
30
0
11
-48.4
21
-38.580246
31
0
39
0
210
0
220
0
230
1
0
LINE
5
BB
100
AcDbEntity
8
SK2
62
256
6
ByLayer
370
18
48
1
60
0
100
AcDbLine
10
-48.4
20
-8.725
30
0
11
-48.4
21
-40.580246
31
0
39
0
210
0
220
0
230
1
0
LINE
5
BC
100
AcDbEntity
8
SK2
62
256
6
ByLayer
370
18
48
1
60
0
100
AcDbLine
10
47.6
20
-9.5251
30
0
11
47.6
21
-40.580246
31
0
39
0
210
0
220
0
230
1
0
LINE
5
BD
100
AcDbEntity
8
1
62
256
6
ByLayer
370
18
48
1
60
1
100
AcDbLine
10
-48.4
20
-38.580246
30
0
11
-44.900002
21
-38.119462
31
0
39
0
210
0
220
0
230
1
0
LINE
5
BE
100
AcDbEntity
8
1
62
256
6
ByLayer
370
18
48
1
60
1
100
AcDbLine
10
-44.900002
20
-38.119462
30
0
11
-44.899998
21
-39.04103
31
0
39
0
210
0
220
0
230
1
0
LINE
5
BF
100
AcDbEntity
8
1
62
256
6
ByLayer
370
18
48
1
60
1
100
AcDbLine
10
-44.899998
20
-39.04103
30
0
11
-48.4
21
-38.580246
31
0
39
0
210
0
220
0
230
1
0
LINE
5
C0
100
AcDbEntity
8
1
62
256
6
ByLayer
370
18
48
1
60
1
100
AcDbLine
10
47.6
20
-38.580246
30
0
11
44.100002
21
-39.04103
31
0
39
0
210
0
220
0
230
1
0
LINE
5
C1
100
AcDbEntity
8
1
62
256
6
ByLayer
370
18
48
1
60
1
100
AcDbLine
10
44.100002
20
-39.04103
30
0
11
44.099998
21
-38.119462
31
0
39
0
210
0
220
0
230
1
0
LINE
5
C2
100
AcDbEntity
8
1
62
256
6
ByLayer
370
18
48
1
60
1
100
AcDbLine
10
44.099998
20
-38.119462
30
0
11
47.6
21
-38.580246
31
0
39
0
210
0
220
0
230
1
0
LINE
5
10B
100
AcDbEntity
8
1
62
256
6
ByLayer
370
18
48
1
60
1
100
AcDbLine
10
-55.85
20
7.9375
30
0
11
-55.389216
21
4.437502
31
0
39
0
210
0
220
0
230
1
0
LINE
5
10C
100
AcDbEntity
8
1
62
256
6
ByLayer
370
18
48
1
60
1
100
AcDbLine
10
-55.389216
20
4.437502
30
0
11
-56.310784
21
4.437498
31
0
39
0
210
0
220
0
230
1
0
LINE
5
10D
100
AcDbEntity
8
1
62
256
6
ByLayer
370
18
48
1
60
1
100
AcDbLine
10
-56.310784
20
4.437498
30
0
11
-55.85
21
7.9375
31
0
39
0
210
0
220
0
230
1
0
LINE
5
10F
100
AcDbEntity
8
1
62
256
6
ByLayer
370
18
48
1
60
1
100
AcDbLine
10
-55.85
20
-7.9375
30
0
11
-56.310784
21
-4.437502
31
0
39
0
210
0
220
0
230
1
0
LINE
5
110
100
AcDbEntity
8
1
62
256
6
ByLayer
370
18
48
1
60
1
100
AcDbLine
10
-56.310784
20
-4.437502
30
0
11
-55.389216
21
-4.437498
31
0
39
0
210
0
220
0
230
1
0
LINE
5
111
100
AcDbEntity
8
1
62
256
6
ByLayer
370
18
48
1
60
1
100
AcDbLine
10
-55.389216
20
-4.437498
30
0
11
-55.85
21
-7.9375
31
0
39
0
210
0
220
0
230
1
0
LINE
5
115
100
AcDbEntity
8
1
62
256
6
ByLayer
370
18
48
1
60
1
100
AcDbLine
10
59.6
20
7.9376
30
0
11
60.060784
21
4.437602
31
0
39
0
210
0
220
0
230
1
0
LINE
5
116
100
AcDbEntity
8
1
62
256
6
ByLayer
370
18
48
1
60
1
100
AcDbLine
10
60.060784
20
4.437602
30
0
11
59.139216
21
4.437598
31
0
39
0
210
0
220
0
230
1
0
LINE
5
117
100
AcDbEntity
8
1
62
256
6
ByLayer
370
18
48
1
60
1
100
AcDbLine
10
59.139216
20
4.437598
30
0
11
59.6
21
7.9376
31
0
39
0
210
0
220
0
230
1
0
LINE
5
119
100
AcDbEntity
8
1
62
256
6
ByLayer
370
18
48
1
60
1
100
AcDbLine
10
59.6
20
-7.9376
30
0
11
59.139216
21
-4.437602
31
0
39
0
210
0
220
0
230
1
0
LINE
5
11A
100
AcDbEntity
8
1
62
256
6
ByLayer
370
18
48
1
60
1
100
AcDbLine
10
59.139216
20
-4.437602
30
0
11
60.060784
21
-4.437598
31
0
39
0
210
0
220
0
230
1
0
LINE
5
11B
100
AcDbEntity
8
1
62
256
6
ByLayer
370
18
48
1
60
1
100
AcDbLine
10
60.060784
20
-4.437598
30
0
11
59.6
21
-7.9376
31
0
39
0
210
0
220
0
230
1
0
LINE
5
11E
100
AcDbEntity
8
1
62
256
6
ByLayer
370
18
48
1
60
1
100
AcDbLine
10
-48.4
20
-38.580246
30
0
11
-44.900002
21
-38.119462
31
0
39
0
210
0
220
0
230
1
0
LINE
5
11F
100
AcDbEntity
8
1
62
256
6
ByLayer
370
18
48
1
60
1
100
AcDbLine
10
-44.900002
20
-38.119462
30
0
11
-44.899998
21
-39.04103
31
0
39
0
210
0
220
0
230
1
0
LINE
5
120
100
AcDbEntity
8
1
62
256
6
ByLayer
370
18
48
1
60
1
100
AcDbLine
10
-44.899998
20
-39.04103
30
0
11
-48.4
21
-38.580246
31
0
39
0
210
0
220
0
230
1
0
LINE
5
122
100
AcDbEntity
8
1
62
256
6
ByLayer
370
18
48
1
60
1
100
AcDbLine
10
47.6
20
-38.580246
30
0
11
44.100002
21
-39.04103
31
0
39
0
210
0
220
0
230
1
0
LINE
5
123
100
AcDbEntity
8
1
62
256
6
ByLayer
370
18
48
1
60
1
100
AcDbLine
10
44.100002
20
-39.04103
30
0
11
44.099998
21
-38.119462
31
0
39
0
210
0
220
0
230
1
0
LINE
5
124
100
AcDbEntity
8
1
62
256
6
ByLayer
370
18
48
1
60
1
100
AcDbLine
10
44.099998
20
-38.119462
30
0
11
47.6
21
-38.580246
31
0
39
0
210
0
220
0
230
1
0
MTEXT
5
107
100
AcDbEntity
8
SK2
62
256
6
ByLayer
370
18
48
1
60
0
100
AcDbMText
10
-57.414634
20
-30.707654
30
0
210
0
220
0
230
1
1
%%c
40
3.5
41
0
44
1.084337
50
90
71
7
72
5
7
iso_b_vert
0
MTEXT
5
10A
100
AcDbEntity
8
SK2
62
256
6
ByLayer
370
18
48
1
60
0
100
AcDbMText
10
-57.414634
20
-23.734998
30
0
210
0
220
0
230
1
1
\W0.6864;15.88
40
3.5
41
0
44
1.084337
50
90
71
7
72
5
7
iso_b_vert
0
MTEXT
5
113
100
AcDbEntity
8
2
62
256
6
ByLayer
370
18
48
1
60
0
100
AcDbMText
10
58.035366
20
15.872444
30
0
210
0
220
0
230
1
1
%%c
40
3.5
41
0
44
1.084337
50
90
71
7
72
5
7
iso_b_vert
0
MTEXT
5
114
100
AcDbEntity
8
2
62
256
6
ByLayer
370
18
48
1
60
0
100
AcDbMText
10
58.035366
20
22.8451
30
0
210
0
220
0
230
1
1
\W0.6864;15.88
40
3.5
41
0
44
1.084337
50
90
71
7
72
5
7
iso_b_vert
0
MTEXT
5
11D
100
AcDbEntity
8
SK2
62
256
6
ByLayer
370
18
48
1
60
0
100
AcDbMText
10
-2.304966
20
-37.547613
30
0
210
0
220
0
230
1
1
\W0.6740;96
40
3.5
41
0
44
1.084337
50
0
71
7
72
5
7
iso_b_vert
0
MTEXT
5
126
100
AcDbEntity
8
SK6
62
256
6
ByLayer
370
18
48
1
60
0
100
AcDbMText
10
-24.359512
20
-62.114886
30
0
210
0
220
0
230
1
1
\W0.7174;2P342-1588-PB       P2BM
40
3
41
0
44
1.084337
50
0
71
7
72
5
7
iso_b_vert
0
HATCH
5
10E
100
AcDbEntity
8
SK2
62
256
6
ByLayer
370
13
48
1
60
0
100
AcDbHatch
10
0
20
0
30
0
210
0
220
0
230
1
2
ANSI31
70
0
71
0
91
1
92
5
93
3
72
1
10
-55.8500000000001
20
7.93749999999991
11
-55.3892162584473
21
4.4375016925531
72
1
10
-55.3892162584473
20
4.4375016925531
11
-56.3107837415528
21
4.43749830744673
72
1
10
-56.3107837415528
20
4.43749830744673
11
-55.8500000000001
21
7.93749999999991
97
0
75
0
76
1
52
0
41
0.0062
77
0
78
1
53
45
43
0
44
0
45
-0.0139193969876572
46
0.0139193969876572
79
0
47
0
98
1
10
0
20
0
0
HATCH
5
112
100
AcDbEntity
8
SK2
62
256
6
ByLayer
370
13
48
1
60
0
100
AcDbHatch
10
0
20
0
30
0
210
0
220
0
230
1
2
ANSI31
70
0
71
0
91
1
92
5
93
3
72
1
10
-55.8500000000001
20
-7.93750000000009
11
-56.3107837415528
21
-4.43750169255327
72
1
10
-56.3107837415528
20
-4.43750169255327
11
-55.3892162584473
21
-4.4374983074469
72
1
10
-55.3892162584473
20
-4.4374983074469
11
-55.8500000000001
21
-7.93750000000009
97
0
75
0
76
1
52
0
41
0.0062
77
0
78
1
53
45
43
0
44
0
45
-0.0139193969876572
46
0.0139193969876572
79
0
47
0
98
1
10
0
20
0
0
HATCH
5
118
100
AcDbEntity
8
2
62
256
6
ByLayer
370
13
48
1
60
0
100
AcDbHatch
10
0
20
0
30
0
210
0
220
0
230
1
2
ANSI31
70
0
71
0
91
1
92
5
93
3
72
1
10
59.6
20
7.9375999999998
11
60.0607837415528
21
4.43760169255299
72
1
10
60.0607837415528
20
4.43760169255299
11
59.1392162584472
21
4.43759830744662
72
1
10
59.1392162584472
20
4.43759830744662
11
59.6
21
7.9375999999998
97
0
75
0
76
1
52
0
41
0.0062
77
0
78
1
53
45
43
0
44
0
45
-0.0139193969876572
46
0.0139193969876572
79
0
47
0
98
1
10
0
20
0
0
HATCH
5
11C
100
AcDbEntity
8
2
62
256
6
ByLayer
370
13
48
1
60
0
100
AcDbHatch
10
0
20
0
30
0
210
0
220
0
230
1
2
ANSI31
70
0
71
0
91
1
92
5
93
3
72
1
10
59.6
20
-7.9376000000002
11
59.1392162584472
21
-4.43760169255339
72
1
10
59.1392162584472
20
-4.43760169255339
11
60.0607837415528
21
-4.43759830744702
72
1
10
60.0607837415528
20
-4.43759830744702
11
59.6
21
-7.9376000000002
97
0
75
0
76
1
52
0
41
0.0062
77
0
78
1
53
45
43
0
44
0
45
-0.0139193969876572
46
0.0139193969876572
79
0
47
0
98
1
10
0
20
0
0
HATCH
5
121
100
AcDbEntity
8
SK2
62
256
6
ByLayer
370
13
48
1
60
0
100
AcDbHatch
10
0
20
0
30
0
210
0
220
0
230
1
2
ANSI31
70
0
71
0
91
1
92
5
93
3
72
1
10
-48.4
20
-38.580246218444
11
-44.9000016925532
21
-38.1194624768912
72
1
10
-44.9000016925532
20
-38.1194624768912
11
-44.8999983074468
21
-39.0410299599967
72
1
10
-44.8999983074468
20
-39.0410299599967
11
-48.4
21
-38.580246218444
97
0
75
0
76
1
52
0
41
0.0062
77
0
78
1
53
45
43
0
44
0
45
-0.0139193969876572
46
0.0139193969876572
79
0
47
0
98
1
10
0
20
0
0
HATCH
5
125
100
AcDbEntity
8
SK2
62
256
6
ByLayer
370
13
48
1
60
0
100
AcDbHatch
10
0
20
0
30
0
210
0
220
0
230
1
2
ANSI31
70
0
71
0
91
1
92
5
93
3
72
1
10
47.6
20
-38.580246218444
11
44.1000016925532
21
-39.0410299599967
72
1
10
44.1000016925532
20
-39.0410299599967
11
44.0999983074468
21
-38.1194624768912
72
1
10
44.0999983074468
20
-38.1194624768912
11
47.6
21
-38.580246218444
97
0
75
0
76
1
52
0
41
0.0062
77
0
78
1
53
45
43
0
44
0
45
-0.0139193969876572
46
0.0139193969876572
79
0
47
0
98
1
10
0
20
0
0
DIMENSION
5
129
100
AcDbEntity
8
2
62
256
6
ByLayer
370
18
48
1
60
0
100
AcDbDimension
2
_U0
10
14.2
20
-22.580246
30
0
11
30.9
21
-22.580246
31
0
70
32
71
1
72
1
41
1
210
0
220
0
230
1
3
Standard
100
AcDbAlignedDimension
13
47.6
23
-7.9376
33
0
14
14.2
24
-7.9376
34
0
50
0
100
AcDbRotatedDimension
1001
ACAD
1000
DSTYLE
1002
{
1070
   371
1070
    13
1070
   372
1070
    13
1070
   170
1070
     0
1070
   144
1040
1.0
1070
   277
1070
     2
1070
   284
1070
     8
1070
   278
1070
    46
1070
   146
1040
1.0
1070
   345
1005
16
1070
   347
1005
16
1070
   346
1005
16
1070
   344
1005
0
1070
   343
1005
0
1070
   172
1070
     1
1070
    76
1070
     0
1070
    75
1070
     0
1070
   282
1070
     0
1070
   281
1070
     0
1070
    71
1070
     0
1070
    74
1070
     0
1070
   279
1070
     0
1070
   173
1070
     1
1070
   340
1005
108
1070
   271
1070
     2
1070
   272
1070
     2
1070
    77
1070
     1
1070
    73
1070
     1
1070
   171
1070
     3
1070
   274
1070
     4
1070
   177
1070
     2
1070
   176
1070
     2
1070
   178
1070
     2
1070
    78
1070
     8
1070
    48
1040
-0.1
1070
    41
1040
3.5
1070
   147
1040
1.75
1070
    42
1040
1.5875
1070
    44
1040
2.0
1070
   140
1040
3.5
1002
}
1001
ACAD_DSTYLE_DIM_LINETYPE
1070
   380
1005
16
1001
ACAD_DSTYLE_DIM_EXT1_LINETYPE
1070
   381
1005
16
1001
ACAD_DSTYLE_DIM_EXT2_LINETYPE
1070
   382
1005
16
0
ENDSEC
0
SECTION
2
OBJECTS
0
DICTIONARY
5
1b2
330
0
100
AcDbDictionary
280
0
281
1
3
ACAD_GROUP
350
1b3
3
ACAD_MLINESTYLE
350
1b4
0
DICTIONARY
5
1b3
330
0
100
AcDbDictionary
280
0
281
1
0
DICTIONARY
5
1b4
330
0
100
AcDbDictionary
280
0
281
1
3
Standard
350
18
0
MLINESTYLE
5
18
330
1b4
100
AcDbMlineStyle
2
Standard
70
0
3

62
256
51
90
52
90
71
2
49
-0.5
62
256
6
ByLayer
49
0.5
62
256
6
ByLayer
0
RASTERVARIABLES
5
1a0
330

100
AcDbRasterVariables
90
0
70
1
71
1
72
1
0
ENDSEC
0
EOF
