0
SECTION
2
HEADER
9
$ACADVER
1
AC1015
9
$DWGCODEPAGE
3
ANSI_1252
9
$HANDSEED
5
244
9
$ANGBASE
50
0
9
$ANGDIR
70
0
9
$ATTMODE
70
1
9
$AUNITS
70
0
9
$AUPREC
70
0
9
$CECOLOR
62
256
9
$CELTSCALE
40
1
9
$CELTYPE
6
ByLayer
9
$CELWEIGHT
370
18
9
$CLAYER
8
0
9
$CMLJUST
70
0
9
$CMLSCALE
40
1
9
$CMLSTYLE
2
Standard
9
$DIMSTYLE
2
Standard
9
$TEXTSIZE
40
0.2
9
$TEXTSTYLE
7
Standard
9
$LUNITS
70
2
9
$LUPREC
70
4
9
$EXTNAMES
290
1
9
$INSUNITS
70
4
9
$LTSCALE
40
1
9
$LWDISPLAY
290
1
9
$PDMODE
70
0
9
$PDSIZE
40
0
9
$PLINEGEN
70
0
0
ENDSEC
0
SECTION
2
CLASSES
0
CLASS
1
RASTERVARIABLES
2
AcDbRasterVariables
3
ISM
90
0
280
0
281
0
0
ENDSEC
0
SECTION
2
TABLES
0
TABLE
2
VPORT
5
23a
100
AcDbSymbolTable
0
VPORT
5
1
100
AcDbSymbolTableRecord
100
AcDbViewportTableRecord
2
*Active
70
0
10
0
20
0
11
1
21
1
12
-1
22
1
13
0
23
0
14
0.5
24
0.5
15
10
25
10
16
0
26
0
36
1
17
0
27
0
37
0
0
ENDTAB
0
TABLE
2
LTYPE
5
23b
100
AcDbSymbolTable
0
LTYPE
5
14
100
AcDbSymbolTableRecord
100
AcDbLinetypeTableRecord
70
0
2
ByBlock
3

72
65
73
0
40
0
0
LTYPE
5
15
100
AcDbSymbolTableRecord
100
AcDbLinetypeTableRecord
70
0
2
ByLayer
3

72
65
73
0
40
0
0
LTYPE
5
16
100
AcDbSymbolTableRecord
100
AcDbLinetypeTableRecord
70
0
2
Continuous
3
Solid line
72
65
73
0
40
0
0
LTYPE
5
6E
100
AcDbSymbolTableRecord
100
AcDbLinetypeTableRecord
70
0
2
CENTER
3
____ _ ____ _ ____ _ ____
72
65
73
4
40
47.5
49
22
74
0
49
-8.5
74
0
49
8.5
74
0
49
-8.5
74
0
0
LTYPE
5
6F
100
AcDbSymbolTableRecord
100
AcDbLinetypeTableRecord
70
0
2
DASHED
3
__ __ __ __ __ __ __ __ __
72
65
73
2
40
25.72
49
12.86
74
0
49
-12.86
74
0
0
ENDTAB
0
TABLE
2
LAYER
5
23c
100
AcDbSymbolTable
0
LAYER
5
10
100
AcDbSymbolTableRecord
100
AcDbLayerTableRecord
2
0
70
0
62
7
6
Continuous
290
1
370
-3
390
0
0
LAYER
5
71
100
AcDbSymbolTableRecord
100
AcDbLayerTableRecord
2
81
70
0
62
-3
6
Continuous
290
1
370
-3
390
0
0
LAYER
5
73
100
AcDbSymbolTableRecord
100
AcDbLayerTableRecord
2
80
70
0
62
-6
6
Continuous
290
1
370
-3
390
0
0
LAYER
5
75
100
AcDbSymbolTableRecord
100
AcDbLayerTableRecord
2
1
70
0
62
4
6
Continuous
290
1
370
-3
390
0
0
LAYER
5
168
100
AcDbSymbolTableRecord
100
AcDbLayerTableRecord
2
Defpoints
70
0
62
7
6
Continuous
290
0
370
-3
390
0
0
LAYER
5
175
100
AcDbSymbolTableRecord
100
AcDbLayerTableRecord
2
2
70
0
62
7
6
Continuous
290
1
370
-3
390
0
0
LAYER
5
227
100
AcDbSymbolTableRecord
100
AcDbLayerTableRecord
2
SK1
70
0
62
4
6
Continuous
290
1
370
-3
390
0
0
LAYER
5
228
100
AcDbSymbolTableRecord
100
AcDbLayerTableRecord
2
SK2
70
0
62
7
6
Continuous
290
1
370
-3
390
0
0
LAYER
5
229
100
AcDbSymbolTableRecord
100
AcDbLayerTableRecord
2
SK6
70
0
62
5
6
Continuous
290
1
370
-3
390
0
0
ENDTAB
0
TABLE
2
STYLE
5
23d
100
AcDbSymbolTable
0
STYLE
5
11
100
AcDbSymbolTableRecord
100
AcDbTextStyleTableRecord
2
Standard
3
txt
70
0
71
0
40
0
41
1
42
0
50
0
0
STYLE
5
157
100
AcDbSymbolTableRecord
100
AcDbTextStyleTableRecord
2
iso_b_vert
3
simplex.shx
70
0
71
0
40
0
41
1
42
0
50
0
0
STYLE
5
158
100
AcDbSymbolTableRecord
100
AcDbTextStyleTableRecord
2
DWGDirectTextStyle
3
simplex
70
0
71
0
40
0
41
1
42
0
50
0
0
ENDTAB
0
TABLE
2
DIMSTYLE
5
23e
100
AcDbSymbolTable
100
AcDbDimStyleTable
0
DIMSTYLE
105
27
100
AcDbSymbolTableRecord
100
AcDbDimStyleTableRecord
2
Standard
70
0
3
<>
41
0.18
42
0.0625
44
0.18
140
0.18
147
0.09
73
0
74
0
77
1
271
2
275
0
278
52
280
0
340
11
0
ENDTAB
0
TABLE
2
VIEW
5
23f
100
AcDbSymbolTable
0
ENDTAB
0
TABLE
2
UCS
5
240
100
AcDbSymbolTable
0
ENDTAB
0
TABLE
2
APPID
5
241
100
AcDbSymbolTable
0
APPID
5
12
100
AcDbSymbolTableRecord
100
AcDbRegAppTableRecord
2
ACAD
70
0
0
APPID
5
164
100
AcDbSymbolTableRecord
100
AcDbRegAppTableRecord
2
ACAD_DSTYLE_DIMBREAK
70
0
0
APPID
5
1E6
100
AcDbSymbolTableRecord
100
AcDbRegAppTableRecord
2
ACAD_DSTYLE_DIM_LINETYPE
70
0
0
APPID
5
1E7
100
AcDbSymbolTableRecord
100
AcDbRegAppTableRecord
2
ACAD_DSTYLE_DIM_EXT1_LINETYPE
70
0
0
APPID
5
1E8
100
AcDbSymbolTableRecord
100
AcDbRegAppTableRecord
2
ACAD_DSTYLE_DIM_EXT2_LINETYPE
70
0
0
APPID
5
223
100
AcDbSymbolTableRecord
100
AcDbRegAppTableRecord
2
ACAD_MLEADERVER
70
0
0
ENDTAB
0
TABLE
2
BLOCK_RECORD
5
242
100
AcDbSymbolTable
0
BLOCK_RECORD
5
1F
100
AcDbSymbolTableRecord
100
AcDbBlockTableRecord
2
*Model_Space
340
0
70
0
0
BLOCK_RECORD
5
1B
100
AcDbSymbolTableRecord
100
AcDbBlockTableRecord
2
*Paper_Space
340
0
70
0
0
BLOCK_RECORD
5
23
100
AcDbSymbolTableRecord
100
AcDbBlockTableRecord
2
*Paper_Space0
340
0
70
0
0
BLOCK_RECORD
5
169
100
AcDbSymbolTableRecord
100
AcDbBlockTableRecord
2
*D1
340
0
70
0
0
BLOCK_RECORD
5
176
100
AcDbSymbolTableRecord
100
AcDbBlockTableRecord
2
_U0
340
0
70
0
0
BLOCK_RECORD
5
182
100
AcDbSymbolTableRecord
100
AcDbBlockTableRecord
2
*D3
340
0
70
0
0
BLOCK_RECORD
5
18F
100
AcDbSymbolTableRecord
100
AcDbBlockTableRecord
2
_U1
340
0
70
0
0
BLOCK_RECORD
5
19B
100
AcDbSymbolTableRecord
100
AcDbBlockTableRecord
2
*D5
340
0
70
0
0
BLOCK_RECORD
5
1A7
100
AcDbSymbolTableRecord
100
AcDbBlockTableRecord
2
_U2
340
0
70
0
0
BLOCK_RECORD
5
1B3
100
AcDbSymbolTableRecord
100
AcDbBlockTableRecord
2
*D7
340
0
70
0
0
BLOCK_RECORD
5
1BF
100
AcDbSymbolTableRecord
100
AcDbBlockTableRecord
2
_U3
340
0
70
0
0
ENDTAB
0
ENDSEC
0
SECTION
2
BLOCKS
0
BLOCK
5
20
100
AcDbEntity
8
0
100
AcDbBlockBegin
2
*Model_Space
70
0
10
0
20
0
30
0
3
*Model_Space
0
ENDBLK
5
21
100
AcDbEntity
8
0
100
AcDbBlockEnd
0
BLOCK
5
1C
100
AcDbEntity
8
0
100
AcDbBlockBegin
2
*Paper_Space
70
0
10
0
20
0
30
0
3
*Paper_Space
0
ENDBLK
5
1D
100
AcDbEntity
8
0
100
AcDbBlockEnd
0
BLOCK
5
24
100
AcDbEntity
8
0
100
AcDbBlockBegin
2
*Paper_Space0
70
0
10
0
20
0
30
0
3
*Paper_Space0
0
ENDBLK
5
25
100
AcDbEntity
8
0
100
AcDbBlockEnd
0
BLOCK
5
16A
100
AcDbEntity
8
0
100
AcDbBlockBegin
2
*D1
70
1
10
0
20
0
30
0
3
*D1
0
LINE
5
16C
100
AcDbEntity
8
0
62
256
6
ByLayer
370
-2
48
1
60
0
100
AcDbLine
10
71.5875
20
-45
30
0
11
103.1
21
-45
31
0
39
0
210
0
220
0
230
1
0
LINE
5
16D
100
AcDbEntity
8
0
62
256
6
ByLayer
370
-2
48
1
60
0
100
AcDbLine
10
1.5875
20
0
30
0
11
103.1
21
0
31
0
39
0
210
0
220
0
230
1
0
LINE
5
16E
100
AcDbEntity
8
0
62
256
6
ByLayer
370
-2
48
1
60
0
100
AcDbLine
10
101.1
20
-41.5
30
0
11
101.1
21
-3.5
31
0
39
0
210
0
220
0
230
1
0
SOLID
5
16F
100
AcDbEntity
8
0
62
256
6
ByLayer
370
-1
48
1
60
0
100
AcDbTrace
10
100.516667
20
-41.5
30
0
11
101.683333
21
-41.5
31
0
12
101.1
22
-45
32
0
13
101.1
23
-45
33
0
39
0
210
0
220
0
230
1
0
SOLID
5
170
100
AcDbEntity
8
0
62
256
6
ByLayer
370
-1
48
1
60
0
100
AcDbTrace
10
101.683333
20
-3.5
30
0
11
100.516667
21
-3.5
31
0
12
101.1
22
0
32
0
13
101.1
23
0
33
0
39
0
210
0
220
0
230
1
0
MTEXT
5
171
100
AcDbEntity
8
0
62
256
6
ByLayer
370
18
48
1
60
0
100
AcDbMText
10
94.1
20
-22.5
30
0
210
0
220
0
230
1
1
\A1;45
40
3.5
41
0
44
1
50
90
71
5
72
5
7
iso_b_vert
0
POINT
5
172
100
AcDbEntity
8
Defpoints
62
0
6
ByLayer
370
-1
48
1
60
0
100
AcDbPoint
10
70
20
-45
30
0
39
0
210
0
220
0
230
1
50
360
0
POINT
5
173
100
AcDbEntity
8
Defpoints
62
0
6
ByLayer
370
-1
48
1
60
0
100
AcDbPoint
10
0
20
0
30
0
39
0
210
0
220
0
230
1
50
360
0
POINT
5
174
100
AcDbEntity
8
Defpoints
62
0
6
ByLayer
370
-1
48
1
60
0
100
AcDbPoint
10
101.1
20
0
30
0
39
0
210
0
220
0
230
1
50
360
0
ENDBLK
5
16B
100
AcDbEntity
8
0
100
AcDbBlockEnd
0
BLOCK
5
17D
100
AcDbEntity
8
0
100
AcDbBlockBegin
2
_U0
70
0
10
0
20
0
30
0
3
_U0
0
MTEXT
5
177
100
AcDbEntity
8
2
62
256
6
ByLayer
370
18
48
1
60
0
100
AcDbMText
10
100.410366
20
-24.617233
30
0
210
0
220
0
230
1
1
\W0.7361;45
40
3.5
41
0
44
1.084337
50
90
71
7
72
5
7
iso_b_vert
0
LINE
5
178
100
AcDbEntity
8
2
62
256
6
ByLayer
370
13
48
1
60
0
100
AcDbLine
10
71.5875
20
-45
30
0
11
103.1
21
-45
31
0
39
0
210
0
220
0
230
1
0
LINE
5
179
100
AcDbEntity
8
2
62
256
6
ByLayer
370
13
48
1
60
0
100
AcDbLine
10
1.5875
20
0
30
0
11
103.1
21
0
31
0
39
0
210
0
220
0
230
1
0
LINE
5
17A
100
AcDbEntity
8
2
62
256
6
ByLayer
370
13
48
1
60
0
100
AcDbLine
10
101.1
20
-45
30
0
11
101.1
21
0
31
0
39
0
210
0
220
0
230
1
0
SOLID
5
17B
100
AcDbEntity
8
2
62
256
6
ByLayer
370
18
48
1
60
0
100
AcDbTrace
10
101.1
20
-45
30
0
11
100.639216
21
-41.500002
31
0
12
101.560784
22
-41.499998
32
0
13
101.560784
23
-41.499998
33
0
39
0
210
0
220
0
230
1
0
SOLID
5
17C
100
AcDbEntity
8
2
62
256
6
ByLayer
370
18
48
1
60
0
100
AcDbTrace
10
101.1
20
0
30
0
11
101.560784
21
-3.499998
31
0
12
100.639216
22
-3.500002
32
0
13
100.639216
23
-3.500002
33
0
39
0
210
0
220
0
230
1
0
ENDBLK
5
17E
100
AcDbEntity
8
0
100
AcDbBlockEnd
0
BLOCK
5
183
100
AcDbEntity
8
0
100
AcDbBlockBegin
2
*D3
70
1
10
0
20
0
30
0
3
*D3
0
LINE
5
185
100
AcDbEntity
8
0
62
256
6
ByLayer
370
-2
48
1
60
0
100
AcDbLine
10
71.5875
20
-42
30
0
11
92.1
21
-42
31
0
39
0
210
0
220
0
230
1
0
LINE
5
186
100
AcDbEntity
8
0
62
256
6
ByLayer
370
-2
48
1
60
0
100
AcDbLine
10
71.5875
20
-45
30
0
11
92.1
21
-45
31
0
39
0
210
0
220
0
230
1
0
LINE
5
187
100
AcDbEntity
8
0
62
256
6
ByLayer
370
-2
48
1
60
0
100
AcDbLine
10
90.1
20
-38.5
30
0
11
90.1
21
-35
31
0
39
0
210
0
220
0
230
1
0
LINE
5
188
100
AcDbEntity
8
0
62
256
6
ByLayer
370
-2
48
1
60
0
100
AcDbLine
10
90.1
20
-48.5
30
0
11
90.1
21
-52
31
0
39
0
210
0
220
0
230
1
0
SOLID
5
189
100
AcDbEntity
8
0
62
256
6
ByLayer
370
-1
48
1
60
0
100
AcDbTrace
10
89.516667
20
-38.5
30
0
11
90.683333
21
-38.5
31
0
12
90.1
22
-42
32
0
13
90.1
23
-42
33
0
39
0
210
0
220
0
230
1
0
SOLID
5
18A
100
AcDbEntity
8
0
62
256
6
ByLayer
370
-1
48
1
60
0
100
AcDbTrace
10
90.683333
20
-48.5
30
0
11
89.516667
21
-48.5
31
0
12
90.1
22
-45
32
0
13
90.1
23
-45
33
0
39
0
210
0
220
0
230
1
0
MTEXT
5
18B
100
AcDbEntity
8
0
62
256
6
ByLayer
370
18
48
1
60
0
100
AcDbMText
10
83.1
20
-43.5
30
0
210
0
220
0
230
1
1
\A1;3
40
3.5
41
0
44
1
50
90
71
5
72
5
7
iso_b_vert
0
POINT
5
18C
100
AcDbEntity
8
Defpoints
62
0
6
ByLayer
370
-1
48
1
60
0
100
AcDbPoint
10
70
20
-42
30
0
39
0
210
0
220
0
230
1
50
360
0
POINT
5
18D
100
AcDbEntity
8
Defpoints
62
0
6
ByLayer
370
-1
48
1
60
0
100
AcDbPoint
10
70
20
-45
30
0
39
0
210
0
220
0
230
1
50
360
0
POINT
5
18E
100
AcDbEntity
8
Defpoints
62
0
6
ByLayer
370
-1
48
1
60
0
100
AcDbPoint
10
90.1
20
-45
30
0
39
0
210
0
220
0
230
1
50
360
0
ENDBLK
5
184
100
AcDbEntity
8
0
100
AcDbBlockEnd
0
BLOCK
5
196
100
AcDbEntity
8
0
100
AcDbBlockBegin
2
_U1
70
0
10
0
20
0
30
0
3
_U1
0
MTEXT
5
190
100
AcDbEntity
8
2
62
256
6
ByLayer
370
18
48
1
60
0
100
AcDbMText
10
89.410366
20
-44.125233
30
0
210
0
220
0
230
1
1
\W0.5404;3
40
3.5
41
0
44
1.084337
50
90
71
7
72
5
7
iso_b_vert
0
LINE
5
191
100
AcDbEntity
8
2
62
256
6
ByLayer
370
13
48
1
60
0
100
AcDbLine
10
71.5875
20
-42
30
0
11
92.1
21
-42
31
0
39
0
210
0
220
0
230
1
0
LINE
5
192
100
AcDbEntity
8
2
62
256
6
ByLayer
370
13
48
1
60
0
100
AcDbLine
10
71.5875
20
-45
30
0
11
92.1
21
-45
31
0
39
0
210
0
220
0
230
1
0
LINE
5
193
100
AcDbEntity
8
2
62
256
6
ByLayer
370
13
48
1
60
0
100
AcDbLine
10
90.1
20
-33.25
30
0
11
90.1
21
-53.75
31
0
39
0
210
0
220
0
230
1
0
SOLID
5
194
100
AcDbEntity
8
2
62
256
6
ByLayer
370
18
48
1
60
0
100
AcDbTrace
10
90.1
20
-42
30
0
11
89.639216
21
-38.500002
31
0
12
90.560784
22
-38.499998
32
0
13
90.560784
23
-38.499998
33
0
39
0
210
0
220
0
230
1
0
SOLID
5
195
100
AcDbEntity
8
2
62
256
6
ByLayer
370
18
48
1
60
0
100
AcDbTrace
10
90.1
20
-45
30
0
11
90.560784
21
-48.499998
31
0
12
89.639216
22
-48.500002
32
0
13
89.639216
23
-48.500002
33
0
39
0
210
0
220
0
230
1
0
ENDBLK
5
197
100
AcDbEntity
8
0
100
AcDbBlockEnd
0
BLOCK
5
19C
100
AcDbEntity
8
0
100
AcDbBlockBegin
2
*D5
70
1
10
0
20
0
30
0
3
*D5
0
LINE
5
19E
100
AcDbEntity
8
0
62
256
6
ByLayer
370
-2
48
1
60
0
100
AcDbLine
10
50
20
-40.7375
30
0
11
50
21
20.925
31
0
39
0
210
0
220
0
230
1
0
LINE
5
19F
100
AcDbEntity
8
0
62
256
6
ByLayer
370
-2
48
1
60
0
100
AcDbLine
10
70
20
-40.4125
30
0
11
70
21
20.925
31
0
39
0
210
0
220
0
230
1
0
LINE
5
1A0
100
AcDbEntity
8
0
62
256
6
ByLayer
370
-2
48
1
60
0
100
AcDbLine
10
53.5
20
18.925
30
0
11
66.5
21
18.925
31
0
39
0
210
0
220
0
230
1
0
SOLID
5
1A1
100
AcDbEntity
8
0
62
256
6
ByLayer
370
-1
48
1
60
0
100
AcDbTrace
10
53.5
20
19.508333
30
0
11
53.5
21
18.341667
31
0
12
50
22
18.925
32
0
13
50
23
18.925
33
0
39
0
210
0
220
0
230
1
0
SOLID
5
1A2
100
AcDbEntity
8
0
62
256
6
ByLayer
370
-1
48
1
60
0
100
AcDbTrace
10
66.5
20
18.341667
30
0
11
66.5
21
19.508333
31
0
12
70
22
18.925
32
0
13
70
23
18.925
33
0
39
0
210
0
220
0
230
1
0
MTEXT
5
1A3
100
AcDbEntity
8
0
62
256
6
ByLayer
370
18
48
1
60
0
100
AcDbMText
10
60
20
25.925
30
0
210
0
220
0
230
1
1
\A1;20
40
3.5
41
0
44
1
50
0
71
5
72
5
7
iso_b_vert
0
POINT
5
1A4
100
AcDbEntity
8
Defpoints
62
0
6
ByLayer
370
-1
48
1
60
0
100
AcDbPoint
10
50
20
-42.325
30
0
39
0
210
0
220
0
230
1
50
360
0
POINT
5
1A5
100
AcDbEntity
8
Defpoints
62
0
6
ByLayer
370
-1
48
1
60
0
100
AcDbPoint
10
70
20
-42
30
0
39
0
210
0
220
0
230
1
50
360
0
POINT
5
1A6
100
AcDbEntity
8
Defpoints
62
0
6
ByLayer
370
-1
48
1
60
0
100
AcDbPoint
10
70
20
18.925
30
0
39
0
210
0
220
0
230
1
50
360
0
ENDBLK
5
19D
100
AcDbEntity
8
0
100
AcDbBlockEnd
0
BLOCK
5
1AE
100
AcDbEntity
8
0
100
AcDbBlockBegin
2
_U2
70
0
10
0
20
0
30
0
3
_U2
0
MTEXT
5
1A8
100
AcDbEntity
8
2
62
256
6
ByLayer
370
18
48
1
60
0
100
AcDbMText
10
58.095034
20
19.957634
30
0
210
0
220
0
230
1
1
\W0.6740;20
40
3.5
41
0
44
1.084337
50
0
71
7
72
5
7
iso_b_vert
0
LINE
5
1A9
100
AcDbEntity
8
2
62
256
6
ByLayer
370
13
48
1
60
0
100
AcDbLine
10
50
20
-40.7375
30
0
11
50
21
20.925
31
0
39
0
210
0
220
0
230
1
0
LINE
5
1AA
100
AcDbEntity
8
2
62
256
6
ByLayer
370
13
48
1
60
0
100
AcDbLine
10
70
20
-40.4125
30
0
11
70
21
20.925
31
0
39
0
210
0
220
0
230
1
0
LINE
5
1AB
100
AcDbEntity
8
2
62
256
6
ByLayer
370
13
48
1
60
0
100
AcDbLine
10
50
20
18.925
30
0
11
70
21
18.925
31
0
39
0
210
0
220
0
230
1
0
SOLID
5
1AC
100
AcDbEntity
8
2
62
256
6
ByLayer
370
18
48
1
60
0
100
AcDbTrace
10
50
20
18.925
30
0
11
53.499998
21
19.385784
31
0
12
53.500002
22
18.464216
32
0
13
53.500002
23
18.464216
33
0
39
0
210
0
220
0
230
1
0
SOLID
5
1AD
100
AcDbEntity
8
2
62
256
6
ByLayer
370
18
48
1
60
0
100
AcDbTrace
10
70
20
18.925
30
0
11
66.500002
21
18.464216
31
0
12
66.499998
22
19.385784
32
0
13
66.499998
23
19.385784
33
0
39
0
210
0
220
0
230
1
0
ENDBLK
5
1AF
100
AcDbEntity
8
0
100
AcDbBlockEnd
0
BLOCK
5
1B4
100
AcDbEntity
8
0
100
AcDbBlockBegin
2
*D7
70
1
10
0
20
0
30
0
3
*D7
0
LINE
5
1B6
100
AcDbEntity
8
0
62
256
6
ByLayer
370
-2
48
1
60
0
100
AcDbLine
10
0
20
-1.5875
30
0
11
0
21
-59.25
31
0
39
0
210
0
220
0
230
1
0
LINE
5
1B7
100
AcDbEntity
8
0
62
256
6
ByLayer
370
-2
48
1
60
0
100
AcDbLine
10
70
20
-46.5875
30
0
11
70
21
-59.25
31
0
39
0
210
0
220
0
230
1
0
LINE
5
1B8
100
AcDbEntity
8
0
62
256
6
ByLayer
370
-2
48
1
60
0
100
AcDbLine
10
3.5
20
-57.25
30
0
11
66.5
21
-57.25
31
0
39
0
210
0
220
0
230
1
0
SOLID
5
1B9
100
AcDbEntity
8
0
62
256
6
ByLayer
370
-1
48
1
60
0
100
AcDbTrace
10
3.5
20
-56.666667
30
0
11
3.5
21
-57.833333
31
0
12
0
22
-57.25
32
0
13
0
23
-57.25
33
0
39
0
210
0
220
0
230
1
0
SOLID
5
1BA
100
AcDbEntity
8
0
62
256
6
ByLayer
370
-1
48
1
60
0
100
AcDbTrace
10
66.5
20
-57.833333
30
0
11
66.5
21
-56.666667
31
0
12
70
22
-57.25
32
0
13
70
23
-57.25
33
0
39
0
210
0
220
0
230
1
0
MTEXT
5
1BB
100
AcDbEntity
8
0
62
256
6
ByLayer
370
18
48
1
60
0
100
AcDbMText
10
35
20
-50.25
30
0
210
0
220
0
230
1
1
\A1;70
40
3.5
41
0
44
1
50
0
71
5
72
5
7
iso_b_vert
0
POINT
5
1BC
100
AcDbEntity
8
Defpoints
62
0
6
ByLayer
370
-1
48
1
60
0
100
AcDbPoint
10
0
20
0
30
0
39
0
210
0
220
0
230
1
50
360
0
POINT
5
1BD
100
AcDbEntity
8
Defpoints
62
0
6
ByLayer
370
-1
48
1
60
0
100
AcDbPoint
10
70
20
-45
30
0
39
0
210
0
220
0
230
1
50
360
0
POINT
5
1BE
100
AcDbEntity
8
Defpoints
62
0
6
ByLayer
370
-1
48
1
60
0
100
AcDbPoint
10
70
20
-57.25
30
0
39
0
210
0
220
0
230
1
50
360
0
ENDBLK
5
1B5
100
AcDbEntity
8
0
100
AcDbBlockEnd
0
BLOCK
5
1C6
100
AcDbEntity
8
0
100
AcDbBlockBegin
2
_U3
70
0
10
0
20
0
30
0
3
_U3
0
MTEXT
5
1C0
100
AcDbEntity
8
2
62
256
6
ByLayer
370
18
48
1
60
0
100
AcDbMText
10
33.095034
20
-56.217366
30
0
210
0
220
0
230
1
1
\W0.6740;70
40
3.5
41
0
44
1.084337
50
0
71
7
72
5
7
iso_b_vert
0
LINE
5
1C1
100
AcDbEntity
8
2
62
256
6
ByLayer
370
13
48
1
60
0
100
AcDbLine
10
0
20
-1.5875
30
0
11
0
21
-59.25
31
0
39
0
210
0
220
0
230
1
0
LINE
5
1C2
100
AcDbEntity
8
2
62
256
6
ByLayer
370
13
48
1
60
0
100
AcDbLine
10
70
20
-46.5875
30
0
11
70
21
-59.25
31
0
39
0
210
0
220
0
230
1
0
LINE
5
1C3
100
AcDbEntity
8
2
62
256
6
ByLayer
370
13
48
1
60
0
100
AcDbLine
10
0
20
-57.25
30
0
11
70
21
-57.25
31
0
39
0
210
0
220
0
230
1
0
SOLID
5
1C4
100
AcDbEntity
8
2
62
256
6
ByLayer
370
18
48
1
60
0
100
AcDbTrace
10
0
20
-57.25
30
0
11
3.499998
21
-56.789216
31
0
12
3.500002
22
-57.710784
32
0
13
3.500002
23
-57.710784
33
0
39
0
210
0
220
0
230
1
0
SOLID
5
1C5
100
AcDbEntity
8
2
62
256
6
ByLayer
370
18
48
1
60
0
100
AcDbTrace
10
70
20
-57.25
30
0
11
66.500002
21
-57.710784
31
0
12
66.499998
22
-56.789216
32
0
13
66.499998
23
-56.789216
33
0
39
0
210
0
220
0
230
1
0
ENDBLK
5
1C7
100
AcDbEntity
8
0
100
AcDbBlockEnd
0
ENDSEC
0
SECTION
2
ENTITIES
0
ARC
5
100
100
AcDbEntity
8
1
62
256
6
ByLayer
370
18
48
1
60
0
100
AcDbCircle
39
0
10
22.279208
20
-32.7
30
0
40
1.2
210
0
220
0
230
1
100
AcDbArc
50
60.734205
51
90
0
ARC
5
101
100
AcDbEntity
8
SK1
62
256
6
ByLayer
370
18
48
1
60
0
100
AcDbCircle
39
0
10
-0.6
20
23.45
30
0
40
0.999999999999994
210
0
220
0
230
1
100
AcDbArc
50
293.578178
51
306.869898
0
ARC
5
102
100
AcDbEntity
8
SK1
62
256
6
ByLayer
370
18
48
1
60
0
100
AcDbCircle
39
0
10
-0.6
20
-23.45
30
0
40
0.999999999999994
210
0
220
0
230
1
100
AcDbArc
50
53.130102
51
66.421822
0
ARC
5
105
100
AcDbEntity
8
1
62
256
6
ByLayer
370
18
48
1
60
0
100
AcDbCircle
39
0
10
31.8
20
-32.65
30
0
40
1
210
0
220
0
230
1
100
AcDbArc
50
360
51
90
0
ARC
5
107
100
AcDbEntity
8
1
62
256
6
ByLayer
370
18
48
1
60
0
100
AcDbCircle
39
0
10
50
20
-40.725
30
0
40
1.6
210
0
220
0
230
1
100
AcDbArc
50
180
51
258.545558
0
CIRCLE
5
103
100
AcDbEntity
8
1
62
256
6
ByLayer
370
18
48
1
60
0
100
AcDbCircle
10
42.85
20
-38.2
30
0
40
2.15
39
0
210
0
220
0
230
1
0
CIRCLE
5
104
100
AcDbEntity
8
1
62
256
6
ByLayer
370
18
48
1
60
0
100
AcDbCircle
10
42.85
20
-38.2
30
0
40
2.75
39
0
210
0
220
0
230
1
0
CIRCLE
5
106
100
AcDbEntity
8
1
62
256
6
ByLayer
370
18
48
1
60
0
100
AcDbCircle
10
42.85
20
-38.2
30
0
40
4.55
39
0
210
0
220
0
230
1
0
ELLIPSE
5
108
100
AcDbEntity
8
1
62
256
6
ByLayer
370
18
48
1
60
0
100
AcDbEllipse
10
62.301965
20
-43.5
30
0
11
3.67381906146714E-17
21
0.600000000000002
31
0
210
0
220
0
230
1
40
0.978877
41
0
42
6.28318530717959
0
ELLIPSE
5
109
100
AcDbEntity
8
1
62
256
6
ByLayer
370
18
48
1
60
0
100
AcDbEllipse
10
52.47122
20
-42.325
30
0
11
-2.78951487299375
21
3.41605763755017E-16
31
0
210
0
220
0
230
1
40
0.573576
41
-0.0199183965506899
42
0
0
ELLIPSE
5
10A
100
AcDbEntity
8
1
62
256
6
ByLayer
370
18
48
1
60
0
100
AcDbEllipse
10
26.347154
20
0
30
0
11
14.7536831606586
21
31.0932549155838
31
0
210
0
220
0
230
1
40
0.341999
41
2.05035306783703
42
2.98378646694438
0
ELLIPSE
5
10B
100
AcDbEntity
8
1
62
256
6
ByLayer
370
18
48
1
60
0
100
AcDbEllipse
10
-2.347154
20
0
30
0
11
14.7536831606579
21
-31.0932549155834
31
0
210
0
220
0
230
1
40
0.341999
41
0.157806186645421
42
1.09123958575277
0
ELLIPSE
5
10C
100
AcDbEntity
8
1
62
256
6
ByLayer
370
18
48
1
60
0
100
AcDbEllipse
10
-2.347154
20
0
30
0
11
14.7536831606567
21
31.0932549155818
31
0
210
0
220
0
230
1
40
0.341999
41
-1.09123958575282
42
-0.157806186645427
0
ELLIPSE
5
10D
100
AcDbEntity
8
1
62
256
6
ByLayer
370
18
48
1
60
0
100
AcDbEllipse
10
26.347154
20
0
30
0
11
14.753683160657
21
-31.0932549155819
31
0
210
0
220
0
230
1
40
0.341999
41
-2.98378646694437
42
-2.05035306783699
0
ELLIPSE
5
10E
100
AcDbEntity
8
1
62
256
6
ByLayer
370
18
48
1
60
0
100
AcDbEllipse
10
22.274896
20
0
30
0
11
1.92875500727029E-15
21
31.5000000000007
31
0
210
0
220
0
230
1
40
0.008727
41
0.785398163397504
42
2.59529561274839
0
ELLIPSE
5
10F
100
AcDbEntity
8
1
62
256
6
ByLayer
370
18
48
1
60
0
100
AcDbEllipse
10
26.115783
20
18.25
30
0
11
4.000000017206
21
4.68582147848616E-15
31
0
210
0
220
0
230
1
40
1
41
-3.13286600734797
42
-3.05129289864843
0
ELLIPSE
5
110
100
AcDbEntity
8
1
62
256
6
ByLayer
370
18
48
1
60
0
100
AcDbEllipse
10
66.228061
20
-41.55
30
0
11
0.89799368179919
21
1.05195951590487E-15
31
0
210
0
220
0
230
1
40
0.890875
41
-1.5707963267949
42
-1.29515256584708
0
ELLIPSE
5
111
100
AcDbEntity
8
1
62
256
6
ByLayer
370
18
48
1
60
0
100
AcDbEllipse
10
64.623179
20
-42.474562
30
0
11
0.850692272803145
21
9.96548026584144E-16
31
0
210
0
220
0
230
1
40
0.176327
41
3.14159265358979
42
-2.80561677255391
0
ELLIPSE
5
112
100
AcDbEntity
8
1
62
256
6
ByLayer
370
18
48
1
60
0
100
AcDbEllipse
10
66.095006
20
-43.066064
30
0
11
1.13425636391228
21
1.32873070231691E-15
31
0
210
0
220
0
230
1
40
0.176327
41
-2.80561677258143
42
-1.98717825108217
0
ELLIPSE
5
113
100
AcDbEntity
8
1
62
256
6
ByLayer
370
18
48
1
60
0
100
AcDbEllipse
10
70.223799
20
-41.419859
30
0
11
11.3425633762002
21
-2.90316986065688E-08
31
0
210
0
220
0
230
1
40
0.176327
41
-1.98717824432548
42
-1.91986216906348
0
ELLIPSE
5
114
100
AcDbEntity
8
1
62
256
6
ByLayer
370
18
48
1
60
0
100
AcDbEllipse
10
65.990371
20
-43.5
30
0
11
1.19096918211125
21
1.39516723743668E-15
31
0
210
0
220
0
230
1
40
0.176327
41
0
42
1.22173047639669
0
ELLIPSE
5
115
100
AcDbEntity
8
1
62
256
6
ByLayer
370
18
48
1
60
0
100
AcDbEllipse
10
65.990371
20
-43.5
30
0
11
1.19096918211027
21
1.39516723743553E-15
31
0
210
0
220
0
230
1
40
0.176327
41
-1.22173047639721
42
0
0
ELLIPSE
5
116
100
AcDbEntity
8
1
62
256
6
ByLayer
370
18
48
1
60
0
100
AcDbEllipse
10
70.223799
20
-45.580141
30
0
11
11.3425633258922
21
3.45997303645714E-08
31
0
210
0
220
0
230
1
40
0.176327
41
1.91986216749787
42
1.98717824302201
0
ELLIPSE
5
117
100
AcDbEntity
8
1
62
256
6
ByLayer
370
18
48
1
60
0
100
AcDbEllipse
10
66.095006
20
-43.933936
30
0
11
1.13425636391228
21
1.32873070231691E-15
31
0
210
0
220
0
230
1
40
0.176327
41
1.98717825108217
42
2.80561677258143
0
ELLIPSE
5
118
100
AcDbEntity
8
1
62
256
6
ByLayer
370
18
48
1
60
0
100
AcDbEllipse
10
64.623179
20
-44.525438
30
0
11
0.85069227279796
21
9.96548026578071E-16
31
0
210
0
220
0
230
1
40
0.176327
41
2.80561677255289
42
3.14159265358979
0
ELLIPSE
5
119
100
AcDbEntity
8
1
62
256
6
ByLayer
370
18
48
1
60
0
100
AcDbEllipse
10
66.228061
20
-45.45
30
0
11
0.897993681601789
21
1.05195951567363E-15
31
0
210
0
220
0
230
1
40
0.890875
41
1.29515256578594
42
1.5707963267949
0
ELLIPSE
5
11A
100
AcDbEntity
8
1
62
256
6
ByLayer
370
18
48
1
60
0
100
AcDbEllipse
10
65.571498
20
-42.75
30
0
11
-2.3287088041805E-17
21
-0.126773189709051
31
0
210
0
220
0
230
1
40
0.984808
41
0
42
6.28318530717959
0
POINT
5
70
100
AcDbEntity
8
81
62
256
6
ByLayer
370
18
48
1
60
0
100
AcDbPoint
10
70
20
-45
30
0
39
0
210
0
220
0
230
1
50
360
0
POINT
5
72
100
AcDbEntity
8
80
62
256
6
ByLayer
370
18
48
1
60
0
100
AcDbPoint
10
0
20
0
30
0
39
0
210
0
220
0
230
1
50
360
0
POINT
5
74
100
AcDbEntity
8
1
62
256
6
ByLayer
370
18
48
1
60
1
100
AcDbPoint
10
70
20
-45
30
0
39
0
210
0
220
0
230
1
50
360
0
POINT
5
76
100
AcDbEntity
8
1
62
256
6
ByLayer
370
18
48
1
60
1
100
AcDbPoint
10
0
20
0
30
0
39
0
210
0
220
0
230
1
50
360
0
POINT
5
77
100
AcDbEntity
8
1
62
256
6
ByLayer
370
18
48
1
60
1
100
AcDbPoint
10
70
20
-42
30
0
39
0
210
0
220
0
230
1
50
360
0
POINT
5
78
100
AcDbEntity
8
1
62
256
6
ByLayer
370
18
48
1
60
1
100
AcDbPoint
10
70
20
-45
30
0
39
0
210
0
220
0
230
1
50
360
0
POINT
5
79
100
AcDbEntity
8
1
62
256
6
ByLayer
370
18
48
1
60
1
100
AcDbPoint
10
50
20
-42.325
30
0
39
0
210
0
220
0
230
1
50
360
0
POINT
5
7A
100
AcDbEntity
8
1
62
256
6
ByLayer
370
18
48
1
60
1
100
AcDbPoint
10
70
20
-42
30
0
39
0
210
0
220
0
230
1
50
360
0
POINT
5
7B
100
AcDbEntity
8
1
62
256
6
ByLayer
370
18
48
1
60
1
100
AcDbPoint
10
0
20
0
30
0
39
0
210
0
220
0
230
1
50
360
0
POINT
5
7C
100
AcDbEntity
8
1
62
256
6
ByLayer
370
18
48
1
60
1
100
AcDbPoint
10
70
20
-45
30
0
39
0
210
0
220
0
230
1
50
360
0
SPLINE
5
11B
100
AcDbEntity
8
SK1
62
256
6
ByLayer
370
18
48
1
60
0
100
AcDbSpline
70
4
71
3
72
11
73
7
40
0
40
0
40
0
40
0
40
0.238901120687798
40
0.497438785334105
40
0.757398627101372
40
1
40
1
40
1
40
1
41
1
10
-0.394913799811292
20
-21.8654753908017
30
0
41
1
10
-0.369683556830324
20
-21.8664032520323
30
0
41
1
10
-0.321112940270183
20
-21.8764518787731
30
0
41
1
10
-0.255178473897388
20
-21.9196695750854
30
0
41
1
10
-0.211248088565583
20
-21.9856476021506
30
0
41
1
10
-0.200957649232748
20
-22.03467763457
30
0
41
1
10
-0.199999999999989
20
-22.0603316233164
30
0
0
SPLINE
5
11C
100
AcDbEntity
8
SK1
62
256
6
ByLayer
370
18
48
1
60
0
100
AcDbSpline
70
4
71
3
72
11
73
7
40
0
40
0
40
0
40
0
40
0.242601372378524
40
0.502561213915428
40
0.761098878799764
40
1
40
1
40
1
40
1
41
1
10
-0.200000000000017
20
22.0603316944385
30
0
41
1
10
-0.200957649243719
20
22.0346777057893
30
0
41
1
10
-0.211248088575957
20
21.9856476735436
30
0
41
1
10
-0.255178473954459
20
21.9196696467454
30
0
41
1
10
-0.321112940313157
20
21.8764519506625
30
0
41
1
10
-0.369683556841096
20
21.8664033239634
30
0
41
1
10
-0.394913799811292
20
21.8654754627471
30
0
0
SPLINE
5
11D
100
AcDbEntity
8
SK1
62
256
6
ByLayer
370
18
48
1
60
0
100
AcDbSpline
70
4
71
2
72
6
73
3
40
0
40
0
40
0
40
1
40
1
40
1
41
1
10
-38
20
-20.2900294978113
30
0
41
1
10
-37.2500000202692
20
-20.7228363924583
30
0
41
1
10
-36.5
20
-21.1556411500792
30
0
0
SPLINE
5
11E
100
AcDbEntity
8
SK1
62
256
6
ByLayer
370
18
48
1
60
0
100
AcDbSpline
70
4
71
2
72
6
73
3
40
0
40
0
40
0
40
1
40
1
40
1
41
1
10
-36.5
20
21.1556411516461
30
0
41
1
10
-37.2500000202654
20
20.7228363958853
30
0
41
1
10
-38
20
20.2900295032223
30
0
0
SPLINE
5
11F
100
AcDbEntity
8
SK1
62
256
6
ByLayer
370
18
48
1
60
0
100
AcDbSpline
70
4
71
2
72
6
73
3
40
0
40
0
40
0
40
1
40
1
40
1
41
1
10
-0.394913799811292
20
21.8654706047072
30
0
41
1
10
-1.19497688887515
20
21.8453761856051
30
0
41
1
10
-1.99503997793928
20
21.8252817664983
30
0
0
SPLINE
5
120
100
AcDbEntity
8
SK1
62
256
6
ByLayer
370
18
48
1
60
0
100
AcDbSpline
70
4
71
2
72
6
73
3
40
0
40
0
40
0
40
1
40
1
40
1
41
1
10
-1.99503997793928
20
-21.8252816998361
30
0
41
1
10
-1.19497688887515
20
-21.8453761190377
30
0
41
1
10
-0.394913799811292
20
-21.8654705382346
30
0
0
SPLINE
5
121
100
AcDbEntity
8
SK1
62
256
6
ByLayer
370
18
48
1
60
0
100
AcDbSpline
70
4
71
3
72
13
73
9
40
0
40
0
40
0
40
0
40
0.239488447124402
40
0.368403116875447
40
0.500046646502274
40
0.631682416179057
40
0.760575690290979
40
1
40
1
40
1
40
1
41
1
10
-1.99503997793928
20
21.8252865969123
30
0
41
1
10
-2.02110964950145
20
21.8248846680467
30
0
41
1
10
-2.05883938574672
20
21.8310551805396
30
0
41
1
10
-2.10627619975313
20
21.8540921087329
30
0
41
1
10
-2.13886292182102
20
21.8792519577777
30
0
41
1
10
-2.16563526914683
20
21.910524358218
30
0
41
1
10
-2.19103234710033
20
21.956729688326
30
0
41
1
10
-2.19909149084521
20
21.994092162624
30
0
41
1
10
-2.19999999999999
20
22.0201428284389
30
0
0
SPLINE
5
122
100
AcDbEntity
8
SK1
62
256
6
ByLayer
370
18
48
1
60
0
100
AcDbSpline
70
4
71
3
72
13
73
9
40
0
40
0
40
0
40
0
40
0.23942431023712
40
0.368317584520307
40
0.499953354254703
40
0.631596883812696
40
0.760511553386832
40
1
40
1
40
1
40
1
41
1
10
-2.19999999999999
20
-22.0201427571469
30
0
41
1
10
-2.19909149085342
20
-21.9940920912339
30
0
41
1
10
-2.19103234710852
20
-21.9567296167895
30
0
41
1
10
-2.16563526915772
20
-21.9105242864784
30
0
41
1
10
-2.13886292183542
20
-21.8792518859041
30
0
41
1
10
-2.10627619976853
20
-21.8540920367489
30
0
41
1
10
-2.05883938576716
20
-21.8310551084546
30
0
41
1
10
-2.02110964951223
20
-21.8248845959364
30
0
41
1
10
-1.99503997793928
20
-21.825286524797
30
0
0
SPLINE
5
123
100
AcDbEntity
8
SK1
62
256
6
ByLayer
370
18
48
1
60
0
100
AcDbSpline
70
4
71
2
72
6
73
3
40
0
40
0
40
0
40
1
40
1
40
1
41
1
10
-2.19999999999999
20
22.0136645469338
30
0
41
1
10
-19.3500000008244
20
21.5830602558515
30
0
41
1
10
-36.5
20
21.152454254977
30
0
0
SPLINE
5
124
100
AcDbEntity
8
SK1
62
256
6
ByLayer
370
18
48
1
60
0
100
AcDbSpline
70
4
71
2
72
6
73
3
40
0
40
0
40
0
40
1
40
1
40
1
41
1
10
-36.5
20
-21.1524539804128
30
0
41
1
10
-19.3500000008246
20
-21.5830599810351
30
0
41
1
10
-2.19999999999999
20
-22.0136642719968
30
0
0
SPLINE
5
125
100
AcDbEntity
8
1
62
256
6
ByLayer
370
18
48
1
60
0
100
AcDbSpline
70
4
71
3
72
10
73
6
40
0
40
0
40
0
40
0
40
0.5
40
0.5
40
1
40
1
40
1
40
1
41
1
10
23.5671947358682
20
-32.65
30
0
41
1
10
24.1006725009639
20
-34.6544052618852
30
0
41
1
10
24.6347493883279
20
-36.658653091878
30
0
41
1
10
25.7036204606591
20
-40.6669553440915
30
0
41
1
10
26.238420542143
20
-42.6710091327573
30
0
41
1
10
26.7734562751667
20
-44.6749999999791
30
0
0
SPLINE
5
126
100
AcDbEntity
8
1
62
256
6
ByLayer
370
18
48
1
60
0
100
AcDbSpline
70
4
71
3
72
15
73
11
40
0
40
0
40
0
40
0
40
0.250000000000022
40
0.250000000000022
40
0.375000000000032
40
0.375000000000032
40
0.500000000000043
40
0.500000000000043
40
0.750000000000022
40
1
40
1
40
1
40
1
41
1
10
23.4383186059721
20
-32.1794129119833
30
0
41
1
10
23.4486023310896
20
-32.2158207827872
30
0
41
1
10
23.4590818164336
20
-32.2532228682596
30
0
41
1
10
23.4750883900075
20
-32.3108024604047
30
0
41
1
10
23.4804695056279
20
-32.3302340681291
30
0
41
1
10
23.4912252006171
20
-32.3692200853206
30
0
41
1
10
23.4966124249337
20
-32.3888198900201
30
0
41
1
10
23.5128012848086
20
-32.447933696333
30
0
41
1
10
23.5344586320889
20
-32.5275882353023
30
0
41
1
10
23.556257840028
20
-32.6089074315653
30
0
41
1
10
23.5671947358682
20
-32.65
30
0
0
SPLINE
5
127
100
AcDbEntity
8
1
62
256
6
ByLayer
370
18
48
1
60
0
100
AcDbSpline
70
4
71
3
72
37
73
33
40
0
40
0
40
0
40
0
40
0.0312500000000073
40
0.0312500000000073
40
0.0625000000000147
40
0.125000000000029
40
0.125000000000029
40
0.250000000000059
40
0.250000000000059
40
0.281250000000058
40
0.281250000000058
40
0.312500000000057
40
0.312500000000057
40
0.375000000000059
40
0.375000000000059
40
0.500000000000059
40
0.500000000000059
40
0.531250000000048
40
0.531250000000048
40
0.562500000000037
40
0.625000000000015
40
0.687499999999993
40
0.687499999999993
40
0.718749999999987
40
0.718749999999987
40
0.749999999999982
40
0.749999999999982
40
0.874999999999989
40
0.874999999999989
40
0.937499999999995
40
0.937499999999995
40
1
40
1
40
1
40
1
41
1
10
31.0979991993593
20
-31.65
30
0
41
1
10
31.1161596625569
20
-31.65
30
0
41
1
10
31.1343436715721
20
-31.6503025762777
30
0
41
1
10
31.1705404692685
20
-31.6515196643775
30
0
41
1
10
31.2246748030338
20
-31.6542634146375
30
0
41
1
10
31.2783209647337
20
-31.6597933881372
30
0
41
1
10
31.3849379288975
20
-31.6747079219338
30
0
41
1
10
31.4551208774946
20
-31.6897592794783
30
0
41
1
10
31.5415829778381
20
-31.7158024637559
30
0
41
1
10
31.5588116390368
20
-31.7213750019034
30
0
41
1
10
31.5931357597246
20
-31.7332803218201
30
0
41
1
10
31.6102683325626
20
-31.7396289977521
30
0
41
1
10
31.6610060787218
20
-31.7596878790594
30
0
41
1
10
31.6940493017973
20
-31.7744353258394
30
0
41
1
10
31.7907724756646
20
-31.8229089218058
30
0
41
1
10
31.8520714248128
20
-31.8608215019205
30
0
41
1
10
31.9242042253866
20
-31.9161083927452
30
0
41
1
10
31.938446554144
20
-31.9276015592398
30
0
41
1
10
31.9661892927071
20
-31.9511913425105
30
0
41
1
10
32.0067111080116
20
-31.9874857382757
30
0
41
1
10
32.0688047152748
20
-32.0525094185346
30
0
41
1
10
32.1125622959425
20
-32.1094566175086
30
0
41
1
10
32.1430477949145
20
-32.1541098054289
30
0
41
1
10
32.1528200581636
20
-32.1693186563508
30
0
41
1
10
32.1715554404667
20
-32.2004102576542
30
0
41
1
10
32.1805452052648
20
-32.2163445309867
30
0
41
1
10
32.2230509325826
20
-32.2971584961779
30
0
41
1
10
32.2488697960024
20
-32.3644367321645
30
0
41
1
10
32.2752531168167
20
-32.4693159907482
30
0
41
1
10
32.2819729542626
20
-32.5049415512714
30
0
41
1
10
32.2910147230195
20
-32.5776041037324
30
0
41
1
10
32.2932370625238
20
-32.6138738724257
30
0
41
1
10
32.2932370625238
20
-32.65
30
0
0
SPLINE
5
128
100
AcDbEntity
8
1
62
256
6
ByLayer
370
18
48
1
60
0
100
AcDbSpline
70
4
71
3
72
33
73
29
40
0
40
0
40
0
40
0
40
0.125000000000027
40
0.125000000000027
40
0.187500000000041
40
0.187500000000041
40
0.250000000000054
40
0.250000000000054
40
0.375000000000081
40
0.375000000000081
40
0.406250000000084
40
0.406250000000084
40
0.437500000000087
40
0.437500000000087
40
0.500000000000075
40
0.500000000000075
40
0.625000000000033
40
0.625000000000033
40
0.65625000000003
40
0.65625000000003
40
0.687500000000027
40
0.687500000000027
40
0.750000000000022
40
0.812500000000016
40
0.812500000000016
40
0.875000000000011
40
0.875000000000011
40
1
40
1
40
1
40
1
41
1
10
31.6397368307141
20
-31.65
30
0
41
1
10
31.7071055833143
20
-31.65
30
0
41
1
10
31.7735131192457
20
-31.6560926942454
30
0
41
1
10
31.8716360317391
20
-31.6742157749747
30
0
41
1
10
31.9040980234736
20
-31.6817637186531
30
0
41
1
10
31.9685154439817
20
-31.6999671223374
30
0
41
1
10
32.000599587541
20
-31.7106842391689
30
0
41
1
10
32.0942590621149
20
-31.7470074317023
30
0
41
1
10
32.1537383245527
20
-31.7768276981421
30
0
41
1
10
32.2243435742831
20
-31.8211910993284
30
0
41
1
10
32.2382758559521
20
-31.8304211683923
30
0
41
1
10
32.2657552067244
20
-31.8496106169166
30
0
41
1
10
32.279331242548
20
-31.859592684126
30
0
41
1
10
32.3192581400242
20
-31.8905010109516
30
0
41
1
10
32.3446575523051
20
-31.912259099656
30
0
41
1
10
32.4172761539375
20
-31.9809191664988
30
0
41
1
10
32.4609510550854
20
-32.0311735123727
30
0
41
1
10
32.5093565962302
20
-32.0998444499674
30
0
41
1
10
32.5187359240041
20
-32.1138950568287
30
0
41
1
10
32.5366582573285
20
-32.1422812788688
30
0
41
1
10
32.5452277297467
20
-32.1566521540257
30
0
41
1
10
32.5697769675525
20
-32.2002908544577
30
0
41
1
10
32.5994237772517
20
-32.2598760962957
30
0
41
1
10
32.6229298975619
20
-32.3222481913133
30
0
41
1
10
32.643288334735
20
-32.3860488117296
30
0
41
1
10
32.6519070702787
20
-32.418804833698
30
0
41
1
10
32.6724024636134
20
-32.517099031744
30
0
41
1
10
32.6792156108743
20
-32.5832436260867
30
0
41
1
10
32.6792156108743
20
-32.65
30
0
0
SPLINE
5
129
100
AcDbEntity
8
1
62
256
6
ByLayer
370
18
48
1
60
0
100
AcDbSpline
70
4
71
3
72
12
73
8
40
0
40
0
40
0
40
0
40
0.50000000000001
40
0.50000000000001
40
0.750000000000005
40
0.750000000000005
40
1
40
1
40
1
40
1
41
1
10
63.5812077706279
20
-43.75
30
0
41
1
10
63.5437775330761
20
-43.9049591463828
30
0
41
1
10
63.5059758657855
20
-44.0596963036124
30
0
41
1
10
63.4481590451069
20
-44.2911360537536
30
0
41
1
10
63.4286973549828
20
-44.3681694301977
30
0
41
1
10
63.3891994859592
20
-44.5218928334204
30
0
41
1
10
63.3691678996684
20
-44.598585605023
30
0
41
1
10
63.3486705367578
20
-44.675
30
0
0
SPLINE
5
12A
100
AcDbEntity
8
1
62
256
6
ByLayer
370
18
48
1
60
0
100
AcDbSpline
70
4
71
3
72
8
73
4
40
0
40
0
40
0
40
0
40
1
40
1
40
1
40
1
41
1
10
63.5812077706278
20
-43.75
30
0
41
1
10
63.6163490340967
20
-43.7294760627794
30
0
41
1
10
63.6514441464643
20
-43.708750141474
30
0
41
1
10
63.6865106453464
20
-43.6878989908994
30
0
0
SPLINE
5
12B
100
AcDbEntity
8
1
62
256
6
ByLayer
370
18
48
1
60
0
100
AcDbSpline
70
4
71
3
72
20
73
16
40
0
40
0
40
0
40
0
40
0.124999999999985
40
0.124999999999985
40
0.24999999999997
40
0.24999999999997
40
0.374999999999955
40
0.374999999999955
40
0.499999999999941
40
0.499999999999941
40
0.624999999999926
40
0.624999999999926
40
0.749999999999911
40
0.749999999999911
40
1
40
1
40
1
40
1
41
1
10
63.7500000000053
20
-43.5488189610531
30
0
41
1
10
63.7500000000053
20
-43.5564235687165
30
0
41
1
10
63.7496122894076
20
-43.5639762744384
30
0
41
1
10
63.7480661815218
20
-43.5789785157967
30
0
41
1
10
63.7469146404436
20
-43.5863325174432
30
0
41
1
10
63.7439160773347
20
-43.6005896613163
30
0
41
1
10
63.7420660944706
20
-43.6075210867982
30
0
41
1
10
63.7376593079985
20
-43.6209865990583
30
0
41
1
10
63.7350908262978
20
-43.627524649763
30
0
41
1
10
63.7294293560826
20
-43.6397475513341
30
0
41
1
10
63.7263182970862
20
-43.6454956293184
30
0
41
1
10
63.7195461549389
20
-43.6562788106681
30
0
41
1
10
63.7158510597948
20
-43.6613509554201
30
0
41
1
10
63.704189305352
20
-43.6751290512659
30
0
41
1
10
63.6957000859098
20
-43.6824347895964
30
0
41
1
10
63.6865106453464
20
-43.6878989908994
30
0
0
SPLINE
5
12C
100
AcDbEntity
8
1
62
256
6
ByLayer
370
18
48
1
60
0
100
AcDbSpline
70
4
71
3
72
20
73
16
40
0
40
0
40
0
40
0
40
0.124999999999986
40
0.124999999999986
40
0.249999999999973
40
0.249999999999973
40
0.374999999999959
40
0.374999999999959
40
0.499999999999945
40
0.499999999999945
40
0.624999999999932
40
0.624999999999932
40
0.749999999999918
40
0.749999999999918
40
1
40
1
40
1
40
1
41
1
10
63.6865106453463
20
-43.3121010091006
30
0
41
1
10
63.6911040884285
20
-43.314832350307
30
0
41
1
10
63.6955397235204
20
-43.3180428738552
30
0
41
1
10
63.7040937531756
20
-43.3254272185598
30
0
41
1
10
63.708225305379
20
-43.3296243603783
30
0
41
1
10
63.7159594784963
20
-43.3387926766347
30
0
41
1
10
63.7195881949015
20
-43.3437814419371
30
0
41
1
10
63.7263617408319
20
-43.3545803174143
30
0
41
1
10
63.7295292230758
20
-43.3604443460191
30
0
41
1
10
63.7352004104125
20
-43.3727365409518
30
0
41
1
10
63.7377115139115
20
-43.3791589968836
30
0
41
1
10
63.7420864241383
20
-43.3925551918344
30
0
41
1
10
63.7439599708085
20
-43.3995770167443
30
0
41
1
10
63.7484779810557
20
-43.4211868229534
30
0
41
1
10
63.75
20
-43.4359842728918
30
0
41
1
10
63.75
20
-43.4511810389476
30
0
0
SPLINE
5
12D
100
AcDbEntity
8
1
62
256
6
ByLayer
370
18
48
1
60
0
100
AcDbSpline
70
4
71
3
72
8
73
4
40
0
40
0
40
0
40
0
40
1
40
1
40
1
40
1
41
1
10
63.581207770628
20
-43.2500000000001
30
0
41
1
10
63.6163519950296
20
-43.2705256665267
30
0
41
1
10
63.6514466721627
20
-43.2912513603502
30
0
41
1
10
63.6865106453463
20
-43.3121010091006
30
0
0
SPLINE
5
12E
100
AcDbEntity
8
1
62
256
6
ByLayer
370
18
48
1
60
0
100
AcDbSpline
70
4
71
3
72
12
73
8
40
0
40
0
40
0
40
0
40
0.25
40
0.25
40
0.5
40
0.5
40
1
40
1
40
1
40
1
41
1
10
63.3486705367578
20
-42.325
30
0
41
1
10
63.3691678996684
20
-42.401414394977
30
0
41
1
10
63.3891994859592
20
-42.4781071665796
30
0
41
1
10
63.4286973549828
20
-42.6318305698023
30
0
41
1
10
63.448159045107
20
-42.7088639462465
30
0
41
1
10
63.5059758657855
20
-42.9403036963876
30
0
41
1
10
63.5437775330761
20
-43.0950408536173
30
0
41
1
10
63.5812077706279
20
-43.25
30
0
0
SPLINE
5
12F
100
AcDbEntity
8
1
62
256
6
ByLayer
370
18
48
1
60
0
100
AcDbSpline
70
4
71
3
72
8
73
4
40
0
40
0
40
0
40
0
40
1
40
1
40
1
40
1
41
1
10
49.6822580913927
20
-42.2931326728038
30
0
41
1
10
49.7872726772962
20
-42.314411188031
30
0
41
1
10
49.8933108218218
20
-42.325
30
0
41
1
10
50
20
-42.325
30
0
0
SPLINE
5
130
100
AcDbEntity
8
1
62
256
6
ByLayer
370
18
48
1
60
0
100
AcDbSpline
70
4
71
3
72
10
73
6
40
0
40
0
40
0
40
0
40
0.5
40
0.5
40
1
40
1
40
1
40
1
41
1
10
23.4383186059721
20
-31.65
30
0
41
1
10
23.496978003121
20
-31.65
30
0
41
1
10
23.5682085944932
20
-31.65
30
0
41
1
10
23.7339843046954
20
-31.65
30
0
41
1
10
23.8285227128327
20
-31.65
30
0
41
1
10
23.9336402691161
20
-31.65
30
0
0
SPLINE
5
131
100
AcDbEntity
8
1
62
256
6
ByLayer
370
18
48
1
60
0
100
AcDbSpline
70
4
71
3
72
29
73
25
40
0
40
0
40
0
40
0
40
0.0625000000000052
40
0.0625000000000052
40
0.12500000000001
40
0.12500000000001
40
0.25000000000001
40
0.25000000000001
40
0.375000000000009
40
0.375000000000009
40
0.437500000000014
40
0.437500000000014
40
0.500000000000019
40
0.500000000000019
40
0.625000000000026
40
0.625000000000026
40
0.687500000000028
40
0.718750000000029
40
0.718750000000029
40
0.75000000000003
40
0.75000000000003
40
0.875000000000015
40
0.875000000000015
40
1
40
1
40
1
40
1
41
1
10
23.4383186059725
20
-32.179412911983
30
0
41
1
10
23.4324310945517
20
-32.1585691270008
30
0
41
1
10
23.4259901749889
20
-32.1382407318875
30
0
41
1
10
23.4121610535034
20
-32.0987593603476
30
0
41
1
10
23.4048150478955
20
-32.0797188818756
30
0
41
1
10
23.3816564660958
20
-32.0245260483127
30
0
41
1
10
23.3647265814374
20
-31.9902911993068
30
0
41
1
10
23.3286556777755
20
-31.9263686757828
30
0
41
1
10
23.309508603986
20
-31.896684043288
30
0
41
1
10
23.2796693762218
20
-31.8553890842502
30
0
41
1
10
23.2695276076159
20
-31.8421592904126
30
0
41
1
10
23.2492557420735
20
-31.8171036626964
30
0
41
1
10
23.2390916757716
20
-31.8052288847514
30
0
41
1
10
23.2086919344404
20
-31.7714813645374
30
0
41
1
10
23.188536762504
20
-31.751472350338
30
0
41
1
10
23.1593275737273
20
-31.7251015110726
30
0
41
1
10
23.1449825879883
20
-31.7128315096293
30
0
41
1
10
23.1312385540175
20
-31.7019666386305
30
0
41
1
10
23.1222380496405
20
-31.6950433333257
30
0
41
1
10
23.1178117469587
20
-31.6917367386596
30
0
41
1
10
23.0963327464384
20
-31.6761472242732
30
0
41
1
10
23.0811053834249
20
-31.6665789842176
30
0
41
1
10
23.0565249656924
20
-31.6535095372257
30
0
41
1
10
23.0471750429796
20
-31.65
30
0
41
1
10
23.0419707622829
20
-31.65
30
0
0
SPLINE
5
132
100
AcDbEntity
8
1
62
256
6
ByLayer
370
18
48
1
60
0
100
AcDbSpline
70
4
71
3
72
25
73
21
40
0
40
0
40
0
40
0
40
0.0439285247316102
40
0.0439285247316102
40
0.0878570494632204
40
0.0878570494632204
40
0.175714098926441
40
0.175714098926441
40
0.351428197852883
40
0.351428197852883
40
0.527142296779325
40
0.527142296779325
40
0.614999346242546
40
0.702856395705767
40
0.702856395705767
40
0.878570494632209
40
0.878570494632209
40
0.96642754409543
40
0.96642754409543
40
1
40
1
40
1
40
1
41
1
10
23.4383186059721
20
-31.65
30
0
41
1
10
23.4325885684544
20
-31.65
30
0
41
1
10
23.4263450030651
20
-31.65
30
0
41
1
10
23.4129323237963
20
-31.65
30
0
41
1
10
23.4057697850006
20
-31.65
30
0
41
1
10
23.3829605729163
20
-31.65
30
0
41
1
10
23.3660988900141
20
-31.65
30
0
41
1
10
23.311657430988
20
-31.65
30
0
41
1
10
23.2702029954487
20
-31.65
30
0
41
1
10
23.1828273274823
20
-31.65
30
0
41
1
10
23.1368485025304
20
-31.65
30
0
41
1
10
23.0697753470518
20
-31.65
30
0
41
1
10
23.0257235760065
20
-31.65
30
0
41
1
10
22.9852940854132
20
-31.65
30
0
41
1
10
22.9294060494015
20
-31.65
30
0
41
1
10
22.8985488983493
20
-31.65
30
0
41
1
10
22.8706851602676
20
-31.65
30
0
41
1
10
22.8644672975551
20
-31.65
30
0
41
1
10
22.8607077948339
20
-31.65
30
0
41
1
10
22.8601802010772
20
-31.65
30
0
41
1
10
22.8601626059723
20
-31.65
30
0
0
SPLINE
5
133
100
AcDbEntity
8
1
62
256
6
ByLayer
370
18
48
1
60
0
100
AcDbSpline
70
4
71
3
72
65
73
61
40
0
40
0
40
0
40
0
40
0.0156249999999998
40
0.0156249999999998
40
0.0234374999999994
40
0.0234374999999994
40
0.031249999999999
40
0.031249999999999
40
0.0468749999999989
40
0.0468749999999989
40
0.0624999999999988
40
0.0624999999999988
40
0.0781249999999986
40
0.0781249999999986
40
0.0937499999999984
40
0.0937499999999984
40
0.125
40
0.125
40
0.156250000000001
40
0.156250000000001
40
0.187500000000002
40
0.187500000000002
40
0.218750000000003
40
0.218750000000003
40
0.250000000000004
40
0.250000000000004
40
0.312500000000006
40
0.312500000000006
40
0.375000000000008
40
0.375000000000008
40
0.43750000000001
40
0.43750000000001
40
0.500000000000012
40
0.500000000000012
40
0.515625000000013
40
0.515625000000013
40
0.531250000000014
40
0.562500000000015
40
0.562500000000015
40
0.625000000000018
40
0.625000000000018
40
0.687500000000022
40
0.687500000000022
40
0.703125000000022
40
0.703125000000022
40
0.718750000000022
40
0.718750000000022
40
0.750000000000021
40
0.750000000000021
40
0.812500000000017
40
0.812500000000017
40
0.843750000000016
40
0.843750000000016
40
0.859375000000014
40
0.859375000000014
40
0.875000000000013
40
0.875000000000013
40
0.937500000000006
40
0.937500000000006
40
1
40
1
40
1
40
1
41
1
10
22.1320803249267
20
17.8892916515908
30
0
41
1
10
22.132419326214
20
17.8855476837932
30
0
41
1
10
22.1333032028045
20
17.8757812188121
30
0
41
1
10
22.1352948393678
20
17.8553376130222
30
0
41
1
10
22.1360741166435
20
17.847524384007
30
0
41
1
10
22.1378162401385
20
17.8306554206161
30
0
41
1
10
22.138780740078
20
17.8215811793805
30
0
41
1
10
22.1419337297982
20
17.7929572620673
30
0
41
1
10
22.1443804609009
20
17.7720367405075
30
0
41
1
10
22.1499105659432
20
17.7281352232385
30
0
41
1
10
22.1529969258486
20
17.7051248015604
30
0
41
1
10
22.1597518432888
20
17.6580709985943
30
0
41
1
10
22.1634248027761
20
17.6339845074093
30
0
41
1
10
22.1713523941393
20
17.585110831215
30
0
41
1
10
22.1756071789243
20
17.5603197174848
30
0
41
1
10
22.1892401150472
20
17.48524780222
30
0
41
1
10
22.1994934129257
20
17.4342570468124
30
0
41
1
10
22.2222821234601
20
17.3316255479955
30
0
41
1
10
22.2348171779535
20
17.2799629709692
30
0
41
1
10
22.2621880088124
20
17.1763738031582
30
0
41
1
10
22.2770238911594
20
17.1244415391553
30
0
41
1
10
22.309032723756
20
17.0205262512926
30
0
41
1
10
22.326205677023
20
16.9685409798753
30
0
41
1
10
22.3629401723211
20
16.8646465285979
30
0
41
1
10
22.3824701919779
20
16.8128308739786
30
0
41
1
10
22.4444542473176
20
16.6582491748662
30
0
41
1
10
22.4903452957983
20
16.5562100190015
30
0
41
1
10
22.5915669059817
20
16.3545781386307
30
0
41
1
10
22.6468958815273
20
16.2549796923113
30
0
41
1
10
22.7675347323064
20
16.0585353112803
30
0
41
1
10
22.8328415609387
20
15.9616866011272
30
0
41
1
10
22.9742845697368
20
15.771074748078
30
0
41
1
10
23.0504151939938
20
15.6773091674307
30
0
41
1
10
23.1531465078243
20
15.5622994202301
30
0
41
1
10
23.1740859717104
20
15.5393944766903
30
0
41
1
10
23.2165520395698
20
15.4940203966997
30
0
41
1
10
23.2811958389199
20
15.4265398583675
30
0
41
1
10
23.3487124836618
20
15.3608281423735
30
0
41
1
10
23.4877100961511
20
15.2318530294188
30
0
41
1
10
23.5856459896711
20
15.149124964663
30
0
41
1
10
23.7930847221034
20
14.9908448771168
30
0
41
1
10
23.9025792121108
20
14.91528748749
30
0
41
1
10
24.0476697835994
20
14.8259574067944
30
0
41
1
10
24.0771008302075
20
14.8083483435091
30
0
41
1
10
24.1368219608959
20
14.7736650971169
30
0
41
1
10
24.1671495915222
20
14.7565716473568
30
0
41
1
10
24.2589151439134
20
14.7064282524324
30
0
41
1
10
24.3212748224047
20
14.6744282090443
30
0
41
1
10
24.5120255733327
20
14.5828678072453
30
0
41
1
10
24.6440717452411
20
14.5277270871259
30
0
41
1
10
24.8502114027997
20
14.454787175076
30
0
41
1
10
24.9202734829268
20
14.4321069810763
30
0
41
1
10
25.0275266058116
20
14.400703303766
30
0
41
1
10
25.0637147361229
20
14.3906523750243
30
0
41
1
10
25.1364143292582
20
14.3715661956965
30
0
41
1
10
25.1729026357467
20
14.3625342239554
30
0
41
1
10
25.3560378662637
20
14.3199347430063
30
0
41
1
10
25.5047589107852
20
14.2940226523726
30
0
41
1
10
25.8067653176708
20
14.259058322543
30
0
41
1
10
25.9600490565029
20
14.25
30
0
41
1
10
26.1157833117705
20
14.25
30
0
0
SPLINE
5
134
100
AcDbEntity
8
1
62
256
6
ByLayer
370
18
48
1
60
0
100
AcDbSpline
70
4
71
3
72
32
73
28
40
0
40
0
40
0
40
0
40
0.0624999999999962
40
0.0624999999999962
40
0.124999999999993
40
0.124999999999993
40
0.187499999999989
40
0.187499999999989
40
0.218749999999988
40
0.218749999999988
40
0.249999999999987
40
0.249999999999987
40
0.37499999999999
40
0.37499999999999
40
0.437499999999993
40
0.437499999999993
40
0.468749999999993
40
0.468749999999993
40
0.499999999999994
40
0.499999999999994
40
0.624999999999995
40
0.624999999999995
40
0.749999999999997
40
0.749999999999997
40
0.874999999999998
40
0.874999999999998
40
1
40
1
40
1
40
1
41
1
10
23.4383186059721
20
-29.4679980590438
30
0
41
1
10
23.4246424451539
20
-29.4062149240037
30
0
41
1
10
23.4081873887
20
-29.3464353292117
30
0
41
1
10
23.3709310979943
20
-29.2302040731298
30
0
41
1
10
23.3501214687946
20
-29.1737584320109
30
0
41
1
10
23.3050056268655
20
-29.0637814006891
30
0
41
1
10
23.2806954802961
20
-29.0102528318431
30
0
41
1
10
23.2421253674456
20
-28.9319256844295
30
0
41
1
10
23.2288930932866
20
-28.9061030988615
30
0
41
1
10
23.2020335395063
20
-28.8555045038135
30
0
41
1
10
23.1883849549199
20
-28.8306818144288
30
0
41
1
10
23.1192531909324
20
-28.7087678292878
30
0
41
1
10
23.0611547901143
20
-28.6182229765769
30
0
41
1
10
22.972997187588
20
-28.490172533988
30
0
41
1
10
22.9434328959345
20
-28.4487937215905
30
0
41
1
10
22.8991489440953
20
-28.3884035155883
30
0
41
1
10
22.8843948973514
20
-28.3685504007611
30
0
41
1
10
22.8551264993783
20
-28.3295809555588
30
0
41
1
10
22.8405902823602
20
-28.3104345548779
30
0
41
1
10
22.7684962739885
20
-28.2162373615936
30
0
41
1
10
22.7127280109946
20
-28.1457607298176
30
0
41
1
10
22.6069890008072
20
-28.0111144876018
30
0
41
1
10
22.5570107309881
20
-27.9469542235225
30
0
41
1
10
22.4642417029594
20
-27.8220885252793
30
0
41
1
10
22.4214468919403
20
-27.7613859034168
30
0
41
1
10
22.3440306500611
20
-27.6409814934141
30
0
41
1
10
22.3094063679689
20
-27.5812792164747
30
0
41
1
10
22.2792076144253
20
-27.5210373106711
30
0
0
SPLINE
5
135
100
AcDbEntity
8
1
62
256
6
ByLayer
370
18
48
1
60
0
100
AcDbSpline
70
4
71
3
72
10
73
6
40
0
40
0
40
0
40
0
40
0.5
40
0.5
40
1
40
1
40
1
40
1
41
1
10
23.9336402691161
20
-31.65
30
0
41
1
10
23.8490167832664
20
-31.2853895544942
30
0
41
1
10
23.7653359250296
20
-30.9212301650314
30
0
41
1
10
23.6001276664041
20
-30.1938720326278
30
0
41
1
10
23.5185993952489
20
-29.8306728557885
30
0
41
1
10
23.4383186059721
20
-29.4679980590438
30
0
0
SPLINE
5
136
100
AcDbEntity
8
1
62
256
6
ByLayer
370
18
48
1
60
0
100
AcDbSpline
70
4
71
3
72
30
73
26
40
0
40
0
40
0
40
0
40
0.125000000000001
40
0.125000000000001
40
0.250000000000002
40
0.250000000000002
40
0.375000000000003
40
0.375000000000003
40
0.500000000000005
40
0.500000000000005
40
0.562500000000004
40
0.562500000000004
40
0.625000000000004
40
0.625000000000004
40
0.687500000000003
40
0.687500000000003
40
0.750000000000003
40
0.750000000000003
40
0.875000000000005
40
0.875000000000005
40
0.906250000000004
40
0.906250000000004
40
0.937500000000003
40
0.937500000000003
40
1
40
1
40
1
40
1
41
1
10
13.8943375672973
20
-29.9139548464691
30
0
41
1
10
13.8865409364123
20
-29.9233580917139
30
0
41
1
10
13.877931786983
20
-29.9326601869321
30
0
41
1
10
13.8589127955723
20
-29.9509694256368
30
0
41
1
10
13.8485243776492
20
-29.9599596837525
30
0
41
1
10
13.8256849705001
20
-29.9775752500986
30
0
41
1
10
13.8132376332896
20
-29.9862010424071
30
0
41
1
10
13.7858017072526
20
-30.0030284643032
30
0
41
1
10
13.7708221243599
20
-30.011231295013
30
0
41
1
10
13.7458258793003
20
-30.0231382884602
30
0
41
1
10
13.737049765874
20
-30.0270468182506
30
0
41
1
10
13.7187352282342
20
-30.0346082702024
30
0
41
1
10
13.7091749421593
20
-30.0382729348065
30
0
41
1
10
13.6891167538207
20
-30.0453372280742
30
0
41
1
10
13.6786197964871
20
-30.0487371057378
30
0
41
1
10
13.6565013495867
20
-30.0552244086801
30
0
41
1
10
13.6448606867708
20
-30.0583172600355
30
0
41
1
10
13.6079581046675
20
-30.0669872793661
30
0
41
1
10
13.5815263070002
20
-30.0717959485601
30
0
41
1
10
13.5452163817752
20
-30.0761022248719
30
0
41
1
10
13.5377759237479
20
-30.0768761478221
30
0
41
1
10
13.5228395300831
20
-30.0782053093477
30
0
41
1
10
13.5153082123101
20
-30.0787652114226
30
0
41
1
10
13.4925182901835
20
-30.0801205034908
30
0
41
1
10
13.4770644463612
20
-30.0805927603169
30
0
41
1
10
13.4613248654051
20
-30.0805927603169
30
0
0
SPLINE
5
137
100
AcDbEntity
8
1
62
256
6
ByLayer
370
18
48
1
60
0
100
AcDbSpline
70
4
71
3
72
32
73
28
40
0
40
0
40
0
40
0
40
0.0312500000000039
40
0.0312500000000039
40
0.0625000000000075
40
0.0625000000000075
40
0.125000000000014
40
0.125000000000014
40
0.156250000000014
40
0.156250000000014
40
0.187500000000013
40
0.187500000000013
40
0.250000000000013
40
0.250000000000013
40
0.312500000000013
40
0.312500000000013
40
0.375000000000012
40
0.375000000000012
40
0.50000000000001
40
0.50000000000001
40
0.562500000000012
40
0.562500000000012
40
0.625000000000013
40
0.625000000000013
40
0.750000000000009
40
0.750000000000009
40
1
40
1
40
1
40
1
41
1
10
10.5386751345948
20
-30.0805927603169
30
0
41
1
10
10.5308166515934
20
-30.0805927603169
30
0
41
1
10
10.5229918398929
20
-30.080474687126
30
0
41
1
10
10.5074080928859
20
-30.0800074516351
30
0
41
1
10
10.4996178076425
20
-30.0796561130286
30
0
41
1
10
10.4766203225409
20
-30.0782784555614
30
0
41
1
10
10.4617882298585
20
-30.076935568727
30
0
41
1
10
10.4401863631891
20
-30.0743696982575
30
0
41
1
10
10.4330939182297
20
-30.0734220792404
30
0
41
1
10
10.4191127836333
20
-30.0713523776808
30
0
41
1
10
10.4122177999419
20
-30.0702282001224
30
0
41
1
10
10.3921560258321
20
-30.0666711051738
30
0
41
1
10
10.3794828926306
20
-30.0640378913834
30
0
41
1
10
10.3552649931436
20
-30.0583455135275
30
0
41
1
10
10.343722024187
20
-30.055285688921
30
0
41
1
10
10.3215875864294
20
-30.0488020840796
30
0
41
1
10
10.310960205639
20
-30.0453642012995
30
0
41
1
10
10.2806617049328
20
-30.0346937657148
30
0
41
1
10
10.2625095528537
20
-30.0271090091071
30
0
41
1
10
10.2375038868186
20
-30.0151973377028
30
0
41
1
10
10.2295303543197
20
-30.0111275878529
30
0
41
1
10
10.214363161326
20
-30.0028887514666
30
0
41
1
10
10.207158418293
20
-29.9987154022301
30
0
41
1
10
10.1865318440058
20
-29.9860499646858
30
0
41
1
10
10.1740902691451
20
-29.977413331973
30
0
41
1
10
10.1399018475136
20
-29.9510098933136
30
0
41
1
10
10.1212498345488
20
-29.9327542695084
30
0
41
1
10
10.1056624327026
20
-29.9139548464691
30
0
0
SPLINE
5
138
100
AcDbEntity
8
1
62
256
6
ByLayer
370
18
48
1
60
0
100
AcDbSpline
70
4
71
3
72
30
73
26
40
0
40
0
40
0
40
0
40
0.125000000000007
40
0.125000000000007
40
0.250000000000015
40
0.250000000000015
40
0.375000000000022
40
0.375000000000022
40
0.500000000000029
40
0.500000000000029
40
0.562500000000026
40
0.562500000000026
40
0.625000000000024
40
0.625000000000024
40
0.687500000000021
40
0.687500000000021
40
0.750000000000018
40
0.750000000000018
40
0.875000000000014
40
0.875000000000014
40
0.906250000000012
40
0.906250000000012
40
0.93750000000001
40
0.93750000000001
40
1
40
1
40
1
40
1
41
1
10
10.1056624327026
20
-9.86941261896612
30
0
41
1
10
10.1134590635876
20
-9.84091160634017
30
0
41
1
10
10.1220682130169
20
-9.81257982037155
30
0
41
1
10
10.1410872044277
20
-9.75655159685448
30
0
41
1
10
10.1514756223507
20
-9.72890711075632
30
0
41
1
10
10.1743150294999
20
-9.67449223197164
30
0
41
1
10
10.1867623667103
20
-9.64772023935038
30
0
41
1
10
10.2141982927473
20
-9.59526142127663
30
0
41
1
10
10.22917787564
20
-9.56957065273522
30
0
41
1
10
10.2541741206997
20
-9.53212142663466
30
0
41
1
10
10.262950234126
20
-9.51980127252975
30
0
41
1
10
10.2812647717658
20
-9.49591822570957
30
0
41
1
10
10.2908250578407
20
-9.48431848058806
30
0
41
1
10
10.3108832461793
20
-9.46191570446783
30
0
41
1
10
10.3213802035129
20
-9.45111186483325
30
0
41
1
10
10.3434986504133
20
-9.4304614349042
30
0
41
1
10
10.3551393132292
20
-9.42059748954574
30
0
41
1
10
10.3920418953325
20
-9.39290424748305
30
0
41
1
10
10.4184736929998
20
-9.37748487924964
30
0
41
1
10
10.4547836182248
20
-9.36365758390269
30
0
41
1
10
10.4622240762521
20
-9.36117119765711
30
0
41
1
10
10.4771604699169
20
-9.35689961322666
30
0
41
1
10
10.4846917876898
20
-9.35509944740028
30
0
41
1
10
10.5074817098165
20
-9.35074113394285
30
0
41
1
10
10.5229355536388
20
-9.3492213145251
30
0
41
1
10
10.5386751345949
20
-9.3492213145251
30
0
0
SPLINE
5
139
100
AcDbEntity
8
1
62
256
6
ByLayer
370
18
48
1
60
0
100
AcDbSpline
70
4
71
3
72
32
73
28
40
0
40
0
40
0
40
0
40
0.0312500000000029
40
0.0312500000000029
40
0.0625000000000058
40
0.0625000000000058
40
0.12500000000001
40
0.12500000000001
40
0.156250000000012
40
0.156250000000012
40
0.187500000000013
40
0.187500000000013
40
0.25000000000001
40
0.25000000000001
40
0.312500000000007
40
0.312500000000007
40
0.375000000000004
40
0.375000000000004
40
0.499999999999996
40
0.499999999999996
40
0.562499999999991
40
0.562499999999991
40
0.624999999999986
40
0.624999999999986
40
0.74999999999999
40
0.74999999999999
40
1
40
1
40
1
40
1
41
1
10
13.4613248654051
20
-9.34922131452512
30
0
41
1
10
13.4691833484066
20
-9.34922131452512
30
0
41
1
10
13.4770081601071
20
-9.34960123302483
30
0
41
1
10
13.492591907114
20
-9.35110433740226
30
0
41
1
10
13.5003821923575
20
-9.35223451981221
30
0
41
1
10
13.5233796774591
20
-9.35666472180208
30
0
41
1
10
13.5382117701415
20
-9.36098178019483
30
0
41
1
10
13.5598136368109
20
-9.36922064667917
30
0
41
1
10
13.5669060817702
20
-9.37226208194019
30
0
41
1
10
13.5808872163667
20
-9.37890069603392
30
0
41
1
10
13.5877822000581
20
-9.38250456041439
30
0
41
1
10
13.6078439741679
20
-9.39389972204384
30
0
41
1
10
13.6205171073693
20
-9.40232505361257
30
0
41
1
10
13.6447350068563
20
-9.42050719110841
30
0
41
1
10
13.656277975813
20
-9.43026612350764
30
0
41
1
10
13.6784124135705
20
-9.45090526429331
30
0
41
1
10
13.6890397943609
20
-9.46183015552273
30
0
41
1
10
13.7193382950671
20
-9.49566900868393
30
0
41
1
10
13.7374904471463
20
-9.51963294536128
30
0
41
1
10
13.7624961131814
20
-9.55709686534374
30
0
41
1
10
13.7704696456802
20
-9.56986960560329
30
0
41
1
10
13.785636838674
20
-9.59566828989807
30
0
41
1
10
13.7928415817069
20
-9.60870778228676
30
0
41
1
10
13.8134681559941
20
-9.64819007031204
30
0
41
1
10
13.8259097308548
20
-9.67499387250791
30
0
41
1
10
13.8600981524863
20
-9.75655023082973
30
0
41
1
10
13.8787501654511
20
-9.81243201498805
30
0
41
1
10
13.8943375672973
20
-9.86941261896618
30
0
0
SPLINE
5
13A
100
AcDbEntity
8
1
62
256
6
ByLayer
370
18
48
1
60
0
100
AcDbSpline
70
4
71
3
72
30
73
26
40
0
40
0
40
0
40
0
40
0.125000000000003
40
0.125000000000003
40
0.250000000000006
40
0.250000000000006
40
0.375000000000008
40
0.375000000000008
40
0.500000000000011
40
0.500000000000011
40
0.562500000000008
40
0.562500000000008
40
0.625000000000005
40
0.625000000000005
40
0.687500000000001
40
0.687500000000001
40
0.749999999999998
40
0.749999999999998
40
0.874999999999987
40
0.874999999999987
40
0.906249999999989
40
0.906249999999989
40
0.93749999999999
40
0.93749999999999
40
1
40
1
40
1
40
1
41
1
10
10.1056624327026
20
29.9139548464691
30
0
41
1
10
10.1134590635876
20
29.9233580917139
30
0
41
1
10
10.1220682130169
20
29.9326601869321
30
0
41
1
10
10.1410872044276
20
29.9509694256368
30
0
41
1
10
10.1514756223507
20
29.9599596837525
30
0
41
1
10
10.1743150294999
20
29.9775752500986
30
0
41
1
10
10.1867623667103
20
29.9862010424071
30
0
41
1
10
10.2141982927473
20
30.0030284643032
30
0
41
1
10
10.22917787564
20
30.011231295013
30
0
41
1
10
10.2541741206997
20
30.0231382884602
30
0
41
1
10
10.262950234126
20
30.0270468182507
30
0
41
1
10
10.2812647717658
20
30.0346082702025
30
0
41
1
10
10.2908250578407
20
30.0382729348065
30
0
41
1
10
10.3108832461792
20
30.0453372280742
30
0
41
1
10
10.3213802035128
20
30.0487371057379
30
0
41
1
10
10.3434986504133
20
30.0552244086802
30
0
41
1
10
10.3551393132292
20
30.0583172600356
30
0
41
1
10
10.3920418953325
20
30.0669872793662
30
0
41
1
10
10.4184736929998
20
30.0717959485602
30
0
41
1
10
10.4547836182248
20
30.0761022248719
30
0
41
1
10
10.462224076252
20
30.0768761478221
30
0
41
1
10
10.4771604699169
20
30.0782053093477
30
0
41
1
10
10.4846917876898
20
30.0787652114226
30
0
41
1
10
10.5074817098165
20
30.0801205034908
30
0
41
1
10
10.5229355536388
20
30.0805927603169
30
0
41
1
10
10.5386751345949
20
30.0805927603169
30
0
0
SPLINE
5
13B
100
AcDbEntity
8
1
62
256
6
ByLayer
370
18
48
1
60
0
100
AcDbSpline
70
4
71
3
72
32
73
28
40
0
40
0
40
0
40
0
40
0.0312500000000049
40
0.0312500000000049
40
0.0625000000000098
40
0.0625000000000098
40
0.125000000000019
40
0.125000000000019
40
0.156250000000023
40
0.156250000000023
40
0.187500000000027
40
0.187500000000027
40
0.250000000000026
40
0.250000000000026
40
0.312500000000025
40
0.312500000000025
40
0.375000000000024
40
0.375000000000024
40
0.500000000000021
40
0.500000000000021
40
0.562500000000018
40
0.562500000000018
40
0.625000000000015
40
0.625000000000015
40
0.750000000000008
40
0.750000000000008
40
1
40
1
40
1
40
1
41
1
10
13.4613248654051
20
30.0805927603169
30
0
41
1
10
13.4691833484066
20
30.0805927603169
30
0
41
1
10
13.4770081601071
20
30.080474687126
30
0
41
1
10
13.492591907114
20
30.0800074516351
30
0
41
1
10
13.5003821923575
20
30.0796561130286
30
0
41
1
10
13.523379677459
20
30.0782784555614
30
0
41
1
10
13.5382117701415
20
30.076935568727
30
0
41
1
10
13.5598136368109
20
30.0743696982575
30
0
41
1
10
13.5669060817702
20
30.0734220792404
30
0
41
1
10
13.5808872163666
20
30.0713523776808
30
0
41
1
10
13.587782200058
20
30.0702282001224
30
0
41
1
10
13.6078439741679
20
30.0666711051738
30
0
41
1
10
13.6205171073693
20
30.0640378913833
30
0
41
1
10
13.6447350068563
20
30.0583455135275
30
0
41
1
10
13.656277975813
20
30.0552856889209
30
0
41
1
10
13.6784124135705
20
30.0488020840796
30
0
41
1
10
13.6890397943609
20
30.0453642012995
30
0
41
1
10
13.7193382950671
20
30.0346937657148
30
0
41
1
10
13.7374904471462
20
30.0271090091071
30
0
41
1
10
13.7624961131813
20
30.0151973377028
30
0
41
1
10
13.7704696456802
20
30.011127587853
30
0
41
1
10
13.7856368386739
20
30.0028887514666
30
0
41
1
10
13.7928415817069
20
29.9987154022301
30
0
41
1
10
13.8134681559941
20
29.9860499646858
30
0
41
1
10
13.8259097308548
20
29.977413331973
30
0
41
1
10
13.8600981524863
20
29.9510098933136
30
0
41
1
10
13.8787501654511
20
29.9327542695084
30
0
41
1
10
13.8943375672973
20
29.9139548464691
30
0
0
SPLINE
5
13C
100
AcDbEntity
8
1
62
256
6
ByLayer
370
18
48
1
60
0
100
AcDbSpline
70
4
71
3
72
30
73
26
40
0
40
0
40
0
40
0
40
0.125000000000001
40
0.125000000000001
40
0.250000000000001
40
0.250000000000001
40
0.375000000000002
40
0.375000000000002
40
0.500000000000003
40
0.500000000000003
40
0.562500000000002
40
0.562500000000002
40
0.625000000000001
40
0.625000000000001
40
0.687500000000001
40
0.687500000000001
40
0.75
40
0.75
40
0.875000000000006
40
0.875000000000006
40
0.906250000000006
40
0.906250000000006
40
0.937500000000006
40
0.937500000000006
40
1
40
1
40
1
40
1
41
1
10
13.8943375672973
20
9.86941261896615
30
0
41
1
10
13.8865409364123
20
9.8409116063402
30
0
41
1
10
13.877931786983
20
9.81257982037152
30
0
41
1
10
13.8589127955723
20
9.75655159685445
30
0
41
1
10
13.8485243776492
20
9.72890711075632
30
0
41
1
10
13.8256849705001
20
9.67449223197164
30
0
41
1
10
13.8132376332896
20
9.64772023935038
30
0
41
1
10
13.7858017072526
20
9.59526142127666
30
0
41
1
10
13.7708221243599
20
9.56957065273525
30
0
41
1
10
13.7458258793002
20
9.53212142663469
30
0
41
1
10
13.737049765874
20
9.51980127252978
30
0
41
1
10
13.7187352282342
20
9.49591822570963
30
0
41
1
10
13.7091749421593
20
9.48431848058809
30
0
41
1
10
13.6891167538207
20
9.46191570446786
30
0
41
1
10
13.6786197964871
20
9.45111186483328
30
0
41
1
10
13.6565013495867
20
9.43046143490423
30
0
41
1
10
13.6448606867707
20
9.4205974895458
30
0
41
1
10
13.6079581046675
20
9.3929042474831
30
0
41
1
10
13.5815263070001
20
9.37748487924969
30
0
41
1
10
13.5452163817751
20
9.36365758390278
30
0
41
1
10
13.5377759237479
20
9.36117119765717
30
0
41
1
10
13.5228395300831
20
9.35689961322672
30
0
41
1
10
13.5153082123101
20
9.35509944740033
30
0
41
1
10
13.4925182901835
20
9.3507411339429
30
0
41
1
10
13.4770644463612
20
9.34922131452515
30
0
41
1
10
13.4613248654051
20
9.34922131452515
30
0
0
SPLINE
5
13D
100
AcDbEntity
8
1
62
256
6
ByLayer
370
18
48
1
60
0
100
AcDbSpline
70
4
71
3
72
32
73
28
40
0
40
0
40
0
40
0
40
0.0312500000000038
40
0.0312500000000038
40
0.0625000000000075
40
0.0625000000000075
40
0.125000000000017
40
0.125000000000017
40
0.156250000000016
40
0.156250000000016
40
0.187500000000015
40
0.187500000000015
40
0.250000000000014
40
0.250000000000014
40
0.312500000000012
40
0.312500000000012
40
0.37500000000001
40
0.37500000000001
40
0.500000000000011
40
0.500000000000011
40
0.562500000000011
40
0.562500000000011
40
0.62500000000001
40
0.62500000000001
40
0.750000000000007
40
0.750000000000007
40
1
40
1
40
1
40
1
41
1
10
10.5386751345948
20
9.34922131452501
30
0
41
1
10
10.5308166515934
20
9.34922131452501
30
0
41
1
10
10.5229918398929
20
9.34960123302471
30
0
41
1
10
10.5074080928859
20
9.35110433740215
30
0
41
1
10
10.4996178076424
20
9.35223451981207
30
0
41
1
10
10.4766203225409
20
9.35666472180193
30
0
41
1
10
10.4617882298585
20
9.36098178019472
30
0
41
1
10
10.4401863631891
20
9.36922064667905
30
0
41
1
10
10.4330939182297
20
9.37226208194011
30
0
41
1
10
10.4191127836333
20
9.37890069603384
30
0
41
1
10
10.4122177999419
20
9.38250456041428
30
0
41
1
10
10.392156025832
20
9.39389972204373
30
0
41
1
10
10.3794828926306
20
9.40232505361243
30
0
41
1
10
10.3552649931436
20
9.4205071911083
30
0
41
1
10
10.343722024187
20
9.43026612350755
30
0
41
1
10
10.3215875864294
20
9.4509052642932
30
0
41
1
10
10.310960205639
20
9.46183015552262
30
0
41
1
10
10.2806617049328
20
9.49566900868382
30
0
41
1
10
10.2625095528537
20
9.5196329453612
30
0
41
1
10
10.2375038868186
20
9.55709686534362
30
0
41
1
10
10.2295303543197
20
9.5698696056032
30
0
41
1
10
10.214363161326
20
9.59566828989796
30
0
41
1
10
10.207158418293
20
9.60870778228664
30
0
41
1
10
10.1865318440058
20
9.64819007031193
30
0
41
1
10
10.1740902691451
20
9.6749938725078
30
0
41
1
10
10.1399018475136
20
9.75655023082962
30
0
41
1
10
10.1212498345488
20
9.81243201498805
30
0
41
1
10
10.1056624327026
20
9.86941261896618
30
0
0
SPLINE
5
13E
100
AcDbEntity
8
1
62
256
6
ByLayer
370
18
48
1
60
0
100
AcDbSpline
70
4
71
3
72
10
73
6
40
0
40
0
40
0
40
0
40
0.5
40
0.5
40
1
40
1
40
1
40
1
41
1
10
22.1320803249267
20
-26.9153061104391
30
0
41
1
10
22.1335978657667
20
-27.0210368251653
30
0
41
1
10
22.1464081868246
20
-27.1243457533384
30
0
41
1
10
22.1950969433487
20
-27.3262309448358
30
0
41
1
10
22.2309682972636
20
-27.4248072329532
30
0
41
1
10
22.2792076144253
20
-27.5210373106711
30
0
0
SPLINE
5
13F
100
AcDbEntity
8
SK1
62
256
6
ByLayer
370
18
48
1
60
0
100
AcDbSpline
70
4
71
3
72
49
73
45
40
0
40
0
40
0
40
0
40
0.0158521284693621
40
0.0443314073826487
40
0.0728106862959353
40
0.101289965209222
40
0.129769244122509
40
0.158248523035795
40
0.215207080862368
40
0.243686359775655
40
0.272165638688942
40
0.300644917602228
40
0.329124196515515
40
0.357603475428801
40
0.386082754342088
40
0.414562033255375
40
0.428801672712018
40
0.443041312168661
40
0.457280951625305
40
0.471520591081948
40
0.485760230538591
40
0.492880050266913
40
0.499999869995234
40
0.507119689723556
40
0.514239509451878
40
0.528479148908521
40
0.542718788365164
40
0.556958427821808
40
0.571198067278451
40
0.585437706735094
40
0.613916985648381
40
0.642396264561667
40
0.670875543474954
40
0.699354822388241
40
0.727834101301527
40
0.756313380214814
40
0.7847926591281
40
0.841751216954674
40
0.87023049586796
40
0.898709774781247
40
0.927189053694534
40
0.95566833260782
40
0.984147611521107
40
1
40
1
40
1
40
1
41
1
10
-38
20
-20.2900102791602
30
0
41
1
10
-38
20
-20.2838087029346
30
0
41
1
10
-38
20
-20.2386778185147
30
0
41
1
10
-38
20
-20.0459061788578
30
0
41
1
10
-38
20
-19.6579364097435
30
0
41
1
10
-38
20
-19.121649880576
30
0
41
1
10
-38
20
-18.4471796582741
30
0
41
1
10
-38
20
-17.3708469037194
30
0
41
1
10
-38
20
-16.0627714181563
30
0
41
1
10
-38
20
-14.5156182315173
30
0
41
1
10
-38
20
-13.2517911056129
30
0
41
1
10
-38
20
-11.884121927153
30
0
41
1
10
-38
20
-10.4165563625368
30
0
41
1
10
-38
20
-8.85372716578038
30
0
41
1
10
-38
20
-7.20134053529003
30
0
41
1
10
-38
20
-5.76201962732219
30
0
41
1
10
-38
20
-4.56407688146012
30
0
41
1
10
-38
20
-3.65884523285217
30
0
41
1
10
-38
20
-2.74483966025932
30
0
41
1
10
-38
20
-1.82748862261292
30
0
41
1
10
-38
20
-1.06947718042707
30
0
41
1
10
-38
20
-0.455018630552075
30
0
41
1
10
-38
20
-4.514861303E-07
30
0
41
1
10
-38
20
0.455018198724474
30
0
41
1
10
-38
20
1.06947767603967
30
0
41
1
10
-38
20
1.82748828650287
30
0
41
1
10
-38
20
2.74483905839463
30
0
41
1
10
-38
20
3.65884583736087
30
0
41
1
10
-38
20
4.5640765607352
30
0
41
1
10
-38
20
5.76201911469511
30
0
41
1
10
-38
20
7.20134092284709
30
0
41
1
10
-38
20
8.85372672313898
30
0
41
1
10
-38
20
10.4165562193455
30
0
41
1
10
-38
20
11.8841222937699
30
0
41
1
10
-38
20
13.2517907463501
30
0
41
1
10
-38
20
14.5156181768618
30
0
41
1
10
-38
20
16.0627718728323
30
0
41
1
10
-38
20
17.3708466567051
30
0
41
1
10
-38
20
18.4471799717542
30
0
41
1
10
-38
20
19.1216505379956
30
0
41
1
10
-38
20
19.6579362347721
30
0
41
1
10
-38
20
20.0459066437045
30
0
41
1
10
-38
20
20.2386791618588
30
0
41
1
10
-38
20
20.2838094562919
30
0
41
1
10
-38
20
20.2900107208162
30
0
0
SPLINE
5
140
100
AcDbEntity
8
SK1
62
256
6
ByLayer
370
18
48
1
60
0
100
AcDbSpline
70
4
71
3
72
36
73
32
40
0
40
0
40
0
40
0
40
0.0312500000000006
40
0.0312500000000006
40
0.0468750000000007
40
0.0468750000000007
40
0.0625000000000009
40
0.0625000000000009
40
0.078125000000001
40
0.078125000000001
40
0.0937500000000012
40
0.0937500000000012
40
0.125000000000002
40
0.125000000000002
40
0.156250000000002
40
0.156250000000002
40
0.187500000000003
40
0.187500000000003
40
0.250000000000004
40
0.250000000000004
40
0.312500000000005
40
0.312500000000005
40
0.375000000000006
40
0.375000000000006
40
0.500000000000006
40
0.500000000000006
40
0.625000000000005
40
0.625000000000005
40
0.750000000000005
40
0.750000000000005
40
1
40
1
40
1
40
1
41
1
10
-0.394913799811292
20
6.32721828439901
30
0
41
1
10
-0.388651860853344
20
6.32169800880934
30
0
41
1
10
-0.381850124236081
20
6.31686284615006
30
0
41
1
10
-0.37039582601011
20
6.31175696012832
30
0
41
1
10
-0.366345960396387
20
6.31042877188762
30
0
41
1
10
-0.358037716131264
20
6.30890123768719
30
0
41
1
10
-0.35368915432602
20
6.30870360354672
30
0
41
1
10
-0.345208124413119
20
6.30960458427649
30
0
41
1
10
-0.340958863848982
20
6.31070772605878
30
0
41
1
10
-0.332859652575024
20
6.31402544311607
30
0
41
1
10
-0.329057935890972
20
6.31619338160348
30
0
41
1
10
-0.31822232846153
20
6.32386838427445
30
0
41
1
10
-0.312078412289935
20
6.33025774259031
30
0
41
1
10
-0.301085882076165
20
6.34414232274304
30
0
41
1
10
-0.296343527957418
20
6.35152953268795
30
0
41
1
10
-0.287711149711186
20
6.3668056729274
30
0
41
1
10
-0.283833370168679
20
6.37471397159132
30
0
41
1
10
-0.27323621273078
20
6.39857720931977
30
0
41
1
10
-0.267439101060546
20
6.41481626716185
30
0
41
1
10
-0.257169431390224
20
6.44763062016602
30
0
41
1
10
-0.252727620657765
20
6.46421416849179
30
0
41
1
10
-0.24474520514363
20
6.49760452342764
30
0
41
1
10
-0.241214598359392
20
6.5144059185414
30
0
41
1
10
-0.231660540619686
20
6.56479252713515
30
0
41
1
10
-0.226629907857017
20
6.59846295367004
30
0
41
1
10
-0.21819915020231
20
6.66587124141833
30
0
41
1
10
-0.214824426638018
20
6.69957126003933
30
0
41
1
10
-0.209269492367241
20
6.76679198903059
30
0
41
1
10
-0.207091999731233
20
6.80034067321819
30
0
41
1
10
-0.201942367211245
20
6.90082001005126
30
0
41
1
10
-0.200331074104753
20
6.96758473110461
30
0
41
1
10
-0.200000000000017
20
7.03415845154797
30
0
0
SPLINE
5
141
100
AcDbEntity
8
SK1
62
256
6
ByLayer
370
18
48
1
60
0
100
AcDbSpline
70
4
71
3
72
40
73
36
40
0
40
0
40
0
40
0
40
0.249999999999991
40
0.249999999999991
40
0.37499999999999
40
0.37499999999999
40
0.499999999999988
40
0.499999999999988
40
0.624999999999987
40
0.624999999999987
40
0.687499999999989
40
0.687499999999989
40
0.749999999999991
40
0.749999999999991
40
0.812499999999993
40
0.812499999999993
40
0.843749999999995
40
0.843749999999995
40
0.874999999999996
40
0.874999999999996
40
0.890624999999996
40
0.890624999999996
40
0.906249999999997
40
0.906249999999997
40
0.921874999999997
40
0.921874999999997
40
0.937499999999998
40
0.937499999999998
40
0.953124999999998
40
0.953124999999998
40
0.968749999999999
40
0.968749999999999
40
0.984374999999999
40
0.984374999999999
40
1
40
1
40
1
40
1
41
1
10
-0.200000000000017
20
-7.03416121607441
30
0
41
1
10
-0.200330815103371
20
-6.96763966546041
30
0
41
1
10
-0.201940349251316
20
-6.90096555412458
30
0
41
1
10
-0.207070996833011
20
-6.80070221210741
30
0
41
1
10
-0.209239354999539
20
-6.76723901782026
30
0
41
1
10
-0.214764318431179
20
-6.70022371847915
30
0
41
1
10
-0.218114808322753
20
-6.66667162394384
30
0
41
1
10
-0.226489017484568
20
-6.5994729106236
30
0
41
1
10
-0.23149114194635
20
-6.56582630636572
30
0
41
1
10
-0.241036901726744
20
-6.51528035330136
30
0
41
1
10
-0.244556108211697
20
-6.49847112557535
30
0
41
1
10
-0.25250502314799
20
-6.46507959466703
30
0
41
1
10
-0.25692997095706
20
-6.44848157748783
30
0
41
1
10
-0.267171029982791
20
-6.41559723945636
30
0
41
1
10
-0.272955344086199
20
-6.39930333387312
30
0
41
1
10
-0.283553316434961
20
-6.37530507146633
30
0
41
1
10
-0.287432431444984
20
-6.36735118199186
30
0
41
1
10
-0.296040108964064
20
-6.35202357617757
30
0
41
1
10
-0.300766232707417
20
-6.34461234463069
30
0
41
1
10
-0.308967085084731
20
-6.33416203110167
30
0
41
1
10
-0.311908022590586
20
-6.33077681434855
30
0
41
1
10
-0.318164476683506
20
-6.32450219496934
30
0
41
1
10
-0.321489218115914
20
-6.3215939456986
30
0
41
1
10
-0.328692242821006
20
-6.31642240799482
30
0
41
1
10
-0.332576144960626
20
-6.31417396688744
30
0
41
1
10
-0.340684924848716
20
-6.31079560648985
30
0
41
1
10
-0.344995599835357
20
-6.3096474881059
30
0
41
1
10
-0.353563907701925
20
-6.30870335232461
30
0
41
1
10
-0.35794647802453
20
-6.30889601700255
30
0
41
1
10
-0.366254804145342
20
-6.31040674643401
30
0
41
1
10
-0.37022491081737
20
-6.31169706442716
30
0
41
1
10
-0.377887007436868
20
-6.31508659472502
30
0
41
1
10
-0.381566403142131
20
-6.31718953975286
30
0
41
1
10
-0.388488406577181
20
-6.32186168295425
30
0
41
1
10
-0.39176836682077
20
-6.32444846033573
30
0
41
1
10
-0.394913799811292
20
-6.32722135061286
30
0
0
SPLINE
5
142
100
AcDbEntity
8
SK1
62
256
6
ByLayer
370
13
48
1
60
0
100
AcDbSpline
70
4
71
3
72
21
73
17
40
0
40
0
40
0
40
0
40
0.0501712062075535
40
0.118460229532274
40
0.186749252856995
40
0.255038276181716
40
0.323327299506437
40
0.391616322831158
40
0.5281943694806
40
0.59648339280532
40
0.664772416130041
40
0.733061439454762
40
0.801350462779483
40
0.869639486104204
40
0.937928509428925
40
1
40
1
40
1
40
1
41
1
10
-0.39491379981132
20
21.8654706411291
30
0
41
1
10
-0.39491379981132
20
21.8658202624862
30
0
41
1
10
-0.394913799811292
20
21.8217384629921
30
0
41
1
10
-0.394913799811292
20
21.6019834098091
30
0
41
1
10
-0.394913799811292
20
21.1908658435729
30
0
41
1
10
-0.394913799811292
20
20.6247618481558
30
0
41
1
10
-0.394913799811292
20
19.9145928494951
30
0
41
1
10
-0.394913799811292
20
18.7870404111631
30
0
41
1
10
-0.394913799811292
20
17.4047594204778
30
0
41
1
10
-0.394913799811292
20
15.7849097442956
30
0
41
1
10
-0.394913799811292
20
14.4558606687731
30
0
41
1
10
-0.394913799811292
20
13.0147246633634
30
0
41
1
10
-0.394913799811292
20
11.4638140893219
30
0
41
1
10
-0.394913799811292
20
9.80498157314139
30
0
41
1
10
-0.394913799811292
20
8.09321756934102
30
0
41
1
10
-0.394913799811292
20
6.90653762641452
30
0
41
1
10
-0.394913799811292
20
6.32721828439904
30
0
0
SPLINE
5
143
100
AcDbEntity
8
SK1
62
256
6
ByLayer
370
13
48
1
60
0
100
AcDbSpline
70
4
71
3
72
21
73
17
40
0
40
0
40
0
40
0
40
0.0620709853962641
40
0.130359563709975
40
0.198648142023686
40
0.266936720337397
40
0.335225298651108
40
0.403513876964818
40
0.471802455278529
40
0.608379611905951
40
0.676668190219662
40
0.744956768533373
40
0.813245346847084
40
0.881533925160795
40
0.949822503474505
40
1
40
1
40
1
40
1
41
1
10
-0.394913799811292
20
-6.32722135061286
30
0
41
1
10
-0.394913799811292
20
-6.90653972901185
30
0
41
1
10
-0.394913799811292
20
-8.09321828866487
30
0
41
1
10
-0.394913799811292
20
-9.80498177095927
30
0
41
1
10
-0.394913799811292
20
-11.4638144327396
30
0
41
1
10
-0.394913799811292
20
-13.014724351229
30
0
41
1
10
-0.394913799811292
20
-14.4558608746283
30
0
41
1
10
-0.394913799811292
20
-15.7849099352292
30
0
41
1
10
-0.394913799811292
20
-17.4047589502432
30
0
41
1
10
-0.394913799811292
20
-18.7870406318774
30
0
41
1
10
-0.394913799811292
20
-19.9145926563567
30
0
41
1
10
-0.394913799811292
20
-20.6247611340725
30
0
41
1
10
-0.394913799811292
20
-21.1908660117695
30
0
41
1
10
-0.394913799811292
20
-21.6019829919256
30
0
41
1
10
-0.394913799811292
20
-21.8217455420976
30
0
41
1
10
-0.394913799811292
20
-21.8658250735262
30
0
41
1
10
-0.394913799811263
20
-21.8654704311054
30
0
0
SPLINE
5
144
100
AcDbEntity
8
SK1
62
256
6
ByLayer
370
18
48
1
60
0
100
AcDbSpline
70
4
71
3
72
51
73
47
40
0
40
0
40
0
40
0
40
0.0156249999999991
40
0.0156249999999991
40
0.0312499999999982
40
0.0312499999999982
40
0.0468749999999973
40
0.0468749999999973
40
0.0624999999999964
40
0.0624999999999964
40
0.0781249999999954
40
0.0859374999999951
40
0.0859374999999951
40
0.0937499999999947
40
0.0937499999999947
40
0.124999999999993
40
0.124999999999993
40
0.140624999999993
40
0.140624999999993
40
0.156249999999992
40
0.156249999999992
40
0.171874999999992
40
0.171874999999992
40
0.187499999999992
40
0.187499999999992
40
0.218749999999991
40
0.218749999999991
40
0.24999999999999
40
0.24999999999999
40
0.281249999999989
40
0.281249999999989
40
0.312499999999989
40
0.312499999999989
40
0.374999999999989
40
0.374999999999989
40
0.43749999999999
40
0.43749999999999
40
0.49999999999999
40
0.49999999999999
40
0.624999999999992
40
0.624999999999992
40
0.749999999999995
40
0.749999999999995
40
0.874999999999997
40
0.874999999999997
40
1
40
1
40
1
40
1
41
1
10
-0.394913799811292
20
-6.32722135062522
30
0
41
1
10
-0.403103547019441
20
-6.33444111034481
30
0
41
1
10
-0.411568516590108
20
-6.34138290087219
30
0
41
1
10
-0.429170091135489
20
-6.35459039773457
30
0
41
1
10
-0.43831629492334
20
-6.3608578974891
30
0
41
1
10
-0.457177342303623
20
-6.37239779961379
30
0
41
1
10
-0.466917648563935
20
-6.37769203793539
30
0
41
1
10
-0.487153207843136
20
-6.38712350886505
30
0
41
1
10
-0.497682675631438
20
-6.39127312214092
30
0
41
1
10
-0.519541799584147
20
-6.39807453657346
30
0
41
1
10
-0.536205505855378
20
-6.40195065166941
30
0
41
1
10
-0.553312890967476
20
-6.40381092862668
30
0
41
1
10
-0.564821683089775
20
-6.40457927715815
30
0
41
1
10
-0.570661631866017
20
-6.40472651279043
30
0
41
1
10
-0.59968773121858
20
-6.40423336369165
30
0
41
1
10
-0.622102468665219
20
-6.39998734213981
30
0
41
1
10
-0.654728144683787
20
-6.38885411254182
30
0
41
1
10
-0.665265234159847
20
-6.38439885825292
30
0
41
1
10
-0.685506727928441
20
-6.37439841042161
30
0
41
1
10
-0.695263535743464
20
-6.36883407140752
30
0
41
1
10
-0.714177802118201
20
-6.3567747780167
30
0
41
1
10
-0.723321143410601
20
-6.3502808336809
30
0
41
1
10
-0.740759389627414
20
-6.33680322085289
30
0
41
1
10
-0.749110346030392
20
-6.32978409383841
30
0
41
1
10
-0.773280793926858
20
-6.30805251056447
30
0
41
1
10
-0.78822917837428
20
-6.29267436431064
30
0
41
1
10
-0.816508756328489
20
-6.26067183093176
30
0
41
1
10
-0.829832017046726
20
-6.24404146668815
30
0
41
1
10
-0.85525358147396
20
-6.2098275518716
30
0
41
1
10
-0.867353405011528
20
-6.19222552349751
30
0
41
1
10
-0.890290953598992
20
-6.15674063815601
30
0
41
1
10
-0.901177592378616
20
-6.13879101734139
30
0
41
1
10
-0.932473247849742
20
-6.08444613540038
30
0
41
1
10
-0.951537336733765
20
-6.0475612269523
30
0
41
1
10
-0.987232093239811
20
-5.97286244830227
30
0
41
1
10
-1.00384791181236
20
-5.93504366748635
30
0
41
1
10
-1.03525413522215
20
-5.85867400558868
30
0
41
1
10
-1.05003902511504
20
-5.82012130347704
30
0
41
1
10
-1.09222933922732
20
-5.70354894528973
30
0
41
1
10
-1.11750013847291
20
-5.62462479791714
30
0
41
1
10
-1.1641141016691
20
-5.46491938757291
30
0
41
1
10
-1.18536324259088
20
-5.38437609466149
30
0
41
1
10
-1.22475757478614
20
-5.22230941297437
30
0
41
1
10
-1.24290388240135
20
-5.14074733501747
30
0
41
1
10
-1.27674450029033
20
-4.97666000857456
30
0
41
1
10
-1.29243386166999
20
-4.89413370391597
30
0
41
1
10
-1.30710678118655
20
-4.8111517782514
30
0
0
SPLINE
5
145
100
AcDbEntity
8
SK1
62
256
6
ByLayer
370
18
48
1
60
0
100
AcDbSpline
70
4
71
3
72
40
73
36
40
0
40
0
40
0
40
0
40
0.125
40
0.125
40
0.1875
40
0.1875
40
0.25
40
0.25
40
0.3125
40
0.3125
40
0.34375
40
0.34375
40
0.359375
40
0.359375
40
0.375
40
0.375
40
0.4375
40
0.4375
40
0.5
40
0.5625
40
0.5625
40
0.625
40
0.625
40
0.656249999999999
40
0.671874999999999
40
0.671874999999999
40
0.687499999999999
40
0.687499999999999
40
0.749999999999999
40
0.749999999999999
40
0.812499999999999
40
0.812499999999999
40
0.874999999999999
40
0.874999999999999
40
1
40
1
40
1
40
1
41
1
10
-1.3071067811866
20
-4.81115177825131
30
0
41
1
10
-1.374622793295
20
-4.42931851789501
30
0
41
1
10
-1.43842306954178
20
-4.04321174825219
30
0
41
1
10
-1.52567448156807
20
-3.45651882726707
30
0
41
1
10
-1.5533368167803
20
-3.25969288493101
30
0
41
1
10
-1.60524340635007
20
-2.86327920729124
30
0
41
1
10
-1.629485287899
20
-2.66369063393995
30
0
41
1
10
-1.67384597566206
20
-2.26145078101035
30
0
41
1
10
-1.69395938565037
20
-2.05879746438532
30
0
41
1
10
-1.72047269473447
20
-1.75227000555529
30
0
41
1
10
-1.72870229322061
20
-1.64966999837915
30
0
41
1
10
-1.74006503391183
20
-1.4951017046248
30
0
41
1
10
-1.74368713518695
20
-1.44348814091276
30
0
41
1
10
-1.75057294247844
20
-1.340343237501
30
0
41
1
10
-1.75383938151629
20
-1.28877539719627
30
0
41
1
10
-1.76926982289669
20
-1.03095952328059
30
0
41
1
10
-1.77873477820947
20
-0.82478135977604
30
0
41
1
10
-1.79135312802683
20
-0.412582134739552
30
0
41
1
10
-1.79754609551321
20
-0.0005418097730683
30
0
41
1
10
-1.79137807494828
20
0.411189125581416
30
0
41
1
10
-1.77881369580271
20
0.822761881301432
30
0
41
1
10
-1.76938952483024
20
1.02847005779319
30
0
41
1
10
-1.75097190728465
20
1.33692150334681
30
0
41
1
10
-1.74069036277351
20
1.49111947898439
30
0
41
1
10
-1.72887208385961
20
1.64527687502962
30
0
41
1
10
-1.72065969674747
20
1.74803956652656
30
0
41
1
10
-1.71638790779505
20
1.79939862844844
30
0
41
1
10
-1.69427910225542
20
2.05547235697085
30
0
41
1
10
-1.67414509281366
20
2.25856982386534
30
0
41
1
10
-1.62973519898719
20
2.6615890156875
30
0
41
1
10
-1.60546482604906
20
2.86151288497595
30
0
41
1
10
-1.55350142719044
20
3.25850341404765
30
0
41
1
10
-1.52581080346147
20
3.4555709451387
30
0
41
1
10
-1.43848245106358
20
4.04286538655003
30
0
41
1
10
-1.37464191770107
20
4.42920989906065
30
0
41
1
10
-1.30710678118655
20
4.8111515693796
30
0
0
SPLINE
5
146
100
AcDbEntity
8
SK1
62
256
6
ByLayer
370
18
48
1
60
0
100
AcDbSpline
70
4
71
3
72
51
73
47
40
0
40
0
40
0
40
0
40
0.124999999999997
40
0.124999999999997
40
0.249999999999994
40
0.249999999999994
40
0.374999999999992
40
0.374999999999992
40
0.499999999999989
40
0.499999999999989
40
0.562499999999989
40
0.562499999999989
40
0.624999999999989
40
0.624999999999989
40
0.687499999999989
40
0.687499999999989
40
0.71874999999999
40
0.71874999999999
40
0.74999999999999
40
0.74999999999999
40
0.781249999999991
40
0.781249999999991
40
0.812499999999991
40
0.812499999999991
40
0.828124999999992
40
0.828124999999992
40
0.843749999999993
40
0.843749999999993
40
0.859374999999993
40
0.859374999999993
40
0.874999999999994
40
0.874999999999994
40
0.890624999999994
40
0.890624999999994
40
0.898437499999995
40
0.898437499999995
40
0.906249999999995
40
0.921874999999996
40
0.921874999999996
40
0.937499999999997
40
0.937499999999997
40
0.953124999999998
40
0.953124999999998
40
0.968749999999999
40
0.968749999999999
40
1
40
1
40
1
40
1
41
1
10
-1.30710678118655
20
4.81115156937966
30
0
41
1
10
-1.29241814186358
20
4.89422245258601
30
0
41
1
10
-1.27671142477865
20
4.97683362134603
30
0
41
1
10
-1.2428321325454
20
5.1410815354084
30
0
41
1
10
-1.22466451933835
20
5.22271935203617
30
0
41
1
10
-1.18522246232584
20
5.38492681950902
30
0
41
1
10
-1.1639578554223
20
5.46549802550047
30
0
41
1
10
-1.11725974479191
20
5.62540226977166
30
0
41
1
10
-1.09190951976353
20
5.70451929766091
30
0
41
1
10
-1.04959296411107
20
5.82130654980756
30
0
41
1
10
-1.03476146769921
20
5.85992972493543
30
0
41
1
10
-1.00324847625177
20
5.93643689983455
30
0
41
1
10
-0.986572619190127
20
5.97432275637723
30
0
41
1
10
-0.950735693127655
20
6.04915001273994
30
0
41
1
10
-0.931589886782064
20
6.08609644673811
30
0
41
1
10
-0.90014045687775
20
6.14052530360527
30
0
41
1
10
-0.889197260559286
20
6.15850150199267
30
0
41
1
10
-0.866130482320528
20
6.1940351189366
30
0
41
1
10
-0.854034688294348
20
6.21154523857419
30
0
41
1
10
-0.82861191461663
20
6.24559230293653
30
0
41
1
10
-0.815263156517972
20
6.26217184383674
30
0
41
1
10
-0.786839616984622
20
6.29414128632044
30
0
41
1
10
-0.771774774816237
20
6.30953788138899
30
0
41
1
10
-0.747287558608093
20
6.33134151096425
30
0
41
1
10
-0.738796592350639
20
6.33839390811318
30
0
41
1
10
-0.721309333004712
20
6.35173618101936
30
0
41
1
10
-0.712284737644694
20
6.35805370019304
30
0
41
1
10
-0.693552428201002
20
6.36983092851585
30
0
41
1
10
-0.6838456211714
20
6.37529177227788
30
0
41
1
10
-0.6635762300306
20
6.38514079164267
30
0
41
1
10
-0.652994271508675
20
6.38952126343978
30
0
41
1
10
-0.631442528804882
20
6.39670554026134
30
0
41
1
10
-0.620403474265572
20
6.39954770653125
30
0
41
1
10
-0.603385608753428
20
6.40250300130214
30
0
41
1
10
-0.597628364481892
20
6.40326750190812
30
0
41
1
10
-0.586181679144261
20
6.40431153762214
30
0
41
1
10
-0.569030850267808
20
6.40516730683922
30
0
41
1
10
-0.551937271601957
20
6.40390572644711
30
0
41
1
10
-0.529196261060889
20
6.4003572033352
30
0
41
1
10
-0.518168362769302
20
6.3976988542467
30
0
41
1
10
-0.496835484302608
20
6.39094564046627
30
0
41
1
10
-0.486501972755633
20
6.38684509374406
30
0
41
1
10
-0.466398416496645
20
6.37741702774107
30
0
41
1
10
-0.456587609313431
20
6.37205876567259
30
0
41
1
10
-0.428432689769124
20
6.35475565889095
30
0
41
1
10
-0.411169702827039
20
6.34154884003178
30
0
41
1
10
-0.394913799811292
20
6.32721828439901
30
0
0
SPLINE
5
147
100
AcDbEntity
8
SK1
62
256
6
ByLayer
370
13
48
1
60
0
100
AcDbSpline
70
4
71
3
72
49
73
45
40
0
40
0
40
0
40
0
40
0.0205798340780579
40
0.0487841360141337
40
0.0769884379502094
40
0.105192739886285
40
0.133397041822361
40
0.161601343758437
40
0.218009947630588
40
0.246214249566664
40
0.27441855150274
40
0.302622853438816
40
0.330827155374891
40
0.359031457310967
40
0.387235759247043
40
0.415440061183118
40
0.429542212151157
40
0.443644363119194
40
0.457746514087232
40
0.47184866505527
40
0.485950816023308
40
0.493001891507327
40
0.500052966991346
40
0.507104042475365
40
0.514155117959384
40
0.528257268927422
40
0.54235941989546
40
0.556461570863497
40
0.570563721831535
40
0.584665872799573
40
0.612870174735649
40
0.641074476671725
40
0.6692787786078
40
0.697483080543876
40
0.725687382479952
40
0.753891684416028
40
0.782095986352104
40
0.838504590224255
40
0.866708892160331
40
0.894913194096407
40
0.923117496032482
40
0.951321797968558
40
0.979526099904634
40
1
40
1
40
1
40
1
41
1
10
-1.99503997793928
20
21.8252862835666
30
0
41
1
10
-1.99503997793928
20
21.8253747204702
30
0
41
1
10
-1.99503997793928
20
21.7812222876618
30
0
41
1
10
-1.99503997793928
20
21.5622163798915
30
0
41
1
10
-1.99503997793928
20
21.1516903613971
30
0
41
1
10
-1.99503997793928
20
20.5863484011186
30
0
41
1
10
-1.99503997793928
20
19.8770917100388
30
0
41
1
10
-1.99503997793928
20
18.7508482253859
30
0
41
1
10
-1.99503997793928
20
17.370463645283
30
0
41
1
10
-1.99503997793928
20
15.7524717843982
30
0
41
1
10
-1.99503997793928
20
14.4250895103889
30
0
41
1
10
-1.99503997793928
20
12.9858310385527
30
0
41
1
10
-1.99503997793928
20
11.4370504129058
30
0
41
1
10
-1.99503997793928
20
9.7806713457135
30
0
41
1
10
-1.99503997793928
20
8.01821749841287
30
0
41
1
10
-1.99503997793928
20
6.46319592062625
30
0
41
1
10
-1.99503997793928
20
5.16749921349111
30
0
41
1
10
-1.99503997793928
20
4.17226658860133
30
0
41
1
10
-1.99503997793928
20
3.15436853749512
30
0
41
1
10
-1.99503997793928
20
2.11640245296422
30
0
41
1
10
-1.99503997793928
20
1.23881043770962
30
0
41
1
10
-1.99503997793928
20
0.53126937109505
30
0
41
1
10
-1.99503997793928
20
-7.43625606E-08
30
0
41
1
10
-1.99503997793928
20
-0.53126948289281
30
0
41
1
10
-1.99503997793928
20
-1.23881045451824
30
0
41
1
10
-1.99503997793928
20
-2.11640247274798
30
0
41
1
10
-1.99503997793928
20
-3.15436880408234
30
0
41
1
10
-1.99503997793928
20
-4.17226659327741
30
0
41
1
10
-1.99503997793928
20
-5.16749918372616
30
0
41
1
10
-1.99503997793928
20
-6.46319635117558
30
0
41
1
10
-1.99503997793928
20
-8.01821733349291
30
0
41
1
10
-1.99503997793928
20
-9.78067154978808
30
0
41
1
10
-1.99503997793928
20
-11.4370507512064
30
0
41
1
10
-1.99503997793928
20
-12.985830725026
30
0
41
1
10
-1.99503997793928
20
-14.4250897201646
30
0
41
1
10
-1.99503997793928
20
-15.752471971849
30
0
41
1
10
-1.99503997793928
20
-17.370463175446
30
0
41
1
10
-1.99503997793928
20
-18.7508484467722
30
0
41
1
10
-1.99503997793928
20
-19.8770915138249
30
0
41
1
10
-1.99503997793928
20
-20.5863476884834
30
0
41
1
10
-1.99503997793928
20
-21.1516905297668
30
0
41
1
10
-1.99503997793928
20
-21.5622159608078
30
0
41
1
10
-1.99503997793928
20
-21.7809202357389
30
0
41
1
10
-1.99503997793928
20
-21.8251824019403
30
0
41
1
10
-1.99503997793931
20
-21.8252860894031
30
0
0
SPLINE
5
148
100
AcDbEntity
8
SK1
62
256
6
ByLayer
370
18
48
1
60
0
100
AcDbSpline
70
4
71
3
72
49
73
45
40
0
40
0
40
0
40
0
40
0.0137022965620614
40
0.0423080567760183
40
0.0709138169899752
40
0.0995195772039321
40
0.128125337417889
40
0.156731097631846
40
0.21394261805976
40
0.242548378273717
40
0.271154138487673
40
0.29975989870163
40
0.328365658915587
40
0.356971419129544
40
0.385577179343501
40
0.414182939557458
40
0.428485819664436
40
0.442788699771415
40
0.457091579878393
40
0.471394459985372
40
0.48569734009235
40
0.492848780145839
40
0.500000220199329
40
0.507151660252818
40
0.514303100306307
40
0.528605980413286
40
0.542908860520264
40
0.557211740627242
40
0.571514620734221
40
0.585817500841199
40
0.614423261055156
40
0.643029021269113
40
0.67163478148307
40
0.700240541697027
40
0.728846301910984
40
0.757452062124941
40
0.786057822338898
40
0.843269342766811
40
0.871875102980768
40
0.900480863194725
40
0.929086623408682
40
0.957692383622639
40
0.986298143836596
40
1
40
1
40
1
40
1
41
1
10
-2.19999999999999
20
22.0136324884006
30
0
41
1
10
-2.19999999999999
20
22.0053278687268
30
0
41
1
10
-2.19999999999999
20
21.9554446821226
30
0
41
1
10
-2.19999999999999
20
21.7550273348429
30
0
41
1
10
-2.19999999999999
20
21.3416331895302
30
0
41
1
10
-2.19999999999999
20
20.7725964921017
30
0
41
1
10
-2.19999999999999
20
20.0589164660072
30
0
41
1
10
-2.19999999999999
20
18.9263265026412
30
0
41
1
10
-2.19999999999999
20
17.5367471514895
30
0
41
1
10
-2.19999999999999
20
15.9097476492909
30
0
41
1
10
-2.19999999999999
20
14.574283866752
30
0
41
1
10
-2.19999999999999
20
13.1259221492871
30
0
41
1
10
-2.19999999999999
20
11.5668144415121
30
0
41
1
10
-2.19999999999999
20
9.89853979541101
30
0
41
1
10
-2.19999999999999
20
8.12208991237512
30
0
41
1
10
-2.19999999999999
20
6.55235618011341
30
0
41
1
10
-2.19999999999999
20
5.24422924769223
30
0
41
1
10
-2.19999999999999
20
4.23755215854527
30
0
41
1
10
-2.19999999999999
20
3.20644349821168
30
0
41
1
10
-2.19999999999999
20
2.15314020845372
30
0
41
1
10
-2.19999999999999
20
1.26034245765445
30
0
41
1
10
-2.19999999999999
20
0.540965319759152
30
0
41
1
10
-2.19999999999999
20
-2.64082871E-08
30
0
41
1
10
-2.19999999999999
20
-0.540965390862539
30
0
41
1
10
-2.19999999999999
20
-1.26034253962158
30
0
41
1
10
-2.19999999999999
20
-2.15314018801405
30
0
41
1
10
-2.19999999999999
20
-3.20644372216569
30
0
41
1
10
-2.19999999999999
20
-4.2375522406841
30
0
41
1
10
-2.19999999999999
20
-5.24422917335971
30
0
41
1
10
-2.19999999999999
20
-6.55235660022589
30
0
41
1
10
-2.19999999999999
20
-8.12208977576526
30
0
41
1
10
-2.19999999999999
20
-9.89853996914991
30
0
41
1
10
-2.19999999999999
20
-11.5668148046225
30
0
41
1
10
-2.19999999999999
20
-13.1259218425112
30
0
41
1
10
-2.19999999999999
20
-14.5742840575192
30
0
41
1
10
-2.19999999999999
20
-15.9097478536278
30
0
41
1
10
-2.19999999999999
20
-17.5367466797246
30
0
41
1
10
-2.19999999999999
20
-18.9263267207688
30
0
41
1
10
-2.19999999999999
20
-20.0589162847047
30
0
41
1
10
-2.19999999999999
20
-20.7725957724454
30
0
41
1
10
-2.19999999999999
20
-21.3416333570605
30
0
41
1
10
-2.19999999999999
20
-21.7550269215783
30
0
41
1
10
-2.19999999999999
20
-21.955442753748
30
0
41
1
10
-2.19999999999999
20
-22.0053265577265
30
0
41
1
10
-2.19999999999999
20
-22.0136315109434
30
0
0
SPLINE
5
149
100
AcDbEntity
8
SK1
62
256
6
ByLayer
370
18
48
1
60
0
100
AcDbSpline
70
4
71
3
72
49
73
45
40
0
40
0
40
0
40
0
40
0.0270951377225328
40
0.0549130712945249
40
0.0827310048665169
40
0.110548938438509
40
0.138366872010501
40
0.166184805582493
40
0.221820672726477
40
0.249638606298469
40
0.277456539870461
40
0.305274473442453
40
0.333092407014445
40
0.360910340586437
40
0.388728274158429
40
0.416546207730421
40
0.430455174516418
40
0.444364141302413
40
0.458273108088409
40
0.472182074874406
40
0.486091041660402
40
0.4930455250534
40
0.500000008446398
40
0.506954491839396
40
0.513908975232394
40
0.52781794201839
40
0.541726908804386
40
0.555635875590382
40
0.569544842376378
40
0.583453809162374
40
0.611271742734366
40
0.639089676306358
40
0.66690760987835
40
0.694725543450342
40
0.722543477022334
40
0.750361410594326
40
0.778179344166318
40
0.833815211310302
40
0.861633144882294
40
0.889451078454286
40
0.917269012026278
40
0.94508694559827
40
0.972904879170262
40
1
40
1
40
1
40
1
41
1
10
-36.5
20
21.1524098873456
30
0
41
1
10
-36.5
20
21.1690105061408
30
0
41
1
10
-36.5
20
21.1349494888368
30
0
41
1
10
-36.5
20
20.9025888554179
30
0
41
1
10
-36.5
20
20.5018750148337
30
0
41
1
10
-36.5
20
19.9491731575018
30
0
41
1
10
-36.5
20
19.2550491829544
30
0
41
1
10
-36.5
20
18.1505177013548
30
0
41
1
10
-36.5
20
16.8015894462653
30
0
41
1
10
-36.5
20
15.2144137189484
30
0
41
1
10
-36.5
20
13.9146791761936
30
0
41
1
10
-36.5
20
12.5065639108223
30
0
41
1
10
-36.5
20
10.9931133711701
30
0
41
1
10
-36.5
20
9.37743039030653
30
0
41
1
10
-36.5
20
7.6628585236061
30
0
41
1
10
-36.5
20
6.15816884754437
30
0
41
1
10
-36.5
20
4.90499731091177
30
0
41
1
10
-36.5
20
3.94891745941501
30
0
41
1
10
-36.5
20
2.97621435827227
30
0
41
1
10
-36.5
20
1.99071854296869
30
0
41
1
10
-36.5
20
1.16514702467006
30
0
41
1
10
-36.5
20
0.498098462230814
30
0
41
1
10
-36.5
20
-2.384194602E-07
30
0
41
1
10
-36.5
20
-0.498098713248481
30
0
41
1
10
-36.5
20
-1.16514681856438
30
0
41
1
10
-36.5
20
-1.99071870036124
30
0
41
1
10
-36.5
20
-2.97621477071243
30
0
41
1
10
-36.5
20
-3.94891719908253
30
0
41
1
10
-36.5
20
-4.9049974336175
30
0
41
1
10
-36.5
20
-6.15816931379931
30
0
41
1
10
-36.5
20
-7.6628582618342
30
0
41
1
10
-36.5
20
-9.37743069816284
30
0
41
1
10
-36.5
20
-10.9931136245939
30
0
41
1
10
-36.5
20
-12.5065635742002
30
0
41
1
10
-36.5
20
-13.9146794509994
30
0
41
1
10
-36.5
20
-15.2144138486304
30
0
41
1
10
-36.5
20
-16.8015889830236
30
0
41
1
10
-36.5
20
-18.1505179338898
30
0
41
1
10
-36.5
20
-19.2550489357272
30
0
41
1
10
-36.5
20
-19.9491724688865
30
0
41
1
10
-36.5
20
-20.5018751860753
30
0
41
1
10
-36.5
20
-20.9025884164263
30
0
41
1
10
-36.5
20
-21.1349487294735
30
0
41
1
10
-36.5
20
-21.1690105419118
30
0
41
1
10
-36.5
20
-21.1524098100153
30
0
0
SPLINE
5
14A
100
AcDbEntity
8
1
62
256
6
ByLayer
370
18
48
1
60
0
100
AcDbSpline
70
4
71
2
72
6
73
3
40
0
40
0
40
0
40
1
40
1
40
1
41
1.03186391735993
10
69.9999899980506
20
-44.8031513524259
30
0
41
0.729637973226922
10
69.9999899980506
20
-45.0031513524259
30
0
41
1.03186391735993
10
69.7999899980506
20
-45.0031513524259
30
0
0
SPLINE
5
14B
100
AcDbEntity
8
1
62
256
6
ByLayer
370
18
48
1
60
0
100
AcDbSpline
70
4
71
2
72
6
73
3
40
0
40
0
40
0
40
1
40
1
40
1
41
1.03186391735993
10
69.7999899980506
20
-41.9968486475742
30
0
41
0.729637973226922
10
69.9999899980506
20
-41.9968486475742
30
0
41
1.03186391735993
10
69.9999899980506
20
-42.1968486475742
30
0
0
SPLINE
5
14C
100
AcDbEntity
8
1
62
256
6
ByLayer
370
18
48
1
60
0
100
AcDbSpline
70
4
71
2
72
6
73
3
40
0
40
0
40
0
40
1
40
1
40
1
41
1.03186391735993
10
69.7999899980506
20
-45.0031513524259
30
0
41
1.03138264657361
10
69.6777789448562
20
-45.0031513524259
30
0
41
1.03186391735993
10
69.5557958399112
20
-44.9956905461134
30
0
0
SPLINE
5
14D
100
AcDbEntity
8
1
62
256
6
ByLayer
370
18
48
1
60
0
100
AcDbSpline
70
4
71
2
72
6
73
3
40
0
40
0
40
0
40
1
40
1
40
1
41
1.03186391735993
10
69.5557958399112
20
-42.0043094538867
30
0
41
1.03138264657361
10
69.6777789448562
20
-41.9968486475742
30
0
41
1.03186391735993
10
69.7999899980506
20
-41.9968486475742
30
0
0
SPLINE
5
14E
100
AcDbEntity
8
1
62
256
6
ByLayer
370
18
48
1
60
0
100
AcDbSpline
70
4
71
2
72
6
73
3
40
0
40
0
40
0
40
1
40
1
40
1
41
1.03186391735993
10
50.4442041600888
20
-42.0043094538867
30
0
41
1.03138264657361
10
50.3222210551437
20
-41.9968486475742
30
0
41
1.03186391735993
10
50.2000100019494
20
-41.9968486475742
30
0
0
SPLINE
5
14F
100
AcDbEntity
8
1
62
256
6
ByLayer
370
18
48
1
60
0
100
AcDbSpline
70
4
71
2
72
6
73
3
40
0
40
0
40
0
40
1
40
1
40
1
41
1.03186391735993
10
50.2000100019494
20
-41.9968486475742
30
0
41
0.729637973226922
10
50.0000100019494
20
-41.9968486475742
30
0
41
1.03186391735993
10
50.0000100019493
20
-42.1968486475742
30
0
0
SPLINE
5
150
100
AcDbEntity
8
1
62
256
6
ByLayer
370
18
48
1
60
0
100
AcDbSpline
70
4
71
2
72
6
73
3
40
0
40
0
40
0
40
1
40
1
40
1
41
1.03186391735993
10
50.0000100019494
20
-44.8031513524259
30
0
41
0.729637973226922
10
50.0000100019494
20
-45.0031513524259
30
0
41
1.03186391735993
10
50.2000100019494
20
-45.0031513524259
30
0
0
SPLINE
5
151
100
AcDbEntity
8
1
62
256
6
ByLayer
370
18
48
1
60
0
100
AcDbSpline
70
4
71
2
72
6
73
3
40
0
40
0
40
0
40
1
40
1
40
1
41
1.03186391735993
10
50.2000100019494
20
-45.0031513524259
30
0
41
1.03138264657361
10
50.3222210551437
20
-45.0031513524259
30
0
41
1.03186391735993
10
50.4442041600888
20
-44.9956905461134
30
0
0
SPLINE
5
152
100
AcDbEntity
8
1
62
256
6
ByLayer
370
18
48
1
60
0
100
AcDbSpline
70
4
71
3
72
8
73
4
40
0
40
0
40
0
40
0
40
1
40
1
40
1
40
1
41
1
10
52.541266989223
20
-44.9245614617607
30
0
41
1
10
52.5544387873141
20
-44.9240004053875
30
0
41
1
10
52.5675351982697
20
-44.9220991357972
30
0
41
1
10
52.5803305836088
20
-44.918874975218
30
0
0
SPLINE
5
153
100
AcDbEntity
8
1
62
256
6
ByLayer
370
18
48
1
60
0
100
AcDbSpline
70
4
71
3
72
8
73
4
40
0
40
0
40
0
40
0
40
1
40
1
40
1
40
1
41
1
10
52.5803305836063
20
-42.0811250247815
30
0
41
1
10
52.5675351840277
20
-42.0779008606145
30
0
41
1
10
52.5544388017949
20
-42.0759995952292
30
0
41
1
10
52.541266989216
20
-42.0754385382391
30
0
0
SPLINE
5
154
100
AcDbEntity
8
1
62
256
6
ByLayer
370
18
48
1
60
0
100
AcDbSpline
70
4
71
3
72
8
73
4
40
0
40
0
40
0
40
0
40
1
40
1
40
1
40
1
41
1
10
67.4196694163912
20
-42.081125024782
30
0
41
1
10
67.432464869562
20
-42.0779008471107
30
0
41
1
10
67.4455611420818
20
-42.0759995976199
30
0
41
1
10
67.458733010777
20
-42.0754385382393
30
0
0
SPLINE
5
155
100
AcDbEntity
8
1
62
256
6
ByLayer
370
18
48
1
60
0
100
AcDbSpline
70
4
71
3
72
8
73
4
40
0
40
0
40
0
40
0
40
1
40
1
40
1
40
1
41
1
10
67.458733010784
20
-44.924561461761
30
0
41
1
10
67.4455611270319
20
-44.9240004017392
30
0
41
1
10
67.4324648843562
20
-44.9220991566169
30
0
41
1
10
67.4196694163936
20
-44.9188749752186
30
0
0
LINE
5
7D
100
AcDbEntity
8
1
62
256
6
ByLayer
370
18
48
1
60
0
100
AcDbLine
10
0
20
-31.2
30
0
11
0.3
21
-31.5
31
0
39
0
210
0
220
0
230
1
0
LINE
5
7E
100
AcDbEntity
8
1
62
256
6
ByLayer
370
18
48
1
60
0
100
AcDbLine
10
0.3
20
31.5
30
0
11
0
21
31.2
31
0
39
0
210
0
220
0
230
1
0
LINE
5
7F
100
AcDbEntity
8
1
62
256
6
ByLayer
370
18
48
1
60
0
100
AcDbLine
10
22
20
31.5
30
0
11
0.3
21
31.5
31
0
39
0
210
0
220
0
230
1
0
LINE
5
80
100
AcDbEntity
8
1
62
256
6
ByLayer
370
18
48
1
60
0
100
AcDbLine
10
0.3
20
-31.5
30
0
11
22.279208
21
-31.5
31
0
39
0
210
0
220
0
230
1
0
LINE
5
81
100
AcDbEntity
8
80
62
256
6
ByLayer
370
18
48
1
60
0
100
AcDbLine
10
0
20
0
30
0
11
-5
21
0
31
0
39
0
210
0
220
0
230
1
0
LINE
5
82
100
AcDbEntity
8
81
62
256
6
ByLayer
370
18
48
1
60
0
100
AcDbLine
10
70
20
-45
30
0
11
75
21
-45
31
0
39
0
210
0
220
0
230
1
0
LINE
5
83
100
AcDbEntity
8
1
62
256
6
ByLayer
370
18
48
1
60
0
100
AcDbLine
10
63.897124
20
-44.675
30
0
11
63.348584
21
-44.675
31
0
39
0
210
0
220
0
230
1
0
LINE
5
84
100
AcDbEntity
8
1
62
256
6
ByLayer
370
18
48
1
60
0
100
AcDbLine
10
63.897124
20
-42.325
30
0
11
63.348584
21
-42.325
31
0
39
0
210
0
220
0
230
1
0
LINE
5
85
100
AcDbEntity
8
1
62
256
6
ByLayer
370
18
48
1
60
0
100
AcDbLine
10
64.81552
20
-44.675
30
0
11
63.897124
21
-44.675
31
0
39
0
210
0
220
0
230
1
0
LINE
5
86
100
AcDbEntity
8
1
62
256
6
ByLayer
370
18
48
1
60
0
100
AcDbLine
10
63.897124
20
-44.675
30
0
11
63.896886
21
-44.649996
31
0
39
0
210
0
220
0
230
1
0
LINE
5
87
100
AcDbEntity
8
1
62
256
6
ByLayer
370
18
48
1
60
0
100
AcDbLine
10
66.450863
20
-44.675
30
0
11
64.81552
21
-44.675
31
0
39
0
210
0
220
0
230
1
0
LINE
5
88
100
AcDbEntity
8
1
62
256
6
ByLayer
370
18
48
1
60
0
100
AcDbLine
10
64.81552
20
-44.675
30
0
11
64.815283
21
-44.649996
31
0
39
0
210
0
220
0
230
1
0
LINE
5
89
100
AcDbEntity
8
1
62
256
6
ByLayer
370
18
48
1
60
0
100
AcDbLine
10
64.81552
20
-42.325
30
0
11
63.897124
21
-42.325
31
0
39
0
210
0
220
0
230
1
0
LINE
5
8A
100
AcDbEntity
8
1
62
256
6
ByLayer
370
18
48
1
60
0
100
AcDbLine
10
63.896886
20
-42.350004
30
0
11
63.897124
21
-42.325
31
0
39
0
210
0
220
0
230
1
0
LINE
5
8B
100
AcDbEntity
8
1
62
256
6
ByLayer
370
18
48
1
60
0
100
AcDbLine
10
66.450863
20
-42.325
30
0
11
64.81552
21
-42.325
31
0
39
0
210
0
220
0
230
1
0
LINE
5
8C
100
AcDbEntity
8
1
62
256
6
ByLayer
370
18
48
1
60
0
100
AcDbLine
10
64.815283
20
-42.350004
30
0
11
64.81552
21
-42.325
31
0
39
0
210
0
220
0
230
1
0
LINE
5
8D
100
AcDbEntity
8
1
62
256
6
ByLayer
370
18
48
1
60
0
100
AcDbLine
10
28.6
20
-44.675
30
0
11
26.773456
21
-44.675
31
0
39
0
210
0
220
0
230
1
0
LINE
5
8E
100
AcDbEntity
8
1
62
256
6
ByLayer
370
13
48
1
60
0
100
AcDbLine
10
28.6
20
-32.65
30
0
11
23.567195
21
-32.65
31
0
39
0
210
0
220
0
230
1
0
LINE
5
8F
100
AcDbEntity
8
1
62
256
6
ByLayer
370
18
48
1
60
0
100
AcDbLine
10
32.293237
20
-44.675
30
0
11
28.6
21
-44.675
31
0
39
0
210
0
220
0
230
1
0
LINE
5
90
100
AcDbEntity
8
1
62
256
6
ByLayer
370
13
48
1
60
0
100
AcDbLine
10
28.6
20
-44.675
30
0
11
28.6
21
-32.65
31
0
39
0
210
0
220
0
230
1
0
LINE
5
91
100
AcDbEntity
8
1
62
256
6
ByLayer
370
13
48
1
60
0
100
AcDbLine
10
28.6
20
-31.65
30
0
11
28.6
21
-32.65
31
0
39
0
210
0
220
0
230
1
0
LINE
5
92
100
AcDbEntity
8
1
62
256
6
ByLayer
370
13
48
1
60
0
100
AcDbLine
10
32.293237
20
-32.65
30
0
11
28.6
21
-32.65
31
0
39
0
210
0
220
0
230
1
0
LINE
5
93
100
AcDbEntity
8
1
62
256
6
ByLayer
370
18
48
1
60
0
100
AcDbLine
10
32.293237
20
-44.675
30
0
11
32.293237
21
-32.65
31
0
39
0
210
0
220
0
230
1
0
LINE
5
94
100
AcDbEntity
8
1
62
256
6
ByLayer
370
18
48
1
60
0
100
AcDbLine
10
32.293237
20
-44.675
30
0
11
32.679322
21
-44.675
31
0
39
0
210
0
220
0
230
1
0
LINE
5
95
100
AcDbEntity
8
1
62
256
6
ByLayer
370
18
48
1
60
0
100
AcDbLine
10
32.8
20
-44.675
30
0
11
32.679216
21
-44.675
31
0
39
0
210
0
220
0
230
1
0
LINE
5
96
100
AcDbEntity
8
1
62
256
6
ByLayer
370
18
48
1
60
0
100
AcDbLine
10
32.679216
20
-32.65
30
0
11
32.679216
21
-44.675
31
0
39
0
210
0
220
0
230
1
0
LINE
5
97
100
AcDbEntity
8
1
62
256
6
ByLayer
370
13
48
1
60
0
100
AcDbLine
10
32.8
20
-32.65
30
0
11
32.679216
21
-32.65
31
0
39
0
210
0
220
0
230
1
0
LINE
5
98
100
AcDbEntity
8
1
62
256
6
ByLayer
370
18
48
1
60
0
100
AcDbLine
10
60.25
20
-44.675
30
0
11
63.348671
21
-44.675
31
0
39
0
210
0
220
0
230
1
0
LINE
5
99
100
AcDbEntity
8
1
62
256
6
ByLayer
370
18
48
1
60
0
100
AcDbLine
10
60.25
20
-42.325
30
0
11
63.348671
21
-42.325
31
0
39
0
210
0
220
0
230
1
0
LINE
5
9A
100
AcDbEntity
8
1
62
256
6
ByLayer
370
18
48
1
60
0
100
AcDbLine
10
63.75
20
-43.451181
30
0
11
63.75
21
-43.548819
31
0
39
0
210
0
220
0
230
1
0
LINE
5
9B
100
AcDbEntity
8
1
62
256
6
ByLayer
370
18
48
1
60
0
100
AcDbLine
10
29.799843
20
-31.65
30
0
11
28.800157
21
-31.65
31
0
39
0
210
0
220
0
230
1
0
LINE
5
9C
100
AcDbEntity
8
1
62
256
6
ByLayer
370
18
48
1
60
0
100
AcDbLine
10
29.799843
20
14.25
30
0
11
28.800157
21
14.25
31
0
39
0
210
0
220
0
230
1
0
LINE
5
9D
100
AcDbEntity
8
1
62
256
6
ByLayer
370
18
48
1
60
0
100
AcDbLine
10
49.681705
20
-44.675
30
0
11
60.25
21
-44.675
31
0
39
0
210
0
220
0
230
1
0
LINE
5
9E
100
AcDbEntity
8
1
62
256
6
ByLayer
370
18
48
1
60
0
100
AcDbLine
10
60.25
20
-42.325
30
0
11
60.25
21
-44.675
31
0
39
0
210
0
220
0
230
1
0
LINE
5
9F
100
AcDbEntity
8
1
62
256
6
ByLayer
370
18
48
1
60
0
100
AcDbLine
10
50
20
-42.325
30
0
11
60.25
21
-42.325
31
0
39
0
210
0
220
0
230
1
0
LINE
5
A0
100
AcDbEntity
8
1
62
256
6
ByLayer
370
13
48
1
60
0
100
AcDbLine
10
50
20
-42.325
30
0
11
49.681705
21
-42.325
31
0
39
0
210
0
220
0
230
1
0
LINE
5
A1
100
AcDbEntity
8
1
62
256
6
ByLayer
370
18
48
1
60
0
100
AcDbLine
10
31.8
20
-31.65
30
0
11
29.8
21
-31.65
31
0
39
0
210
0
220
0
230
1
0
LINE
5
A2
100
AcDbEntity
8
1
62
256
6
ByLayer
370
18
48
1
60
0
100
AcDbLine
10
29.8
20
14.25
30
0
11
39.3
21
14.25
31
0
39
0
210
0
220
0
230
1
0
LINE
5
A3
100
AcDbEntity
8
1
62
256
6
ByLayer
370
18
48
1
60
0
100
AcDbLine
10
32.8
20
-44.675
30
0
11
49.681705
21
-44.675
31
0
39
0
210
0
220
0
230
1
0
LINE
5
A4
100
AcDbEntity
8
1
62
256
6
ByLayer
370
18
48
1
60
0
100
AcDbLine
10
29.8
20
-31.65
30
0
11
29.8
21
14.25
31
0
39
0
210
0
220
0
230
1
0
LINE
5
A5
100
AcDbEntity
8
1
62
256
6
ByLayer
370
18
48
1
60
0
100
AcDbLine
10
32.8
20
-44.675
30
0
11
32.8
21
-32.65
31
0
39
0
210
0
220
0
230
1
0
LINE
5
A6
100
AcDbEntity
8
1
62
256
6
ByLayer
370
18
48
1
60
0
100
AcDbLine
10
49.681705
20
-44.675
30
0
11
49.681705
21
-42.325
31
0
39
0
210
0
220
0
230
1
0
LINE
5
A7
100
AcDbEntity
8
1
62
256
6
ByLayer
370
18
48
1
60
0
100
AcDbLine
10
48.4
20
-33.65
30
0
11
48.4
21
-40.725
31
0
39
0
210
0
220
0
230
1
0
LINE
5
A8
100
AcDbEntity
8
1
62
256
6
ByLayer
370
18
48
1
60
0
100
AcDbLine
10
48.4
20
-33.65
30
0
11
39.3
21
14.25
31
0
39
0
210
0
220
0
230
1
0
LINE
5
A9
100
AcDbEntity
8
1
62
256
6
ByLayer
370
18
48
1
60
0
100
AcDbLine
10
28.8
20
-31.65
30
0
11
26.131928
21
-31.65
31
0
39
0
210
0
220
0
230
1
0
LINE
5
AA
100
AcDbEntity
8
1
62
256
6
ByLayer
370
18
48
1
60
0
100
AcDbLine
10
26.131928
20
14.25
30
0
11
28.8
21
14.25
31
0
39
0
210
0
220
0
230
1
0
LINE
5
AB
100
AcDbEntity
8
1
62
256
6
ByLayer
370
18
48
1
60
0
100
AcDbLine
10
28.8
20
14.25
30
0
11
28.8
21
-31.65
31
0
39
0
210
0
220
0
230
1
0
LINE
5
AC
100
AcDbEntity
8
1
62
256
6
ByLayer
370
13
48
1
60
0
100
AcDbLine
10
23.438319
20
-29.467998
30
0
11
23.438319
21
-31.65
31
0
39
0
210
0
220
0
230
1
0
LINE
5
AD
100
AcDbEntity
8
1
62
256
6
ByLayer
370
13
48
1
60
0
100
AcDbLine
10
26.131928
20
14.25
30
0
11
26.131928
21
-31.65
31
0
39
0
210
0
220
0
230
1
0
LINE
5
AE
100
AcDbEntity
8
1
62
256
6
ByLayer
370
18
48
1
60
0
100
AcDbLine
10
26.131928
20
14.25
30
0
11
26.115783
21
14.25
31
0
39
0
210
0
220
0
230
1
0
LINE
5
AF
100
AcDbEntity
8
1
62
256
6
ByLayer
370
18
48
1
60
0
100
AcDbLine
10
23.93364
20
-31.65
30
0
11
26.131928
21
-31.65
31
0
39
0
210
0
220
0
230
1
0
LINE
5
B0
100
AcDbEntity
8
1
62
256
6
ByLayer
370
13
48
1
60
0
100
AcDbLine
10
10.105662
20
-9.869413
30
0
11
10.105662
21
-29.913955
31
0
39
0
210
0
220
0
230
1
0
LINE
5
B1
100
AcDbEntity
8
1
62
256
6
ByLayer
370
13
48
1
60
0
100
AcDbLine
10
10.538675
20
-9.349221
30
0
11
10.538675
21
-30.080593
31
0
39
0
210
0
220
0
230
1
0
LINE
5
B2
100
AcDbEntity
8
1
62
256
6
ByLayer
370
13
48
1
60
0
100
AcDbLine
10
13.461325
20
30.080593
30
0
11
13.461325
21
9.349221
31
0
39
0
210
0
220
0
230
1
0
LINE
5
B3
100
AcDbEntity
8
1
62
256
6
ByLayer
370
13
48
1
60
0
100
AcDbLine
10
13.894338
20
29.913955
30
0
11
13.894338
21
9.869413
31
0
39
0
210
0
220
0
230
1
0
LINE
5
B4
100
AcDbEntity
8
1
62
256
6
ByLayer
370
13
48
1
60
0
100
AcDbLine
10
10.105662
20
29.913955
30
0
11
10.105662
21
9.869413
31
0
39
0
210
0
220
0
230
1
0
LINE
5
B5
100
AcDbEntity
8
1
62
256
6
ByLayer
370
13
48
1
60
0
100
AcDbLine
10
10.538675
20
30.080593
30
0
11
10.538675
21
9.349221
31
0
39
0
210
0
220
0
230
1
0
LINE
5
B6
100
AcDbEntity
8
1
62
256
6
ByLayer
370
13
48
1
60
0
100
AcDbLine
10
13.461325
20
-9.349221
30
0
11
13.461325
21
-30.080593
31
0
39
0
210
0
220
0
230
1
0
LINE
5
B7
100
AcDbEntity
8
1
62
256
6
ByLayer
370
13
48
1
60
0
100
AcDbLine
10
13.894338
20
-9.869413
30
0
11
13.894338
21
-29.913955
31
0
39
0
210
0
220
0
230
1
0
LINE
5
B8
100
AcDbEntity
8
1
62
256
6
ByLayer
370
18
48
1
60
0
100
AcDbLine
10
0
20
31.2
30
0
11
0
21
-31.2
31
0
39
0
210
0
220
0
230
1
0
LINE
5
B9
100
AcDbEntity
8
1
62
256
6
ByLayer
370
18
48
1
60
0
100
AcDbLine
10
0.3
20
31.5
30
0
11
0.3
21
-31.5
31
0
39
0
210
0
220
0
230
1
0
LINE
5
BA
100
AcDbEntity
8
1
62
256
6
ByLayer
370
18
48
1
60
0
100
AcDbLine
10
13.461325
20
-30.080593
30
0
11
10.538675
21
-30.080593
31
0
39
0
210
0
220
0
230
1
0
LINE
5
BB
100
AcDbEntity
8
1
62
256
6
ByLayer
370
18
48
1
60
0
100
AcDbLine
10
10.538675
20
-9.349221
30
0
11
13.461325
21
-9.349221
31
0
39
0
210
0
220
0
230
1
0
LINE
5
BC
100
AcDbEntity
8
1
62
256
6
ByLayer
370
18
48
1
60
0
100
AcDbLine
10
10.538675
20
30.080593
30
0
11
13.461325
21
30.080593
31
0
39
0
210
0
220
0
230
1
0
LINE
5
BD
100
AcDbEntity
8
1
62
256
6
ByLayer
370
18
48
1
60
0
100
AcDbLine
10
13.461325
20
9.349221
30
0
11
10.538675
21
9.349221
31
0
39
0
210
0
220
0
230
1
0
LINE
5
BE
100
AcDbEntity
8
1
62
256
6
ByLayer
370
18
48
1
60
0
100
AcDbLine
10
22
20
31.5
30
0
11
22.080515
21
22.273864
31
0
39
0
210
0
220
0
230
1
0
LINE
5
BF
100
AcDbEntity
8
1
62
256
6
ByLayer
370
13
48
1
60
0
100
AcDbLine
10
22.279208
20
-31.5
30
0
11
22.279208
21
-27.521037
31
0
39
0
210
0
220
0
230
1
0
LINE
5
C0
100
AcDbEntity
8
1
62
256
6
ByLayer
370
18
48
1
60
0
100
AcDbLine
10
22.080515
20
22.273864
30
0
11
22.115936
21
18.215094
31
0
39
0
210
0
220
0
230
1
0
LINE
5
C1
100
AcDbEntity
8
1
62
256
6
ByLayer
370
13
48
1
60
0
100
AcDbLine
10
22.13208
20
-26.915306
30
0
11
22.13208
21
17.889292
31
0
39
0
210
0
220
0
230
1
0
LINE
5
C2
100
AcDbEntity
8
SK1
62
256
6
ByLayer
370
18
48
1
60
0
100
AcDbLine
10
-0.2
20
-22.533485
30
0
11
-0.2
21
-7.034161
31
0
39
0
210
0
220
0
230
1
0
LINE
5
C4
100
AcDbEntity
8
SK1
62
256
6
ByLayer
370
18
48
1
60
0
100
AcDbLine
10
-0.2
20
22.533485
30
0
11
-0.2
21
7.034158
31
0
39
0
210
0
220
0
230
1
0
LINE
5
C5
100
AcDbEntity
8
SK1
62
256
6
ByLayer
370
13
48
1
60
0
100
AcDbLine
10
-1.307107
20
4.811152
30
0
11
-1.307107
21
-4.811152
31
0
39
0
210
0
220
0
230
1
0
LINE
5
C6
100
AcDbEntity
8
1
62
256
6
ByLayer
370
18
48
1
60
0
100
AcDbLine
10
68.609011
20
-42.062217
30
0
11
69.555796
21
-42.004309
31
0
39
0
210
0
220
0
230
1
0
LINE
5
C7
100
AcDbEntity
8
1
62
256
6
ByLayer
370
18
48
1
60
0
100
AcDbLine
10
69.555796
20
-44.995691
30
0
11
68.609011
21
-44.937783
31
0
39
0
210
0
220
0
230
1
0
LINE
5
C8
100
AcDbEntity
8
1
62
256
6
ByLayer
370
18
48
1
60
0
100
AcDbLine
10
69.99999
20
-42.196849
30
0
11
69.99999
21
-44.803151
31
0
39
0
210
0
220
0
230
1
0
LINE
5
C9
100
AcDbEntity
8
1
62
256
6
ByLayer
370
18
48
1
60
0
100
AcDbLine
10
50.444204
20
-44.995691
30
0
11
51.390989
21
-44.937783
31
0
39
0
210
0
220
0
230
1
0
LINE
5
CA
100
AcDbEntity
8
1
62
256
6
ByLayer
370
18
48
1
60
0
100
AcDbLine
10
51.390989
20
-42.062217
30
0
11
50.444204
21
-42.004309
31
0
39
0
210
0
220
0
230
1
0
LINE
5
CB
100
AcDbEntity
8
1
62
256
6
ByLayer
370
18
48
1
60
0
100
AcDbLine
10
50.00001
20
-42.196849
30
0
11
50.00001
21
-42.325005
31
0
39
0
210
0
220
0
230
1
0
LINE
5
CC
100
AcDbEntity
8
1
62
256
6
ByLayer
370
18
48
1
60
0
100
AcDbLine
10
50.00001
20
-44.674995
30
0
11
50.00001
21
-44.803151
31
0
39
0
210
0
220
0
230
1
0
LINE
5
CD
100
AcDbEntity
8
1
62
256
6
ByLayer
370
18
48
1
60
0
100
AcDbLine
10
67.851573
20
-42.058705
30
0
11
68.609011
21
-42.062217
31
0
39
0
210
0
220
0
230
1
0
LINE
5
CE
100
AcDbEntity
8
1
62
256
6
ByLayer
370
18
48
1
60
0
100
AcDbLine
10
68.609011
20
-44.937783
30
0
11
67.851573
21
-44.941295
31
0
39
0
210
0
220
0
230
1
0
LINE
5
CF
100
AcDbEntity
8
1
62
256
6
ByLayer
370
18
48
1
60
0
100
AcDbLine
10
68.609011
20
-44.937783
30
0
11
68.609011
21
-42.062217
31
0
39
0
210
0
220
0
230
1
0
LINE
5
D0
100
AcDbEntity
8
1
62
256
6
ByLayer
370
18
48
1
60
0
100
AcDbLine
10
51.390989
20
-44.937783
30
0
11
52.148427
21
-44.941295
31
0
39
0
210
0
220
0
230
1
0
LINE
5
D1
100
AcDbEntity
8
1
62
256
6
ByLayer
370
18
48
1
60
0
100
AcDbLine
10
52.148427
20
-42.058705
30
0
11
51.390989
21
-42.062217
31
0
39
0
210
0
220
0
230
1
0
LINE
5
D2
100
AcDbEntity
8
1
62
256
6
ByLayer
370
18
48
1
60
0
100
AcDbLine
10
51.390989
20
-44.937783
30
0
11
51.390989
21
-44.674983
31
0
39
0
210
0
220
0
230
1
0
LINE
5
D3
100
AcDbEntity
8
1
62
256
6
ByLayer
370
18
48
1
60
0
100
AcDbLine
10
51.390989
20
-42.325017
30
0
11
51.390989
21
-42.062217
31
0
39
0
210
0
220
0
230
1
0
LINE
5
D4
100
AcDbEntity
8
1
62
256
6
ByLayer
370
13
48
1
60
0
100
AcDbLine
10
67.18134
20
-43.5
30
0
11
63.749782
21
-43.5
31
0
39
0
210
0
220
0
230
1
0
LINE
5
D5
100
AcDbEntity
8
1
62
256
6
ByLayer
370
13
48
1
60
0
100
AcDbLine
10
66.397706
20
-43.697335
30
0
11
63.670484
21
-43.697335
31
0
39
0
210
0
220
0
230
1
0
LINE
5
D6
100
AcDbEntity
8
1
62
256
6
ByLayer
370
13
48
1
60
0
100
AcDbLine
10
63.670484
20
-43.302665
30
0
11
66.397706
21
-43.302665
31
0
39
0
210
0
220
0
230
1
0
LINE
5
D7
100
AcDbEntity
8
1
62
256
6
ByLayer
370
13
48
1
60
0
100
AcDbLine
10
63.664692
20
-43.299244
30
0
11
66.344414
21
-43.299244
31
0
39
0
210
0
220
0
230
1
0
LINE
5
D8
100
AcDbEntity
8
1
62
256
6
ByLayer
370
13
48
1
60
0
100
AcDbLine
10
63.664692
20
-43.700756
30
0
11
66.344414
21
-43.700756
31
0
39
0
210
0
220
0
230
1
0
LINE
5
D9
100
AcDbEntity
8
1
62
256
6
ByLayer
370
13
48
1
60
0
100
AcDbLine
10
63.580781
20
-43.248976
30
0
11
65.636252
21
-43.248976
31
0
39
0
210
0
220
0
230
1
0
LINE
5
DA
100
AcDbEntity
8
1
62
256
6
ByLayer
370
13
48
1
60
0
100
AcDbLine
10
63.580781
20
-43.751024
30
0
11
65.636252
21
-43.751024
31
0
39
0
210
0
220
0
230
1
0
LINE
5
DB
100
AcDbEntity
8
1
62
256
6
ByLayer
370
13
48
1
60
0
100
AcDbLine
10
63.551458
20
-43.867998
30
0
11
65.024167
21
-43.867998
31
0
39
0
210
0
220
0
230
1
0
LINE
5
DC
100
AcDbEntity
8
1
62
256
6
ByLayer
370
13
48
1
60
0
100
AcDbLine
10
63.551458
20
-43.132002
30
0
11
65.024167
21
-43.132002
31
0
39
0
210
0
220
0
230
1
0
LINE
5
DD
100
AcDbEntity
8
1
62
256
6
ByLayer
370
13
48
1
60
0
100
AcDbLine
10
63.398651
20
-44.475984
30
0
11
63.82005
21
-44.475984
31
0
39
0
210
0
220
0
230
1
0
LINE
5
DE
100
AcDbEntity
8
1
62
256
6
ByLayer
370
18
48
1
60
0
100
AcDbLine
10
52.541267
20
-42.075439
30
0
11
52.148427
21
-42.058705
31
0
39
0
210
0
220
0
230
1
0
LINE
5
DF
100
AcDbEntity
8
1
62
256
6
ByLayer
370
18
48
1
60
0
100
AcDbLine
10
52.148427
20
-44.941295
30
0
11
52.148427
21
-44.67497
31
0
39
0
210
0
220
0
230
1
0
LINE
5
E0
100
AcDbEntity
8
1
62
256
6
ByLayer
370
18
48
1
60
0
100
AcDbLine
10
52.148427
20
-42.32503
30
0
11
52.148427
21
-42.058705
31
0
39
0
210
0
220
0
230
1
0
LINE
5
E1
100
AcDbEntity
8
1
62
256
6
ByLayer
370
18
48
1
60
0
100
AcDbLine
10
52.148427
20
-44.941295
30
0
11
52.541267
21
-44.924561
31
0
39
0
210
0
220
0
230
1
0
LINE
5
E2
100
AcDbEntity
8
1
62
256
6
ByLayer
370
18
48
1
60
0
100
AcDbLine
10
52.580331
20
-44.918875
30
0
11
53.527535
21
-44.6802
31
0
39
0
210
0
220
0
230
1
0
LINE
5
E3
100
AcDbEntity
8
1
62
256
6
ByLayer
370
18
48
1
60
0
100
AcDbLine
10
53.527535
20
-42.3198
30
0
11
52.580331
21
-42.081125
31
0
39
0
210
0
220
0
230
1
0
LINE
5
E4
100
AcDbEntity
8
1
62
256
6
ByLayer
370
13
48
1
60
0
100
AcDbLine
10
63.82005
20
-42.524016
30
0
11
63.398651
21
-42.524016
31
0
39
0
210
0
220
0
230
1
0
LINE
5
E5
100
AcDbEntity
8
1
62
256
6
ByLayer
370
18
48
1
60
0
100
AcDbLine
10
66.228061
20
-42.35
30
0
11
63.772487
21
-42.35
31
0
39
0
210
0
220
0
230
1
0
LINE
5
E6
100
AcDbEntity
8
1
62
256
6
ByLayer
370
18
48
1
60
0
100
AcDbLine
10
66.472465
20
-42.3198
30
0
11
67.419669
21
-42.081125
31
0
39
0
210
0
220
0
230
1
0
LINE
5
E7
100
AcDbEntity
8
1
62
256
6
ByLayer
370
18
48
1
60
0
100
AcDbLine
10
65.024167
20
-43.132002
30
0
11
63.82005
21
-42.524016
31
0
39
0
210
0
220
0
230
1
0
LINE
5
E8
100
AcDbEntity
8
1
62
256
6
ByLayer
370
18
48
1
60
0
100
AcDbLine
10
66.397706
20
-43.302665
30
0
11
66.344414
21
-43.299244
31
0
39
0
210
0
220
0
230
1
0
LINE
5
E9
100
AcDbEntity
8
1
62
256
6
ByLayer
370
18
48
1
60
0
100
AcDbLine
10
66.344414
20
-43.700756
30
0
11
66.397706
21
-43.697335
31
0
39
0
210
0
220
0
230
1
0
LINE
5
EA
100
AcDbEntity
8
1
62
256
6
ByLayer
370
18
48
1
60
0
100
AcDbLine
10
63.82005
20
-44.475984
30
0
11
65.024167
21
-43.867998
31
0
39
0
210
0
220
0
230
1
0
LINE
5
EB
100
AcDbEntity
8
1
62
256
6
ByLayer
370
18
48
1
60
0
100
AcDbLine
10
63.772487
20
-44.65
30
0
11
66.228061
21
-44.65
31
0
39
0
210
0
220
0
230
1
0
LINE
5
EC
100
AcDbEntity
8
1
62
256
6
ByLayer
370
18
48
1
60
0
100
AcDbLine
10
67.419669
20
-44.918875
30
0
11
66.472465
21
-44.6802
31
0
39
0
210
0
220
0
230
1
0
LINE
5
ED
100
AcDbEntity
8
1
62
256
6
ByLayer
370
18
48
1
60
0
100
AcDbLine
10
67.851573
20
-44.941295
30
0
11
67.458733
21
-44.924561
31
0
39
0
210
0
220
0
230
1
0
LINE
5
EE
100
AcDbEntity
8
1
62
256
6
ByLayer
370
18
48
1
60
0
100
AcDbLine
10
67.851573
20
-44.941295
30
0
11
67.851573
21
-42.058705
31
0
39
0
210
0
220
0
230
1
0
LINE
5
EF
100
AcDbEntity
8
1
62
256
6
ByLayer
370
18
48
1
60
0
100
AcDbLine
10
67.458733
20
-42.075439
30
0
11
67.851573
21
-42.058705
31
0
39
0
210
0
220
0
230
1
0
LINE
5
F0
100
AcDbEntity
8
1
62
256
6
ByLayer
370
18
48
1
60
0
100
AcDbLine
10
63.35492
20
-44.65
30
0
11
63.772487
21
-44.65
31
0
39
0
210
0
220
0
230
1
0
LINE
5
F1
100
AcDbEntity
8
1
62
256
6
ByLayer
370
18
48
1
60
0
100
AcDbLine
10
63.772487
20
-44.65
30
0
11
63.772487
21
-44.525438
31
0
39
0
210
0
220
0
230
1
0
LINE
5
F2
100
AcDbEntity
8
1
62
256
6
ByLayer
370
13
48
1
60
0
100
AcDbLine
10
63.772487
20
-44.525438
30
0
11
63.386161
21
-44.525438
31
0
39
0
210
0
220
0
230
1
0
LINE
5
F3
100
AcDbEntity
8
1
62
256
6
ByLayer
370
13
48
1
60
0
100
AcDbLine
10
63.386161
20
-42.474562
30
0
11
63.772487
21
-42.474562
31
0
39
0
210
0
220
0
230
1
0
LINE
5
F4
100
AcDbEntity
8
1
62
256
6
ByLayer
370
18
48
1
60
0
100
AcDbLine
10
63.772487
20
-42.474562
30
0
11
63.772487
21
-42.35
31
0
39
0
210
0
220
0
230
1
0
LINE
5
F5
100
AcDbEntity
8
1
62
256
6
ByLayer
370
18
48
1
60
0
100
AcDbLine
10
63.772487
20
-42.35
30
0
11
63.35492
21
-42.35
31
0
39
0
210
0
220
0
230
1
0
LINE
5
F6
100
AcDbEntity
8
SK2
62
256
6
ByLayer
370
18
48
1
60
0
100
AcDbLine
10
-47.975
20
-31.5
30
0
11
-47.975
21
31.5
31
0
39
0
210
0
220
0
230
1
0
LINE
5
F8
100
AcDbEntity
8
SK2
62
256
6
ByLayer
370
18
48
1
60
0
100
AcDbLine
10
-1.2875
20
31.5
30
0
11
-49.975
21
31.5
31
0
39
0
210
0
220
0
230
1
0
LINE
5
F9
100
AcDbEntity
8
SK2
62
256
6
ByLayer
370
18
48
1
60
0
100
AcDbLine
10
-1.2875
20
-31.5
30
0
11
-49.975
21
-31.5
31
0
39
0
210
0
220
0
230
1
0
LINE
5
FA
100
AcDbEntity
8
1
62
256
6
ByLayer
370
18
48
1
60
1
100
AcDbLine
10
-47.975
20
31.5
30
0
11
-47.514216
21
28.000002
31
0
39
0
210
0
220
0
230
1
0
LINE
5
FB
100
AcDbEntity
8
1
62
256
6
ByLayer
370
18
48
1
60
1
100
AcDbLine
10
-47.514216
20
28.000002
30
0
11
-48.435784
21
27.999998
31
0
39
0
210
0
220
0
230
1
0
LINE
5
FC
100
AcDbEntity
8
1
62
256
6
ByLayer
370
18
48
1
60
1
100
AcDbLine
10
-48.435784
20
27.999998
30
0
11
-47.975
21
31.5
31
0
39
0
210
0
220
0
230
1
0
LINE
5
FD
100
AcDbEntity
8
1
62
256
6
ByLayer
370
18
48
1
60
1
100
AcDbLine
10
-47.975
20
-31.5
30
0
11
-48.435784
21
-28.000002
31
0
39
0
210
0
220
0
230
1
0
LINE
5
FE
100
AcDbEntity
8
1
62
256
6
ByLayer
370
18
48
1
60
1
100
AcDbLine
10
-48.435784
20
-28.000002
30
0
11
-47.514216
21
-27.999998
31
0
39
0
210
0
220
0
230
1
0
LINE
5
FF
100
AcDbEntity
8
1
62
256
6
ByLayer
370
18
48
1
60
1
100
AcDbLine
10
-47.514216
20
-27.999998
30
0
11
-47.975
21
-31.5
31
0
39
0
210
0
220
0
230
1
0
LINE
5
15A
100
AcDbEntity
8
1
62
256
6
ByLayer
370
18
48
1
60
1
100
AcDbLine
10
-47.975
20
31.5
30
0
11
-47.514216
21
28.000002
31
0
39
0
210
0
220
0
230
1
0
LINE
5
15B
100
AcDbEntity
8
1
62
256
6
ByLayer
370
18
48
1
60
1
100
AcDbLine
10
-47.514216
20
28.000002
30
0
11
-48.435784
21
27.999998
31
0
39
0
210
0
220
0
230
1
0
LINE
5
15C
100
AcDbEntity
8
1
62
256
6
ByLayer
370
18
48
1
60
1
100
AcDbLine
10
-48.435784
20
27.999998
30
0
11
-47.975
21
31.5
31
0
39
0
210
0
220
0
230
1
0
LINE
5
15E
100
AcDbEntity
8
1
62
256
6
ByLayer
370
18
48
1
60
1
100
AcDbLine
10
-47.975
20
-31.5
30
0
11
-48.435784
21
-28.000002
31
0
39
0
210
0
220
0
230
1
0
LINE
5
15F
100
AcDbEntity
8
1
62
256
6
ByLayer
370
18
48
1
60
1
100
AcDbLine
10
-48.435784
20
-28.000002
30
0
11
-47.514216
21
-27.999998
31
0
39
0
210
0
220
0
230
1
0
LINE
5
160
100
AcDbEntity
8
1
62
256
6
ByLayer
370
18
48
1
60
1
100
AcDbLine
10
-47.514216
20
-27.999998
30
0
11
-47.975
21
-31.5
31
0
39
0
210
0
220
0
230
1
0
MTEXT
5
156
100
AcDbEntity
8
SK2
62
256
6
ByLayer
370
18
48
1
60
0
100
AcDbMText
10
-49.539634
20
-4.530622
30
0
210
0
220
0
230
1
1
%%c
40
3.5
41
0
44
1.084337
50
90
71
7
72
5
7
iso_b_vert
0
MTEXT
5
159
100
AcDbEntity
8
SK2
62
256
6
ByLayer
370
18
48
1
60
0
100
AcDbMText
10
-49.539634
20
2.442034
30
0
210
0
220
0
230
1
1
\W0.6740;63
40
3.5
41
0
44
1.084337
50
90
71
7
72
5
7
iso_b_vert
0
MTEXT
5
162
100
AcDbEntity
8
SK6
62
256
6
ByLayer
370
18
48
1
60
0
100
AcDbMText
10
-16.3145
20
-60.974579
30
0
210
0
220
0
230
1
1
\W0.7503;C2R-CC6-LG20CB
40
3.5
41
0
44
1.084337
50
0
71
7
72
5
7
iso_b_vert
0
HATCH
5
15D
100
AcDbEntity
8
SK2
62
256
6
ByLayer
370
13
48
1
60
0
100
AcDbHatch
10
0
20
0
30
0
210
0
220
0
230
1
2
ANSI31
70
0
71
0
91
1
92
5
93
3
72
1
10
-47.9750000000002
20
31.5
11
-47.5142162584474
21
28.0000016925532
72
1
10
-47.5142162584474
20
28.0000016925532
11
-48.4357837415529
21
27.9999983074468
72
1
10
-48.4357837415529
20
27.9999983074468
11
-47.9750000000002
21
31.5
97
0
75
0
76
1
52
0
41
0.0062
77
0
78
1
53
45
43
0
44
0
45
-0.0139193969876572
46
0.0139193969876572
79
0
47
0
98
1
10
0
20
0
0
HATCH
5
161
100
AcDbEntity
8
SK2
62
256
6
ByLayer
370
13
48
1
60
0
100
AcDbHatch
10
0
20
0
30
0
210
0
220
0
230
1
2
ANSI31
70
0
71
0
91
1
92
5
93
3
72
1
10
-47.9750000000002
20
-31.5
11
-48.4357837415529
21
-28.0000016925532
72
1
10
-48.4357837415529
20
-28.0000016925532
11
-47.5142162584474
21
-27.9999983074468
72
1
10
-47.5142162584474
20
-27.9999983074468
11
-47.9750000000002
21
-31.5
97
0
75
0
76
1
52
0
41
0.0062
77
0
78
1
53
45
43
0
44
0
45
-0.0139193969876572
46
0.0139193969876572
79
0
47
0
98
1
10
0
20
0
0
DIMENSION
5
165
100
AcDbEntity
8
2
62
256
6
ByLayer
370
18
48
1
60
0
100
AcDbDimension
2
_U0
10
101.1
20
0
30
0
11
101.1
21
-22.5
31
0
70
32
71
1
72
1
41
1
210
0
220
0
230
1
3
Standard
100
AcDbAlignedDimension
13
70
23
-45
33
0
14
0
24
0
34
0
50
90
100
AcDbRotatedDimension
1001
ACAD
1000
DSTYLE
1002
{
1070
   371
1070
    13
1070
   372
1070
    13
1070
   170
1070
     0
1070
   144
1040
1.0
1070
   277
1070
     2
1070
   284
1070
     8
1070
   278
1070
    46
1070
   146
1040
1.0
1070
   345
1005
16
1070
   347
1005
16
1070
   346
1005
16
1070
   344
1005
0
1070
   343
1005
0
1070
   172
1070
     1
1070
    76
1070
     0
1070
    75
1070
     0
1070
   282
1070
     0
1070
   281
1070
     0
1070
    71
1070
     0
1070
    74
1070
     0
1070
   279
1070
     0
1070
   173
1070
     1
1070
   340
1005
157
1070
   271
1070
     1
1070
   272
1070
     2
1070
    77
1070
     1
1070
    73
1070
     0
1070
   171
1070
     3
1070
   274
1070
     4
1070
   177
1070
     2
1070
   176
1070
     2
1070
   178
1070
     2
1070
    78
1070
     8
1070
    48
1040
-0.1
1070
    41
1040
3.5
1070
   147
1040
1.75
1070
    42
1040
1.5875
1070
    44
1040
2.0
1070
   140
1040
3.5
1002
}
1001
ACAD_DSTYLE_DIM_LINETYPE
1070
   380
1005
16
1001
ACAD_DSTYLE_DIM_EXT1_LINETYPE
1070
   381
1005
16
1001
ACAD_DSTYLE_DIM_EXT2_LINETYPE
1070
   382
1005
16
0
DIMENSION
5
17F
100
AcDbEntity
8
2
62
256
6
ByLayer
370
18
48
1
60
0
100
AcDbDimension
2
_U1
10
90.1
20
-45
30
0
11
90.1
21
-43.5
31
0
70
32
71
1
72
1
41
1
210
0
220
0
230
1
3
Standard
100
AcDbAlignedDimension
13
70
23
-42
33
0
14
70
24
-45
34
0
50
90
100
AcDbRotatedDimension
1001
ACAD
1000
DSTYLE
1002
{
1070
   371
1070
    13
1070
   372
1070
    13
1070
   170
1070
     0
1070
   144
1040
1.0
1070
   277
1070
     2
1070
   284
1070
     8
1070
   278
1070
    46
1070
   146
1040
1.0
1070
   345
1005
16
1070
   347
1005
16
1070
   346
1005
16
1070
   344
1005
0
1070
   343
1005
0
1070
   172
1070
     1
1070
    76
1070
     0
1070
    75
1070
     0
1070
   282
1070
     0
1070
   281
1070
     0
1070
    71
1070
     0
1070
    74
1070
     0
1070
   279
1070
     0
1070
   173
1070
     1
1070
   340
1005
157
1070
   271
1070
     1
1070
   272
1070
     2
1070
    77
1070
     1
1070
    73
1070
     0
1070
   171
1070
     3
1070
   274
1070
     4
1070
   177
1070
     2
1070
   176
1070
     2
1070
   178
1070
     2
1070
    78
1070
     8
1070
    48
1040
-0.1
1070
    41
1040
3.5
1070
   147
1040
1.75
1070
    42
1040
1.5875
1070
    44
1040
2.0
1070
   140
1040
3.5
1002
}
1001
ACAD_DSTYLE_DIM_LINETYPE
1070
   380
1005
16
1001
ACAD_DSTYLE_DIM_EXT1_LINETYPE
1070
   381
1005
16
1001
ACAD_DSTYLE_DIM_EXT2_LINETYPE
1070
   382
1005
16
0
DIMENSION
5
198
100
AcDbEntity
8
2
62
256
6
ByLayer
370
18
48
1
60
0
100
AcDbDimension
2
_U2
10
70
20
18.925
30
0
11
60
21
18.925
31
0
70
32
71
1
72
1
41
1
210
0
220
0
230
1
3
Standard
100
AcDbAlignedDimension
13
50
23
-42.325
33
0
14
70
24
-42
34
0
50
0
100
AcDbRotatedDimension
1001
ACAD
1000
DSTYLE
1002
{
1070
   371
1070
    13
1070
   372
1070
    13
1070
   170
1070
     0
1070
   144
1040
1.0
1070
   277
1070
     2
1070
   284
1070
     8
1070
   278
1070
    46
1070
   146
1040
1.0
1070
   345
1005
16
1070
   347
1005
16
1070
   346
1005
16
1070
   344
1005
0
1070
   343
1005
0
1070
   172
1070
     1
1070
    76
1070
     0
1070
    75
1070
     0
1070
   282
1070
     0
1070
   281
1070
     0
1070
    71
1070
     0
1070
    74
1070
     0
1070
   279
1070
     0
1070
   173
1070
     1
1070
   340
1005
157
1070
   271
1070
     1
1070
   272
1070
     2
1070
    77
1070
     1
1070
    73
1070
     1
1070
   171
1070
     3
1070
   274
1070
     4
1070
   177
1070
     2
1070
   176
1070
     2
1070
   178
1070
     2
1070
    78
1070
     8
1070
    48
1040
-0.1
1070
    41
1040
3.5
1070
   147
1040
1.75
1070
    42
1040
1.5875
1070
    44
1040
2.0
1070
   140
1040
3.5
1002
}
1001
ACAD_DSTYLE_DIM_LINETYPE
1070
   380
1005
16
1001
ACAD_DSTYLE_DIM_EXT1_LINETYPE
1070
   381
1005
16
1001
ACAD_DSTYLE_DIM_EXT2_LINETYPE
1070
   382
1005
16
0
DIMENSION
5
1B0
100
AcDbEntity
8
2
62
256
6
ByLayer
370
18
48
1
60
0
100
AcDbDimension
2
_U3
10
70
20
-57.25
30
0
11
35
21
-57.25
31
0
70
32
71
1
72
1
41
1
210
0
220
0
230
1
3
Standard
100
AcDbAlignedDimension
13
0
23
0
33
0
14
70
24
-45
34
0
50
0
100
AcDbRotatedDimension
1001
ACAD
1000
DSTYLE
1002
{
1070
   371
1070
    13
1070
   372
1070
    13
1070
   170
1070
     0
1070
   144
1040
1.0
1070
   277
1070
     2
1070
   284
1070
     8
1070
   278
1070
    46
1070
   146
1040
1.0
1070
   345
1005
16
1070
   347
1005
16
1070
   346
1005
16
1070
   344
1005
0
1070
   343
1005
0
1070
   172
1070
     1
1070
    76
1070
     0
1070
    75
1070
     0
1070
   282
1070
     0
1070
   281
1070
     0
1070
    71
1070
     0
1070
    74
1070
     0
1070
   279
1070
     0
1070
   173
1070
     1
1070
   340
1005
157
1070
   271
1070
     1
1070
   272
1070
     2
1070
    77
1070
     1
1070
    73
1070
     1
1070
   171
1070
     3
1070
   274
1070
     4
1070
   177
1070
     2
1070
   176
1070
     2
1070
   178
1070
     2
1070
    78
1070
     8
1070
    48
1040
-0.1
1070
    41
1040
3.5
1070
   147
1040
1.75
1070
    42
1040
1.5875
1070
    44
1040
2.0
1070
   140
1040
3.5
1002
}
1001
ACAD_DSTYLE_DIM_LINETYPE
1070
   380
1005
16
1001
ACAD_DSTYLE_DIM_EXT1_LINETYPE
1070
   381
1005
16
1001
ACAD_DSTYLE_DIM_EXT2_LINETYPE
1070
   382
1005
16
0
ENDSEC
0
SECTION
2
OBJECTS
0
DICTIONARY
5
237
330
0
100
AcDbDictionary
280
0
281
1
3
ACAD_GROUP
350
238
3
ACAD_MLINESTYLE
350
239
0
DICTIONARY
5
238
330
0
100
AcDbDictionary
280
0
281
1
0
DICTIONARY
5
239
330
0
100
AcDbDictionary
280
0
281
1
3
Standard
350
18
0
MLINESTYLE
5
18
330
239
100
AcDbMlineStyle
2
Standard
70
0
3

62
256
51
90
52
90
71
2
49
-0.5
62
256
6
ByLayer
49
0.5
62
256
6
ByLayer
0
RASTERVARIABLES
5
226
330

100
AcDbRasterVariables
90
0
70
1
71
1
72
1
0
ENDSEC
0
EOF
