0
SECTION
2
HEADER
9
$ACADVER
1
AC1015
9
$DWGCODEPAGE
3
ANSI_1252
9
$HANDSEED
5
23a
9
$ANGBASE
50
0
9
$ANGDIR
70
0
9
$ATTMODE
70
1
9
$AUNITS
70
0
9
$AUPREC
70
0
9
$CECOLOR
62
256
9
$CELTSCALE
40
1
9
$CELTYPE
6
ByLayer
9
$CELWEIGHT
370
18
9
$CLAYER
8
0
9
$CMLJUST
70
0
9
$CMLSCALE
40
1
9
$CMLSTYLE
2
Standard
9
$DIMSTYLE
2
Standard
9
$TEXTSIZE
40
0.2
9
$TEXTSTYLE
7
Standard
9
$LUNITS
70
2
9
$LUPREC
70
4
9
$EXTNAMES
290
1
9
$INSUNITS
70
4
9
$LTSCALE
40
1
9
$LWDISPLAY
290
1
9
$PDMODE
70
0
9
$PDSIZE
40
0
9
$PLINEGEN
70
0
0
ENDSEC
0
SECTION
2
CLASSES
0
CLASS
1
RASTERVARIABLES
2
AcDbRasterVariables
3
ISM
90
0
280
0
281
0
0
ENDSEC
0
SECTION
2
TABLES
0
TABLE
2
VPORT
5
230
100
AcDbSymbolTable
0
VPORT
5
1
100
AcDbSymbolTableRecord
100
AcDbViewportTableRecord
2
*Active
70
0
10
0
20
0
11
1
21
1
12
-1
22
1
13
0
23
0
14
0.5
24
0.5
15
10
25
10
16
0
26
0
36
1
17
0
27
0
37
0
0
ENDTAB
0
TABLE
2
LTYPE
5
231
100
AcDbSymbolTable
0
LTYPE
5
14
100
AcDbSymbolTableRecord
100
AcDbLinetypeTableRecord
70
0
2
ByBlock
3

72
65
73
0
40
0
0
LTYPE
5
15
100
AcDbSymbolTableRecord
100
AcDbLinetypeTableRecord
70
0
2
ByLayer
3

72
65
73
0
40
0
0
LTYPE
5
16
100
AcDbSymbolTableRecord
100
AcDbLinetypeTableRecord
70
0
2
Continuous
3
Solid line
72
65
73
0
40
0
0
LTYPE
5
6E
100
AcDbSymbolTableRecord
100
AcDbLinetypeTableRecord
70
0
2
CENTER
3
____ _ ____ _ ____ _ ____
72
65
73
4
40
47.5
49
22
74
0
49
-8.5
74
0
49
8.5
74
0
49
-8.5
74
0
0
LTYPE
5
6F
100
AcDbSymbolTableRecord
100
AcDbLinetypeTableRecord
70
0
2
DASHED
3
__ __ __ __ __ __ __ __ __
72
65
73
2
40
25.72
49
12.86
74
0
49
-12.86
74
0
0
ENDTAB
0
TABLE
2
LAYER
5
232
100
AcDbSymbolTable
0
LAYER
5
10
100
AcDbSymbolTableRecord
100
AcDbLayerTableRecord
2
0
70
0
62
7
6
Continuous
290
1
370
-3
390
0
0
LAYER
5
71
100
AcDbSymbolTableRecord
100
AcDbLayerTableRecord
2
80
70
0
62
-6
6
Continuous
290
1
370
-3
390
0
0
LAYER
5
73
100
AcDbSymbolTableRecord
100
AcDbLayerTableRecord
2
81
70
0
62
-3
6
Continuous
290
1
370
-3
390
0
0
LAYER
5
75
100
AcDbSymbolTableRecord
100
AcDbLayerTableRecord
2
1
70
0
62
4
6
Continuous
290
1
370
-3
390
0
0
LAYER
5
15D
100
AcDbSymbolTableRecord
100
AcDbLayerTableRecord
2
Defpoints
70
0
62
7
6
Continuous
290
0
370
-3
390
0
0
LAYER
5
16A
100
AcDbSymbolTableRecord
100
AcDbLayerTableRecord
2
2
70
0
62
7
6
Continuous
290
1
370
-3
390
0
0
LAYER
5
21d
100
AcDbSymbolTableRecord
100
AcDbLayerTableRecord
2
SK1
70
0
62
4
6
Continuous
290
1
370
-3
390
0
0
LAYER
5
21e
100
AcDbSymbolTableRecord
100
AcDbLayerTableRecord
2
SK2
70
0
62
7
6
Continuous
290
1
370
-3
390
0
0
LAYER
5
21f
100
AcDbSymbolTableRecord
100
AcDbLayerTableRecord
2
SK6
70
0
62
5
6
Continuous
290
1
370
-3
390
0
0
ENDTAB
0
TABLE
2
STYLE
5
233
100
AcDbSymbolTable
0
STYLE
5
11
100
AcDbSymbolTableRecord
100
AcDbTextStyleTableRecord
2
Standard
3
txt
70
0
71
0
40
0
41
1
42
0
50
0
0
STYLE
5
14C
100
AcDbSymbolTableRecord
100
AcDbTextStyleTableRecord
2
iso_b_vert
3
simplex.shx
70
0
71
0
40
0
41
1
42
0
50
0
0
STYLE
5
14D
100
AcDbSymbolTableRecord
100
AcDbTextStyleTableRecord
2
DWGDirectTextStyle
3
simplex
70
0
71
0
40
0
41
1
42
0
50
0
0
ENDTAB
0
TABLE
2
DIMSTYLE
5
234
100
AcDbSymbolTable
100
AcDbDimStyleTable
0
DIMSTYLE
105
27
100
AcDbSymbolTableRecord
100
AcDbDimStyleTableRecord
2
Standard
70
0
3
<>
41
0.18
42
0.0625
44
0.18
140
0.18
147
0.09
73
0
74
0
77
1
271
2
275
0
278
52
280
0
340
11
0
ENDTAB
0
TABLE
2
VIEW
5
235
100
AcDbSymbolTable
0
ENDTAB
0
TABLE
2
UCS
5
236
100
AcDbSymbolTable
0
ENDTAB
0
TABLE
2
APPID
5
237
100
AcDbSymbolTable
0
APPID
5
12
100
AcDbSymbolTableRecord
100
AcDbRegAppTableRecord
2
ACAD
70
0
0
APPID
5
159
100
AcDbSymbolTableRecord
100
AcDbRegAppTableRecord
2
ACAD_DSTYLE_DIMBREAK
70
0
0
APPID
5
1DC
100
AcDbSymbolTableRecord
100
AcDbRegAppTableRecord
2
ACAD_DSTYLE_DIM_LINETYPE
70
0
0
APPID
5
1DD
100
AcDbSymbolTableRecord
100
AcDbRegAppTableRecord
2
ACAD_DSTYLE_DIM_EXT1_LINETYPE
70
0
0
APPID
5
1DE
100
AcDbSymbolTableRecord
100
AcDbRegAppTableRecord
2
ACAD_DSTYLE_DIM_EXT2_LINETYPE
70
0
0
APPID
5
219
100
AcDbSymbolTableRecord
100
AcDbRegAppTableRecord
2
ACAD_MLEADERVER
70
0
0
ENDTAB
0
TABLE
2
BLOCK_RECORD
5
238
100
AcDbSymbolTable
0
BLOCK_RECORD
5
1F
100
AcDbSymbolTableRecord
100
AcDbBlockTableRecord
2
*Model_Space
340
0
70
0
0
BLOCK_RECORD
5
1B
100
AcDbSymbolTableRecord
100
AcDbBlockTableRecord
2
*Paper_Space
340
0
70
0
0
BLOCK_RECORD
5
23
100
AcDbSymbolTableRecord
100
AcDbBlockTableRecord
2
*Paper_Space0
340
0
70
0
0
BLOCK_RECORD
5
15E
100
AcDbSymbolTableRecord
100
AcDbBlockTableRecord
2
*D1
340
0
70
0
0
BLOCK_RECORD
5
16B
100
AcDbSymbolTableRecord
100
AcDbBlockTableRecord
2
_U0
340
0
70
0
0
BLOCK_RECORD
5
177
100
AcDbSymbolTableRecord
100
AcDbBlockTableRecord
2
*D3
340
0
70
0
0
BLOCK_RECORD
5
184
100
AcDbSymbolTableRecord
100
AcDbBlockTableRecord
2
_U1
340
0
70
0
0
BLOCK_RECORD
5
190
100
AcDbSymbolTableRecord
100
AcDbBlockTableRecord
2
*D5
340
0
70
0
0
BLOCK_RECORD
5
19D
100
AcDbSymbolTableRecord
100
AcDbBlockTableRecord
2
_U2
340
0
70
0
0
BLOCK_RECORD
5
1A9
100
AcDbSymbolTableRecord
100
AcDbBlockTableRecord
2
*D7
340
0
70
0
0
BLOCK_RECORD
5
1B5
100
AcDbSymbolTableRecord
100
AcDbBlockTableRecord
2
_U3
340
0
70
0
0
ENDTAB
0
ENDSEC
0
SECTION
2
BLOCKS
0
BLOCK
5
20
100
AcDbEntity
8
0
100
AcDbBlockBegin
2
*Model_Space
70
0
10
0
20
0
30
0
3
*Model_Space
0
ENDBLK
5
21
100
AcDbEntity
8
0
100
AcDbBlockEnd
0
BLOCK
5
1C
100
AcDbEntity
8
0
100
AcDbBlockBegin
2
*Paper_Space
70
0
10
0
20
0
30
0
3
*Paper_Space
0
ENDBLK
5
1D
100
AcDbEntity
8
0
100
AcDbBlockEnd
0
BLOCK
5
24
100
AcDbEntity
8
0
100
AcDbBlockBegin
2
*Paper_Space0
70
0
10
0
20
0
30
0
3
*Paper_Space0
0
ENDBLK
5
25
100
AcDbEntity
8
0
100
AcDbBlockEnd
0
BLOCK
5
15F
100
AcDbEntity
8
0
100
AcDbBlockBegin
2
*D1
70
1
10
0
20
0
30
0
3
*D1
0
LINE
5
161
100
AcDbEntity
8
0
62
256
6
ByLayer
370
-2
48
1
60
0
100
AcDbLine
10
56.5875
20
35
30
0
11
88.1
21
35
31
0
39
0
210
0
220
0
230
1
0
LINE
5
162
100
AcDbEntity
8
0
62
256
6
ByLayer
370
-2
48
1
60
0
100
AcDbLine
10
1.5875
20
0
30
0
11
88.1
21
0
31
0
39
0
210
0
220
0
230
1
0
LINE
5
163
100
AcDbEntity
8
0
62
256
6
ByLayer
370
-2
48
1
60
0
100
AcDbLine
10
86.1
20
31.5
30
0
11
86.1
21
3.5
31
0
39
0
210
0
220
0
230
1
0
SOLID
5
164
100
AcDbEntity
8
0
62
256
6
ByLayer
370
-1
48
1
60
0
100
AcDbTrace
10
86.683333
20
31.5
30
0
11
85.516667
21
31.5
31
0
12
86.1
22
35
32
0
13
86.1
23
35
33
0
39
0
210
0
220
0
230
1
0
SOLID
5
165
100
AcDbEntity
8
0
62
256
6
ByLayer
370
-1
48
1
60
0
100
AcDbTrace
10
85.516667
20
3.5
30
0
11
86.683333
21
3.5
31
0
12
86.1
22
0
32
0
13
86.1
23
0
33
0
39
0
210
0
220
0
230
1
0
MTEXT
5
166
100
AcDbEntity
8
0
62
256
6
ByLayer
370
18
48
1
60
0
100
AcDbMText
10
79.1
20
17.5
30
0
210
0
220
0
230
1
1
\A1;35
40
3.5
41
0
44
1
50
90
71
5
72
5
7
iso_b_vert
0
POINT
5
167
100
AcDbEntity
8
Defpoints
62
0
6
ByLayer
370
-1
48
1
60
0
100
AcDbPoint
10
55
20
35
30
0
39
0
210
0
220
0
230
1
50
360
0
POINT
5
168
100
AcDbEntity
8
Defpoints
62
0
6
ByLayer
370
-1
48
1
60
0
100
AcDbPoint
10
0
20
0
30
0
39
0
210
0
220
0
230
1
50
360
0
POINT
5
169
100
AcDbEntity
8
Defpoints
62
0
6
ByLayer
370
-1
48
1
60
0
100
AcDbPoint
10
86.1
20
0
30
0
39
0
210
0
220
0
230
1
50
360
0
ENDBLK
5
160
100
AcDbEntity
8
0
100
AcDbBlockEnd
0
BLOCK
5
172
100
AcDbEntity
8
0
100
AcDbBlockBegin
2
_U0
70
0
10
0
20
0
30
0
3
_U0
0
MTEXT
5
16C
100
AcDbEntity
8
2
62
256
6
ByLayer
370
18
48
1
60
0
100
AcDbMText
10
85.410366
20
15.567034
30
0
210
0
220
0
230
1
1
\W0.6740;35
40
3.5
41
0
44
1.084337
50
90
71
7
72
5
7
iso_b_vert
0
LINE
5
16D
100
AcDbEntity
8
2
62
256
6
ByLayer
370
13
48
1
60
0
100
AcDbLine
10
56.5875
20
35
30
0
11
88.1
21
35
31
0
39
0
210
0
220
0
230
1
0
LINE
5
16E
100
AcDbEntity
8
2
62
256
6
ByLayer
370
13
48
1
60
0
100
AcDbLine
10
1.5875
20
0
30
0
11
88.1
21
0
31
0
39
0
210
0
220
0
230
1
0
LINE
5
16F
100
AcDbEntity
8
2
62
256
6
ByLayer
370
13
48
1
60
0
100
AcDbLine
10
86.1
20
35
30
0
11
86.1
21
0
31
0
39
0
210
0
220
0
230
1
0
SOLID
5
170
100
AcDbEntity
8
2
62
256
6
ByLayer
370
18
48
1
60
0
100
AcDbTrace
10
86.1
20
35
30
0
11
86.560784
21
31.500002
31
0
12
85.639216
22
31.499998
32
0
13
85.639216
23
31.499998
33
0
39
0
210
0
220
0
230
1
0
SOLID
5
171
100
AcDbEntity
8
2
62
256
6
ByLayer
370
18
48
1
60
0
100
AcDbTrace
10
86.1
20
0
30
0
11
85.639216
21
3.499998
31
0
12
86.560784
22
3.500002
32
0
13
86.560784
23
3.500002
33
0
39
0
210
0
220
0
230
1
0
ENDBLK
5
173
100
AcDbEntity
8
0
100
AcDbBlockEnd
0
BLOCK
5
178
100
AcDbEntity
8
0
100
AcDbBlockBegin
2
*D3
70
1
10
0
20
0
30
0
3
*D3
0
LINE
5
17A
100
AcDbEntity
8
0
62
256
6
ByLayer
370
-2
48
1
60
0
100
AcDbLine
10
56.5875
20
32
30
0
11
77.1
21
32
31
0
39
0
210
0
220
0
230
1
0
LINE
5
17B
100
AcDbEntity
8
0
62
256
6
ByLayer
370
-2
48
1
60
0
100
AcDbLine
10
56.5875
20
35
30
0
11
77.1
21
35
31
0
39
0
210
0
220
0
230
1
0
LINE
5
17C
100
AcDbEntity
8
0
62
256
6
ByLayer
370
-2
48
1
60
0
100
AcDbLine
10
75.1
20
28.5
30
0
11
75.1
21
25
31
0
39
0
210
0
220
0
230
1
0
LINE
5
17D
100
AcDbEntity
8
0
62
256
6
ByLayer
370
-2
48
1
60
0
100
AcDbLine
10
75.1
20
38.5
30
0
11
75.1
21
42
31
0
39
0
210
0
220
0
230
1
0
SOLID
5
17E
100
AcDbEntity
8
0
62
256
6
ByLayer
370
-1
48
1
60
0
100
AcDbTrace
10
75.683333
20
28.5
30
0
11
74.516667
21
28.5
31
0
12
75.1
22
32
32
0
13
75.1
23
32
33
0
39
0
210
0
220
0
230
1
0
SOLID
5
17F
100
AcDbEntity
8
0
62
256
6
ByLayer
370
-1
48
1
60
0
100
AcDbTrace
10
74.516667
20
38.5
30
0
11
75.683333
21
38.5
31
0
12
75.1
22
35
32
0
13
75.1
23
35
33
0
39
0
210
0
220
0
230
1
0
MTEXT
5
180
100
AcDbEntity
8
0
62
256
6
ByLayer
370
18
48
1
60
0
100
AcDbMText
10
68.1
20
33.5
30
0
210
0
220
0
230
1
1
\A1;3
40
3.5
41
0
44
1
50
90
71
5
72
5
7
iso_b_vert
0
POINT
5
181
100
AcDbEntity
8
Defpoints
62
0
6
ByLayer
370
-1
48
1
60
0
100
AcDbPoint
10
55
20
32
30
0
39
0
210
0
220
0
230
1
50
360
0
POINT
5
182
100
AcDbEntity
8
Defpoints
62
0
6
ByLayer
370
-1
48
1
60
0
100
AcDbPoint
10
55
20
35
30
0
39
0
210
0
220
0
230
1
50
360
0
POINT
5
183
100
AcDbEntity
8
Defpoints
62
0
6
ByLayer
370
-1
48
1
60
0
100
AcDbPoint
10
75.1
20
35
30
0
39
0
210
0
220
0
230
1
50
360
0
ENDBLK
5
179
100
AcDbEntity
8
0
100
AcDbBlockEnd
0
BLOCK
5
18B
100
AcDbEntity
8
0
100
AcDbBlockBegin
2
_U1
70
0
10
0
20
0
30
0
3
_U1
0
MTEXT
5
185
100
AcDbEntity
8
2
62
256
6
ByLayer
370
18
48
1
60
0
100
AcDbMText
10
74.410366
20
32.874767
30
0
210
0
220
0
230
1
1
\W0.5404;3
40
3.5
41
0
44
1.084337
50
90
71
7
72
5
7
iso_b_vert
0
LINE
5
186
100
AcDbEntity
8
2
62
256
6
ByLayer
370
13
48
1
60
0
100
AcDbLine
10
56.5875
20
32
30
0
11
77.1
21
32
31
0
39
0
210
0
220
0
230
1
0
LINE
5
187
100
AcDbEntity
8
2
62
256
6
ByLayer
370
13
48
1
60
0
100
AcDbLine
10
56.5875
20
35
30
0
11
77.1
21
35
31
0
39
0
210
0
220
0
230
1
0
LINE
5
188
100
AcDbEntity
8
2
62
256
6
ByLayer
370
13
48
1
60
0
100
AcDbLine
10
75.1
20
23.25
30
0
11
75.1
21
43.75
31
0
39
0
210
0
220
0
230
1
0
SOLID
5
189
100
AcDbEntity
8
2
62
256
6
ByLayer
370
18
48
1
60
0
100
AcDbTrace
10
75.1
20
32
30
0
11
75.560784
21
28.500002
31
0
12
74.639216
22
28.499998
32
0
13
74.639216
23
28.499998
33
0
39
0
210
0
220
0
230
1
0
SOLID
5
18A
100
AcDbEntity
8
2
62
256
6
ByLayer
370
18
48
1
60
0
100
AcDbTrace
10
75.1
20
35
30
0
11
74.639216
21
38.499998
31
0
12
75.560784
22
38.500002
32
0
13
75.560784
23
38.500002
33
0
39
0
210
0
220
0
230
1
0
ENDBLK
5
18C
100
AcDbEntity
8
0
100
AcDbBlockEnd
0
BLOCK
5
191
100
AcDbEntity
8
0
100
AcDbBlockBegin
2
*D5
70
1
10
0
20
0
30
0
3
*D5
0
LINE
5
193
100
AcDbEntity
8
0
62
256
6
ByLayer
370
-2
48
1
60
0
100
AcDbLine
10
45
20
30.7375
30
0
11
45
21
-21.425
31
0
39
0
210
0
220
0
230
1
0
LINE
5
194
100
AcDbEntity
8
0
62
256
6
ByLayer
370
-2
48
1
60
0
100
AcDbLine
10
55
20
30.4125
30
0
11
55
21
-21.425
31
0
39
0
210
0
220
0
230
1
0
LINE
5
195
100
AcDbEntity
8
0
62
256
6
ByLayer
370
-2
48
1
60
0
100
AcDbLine
10
41.5
20
-19.425
30
0
11
38
21
-19.425
31
0
39
0
210
0
220
0
230
1
0
LINE
5
196
100
AcDbEntity
8
0
62
256
6
ByLayer
370
-2
48
1
60
0
100
AcDbLine
10
58.5
20
-19.425
30
0
11
62
21
-19.425
31
0
39
0
210
0
220
0
230
1
0
SOLID
5
197
100
AcDbEntity
8
0
62
256
6
ByLayer
370
-1
48
1
60
0
100
AcDbTrace
10
41.5
20
-20.008333
30
0
11
41.5
21
-18.841667
31
0
12
45
22
-19.425
32
0
13
45
23
-19.425
33
0
39
0
210
0
220
0
230
1
0
SOLID
5
198
100
AcDbEntity
8
0
62
256
6
ByLayer
370
-1
48
1
60
0
100
AcDbTrace
10
58.5
20
-18.841667
30
0
11
58.5
21
-20.008333
31
0
12
55
22
-19.425
32
0
13
55
23
-19.425
33
0
39
0
210
0
220
0
230
1
0
MTEXT
5
199
100
AcDbEntity
8
0
62
256
6
ByLayer
370
18
48
1
60
0
100
AcDbMText
10
50
20
-12.425
30
0
210
0
220
0
230
1
1
\A1;10
40
3.5
41
0
44
1
50
0
71
5
72
5
7
iso_b_vert
0
POINT
5
19A
100
AcDbEntity
8
Defpoints
62
0
6
ByLayer
370
-1
48
1
60
0
100
AcDbPoint
10
45
20
32.325
30
0
39
0
210
0
220
0
230
1
50
360
0
POINT
5
19B
100
AcDbEntity
8
Defpoints
62
0
6
ByLayer
370
-1
48
1
60
0
100
AcDbPoint
10
55
20
32
30
0
39
0
210
0
220
0
230
1
50
360
0
POINT
5
19C
100
AcDbEntity
8
Defpoints
62
0
6
ByLayer
370
-1
48
1
60
0
100
AcDbPoint
10
55
20
-19.425
30
0
39
0
210
0
220
0
230
1
50
360
0
ENDBLK
5
192
100
AcDbEntity
8
0
100
AcDbBlockEnd
0
BLOCK
5
1A4
100
AcDbEntity
8
0
100
AcDbBlockBegin
2
_U2
70
0
10
0
20
0
30
0
3
_U2
0
MTEXT
5
19E
100
AcDbEntity
8
2
62
256
6
ByLayer
370
18
48
1
60
0
100
AcDbMText
10
48.532467
20
-18.392366
30
0
210
0
220
0
230
1
1
\W0.5321;10
40
3.5
41
0
44
1.084337
50
0
71
7
72
5
7
iso_b_vert
0
LINE
5
19F
100
AcDbEntity
8
2
62
256
6
ByLayer
370
13
48
1
60
0
100
AcDbLine
10
45
20
30.7375
30
0
11
45
21
-21.425
31
0
39
0
210
0
220
0
230
1
0
LINE
5
1A0
100
AcDbEntity
8
2
62
256
6
ByLayer
370
13
48
1
60
0
100
AcDbLine
10
55
20
30.4125
30
0
11
55
21
-21.425
31
0
39
0
210
0
220
0
230
1
0
LINE
5
1A1
100
AcDbEntity
8
2
62
256
6
ByLayer
370
13
48
1
60
0
100
AcDbLine
10
45
20
-19.425
30
0
11
55
21
-19.425
31
0
39
0
210
0
220
0
230
1
0
SOLID
5
1A2
100
AcDbEntity
8
2
62
256
6
ByLayer
370
18
48
1
60
0
100
AcDbTrace
10
45
20
-19.425
30
0
11
48.499998
21
-18.964216
31
0
12
48.500002
22
-19.885784
32
0
13
48.500002
23
-19.885784
33
0
39
0
210
0
220
0
230
1
0
SOLID
5
1A3
100
AcDbEntity
8
2
62
256
6
ByLayer
370
18
48
1
60
0
100
AcDbTrace
10
55
20
-19.425
30
0
11
51.500002
21
-19.885784
31
0
12
51.499998
22
-18.964216
32
0
13
51.499998
23
-18.964216
33
0
39
0
210
0
220
0
230
1
0
ENDBLK
5
1A5
100
AcDbEntity
8
0
100
AcDbBlockEnd
0
BLOCK
5
1AA
100
AcDbEntity
8
0
100
AcDbBlockBegin
2
*D7
70
1
10
0
20
0
30
0
3
*D7
0
LINE
5
1AC
100
AcDbEntity
8
0
62
256
6
ByLayer
370
-2
48
1
60
0
100
AcDbLine
10
0
20
1.5875
30
0
11
0
21
49.25
31
0
39
0
210
0
220
0
230
1
0
LINE
5
1AD
100
AcDbEntity
8
0
62
256
6
ByLayer
370
-2
48
1
60
0
100
AcDbLine
10
55
20
36.5875
30
0
11
55
21
49.25
31
0
39
0
210
0
220
0
230
1
0
LINE
5
1AE
100
AcDbEntity
8
0
62
256
6
ByLayer
370
-2
48
1
60
0
100
AcDbLine
10
3.5
20
47.25
30
0
11
51.5
21
47.25
31
0
39
0
210
0
220
0
230
1
0
SOLID
5
1AF
100
AcDbEntity
8
0
62
256
6
ByLayer
370
-1
48
1
60
0
100
AcDbTrace
10
3.5
20
47.833333
30
0
11
3.5
21
46.666667
31
0
12
0
22
47.25
32
0
13
0
23
47.25
33
0
39
0
210
0
220
0
230
1
0
SOLID
5
1B0
100
AcDbEntity
8
0
62
256
6
ByLayer
370
-1
48
1
60
0
100
AcDbTrace
10
51.5
20
46.666667
30
0
11
51.5
21
47.833333
31
0
12
55
22
47.25
32
0
13
55
23
47.25
33
0
39
0
210
0
220
0
230
1
0
MTEXT
5
1B1
100
AcDbEntity
8
0
62
256
6
ByLayer
370
18
48
1
60
0
100
AcDbMText
10
27.5
20
54.25
30
0
210
0
220
0
230
1
1
\A1;55
40
3.5
41
0
44
1
50
0
71
5
72
5
7
iso_b_vert
0
POINT
5
1B2
100
AcDbEntity
8
Defpoints
62
0
6
ByLayer
370
-1
48
1
60
0
100
AcDbPoint
10
0
20
0
30
0
39
0
210
0
220
0
230
1
50
360
0
POINT
5
1B3
100
AcDbEntity
8
Defpoints
62
0
6
ByLayer
370
-1
48
1
60
0
100
AcDbPoint
10
55
20
35
30
0
39
0
210
0
220
0
230
1
50
360
0
POINT
5
1B4
100
AcDbEntity
8
Defpoints
62
0
6
ByLayer
370
-1
48
1
60
0
100
AcDbPoint
10
55
20
47.25
30
0
39
0
210
0
220
0
230
1
50
360
0
ENDBLK
5
1AB
100
AcDbEntity
8
0
100
AcDbBlockEnd
0
BLOCK
5
1BC
100
AcDbEntity
8
0
100
AcDbBlockBegin
2
_U3
70
0
10
0
20
0
30
0
3
_U3
0
MTEXT
5
1B6
100
AcDbEntity
8
2
62
256
6
ByLayer
370
18
48
1
60
0
100
AcDbMText
10
25.595034
20
48.282634
30
0
210
0
220
0
230
1
1
\W0.6740;55
40
3.5
41
0
44
1.084337
50
0
71
7
72
5
7
iso_b_vert
0
LINE
5
1B7
100
AcDbEntity
8
2
62
256
6
ByLayer
370
13
48
1
60
0
100
AcDbLine
10
0
20
1.5875
30
0
11
0
21
49.25
31
0
39
0
210
0
220
0
230
1
0
LINE
5
1B8
100
AcDbEntity
8
2
62
256
6
ByLayer
370
13
48
1
60
0
100
AcDbLine
10
55
20
36.5875
30
0
11
55
21
49.25
31
0
39
0
210
0
220
0
230
1
0
LINE
5
1B9
100
AcDbEntity
8
2
62
256
6
ByLayer
370
13
48
1
60
0
100
AcDbLine
10
0
20
47.25
30
0
11
55
21
47.25
31
0
39
0
210
0
220
0
230
1
0
SOLID
5
1BA
100
AcDbEntity
8
2
62
256
6
ByLayer
370
18
48
1
60
0
100
AcDbTrace
10
0
20
47.25
30
0
11
3.499998
21
47.710784
31
0
12
3.500002
22
46.789216
32
0
13
3.500002
23
46.789216
33
0
39
0
210
0
220
0
230
1
0
SOLID
5
1BB
100
AcDbEntity
8
2
62
256
6
ByLayer
370
18
48
1
60
0
100
AcDbTrace
10
55
20
47.25
30
0
11
51.500002
21
46.789216
31
0
12
51.499998
22
47.710784
32
0
13
51.499998
23
47.710784
33
0
39
0
210
0
220
0
230
1
0
ENDBLK
5
1BD
100
AcDbEntity
8
0
100
AcDbBlockEnd
0
ENDSEC
0
SECTION
2
ENTITIES
0
ARC
5
F7
100
AcDbEntity
8
1
62
256
6
ByLayer
370
18
48
1
60
0
100
AcDbCircle
39
0
10
20.279208
20
26.2
30
0
40
1.2
210
0
220
0
230
1
100
AcDbArc
50
270
51
299.108212
0
ARC
5
F8
100
AcDbEntity
8
SK1
62
256
6
ByLayer
370
18
48
1
60
0
100
AcDbCircle
39
0
10
-0.6
20
18.75
30
0
40
0.999999999999998
210
0
220
0
230
1
100
AcDbArc
50
293.578178
51
306.869898
0
ARC
5
F9
100
AcDbEntity
8
SK1
62
256
6
ByLayer
370
18
48
1
60
0
100
AcDbCircle
39
0
10
-0.6
20
-18.75
30
0
40
0.999999999999998
210
0
220
0
230
1
100
AcDbArc
50
53.130102
51
66.421822
0
ARC
5
FD
100
AcDbEntity
8
1
62
256
6
ByLayer
370
18
48
1
60
0
100
AcDbCircle
39
0
10
26.8
20
26.15
30
0
40
1
210
0
220
0
230
1
100
AcDbArc
50
270
51
0
0
CIRCLE
5
FA
100
AcDbEntity
8
1
62
256
6
ByLayer
370
18
48
1
60
0
100
AcDbCircle
10
37.85
20
25.7
30
0
40
2.15
39
0
210
0
220
0
230
1
0
CIRCLE
5
FB
100
AcDbEntity
8
1
62
256
6
ByLayer
370
18
48
1
60
0
100
AcDbCircle
10
37.85
20
25.7
30
0
40
2.75
39
0
210
0
220
0
230
1
0
CIRCLE
5
FC
100
AcDbEntity
8
1
62
256
6
ByLayer
370
18
48
1
60
0
100
AcDbCircle
10
37.85
20
25.7
30
0
40
4.55
39
0
210
0
220
0
230
1
0
ELLIPSE
5
FE
100
AcDbEntity
8
1
62
256
6
ByLayer
370
18
48
1
60
0
100
AcDbEllipse
10
46.845399
20
33.5
30
0
11
0.628145593608111
21
7.35844525371095E-16
31
0
210
0
220
0
230
1
40
0.955193
41
0
42
6.28318530717959
0
ELLIPSE
5
FF
100
AcDbEntity
8
1
62
256
6
ByLayer
370
18
48
1
60
0
100
AcDbEllipse
10
37.47122
20
32.325
30
0
11
-2.78951487299376
21
3.41605763755018E-16
31
0
210
0
220
0
230
1
40
0.573576
41
0
42
1.57079632679489
0
ELLIPSE
5
100
100
AcDbEntity
8
1
62
256
6
ByLayer
370
18
48
1
60
0
100
AcDbEllipse
10
-1.056258
20
0
30
0
11
11.7092723497274
21
24.6771864409378
31
0
210
0
220
0
230
1
40
0.341999
41
-1.08183270048926
42
-0.167213071908985
0
ELLIPSE
5
101
100
AcDbEntity
8
1
62
256
6
ByLayer
370
18
48
1
60
0
100
AcDbEllipse
10
21.056258
20
0
30
0
11
11.7092723497271
21
-24.6771864409372
31
0
210
0
220
0
230
1
40
0.341999
41
-2.97437958168081
42
-2.05975995310052
0
ELLIPSE
5
102
100
AcDbEntity
8
1
62
256
6
ByLayer
370
18
48
1
60
0
100
AcDbEllipse
10
21.056258
20
0
30
0
11
11.7092723497274
21
24.6771864409375
31
0
210
0
220
0
230
1
40
0.341999
41
2.05975995310052
42
2.97437958168081
0
ELLIPSE
5
103
100
AcDbEntity
8
1
62
256
6
ByLayer
370
18
48
1
60
0
100
AcDbEllipse
10
-1.056258
20
0
30
0
11
11.7092723497287
21
-24.6771864409394
31
0
210
0
220
0
230
1
40
0.341999
41
0.167213071908973
42
1.08183270048921
0
ELLIPSE
5
104
100
AcDbEntity
8
1
62
256
6
ByLayer
370
18
48
1
60
0
100
AcDbEllipse
10
24.065604
20
-17.5
30
0
11
4.0000000365002
21
4.68582150108845E-15
31
0
210
0
220
0
230
1
40
1
41
3.07175059157499
42
3.13286600736925
0
ELLIPSE
5
105
100
AcDbEntity
8
1
62
256
6
ByLayer
370
18
48
1
60
0
100
AcDbEllipse
10
20.218172
20
0
30
0
11
1.53075794227812E-15
21
25.0000000000025
31
0
210
0
220
0
230
1
40
0.008727
41
0.713658347658694
42
2.35619449019225
0
ELLIPSE
5
106
100
AcDbEntity
8
1
62
256
6
ByLayer
370
18
48
1
60
0
100
AcDbEllipse
10
51.228061
20
35.45
30
0
11
0.897993681615815
21
1.05195951569006E-15
31
0
210
0
220
0
230
1
40
0.890875
41
-1.5707963267949
42
-1.2951525657903
0
ELLIPSE
5
107
100
AcDbEntity
8
1
62
256
6
ByLayer
370
18
48
1
60
0
100
AcDbEllipse
10
51.095006
20
33.933936
30
0
11
1.134256363915
21
1.3287307023201E-15
31
0
210
0
220
0
230
1
40
0.176327
41
-2.80561677258076
42
-1.98717825108322
0
ELLIPSE
5
108
100
AcDbEntity
8
1
62
256
6
ByLayer
370
18
48
1
60
0
100
AcDbEllipse
10
55.223799
20
35.580141
30
0
11
11.3425633335676
21
-3.37773109308942E-08
31
0
210
0
220
0
230
1
40
0.176327
41
-1.98717824320104
42
-1.91986216771741
0
ELLIPSE
5
109
100
AcDbEntity
8
1
62
256
6
ByLayer
370
18
48
1
60
0
100
AcDbEllipse
10
50.990371
20
33.5
30
0
11
1.19096918211167
21
1.39516723743718E-15
31
0
210
0
220
0
230
1
40
0.176327
41
0
42
1.22173047639648
0
ELLIPSE
5
10A
100
AcDbEntity
8
1
62
256
6
ByLayer
370
18
48
1
60
0
100
AcDbEllipse
10
50.990371
20
33.5
30
0
11
1.19096918211118
21
1.3951672374366E-15
31
0
210
0
220
0
230
1
40
0.176327
41
-1.22173047639672
42
0
0
ELLIPSE
5
10B
100
AcDbEntity
8
1
62
256
6
ByLayer
370
18
48
1
60
0
100
AcDbEllipse
10
55.223799
20
31.419859
30
0
11
11.3425633325784
21
3.38695433654361E-08
31
0
210
0
220
0
230
1
40
0.176327
41
1.91986216769906
42
1.98717824318817
0
ELLIPSE
5
10C
100
AcDbEntity
8
1
62
256
6
ByLayer
370
18
48
1
60
0
100
AcDbEllipse
10
51.095006
20
33.066064
30
0
11
1.1342563639287
21
1.32873070233614E-15
31
0
210
0
220
0
230
1
40
0.176327
41
1.98717825108862
42
2.80561677257734
0
ELLIPSE
5
10D
100
AcDbEntity
8
1
62
256
6
ByLayer
370
18
48
1
60
0
100
AcDbEllipse
10
49.623179
20
32.474562
30
0
11
0.850692272939238
21
9.96548026743571E-16
31
0
210
0
220
0
230
1
40
0.176327
41
2.80561677258123
42
3.14159265358979
0
ELLIPSE
5
10E
100
AcDbEntity
8
1
62
256
6
ByLayer
370
18
48
1
60
0
100
AcDbEllipse
10
51.228061
20
31.55
30
0
11
0.897993681673843
21
1.05195951575803E-15
31
0
210
0
220
0
230
1
40
0.890875
41
1.29515256580795
42
1.5707963267949
0
ELLIPSE
5
10F
100
AcDbEntity
8
1
62
256
6
ByLayer
370
18
48
1
60
0
100
AcDbEllipse
10
50.571498
20
34.25
30
0
11
-2.3287088041805E-17
21
-0.126773189709051
31
0
210
0
220
0
230
1
40
0.984808
41
0
42
6.28318530717959
0
ELLIPSE
5
110
100
AcDbEntity
8
1
62
256
6
ByLayer
370
18
48
1
60
0
100
AcDbEllipse
10
49.623179
20
34.525438
30
0
11
0.850692272939231
21
9.96548026743563E-16
31
0
210
0
220
0
230
1
40
0.176327
41
3.14159265358979
42
-2.80561677258123
0
POINT
5
70
100
AcDbEntity
8
80
62
256
6
ByLayer
370
18
48
1
60
0
100
AcDbPoint
10
0
20
0
30
0
39
0
210
0
220
0
230
1
50
360
0
POINT
5
72
100
AcDbEntity
8
81
62
256
6
ByLayer
370
18
48
1
60
0
100
AcDbPoint
10
55
20
35
30
0
39
0
210
0
220
0
230
1
50
360
0
POINT
5
74
100
AcDbEntity
8
1
62
256
6
ByLayer
370
18
48
1
60
1
100
AcDbPoint
10
55
20
35
30
0
39
0
210
0
220
0
230
1
50
360
0
POINT
5
76
100
AcDbEntity
8
1
62
256
6
ByLayer
370
18
48
1
60
1
100
AcDbPoint
10
0
20
0
30
0
39
0
210
0
220
0
230
1
50
360
0
POINT
5
77
100
AcDbEntity
8
1
62
256
6
ByLayer
370
18
48
1
60
1
100
AcDbPoint
10
55
20
32
30
0
39
0
210
0
220
0
230
1
50
360
0
POINT
5
78
100
AcDbEntity
8
1
62
256
6
ByLayer
370
18
48
1
60
1
100
AcDbPoint
10
55
20
35
30
0
39
0
210
0
220
0
230
1
50
360
0
POINT
5
79
100
AcDbEntity
8
1
62
256
6
ByLayer
370
18
48
1
60
1
100
AcDbPoint
10
45
20
32.325
30
0
39
0
210
0
220
0
230
1
50
360
0
POINT
5
7A
100
AcDbEntity
8
1
62
256
6
ByLayer
370
18
48
1
60
1
100
AcDbPoint
10
55
20
32
30
0
39
0
210
0
220
0
230
1
50
360
0
POINT
5
7B
100
AcDbEntity
8
1
62
256
6
ByLayer
370
18
48
1
60
1
100
AcDbPoint
10
0
20
0
30
0
39
0
210
0
220
0
230
1
50
360
0
POINT
5
7C
100
AcDbEntity
8
1
62
256
6
ByLayer
370
18
48
1
60
1
100
AcDbPoint
10
55
20
35
30
0
39
0
210
0
220
0
230
1
50
360
0
SPLINE
5
111
100
AcDbEntity
8
SK1
62
256
6
ByLayer
370
18
48
1
60
0
100
AcDbSpline
70
4
71
3
72
11
73
7
40
0
40
0
40
0
40
0
40
0.242589954178611
40
0.502544718947534
40
0.761087572808619
40
1
40
1
40
1
40
1
41
1
10
-0.199999999999989
20
17.5545583467655
30
0
41
1
10
-0.200957889270342
20
17.5289140231062
30
0
41
1
10
-0.211248315226243
20
17.4799022728818
30
0
41
1
10
-0.255179720944142
20
17.4139496110851
30
0
41
1
10
-0.321113897423771
20
17.3707504109673
30
0
41
1
10
-0.369683795840189
20
17.3607068368228
30
0
41
1
10
-0.394913799811292
20
17.359780267379
30
0
0
SPLINE
5
112
100
AcDbEntity
8
SK1
62
256
6
ByLayer
370
18
48
1
60
0
100
AcDbSpline
70
4
71
3
72
11
73
7
40
0
40
0
40
0
40
0
40
0.238912427113142
40
0.497455280942537
40
0.757410045745086
40
1
40
1
40
1
40
1
41
1
10
-0.394913799811292
20
-17.3597801301672
30
0
41
1
10
-0.369683795838398
20
-17.3607066995757
30
0
41
1
10
-0.321113897416438
20
-17.3707502735068
30
0
41
1
10
-0.255179720936354
20
-17.4139494728386
30
0
41
1
10
-0.211248315224566
20
-17.4799021334559
30
0
41
1
10
-0.200957889268722
20
-17.5289138828004
30
0
41
1
10
-0.199999999999989
20
-17.5545582060014
30
0
0
SPLINE
5
113
100
AcDbEntity
8
SK1
62
256
6
ByLayer
370
18
48
1
60
0
100
AcDbSpline
70
4
71
2
72
6
73
3
40
0
40
0
40
0
40
1
40
1
40
1
41
1
10
-28.5
20
16.8588088260863
30
0
41
1
10
-29.2499999297871
20
16.4259984461422
30
0
41
1
10
-30
20
15.9931873508859
30
0
0
SPLINE
5
114
100
AcDbEntity
8
SK1
62
256
6
ByLayer
370
18
48
1
60
0
100
AcDbSpline
70
4
71
2
72
6
73
3
40
0
40
0
40
0
40
1
40
1
40
1
41
1
10
-30
20
-15.9931874249212
30
0
41
1
10
-29.2499999297894
20
-16.425998517687
30
0
41
1
10
-28.5
20
-16.8588088951667
30
0
0
SPLINE
5
115
100
AcDbEntity
8
SK1
62
256
6
ByLayer
370
18
48
1
60
0
100
AcDbSpline
70
4
71
2
72
6
73
3
40
0
40
0
40
0
40
1
40
1
40
1
41
1
10
-0.394913799811292
20
17.3602209523781
30
0
41
1
10
-1.19497688886898
20
17.3401342706943
30
0
41
1
10
-1.99503997793928
20
17.3200475850767
30
0
0
SPLINE
5
116
100
AcDbEntity
8
SK1
62
256
6
ByLayer
370
18
48
1
60
0
100
AcDbSpline
70
4
71
2
72
6
73
3
40
0
40
0
40
0
40
1
40
1
40
1
41
1
10
-1.99503997793928
20
-17.3200478774323
30
0
41
1
10
-1.19497688886898
20
-17.340134563042
30
0
41
1
10
-0.394913799811292
20
-17.3602212447177
30
0
0
SPLINE
5
117
100
AcDbEntity
8
SK1
62
256
6
ByLayer
370
18
48
1
60
0
100
AcDbSpline
70
4
71
3
72
13
73
9
40
0
40
0
40
0
40
0
40
0.239505987673083
40
0.368426538155688
40
0.500072261058321
40
0.631705987654816
40
0.760593443052916
40
1
40
1
40
1
40
1
41
1
10
-1.99503997793928
20
17.3252686883829
30
0
41
1
10
-2.02110925982339
20
17.3248665791032
30
0
41
1
10
-2.05883863809936
20
17.3310361992814
30
0
41
1
10
-2.10627567686484
20
17.3540696096461
30
0
41
1
10
-2.13886243911927
20
17.3792256041407
30
0
41
1
10
-2.16563490776915
20
17.4104933211739
30
0
41
1
10
-2.19103207710595
20
17.4566915621889
30
0
41
1
10
-2.19909121921685
20
17.4940488942773
30
0
41
1
10
-2.19999999999999
20
17.5200961072231
30
0
0
SPLINE
5
118
100
AcDbEntity
8
SK1
62
256
6
ByLayer
370
18
48
1
60
0
100
AcDbSpline
70
4
71
3
72
13
73
9
40
0
40
0
40
0
40
0
40
0.239406556342956
40
0.368294011542631
40
0.499927738071791
40
0.631573461053609
40
0.76049401174041
40
1
40
1
40
1
40
1
41
1
10
-2.19999999999999
20
-17.5200962264206
30
0
41
1
10
-2.19909121920765
20
-17.494049013599
30
0
41
1
10
-2.19103207709688
20
-17.4566916816953
30
0
41
1
10
-2.16563490775661
20
-17.4104934409328
30
0
41
1
10
-2.13886243910255
20
-17.379225724067
30
0
41
1
10
-2.10627567684702
20
-17.3540697297104
30
0
41
1
10
-2.05883863807622
20
-17.3310363194718
30
0
41
1
10
-2.0211092598112
20
-17.3248666993254
30
0
41
1
10
-1.99503997793928
20
-17.3252688086104
30
0
0
SPLINE
5
119
100
AcDbEntity
8
SK1
62
256
6
ByLayer
370
18
48
1
60
0
100
AcDbSpline
70
4
71
2
72
6
73
3
40
0
40
0
40
0
40
1
40
1
40
1
41
1
10
-2.19999999999999
20
17.5148287077807
30
0
41
1
10
-15.3499999982432
20
17.1846805562453
30
0
41
1
10
-28.5
20
16.8545313165689
30
0
0
SPLINE
5
11A
100
AcDbEntity
8
SK1
62
256
6
ByLayer
370
18
48
1
60
0
100
AcDbSpline
70
4
71
2
72
6
73
3
40
0
40
0
40
0
40
1
40
1
40
1
41
1
10
-28.5
20
-16.8545316091351
30
0
41
1
10
-15.3499999982428
20
-17.1846808487114
30
0
41
1
10
-2.19999999999999
20
-17.5148290000611
30
0
0
SPLINE
5
11B
100
AcDbEntity
8
1
62
256
6
ByLayer
370
18
48
1
60
0
100
AcDbSpline
70
4
71
3
72
8
73
4
40
0
40
0
40
0
40
0
40
1
40
1
40
1
40
1
41
1
10
23.6
20
33.7436297323606
30
0
41
1
10
22.9261053095869
20
31.2127232307188
30
0
41
1
10
22.253024702439
20
28.6815979942454
30
0
41
1
10
21.5817357049735
20
26.15
30
0
0
SPLINE
5
11C
100
AcDbEntity
8
1
62
256
6
ByLayer
370
18
48
1
60
0
100
AcDbSpline
70
4
71
3
72
15
73
11
40
0
40
0
40
0
40
0
40
0.250000000000001
40
0.500000000000003
40
0.500000000000003
40
0.625000000000003
40
0.625000000000003
40
0.750000000000004
40
0.750000000000004
40
1
40
1
40
1
40
1
41
1
10
21.5817357049735
20
26.15
30
0
41
1
10
21.5695790253227
20
26.1041541334106
30
0
41
1
10
21.5453135414534
20
26.0135508261801
30
0
41
1
10
21.5211362893248
20
25.9250351932723
30
0
41
1
10
21.5030379529406
20
25.8594415224919
30
0
41
1
10
21.4970109851217
20
25.8377095789255
30
0
41
1
10
21.4849694962166
20
25.7945182594813
30
0
41
1
10
21.4789875137758
20
25.7731759853425
30
0
41
1
10
21.4612491151198
20
25.7102290972207
30
0
41
1
10
21.4496607640296
20
25.6695615050441
30
0
41
1
10
21.4383186059721
20
25.6302170074937
30
0
0
SPLINE
5
11D
100
AcDbEntity
8
1
62
256
6
ByLayer
370
18
48
1
60
0
100
AcDbSpline
70
4
71
3
72
8
73
4
40
0
40
0
40
0
40
0
40
1
40
1
40
1
40
1
41
1
10
23.8478206862851
20
34.6750000000007
30
0
41
1
10
23.7652667611786
20
34.3645333593908
30
0
41
1
10
23.6826613803873
20
34.0540761983043
30
0
41
1
10
23.6
20
33.7436297323606
30
0
0
SPLINE
5
11E
100
AcDbEntity
8
1
62
256
6
ByLayer
370
18
48
1
60
0
100
AcDbSpline
70
4
71
3
72
37
73
33
40
0
40
0
40
0
40
0
40
0.0312499999999989
40
0.0312499999999989
40
0.0624999999999977
40
0.124999999999995
40
0.124999999999995
40
0.249999999999989
40
0.249999999999989
40
0.281249999999987
40
0.281249999999987
40
0.312499999999984
40
0.312499999999984
40
0.374999999999985
40
0.374999999999985
40
0.499999999999992
40
0.499999999999992
40
0.531249999999991
40
0.531249999999991
40
0.56249999999999
40
0.624999999999984
40
0.687499999999977
40
0.687499999999977
40
0.718749999999974
40
0.718749999999974
40
0.749999999999971
40
0.749999999999971
40
0.874999999999983
40
0.874999999999983
40
0.937499999999991
40
0.937499999999991
40
1
40
1
40
1
40
1
41
1
10
26.0979991993594
20
25.15
30
0
41
1
10
26.1161596625569
20
25.15
30
0
41
1
10
26.1343436715721
20
25.1503025762776
30
0
41
1
10
26.1705404692686
20
25.1515196643775
30
0
41
1
10
26.2246748030338
20
25.1542634146374
30
0
41
1
10
26.2783209647337
20
25.1597933881372
30
0
41
1
10
26.3849379288975
20
25.1747079219338
30
0
41
1
10
26.4551208774946
20
25.1897592794783
30
0
41
1
10
26.5415829778381
20
25.2158024637559
30
0
41
1
10
26.5588116390369
20
25.2213750019034
30
0
41
1
10
26.5931357597247
20
25.2332803218201
30
0
41
1
10
26.6102683325627
20
25.2396289977521
30
0
41
1
10
26.6610060787218
20
25.2596878790594
30
0
41
1
10
26.6940493017973
20
25.2744353258394
30
0
41
1
10
26.7907724756647
20
25.3229089218058
30
0
41
1
10
26.8520714248128
20
25.3608215019205
30
0
41
1
10
26.9242042253867
20
25.4161083927452
30
0
41
1
10
26.9384465541441
20
25.4276015592398
30
0
41
1
10
26.9661892927071
20
25.4511913425105
30
0
41
1
10
27.0067111080116
20
25.4874857382757
30
0
41
1
10
27.0688047152749
20
25.5525094185346
30
0
41
1
10
27.1125622959425
20
25.6094566175086
30
0
41
1
10
27.1430477949145
20
25.6541098054289
30
0
41
1
10
27.1528200581636
20
25.6693186563508
30
0
41
1
10
27.1715554404667
20
25.7004102576542
30
0
41
1
10
27.1805452052648
20
25.7163445309867
30
0
41
1
10
27.2230509325826
20
25.7971584961779
30
0
41
1
10
27.2488697960024
20
25.8644367321645
30
0
41
1
10
27.2752531168167
20
25.9693159907482
30
0
41
1
10
27.2819729542626
20
26.0049415512714
30
0
41
1
10
27.2910147230195
20
26.0776041037324
30
0
41
1
10
27.2932370625239
20
26.1138738724258
30
0
41
1
10
27.2932370625239
20
26.15
30
0
0
SPLINE
5
11F
100
AcDbEntity
8
1
62
256
6
ByLayer
370
18
48
1
60
0
100
AcDbSpline
70
4
71
3
72
33
73
29
40
0
40
0
40
0
40
0
40
0.125000000000006
40
0.125000000000006
40
0.187500000000008
40
0.187500000000008
40
0.250000000000011
40
0.312500000000014
40
0.312500000000014
40
0.343750000000014
40
0.343750000000014
40
0.375000000000014
40
0.375000000000014
40
0.500000000000018
40
0.500000000000018
40
0.56250000000002
40
0.56250000000002
40
0.593750000000019
40
0.593750000000019
40
0.625000000000018
40
0.625000000000018
40
0.750000000000015
40
0.750000000000015
40
0.812500000000013
40
0.812500000000013
40
0.875000000000011
40
0.875000000000011
40
1
40
1
40
1
40
1
41
1
10
27.6792156108743
20
26.15
30
0
41
1
10
27.6792156108743
20
26.0832436260867
30
0
41
1
10
27.6724024636134
20
26.017099031744
30
0
41
1
10
27.6519070702788
20
25.918804833698
30
0
41
1
10
27.643288334735
20
25.8860488117296
30
0
41
1
10
27.6229298975619
20
25.8222481913133
30
0
41
1
10
27.5994237772518
20
25.7598760962957
30
0
41
1
10
27.5697769675525
20
25.7002908544577
30
0
41
1
10
27.5452277297467
20
25.6566521540257
30
0
41
1
10
27.5366582573285
20
25.6422812788688
30
0
41
1
10
27.5187359240042
20
25.6138950568287
30
0
41
1
10
27.5093565962303
20
25.5998444499673
30
0
41
1
10
27.4609510550854
20
25.5311735123727
30
0
41
1
10
27.4172761539375
20
25.4809191664987
30
0
41
1
10
27.3446575523051
20
25.412259099656
30
0
41
1
10
27.3192581400242
20
25.3905010109516
30
0
41
1
10
27.279331242548
20
25.3595926841259
30
0
41
1
10
27.2657552067244
20
25.3496106169166
30
0
41
1
10
27.2382758559522
20
25.3304211683924
30
0
41
1
10
27.2243435742831
20
25.3211910993284
30
0
41
1
10
27.1537383245528
20
25.2768276981421
30
0
41
1
10
27.0942590621149
20
25.2470074317023
30
0
41
1
10
27.0005995875411
20
25.2106842391689
30
0
41
1
10
26.9685154439817
20
25.1999671223374
30
0
41
1
10
26.9040980234737
20
25.1817637186531
30
0
41
1
10
26.8716360317392
20
25.1742157749747
30
0
41
1
10
26.7735131192457
20
25.1560926942454
30
0
41
1
10
26.7071055833143
20
25.15
30
0
41
1
10
26.6397368307141
20
25.15
30
0
0
SPLINE
5
120
100
AcDbEntity
8
1
62
256
6
ByLayer
370
18
48
1
60
0
100
AcDbSpline
70
4
71
3
72
12
73
8
40
0
40
0
40
0
40
0
40
0.499999999999998
40
0.499999999999998
40
0.749999999999999
40
0.749999999999999
40
1
40
1
40
1
40
1
41
1
10
48.5812077706279
20
33.25
30
0
41
1
10
48.5437775330762
20
33.0950408536173
30
0
41
1
10
48.5059758657856
20
32.9403036963876
30
0
41
1
10
48.448159045107
20
32.7088639462464
30
0
41
1
10
48.4286973549829
20
32.6318305698023
30
0
41
1
10
48.3891994859594
20
32.4781071665796
30
0
41
1
10
48.3691678996686
20
32.401414394977
30
0
41
1
10
48.348670536758
20
32.325
30
0
0
SPLINE
5
121
100
AcDbEntity
8
1
62
256
6
ByLayer
370
18
48
1
60
0
100
AcDbSpline
70
4
71
3
72
8
73
4
40
0
40
0
40
0
40
0
40
1
40
1
40
1
40
1
41
1
10
48.6865106453464
20
33.3121010091005
30
0
41
1
10
48.6514466721628
20
33.2912513603502
30
0
41
1
10
48.6163519950296
20
33.2705256665267
30
0
41
1
10
48.581207770628
20
33.2500000000001
30
0
0
SPLINE
5
122
100
AcDbEntity
8
1
62
256
6
ByLayer
370
18
48
1
60
0
100
AcDbSpline
70
4
71
3
72
20
73
16
40
0
40
0
40
0
40
0
40
0.249999999999935
40
0.249999999999935
40
0.374999999999946
40
0.374999999999946
40
0.499999999999957
40
0.499999999999957
40
0.624999999999968
40
0.624999999999968
40
0.749999999999978
40
0.749999999999978
40
0.874999999999989
40
0.874999999999989
40
1
40
1
40
1
40
1
41
1
10
48.75
20
33.4511810389476
30
0
41
1
10
48.75
20
33.4359842728918
30
0
41
1
10
48.7484779810557
20
33.4211868229534
30
0
41
1
10
48.7439599708086
20
33.3995770167443
30
0
41
1
10
48.7420864241383
20
33.3925551918343
30
0
41
1
10
48.7377115139115
20
33.3791589968836
30
0
41
1
10
48.7352004104125
20
33.3727365409518
30
0
41
1
10
48.7295292230758
20
33.360444346019
30
0
41
1
10
48.726361740832
20
33.3545803174143
30
0
41
1
10
48.7195881949015
20
33.3437814419371
30
0
41
1
10
48.7159594784963
20
33.3387926766347
30
0
41
1
10
48.7082253053791
20
33.3296243603783
30
0
41
1
10
48.7040937531756
20
33.3254272185598
30
0
41
1
10
48.6955397235204
20
33.3180428738551
30
0
41
1
10
48.6911040884285
20
33.314832350307
30
0
41
1
10
48.6865106453464
20
33.3121010091005
30
0
0
SPLINE
5
123
100
AcDbEntity
8
1
62
256
6
ByLayer
370
18
48
1
60
0
100
AcDbSpline
70
4
71
3
72
20
73
16
40
0
40
0
40
0
40
0
40
0.25
40
0.25
40
0.375
40
0.375
40
0.5
40
0.5
40
0.625
40
0.625
40
0.75
40
0.75
40
0.875
40
0.875
40
1
40
1
40
1
40
1
41
1
10
48.6865106453465
20
33.6878989908994
30
0
41
1
10
48.6957000859098
20
33.6824347895964
30
0
41
1
10
48.704189305352
20
33.6751290512659
30
0
41
1
10
48.7158510597949
20
33.6613509554201
30
0
41
1
10
48.7195461549389
20
33.6562788106681
30
0
41
1
10
48.7263182970862
20
33.6454956293184
30
0
41
1
10
48.7294293560827
20
33.6397475513341
30
0
41
1
10
48.7350908262978
20
33.627524649763
30
0
41
1
10
48.7376593079985
20
33.6209865990583
30
0
41
1
10
48.7420660944706
20
33.6075210867982
30
0
41
1
10
48.7439160773347
20
33.6005896613163
30
0
41
1
10
48.7469146404436
20
33.5863325174432
30
0
41
1
10
48.7480661815218
20
33.5789785157967
30
0
41
1
10
48.7496122894076
20
33.5639762744384
30
0
41
1
10
48.7500000000053
20
33.5564235687165
30
0
41
1
10
48.7500000000053
20
33.5488189610531
30
0
0
SPLINE
5
124
100
AcDbEntity
8
1
62
256
6
ByLayer
370
18
48
1
60
0
100
AcDbSpline
70
4
71
3
72
8
73
4
40
0
40
0
40
0
40
0
40
1
40
1
40
1
40
1
41
1
10
48.5812077706279
20
33.75
30
0
41
1
10
48.6163490340968
20
33.7294760627794
30
0
41
1
10
48.6514441464644
20
33.708750141474
30
0
41
1
10
48.6865106453465
20
33.6878989908994
30
0
0
SPLINE
5
125
100
AcDbEntity
8
1
62
256
6
ByLayer
370
18
48
1
60
0
100
AcDbSpline
70
4
71
3
72
12
73
8
40
0
40
0
40
0
40
0
40
0.250000000000006
40
0.250000000000006
40
0.500000000000012
40
0.500000000000012
40
1
40
1
40
1
40
1
41
1
10
48.3486705367578
20
34.6750000000009
30
0
41
1
10
48.3691678996684
20
34.5985856050238
30
0
41
1
10
48.3891994859592
20
34.5218928334211
30
0
41
1
10
48.4286973549828
20
34.3681694301983
30
0
41
1
10
48.4481590451069
20
34.2911360537541
30
0
41
1
10
48.5059758657855
20
34.0596963036127
30
0
41
1
10
48.5437775330761
20
33.9049591463829
30
0
41
1
10
48.5812077706279
20
33.75
30
0
0
SPLINE
5
126
100
AcDbEntity
8
1
62
256
6
ByLayer
370
18
48
1
60
0
100
AcDbSpline
70
4
71
3
72
8
73
4
40
0
40
0
40
0
40
0
40
1
40
1
40
1
40
1
41
1
10
24.0656038219736
20
-13.5
30
0
41
1
10
23.980157953921
20
-13.5
30
0
41
1
10
23.896439369153
20
-13.5027283718929
30
0
41
1
10
23.8143663092119
20
-13.5078958151757
30
0
0
SPLINE
5
127
100
AcDbEntity
8
1
62
256
6
ByLayer
370
18
48
1
60
0
100
AcDbSpline
70
4
71
3
72
49
73
45
40
0
40
0
40
0
40
0
40
0.062525741133376
40
0.062525741133376
40
0.125051482266752
40
0.125051482266752
40
0.187577223400128
40
0.187577223400128
40
0.203208658683472
40
0.203208658683472
40
0.218840093966815
40
0.250102964533499
40
0.250102964533499
40
0.31262870566687
40
0.31262870566687
40
0.375154446800241
40
0.375154446800241
40
0.406417317366923
40
0.406417317366923
40
0.437680187933606
40
0.437680187933606
40
0.500205929066965
40
0.500205929066965
40
0.562731670200324
40
0.562731670200324
40
0.593994540767004
40
0.593994540767004
40
0.625257411333683
40
0.625257411333683
40
0.750308893600399
40
0.750308893600399
40
0.765940328883739
40
0.765940328883739
40
0.781571764167078
40
0.781571764167078
40
0.812834634733758
40
0.812834634733758
40
0.875360375867116
40
0.875360375867116
40
0.937886117000476
40
0.937886117000476
40
0.969148987567156
40
0.969148987567156
40
1
40
1
40
1
40
1
41
1
10
45
20
32.325
30
0
41
1
10
44.9282856551218
20
32.325
30
0
41
1
10
44.8572419216922
20
32.3201973772988
30
0
41
1
10
44.7165969717879
20
32.3012985964161
30
0
41
1
10
44.6469966371077
20
32.2871956279596
30
0
41
1
10
44.5096698652021
20
32.2496779703067
30
0
41
1
10
44.4419430524345
20
32.2262581138133
30
0
41
1
10
44.3589253949398
20
32.1910656766702
30
0
41
1
10
44.3423820634698
20
32.183720006883
30
0
41
1
10
44.309660921653
20
32.1685225546675
30
0
41
1
10
44.2610813000252
20
32.1449505081365
30
0
41
1
10
44.2140464596978
20
32.1191111225839
30
0
41
1
10
44.1221512216847
20
32.0645733204689
30
0
41
1
10
44.0637854389054
20
32.0243979970496
30
0
41
1
10
43.9535279620556
20
31.9373650988635
30
0
41
1
10
43.9016389185091
20
31.8905039002717
30
0
41
1
10
43.8291881303957
20
31.8160539252091
30
0
41
1
10
43.8059135596588
20
31.7905104697874
30
0
41
1
10
43.7617465782462
20
31.7388458717913
30
0
41
1
10
43.7407815584297
20
31.7126550503952
30
0
41
1
10
43.6811811700331
20
31.6333453211045
30
0
41
1
10
43.6458470056421
20
31.5794886669721
30
0
41
1
10
43.5835049287288
20
31.4716076125896
30
0
41
1
10
43.5564979389303
20
31.4175815063522
30
0
41
1
10
43.5217139700933
20
31.3377905430047
30
0
41
1
10
43.5110468328329
20
31.3113285668339
30
0
41
1
10
43.4916987216573
20
31.2595932809643
30
0
41
1
10
43.4829965774611
20
31.2342841049131
30
0
41
1
10
43.4438054758716
20
31.1109709046826
30
0
41
1
10
43.4262172820696
20
31.02276846999
30
0
41
1
10
43.4145490755458
20
30.9404777228338
30
0
41
1
10
43.4133664896292
20
30.9315681478397
30
0
41
1
10
43.4112057246832
20
30.9142327843001
30
0
41
1
10
43.4102262749495
20
30.9057945656099
30
0
41
1
10
43.4075731800453
20
30.8813506007276
30
0
41
1
10
43.406180876592
20
30.8662015403329
30
0
41
1
10
43.4028310339538
20
30.8241987219278
30
0
41
1
10
43.4016850615757
20
30.8007871114469
30
0
41
1
10
43.4003444567976
20
30.7631637492104
30
0
41
1
10
43.4001507293746
20
30.748946468492
30
0
41
1
10
43.4000218516852
20
30.734628366087
30
0
41
1
10
43.4000095292401
20
30.7310251700557
30
0
41
1
10
43.3999987099187
20
30.7262364797044
30
0
41
1
10
43.3999999774101
20
30.7250212383133
30
0
41
1
10
43.3999999946278
20
30.7250047690402
30
0
0
SPLINE
5
128
100
AcDbEntity
8
1
62
256
6
ByLayer
370
18
48
1
60
0
100
AcDbSpline
70
4
71
3
72
10
73
6
40
0
40
0
40
0
40
0
40
0.5
40
0.5
40
1
40
1
40
1
40
1
41
1
10
21.4383186059721
20
25.15
30
0
41
1
10
21.510304203464
20
25.15
30
0
41
1
10
21.6010979941509
20
25.15
30
0
41
1
10
21.8161815376873
20
25.15
30
0
41
1
10
21.9404463205835
20
25.15
30
0
41
1
10
22.0790805323728
20
25.15
30
0
0
SPLINE
5
129
100
AcDbEntity
8
1
62
256
6
ByLayer
370
18
48
1
60
0
100
AcDbSpline
70
4
71
3
72
24
73
20
40
0
40
0
40
0
40
0
40
0.182042022790759
40
0.182042022790759
40
0.364084045581518
40
0.364084045581518
40
0.546126068372277
40
0.546126068372277
40
0.637147079767657
40
0.637147079767657
40
0.728168091163036
40
0.728168091163036
40
0.819189102558416
40
0.819189102558416
40
0.910210113953796
40
0.910210113953796
40
0.955720619651486
40
0.955720619651486
40
1
40
1
40
1
40
1
41
1
10
21.4383186059721
20
25.15
30
0
41
1
10
21.4145606072011
20
25.15
30
0
41
1
10
21.3820563150702
20
25.15
30
0
41
1
10
21.3063057636218
20
25.15
30
0
41
1
10
21.2629993897963
20
25.15
30
0
41
1
10
21.1720091713401
20
25.15
30
0
41
1
10
21.1242571969103
20
25.15
30
0
41
1
10
21.055311606293
20
25.15
30
0
41
1
10
21.0327963020983
20
25.15
30
0
41
1
10
20.9900252382724
20
25.15
30
0
41
1
10
20.9697704511538
20
25.15
30
0
41
1
10
20.9330958803965
20
25.15
30
0
41
1
10
20.9166838873627
20
25.15
30
0
41
1
10
20.8894084495211
20
25.15
30
0
41
1
10
20.8785620778497
20
25.15
30
0
41
1
10
20.8675651116087
20
25.15
30
0
41
1
10
20.8647745686833
20
25.15
30
0
41
1
10
20.8611063730029
20
25.15
30
0
41
1
10
20.8601798124913
20
25.15
30
0
41
1
10
20.8601556059728
20
25.15
30
0
0
SPLINE
5
12A
100
AcDbEntity
8
1
62
256
6
ByLayer
370
18
48
1
60
0
100
AcDbSpline
70
4
71
3
72
26
73
22
40
0
40
0
40
0
40
0
40
0.125
40
0.125
40
0.25
40
0.25
40
0.3125
40
0.3125
40
0.374999999999999
40
0.374999999999999
40
0.499999999999996
40
0.499999999999996
40
0.624999999999992
40
0.624999999999992
40
0.687499999999995
40
0.687499999999995
40
0.749999999999998
40
0.749999999999998
40
0.874999999999999
40
0.874999999999999
40
1
40
1
40
1
40
1
41
1
10
21.0789973669916
20
25.15
30
0
41
1
10
21.0846558404922
20
25.15
30
0
41
1
10
21.0936436622351
20
25.1531066426667
30
0
41
1
10
21.116397661521
20
25.1647464018475
30
0
41
1
10
21.1301630489078
20
25.17328566676
30
0
41
1
10
21.1532354237465
20
25.1899978430742
30
0
41
1
10
21.1613651842623
20
25.1962502767197
30
0
41
1
10
21.1780735157197
20
25.2099072061718
30
0
41
1
10
21.186653920174
20
25.2173094640246
30
0
41
1
10
21.2128360355555
20
25.2411903930833
30
0
41
1
10
21.230870732168
20
25.2593328109204
30
0
41
1
10
21.2671113644204
20
25.3000986272758
30
0
41
1
10
21.2853235333158
20
25.3227217821483
30
0
41
1
10
21.3121777261249
20
25.360303090497
30
0
41
1
10
21.3210571708545
20
25.3734547466867
30
0
41
1
10
21.3383298423659
20
25.4006627839786
30
0
41
1
10
21.3467540221096
20
25.4147602780868
30
0
41
1
10
21.3712717998091
20
25.4585641341311
30
0
41
1
10
21.3866131093298
20
25.489773396279
30
0
41
1
10
21.414643664794
20
25.5565576864707
30
0
41
1
10
21.4273384371424
20
25.5921282043369
30
0
41
1
10
21.4383186059721
20
25.6302170074937
30
0
0
SPLINE
5
12B
100
AcDbEntity
8
1
62
256
6
ByLayer
370
18
48
1
60
0
100
AcDbSpline
70
4
71
3
72
63
73
59
40
0
40
0
40
0
40
0
40
0.062499999999997
40
0.062499999999997
40
0.0937499999999955
40
0.0937499999999955
40
0.109374999999995
40
0.109374999999995
40
0.124999999999994
40
0.124999999999994
40
0.187499999999994
40
0.187499999999994
40
0.249999999999994
40
0.249999999999994
40
0.265624999999995
40
0.265624999999995
40
0.281249999999995
40
0.312499999999995
40
0.312499999999995
40
0.374999999999996
40
0.374999999999996
40
0.437499999999998
40
0.437499999999998
40
0.468749999999998
40
0.468749999999998
40
0.499999999999998
40
0.499999999999998
40
0.562499999999999
40
0.562499999999999
40
0.624999999999999
40
0.624999999999999
40
0.6875
40
0.6875
40
0.75
40
0.75
40
0.781250000000001
40
0.781250000000001
40
0.812500000000001
40
0.812500000000001
40
0.843750000000001
40
0.843750000000001
40
0.875000000000001
40
0.875000000000001
40
0.906250000000002
40
0.906250000000002
40
0.937500000000003
40
0.937500000000003
40
0.953125000000003
40
0.953125000000003
40
0.968750000000003
40
0.968750000000003
40
0.976562500000002
40
0.976562500000002
40
0.984375000000001
40
0.984375000000001
40
0.992187500000001
40
0.992187500000001
40
1
40
1
40
1
40
1
41
1
10
23.8
20
-13.5088279152919
30
0
41
1
10
23.6513963277983
20
-13.5187171664839
30
0
41
1
10
23.5049873545124
20
-13.5367685626177
30
0
41
1
10
23.2885155685391
20
-13.5755245689602
30
0
41
1
10
23.2168832864541
20
-13.5903948097614
30
0
41
1
10
23.1102149846982
20
-13.6155995324442
30
0
41
1
10
23.0747889794679
20
-13.6244846125233
30
0
41
1
10
23.0041968238244
20
-13.6432204165939
30
0
41
1
10
22.9691032201629
20
-13.6530538471648
30
0
41
1
10
22.7956353943188
20
-13.7041980354472
30
0
41
1
10
22.6622569948836
20
-13.7516683759622
30
0
41
1
10
22.4051120571925
20
-13.8582779650336
30
0
41
1
10
22.2813517418765
20
-13.9174248229479
30
0
41
1
10
22.1322227787671
20
-13.9981165402308
30
0
41
1
10
22.1026318146759
20
-14.0146200249338
30
0
41
1
10
22.0442633039799
20
-14.0481432268496
30
0
41
1
10
21.9579362281304
20
-14.0991938451705
30
0
41
1
10
21.8751412558252
20
-14.1524505668216
30
0
41
1
10
21.7139441861341
20
-14.2617055720261
30
0
41
1
10
21.6123212223332
20
-14.3381881129356
30
0
41
1
10
21.4195382146573
20
-14.497669784208
30
0
41
1
10
21.3283836931315
20
-14.5806724663418
30
0
41
1
10
21.1989194627909
20
-14.7096895145083
30
0
41
1
10
21.1569788604557
20
-14.7534491293682
30
0
41
1
10
21.0754584317239
20
-14.8424312996835
30
0
41
1
10
21.0360953357793
20
-14.8874195117384
30
0
41
1
10
20.9222109742968
20
-15.023495344755
30
0
41
1
10
20.8517645823258
20
-15.115819452771
30
0
41
1
10
20.7207917132612
20
-15.3033408326515
30
0
41
1
10
20.6602692051782
20
-15.3985398055819
30
0
41
1
10
20.548463641549
20
-15.5915546242265
30
0
41
1
10
20.497182809942
20
-15.6893723853058
30
0
41
1
10
20.4034303650659
20
-15.8873976157396
30
0
41
1
10
20.3609599181388
20
-15.9876090187617
30
0
41
1
10
20.3036896806636
20
-16.1395110338562
30
0
41
1
10
20.2856687866805
20
-16.1904310688522
30
0
41
1
10
20.2518981529871
20
-16.2923043732777
30
0
41
1
10
20.236127406374
20
-16.3433107449371
30
0
41
1
10
20.2067719829456
20
-16.4453737683355
30
0
41
1
10
20.1931873176857
20
-16.4964320335831
30
0
41
1
10
20.1681735688562
20
-16.5984481889625
30
0
41
1
10
20.1567444431254
20
-16.6494102816688
30
0
41
1
10
20.1360240953084
20
-16.7509421355317
30
0
41
1
10
20.1267401489928
20
-16.8014926675356
30
0
41
1
10
20.1103336140914
20
-16.9013372314286
30
0
41
1
10
20.1032058722801
20
-16.9507040806349
30
0
41
1
10
20.0941411979505
20
-17.0224379561992
30
0
41
1
10
20.0913894808034
20
-17.0459702759544
30
0
41
1
10
20.0864595075621
20
-17.0914254719559
30
0
41
1
10
20.0842783143826
20
-17.1133876618378
30
0
41
1
10
20.0814579595965
20
-17.1440685155019
30
0
41
1
10
20.0805932902712
20
-17.1539107532014
30
0
41
1
10
20.0790251789545
20
-17.1724676694539
30
0
41
1
10
20.078323429576
20
-17.1811659657591
30
0
41
1
10
20.0771178244729
20
-17.1966198478324
30
0
41
1
10
20.0766109922969
20
-17.2034088615334
30
0
41
1
10
20.0758124193227
20
-17.2143522064463
30
0
41
1
10
20.0755204322713
20
-17.2185037895088
30
0
41
1
10
20.0753556842868
20
-17.2208588176447
30
0
0
SPLINE
5
12C
100
AcDbEntity
8
1
62
256
6
ByLayer
370
18
48
1
60
0
100
AcDbSpline
70
4
71
3
72
10
73
6
40
0
40
0
40
0
40
0
40
0.5
40
0.5
40
1
40
1
40
1
40
1
41
1
10
22.0790805323728
20
25.15
30
0
41
1
10
21.967828243181
20
24.6501686623656
30
0
41
1
10
21.8585746330323
20
24.1508126798156
30
0
41
1
10
21.6447366038262
20
23.1529983025129
30
0
41
1
10
21.5401507289959
20
22.6545396827898
30
0
41
1
10
21.4383186059721
20
22.1565069621767
30
0
0
SPLINE
5
12D
100
AcDbEntity
8
1
62
256
6
ByLayer
370
18
48
1
60
0
100
AcDbSpline
70
4
71
3
72
29
73
25
40
0
40
0
40
0
40
0
40
0.124999999999996
40
0.124999999999996
40
0.249999999999992
40
0.249999999999992
40
0.374999999999989
40
0.374999999999989
40
0.499999999999985
40
0.499999999999985
40
0.624999999999981
40
0.624999999999981
40
0.656249999999981
40
0.656249999999981
40
0.687499999999981
40
0.749999999999985
40
0.749999999999985
40
0.874999999999992
40
0.874999999999992
40
0.906249999999994
40
0.906249999999994
40
0.937499999999996
40
0.937499999999996
40
1
40
1
40
1
40
1
41
1
10
20.2792076144253
20
19.8950803604354
30
0
41
1
10
20.3129993875381
20
19.9724783075147
30
0
41
1
10
20.3508080627096
20
20.0491928085947
30
0
41
1
10
20.4336955752516
20
20.2031521478433
30
0
41
1
10
20.478776135152
20
20.2803987296674
30
0
41
1
10
20.5750409939691
20
20.4375969516697
30
0
41
1
10
20.6262275816849
20
20.517548327757
30
0
41
1
10
20.7330751929893
20
20.6825758906263
30
0
41
1
10
20.7887407287326
20
20.7676478905675
30
0
41
1
10
20.9023596264102
20
20.9456393265768
30
0
41
1
10
20.9603234041974
20
21.0385458737144
30
0
41
1
10
21.0323646200363
20
21.1616193732746
30
0
41
1
10
21.0467460503916
20
21.1865786077539
30
0
41
1
10
21.0752254098932
20
21.2369291698028
30
0
41
1
10
21.1175849589249
20
21.3132165867727
30
0
41
1
10
21.1585976225518
20
21.3919391087981
30
0
41
1
10
21.2380396838741
20
21.5530801830531
30
0
41
1
10
21.2876232475977
20
21.6653796614679
30
0
41
1
10
21.3420791591569
20
21.8138792352939
30
0
41
1
10
21.352606909452
20
21.8440461392935
30
0
41
1
10
21.3726921874066
20
21.9049774368127
30
0
41
1
10
21.3822425628529
20
21.9357131107086
30
0
41
1
10
21.4092663548706
20
22.0287832109183
30
0
41
1
10
21.425123785878
20
22.0919747501956
30
0
41
1
10
21.4383186059721
20
22.1565069621767
30
0
0
SPLINE
5
12E
100
AcDbEntity
8
1
62
256
6
ByLayer
370
18
48
1
60
0
100
AcDbSpline
70
4
71
3
72
26
73
22
40
0
40
0
40
0
40
0
40
0.0624999999999983
40
0.0624999999999983
40
0.0937499999999936
40
0.0937499999999936
40
0.124999999999989
40
0.124999999999989
40
0.249999999999987
40
0.249999999999987
40
0.374999999999985
40
0.374999999999985
40
0.437499999999983
40
0.437499999999983
40
0.499999999999981
40
0.499999999999981
40
0.624999999999981
40
0.624999999999981
40
0.749999999999984
40
0.749999999999984
40
1
40
1
40
1
40
1
41
1
10
11.4613248654052
20
23.8391299750502
30
0
41
1
10
11.4772013120199
20
23.8391299750502
30
0
41
1
10
11.4927843117432
20
23.8386381480423
30
0
41
1
10
11.5157579869922
20
23.8372273769848
30
0
41
1
10
11.5233488813096
20
23.8366445991221
30
0
41
1
10
11.5384012334116
20
23.8352611656444
30
0
41
1
10
11.5458956692735
20
23.8344558067494
30
0
41
1
10
11.582404000511
20
23.8299833264009
30
0
41
1
10
11.6089650834003
20
23.8249896713849
30
0
41
1
10
11.6582924559948
20
23.813005969379
30
0
41
1
10
11.6801688454703
20
23.8062336877525
30
0
41
1
10
11.7102266942346
20
23.7952700628808
30
0
41
1
10
11.719773612984
20
23.7914778883489
30
0
41
1
10
11.7380555263963
20
23.7836514357395
30
0
41
1
10
11.7468017366172
20
23.7796095569562
30
0
41
1
10
11.7716769242357
20
23.7673085978343
30
0
41
1
10
11.7865761040498
20
23.7588292909636
30
0
41
1
10
11.8138519277098
20
23.7414211400326
30
0
41
1
10
11.8262196262291
20
23.7324910902464
30
0
41
1
10
11.8602443227467
20
23.7051129235882
30
0
41
1
10
11.8788862370737
20
23.686033116806
30
0
41
1
10
11.8943375672975
20
23.6665017920808
30
0
0
SPLINE
5
12F
100
AcDbEntity
8
1
62
256
6
ByLayer
370
18
48
1
60
0
100
AcDbSpline
70
4
71
3
72
30
73
26
40
0
40
0
40
0
40
0
40
0.25
40
0.25
40
0.374999999999996
40
0.374999999999996
40
0.437499999999993
40
0.437499999999993
40
0.49999999999999
40
0.49999999999999
40
0.624999999999989
40
0.624999999999989
40
0.687499999999989
40
0.687499999999989
40
0.749999999999989
40
0.749999999999989
40
0.812499999999988
40
0.812499999999988
40
0.843749999999991
40
0.843749999999991
40
0.874999999999994
40
0.874999999999994
40
0.937499999999997
40
0.937499999999997
40
1
40
1
40
1
40
1
41
1
10
11.8943375672973
20
8.05584836782791
30
0
41
1
10
11.8788923030149
20
7.9984916943493
30
0
41
1
10
11.8604037172645
20
7.94218253951274
30
0
41
1
10
11.8264575712212
20
7.85991012495438
30
0
41
1
10
11.8140962699691
20
7.8328550605851
30
0
41
1
10
11.7935837333005
20
7.79297622996174
30
0
41
1
10
11.7864159259844
20
7.77980127287398
30
0
41
1
10
11.7713191828915
20
7.75372482186646
30
0
41
1
10
11.7633824368151
20
7.74081492713998
30
0
41
1
10
11.7384769785308
20
7.70292805784948
30
0
41
1
10
11.7203772593316
20
7.67866353751202
30
0
41
1
10
11.6901125047557
20
7.64434849039861
30
0
41
1
10
11.6794995583259
20
7.63327217102551
30
0
41
1
10
11.6573691354905
20
7.6123213786517
30
0
41
1
10
11.6458165560481
20
7.60240297286816
30
0
41
1
10
11.6215461384038
20
7.58390025536215
30
0
41
1
10
11.6088302857937
20
7.57531366225038
30
0
41
1
10
11.5886665813883
20
7.56368345606458
30
0
41
1
10
11.5817366894217
20
7.56000567013078
30
0
41
1
10
11.5676991017995
20
7.55323657194805
30
0
41
1
10
11.5605721090663
20
7.55013193108826
30
0
41
1
10
11.53884494046
20
7.54171396614049
30
0
41
1
10
11.5239007732521
20
7.53729092133952
30
0
41
1
10
11.4929356027573
20
7.53123335639165
30
0
41
1
10
11.477175816822
20
7.52966679426495
30
0
41
1
10
11.4613248654052
20
7.52966679426495
30
0
0
SPLINE
5
130
100
AcDbEntity
8
1
62
256
6
ByLayer
370
18
48
1
60
0
100
AcDbSpline
70
4
71
3
72
26
73
22
40
0
40
0
40
0
40
0
40
0.0624999999999987
40
0.0624999999999987
40
0.0937500000000011
40
0.0937500000000011
40
0.125000000000003
40
0.125000000000003
40
0.250000000000002
40
0.250000000000002
40
0.375
40
0.375
40
0.437500000000001
40
0.437500000000001
40
0.500000000000003
40
0.500000000000003
40
0.625000000000003
40
0.625000000000003
40
0.750000000000003
40
0.750000000000003
40
1
40
1
40
1
40
1
41
1
10
8.53867513459488
20
7.52966679426513
30
0
41
1
10
8.52279868798016
20
7.52966679426513
30
0
41
1
10
8.50721568825682
20
7.53122440152956
30
0
41
1
10
8.48424201300779
20
7.53568798536659
30
0
41
1
10
8.47665111869043
20
7.53753139400641
30
0
41
1
10
8.46159876658839
20
7.54190496002261
30
0
41
1
10
8.45410433072652
20
7.54444995843576
30
0
41
1
10
8.41759599948898
20
7.55857361750111
30
0
41
1
10
8.39103491659972
20
7.57431556968117
30
0
41
1
10
8.3417075440052
20
7.61190750686271
30
0
41
1
10
8.31983115452977
20
7.63307325241209
30
0
41
1
10
8.28977330576538
20
7.66715495165653
30
0
41
1
10
8.280226387016
20
7.67891539799629
30
0
41
1
10
8.26194447360365
20
7.70312184666884
30
0
41
1
10
8.25319826338281
20
7.71559105034075
30
0
41
1
10
8.22832307576428
20
7.75343444963909
30
0
41
1
10
8.2134238959502
20
7.77938351245615
30
0
41
1
10
8.18614807229014
20
7.8323495429301
30
0
41
1
10
8.17378037377091
20
7.85937042586591
30
0
41
1
10
8.13975567725331
20
7.94172327888197
30
0
41
1
10
8.12111376292626
20
7.99846916820715
30
0
41
1
10
8.1056624327025
20
8.05584836782779
30
0
0
SPLINE
5
131
100
AcDbEntity
8
1
62
256
6
ByLayer
370
18
48
1
60
0
100
AcDbSpline
70
4
71
3
72
30
73
26
40
0
40
0
40
0
40
0
40
0.249999999999997
40
0.249999999999997
40
0.374999999999996
40
0.374999999999996
40
0.437499999999997
40
0.437499999999997
40
0.499999999999998
40
0.499999999999998
40
0.624999999999997
40
0.624999999999997
40
0.687499999999997
40
0.687499999999997
40
0.749999999999998
40
0.749999999999998
40
0.812499999999998
40
0.812499999999998
40
0.843749999999999
40
0.843749999999999
40
0.874999999999999
40
0.874999999999999
40
0.9375
40
0.9375
40
1
40
1
40
1
40
1
41
1
10
8.10566243270264
20
23.6665017920808
30
0
41
1
10
8.12110769698506
20
23.6860254491251
30
0
41
1
10
8.13959628273545
20
23.7049589195931
30
0
41
1
10
8.17354242877875
20
23.7323123198157
30
0
41
1
10
8.18590373003093
20
23.7412544902042
30
0
41
1
10
8.20641626669953
20
23.7543620682907
30
0
41
1
10
8.21358407401561
20
23.7586801045418
30
0
41
1
10
8.22868081710848
20
23.7672030231185
30
0
41
1
10
8.23661756318492
20
23.7714105724815
30
0
41
1
10
8.26152302146917
20
23.7837256270429
30
0
41
1
10
8.2796227406684
20
23.7915679133937
30
0
41
1
10
8.30988749524425
20
23.8026065911347
30
0
41
1
10
8.32050044167417
20
23.8061604830514
30
0
41
1
10
8.34263086450952
20
23.8128680383081
30
0
41
1
10
8.35418344395191
20
23.816035844018
30
0
41
1
10
8.3784538615962
20
23.8219342456095
30
0
41
1
10
8.39116971420628
20
23.8246655611125
30
0
41
1
10
8.41133341861175
20
23.8283593459882
30
0
41
1
10
8.41826331057828
20
23.8295263669799
30
0
41
1
10
8.43230089820059
20
23.8316728303992
30
0
41
1
10
8.4394278909337
20
23.8326565134122
30
0
41
1
10
8.46115505954
20
23.8353222152631
30
0
41
1
10
8.47609922674792
20
23.8367207404254
30
0
41
1
10
8.50706439724274
20
23.838635326325
30
0
41
1
10
8.52282418317805
20
23.8391299750504
30
0
41
1
10
8.53867513459483
20
23.8391299750504
30
0
0
SPLINE
5
132
100
AcDbEntity
8
1
62
256
6
ByLayer
370
18
48
1
60
0
100
AcDbSpline
70
4
71
3
72
26
73
22
40
0
40
0
40
0
40
0
40
0.0624999999999911
40
0.0624999999999911
40
0.0937499999999893
40
0.0937499999999893
40
0.124999999999987
40
0.124999999999987
40
0.24999999999999
40
0.24999999999999
40
0.374999999999992
40
0.374999999999992
40
0.437499999999994
40
0.437499999999994
40
0.499999999999996
40
0.499999999999996
40
0.625000000000001
40
0.625000000000001
40
0.750000000000002
40
0.750000000000002
40
1
40
1
40
1
40
1
41
1
10
8.53867513459488
20
-23.8391299750503
30
0
41
1
10
8.52279868798016
20
-23.8391299750503
30
0
41
1
10
8.50721568825679
20
-23.8386381480423
30
0
41
1
10
8.48424201300776
20
-23.8372273769848
30
0
41
1
10
8.4766511186904
20
-23.8366445991222
30
0
41
1
10
8.46159876658837
20
-23.8352611656445
30
0
41
1
10
8.45410433072652
20
-23.8344558067495
30
0
41
1
10
8.41759599948898
20
-23.8299833264009
30
0
41
1
10
8.39103491659972
20
-23.8249896713849
30
0
41
1
10
8.3417075440052
20
-23.813005969379
30
0
41
1
10
8.31983115452974
20
-23.8062336877526
30
0
41
1
10
8.28977330576538
20
-23.7952700628808
30
0
41
1
10
8.280226387016
20
-23.791477888349
30
0
41
1
10
8.26194447360365
20
-23.7836514357395
30
0
41
1
10
8.25319826338281
20
-23.7796095569563
30
0
41
1
10
8.22832307576428
20
-23.7673085978343
30
0
41
1
10
8.2134238959502
20
-23.7588292909636
30
0
41
1
10
8.18614807229014
20
-23.7414211400326
30
0
41
1
10
8.17378037377091
20
-23.7324910902464
30
0
41
1
10
8.13975567725331
20
-23.7051129235882
30
0
41
1
10
8.12111376292623
20
-23.6860331168061
30
0
41
1
10
8.1056624327025
20
-23.6665017920809
30
0
0
SPLINE
5
133
100
AcDbEntity
8
1
62
256
6
ByLayer
370
18
48
1
60
0
100
AcDbSpline
70
4
71
3
72
30
73
26
40
0
40
0
40
0
40
0
40
0.249999999999989
40
0.249999999999989
40
0.374999999999984
40
0.374999999999984
40
0.437499999999981
40
0.437499999999981
40
0.499999999999979
40
0.499999999999979
40
0.624999999999979
40
0.624999999999979
40
0.687499999999979
40
0.687499999999979
40
0.749999999999978
40
0.749999999999978
40
0.812499999999977
40
0.812499999999977
40
0.843749999999979
40
0.843749999999979
40
0.874999999999981
40
0.874999999999981
40
0.93749999999999
40
0.93749999999999
40
1
40
1
40
1
40
1
41
1
10
8.10566243270264
20
-8.05584836782782
30
0
41
1
10
8.12110769698506
20
-7.99849169434918
30
0
41
1
10
8.13959628273548
20
-7.94218253951263
30
0
41
1
10
8.17354242877877
20
-7.85991012495424
30
0
41
1
10
8.18590373003093
20
-7.83285506058499
30
0
41
1
10
8.20641626669953
20
-7.7929762299616
30
0
41
1
10
8.21358407401561
20
-7.77980127287387
30
0
41
1
10
8.22868081710851
20
-7.75372482186634
30
0
41
1
10
8.23661756318495
20
-7.74081492713984
30
0
41
1
10
8.26152302146917
20
-7.70292805784933
30
0
41
1
10
8.2796227406684
20
-7.67866353751188
30
0
41
1
10
8.30988749524425
20
-7.64434849039847
30
0
41
1
10
8.32050044167417
20
-7.63327217102537
30
0
41
1
10
8.34263086450954
20
-7.61232137865156
30
0
41
1
10
8.35418344395191
20
-7.60240297286799
30
0
41
1
10
8.3784538615962
20
-7.58390025536198
30
0
41
1
10
8.39116971420628
20
-7.57531366225024
30
0
41
1
10
8.41133341861175
20
-7.56368345606444
30
0
41
1
10
8.41826331057828
20
-7.56000567013064
30
0
41
1
10
8.43230089820059
20
-7.55323657194791
30
0
41
1
10
8.4394278909337
20
-7.55013193108812
30
0
41
1
10
8.46115505954
20
-7.54171396614032
30
0
41
1
10
8.47609922674789
20
-7.53729092133938
30
0
41
1
10
8.50706439724271
20
-7.53123335639151
30
0
41
1
10
8.52282418317802
20
-7.52966679426481
30
0
41
1
10
8.5386751345948
20
-7.52966679426481
30
0
0
SPLINE
5
134
100
AcDbEntity
8
1
62
256
6
ByLayer
370
18
48
1
60
0
100
AcDbSpline
70
4
71
3
72
26
73
22
40
0
40
0
40
0
40
0
40
0.0624999999999956
40
0.0624999999999956
40
0.0937499999999942
40
0.0937499999999942
40
0.124999999999993
40
0.124999999999993
40
0.249999999999994
40
0.249999999999994
40
0.374999999999995
40
0.374999999999995
40
0.437499999999996
40
0.437499999999996
40
0.499999999999998
40
0.499999999999998
40
0.625000000000001
40
0.625000000000001
40
0.750000000000001
40
0.750000000000001
40
1
40
1
40
1
40
1
41
1
10
11.4613248654052
20
-7.52966679426524
30
0
41
1
10
11.4772013120199
20
-7.52966679426524
30
0
41
1
10
11.4927843117432
20
-7.5312244015297
30
0
41
1
10
11.5157579869922
20
-7.53568798536676
30
0
41
1
10
11.5233488813096
20
-7.53753139400655
30
0
41
1
10
11.5384012334116
20
-7.54190496002275
30
0
41
1
10
11.5458956692735
20
-7.54444995843588
30
0
41
1
10
11.582404000511
20
-7.55857361750125
30
0
41
1
10
11.6089650834003
20
-7.57431556968129
30
0
41
1
10
11.6582924559948
20
-7.61190750686282
30
0
41
1
10
11.6801688454702
20
-7.6330732524122
30
0
41
1
10
11.7102266942346
20
-7.66715495165661
30
0
41
1
10
11.719773612984
20
-7.67891539799638
30
0
41
1
10
11.7380555263963
20
-7.70312184666892
30
0
41
1
10
11.7468017366172
20
-7.71559105034081
30
0
41
1
10
11.7716769242357
20
-7.75343444963914
30
0
41
1
10
11.7865761040498
20
-7.77938351245621
30
0
41
1
10
11.8138519277098
20
-7.83234954293013
30
0
41
1
10
11.826219626229
20
-7.85937042586593
30
0
41
1
10
11.8602443227466
20
-7.94172327888199
30
0
41
1
10
11.8788862370737
20
-7.99846916820721
30
0
41
1
10
11.8943375672975
20
-8.05584836782785
30
0
0
SPLINE
5
135
100
AcDbEntity
8
1
62
256
6
ByLayer
370
18
48
1
60
0
100
AcDbSpline
70
4
71
3
72
30
73
26
40
0
40
0
40
0
40
0
40
0.249999999999998
40
0.249999999999998
40
0.374999999999995
40
0.374999999999995
40
0.437499999999996
40
0.437499999999996
40
0.499999999999997
40
0.499999999999997
40
0.624999999999998
40
0.624999999999998
40
0.687499999999997
40
0.687499999999997
40
0.749999999999996
40
0.749999999999996
40
0.812499999999995
40
0.812499999999995
40
0.843749999999995
40
0.843749999999995
40
0.874999999999995
40
0.874999999999995
40
0.937499999999998
40
0.937499999999998
40
1
40
1
40
1
40
1
41
1
10
11.8943375672973
20
-23.6665017920808
30
0
41
1
10
11.8788923030149
20
-23.6860254491251
30
0
41
1
10
11.8604037172645
20
-23.7049589195931
30
0
41
1
10
11.8264575712212
20
-23.7323123198157
30
0
41
1
10
11.814096269969
20
-23.7412544902041
30
0
41
1
10
11.7935837333004
20
-23.7543620682907
30
0
41
1
10
11.7864159259844
20
-23.7586801045418
30
0
41
1
10
11.7713191828915
20
-23.7672030231185
30
0
41
1
10
11.763382436815
20
-23.7714105724815
30
0
41
1
10
11.7384769785308
20
-23.7837256270429
30
0
41
1
10
11.7203772593316
20
-23.7915679133937
30
0
41
1
10
11.6901125047557
20
-23.8026065911346
30
0
41
1
10
11.6794995583258
20
-23.8061604830514
30
0
41
1
10
11.6573691354905
20
-23.812868038308
30
0
41
1
10
11.6458165560481
20
-23.816035844018
30
0
41
1
10
11.6215461384038
20
-23.8219342456095
30
0
41
1
10
11.6088302857937
20
-23.8246655611124
30
0
41
1
10
11.5886665813882
20
-23.8283593459882
30
0
41
1
10
11.5817366894217
20
-23.8295263669799
30
0
41
1
10
11.5676991017994
20
-23.8316728303992
30
0
41
1
10
11.5605721090663
20
-23.8326565134122
30
0
41
1
10
11.53884494046
20
-23.8353222152631
30
0
41
1
10
11.5239007732521
20
-23.8367207404254
30
0
41
1
10
11.4929356027573
20
-23.8386353263249
30
0
41
1
10
11.477175816822
20
-23.8391299750504
30
0
41
1
10
11.4613248654052
20
-23.8391299750504
30
0
0
SPLINE
5
136
100
AcDbEntity
8
1
62
256
6
ByLayer
370
18
48
1
60
0
100
AcDbSpline
70
4
71
3
72
10
73
6
40
0
40
0
40
0
40
0
40
0.5
40
0.5
40
1
40
1
40
1
40
1
41
1
10
20.2792076144253
20
19.8950803604354
30
0
41
1
10
20.2107461836577
20
19.7382737265302
30
0
41
1
10
20.1609837529897
20
19.5768789071505
30
0
41
1
10
20.0941553207015
20
19.2449671757706
30
0
41
1
10
20.0771208393072
20
19.0744490557519
30
0
41
1
10
20.0753556842868
20
18.8993042998582
30
0
0
SPLINE
5
137
100
AcDbEntity
8
SK1
62
256
6
ByLayer
370
18
48
1
60
0
100
AcDbSpline
70
4
71
3
72
45
73
41
40
0
40
0
40
0
40
0
40
0.0236943060308115
40
0.0517123097198244
40
0.0797303134088374
40
0.10774831709785
40
0.163784324475876
40
0.219820331853902
40
0.247838335542915
40
0.275856339231928
40
0.303874342920941
40
0.331892346609954
40
0.359910350298967
40
0.38792835398798
40
0.415946357676993
40
0.429955359521499
40
0.443964361366006
40
0.471982365055019
40
0.485991366899525
40
0.492995867821779
40
0.500000368744032
40
0.507004869666285
40
0.514009370588538
40
0.528018372433045
40
0.556036376122058
40
0.570045377966564
40
0.584054379811071
40
0.612072383500084
40
0.640090387189097
40
0.66810839087811
40
0.696126394567123
40
0.724144398256136
40
0.752162401945149
40
0.780180405634161
40
0.836216413012187
40
0.892252420390213
40
0.920270424079226
40
0.948288427768239
40
0.976306431457252
40
1
40
1
40
1
40
1
41
1
10
-30
20
-15.9931892302896
30
0
41
1
10
-30
20
-15.9976541731349
30
0
41
1
10
-30
20
-15.9670776491664
30
0
41
1
10
-30
20
-15.7965331178349
30
0
41
1
10
-30
20
-15.4890632796305
30
0
41
1
10
-30
20
-14.9202435431778
30
0
41
1
10
-30
20
-13.9430327235571
30
0
41
1
10
-30
20
-12.6450678356931
30
0
41
1
10
-30
20
-11.42137036219
30
0
41
1
10
-30
20
-10.4224345134304
30
0
41
1
10
-30
20
-9.34179268341308
30
0
41
1
10
-30
20
-8.18272261240929
30
0
41
1
10
-30
20
-6.94914665451276
30
0
41
1
10
-30
20
-5.64597210397025
30
0
41
1
10
-30
20
-4.51272453462846
30
0
41
1
10
-30
20
-3.56968201835696
30
0
41
1
10
-30
20
-2.61530592334967
30
0
41
1
10
-30
20
-1.67591474804155
30
0
41
1
10
-30
20
-0.833341855678952
30
0
41
1
10
-30
20
-0.354131622770439
30
0
41
1
10
-30
20
4.002277763E-07
30
0
41
1
10
-30
20
0.354131996183753
30
0
41
1
10
-30
20
0.8333415404785
30
0
41
1
10
-30
20
1.675914880346
30
0
41
1
10
-30
20
2.61530613672116
30
0
41
1
10
-30
20
3.56968220154852
30
0
41
1
10
-30
20
4.51272494557483
30
0
41
1
10
-30
20
5.64597176408017
30
0
41
1
10
-30
20
6.94914704263559
30
0
41
1
10
-30
20
8.18272269843541
30
0
41
1
10
-30
20
9.34179238961872
30
0
41
1
10
-30
20
10.4224348167646
30
0
41
1
10
-30
20
11.4213703912989
30
0
41
1
10
-30
20
12.6450674903883
30
0
41
1
10
-30
20
13.9430330734595
30
0
41
1
10
-30
20
14.9202427964398
30
0
41
1
10
-30
20
15.4890634139888
30
0
41
1
10
-30
20
15.7965327535813
30
0
41
1
10
-30
20
15.9670755128819
30
0
41
1
10
-30
20
15.9976531642953
30
0
41
1
10
-30
20
15.993189536136
30
0
0
SPLINE
5
138
100
AcDbEntity
8
SK1
62
256
6
ByLayer
370
18
48
1
60
0
100
AcDbSpline
70
4
71
3
72
38
73
34
40
0
40
0
40
0
40
0
40
0.250000000000004
40
0.250000000000004
40
0.375000000000005
40
0.375000000000005
40
0.500000000000006
40
0.500000000000006
40
0.625000000000007
40
0.625000000000007
40
0.687500000000007
40
0.687500000000007
40
0.750000000000006
40
0.750000000000006
40
0.812500000000005
40
0.812500000000005
40
0.843750000000004
40
0.843750000000004
40
0.875000000000004
40
0.875000000000004
40
0.906250000000003
40
0.906250000000003
40
0.921875000000003
40
0.921875000000003
40
0.937500000000002
40
0.937500000000002
40
0.953125000000002
40
0.953125000000002
40
0.968750000000001
40
0.968750000000001
40
0.984375000000001
40
0.984375000000001
40
1
40
1
40
1
40
1
41
1
10
-0.199999999999989
20
-6.07843116862819
30
0
41
1
10
-0.200329859654715
20
-6.01357702681216
30
0
41
1
10
-0.201930655445068
20
-5.94848814748264
30
0
41
1
10
-0.207062820514693
20
-5.85044931358669
30
0
41
1
10
-0.20923421427949
20
-5.81770188154849
30
0
41
1
10
-0.214779228537765
20
-5.75205694597241
30
0
41
1
10
-0.218149341071296
20
-5.71913713924843
30
0
41
1
10
-0.226581907125762
20
-5.65322539657006
30
0
41
1
10
-0.231616433421465
20
-5.62029294902339
30
0
41
1
10
-0.241184891539916
20
-5.57099638970121
30
0
41
1
10
-0.244723140953198
20
-5.55455058376137
30
0
41
1
10
-0.252718404682298
20
-5.5218878599284
30
0
41
1
10
-0.257164394743881
20
-5.50568135296541
30
0
41
1
10
-0.267422418729012
20
-5.47365965349934
30
0
41
1
10
-0.27320640701916
20
-5.45783596374696
30
0
41
1
10
-0.283724888361974
20
-5.43464123738531
30
0
41
1
10
-0.287542348293414
20
-5.4270010731546
30
0
41
1
10
-0.296164698039007
20
-5.41201401791545
30
0
41
1
10
-0.301003751718952
20
-5.40461199814789
30
0
41
1
10
-0.312019326339481
20
-5.39094692539055
30
0
41
1
10
-0.318249907555923
20
-5.38460165612528
30
0
41
1
10
-0.328982330604219
20
-5.37709874944122
30
0
41
1
10
-0.332865959292377
20
-5.37490714744834
30
0
41
1
10
-0.340905624745204
20
-5.37162929612282
30
0
41
1
10
-0.34515378855366
20
-5.37051023807433
30
0
41
1
10
-0.353672033871135
20
-5.36955188220819
30
0
41
1
10
-0.357904387099552
20
-5.36969675293611
30
0
41
1
10
-0.366271728735939
20
-5.37110702101791
30
0
41
1
10
-0.370241250613816
20
-5.3723360299343
30
0
41
1
10
-0.377868038063696
20
-5.37555831609174
30
0
41
1
10
-0.38153937388509
20
-5.37756780385979
30
0
41
1
10
-0.388473887026265
20
-5.38206549938212
30
0
41
1
10
-0.391760928947491
20
-5.38456196831947
30
0
41
1
10
-0.394913799811292
20
-5.38724256160012
30
0
0
SPLINE
5
139
100
AcDbEntity
8
SK1
62
256
6
ByLayer
370
18
48
1
60
0
100
AcDbSpline
70
4
71
3
72
38
73
34
40
0
40
0
40
0
40
0
40
0.0156250000000001
40
0.0156250000000001
40
0.0312500000000002
40
0.0312500000000002
40
0.0468750000000004
40
0.0468750000000004
40
0.0625000000000005
40
0.0625000000000005
40
0.0781250000000006
40
0.0781250000000006
40
0.0937500000000007
40
0.0937500000000007
40
0.125000000000002
40
0.125000000000002
40
0.156250000000003
40
0.156250000000003
40
0.187500000000004
40
0.187500000000004
40
0.250000000000004
40
0.250000000000004
40
0.312500000000003
40
0.312500000000003
40
0.375000000000003
40
0.375000000000003
40
0.500000000000001
40
0.500000000000001
40
0.625
40
0.625
40
0.749999999999999
40
0.749999999999999
40
1
40
1
40
1
40
1
41
1
10
-0.394913799809103
20
5.38724490303883
30
0
41
1
10
-0.391781832950699
20
5.38458208568073
30
0
41
1
10
-0.388519962703782
20
5.3821033059937
30
0
41
1
10
-0.381650196472492
20
5.37763658736259
30
0
41
1
10
-0.378006935713074
20
5.37563233451903
30
0
41
1
10
-0.370423579197166
20
5.3724029821978
30
0
41
1
10
-0.366503702076443
20
5.37117873901857
30
0
41
1
10
-0.358331183030089
20
5.36974313779842
30
0
41
1
10
-0.35401586551319
20
5.36955368909105
30
0
41
1
10
-0.345568573158772
20
5.37043109064084
30
0
41
1
10
-0.341321667102989
20
5.37150405183561
30
0
41
1
10
-0.333263890221929
20
5.37470929745373
30
0
41
1
10
-0.329419339218219
20
5.37683593115614
30
0
41
1
10
-0.318577749103326
20
5.38430052549953
30
0
41
1
10
-0.312400979321524
20
5.39054104494755
30
0
41
1
10
-0.301354650858116
20
5.40411801099191
30
0
41
1
10
-0.296591327986164
20
5.41134235290917
30
0
41
1
10
-0.28792239407619
20
5.42628126698935
30
0
41
1
10
-0.284017391060786
20
5.43403466061349
30
0
41
1
10
-0.273296210573335
20
5.45757128507682
30
0
41
1
10
-0.267463037667511
20
5.47353830586408
30
0
41
1
10
-0.257144178245824
20
5.50574351678898
30
0
41
1
10
-0.252692130238899
20
5.52198910291162
30
0
41
1
10
-0.244699800125915
20
5.55465646091204
30
0
41
1
10
-0.241167183894675
20
5.57107991706795
30
0
41
1
10
-0.231573562776475
20
5.62053570750788
30
0
41
1
10
-0.22653373528064
20
5.65356559342146
30
0
41
1
10
-0.218124597314045
20
5.71937115218233
30
0
41
1
10
-0.214765406462959
20
5.75220767186642
30
0
41
1
10
-0.20923073586448
20
5.81775962891638
30
0
41
1
10
-0.207061534202296
20
5.85047499196594
30
0
41
1
10
-0.201932717755398
20
5.94845143863458
30
0
41
1
10
-0.200330038101583
20
6.01354333629638
30
0
41
1
10
-0.199999999999989
20
6.07843244581235
30
0
0
SPLINE
5
13A
100
AcDbEntity
8
SK1
62
256
6
ByLayer
370
13
48
1
60
0
100
AcDbSpline
70
4
71
3
72
20
73
16
40
0
40
0
40
0
40
0
40
0.0453685402362719
40
0.113618264772205
40
0.181867989308137
40
0.25011771384407
40
0.318367438380003
40
0.386617162915936
40
0.454866887451868
40
0.591366336523734
40
0.727865785595599
40
0.796115510131532
40
0.864365234667465
40
0.932614959203397
40
1
40
1
40
1
40
1
41
1
10
-0.394913799811292
20
-5.38724256160785
30
0
41
1
10
-0.394913799811292
20
-5.7190547501427
30
0
41
1
10
-0.394913799811292
20
-6.5348354946259
30
0
41
1
10
-0.394913799811292
20
-7.7796880789966
30
0
41
1
10
-0.394913799811292
20
-9.09679923539034
30
0
41
1
10
-0.394913799811292
20
-10.3283869583107
30
0
41
1
10
-0.394913799811292
20
-11.4729576347282
30
0
41
1
10
-0.394913799811292
20
-12.5286533763275
30
0
41
1
10
-0.394913799811292
20
-13.8156305223415
30
0
41
1
10
-0.394913799811292
20
-15.1889742433629
30
0
41
1
10
-0.394913799811292
20
-16.224825355641
30
0
41
1
10
-0.394913799811292
20
-16.8259463034278
30
0
41
1
10
-0.394913799811292
20
-17.1536380024563
30
0
41
1
10
-0.394913799811292
20
-17.3456596444231
30
0
41
1
10
-0.394913799811292
20
-17.3741382161059
30
0
41
1
10
-0.394913799811292
20
-17.3602188926578
30
0
0
SPLINE
5
13B
100
AcDbEntity
8
SK1
62
256
6
ByLayer
370
18
48
1
60
0
100
AcDbSpline
70
4
71
3
72
50
73
46
40
0
40
0
40
0
40
0
40
0.0312500000000003
40
0.0312500000000003
40
0.0468750000000004
40
0.0468750000000004
40
0.0625000000000005
40
0.0625000000000005
40
0.0781250000000006
40
0.0781250000000006
40
0.0937500000000008
40
0.0937500000000008
40
0.109375000000001
40
0.109375000000001
40
0.125000000000001
40
0.125000000000001
40
0.140625000000001
40
0.140625000000001
40
0.156250000000001
40
0.156250000000001
40
0.187500000000001
40
0.187500000000001
40
0.218750000000002
40
0.218750000000002
40
0.250000000000002
40
0.250000000000002
40
0.281250000000002
40
0.281250000000002
40
0.312500000000002
40
0.312500000000002
40
0.375000000000002
40
0.375000000000002
40
0.437500000000003
40
0.437500000000003
40
0.500000000000003
40
0.500000000000003
40
0.625000000000003
40
0.625000000000003
40
0.687500000000003
40
0.687500000000003
40
0.750000000000003
40
0.750000000000003
40
0.875000000000001
40
0.875000000000001
40
1
40
1
40
1
40
1
41
1
10
-0.394913799811292
20
-5.38724256160785
30
0
41
1
10
-0.411056331481689
20
-5.40096705709072
30
0
41
1
10
-0.428167571421085
20
-5.41359596702645
30
0
41
1
10
-0.455974774655147
20
-5.43013648208
30
0
41
1
10
-0.465658214706991
20
-5.43526409556435
30
0
41
1
10
-0.485484698823484
20
-5.44430592701531
30
0
41
1
10
-0.495657428995088
20
-5.44824432393753
30
0
41
1
10
-0.516608715435041
20
-5.45476351226009
30
0
41
1
10
-0.527386860231843
20
-5.45734523281897
30
0
41
1
10
-0.549664818445279
20
-5.46089328829356
30
0
41
1
10
-0.560930035443761
20
-5.46180969649637
30
0
41
1
10
-0.58336584661788
20
-5.4618713105761
30
0
41
1
10
-0.594591467840047
20
-5.46102572365922
30
0
41
1
10
-0.617058166617738
20
-5.45757599588921
30
0
41
1
10
-0.627999143283205
20
-5.45501931647436
30
0
41
1
10
-0.649331735085582
20
-5.44848807488123
30
0
41
1
10
-0.659758151599817
20
-5.44449947952498
30
0
41
1
10
-0.68003652504504
20
-5.43533205618729
30
0
41
1
10
-0.689742098894556
20
-5.43022628481569
30
0
41
1
10
-0.717826906306072
20
-5.41366379171245
30
0
41
1
10
-0.735187935399324
20
-5.40097830060952
30
0
41
1
10
-0.768034946557918
20
-5.3733304614868
30
0
41
1
10
-0.783237057424145
20
-5.35859529837754
30
0
41
1
10
-0.811836627358673
20
-5.32802442998909
30
0
41
1
10
-0.825257514876
20
-5.31215335693128
30
0
41
1
10
-0.85080730255018
20
-5.27953884086708
30
0
41
1
10
-0.862932209486871
20
-5.26279281423709
30
0
41
1
10
-0.8861698860768
20
-5.22860723544372
30
0
41
1
10
-0.897260448987026
20
-5.21119248410568
30
0
41
1
10
-0.9290296408507
20
-5.15857889561173
30
0
41
1
10
-0.948347177186236
20
-5.12284414993096
30
0
41
1
10
-0.98448753502646
20
-5.05043807526349
30
0
41
1
10
-1.00129416978024
20
-5.01376164954297
30
0
41
1
10
-1.03304457478234
20
-4.93966608077309
30
0
41
1
10
-1.04798244371665
20
-4.90224508459647
30
0
41
1
10
-1.09059413059555
20
-4.78904752584498
30
0
41
1
10
-1.11609621830422
20
-4.71234577760799
30
0
41
1
10
-1.15135515985605
20
-4.5958383808707
30
0
41
1
10
-1.16260343866753
20
-4.55673847320068
30
0
41
1
10
-1.18417456263643
20
-4.47826299864514
30
0
41
1
10
-1.19450305218299
20
-4.43886894670428
30
0
41
1
10
-1.22429462395718
20
-4.32024366329264
30
0
41
1
10
-1.24257202444835
20
-4.24057073726354
30
0
41
1
10
-1.27661859809459
20
-4.08013408760158
30
0
41
1
10
-1.29238372607517
20
-3.99936988902869
30
0
41
1
10
-1.30710678118655
20
-3.91808269248796
30
0
0
SPLINE
5
13C
100
AcDbEntity
8
SK1
62
256
6
ByLayer
370
18
48
1
60
0
100
AcDbSpline
70
4
71
3
72
38
73
34
40
0
40
0
40
0
40
0
40
0.0624999999999996
40
0.0624999999999996
40
0.124999999999999
40
0.124999999999999
40
0.249999999999999
40
0.249999999999999
40
0.374999999999998
40
0.374999999999998
40
0.390624999999998
40
0.390624999999998
40
0.406249999999998
40
0.406249999999998
40
0.437499999999998
40
0.437499999999998
40
0.499999999999998
40
0.499999999999998
40
0.562499999999998
40
0.562499999999998
40
0.624999999999998
40
0.624999999999998
40
0.749999999999998
40
0.749999999999998
40
0.781249999999998
40
0.781249999999998
40
0.812499999999998
40
0.812499999999998
40
0.874999999999999
40
0.874999999999999
40
0.937499999999999
40
0.937499999999999
40
1
40
1
40
1
40
1
41
1
10
-1.30710678118655
20
-3.91808269248793
30
0
41
1
10
-1.33526487251859
20
-3.76261955749285
30
0
41
1
10
-1.36267126502631
20
-3.60631098585768
30
0
41
1
10
-1.41562242099803
20
-3.29187611045597
30
0
41
1
10
-1.44117770353176
20
-3.13375373985022
30
0
41
1
10
-1.51435013598103
20
-2.65639932915298
30
0
41
1
10
-1.55846884179033
20
-2.33418302861884
30
0
41
1
10
-1.63296978491243
20
-1.6800471987703
30
0
41
1
10
-1.66337509736468
20
-1.34813830750841
30
0
41
1
10
-1.68707319146449
20
-0.968091690681831
30
0
41
1
10
-1.68955923537888
20
-0.925771372654225
30
0
41
1
10
-1.69422507481974
20
-0.840939584978486
30
0
41
1
10
-1.69640659794263
20
-0.798386309984636
30
0
41
1
10
-1.70245250680873
20
-0.670897601193644
30
0
41
1
10
-1.70582437938029
20
-0.58605256890192
30
0
41
1
10
-1.71388361409092
20
-0.331968562038014
30
0
41
1
10
-1.71646782396985
20
-0.163187101305937
30
0
41
1
10
-1.71636335941631
20
0.173213348331842
30
0
41
1
10
-1.71367008139578
20
0.340831662555303
30
0
41
1
10
-1.70293626023371
20
0.674902568806118
30
0
41
1
10
-1.69494665814693
20
0.84136228930052
30
0
41
1
10
-1.66399327242203
20
1.33914312869115
30
0
41
1
10
-1.63408221528164
20
1.66887252592323
30
0
41
1
10
-1.5876007265538
20
2.07872253566575
30
0
41
1
10
-1.57784909269048
20
2.16057674059007
30
0
41
1
10
-1.55749771994263
20
2.32406172494169
30
0
41
1
10
-1.54688933197929
20
2.40575612114199
30
0
41
1
10
-1.51394731043968
20
2.65007047288915
30
0
41
1
10
-1.49055743488208
20
2.81150726182858
30
0
41
1
10
-1.44149329508792
20
3.13180385741538
30
0
41
1
10
-1.41582315096537
20
3.29066553946589
30
0
41
1
10
-1.36271475580057
20
3.60607338167009
30
0
41
1
10
-1.33526589565594
20
3.76261441071907
30
0
41
1
10
-1.30710678118655
20
3.91808311129768
30
0
0
SPLINE
5
13D
100
AcDbEntity
8
SK1
62
256
6
ByLayer
370
18
48
1
60
0
100
AcDbSpline
70
4
71
3
72
53
73
49
40
0
40
0
40
0
40
0
40
0.125000000000001
40
0.125000000000001
40
0.250000000000002
40
0.250000000000002
40
0.312500000000001
40
0.312500000000001
40
0.375
40
0.375
40
0.499999999999998
40
0.499999999999998
40
0.562499999999997
40
0.562499999999997
40
0.624999999999997
40
0.624999999999997
40
0.687499999999996
40
0.687499999999996
40
0.718749999999996
40
0.718749999999996
40
0.749999999999996
40
0.749999999999996
40
0.781249999999996
40
0.781249999999996
40
0.812499999999996
40
0.812499999999996
40
0.843749999999996
40
0.843749999999996
40
0.859374999999996
40
0.859374999999996
40
0.874999999999996
40
0.874999999999996
40
0.890624999999996
40
0.890624999999996
40
0.898437499999996
40
0.898437499999996
40
0.906249999999996
40
0.906249999999996
40
0.921874999999996
40
0.929687499999996
40
0.929687499999996
40
0.937499999999996
40
0.937499999999996
40
0.968749999999998
40
0.968749999999998
40
0.984374999999999
40
0.984374999999999
40
1
40
1
40
1
40
1
41
1
10
-1.30710678118655
20
3.91808311129773
30
0
41
1
10
-1.29239108240535
20
3.99932964943406
30
0
41
1
10
-1.27663490881506
20
4.08005058420358
30
0
41
1
10
-1.24261095077244
20
4.24039497937332
30
0
41
1
10
-1.22434718173432
20
4.32001891689728
30
0
41
1
10
-1.19458151328425
20
4.4385658061575
30
0
41
1
10
-1.18426257821704
20
4.47793290560358
30
0
41
1
10
-1.16271294340757
20
4.55635268985438
30
0
41
1
10
-1.15147501748677
20
4.59543056617446
30
0
41
1
10
-1.11622081339451
20
4.71196262616613
30
0
41
1
10
-1.09072783956063
20
4.7886606233923
30
0
41
1
10
-1.0481521641187
20
4.90181336669085
30
0
41
1
10
-1.0332301135569
20
4.93921284702586
30
0
41
1
10
-1.00152410230015
20
5.01324987497119
30
0
41
1
10
-0.984745886096846
20
5.04988928444084
30
0
41
1
10
-0.948685190430837
20
5.12220258194975
30
0
41
1
10
-0.9294183550615
20
5.15788155457784
30
0
41
1
10
-0.897760317588364
20
5.21039425330497
30
0
41
1
10
-0.886742970836508
20
5.22772922691763
30
0
41
1
10
-0.863513824307887
20
5.26197522516898
30
0
41
1
10
-0.851357742368549
20
5.27880041053604
30
0
41
1
10
-0.825828436847388
20
5.3114635713869
30
0
41
1
10
-0.812437519911725
20
5.32733553299158
30
0
41
1
10
-0.783971777383812
20
5.35785904442625
30
0
41
1
10
-0.768905931142342
20
5.3725169261117
30
0
41
1
10
-0.736341322354406
20
5.40008757388534
30
0
41
1
10
-0.718704728837821
20
5.41307616107991
30
0
41
1
10
-0.690494000998427
20
5.42981903443436
30
0
41
1
10
-0.680770506185979
20
5.43496537787163
30
0
41
1
10
-0.660532703009153
20
5.44418605279546
30
0
41
1
10
-0.650045797816915
20
5.44823342219192
30
0
41
1
10
-0.628779113835947
20
5.45481846069112
30
0
41
1
10
-0.617932285477139
20
5.4573891634796
30
0
41
1
10
-0.601299914959668
20
5.46002170773141
30
0
41
1
10
-0.595695338836947
20
5.46069496960087
30
0
41
1
10
-0.584356912700059
20
5.46160478770398
30
0
41
1
10
-0.578637021974174
20
5.46183701163628
30
0
41
1
10
-0.561675487241871
20
5.46185622962997
30
0
41
1
10
-0.544917445528711
20
5.460540346752
30
0
41
1
10
-0.528445210270348
20
5.45734844847985
30
0
41
1
10
-0.517525389033295
20
5.45481548249097
30
0
41
1
10
-0.512078734988137
20
5.4533397528954
30
0
41
1
10
-0.48545098532486
20
5.44513209892818
30
0
41
1
10
-0.465729936503891
20
5.43590631685376
30
0
41
1
10
-0.437770416117502
20
5.41932732155468
30
0
41
1
10
-0.428743917867422
20
5.41334179407005
30
0
41
1
10
-0.411386251483464
20
5.40075705360886
30
0
41
1
10
-0.403020392727001
20
5.39413717786459
30
0
41
1
10
-0.394913799811292
20
5.38724490303878
30
0
0
SPLINE
5
13E
100
AcDbEntity
8
SK1
62
256
6
ByLayer
370
13
48
1
60
0
100
AcDbSpline
70
4
71
3
72
20
73
16
40
0
40
0
40
0
40
0
40
0.0673842631425524
40
0.135634051798174
40
0.203883840453796
40
0.272133629109418
40
0.408633206420662
40
0.545132783731906
40
0.613382572387527
40
0.681632361043149
40
0.749882149698771
40
0.818131938354393
40
0.886381727010015
40
0.954631515665637
40
1
40
1
40
1
40
1
41
1
10
-0.394913799811292
20
17.3602193112634
30
0
41
1
10
-0.394913799811292
20
17.3741378069315
30
0
41
1
10
-0.394913799811292
20
17.345658249208
30
0
41
1
10
-0.394913799811292
20
17.1536376810083
30
0
41
1
10
-0.394913799811292
20
16.8259464323311
30
0
41
1
10
-0.394913799811292
20
16.2248245878661
30
0
41
1
10
-0.394913799811292
20
15.1889746622834
30
0
41
1
10
-0.394913799811292
20
13.8156301488903
30
0
41
1
10
-0.394913799811292
20
12.5286535254346
30
0
41
1
10
-0.394913799811292
20
11.4729578043957
30
0
41
1
10
-0.394913799811292
20
10.3283867090429
30
0
41
1
10
-0.394913799811292
20
9.09679950047928
30
0
41
1
10
-0.394913799811292
20
7.77968825069564
30
0
41
1
10
-0.394913799811292
20
6.53483606378791
30
0
41
1
10
-0.394913799811292
20
5.71905630139054
30
0
41
1
10
-0.394913799811292
20
5.38724490303881
30
0
0
SPLINE
5
13F
100
AcDbEntity
8
SK1
62
256
6
ByLayer
370
13
48
1
60
0
100
AcDbSpline
70
4
71
3
72
45
73
41
40
0
40
0
40
0
40
0
40
0.013924736511005
40
0.0425174002343249
40
0.0711100639576449
40
0.0997027276809648
40
0.156888055127605
40
0.214073382574245
40
0.242666046297565
40
0.271258710020884
40
0.299851373744205
40
0.328444037467524
40
0.357036701190844
40
0.385629364914164
40
0.414222028637484
40
0.428518360499144
40
0.442814692360804
40
0.471407356084124
40
0.485703687945784
40
0.492851853876614
40
0.500000019807444
40
0.507148185738274
40
0.514296351669104
40
0.528592683530764
40
0.557185347254084
40
0.571481679115744
40
0.585778010977404
40
0.614370674700724
40
0.642963338424044
40
0.671556002147364
40
0.700148665870684
40
0.728741329594004
40
0.757333993317324
40
0.785926657040644
40
0.843111984487284
40
0.900297311933923
40
0.928889975657243
40
0.957482639380563
40
0.986075303103883
40
1
40
1
40
1
40
1
41
1
10
-1.99503997793928
20
17.320045422435
30
0
41
1
10
-1.99503997793928
20
17.3133442630521
30
0
41
1
10
-1.99503997793928
20
17.273419378044
30
0
41
1
10
-1.99503997793928
20
17.1138751154123
30
0
41
1
10
-1.99503997793928
20
16.7867763596001
30
0
41
1
10
-1.99503997793928
20
16.1866009265939
30
0
41
1
10
-1.99503997793928
20
15.1524691326423
30
0
41
1
10
-1.99503997793928
20
13.7813331880937
30
0
41
1
10
-1.99503997793928
20
12.4962106263157
30
0
41
1
10
-1.99503997793928
20
11.4421779521075
30
0
41
1
10
-1.99503997793928
20
10.2994799380558
30
0
41
1
10
-1.99503997793928
20
9.07001746022104
30
0
41
1
10
-1.99503997793928
20
7.75535376586828
30
0
41
1
10
-1.99503997793928
20
6.35676341745574
30
0
41
1
10
-1.99503997793928
20
5.12318926412425
30
0
41
1
10
-1.99503997793928
20
4.09531236648536
30
0
41
1
10
-1.99503997793928
20
3.04236295320669
30
0
41
1
10
-1.99503997793928
20
1.95640625727882
30
0
41
1
10
-1.99503997793928
20
0.981337226851394
30
0
41
1
10
-1.99503997793928
20
0.420771319084707
30
0
41
1
10
-1.99503997793928
20
6.88173714E-08
30
0
41
1
10
-1.99503997793928
20
-0.420771221994357
30
0
41
1
10
-1.99503997793928
20
-0.981337209960486
30
0
41
1
10
-1.99503997793928
20
-1.95640624898675
30
0
41
1
10
-1.99503997793928
20
-3.04236280324244
30
0
41
1
10
-1.99503997793928
20
-4.0953123914187
30
0
41
1
10
-1.99503997793928
20
-5.12318891405303
30
0
41
1
10
-1.99503997793928
20
-6.35676356337376
30
0
41
1
10
-1.99503997793928
20
-7.7553535878281
30
0
41
1
10
-1.99503997793928
20
-9.07001720037854
30
0
41
1
10
-1.99503997793928
20
-10.2994801886281
30
0
41
1
10
-1.99503997793928
20
-11.4421777785236
30
0
41
1
10
-1.99503997793928
20
-12.4962104807245
30
0
41
1
10
-1.99503997793928
20
-13.7813335607202
30
0
41
1
10
-1.99503997793928
20
-15.152468715744
30
0
41
1
10
-1.99503997793928
20
-16.1866016937524
30
0
41
1
10
-1.99503997793928
20
-16.786776230537
30
0
41
1
10
-1.99503997793928
20
-17.1138754381145
30
0
41
1
10
-1.99503997793931
20
-17.2734198445261
30
0
41
1
10
-1.99503997793931
20
-17.3133444734758
30
0
41
1
10
-1.99503997793931
20
-17.3200455773091
30
0
0
SPLINE
5
140
100
AcDbEntity
8
SK1
62
256
6
ByLayer
370
18
48
1
60
0
100
AcDbSpline
70
4
71
3
72
45
73
41
40
0
40
0
40
0
40
0
40
0.0138970646118754
40
0.0424913609331261
40
0.0710856572543767
40
0.0996799535756273
40
0.156868546218129
40
0.21405713886063
40
0.24265143518188
40
0.271245731503131
40
0.299840027824382
40
0.328434324145632
40
0.357028620466883
40
0.385622916788133
40
0.414217213109384
40
0.42851436127001
40
0.442811509430635
40
0.471405805751885
40
0.485702953912511
40
0.492851527992823
40
0.500000102073136
40
0.507148676153449
40
0.514297250233761
40
0.528594398394387
40
0.557188694715637
40
0.571485842876263
40
0.585782991036888
40
0.614377287358139
40
0.642971583679389
40
0.67156588000064
40
0.70016017632189
40
0.728754472643141
40
0.757348768964392
40
0.785943065285642
40
0.843131657928143
40
0.900320250570645
40
0.928914546891895
40
0.957508843213146
40
0.986103139534397
40
1
40
1
40
1
40
1
41
1
10
-2.19999999999999
20
17.5147945426243
30
0
41
1
10
-2.19999999999999
20
17.5080193392366
30
0
41
1
10
-2.20000000000002
20
17.4676802391766
30
0
41
1
10
-2.19999999999999
20
17.3066644250431
30
0
41
1
10
-2.19999999999999
20
16.9766929599708
30
0
41
1
10
-2.19999999999999
20
16.3719288388599
30
0
41
1
10
-2.19999999999999
20
15.3294666616432
30
0
41
1
10
-2.19999999999999
20
13.9476224427057
30
0
41
1
10
-2.19999999999999
20
12.6535104390874
30
0
41
1
10
-2.19999999999999
20
11.5914144609754
30
0
41
1
10
-2.19999999999999
20
10.4396347881955
30
0
41
1
10
-2.19999999999999
20
9.19987052615136
30
0
41
1
10
-2.19999999999999
20
7.87333982787851
30
0
41
1
10
-2.19999999999999
20
6.4607857552443
30
0
41
1
10
-2.19999999999999
20
5.21252898167785
30
0
41
1
10
-2.19999999999999
20
4.17223684682958
30
0
41
1
10
-2.19999999999999
20
3.10486150423552
30
0
41
1
10
-2.19999999999999
20
1.99745537289451
30
0
41
1
10
-2.19999999999999
20
1.00299597482069
30
0
41
1
10
-2.19999999999999
20
0.430523794544825
30
0
41
1
10
-2.19999999999999
20
2.03164063E-08
30
0
41
1
10
-2.19999999999999
20
-0.430523737893537
30
0
41
1
10
-2.19999999999999
20
-1.00299590932914
30
0
41
1
10
-2.19999999999999
20
-1.99745538275133
30
0
41
1
10
-2.19999999999999
20
-3.10486136355075
30
0
41
1
10
-2.19999999999999
20
-4.17223690222141
30
0
41
1
10
-2.19999999999999
20
-5.21252864051553
30
0
41
1
10
-2.19999999999999
20
-6.46078587277509
30
0
41
1
10
-2.19999999999999
20
-7.87333968058334
30
0
41
1
10
-2.19999999999999
20
-9.19987024087132
30
0
41
1
10
-2.19999999999999
20
-10.4396350324424
30
0
41
1
10
-2.19999999999999
20
-11.5914143063801
30
0
41
1
10
-2.19999999999999
20
-12.6535102764493
30
0
41
1
10
-2.19999999999999
20
-13.9476228193307
30
0
41
1
10
-2.19999999999999
20
-15.3294662349403
30
0
41
1
10
-2.19999999999999
20
-16.3719296090069
30
0
41
1
10
-2.19999999999999
20
-16.9766928316826
30
0
41
1
10
-2.19999999999999
20
-17.3066647416643
30
0
41
1
10
-2.19999999999999
20
-17.4676803351187
30
0
41
1
10
-2.19999999999999
20
-17.5080192375138
30
0
41
1
10
-2.19999999999999
20
-17.5147944564799
30
0
0
SPLINE
5
141
100
AcDbEntity
8
SK1
62
256
6
ByLayer
370
18
48
1
60
0
100
AcDbSpline
70
4
71
3
72
45
73
41
40
0
40
0
40
0
40
0
40
0.0275256180813637
40
0.0553182314208464
40
0.0831108447603292
40
0.110903458099812
40
0.166488684778778
40
0.222073911457743
40
0.249866524797226
40
0.277659138136709
40
0.305451751476192
40
0.333244364815674
40
0.361036978155157
40
0.38882959149464
40
0.416622204834123
40
0.430518511503864
40
0.444414818173605
40
0.472207431513088
40
0.486103738182829
40
0.4930518915177
40
0.500000044852571
40
0.506948198187442
40
0.513896351522312
40
0.527792658192054
40
0.555585271531536
40
0.569481578201278
40
0.583377884871019
40
0.611170498210502
40
0.638963111549985
40
0.666755724889467
40
0.69454833822895
40
0.722340951568433
40
0.750133564907916
40
0.777926178247399
40
0.833511404926364
40
0.88909663160533
40
0.916889244944813
40
0.944681858284295
40
0.972474471623778
40
1
40
1
40
1
40
1
41
1
10
-28.5
20
16.8545102408316
30
0
41
1
10
-28.5
20
16.8681141430806
30
0
41
1
10
-28.5
20
16.8405420082845
30
0
41
1
10
-28.5
20
16.6531187925377
30
0
41
1
10
-28.5
20
16.3328856609547
30
0
41
1
10
-28.5
20
15.7436769514769
30
0
41
1
10
-28.5
20
14.7294543359372
30
0
41
1
10
-28.5
20
13.3839106046769
30
0
41
1
10
-28.5
20
12.1202723366856
30
0
41
1
10
-28.5
20
11.0855105352455
30
0
41
1
10
-28.5
20
9.96451720849825
30
0
41
1
10
-28.5
20
8.75967545377557
30
0
41
1
10
-28.5
20
7.47337327542297
30
0
41
1
10
-28.5
20
6.10815549439155
30
0
41
1
10
-28.5
20
4.9096720321497
30
0
41
1
10
-28.5
20
3.9114668992739
30
0
41
1
10
-28.5
20
2.89299469927084
30
0
41
1
10
-28.5
20
1.85830102725041
30
0
41
1
10
-28.5
20
0.929573956929886
30
0
41
1
10
-28.5
20
0.39746341502854
30
0
41
1
10
-28.5
20
1.847321585E-07
30
0
41
1
10
-28.5
20
-0.397463221290906
30
0
41
1
10
-28.5
20
-0.929574056191939
30
0
41
1
10
-28.5
20
-1.85830097558352
30
0
41
1
10
-28.5
20
-2.89299452712916
30
0
41
1
10
-28.5
20
-3.91146685141305
30
0
41
1
10
-28.5
20
-4.90967166078667
30
0
41
1
10
-28.5
20
-6.10815570815362
30
0
41
1
10
-28.5
20
-7.47337302390386
30
0
41
1
10
-28.5
20
-8.75967525472745
30
0
41
1
10
-28.5
20
-9.96451747418803
30
0
41
1
10
-28.5
20
-11.0855103162798
30
0
41
1
10
-28.5
20
-12.1202722318355
30
0
41
1
10
-28.5
20
-13.3839109677473
30
0
41
1
10
-28.5
20
-14.7294539424714
30
0
41
1
10
-28.5
20
-15.7436777114932
30
0
41
1
10
-28.5
20
-16.3328855300396
30
0
41
1
10
-28.5
20
-16.653119129773
30
0
41
1
10
-28.5
20
-16.8405423966321
30
0
41
1
10
-28.5
20
-16.8681141127083
30
0
41
1
10
-28.5
20
-16.8545104808619
30
0
0
SPLINE
5
142
100
AcDbEntity
8
1
62
256
6
ByLayer
370
18
48
1
60
0
100
AcDbSpline
70
4
71
2
72
6
73
3
40
0
40
0
40
0
40
1
40
1
40
1
41
1.03186391735993
10
54.7999899980506
20
31.9968486475742
30
0
41
1.03138264657361
10
54.6777789448563
20
31.9968486475742
30
0
41
1.03186391735993
10
54.5557958399112
20
32.0043094538867
30
0
0
SPLINE
5
143
100
AcDbEntity
8
1
62
256
6
ByLayer
370
18
48
1
60
0
100
AcDbSpline
70
4
71
2
72
6
73
3
40
0
40
0
40
0
40
1
40
1
40
1
41
1.03186391735993
10
54.9999899980506
20
32.1968486475742
30
0
41
0.729637973226922
10
54.9999899980506
20
31.9968486475742
30
0
41
1.03186391735993
10
54.7999899980506
20
31.9968486475742
30
0
0
SPLINE
5
144
100
AcDbEntity
8
1
62
256
6
ByLayer
370
18
48
1
60
0
100
AcDbSpline
70
4
71
2
72
6
73
3
40
0
40
0
40
0
40
1
40
1
40
1
41
1.03186391735993
10
54.7999899980506
20
35.0031513524259
30
0
41
0.729637973226922
10
54.9999899980506
20
35.0031513524258
30
0
41
1.03186391735993
10
54.9999899980506
20
34.8031513524259
30
0
0
SPLINE
5
145
100
AcDbEntity
8
1
62
256
6
ByLayer
370
18
48
1
60
0
100
AcDbSpline
70
4
71
2
72
6
73
3
40
0
40
0
40
0
40
1
40
1
40
1
41
1.03186391735993
10
54.5557958399112
20
34.9956905461133
30
0
41
1.03138264657361
10
54.6777789448563
20
35.0031513524258
30
0
41
1.03186391735993
10
54.7999899980506
20
35.0031513524259
30
0
0
SPLINE
5
146
100
AcDbEntity
8
1
62
256
6
ByLayer
370
18
48
1
60
0
100
AcDbSpline
70
4
71
2
72
6
73
3
40
0
40
0
40
0
40
1
40
1
40
1
41
1.03186391735993
10
35.2000100019494
20
35.0031513524258
30
0
41
0.729637973226922
10
35.0000100019493
20
35.0031513524258
30
0
41
1.03186391735993
10
35.0000100019494
20
34.8031513524258
30
0
0
SPLINE
5
147
100
AcDbEntity
8
1
62
256
6
ByLayer
370
18
48
1
60
0
100
AcDbSpline
70
4
71
2
72
6
73
3
40
0
40
0
40
0
40
1
40
1
40
1
41
1.03186391735993
10
35.4442041600888
20
34.9956905461133
30
0
41
1.03138264657361
10
35.3222210551437
20
35.0031513524258
30
0
41
1.03186391735993
10
35.2000100019494
20
35.0031513524258
30
0
0
SPLINE
5
148
100
AcDbEntity
8
1
62
256
6
ByLayer
370
18
48
1
60
0
100
AcDbSpline
70
4
71
3
72
8
73
4
40
0
40
0
40
0
40
0
40
1
40
1
40
1
40
1
41
1
10
52.4196694163912
20
34.918874975218
30
0
41
1
10
52.4324648695621
20
34.9220991528893
30
0
41
1
10
52.4455611420818
20
34.9240004023801
30
0
41
1
10
52.458733010777
20
34.9245614617607
30
0
0
SPLINE
5
149
100
AcDbEntity
8
1
62
256
6
ByLayer
370
18
48
1
60
0
100
AcDbSpline
70
4
71
3
72
8
73
4
40
0
40
0
40
0
40
0
40
1
40
1
40
1
40
1
41
1
10
52.458733010784
20
32.075438538239
30
0
41
1
10
52.4455611270319
20
32.0759995982608
30
0
41
1
10
52.4324648843562
20
32.0779008433832
30
0
41
1
10
52.4196694163936
20
32.0811250247814
30
0
0
SPLINE
5
14A
100
AcDbEntity
8
1
62
256
6
ByLayer
370
18
48
1
60
0
100
AcDbSpline
70
4
71
3
72
8
73
4
40
0
40
0
40
0
40
0
40
1
40
1
40
1
40
1
41
1
10
37.5803305836064
20
34.9188749752186
30
0
41
1
10
37.5675351840277
20
34.9220991393856
30
0
41
1
10
37.5544388017949
20
34.9240004047708
30
0
41
1
10
37.541266989216
20
34.924561461761
30
0
0
LINE
5
7D
100
AcDbEntity
8
1
62
256
6
ByLayer
370
18
48
1
60
0
100
AcDbLine
10
20.279208
20
25
30
0
11
0.3
21
25
31
0
39
0
210
0
220
0
230
1
0
LINE
5
7E
100
AcDbEntity
8
1
62
256
6
ByLayer
370
18
48
1
60
0
100
AcDbLine
10
0.3
20
-25
30
0
11
20
21
-25
31
0
39
0
210
0
220
0
230
1
0
LINE
5
7F
100
AcDbEntity
8
1
62
256
6
ByLayer
370
18
48
1
60
0
100
AcDbLine
10
0
20
-24.7
30
0
11
0.3
21
-25
31
0
39
0
210
0
220
0
230
1
0
LINE
5
80
100
AcDbEntity
8
1
62
256
6
ByLayer
370
18
48
1
60
0
100
AcDbLine
10
0.3
20
25
30
0
11
0
21
24.7
31
0
39
0
210
0
220
0
230
1
0
LINE
5
81
100
AcDbEntity
8
81
62
256
6
ByLayer
370
18
48
1
60
0
100
AcDbLine
10
55
20
35
30
0
11
60
21
35
31
0
39
0
210
0
220
0
230
1
0
LINE
5
82
100
AcDbEntity
8
80
62
256
6
ByLayer
370
18
48
1
60
0
100
AcDbLine
10
0
20
0
30
0
11
-5
21
0
31
0
39
0
210
0
220
0
230
1
0
LINE
5
83
100
AcDbEntity
8
1
62
256
6
ByLayer
370
18
48
1
60
0
100
AcDbLine
10
48.348664
20
32.325
30
0
11
48.897124
21
32.325
31
0
39
0
210
0
220
0
230
1
0
LINE
5
84
100
AcDbEntity
8
1
62
256
6
ByLayer
370
18
48
1
60
0
100
AcDbLine
10
48.348584
20
34.675
30
0
11
48.897124
21
34.675
31
0
39
0
210
0
220
0
230
1
0
LINE
5
85
100
AcDbEntity
8
1
62
256
6
ByLayer
370
18
48
1
60
0
100
AcDbLine
10
48.897124
20
32.325
30
0
11
48.896886
21
32.350004
31
0
39
0
210
0
220
0
230
1
0
LINE
5
86
100
AcDbEntity
8
1
62
256
6
ByLayer
370
18
48
1
60
0
100
AcDbLine
10
48.897124
20
32.325
30
0
11
49.81552
21
32.325
31
0
39
0
210
0
220
0
230
1
0
LINE
5
87
100
AcDbEntity
8
1
62
256
6
ByLayer
370
18
48
1
60
0
100
AcDbLine
10
48.897124
20
34.675
30
0
11
49.81552
21
34.675
31
0
39
0
210
0
220
0
230
1
0
LINE
5
88
100
AcDbEntity
8
1
62
256
6
ByLayer
370
18
48
1
60
0
100
AcDbLine
10
48.896886
20
34.649996
30
0
11
48.897124
21
34.675
31
0
39
0
210
0
220
0
230
1
0
LINE
5
89
100
AcDbEntity
8
1
62
256
6
ByLayer
370
18
48
1
60
0
100
AcDbLine
10
49.81552
20
32.325
30
0
11
51.450863
21
32.325
31
0
39
0
210
0
220
0
230
1
0
LINE
5
8A
100
AcDbEntity
8
1
62
256
6
ByLayer
370
18
48
1
60
0
100
AcDbLine
10
49.81552
20
32.325
30
0
11
49.815283
21
32.350004
31
0
39
0
210
0
220
0
230
1
0
LINE
5
8B
100
AcDbEntity
8
1
62
256
6
ByLayer
370
18
48
1
60
0
100
AcDbLine
10
49.81552
20
34.675
30
0
11
51.450863
21
34.675
31
0
39
0
210
0
220
0
230
1
0
LINE
5
8C
100
AcDbEntity
8
1
62
256
6
ByLayer
370
18
48
1
60
0
100
AcDbLine
10
49.815283
20
34.649996
30
0
11
49.81552
21
34.675
31
0
39
0
210
0
220
0
230
1
0
LINE
5
8D
100
AcDbEntity
8
1
62
256
6
ByLayer
370
13
48
1
60
0
100
AcDbLine
10
21.581736
20
26.15
30
0
11
23.6
21
26.15
31
0
39
0
210
0
220
0
230
1
0
LINE
5
8E
100
AcDbEntity
8
1
62
256
6
ByLayer
370
13
48
1
60
0
100
AcDbLine
10
23.6
20
26.15
30
0
11
23.6
21
25.15
31
0
39
0
210
0
220
0
230
1
0
LINE
5
8F
100
AcDbEntity
8
1
62
256
6
ByLayer
370
13
48
1
60
0
100
AcDbLine
10
23.6
20
26.15
30
0
11
23.6
21
33.74363
31
0
39
0
210
0
220
0
230
1
0
LINE
5
90
100
AcDbEntity
8
1
62
256
6
ByLayer
370
13
48
1
60
0
100
AcDbLine
10
23.6
20
26.15
30
0
11
27.293237
21
26.15
31
0
39
0
210
0
220
0
230
1
0
LINE
5
91
100
AcDbEntity
8
1
62
256
6
ByLayer
370
18
48
1
60
0
100
AcDbLine
10
23.847821
20
34.675
30
0
11
27.293237
21
34.675
31
0
39
0
210
0
220
0
230
1
0
LINE
5
92
100
AcDbEntity
8
1
62
256
6
ByLayer
370
18
48
1
60
0
100
AcDbLine
10
27.679224
20
34.675
30
0
11
27.293237
21
34.675
31
0
39
0
210
0
220
0
230
1
0
LINE
5
93
100
AcDbEntity
8
1
62
256
6
ByLayer
370
18
48
1
60
0
100
AcDbLine
10
27.293237
20
26.15
30
0
11
27.293237
21
34.675
31
0
39
0
210
0
220
0
230
1
0
LINE
5
94
100
AcDbEntity
8
1
62
256
6
ByLayer
370
18
48
1
60
0
100
AcDbLine
10
27.8
20
34.675
30
0
11
27.679216
21
34.675
31
0
39
0
210
0
220
0
230
1
0
LINE
5
95
100
AcDbEntity
8
1
62
256
6
ByLayer
370
18
48
1
60
0
100
AcDbLine
10
27.679216
20
34.675
30
0
11
27.679216
21
26.15
31
0
39
0
210
0
220
0
230
1
0
LINE
5
96
100
AcDbEntity
8
1
62
256
6
ByLayer
370
13
48
1
60
0
100
AcDbLine
10
27.8
20
26.15
30
0
11
27.679216
21
26.15
31
0
39
0
210
0
220
0
230
1
0
LINE
5
97
100
AcDbEntity
8
1
62
256
6
ByLayer
370
18
48
1
60
0
100
AcDbLine
10
48.348671
20
34.675
30
0
11
45.25
21
34.675
31
0
39
0
210
0
220
0
230
1
0
LINE
5
98
100
AcDbEntity
8
1
62
256
6
ByLayer
370
18
48
1
60
0
100
AcDbLine
10
48.348671
20
32.325
30
0
11
45.25
21
32.325
31
0
39
0
210
0
220
0
230
1
0
LINE
5
99
100
AcDbEntity
8
1
62
256
6
ByLayer
370
18
48
1
60
0
100
AcDbLine
10
48.75
20
33.548819
30
0
11
48.75
21
33.451181
31
0
39
0
210
0
220
0
230
1
0
LINE
5
9A
100
AcDbEntity
8
1
62
256
6
ByLayer
370
18
48
1
60
0
100
AcDbLine
10
24.799843
20
25.15
30
0
11
23.800157
21
25.15
31
0
39
0
210
0
220
0
230
1
0
LINE
5
9B
100
AcDbEntity
8
1
62
256
6
ByLayer
370
18
48
1
60
0
100
AcDbLine
10
24.800024
20
-13.5
30
0
11
24.065604
21
-13.5
31
0
39
0
210
0
220
0
230
1
0
LINE
5
9C
100
AcDbEntity
8
1
62
256
6
ByLayer
370
18
48
1
60
0
100
AcDbLine
10
45.25
20
34.675
30
0
11
34.681705
21
34.675
31
0
39
0
210
0
220
0
230
1
0
LINE
5
9D
100
AcDbEntity
8
1
62
256
6
ByLayer
370
18
48
1
60
0
100
AcDbLine
10
45.25
20
32.325
30
0
11
45
21
32.325
31
0
39
0
210
0
220
0
230
1
0
LINE
5
9E
100
AcDbEntity
8
1
62
256
6
ByLayer
370
18
48
1
60
0
100
AcDbLine
10
45.25
20
34.675
30
0
11
45.25
21
32.325
31
0
39
0
210
0
220
0
230
1
0
LINE
5
9F
100
AcDbEntity
8
1
62
256
6
ByLayer
370
18
48
1
60
0
100
AcDbLine
10
24.8
20
25.15
30
0
11
26.8
21
25.15
31
0
39
0
210
0
220
0
230
1
0
LINE
5
A0
100
AcDbEntity
8
1
62
256
6
ByLayer
370
18
48
1
60
0
100
AcDbLine
10
43.4
20
30.725
30
0
11
37.47122
21
30.725
31
0
39
0
210
0
220
0
230
1
0
LINE
5
A1
100
AcDbEntity
8
1
62
256
6
ByLayer
370
18
48
1
60
0
100
AcDbLine
10
34.3
20
-13.5
30
0
11
24.8
21
-13.5
31
0
39
0
210
0
220
0
230
1
0
LINE
5
A2
100
AcDbEntity
8
1
62
256
6
ByLayer
370
18
48
1
60
0
100
AcDbLine
10
34.3
20
-13.5
30
0
11
43.4
21
21.15
31
0
39
0
210
0
220
0
230
1
0
LINE
5
A3
100
AcDbEntity
8
1
62
256
6
ByLayer
370
18
48
1
60
0
100
AcDbLine
10
43.4
20
30.725
30
0
11
43.4
21
21.15
31
0
39
0
210
0
220
0
230
1
0
LINE
5
A4
100
AcDbEntity
8
1
62
256
6
ByLayer
370
18
48
1
60
0
100
AcDbLine
10
34.681705
20
32.325
30
0
11
34.681705
21
34.675
31
0
39
0
210
0
220
0
230
1
0
LINE
5
A5
100
AcDbEntity
8
1
62
256
6
ByLayer
370
18
48
1
60
0
100
AcDbLine
10
34.681705
20
34.675
30
0
11
27.8
21
34.675
31
0
39
0
210
0
220
0
230
1
0
LINE
5
A6
100
AcDbEntity
8
1
62
256
6
ByLayer
370
18
48
1
60
0
100
AcDbLine
10
27.8
20
26.15
30
0
11
27.8
21
34.675
31
0
39
0
210
0
220
0
230
1
0
LINE
5
A7
100
AcDbEntity
8
1
62
256
6
ByLayer
370
18
48
1
60
0
100
AcDbLine
10
24.8
20
-13.5
30
0
11
24.8
21
25.15
31
0
39
0
210
0
220
0
230
1
0
LINE
5
A8
100
AcDbEntity
8
1
62
256
6
ByLayer
370
13
48
1
60
0
100
AcDbLine
10
34.681705
20
32.325
30
0
11
45
21
32.325
31
0
39
0
210
0
220
0
230
1
0
LINE
5
A9
100
AcDbEntity
8
1
62
256
6
ByLayer
370
13
48
1
60
0
100
AcDbLine
10
21.438319
20
25.15
30
0
11
21.438319
21
22.156507
31
0
39
0
210
0
220
0
230
1
0
LINE
5
AA
100
AcDbEntity
8
1
62
256
6
ByLayer
370
18
48
1
60
0
100
AcDbLine
10
23.8
20
-13.508828
30
0
11
23.8
21
25.15
31
0
39
0
210
0
220
0
230
1
0
LINE
5
AB
100
AcDbEntity
8
1
62
256
6
ByLayer
370
18
48
1
60
0
100
AcDbLine
10
23.8
20
25.15
30
0
11
22.079081
21
25.15
31
0
39
0
210
0
220
0
230
1
0
LINE
5
AC
100
AcDbEntity
8
1
62
256
6
ByLayer
370
13
48
1
60
0
100
AcDbLine
10
11.461325
20
-7.529667
30
0
11
11.461325
21
-23.83913
31
0
39
0
210
0
220
0
230
1
0
LINE
5
AD
100
AcDbEntity
8
1
62
256
6
ByLayer
370
13
48
1
60
0
100
AcDbLine
10
11.894338
20
-8.055848
30
0
11
11.894338
21
-23.666502
31
0
39
0
210
0
220
0
230
1
0
LINE
5
AE
100
AcDbEntity
8
1
62
256
6
ByLayer
370
13
48
1
60
0
100
AcDbLine
10
8.105662
20
23.666502
30
0
11
8.105662
21
8.055848
31
0
39
0
210
0
220
0
230
1
0
LINE
5
AF
100
AcDbEntity
8
1
62
256
6
ByLayer
370
13
48
1
60
0
100
AcDbLine
10
8.538675
20
23.83913
30
0
11
8.538675
21
7.529667
31
0
39
0
210
0
220
0
230
1
0
LINE
5
B0
100
AcDbEntity
8
1
62
256
6
ByLayer
370
13
48
1
60
0
100
AcDbLine
10
11.461325
20
23.83913
30
0
11
11.461325
21
7.529667
31
0
39
0
210
0
220
0
230
1
0
LINE
5
B1
100
AcDbEntity
8
1
62
256
6
ByLayer
370
13
48
1
60
0
100
AcDbLine
10
11.894338
20
23.666502
30
0
11
11.894338
21
8.055848
31
0
39
0
210
0
220
0
230
1
0
LINE
5
B2
100
AcDbEntity
8
1
62
256
6
ByLayer
370
13
48
1
60
0
100
AcDbLine
10
8.105662
20
-8.055848
30
0
11
8.105662
21
-23.666502
31
0
39
0
210
0
220
0
230
1
0
LINE
5
B3
100
AcDbEntity
8
1
62
256
6
ByLayer
370
13
48
1
60
0
100
AcDbLine
10
8.538675
20
-7.529667
30
0
11
8.538675
21
-23.83913
31
0
39
0
210
0
220
0
230
1
0
LINE
5
B4
100
AcDbEntity
8
1
62
256
6
ByLayer
370
18
48
1
60
0
100
AcDbLine
10
11.461325
20
7.529667
30
0
11
8.538675
21
7.529667
31
0
39
0
210
0
220
0
230
1
0
LINE
5
B5
100
AcDbEntity
8
1
62
256
6
ByLayer
370
18
48
1
60
0
100
AcDbLine
10
8.538675
20
23.83913
30
0
11
11.461325
21
23.83913
31
0
39
0
210
0
220
0
230
1
0
LINE
5
B6
100
AcDbEntity
8
1
62
256
6
ByLayer
370
18
48
1
60
0
100
AcDbLine
10
8.538675
20
-7.529667
30
0
11
11.461325
21
-7.529667
31
0
39
0
210
0
220
0
230
1
0
LINE
5
B7
100
AcDbEntity
8
1
62
256
6
ByLayer
370
18
48
1
60
0
100
AcDbLine
10
11.461325
20
-23.83913
30
0
11
8.538675
21
-23.83913
31
0
39
0
210
0
220
0
230
1
0
LINE
5
B8
100
AcDbEntity
8
1
62
256
6
ByLayer
370
18
48
1
60
0
100
AcDbLine
10
20.063901
20
-17.67767
30
0
11
20
21
-25
31
0
39
0
210
0
220
0
230
1
0
LINE
5
B9
100
AcDbEntity
8
1
62
256
6
ByLayer
370
13
48
1
60
0
100
AcDbLine
10
20.279208
20
25
30
0
11
20.279208
21
19.89508
31
0
39
0
210
0
220
0
230
1
0
LINE
5
BA
100
AcDbEntity
8
1
62
256
6
ByLayer
370
18
48
1
60
0
100
AcDbLine
10
0.3
20
-25
30
0
11
0.3
21
25
31
0
39
0
210
0
220
0
230
1
0
LINE
5
BB
100
AcDbEntity
8
1
62
256
6
ByLayer
370
18
48
1
60
0
100
AcDbLine
10
0
20
-24.7
30
0
11
0
21
24.7
31
0
39
0
210
0
220
0
230
1
0
LINE
5
BC
100
AcDbEntity
8
1
62
256
6
ByLayer
370
18
48
1
60
0
100
AcDbLine
10
20.065756
20
-17.465094
30
0
11
20.063901
21
-17.67767
31
0
39
0
210
0
220
0
230
1
0
LINE
5
BD
100
AcDbEntity
8
1
62
256
6
ByLayer
370
13
48
1
60
0
100
AcDbLine
10
20.075356
20
-17.220859
30
0
11
20.075356
21
18.899304
31
0
39
0
210
0
220
0
230
1
0
LINE
5
BE
100
AcDbEntity
8
SK1
62
256
6
ByLayer
370
18
48
1
60
0
100
AcDbLine
10
-0.2
20
-6.078431
30
0
11
-0.2
21
-17.833485
31
0
39
0
210
0
220
0
230
1
0
LINE
5
C0
100
AcDbEntity
8
SK1
62
256
6
ByLayer
370
18
48
1
60
0
100
AcDbLine
10
-0.2
20
17.833485
30
0
11
-0.2
21
6.078432
31
0
39
0
210
0
220
0
230
1
0
LINE
5
C1
100
AcDbEntity
8
SK1
62
256
6
ByLayer
370
13
48
1
60
0
100
AcDbLine
10
-1.307107
20
3.918083
30
0
11
-1.307107
21
-3.918083
31
0
39
0
210
0
220
0
230
1
0
LINE
5
C2
100
AcDbEntity
8
SK1
62
256
6
ByLayer
370
18
48
1
60
0
100
AcDbLine
10
-1.99504
20
17.325269
30
0
11
-1.99504
21
17.320045
31
0
39
0
210
0
220
0
230
1
0
LINE
5
C3
100
AcDbEntity
8
SK1
62
256
6
ByLayer
370
18
48
1
60
0
100
AcDbLine
10
-1.99504
20
-17.320045
30
0
11
-1.99504
21
-17.325269
31
0
39
0
210
0
220
0
230
1
0
LINE
5
C4
100
AcDbEntity
8
1
62
256
6
ByLayer
370
18
48
1
60
0
100
AcDbLine
10
53.609011
20
34.937783
30
0
11
54.555796
21
34.995691
31
0
39
0
210
0
220
0
230
1
0
LINE
5
C5
100
AcDbEntity
8
1
62
256
6
ByLayer
370
18
48
1
60
0
100
AcDbLine
10
54.555796
20
32.004309
30
0
11
53.609011
21
32.062217
31
0
39
0
210
0
220
0
230
1
0
LINE
5
C6
100
AcDbEntity
8
1
62
256
6
ByLayer
370
18
48
1
60
0
100
AcDbLine
10
54.99999
20
34.803151
30
0
11
54.99999
21
32.196849
31
0
39
0
210
0
220
0
230
1
0
LINE
5
C7
100
AcDbEntity
8
1
62
256
6
ByLayer
370
18
48
1
60
0
100
AcDbLine
10
36.390989
20
34.937783
30
0
11
35.444204
21
34.995691
31
0
39
0
210
0
220
0
230
1
0
LINE
5
C8
100
AcDbEntity
8
1
62
256
6
ByLayer
370
18
48
1
60
0
100
AcDbLine
10
35.00001
20
34.803151
30
0
11
35.00001
21
34.674995
31
0
39
0
210
0
220
0
230
1
0
LINE
5
C9
100
AcDbEntity
8
1
62
256
6
ByLayer
370
18
48
1
60
0
100
AcDbLine
10
52.851573
20
34.941295
30
0
11
53.609011
21
34.937783
31
0
39
0
210
0
220
0
230
1
0
LINE
5
CA
100
AcDbEntity
8
1
62
256
6
ByLayer
370
18
48
1
60
0
100
AcDbLine
10
53.609011
20
32.062217
30
0
11
52.851573
21
32.058705
31
0
39
0
210
0
220
0
230
1
0
LINE
5
CB
100
AcDbEntity
8
1
62
256
6
ByLayer
370
18
48
1
60
0
100
AcDbLine
10
53.609011
20
32.062217
30
0
11
53.609011
21
34.937783
31
0
39
0
210
0
220
0
230
1
0
LINE
5
CC
100
AcDbEntity
8
1
62
256
6
ByLayer
370
18
48
1
60
0
100
AcDbLine
10
37.148427
20
34.941295
30
0
11
36.390989
21
34.937783
31
0
39
0
210
0
220
0
230
1
0
LINE
5
CD
100
AcDbEntity
8
1
62
256
6
ByLayer
370
18
48
1
60
0
100
AcDbLine
10
36.390989
20
34.674983
30
0
11
36.390989
21
34.937783
31
0
39
0
210
0
220
0
230
1
0
LINE
5
CE
100
AcDbEntity
8
1
62
256
6
ByLayer
370
13
48
1
60
0
100
AcDbLine
10
52.18134
20
33.5
30
0
11
48.749782
21
33.5
31
0
39
0
210
0
220
0
230
1
0
LINE
5
CF
100
AcDbEntity
8
1
62
256
6
ByLayer
370
13
48
1
60
0
100
AcDbLine
10
51.397706
20
33.302665
30
0
11
48.670484
21
33.302665
31
0
39
0
210
0
220
0
230
1
0
LINE
5
D0
100
AcDbEntity
8
1
62
256
6
ByLayer
370
13
48
1
60
0
100
AcDbLine
10
48.670484
20
33.697335
30
0
11
51.397706
21
33.697335
31
0
39
0
210
0
220
0
230
1
0
LINE
5
D1
100
AcDbEntity
8
1
62
256
6
ByLayer
370
13
48
1
60
0
100
AcDbLine
10
48.664692
20
33.700756
30
0
11
51.344414
21
33.700756
31
0
39
0
210
0
220
0
230
1
0
LINE
5
D2
100
AcDbEntity
8
1
62
256
6
ByLayer
370
13
48
1
60
0
100
AcDbLine
10
48.664692
20
33.299244
30
0
11
51.344414
21
33.299244
31
0
39
0
210
0
220
0
230
1
0
LINE
5
D3
100
AcDbEntity
8
1
62
256
6
ByLayer
370
13
48
1
60
0
100
AcDbLine
10
48.580781
20
33.751024
30
0
11
50.636252
21
33.751024
31
0
39
0
210
0
220
0
230
1
0
LINE
5
D4
100
AcDbEntity
8
1
62
256
6
ByLayer
370
13
48
1
60
0
100
AcDbLine
10
48.580781
20
33.248976
30
0
11
50.636252
21
33.248976
31
0
39
0
210
0
220
0
230
1
0
LINE
5
D5
100
AcDbEntity
8
1
62
256
6
ByLayer
370
13
48
1
60
0
100
AcDbLine
10
48.551458
20
33.132002
30
0
11
50.024167
21
33.132002
31
0
39
0
210
0
220
0
230
1
0
LINE
5
D6
100
AcDbEntity
8
1
62
256
6
ByLayer
370
13
48
1
60
0
100
AcDbLine
10
48.551458
20
33.867998
30
0
11
50.024167
21
33.867998
31
0
39
0
210
0
220
0
230
1
0
LINE
5
D7
100
AcDbEntity
8
1
62
256
6
ByLayer
370
13
48
1
60
0
100
AcDbLine
10
48.398651
20
32.524016
30
0
11
48.82005
21
32.524016
31
0
39
0
210
0
220
0
230
1
0
LINE
5
D8
100
AcDbEntity
8
1
62
256
6
ByLayer
370
18
48
1
60
0
100
AcDbLine
10
48.772487
20
32.35
30
0
11
51.228061
21
32.35
31
0
39
0
210
0
220
0
230
1
0
LINE
5
D9
100
AcDbEntity
8
1
62
256
6
ByLayer
370
18
48
1
60
0
100
AcDbLine
10
51.472465
20
34.6802
30
0
11
52.419669
21
34.918875
31
0
39
0
210
0
220
0
230
1
0
LINE
5
DA
100
AcDbEntity
8
1
62
256
6
ByLayer
370
18
48
1
60
0
100
AcDbLine
10
51.228061
20
34.65
30
0
11
48.772487
21
34.65
31
0
39
0
210
0
220
0
230
1
0
LINE
5
DB
100
AcDbEntity
8
1
62
256
6
ByLayer
370
18
48
1
60
0
100
AcDbLine
10
50.024167
20
33.867998
30
0
11
48.82005
21
34.475984
31
0
39
0
210
0
220
0
230
1
0
LINE
5
DC
100
AcDbEntity
8
1
62
256
6
ByLayer
370
18
48
1
60
0
100
AcDbLine
10
51.397706
20
33.697335
30
0
11
51.344414
21
33.700756
31
0
39
0
210
0
220
0
230
1
0
LINE
5
DD
100
AcDbEntity
8
1
62
256
6
ByLayer
370
18
48
1
60
0
100
AcDbLine
10
51.344414
20
33.299244
30
0
11
51.397706
21
33.302665
31
0
39
0
210
0
220
0
230
1
0
LINE
5
DE
100
AcDbEntity
8
1
62
256
6
ByLayer
370
18
48
1
60
0
100
AcDbLine
10
48.82005
20
32.524016
30
0
11
50.024167
21
33.132002
31
0
39
0
210
0
220
0
230
1
0
LINE
5
DF
100
AcDbEntity
8
1
62
256
6
ByLayer
370
18
48
1
60
0
100
AcDbLine
10
52.419669
20
32.081125
30
0
11
51.472465
21
32.3198
31
0
39
0
210
0
220
0
230
1
0
LINE
5
E0
100
AcDbEntity
8
1
62
256
6
ByLayer
370
18
48
1
60
0
100
AcDbLine
10
52.851573
20
32.058705
30
0
11
52.458733
21
32.075439
31
0
39
0
210
0
220
0
230
1
0
LINE
5
E1
100
AcDbEntity
8
1
62
256
6
ByLayer
370
18
48
1
60
0
100
AcDbLine
10
52.851573
20
32.058705
30
0
11
52.851573
21
34.941295
31
0
39
0
210
0
220
0
230
1
0
LINE
5
E2
100
AcDbEntity
8
1
62
256
6
ByLayer
370
18
48
1
60
0
100
AcDbLine
10
52.458733
20
34.924561
30
0
11
52.851573
21
34.941295
31
0
39
0
210
0
220
0
230
1
0
LINE
5
E3
100
AcDbEntity
8
1
62
256
6
ByLayer
370
13
48
1
60
0
100
AcDbLine
10
48.82005
20
34.475984
30
0
11
48.398651
21
34.475984
31
0
39
0
210
0
220
0
230
1
0
LINE
5
E4
100
AcDbEntity
8
1
62
256
6
ByLayer
370
13
48
1
60
0
100
AcDbLine
10
48.386161
20
34.525438
30
0
11
48.772487
21
34.525438
31
0
39
0
210
0
220
0
230
1
0
LINE
5
E5
100
AcDbEntity
8
1
62
256
6
ByLayer
370
18
48
1
60
0
100
AcDbLine
10
48.772487
20
34.525438
30
0
11
48.772487
21
34.65
31
0
39
0
210
0
220
0
230
1
0
LINE
5
E6
100
AcDbEntity
8
1
62
256
6
ByLayer
370
18
48
1
60
0
100
AcDbLine
10
48.772487
20
34.65
30
0
11
48.35492
21
34.65
31
0
39
0
210
0
220
0
230
1
0
LINE
5
E7
100
AcDbEntity
8
1
62
256
6
ByLayer
370
18
48
1
60
0
100
AcDbLine
10
37.541267
20
34.924561
30
0
11
37.148427
21
34.941295
31
0
39
0
210
0
220
0
230
1
0
LINE
5
E8
100
AcDbEntity
8
1
62
256
6
ByLayer
370
18
48
1
60
0
100
AcDbLine
10
37.148427
20
34.67497
30
0
11
37.148427
21
34.941295
31
0
39
0
210
0
220
0
230
1
0
LINE
5
E9
100
AcDbEntity
8
1
62
256
6
ByLayer
370
18
48
1
60
0
100
AcDbLine
10
38.527535
20
34.6802
30
0
11
37.580331
21
34.918875
31
0
39
0
210
0
220
0
230
1
0
LINE
5
EA
100
AcDbEntity
8
1
62
256
6
ByLayer
370
18
48
1
60
0
100
AcDbLine
10
48.35492
20
32.35
30
0
11
48.772487
21
32.35
31
0
39
0
210
0
220
0
230
1
0
LINE
5
EB
100
AcDbEntity
8
1
62
256
6
ByLayer
370
18
48
1
60
0
100
AcDbLine
10
48.772487
20
32.35
30
0
11
48.772487
21
32.474562
31
0
39
0
210
0
220
0
230
1
0
LINE
5
EC
100
AcDbEntity
8
1
62
256
6
ByLayer
370
13
48
1
60
0
100
AcDbLine
10
48.772487
20
32.474562
30
0
11
48.386161
21
32.474562
31
0
39
0
210
0
220
0
230
1
0
LINE
5
ED
100
AcDbEntity
8
SK2
62
256
6
ByLayer
370
18
48
1
60
0
100
AcDbLine
10
-39.975
20
-25
30
0
11
-39.975
21
25
31
0
39
0
210
0
220
0
230
1
0
LINE
5
EF
100
AcDbEntity
8
SK2
62
256
6
ByLayer
370
18
48
1
60
0
100
AcDbLine
10
-1.2875
20
25
30
0
11
-41.975
21
25
31
0
39
0
210
0
220
0
230
1
0
LINE
5
F0
100
AcDbEntity
8
SK2
62
256
6
ByLayer
370
18
48
1
60
0
100
AcDbLine
10
-1.2875
20
-25
30
0
11
-41.975
21
-25
31
0
39
0
210
0
220
0
230
1
0
LINE
5
F1
100
AcDbEntity
8
1
62
256
6
ByLayer
370
18
48
1
60
1
100
AcDbLine
10
-39.975
20
25
30
0
11
-39.514216
21
21.500002
31
0
39
0
210
0
220
0
230
1
0
LINE
5
F2
100
AcDbEntity
8
1
62
256
6
ByLayer
370
18
48
1
60
1
100
AcDbLine
10
-39.514216
20
21.500002
30
0
11
-40.435784
21
21.499998
31
0
39
0
210
0
220
0
230
1
0
LINE
5
F3
100
AcDbEntity
8
1
62
256
6
ByLayer
370
18
48
1
60
1
100
AcDbLine
10
-40.435784
20
21.499998
30
0
11
-39.975
21
25
31
0
39
0
210
0
220
0
230
1
0
LINE
5
F4
100
AcDbEntity
8
1
62
256
6
ByLayer
370
18
48
1
60
1
100
AcDbLine
10
-39.975
20
-25
30
0
11
-40.435784
21
-21.500002
31
0
39
0
210
0
220
0
230
1
0
LINE
5
F5
100
AcDbEntity
8
1
62
256
6
ByLayer
370
18
48
1
60
1
100
AcDbLine
10
-40.435784
20
-21.500002
30
0
11
-39.514216
21
-21.499998
31
0
39
0
210
0
220
0
230
1
0
LINE
5
F6
100
AcDbEntity
8
1
62
256
6
ByLayer
370
18
48
1
60
1
100
AcDbLine
10
-39.514216
20
-21.499998
30
0
11
-39.975
21
-25
31
0
39
0
210
0
220
0
230
1
0
LINE
5
14F
100
AcDbEntity
8
1
62
256
6
ByLayer
370
18
48
1
60
1
100
AcDbLine
10
-39.975
20
25
30
0
11
-39.514216
21
21.500002
31
0
39
0
210
0
220
0
230
1
0
LINE
5
150
100
AcDbEntity
8
1
62
256
6
ByLayer
370
18
48
1
60
1
100
AcDbLine
10
-39.514216
20
21.500002
30
0
11
-40.435784
21
21.499998
31
0
39
0
210
0
220
0
230
1
0
LINE
5
151
100
AcDbEntity
8
1
62
256
6
ByLayer
370
18
48
1
60
1
100
AcDbLine
10
-40.435784
20
21.499998
30
0
11
-39.975
21
25
31
0
39
0
210
0
220
0
230
1
0
LINE
5
153
100
AcDbEntity
8
1
62
256
6
ByLayer
370
18
48
1
60
1
100
AcDbLine
10
-39.975
20
-25
30
0
11
-40.435784
21
-21.500002
31
0
39
0
210
0
220
0
230
1
0
LINE
5
154
100
AcDbEntity
8
1
62
256
6
ByLayer
370
18
48
1
60
1
100
AcDbLine
10
-40.435784
20
-21.500002
30
0
11
-39.514216
21
-21.499998
31
0
39
0
210
0
220
0
230
1
0
LINE
5
155
100
AcDbEntity
8
1
62
256
6
ByLayer
370
18
48
1
60
1
100
AcDbLine
10
-39.514216
20
-21.499998
30
0
11
-39.975
21
-25
31
0
39
0
210
0
220
0
230
1
0
MTEXT
5
14B
100
AcDbEntity
8
SK2
62
256
6
ByLayer
370
18
48
1
60
0
100
AcDbMText
10
-41.539634
20
-4.530622
30
0
210
0
220
0
230
1
1
%%c
40
3.5
41
0
44
1.084337
50
90
71
7
72
5
7
iso_b_vert
0
MTEXT
5
14E
100
AcDbEntity
8
SK2
62
256
6
ByLayer
370
18
48
1
60
0
100
AcDbMText
10
-41.539634
20
2.442034
30
0
210
0
220
0
230
1
1
\W0.6740;50
40
3.5
41
0
44
1.084337
50
90
71
7
72
5
7
iso_b_vert
0
MTEXT
5
157
100
AcDbEntity
8
SK6
62
256
6
ByLayer
370
18
48
1
60
0
100
AcDbMText
10
-19.8145
20
-49.210154
30
0
210
0
220
0
230
1
1
\W0.7303;C2R-CC5-RG10CB
40
3.5
41
0
44
1.084337
50
0
71
7
72
5
7
iso_b_vert
0
HATCH
5
152
100
AcDbEntity
8
SK2
62
256
6
ByLayer
370
13
48
1
60
0
100
AcDbHatch
10
0
20
0
30
0
210
0
220
0
230
1
2
ANSI31
70
0
71
0
91
1
92
5
93
3
72
1
10
-39.9750000000001
20
25
11
-39.5142162584473
21
21.5000016925532
72
1
10
-39.5142162584473
20
21.5000016925532
11
-40.4357837415529
21
21.4999983074468
72
1
10
-40.4357837415529
20
21.4999983074468
11
-39.9750000000001
21
25
97
0
75
0
76
1
52
0
41
0.0062
77
0
78
1
53
45
43
0
44
0
45
-0.0139193969876572
46
0.0139193969876572
79
0
47
0
98
1
10
0
20
0
0
HATCH
5
156
100
AcDbEntity
8
SK2
62
256
6
ByLayer
370
13
48
1
60
0
100
AcDbHatch
10
0
20
0
30
0
210
0
220
0
230
1
2
ANSI31
70
0
71
0
91
1
92
5
93
3
72
1
10
-39.9750000000001
20
-25
11
-40.4357837415529
21
-21.5000016925532
72
1
10
-40.4357837415529
20
-21.5000016925532
11
-39.5142162584473
21
-21.4999983074468
72
1
10
-39.5142162584473
20
-21.4999983074468
11
-39.9750000000001
21
-25
97
0
75
0
76
1
52
0
41
0.0062
77
0
78
1
53
45
43
0
44
0
45
-0.0139193969876572
46
0.0139193969876572
79
0
47
0
98
1
10
0
20
0
0
DIMENSION
5
15A
100
AcDbEntity
8
2
62
256
6
ByLayer
370
18
48
1
60
0
100
AcDbDimension
2
_U0
10
86.1
20
0
30
0
11
86.1
21
17.5
31
0
70
32
71
1
72
1
41
1
210
0
220
0
230
1
3
Standard
100
AcDbAlignedDimension
13
55
23
35
33
0
14
0
24
0
34
0
50
90
100
AcDbRotatedDimension
1001
ACAD
1000
DSTYLE
1002
{
1070
   371
1070
    13
1070
   372
1070
    13
1070
   170
1070
     0
1070
   144
1040
1.0
1070
   277
1070
     2
1070
   284
1070
     8
1070
   278
1070
    46
1070
   146
1040
1.0
1070
   345
1005
16
1070
   347
1005
16
1070
   346
1005
16
1070
   344
1005
0
1070
   343
1005
0
1070
   172
1070
     1
1070
    76
1070
     0
1070
    75
1070
     0
1070
   282
1070
     0
1070
   281
1070
     0
1070
    71
1070
     0
1070
    74
1070
     0
1070
   279
1070
     0
1070
   173
1070
     1
1070
   340
1005
14C
1070
   271
1070
     1
1070
   272
1070
     2
1070
    77
1070
     1
1070
    73
1070
     0
1070
   171
1070
     3
1070
   274
1070
     4
1070
   177
1070
     2
1070
   176
1070
     2
1070
   178
1070
     2
1070
    78
1070
     8
1070
    48
1040
-0.1
1070
    41
1040
3.5
1070
   147
1040
1.75
1070
    42
1040
1.5875
1070
    44
1040
2.0
1070
   140
1040
3.5
1002
}
1001
ACAD_DSTYLE_DIM_LINETYPE
1070
   380
1005
16
1001
ACAD_DSTYLE_DIM_EXT1_LINETYPE
1070
   381
1005
16
1001
ACAD_DSTYLE_DIM_EXT2_LINETYPE
1070
   382
1005
16
0
DIMENSION
5
174
100
AcDbEntity
8
2
62
256
6
ByLayer
370
18
48
1
60
0
100
AcDbDimension
2
_U1
10
75.1
20
35
30
0
11
75.1
21
33.5
31
0
70
32
71
1
72
1
41
1
210
0
220
0
230
1
3
Standard
100
AcDbAlignedDimension
13
55
23
32
33
0
14
55
24
35
34
0
50
90
100
AcDbRotatedDimension
1001
ACAD
1000
DSTYLE
1002
{
1070
   371
1070
    13
1070
   372
1070
    13
1070
   170
1070
     0
1070
   144
1040
1.0
1070
   277
1070
     2
1070
   284
1070
     8
1070
   278
1070
    46
1070
   146
1040
1.0
1070
   345
1005
16
1070
   347
1005
16
1070
   346
1005
16
1070
   344
1005
0
1070
   343
1005
0
1070
   172
1070
     1
1070
    76
1070
     0
1070
    75
1070
     0
1070
   282
1070
     0
1070
   281
1070
     0
1070
    71
1070
     0
1070
    74
1070
     0
1070
   279
1070
     0
1070
   173
1070
     1
1070
   340
1005
14C
1070
   271
1070
     1
1070
   272
1070
     2
1070
    77
1070
     1
1070
    73
1070
     0
1070
   171
1070
     3
1070
   274
1070
     4
1070
   177
1070
     2
1070
   176
1070
     2
1070
   178
1070
     2
1070
    78
1070
     8
1070
    48
1040
-0.1
1070
    41
1040
3.5
1070
   147
1040
1.75
1070
    42
1040
1.5875
1070
    44
1040
2.0
1070
   140
1040
3.5
1002
}
1001
ACAD_DSTYLE_DIM_LINETYPE
1070
   380
1005
16
1001
ACAD_DSTYLE_DIM_EXT1_LINETYPE
1070
   381
1005
16
1001
ACAD_DSTYLE_DIM_EXT2_LINETYPE
1070
   382
1005
16
0
DIMENSION
5
18D
100
AcDbEntity
8
2
62
256
6
ByLayer
370
18
48
1
60
0
100
AcDbDimension
2
_U2
10
55
20
-19.425
30
0
11
50
21
-19.425
31
0
70
32
71
1
72
1
41
1
210
0
220
0
230
1
3
Standard
100
AcDbAlignedDimension
13
45
23
32.325
33
0
14
55
24
32
34
0
50
0
100
AcDbRotatedDimension
1001
ACAD
1000
DSTYLE
1002
{
1070
   371
1070
    13
1070
   372
1070
    13
1070
   170
1070
     0
1070
   144
1040
1.0
1070
   277
1070
     2
1070
   284
1070
     8
1070
   278
1070
    46
1070
   146
1040
1.0
1070
   345
1005
16
1070
   347
1005
16
1070
   346
1005
16
1070
   344
1005
0
1070
   343
1005
0
1070
   172
1070
     1
1070
    76
1070
     0
1070
    75
1070
     0
1070
   282
1070
     0
1070
   281
1070
     0
1070
    71
1070
     0
1070
    74
1070
     0
1070
   279
1070
     0
1070
   173
1070
     1
1070
   340
1005
14C
1070
   271
1070
     1
1070
   272
1070
     2
1070
    77
1070
     1
1070
    73
1070
     1
1070
   171
1070
     3
1070
   274
1070
     4
1070
   177
1070
     2
1070
   176
1070
     2
1070
   178
1070
     2
1070
    78
1070
     8
1070
    48
1040
-0.1
1070
    41
1040
3.5
1070
   147
1040
1.75
1070
    42
1040
1.5875
1070
    44
1040
2.0
1070
   140
1040
3.5
1002
}
1001
ACAD_DSTYLE_DIM_LINETYPE
1070
   380
1005
16
1001
ACAD_DSTYLE_DIM_EXT1_LINETYPE
1070
   381
1005
16
1001
ACAD_DSTYLE_DIM_EXT2_LINETYPE
1070
   382
1005
16
0
DIMENSION
5
1A6
100
AcDbEntity
8
2
62
256
6
ByLayer
370
18
48
1
60
0
100
AcDbDimension
2
_U3
10
55
20
47.25
30
0
11
27.5
21
47.25
31
0
70
32
71
1
72
1
41
1
210
0
220
0
230
1
3
Standard
100
AcDbAlignedDimension
13
0
23
0
33
0
14
55
24
35
34
0
50
0
100
AcDbRotatedDimension
1001
ACAD
1000
DSTYLE
1002
{
1070
   371
1070
    13
1070
   372
1070
    13
1070
   170
1070
     0
1070
   144
1040
1.0
1070
   277
1070
     2
1070
   284
1070
     8
1070
   278
1070
    46
1070
   146
1040
1.0
1070
   345
1005
16
1070
   347
1005
16
1070
   346
1005
16
1070
   344
1005
0
1070
   343
1005
0
1070
   172
1070
     1
1070
    76
1070
     0
1070
    75
1070
     0
1070
   282
1070
     0
1070
   281
1070
     0
1070
    71
1070
     0
1070
    74
1070
     0
1070
   279
1070
     0
1070
   173
1070
     1
1070
   340
1005
14C
1070
   271
1070
     1
1070
   272
1070
     2
1070
    77
1070
     1
1070
    73
1070
     1
1070
   171
1070
     3
1070
   274
1070
     4
1070
   177
1070
     2
1070
   176
1070
     2
1070
   178
1070
     2
1070
    78
1070
     8
1070
    48
1040
-0.1
1070
    41
1040
3.5
1070
   147
1040
1.75
1070
    42
1040
1.5875
1070
    44
1040
2.0
1070
   140
1040
3.5
1002
}
1001
ACAD_DSTYLE_DIM_LINETYPE
1070
   380
1005
16
1001
ACAD_DSTYLE_DIM_EXT1_LINETYPE
1070
   381
1005
16
1001
ACAD_DSTYLE_DIM_EXT2_LINETYPE
1070
   382
1005
16
0
ENDSEC
0
SECTION
2
OBJECTS
0
DICTIONARY
5
22d
330
0
100
AcDbDictionary
280
0
281
1
3
ACAD_GROUP
350
22e
3
ACAD_MLINESTYLE
350
22f
0
DICTIONARY
5
22e
330
0
100
AcDbDictionary
280
0
281
1
0
DICTIONARY
5
22f
330
0
100
AcDbDictionary
280
0
281
1
3
Standard
350
18
0
MLINESTYLE
5
18
330
22f
100
AcDbMlineStyle
2
Standard
70
0
3

62
256
51
90
52
90
71
2
49
-0.5
62
256
6
ByLayer
49
0.5
62
256
6
ByLayer
0
RASTERVARIABLES
5
21c
330

100
AcDbRasterVariables
90
0
70
1
71
1
72
1
0
ENDSEC
0
EOF
