0
SECTION
2
HEADER
9
$ACADVER
1
AC1015
9
$DWGCODEPAGE
3
ANSI_1252
9
$HANDSEED
5
245
9
$ANGBASE
50
0
9
$ANGDIR
70
0
9
$ATTMODE
70
1
9
$AUNITS
70
0
9
$AUPREC
70
0
9
$CECOLOR
62
256
9
$CELTSCALE
40
1
9
$CELTYPE
6
ByLayer
9
$CELWEIGHT
370
18
9
$CLAYER
8
0
9
$CMLJUST
70
0
9
$CMLSCALE
40
1
9
$CMLSTYLE
2
Standard
9
$DIMSTYLE
2
Standard
9
$TEXTSIZE
40
0.2
9
$TEXTSTYLE
7
Standard
9
$LUNITS
70
2
9
$LUPREC
70
4
9
$EXTNAMES
290
1
9
$INSUNITS
70
4
9
$LTSCALE
40
1
9
$LWDISPLAY
290
1
9
$PDMODE
70
0
9
$PDSIZE
40
0
9
$PLINEGEN
70
0
0
ENDSEC
0
SECTION
2
CLASSES
0
CLASS
1
RASTERVARIABLES
2
AcDbRasterVariables
3
ISM
90
0
280
0
281
0
0
ENDSEC
0
SECTION
2
TABLES
0
TABLE
2
VPORT
5
23b
100
AcDbSymbolTable
0
VPORT
5
1
100
AcDbSymbolTableRecord
100
AcDbViewportTableRecord
2
*Active
70
0
10
0
20
0
11
1
21
1
12
-1
22
1
13
0
23
0
14
0.5
24
0.5
15
10
25
10
16
0
26
0
36
1
17
0
27
0
37
0
0
ENDTAB
0
TABLE
2
LTYPE
5
23c
100
AcDbSymbolTable
0
LTYPE
5
14
100
AcDbSymbolTableRecord
100
AcDbLinetypeTableRecord
70
0
2
ByBlock
3

72
65
73
0
40
0
0
LTYPE
5
15
100
AcDbSymbolTableRecord
100
AcDbLinetypeTableRecord
70
0
2
ByLayer
3

72
65
73
0
40
0
0
LTYPE
5
16
100
AcDbSymbolTableRecord
100
AcDbLinetypeTableRecord
70
0
2
Continuous
3
Solid line
72
65
73
0
40
0
0
LTYPE
5
6E
100
AcDbSymbolTableRecord
100
AcDbLinetypeTableRecord
70
0
2
CENTER
3
____ _ ____ _ ____ _ ____
72
65
73
4
40
47.5
49
22
74
0
49
-8.5
74
0
49
8.5
74
0
49
-8.5
74
0
0
LTYPE
5
6F
100
AcDbSymbolTableRecord
100
AcDbLinetypeTableRecord
70
0
2
DASHED
3
__ __ __ __ __ __ __ __ __
72
65
73
2
40
25.72
49
12.86
74
0
49
-12.86
74
0
0
ENDTAB
0
TABLE
2
LAYER
5
23d
100
AcDbSymbolTable
0
LAYER
5
10
100
AcDbSymbolTableRecord
100
AcDbLayerTableRecord
2
0
70
0
62
7
6
Continuous
290
1
370
-3
390
0
0
LAYER
5
71
100
AcDbSymbolTableRecord
100
AcDbLayerTableRecord
2
81
70
0
62
-3
6
Continuous
290
1
370
-3
390
0
0
LAYER
5
73
100
AcDbSymbolTableRecord
100
AcDbLayerTableRecord
2
80
70
0
62
-6
6
Continuous
290
1
370
-3
390
0
0
LAYER
5
75
100
AcDbSymbolTableRecord
100
AcDbLayerTableRecord
2
1
70
0
62
4
6
Continuous
290
1
370
-3
390
0
0
LAYER
5
168
100
AcDbSymbolTableRecord
100
AcDbLayerTableRecord
2
Defpoints
70
0
62
7
6
Continuous
290
0
370
-3
390
0
0
LAYER
5
175
100
AcDbSymbolTableRecord
100
AcDbLayerTableRecord
2
2
70
0
62
7
6
Continuous
290
1
370
-3
390
0
0
LAYER
5
228
100
AcDbSymbolTableRecord
100
AcDbLayerTableRecord
2
SK1
70
0
62
4
6
Continuous
290
1
370
-3
390
0
0
LAYER
5
229
100
AcDbSymbolTableRecord
100
AcDbLayerTableRecord
2
SK2
70
0
62
7
6
Continuous
290
1
370
-3
390
0
0
LAYER
5
22a
100
AcDbSymbolTableRecord
100
AcDbLayerTableRecord
2
SK6
70
0
62
5
6
Continuous
290
1
370
-3
390
0
0
ENDTAB
0
TABLE
2
STYLE
5
23e
100
AcDbSymbolTable
0
STYLE
5
11
100
AcDbSymbolTableRecord
100
AcDbTextStyleTableRecord
2
Standard
3
txt
70
0
71
0
40
0
41
1
42
0
50
0
0
STYLE
5
157
100
AcDbSymbolTableRecord
100
AcDbTextStyleTableRecord
2
iso_b_vert
3
simplex.shx
70
0
71
0
40
0
41
1
42
0
50
0
0
STYLE
5
158
100
AcDbSymbolTableRecord
100
AcDbTextStyleTableRecord
2
DWGDirectTextStyle
3
simplex
70
0
71
0
40
0
41
1
42
0
50
0
0
ENDTAB
0
TABLE
2
DIMSTYLE
5
23f
100
AcDbSymbolTable
100
AcDbDimStyleTable
0
DIMSTYLE
105
27
100
AcDbSymbolTableRecord
100
AcDbDimStyleTableRecord
2
Standard
70
0
3
<>
41
0.18
42
0.0625
44
0.18
140
0.18
147
0.09
73
0
74
0
77
1
271
2
275
0
278
52
280
0
340
11
0
ENDTAB
0
TABLE
2
VIEW
5
240
100
AcDbSymbolTable
0
ENDTAB
0
TABLE
2
UCS
5
241
100
AcDbSymbolTable
0
ENDTAB
0
TABLE
2
APPID
5
242
100
AcDbSymbolTable
0
APPID
5
12
100
AcDbSymbolTableRecord
100
AcDbRegAppTableRecord
2
ACAD
70
0
0
APPID
5
164
100
AcDbSymbolTableRecord
100
AcDbRegAppTableRecord
2
ACAD_DSTYLE_DIMBREAK
70
0
0
APPID
5
1E7
100
AcDbSymbolTableRecord
100
AcDbRegAppTableRecord
2
ACAD_DSTYLE_DIM_LINETYPE
70
0
0
APPID
5
1E8
100
AcDbSymbolTableRecord
100
AcDbRegAppTableRecord
2
ACAD_DSTYLE_DIM_EXT1_LINETYPE
70
0
0
APPID
5
1E9
100
AcDbSymbolTableRecord
100
AcDbRegAppTableRecord
2
ACAD_DSTYLE_DIM_EXT2_LINETYPE
70
0
0
APPID
5
224
100
AcDbSymbolTableRecord
100
AcDbRegAppTableRecord
2
ACAD_MLEADERVER
70
0
0
ENDTAB
0
TABLE
2
BLOCK_RECORD
5
243
100
AcDbSymbolTable
0
BLOCK_RECORD
5
1F
100
AcDbSymbolTableRecord
100
AcDbBlockTableRecord
2
*Model_Space
340
0
70
0
0
BLOCK_RECORD
5
1B
100
AcDbSymbolTableRecord
100
AcDbBlockTableRecord
2
*Paper_Space
340
0
70
0
0
BLOCK_RECORD
5
23
100
AcDbSymbolTableRecord
100
AcDbBlockTableRecord
2
*Paper_Space0
340
0
70
0
0
BLOCK_RECORD
5
169
100
AcDbSymbolTableRecord
100
AcDbBlockTableRecord
2
*D1
340
0
70
0
0
BLOCK_RECORD
5
176
100
AcDbSymbolTableRecord
100
AcDbBlockTableRecord
2
_U0
340
0
70
0
0
BLOCK_RECORD
5
182
100
AcDbSymbolTableRecord
100
AcDbBlockTableRecord
2
*D3
340
0
70
0
0
BLOCK_RECORD
5
18F
100
AcDbSymbolTableRecord
100
AcDbBlockTableRecord
2
_U1
340
0
70
0
0
BLOCK_RECORD
5
19B
100
AcDbSymbolTableRecord
100
AcDbBlockTableRecord
2
*D5
340
0
70
0
0
BLOCK_RECORD
5
1A8
100
AcDbSymbolTableRecord
100
AcDbBlockTableRecord
2
_U2
340
0
70
0
0
BLOCK_RECORD
5
1B4
100
AcDbSymbolTableRecord
100
AcDbBlockTableRecord
2
*D7
340
0
70
0
0
BLOCK_RECORD
5
1C0
100
AcDbSymbolTableRecord
100
AcDbBlockTableRecord
2
_U3
340
0
70
0
0
ENDTAB
0
ENDSEC
0
SECTION
2
BLOCKS
0
BLOCK
5
20
100
AcDbEntity
8
0
100
AcDbBlockBegin
2
*Model_Space
70
0
10
0
20
0
30
0
3
*Model_Space
0
ENDBLK
5
21
100
AcDbEntity
8
0
100
AcDbBlockEnd
0
BLOCK
5
1C
100
AcDbEntity
8
0
100
AcDbBlockBegin
2
*Paper_Space
70
0
10
0
20
0
30
0
3
*Paper_Space
0
ENDBLK
5
1D
100
AcDbEntity
8
0
100
AcDbBlockEnd
0
BLOCK
5
24
100
AcDbEntity
8
0
100
AcDbBlockBegin
2
*Paper_Space0
70
0
10
0
20
0
30
0
3
*Paper_Space0
0
ENDBLK
5
25
100
AcDbEntity
8
0
100
AcDbBlockEnd
0
BLOCK
5
16A
100
AcDbEntity
8
0
100
AcDbBlockBegin
2
*D1
70
1
10
0
20
0
30
0
3
*D1
0
LINE
5
16C
100
AcDbEntity
8
0
62
256
6
ByLayer
370
-2
48
1
60
0
100
AcDbLine
10
61.5875
20
-27
30
0
11
93.1
21
-27
31
0
39
0
210
0
220
0
230
1
0
LINE
5
16D
100
AcDbEntity
8
0
62
256
6
ByLayer
370
-2
48
1
60
0
100
AcDbLine
10
1.5875
20
0
30
0
11
93.1
21
0
31
0
39
0
210
0
220
0
230
1
0
LINE
5
16E
100
AcDbEntity
8
0
62
256
6
ByLayer
370
-2
48
1
60
0
100
AcDbLine
10
91.1
20
-23.5
30
0
11
91.1
21
-3.5
31
0
39
0
210
0
220
0
230
1
0
SOLID
5
16F
100
AcDbEntity
8
0
62
256
6
ByLayer
370
-1
48
1
60
0
100
AcDbTrace
10
90.516667
20
-23.5
30
0
11
91.683333
21
-23.5
31
0
12
91.1
22
-27
32
0
13
91.1
23
-27
33
0
39
0
210
0
220
0
230
1
0
SOLID
5
170
100
AcDbEntity
8
0
62
256
6
ByLayer
370
-1
48
1
60
0
100
AcDbTrace
10
91.683333
20
-3.5
30
0
11
90.516667
21
-3.5
31
0
12
91.1
22
0
32
0
13
91.1
23
0
33
0
39
0
210
0
220
0
230
1
0
MTEXT
5
171
100
AcDbEntity
8
0
62
256
6
ByLayer
370
18
48
1
60
0
100
AcDbMText
10
84.1
20
-13.5
30
0
210
0
220
0
230
1
1
\A1;27
40
3.5
41
0
44
1
50
90
71
5
72
5
7
iso_b_vert
0
POINT
5
172
100
AcDbEntity
8
Defpoints
62
0
6
ByLayer
370
-1
48
1
60
0
100
AcDbPoint
10
60
20
-27
30
0
39
0
210
0
220
0
230
1
50
360
0
POINT
5
173
100
AcDbEntity
8
Defpoints
62
0
6
ByLayer
370
-1
48
1
60
0
100
AcDbPoint
10
0
20
0
30
0
39
0
210
0
220
0
230
1
50
360
0
POINT
5
174
100
AcDbEntity
8
Defpoints
62
0
6
ByLayer
370
-1
48
1
60
0
100
AcDbPoint
10
91.1
20
0
30
0
39
0
210
0
220
0
230
1
50
360
0
ENDBLK
5
16B
100
AcDbEntity
8
0
100
AcDbBlockEnd
0
BLOCK
5
17D
100
AcDbEntity
8
0
100
AcDbBlockBegin
2
_U0
70
0
10
0
20
0
30
0
3
_U0
0
MTEXT
5
177
100
AcDbEntity
8
2
62
256
6
ByLayer
370
18
48
1
60
0
100
AcDbMText
10
90.410366
20
-15.432966
30
0
210
0
220
0
230
1
1
\W0.6740;27
40
3.5
41
0
44
1.084337
50
90
71
7
72
5
7
iso_b_vert
0
LINE
5
178
100
AcDbEntity
8
2
62
256
6
ByLayer
370
13
48
1
60
0
100
AcDbLine
10
61.5875
20
-27
30
0
11
93.1
21
-27
31
0
39
0
210
0
220
0
230
1
0
LINE
5
179
100
AcDbEntity
8
2
62
256
6
ByLayer
370
13
48
1
60
0
100
AcDbLine
10
1.5875
20
0
30
0
11
93.1
21
0
31
0
39
0
210
0
220
0
230
1
0
LINE
5
17A
100
AcDbEntity
8
2
62
256
6
ByLayer
370
13
48
1
60
0
100
AcDbLine
10
91.1
20
-27
30
0
11
91.1
21
0
31
0
39
0
210
0
220
0
230
1
0
SOLID
5
17B
100
AcDbEntity
8
2
62
256
6
ByLayer
370
18
48
1
60
0
100
AcDbTrace
10
91.1
20
-27
30
0
11
90.639216
21
-23.500002
31
0
12
91.560784
22
-23.499998
32
0
13
91.560784
23
-23.499998
33
0
39
0
210
0
220
0
230
1
0
SOLID
5
17C
100
AcDbEntity
8
2
62
256
6
ByLayer
370
18
48
1
60
0
100
AcDbTrace
10
91.1
20
0
30
0
11
91.560784
21
-3.499998
31
0
12
90.639216
22
-3.500002
32
0
13
90.639216
23
-3.500002
33
0
39
0
210
0
220
0
230
1
0
ENDBLK
5
17E
100
AcDbEntity
8
0
100
AcDbBlockEnd
0
BLOCK
5
183
100
AcDbEntity
8
0
100
AcDbBlockBegin
2
*D3
70
1
10
0
20
0
30
0
3
*D3
0
LINE
5
185
100
AcDbEntity
8
0
62
256
6
ByLayer
370
-2
48
1
60
0
100
AcDbLine
10
61.5875
20
-24
30
0
11
82.1
21
-24
31
0
39
0
210
0
220
0
230
1
0
LINE
5
186
100
AcDbEntity
8
0
62
256
6
ByLayer
370
-2
48
1
60
0
100
AcDbLine
10
61.5875
20
-27
30
0
11
82.1
21
-27
31
0
39
0
210
0
220
0
230
1
0
LINE
5
187
100
AcDbEntity
8
0
62
256
6
ByLayer
370
-2
48
1
60
0
100
AcDbLine
10
80.1
20
-20.5
30
0
11
80.1
21
-17
31
0
39
0
210
0
220
0
230
1
0
LINE
5
188
100
AcDbEntity
8
0
62
256
6
ByLayer
370
-2
48
1
60
0
100
AcDbLine
10
80.1
20
-30.5
30
0
11
80.1
21
-34
31
0
39
0
210
0
220
0
230
1
0
SOLID
5
189
100
AcDbEntity
8
0
62
256
6
ByLayer
370
-1
48
1
60
0
100
AcDbTrace
10
79.516667
20
-20.5
30
0
11
80.683333
21
-20.5
31
0
12
80.1
22
-24
32
0
13
80.1
23
-24
33
0
39
0
210
0
220
0
230
1
0
SOLID
5
18A
100
AcDbEntity
8
0
62
256
6
ByLayer
370
-1
48
1
60
0
100
AcDbTrace
10
80.683333
20
-30.5
30
0
11
79.516667
21
-30.5
31
0
12
80.1
22
-27
32
0
13
80.1
23
-27
33
0
39
0
210
0
220
0
230
1
0
MTEXT
5
18B
100
AcDbEntity
8
0
62
256
6
ByLayer
370
18
48
1
60
0
100
AcDbMText
10
73.1
20
-25.5
30
0
210
0
220
0
230
1
1
\A1;3
40
3.5
41
0
44
1
50
90
71
5
72
5
7
iso_b_vert
0
POINT
5
18C
100
AcDbEntity
8
Defpoints
62
0
6
ByLayer
370
-1
48
1
60
0
100
AcDbPoint
10
60
20
-24
30
0
39
0
210
0
220
0
230
1
50
360
0
POINT
5
18D
100
AcDbEntity
8
Defpoints
62
0
6
ByLayer
370
-1
48
1
60
0
100
AcDbPoint
10
60
20
-27
30
0
39
0
210
0
220
0
230
1
50
360
0
POINT
5
18E
100
AcDbEntity
8
Defpoints
62
0
6
ByLayer
370
-1
48
1
60
0
100
AcDbPoint
10
80.1
20
-27
30
0
39
0
210
0
220
0
230
1
50
360
0
ENDBLK
5
184
100
AcDbEntity
8
0
100
AcDbBlockEnd
0
BLOCK
5
196
100
AcDbEntity
8
0
100
AcDbBlockBegin
2
_U1
70
0
10
0
20
0
30
0
3
_U1
0
MTEXT
5
190
100
AcDbEntity
8
2
62
256
6
ByLayer
370
18
48
1
60
0
100
AcDbMText
10
79.410366
20
-26.125233
30
0
210
0
220
0
230
1
1
\W0.5404;3
40
3.5
41
0
44
1.084337
50
90
71
7
72
5
7
iso_b_vert
0
LINE
5
191
100
AcDbEntity
8
2
62
256
6
ByLayer
370
13
48
1
60
0
100
AcDbLine
10
61.5875
20
-24
30
0
11
82.1
21
-24
31
0
39
0
210
0
220
0
230
1
0
LINE
5
192
100
AcDbEntity
8
2
62
256
6
ByLayer
370
13
48
1
60
0
100
AcDbLine
10
61.5875
20
-27
30
0
11
82.1
21
-27
31
0
39
0
210
0
220
0
230
1
0
LINE
5
193
100
AcDbEntity
8
2
62
256
6
ByLayer
370
13
48
1
60
0
100
AcDbLine
10
80.1
20
-15.25
30
0
11
80.1
21
-35.75
31
0
39
0
210
0
220
0
230
1
0
SOLID
5
194
100
AcDbEntity
8
2
62
256
6
ByLayer
370
18
48
1
60
0
100
AcDbTrace
10
80.1
20
-24
30
0
11
79.639216
21
-20.500002
31
0
12
80.560784
22
-20.499998
32
0
13
80.560784
23
-20.499998
33
0
39
0
210
0
220
0
230
1
0
SOLID
5
195
100
AcDbEntity
8
2
62
256
6
ByLayer
370
18
48
1
60
0
100
AcDbTrace
10
80.1
20
-27
30
0
11
80.560784
21
-30.499998
31
0
12
79.639216
22
-30.500002
32
0
13
79.639216
23
-30.500002
33
0
39
0
210
0
220
0
230
1
0
ENDBLK
5
197
100
AcDbEntity
8
0
100
AcDbBlockEnd
0
BLOCK
5
19C
100
AcDbEntity
8
0
100
AcDbBlockBegin
2
*D5
70
1
10
0
20
0
30
0
3
*D5
0
LINE
5
19E
100
AcDbEntity
8
0
62
256
6
ByLayer
370
-2
48
1
60
0
100
AcDbLine
10
45
20
-22.7375
30
0
11
45
21
15.925
31
0
39
0
210
0
220
0
230
1
0
LINE
5
19F
100
AcDbEntity
8
0
62
256
6
ByLayer
370
-2
48
1
60
0
100
AcDbLine
10
60
20
-22.4125
30
0
11
60
21
15.925
31
0
39
0
210
0
220
0
230
1
0
LINE
5
1A0
100
AcDbEntity
8
0
62
256
6
ByLayer
370
-2
48
1
60
0
100
AcDbLine
10
41.5
20
13.925
30
0
11
38
21
13.925
31
0
39
0
210
0
220
0
230
1
0
LINE
5
1A1
100
AcDbEntity
8
0
62
256
6
ByLayer
370
-2
48
1
60
0
100
AcDbLine
10
63.5
20
13.925
30
0
11
67
21
13.925
31
0
39
0
210
0
220
0
230
1
0
SOLID
5
1A2
100
AcDbEntity
8
0
62
256
6
ByLayer
370
-1
48
1
60
0
100
AcDbTrace
10
41.5
20
13.341667
30
0
11
41.5
21
14.508333
31
0
12
45
22
13.925
32
0
13
45
23
13.925
33
0
39
0
210
0
220
0
230
1
0
SOLID
5
1A3
100
AcDbEntity
8
0
62
256
6
ByLayer
370
-1
48
1
60
0
100
AcDbTrace
10
63.5
20
14.508333
30
0
11
63.5
21
13.341667
31
0
12
60
22
13.925
32
0
13
60
23
13.925
33
0
39
0
210
0
220
0
230
1
0
MTEXT
5
1A4
100
AcDbEntity
8
0
62
256
6
ByLayer
370
18
48
1
60
0
100
AcDbMText
10
52.5
20
20.925
30
0
210
0
220
0
230
1
1
\A1;15
40
3.5
41
0
44
1
50
0
71
5
72
5
7
iso_b_vert
0
POINT
5
1A5
100
AcDbEntity
8
Defpoints
62
0
6
ByLayer
370
-1
48
1
60
0
100
AcDbPoint
10
45
20
-24.325
30
0
39
0
210
0
220
0
230
1
50
360
0
POINT
5
1A6
100
AcDbEntity
8
Defpoints
62
0
6
ByLayer
370
-1
48
1
60
0
100
AcDbPoint
10
60
20
-24
30
0
39
0
210
0
220
0
230
1
50
360
0
POINT
5
1A7
100
AcDbEntity
8
Defpoints
62
0
6
ByLayer
370
-1
48
1
60
0
100
AcDbPoint
10
60
20
13.925
30
0
39
0
210
0
220
0
230
1
50
360
0
ENDBLK
5
19D
100
AcDbEntity
8
0
100
AcDbBlockEnd
0
BLOCK
5
1AF
100
AcDbEntity
8
0
100
AcDbBlockBegin
2
_U2
70
0
10
0
20
0
30
0
3
_U2
0
MTEXT
5
1A9
100
AcDbEntity
8
2
62
256
6
ByLayer
370
18
48
1
60
0
100
AcDbMText
10
51.032467
20
14.957634
30
0
210
0
220
0
230
1
1
\W0.5321;15
40
3.5
41
0
44
1.084337
50
0
71
7
72
5
7
iso_b_vert
0
LINE
5
1AA
100
AcDbEntity
8
2
62
256
6
ByLayer
370
13
48
1
60
0
100
AcDbLine
10
45
20
-22.7375
30
0
11
45
21
15.925
31
0
39
0
210
0
220
0
230
1
0
LINE
5
1AB
100
AcDbEntity
8
2
62
256
6
ByLayer
370
13
48
1
60
0
100
AcDbLine
10
60
20
-22.4125
30
0
11
60
21
15.925
31
0
39
0
210
0
220
0
230
1
0
LINE
5
1AC
100
AcDbEntity
8
2
62
256
6
ByLayer
370
13
48
1
60
0
100
AcDbLine
10
45
20
13.925
30
0
11
60
21
13.925
31
0
39
0
210
0
220
0
230
1
0
SOLID
5
1AD
100
AcDbEntity
8
2
62
256
6
ByLayer
370
18
48
1
60
0
100
AcDbTrace
10
45
20
13.925
30
0
11
48.499998
21
14.385784
31
0
12
48.500002
22
13.464216
32
0
13
48.500002
23
13.464216
33
0
39
0
210
0
220
0
230
1
0
SOLID
5
1AE
100
AcDbEntity
8
2
62
256
6
ByLayer
370
18
48
1
60
0
100
AcDbTrace
10
60
20
13.925
30
0
11
56.500002
21
13.464216
31
0
12
56.499998
22
14.385784
32
0
13
56.499998
23
14.385784
33
0
39
0
210
0
220
0
230
1
0
ENDBLK
5
1B0
100
AcDbEntity
8
0
100
AcDbBlockEnd
0
BLOCK
5
1B5
100
AcDbEntity
8
0
100
AcDbBlockBegin
2
*D7
70
1
10
0
20
0
30
0
3
*D7
0
LINE
5
1B7
100
AcDbEntity
8
0
62
256
6
ByLayer
370
-2
48
1
60
0
100
AcDbLine
10
0
20
-1.5875
30
0
11
0
21
-47.75
31
0
39
0
210
0
220
0
230
1
0
LINE
5
1B8
100
AcDbEntity
8
0
62
256
6
ByLayer
370
-2
48
1
60
0
100
AcDbLine
10
60
20
-28.5875
30
0
11
60
21
-47.75
31
0
39
0
210
0
220
0
230
1
0
LINE
5
1B9
100
AcDbEntity
8
0
62
256
6
ByLayer
370
-2
48
1
60
0
100
AcDbLine
10
3.5
20
-45.75
30
0
11
56.5
21
-45.75
31
0
39
0
210
0
220
0
230
1
0
SOLID
5
1BA
100
AcDbEntity
8
0
62
256
6
ByLayer
370
-1
48
1
60
0
100
AcDbTrace
10
3.5
20
-45.166667
30
0
11
3.5
21
-46.333333
31
0
12
0
22
-45.75
32
0
13
0
23
-45.75
33
0
39
0
210
0
220
0
230
1
0
SOLID
5
1BB
100
AcDbEntity
8
0
62
256
6
ByLayer
370
-1
48
1
60
0
100
AcDbTrace
10
56.5
20
-46.333333
30
0
11
56.5
21
-45.166667
31
0
12
60
22
-45.75
32
0
13
60
23
-45.75
33
0
39
0
210
0
220
0
230
1
0
MTEXT
5
1BC
100
AcDbEntity
8
0
62
256
6
ByLayer
370
18
48
1
60
0
100
AcDbMText
10
30
20
-38.75
30
0
210
0
220
0
230
1
1
\A1;60
40
3.5
41
0
44
1
50
0
71
5
72
5
7
iso_b_vert
0
POINT
5
1BD
100
AcDbEntity
8
Defpoints
62
0
6
ByLayer
370
-1
48
1
60
0
100
AcDbPoint
10
0
20
0
30
0
39
0
210
0
220
0
230
1
50
360
0
POINT
5
1BE
100
AcDbEntity
8
Defpoints
62
0
6
ByLayer
370
-1
48
1
60
0
100
AcDbPoint
10
60
20
-27
30
0
39
0
210
0
220
0
230
1
50
360
0
POINT
5
1BF
100
AcDbEntity
8
Defpoints
62
0
6
ByLayer
370
-1
48
1
60
0
100
AcDbPoint
10
60
20
-45.75
30
0
39
0
210
0
220
0
230
1
50
360
0
ENDBLK
5
1B6
100
AcDbEntity
8
0
100
AcDbBlockEnd
0
BLOCK
5
1C7
100
AcDbEntity
8
0
100
AcDbBlockBegin
2
_U3
70
0
10
0
20
0
30
0
3
_U3
0
MTEXT
5
1C1
100
AcDbEntity
8
2
62
256
6
ByLayer
370
18
48
1
60
0
100
AcDbMText
10
28.095034
20
-44.717366
30
0
210
0
220
0
230
1
1
\W0.6740;60
40
3.5
41
0
44
1.084337
50
0
71
7
72
5
7
iso_b_vert
0
LINE
5
1C2
100
AcDbEntity
8
2
62
256
6
ByLayer
370
13
48
1
60
0
100
AcDbLine
10
0
20
-1.5875
30
0
11
0
21
-47.75
31
0
39
0
210
0
220
0
230
1
0
LINE
5
1C3
100
AcDbEntity
8
2
62
256
6
ByLayer
370
13
48
1
60
0
100
AcDbLine
10
60
20
-28.5875
30
0
11
60
21
-47.75
31
0
39
0
210
0
220
0
230
1
0
LINE
5
1C4
100
AcDbEntity
8
2
62
256
6
ByLayer
370
13
48
1
60
0
100
AcDbLine
10
0
20
-45.75
30
0
11
60
21
-45.75
31
0
39
0
210
0
220
0
230
1
0
SOLID
5
1C5
100
AcDbEntity
8
2
62
256
6
ByLayer
370
18
48
1
60
0
100
AcDbTrace
10
0
20
-45.75
30
0
11
3.499998
21
-45.289216
31
0
12
3.500002
22
-46.210784
32
0
13
3.500002
23
-46.210784
33
0
39
0
210
0
220
0
230
1
0
SOLID
5
1C6
100
AcDbEntity
8
2
62
256
6
ByLayer
370
18
48
1
60
0
100
AcDbTrace
10
60
20
-45.75
30
0
11
56.500002
21
-46.210784
31
0
12
56.499998
22
-45.289216
32
0
13
56.499998
23
-45.289216
33
0
39
0
210
0
220
0
230
1
0
ENDBLK
5
1C8
100
AcDbEntity
8
0
100
AcDbBlockEnd
0
ENDSEC
0
SECTION
2
ENTITIES
0
ARC
5
F5
100
AcDbEntity
8
1
62
256
6
ByLayer
370
18
48
1
60
0
100
AcDbCircle
39
0
10
20.279208
20
-21.2
30
0
40
1.2
210
0
220
0
230
1
100
AcDbArc
50
60.518159
51
90
0
ARC
5
F6
100
AcDbEntity
8
SK1
62
256
6
ByLayer
370
18
48
1
60
0
100
AcDbCircle
39
0
10
-0.6
20
15
30
0
40
0.999999999999994
210
0
220
0
230
1
100
AcDbArc
50
293.578178
51
306.869898
0
ARC
5
F7
100
AcDbEntity
8
SK1
62
256
6
ByLayer
370
18
48
1
60
0
100
AcDbCircle
39
0
10
-0.6
20
-15
30
0
40
0.999999999999994
210
0
220
0
230
1
100
AcDbArc
50
53.130102
51
66.421822
0
ARC
5
FA
100
AcDbEntity
8
1
62
256
6
ByLayer
370
18
48
1
60
0
100
AcDbCircle
39
0
10
45
20
-22.725
30
0
40
1.6
210
0
220
0
230
1
100
AcDbArc
50
180
51
195.00644
0
ARC
5
FC
100
AcDbEntity
8
1
62
256
6
ByLayer
370
18
48
1
60
0
100
AcDbCircle
39
0
10
26.8
20
-21.15
30
0
40
1
210
0
220
0
230
1
100
AcDbArc
50
360
51
90
0
CIRCLE
5
F8
100
AcDbEntity
8
1
62
256
6
ByLayer
370
18
48
1
60
0
100
AcDbCircle
10
37.85
20
-17.7
30
0
40
2.15
39
0
210
0
220
0
230
1
0
CIRCLE
5
F9
100
AcDbEntity
8
1
62
256
6
ByLayer
370
18
48
1
60
0
100
AcDbCircle
10
37.85
20
-17.7
30
0
40
2.75
39
0
210
0
220
0
230
1
0
CIRCLE
5
FB
100
AcDbEntity
8
1
62
256
6
ByLayer
370
18
48
1
60
0
100
AcDbCircle
10
37.85
20
-17.7
30
0
40
4.55
39
0
210
0
220
0
230
1
0
ELLIPSE
5
FD
100
AcDbEntity
8
1
62
256
6
ByLayer
370
18
48
1
60
0
100
AcDbEllipse
10
52.248802
20
-25.5
30
0
11
3.67381906146716E-17
21
0.600000000000004
31
0
210
0
220
0
230
1
40
0.98663
41
0
42
6.28318530717959
0
ELLIPSE
5
FE
100
AcDbEntity
8
1
62
256
6
ByLayer
370
18
48
1
60
0
100
AcDbEllipse
10
45.327516
20
-24.325
30
0
11
-2.78951487299375
21
3.41605763755017E-16
31
0
210
0
220
0
230
1
40
0.573576
41
-0.834666137440025
42
0
0
ELLIPSE
5
FF
100
AcDbEntity
8
1
62
256
6
ByLayer
370
18
48
1
60
0
100
AcDbEllipse
10
20.174537
20
0
30
0
11
1.22460635382211E-15
21
19.9999999999957
31
0
210
0
220
0
230
1
40
0.008727
41
0.801290643120804
42
2.34030201046898
0
ELLIPSE
5
100
100
AcDbEntity
8
1
62
256
6
ByLayer
370
18
48
1
60
0
100
AcDbEllipse
10
16.948929
20
0
30
0
11
9.36741787978128
21
19.7417491527497
31
0
210
0
220
0
230
1
40
0.341999
41
2.04527312608987
42
2.98886640869144
0
ELLIPSE
5
101
100
AcDbEntity
8
1
62
256
6
ByLayer
370
18
48
1
60
0
100
AcDbEllipse
10
-0.948929
20
0
30
0
11
9.36741787978225
21
-19.7417491527502
31
0
210
0
220
0
230
1
40
0.341999
41
0.152726244898341
42
1.09631952749989
0
ELLIPSE
5
102
100
AcDbEntity
8
1
62
256
6
ByLayer
370
18
48
1
60
0
100
AcDbEllipse
10
-0.948929
20
0
30
0
11
9.36741787978194
21
19.7417491527498
31
0
210
0
220
0
230
1
40
0.341999
41
-1.0963195274999
42
-0.152726244898351
0
ELLIPSE
5
103
100
AcDbEntity
8
1
62
256
6
ByLayer
370
18
48
1
60
0
100
AcDbEllipse
10
16.948929
20
0
30
0
11
9.36741787978144
21
-19.7417491527498
31
0
210
0
220
0
230
1
40
0.341999
41
-2.98886640869144
42
-2.04527312608987
0
ELLIPSE
5
104
100
AcDbEntity
8
1
62
256
6
ByLayer
370
18
48
1
60
0
100
AcDbEllipse
10
56.228061
20
-23.55
30
0
11
0.897993681729524
21
1.05195951582326E-15
31
0
210
0
220
0
230
1
40
0.890875
41
-1.5707963267949
42
-1.29515256582535
0
ELLIPSE
5
105
100
AcDbEntity
8
1
62
256
6
ByLayer
370
18
48
1
60
0
100
AcDbEllipse
10
56.095006
20
-25.066064
30
0
11
1.13425636391778
21
1.32873070232335E-15
31
0
210
0
220
0
230
1
40
0.176327
41
-2.80561677258018
42
-1.98717825108436
0
ELLIPSE
5
106
100
AcDbEntity
8
1
62
256
6
ByLayer
370
18
48
1
60
0
100
AcDbEllipse
10
60.223799
20
-23.419859
30
0
11
11.3425635351762
21
-1.15952286932122E-08
31
0
210
0
220
0
230
1
40
0.176327
41
-1.98717824832667
42
-1.91986217389613
0
ELLIPSE
5
107
100
AcDbEntity
8
1
62
256
6
ByLayer
370
18
48
1
60
0
100
AcDbEllipse
10
55.990371
20
-25.5
30
0
11
1.19096918211294
21
1.39516723743867E-15
31
0
210
0
220
0
230
1
40
0.176327
41
0
42
1.22173047639577
0
ELLIPSE
5
108
100
AcDbEntity
8
1
62
256
6
ByLayer
370
18
48
1
60
0
100
AcDbEllipse
10
55.990371
20
-25.5
30
0
11
1.19096918211238
21
1.39516723743801E-15
31
0
210
0
220
0
230
1
40
0.176327
41
-1.22173047639606
42
0
0
ELLIPSE
5
109
100
AcDbEntity
8
1
62
256
6
ByLayer
370
18
48
1
60
0
100
AcDbEllipse
10
60.223799
20
-27.580141
30
0
11
11.3425634022752
21
2.62326979614478E-08
31
0
210
0
220
0
230
1
40
0.176327
41
1.91986216981304
42
1.98717824493751
0
ELLIPSE
5
10A
100
AcDbEntity
8
1
62
256
6
ByLayer
370
18
48
1
60
0
100
AcDbEllipse
10
56.095006
20
-25.933936
30
0
11
1.1342563639161
21
1.32873070232138E-15
31
0
210
0
220
0
230
1
40
0.176327
41
1.98717825108369
42
2.80561677258057
0
ELLIPSE
5
10B
100
AcDbEntity
8
1
62
256
6
ByLayer
370
18
48
1
60
0
100
AcDbEllipse
10
54.623179
20
-26.525438
30
0
11
0.850692272934752
21
9.96548026738316E-16
31
0
210
0
220
0
230
1
40
0.176327
41
2.80561677258034
42
3.14159265358979
0
ELLIPSE
5
10C
100
AcDbEntity
8
1
62
256
6
ByLayer
370
18
48
1
60
0
100
AcDbEllipse
10
56.228061
20
-27.45
30
0
11
0.897993681830117
21
1.0519595159411E-15
31
0
210
0
220
0
230
1
40
0.890875
41
1.29515256585621
42
1.5707963267949
0
ELLIPSE
5
10D
100
AcDbEntity
8
1
62
256
6
ByLayer
370
18
48
1
60
0
100
AcDbEllipse
10
55.571498
20
-24.75
30
0
11
-2.3287088041805E-17
21
-0.126773189709051
31
0
210
0
220
0
230
1
40
0.984808
41
0
42
6.28318530717959
0
ELLIPSE
5
10E
100
AcDbEntity
8
1
62
256
6
ByLayer
370
18
48
1
60
0
100
AcDbEllipse
10
54.623179
20
-24.474562
30
0
11
0.850692273074108
21
9.96548026901566E-16
31
0
210
0
220
0
230
1
40
0.176327
41
3.14159265358979
42
-2.8056167726083
0
POINT
5
70
100
AcDbEntity
8
81
62
256
6
ByLayer
370
18
48
1
60
0
100
AcDbPoint
10
60
20
-27
30
0
39
0
210
0
220
0
230
1
50
360
0
POINT
5
72
100
AcDbEntity
8
80
62
256
6
ByLayer
370
18
48
1
60
0
100
AcDbPoint
10
0
20
0
30
0
39
0
210
0
220
0
230
1
50
360
0
POINT
5
74
100
AcDbEntity
8
1
62
256
6
ByLayer
370
18
48
1
60
1
100
AcDbPoint
10
60
20
-27
30
0
39
0
210
0
220
0
230
1
50
360
0
POINT
5
76
100
AcDbEntity
8
1
62
256
6
ByLayer
370
18
48
1
60
1
100
AcDbPoint
10
0
20
0
30
0
39
0
210
0
220
0
230
1
50
360
0
POINT
5
77
100
AcDbEntity
8
1
62
256
6
ByLayer
370
18
48
1
60
1
100
AcDbPoint
10
60
20
-24
30
0
39
0
210
0
220
0
230
1
50
360
0
POINT
5
78
100
AcDbEntity
8
1
62
256
6
ByLayer
370
18
48
1
60
1
100
AcDbPoint
10
60
20
-27
30
0
39
0
210
0
220
0
230
1
50
360
0
POINT
5
79
100
AcDbEntity
8
1
62
256
6
ByLayer
370
18
48
1
60
1
100
AcDbPoint
10
45
20
-24.325
30
0
39
0
210
0
220
0
230
1
50
360
0
POINT
5
7A
100
AcDbEntity
8
1
62
256
6
ByLayer
370
18
48
1
60
1
100
AcDbPoint
10
60
20
-24
30
0
39
0
210
0
220
0
230
1
50
360
0
POINT
5
7B
100
AcDbEntity
8
1
62
256
6
ByLayer
370
18
48
1
60
1
100
AcDbPoint
10
0
20
0
30
0
39
0
210
0
220
0
230
1
50
360
0
POINT
5
7C
100
AcDbEntity
8
1
62
256
6
ByLayer
370
18
48
1
60
1
100
AcDbPoint
10
60
20
-27
30
0
39
0
210
0
220
0
230
1
50
360
0
SPLINE
5
10F
100
AcDbEntity
8
SK1
62
256
6
ByLayer
370
18
48
1
60
0
100
AcDbSpline
70
4
71
2
72
6
73
3
40
0
40
0
40
0
40
1
40
1
40
1
41
1
10
-1.49503997793928
20
-13.7130167789402
30
0
41
1
10
-0.944976888873896
20
-13.7267321696587
30
0
41
1
10
-0.394913799811292
20
-13.740447551665
30
0
0
SPLINE
5
110
100
AcDbEntity
8
SK1
62
256
6
ByLayer
370
18
48
1
60
0
100
AcDbSpline
70
4
71
2
72
6
73
3
40
0
40
0
40
0
40
1
40
1
40
1
41
1
10
-0.394913799811292
20
13.7404477916605
30
0
41
1
10
-0.944976888873896
20
13.7267324097107
30
0
41
1
10
-1.49503997793928
20
13.7130170190491
30
0
0
SPLINE
5
111
100
AcDbEntity
8
SK1
62
256
6
ByLayer
370
18
48
1
60
0
100
AcDbSpline
70
4
71
2
72
6
73
3
40
0
40
0
40
0
40
1
40
1
40
1
41
1
10
-24
20
-12.6317156240216
30
0
41
1
10
-23.249999936895
20
-13.0645339427607
30
0
41
1
10
-22.5
20
-13.4973518251592
30
0
0
SPLINE
5
112
100
AcDbEntity
8
SK1
62
256
6
ByLayer
370
18
48
1
60
0
100
AcDbSpline
70
4
71
2
72
6
73
3
40
0
40
0
40
0
40
1
40
1
40
1
41
1
10
-22.5
20
13.4973518870616
30
0
41
1
10
-23.2499999368976
20
13.0645340070691
30
0
41
1
10
-24
20
12.6317156907499
30
0
0
SPLINE
5
113
100
AcDbEntity
8
SK1
62
256
6
ByLayer
370
18
48
1
60
0
100
AcDbSpline
70
4
71
3
72
13
73
9
40
0
40
0
40
0
40
0
40
0.239505896267058
40
0.368426445719716
40
0.500072184804663
40
0.631705935597398
40
0.760593415643758
40
1
40
1
40
1
40
1
41
1
10
-1.49503997793928
20
13.8252671707288
30
0
41
1
10
-1.52110926509485
20
13.8248650525742
30
0
41
1
10
-1.55883864918067
20
13.8310346548635
30
0
41
1
10
-1.60627567892249
20
13.8540680395026
30
0
41
1
10
-1.63886244003068
20
13.8792240145369
30
0
41
1
10
-1.66563490778343
20
13.9104917120148
30
0
41
1
10
-1.69103207617425
20
13.956689925787
30
0
41
1
10
-1.69909121849834
20
13.9940472396764
30
0
41
1
10
-1.7
20
14.020094440518
30
0
0
SPLINE
5
114
100
AcDbEntity
8
SK1
62
256
6
ByLayer
370
18
48
1
60
0
100
AcDbSpline
70
4
71
3
72
13
73
9
40
0
40
0
40
0
40
0
40
0.239406584968136
40
0.368294065212519
40
0.499927816069781
40
0.631573555071368
40
0.760494104316207
40
1
40
1
40
1
40
1
41
1
10
-1.7
20
-14.0200943498873
30
0
41
1
10
-1.69909121850789
20
-13.9940471489176
30
0
41
1
10
-1.6910320761837
20
-13.9566898348375
30
0
41
1
10
-1.66563490779619
20
-13.9104916208042
30
0
41
1
10
-1.6388624400475
20
-13.8792239231524
30
0
41
1
10
-1.60627567894025
20
-13.8540679479736
30
0
41
1
10
-1.55883864920244
20
-13.8310345631992
30
0
41
1
10
-1.52110926510643
20
-13.8248649608707
30
0
41
1
10
-1.49503997793928
20
-13.825267079015
30
0
0
SPLINE
5
115
100
AcDbEntity
8
SK1
62
256
6
ByLayer
370
18
48
1
60
0
100
AcDbSpline
70
4
71
2
72
6
73
3
40
0
40
0
40
0
40
1
40
1
40
1
41
1
10
-1.7
20
14.0158108591592
30
0
41
1
10
-12.0999999986036
20
13.7547063780669
30
0
41
1
10
-22.5
20
13.4936010331935
30
0
0
SPLINE
5
116
100
AcDbEntity
8
SK1
62
256
6
ByLayer
370
18
48
1
60
0
100
AcDbSpline
70
4
71
2
72
6
73
3
40
0
40
0
40
0
40
1
40
1
40
1
41
1
10
-22.5
20
-13.4936007996938
30
0
41
1
10
-12.0999999986039
20
-13.7547061446862
30
0
41
1
10
-1.7
20
-14.0158106259661
30
0
0
SPLINE
5
117
100
AcDbEntity
8
1
62
256
6
ByLayer
370
18
48
1
60
0
100
AcDbSpline
70
4
71
3
72
8
73
4
40
0
40
0
40
0
40
0
40
1
40
1
40
1
40
1
41
1
10
21.5988851912138
20
-21.15
30
0
41
1
10
22.0846840326055
20
-22.9920566443101
30
0
41
1
10
22.5722632575385
20
-24.8336460417689
30
0
41
1
10
23.0607211806092
20
-26.6749999999998
30
0
0
SPLINE
5
118
100
AcDbEntity
8
1
62
256
6
ByLayer
370
18
48
1
60
0
100
AcDbSpline
70
4
71
3
72
16
73
12
40
0
40
0
40
0
40
0
40
0.25
40
0.25
40
0.375000000000001
40
0.375000000000001
40
0.500000000000001
40
0.500000000000001
40
0.75
40
0.75
40
1
40
1
40
1
40
1
41
1
10
21.4383186059721
20
-20.5738341596074
30
0
41
1
10
21.450877673997
20
-20.6161762000916
30
0
41
1
10
21.4637533696852
20
-20.6603210377275
30
0
41
1
10
21.483514645872
20
-20.7291521729725
30
0
41
1
10
21.4901767638583
20
-20.7525335493079
30
0
41
1
10
21.5036511772369
20
-20.8001802070321
30
0
41
1
10
21.5104783953724
20
-20.8245002179572
30
0
41
1
10
21.5308909357787
20
-20.8977422409363
30
0
41
1
10
21.5444957377094
20
-20.9472540731563
30
0
41
1
10
21.5716962868854
20
-21.0476116908587
30
0
41
1
10
21.5852920314945
20
-21.0984573283327
30
0
41
1
10
21.5988851912138
20
-21.15
30
0
0
SPLINE
5
119
100
AcDbEntity
8
1
62
256
6
ByLayer
370
18
48
1
60
0
100
AcDbSpline
70
4
71
3
72
37
73
33
40
0
40
0
40
0
40
0
40
0.0312500000000043
40
0.0312500000000043
40
0.0625000000000086
40
0.125000000000017
40
0.125000000000017
40
0.250000000000032
40
0.250000000000032
40
0.281250000000035
40
0.281250000000035
40
0.312500000000038
40
0.312500000000038
40
0.375000000000039
40
0.375000000000039
40
0.500000000000034
40
0.500000000000034
40
0.531250000000031
40
0.531250000000031
40
0.562500000000027
40
0.625000000000024
40
0.687500000000021
40
0.687500000000021
40
0.718750000000019
40
0.718750000000019
40
0.750000000000017
40
0.750000000000017
40
0.875000000000006
40
0.875000000000006
40
0.937500000000003
40
0.937500000000003
40
1
40
1
40
1
40
1
41
1
10
26.0979991993594
20
-20.15
30
0
41
1
10
26.1161596625569
20
-20.15
30
0
41
1
10
26.1343436715721
20
-20.1503025762776
30
0
41
1
10
26.1705404692686
20
-20.1515196643774
30
0
41
1
10
26.2246748030338
20
-20.1542634146374
30
0
41
1
10
26.2783209647337
20
-20.1597933881372
30
0
41
1
10
26.3849379288975
20
-20.1747079219338
30
0
41
1
10
26.4551208774946
20
-20.1897592794783
30
0
41
1
10
26.5415829778381
20
-20.2158024637559
30
0
41
1
10
26.5588116390368
20
-20.2213750019034
30
0
41
1
10
26.5931357597246
20
-20.2332803218201
30
0
41
1
10
26.6102683325626
20
-20.2396289977521
30
0
41
1
10
26.6610060787218
20
-20.2596878790594
30
0
41
1
10
26.6940493017973
20
-20.2744353258394
30
0
41
1
10
26.7907724756647
20
-20.3229089218058
30
0
41
1
10
26.8520714248128
20
-20.3608215019205
30
0
41
1
10
26.9242042253867
20
-20.4161083927452
30
0
41
1
10
26.9384465541441
20
-20.4276015592398
30
0
41
1
10
26.9661892927071
20
-20.4511913425105
30
0
41
1
10
27.0067111080116
20
-20.4874857382757
30
0
41
1
10
27.0688053756179
20
-20.5525088685648
30
0
41
1
10
27.1125622959425
20
-20.6094566175086
30
0
41
1
10
27.1430477949145
20
-20.6541098054289
30
0
41
1
10
27.1528200581636
20
-20.6693186563508
30
0
41
1
10
27.1715554404667
20
-20.7004102576542
30
0
41
1
10
27.1805452052648
20
-20.7163445309867
30
0
41
1
10
27.2230509325826
20
-20.7971584961779
30
0
41
1
10
27.2488697960024
20
-20.8644367321645
30
0
41
1
10
27.2752531168167
20
-20.9693159907482
30
0
41
1
10
27.2819729542626
20
-21.0049415512714
30
0
41
1
10
27.2910147230195
20
-21.0776041037324
30
0
41
1
10
27.2932370625239
20
-21.1138738724257
30
0
41
1
10
27.2932370625239
20
-21.15
30
0
0
SPLINE
5
11A
100
AcDbEntity
8
1
62
256
6
ByLayer
370
18
48
1
60
0
100
AcDbSpline
70
4
71
3
72
33
73
29
40
0
40
0
40
0
40
0
40
0.12500000000002
40
0.12500000000002
40
0.187500000000028
40
0.187500000000028
40
0.250000000000036
40
0.250000000000036
40
0.375000000000059
40
0.375000000000059
40
0.406250000000064
40
0.406250000000064
40
0.437500000000068
40
0.437500000000068
40
0.500000000000072
40
0.500000000000072
40
0.62500000000008
40
0.62500000000008
40
0.656250000000076
40
0.656250000000076
40
0.687500000000072
40
0.687500000000072
40
0.750000000000059
40
0.812500000000045
40
0.812500000000045
40
0.875000000000032
40
0.875000000000032
40
1
40
1
40
1
40
1
41
1
10
26.6397368307141
20
-20.15
30
0
41
1
10
26.7071055833398
20
-20.15
30
0
41
1
10
26.7735131191916
20
-20.1560926942384
30
0
41
1
10
26.8716360316955
20
-20.1742157749651
30
0
41
1
10
26.9040980234391
20
-20.181763718644
30
0
41
1
10
26.9685154439762
20
-20.1999671223352
30
0
41
1
10
27.0005995875381
20
-20.2106842391683
30
0
41
1
10
27.0942590620737
20
-20.2470074316852
30
0
41
1
10
27.153738324511
20
-20.276827698118
30
0
41
1
10
27.224343574264
20
-20.3211910993158
30
0
41
1
10
27.2382758559388
20
-20.3304211683832
30
0
41
1
10
27.2657552067247
20
-20.3496106169166
30
0
41
1
10
27.2793312425635
20
-20.3595926841377
30
0
41
1
10
27.3192581400166
20
-20.3905010109461
30
0
41
1
10
27.3446575522886
20
-20.4122590996417
30
0
41
1
10
27.4172761539094
20
-20.4809191664696
30
0
41
1
10
27.4609510550694
20
-20.5311735123489
30
0
41
1
10
27.5093565962416
20
-20.5998444499838
30
0
41
1
10
27.5187359240127
20
-20.613895056842
30
0
41
1
10
27.5366582573277
20
-20.6422812788678
30
0
41
1
10
27.5452277297426
20
-20.6566521540188
30
0
41
1
10
27.5697769675414
20
-20.7002908544371
30
0
41
1
10
27.5994237772397
20
-20.7598760962674
30
0
41
1
10
27.6229298975584
20
-20.8222481913017
30
0
41
1
10
27.643288334741
20
-20.8860488117489
30
0
41
1
10
27.6519070702828
20
-20.9188048337166
30
0
41
1
10
27.6724024636082
20
-21.0170990317204
30
0
41
1
10
27.6792156108743
20
-21.0832436260612
30
0
41
1
10
27.6792156108743
20
-21.15
30
0
0
SPLINE
5
11B
100
AcDbEntity
8
1
62
256
6
ByLayer
370
18
48
1
60
0
100
AcDbSpline
70
4
71
3
72
12
73
8
40
0
40
0
40
0
40
0
40
0.500000000000002
40
0.500000000000002
40
0.750000000000001
40
0.750000000000001
40
1
40
1
40
1
40
1
41
1
10
53.5812077706279
20
-25.75
30
0
41
1
10
53.5437775330761
20
-25.9049591463827
30
0
41
1
10
53.5059758657855
20
-26.0596963036124
30
0
41
1
10
53.448159045107
20
-26.2911360537534
30
0
41
1
10
53.4286973549829
20
-26.3681694301976
30
0
41
1
10
53.3891994859593
20
-26.5218928334202
30
0
41
1
10
53.3691678996685
20
-26.5985856050227
30
0
41
1
10
53.348670536758
20
-26.6749999999998
30
0
0
SPLINE
5
11C
100
AcDbEntity
8
1
62
256
6
ByLayer
370
18
48
1
60
0
100
AcDbSpline
70
4
71
3
72
8
73
4
40
0
40
0
40
0
40
0
40
1
40
1
40
1
40
1
41
1
10
53.5812077706279
20
-25.75
30
0
41
1
10
53.6163490340968
20
-25.7294760627793
30
0
41
1
10
53.6514441464644
20
-25.708750141474
30
0
41
1
10
53.6865106453464
20
-25.6878989908994
30
0
0
SPLINE
5
11D
100
AcDbEntity
8
1
62
256
6
ByLayer
370
18
48
1
60
0
100
AcDbSpline
70
4
71
3
72
20
73
16
40
0
40
0
40
0
40
0
40
0.125
40
0.125
40
0.25
40
0.25
40
0.375
40
0.375
40
0.5
40
0.5
40
0.625
40
0.625
40
0.75
40
0.75
40
1
40
1
40
1
40
1
41
1
10
53.7500000000053
20
-25.5488189610531
30
0
41
1
10
53.7500000000053
20
-25.5564235687165
30
0
41
1
10
53.7496122894076
20
-25.5639762744384
30
0
41
1
10
53.7480661815218
20
-25.5789785157967
30
0
41
1
10
53.7469146404436
20
-25.5863325174432
30
0
41
1
10
53.7439160773347
20
-25.6005896613163
30
0
41
1
10
53.7420660944706
20
-25.6075210867982
30
0
41
1
10
53.7376593079985
20
-25.6209865990583
30
0
41
1
10
53.7350908262978
20
-25.627524649763
30
0
41
1
10
53.7294293560826
20
-25.6397475513341
30
0
41
1
10
53.7263182970862
20
-25.6454956293184
30
0
41
1
10
53.7195461549389
20
-25.6562788106681
30
0
41
1
10
53.7158510597949
20
-25.6613509554201
30
0
41
1
10
53.704189305352
20
-25.6751290512659
30
0
41
1
10
53.6957000859098
20
-25.6824347895964
30
0
41
1
10
53.6865106453464
20
-25.6878989908994
30
0
0
SPLINE
5
11E
100
AcDbEntity
8
1
62
256
6
ByLayer
370
18
48
1
60
0
100
AcDbSpline
70
4
71
3
72
20
73
16
40
0
40
0
40
0
40
0
40
0.124999999999997
40
0.124999999999997
40
0.249999999999994
40
0.249999999999994
40
0.374999999999992
40
0.374999999999992
40
0.499999999999989
40
0.499999999999989
40
0.624999999999986
40
0.624999999999986
40
0.749999999999983
40
0.749999999999983
40
1
40
1
40
1
40
1
41
1
10
53.6865106453463
20
-25.3121010091006
30
0
41
1
10
53.6911040884284
20
-25.314832350307
30
0
41
1
10
53.6955397235204
20
-25.3180428738551
30
0
41
1
10
53.7040937531756
20
-25.3254272185598
30
0
41
1
10
53.7082253053791
20
-25.3296243603783
30
0
41
1
10
53.7159594784963
20
-25.3387926766347
30
0
41
1
10
53.7195881949015
20
-25.3437814419371
30
0
41
1
10
53.7263617408319
20
-25.3545803174143
30
0
41
1
10
53.7295292230758
20
-25.3604443460191
30
0
41
1
10
53.7352004104125
20
-25.3727365409518
30
0
41
1
10
53.7377115139115
20
-25.3791589968836
30
0
41
1
10
53.7420864241383
20
-25.3925551918343
30
0
41
1
10
53.7439599708086
20
-25.3995770167443
30
0
41
1
10
53.7484779810557
20
-25.4211868229534
30
0
41
1
10
53.75
20
-25.4359842728918
30
0
41
1
10
53.75
20
-25.4511810389476
30
0
0
SPLINE
5
11F
100
AcDbEntity
8
1
62
256
6
ByLayer
370
18
48
1
60
0
100
AcDbSpline
70
4
71
3
72
8
73
4
40
0
40
0
40
0
40
0
40
1
40
1
40
1
40
1
41
1
10
53.581207770628
20
-25.2500000000001
30
0
41
1
10
53.6163519950296
20
-25.2705256665267
30
0
41
1
10
53.6514466721627
20
-25.2912513603502
30
0
41
1
10
53.6865106453463
20
-25.3121010091006
30
0
0
SPLINE
5
120
100
AcDbEntity
8
1
62
256
6
ByLayer
370
18
48
1
60
0
100
AcDbSpline
70
4
71
3
72
12
73
8
40
0
40
0
40
0
40
0
40
0.249999999999999
40
0.249999999999999
40
0.499999999999998
40
0.499999999999998
40
1
40
1
40
1
40
1
41
1
10
53.3486705367579
20
-24.325
30
0
41
1
10
53.3691678996685
20
-24.401414394977
30
0
41
1
10
53.3891994859593
20
-24.4781071665796
30
0
41
1
10
53.4286973549828
20
-24.6318305698023
30
0
41
1
10
53.448159045107
20
-24.7088639462464
30
0
41
1
10
53.5059758657855
20
-24.9403036963876
30
0
41
1
10
53.5437775330761
20
-25.0950408536173
30
0
41
1
10
53.5812077706279
20
-25.25
30
0
0
SPLINE
5
121
100
AcDbEntity
8
1
62
256
6
ByLayer
370
18
48
1
60
0
100
AcDbSpline
70
4
71
3
72
69
73
65
40
0
40
0
40
0
40
0
40
0.0310761714916099
40
0.0310761714916099
40
0.0467039751772318
40
0.0467039751772318
40
0.0623317788628537
40
0.0623317788628537
40
0.124842993605338
40
0.124842993605338
40
0.15609860097658
40
0.171726404662201
40
0.171726404662201
40
0.187354208347821
40
0.187354208347821
40
0.2498654230903
40
0.2498654230903
40
0.281121030461539
40
0.281121030461539
40
0.296748834147159
40
0.296748834147159
40
0.312376637832778
40
0.312376637832778
40
0.374887852575257
40
0.374887852575257
40
0.390515656260876
40
0.390515656260876
40
0.406143459946496
40
0.406143459946496
40
0.437399067317735
40
0.437399067317735
40
0.499910282060213
40
0.499910282060213
40
0.515538085745833
40
0.515538085745833
40
0.531165889431453
40
0.531165889431453
40
0.562421496802691
40
0.562421496802691
40
0.624932711545168
40
0.624932711545168
40
0.640560515230788
40
0.640560515230788
40
0.656188318916407
40
0.656188318916407
40
0.687443926287645
40
0.687443926287645
40
0.749955141030122
40
0.749955141030122
40
0.76558294471574
40
0.76558294471574
40
0.781210748401359
40
0.781210748401359
40
0.812466355772595
40
0.812466355772595
40
0.874977570515065
40
0.874977570515065
40
0.890605374200682
40
0.890605374200682
40
0.9062331778863
40
0.9062331778863
40
0.937488785257533
40
0.937488785257533
40
1
40
1
40
1
40
1
41
1
10
23.7990359918204
20
15.0055080628062
30
0
41
1
10
23.7433885051898
20
15.008431392751
30
0
41
1
10
23.6884540780949
20
15.0124827145846
30
0
41
1
10
23.6069603767064
20
15.0201493180993
30
0
41
1
10
23.5798711557596
20
15.0229802980604
30
0
41
1
10
23.5260542325526
20
15.0291545403457
30
0
41
1
10
23.4994503159509
20
15.0324842186514
30
0
41
1
10
23.3684249699483
20
15.0501890792994
30
0
41
1
10
23.2694050206975
20
15.0677814505052
30
0
41
1
10
23.1289550695944
20
15.0976898193006
30
0
41
1
10
23.060762996067
20
15.1135280402275
30
0
41
1
10
22.995614714645
20
15.1304025088473
30
0
41
1
10
22.9528659211049
20
15.1418494563833
30
0
41
1
10
22.9318797772108
20
15.1476598035186
30
0
41
1
10
22.8295777782131
20
15.1768479633803
30
0
41
1
10
22.7553876263546
20
15.2008189525991
30
0
41
1
10
22.6550894873479
20
15.2358921519447
30
0
41
1
10
22.6234999807111
20
15.2474363801889
30
0
41
1
10
22.5789285986096
20
15.2642947595496
30
0
41
1
10
22.5645136307265
20
15.269848535401
30
0
41
1
10
22.5367780381649
20
15.2807070541685
30
0
41
1
10
22.5234796473141
20
15.2860025696714
30
0
41
1
10
22.4597968820189
20
15.3117262790845
30
0
41
1
10
22.4177696398276
20
15.3298942864614
30
0
41
1
10
22.3764952067967
20
15.3482327354038
30
0
41
1
10
22.3688077235351
20
15.3516816913948
30
0
41
1
10
22.3545885888229
20
15.3581071538113
30
0
41
1
10
22.348045971414
20
15.3610886890272
30
0
41
1
10
22.3302712721765
20
15.3692362499734
30
0
41
1
10
22.3209649416071
20
15.3735689228491
30
0
41
1
10
22.3004779883792
20
15.3831515492209
30
0
41
1
10
22.2966747937349
20
15.3849753543727
30
0
41
1
10
22.3044302640671
20
15.3813183575691
30
0
41
1
10
22.3066112157778
20
15.380290965659
30
0
41
1
10
22.312255803999
20
15.3776418129444
30
0
41
1
10
22.3157217322522
20
15.3760190466603
30
0
41
1
10
22.3279129061244
20
15.3703398545034
30
0
41
1
10
22.3384568003274
20
15.3654588985011
30
0
41
1
10
22.377064200781
20
15.3478801132701
30
0
41
1
10
22.4120491171946
20
15.3322440498987
30
0
41
1
10
22.467296223381
20
15.3089749755044
30
0
41
1
10
22.4789258150915
20
15.3041351365686
30
0
41
1
10
22.5033622190396
20
15.2941137270731
30
0
41
1
10
22.5161816578976
20
15.2889275904148
30
0
41
1
10
22.5560235907187
20
15.2730672215015
30
0
41
1
10
22.58454277414
20
15.2620433811612
30
0
41
1
10
22.6758288551788
20
15.2281049366861
30
0
41
1
10
22.7442754480108
20
15.2043241107841
30
0
41
1
10
22.8395966787238
20
15.1746664122282
30
0
41
1
10
22.8591530015599
20
15.1687381981443
30
0
41
1
10
22.8992730979025
20
15.1569267997567
30
0
41
1
10
22.9198009996244
20
15.1510550685772
30
0
41
1
10
22.9823686157123
20
15.1337163137363
30
0
41
1
10
23.0255469507409
20
15.1224792650856
30
0
41
1
10
23.1594815137565
20
15.0901456671674
30
0
41
1
10
23.2545993679294
20
15.0704171495309
30
0
41
1
10
23.3813255020962
20
15.049451133937
30
0
41
1
10
23.4071288892454
20
15.0454347815995
30
0
41
1
10
23.4590979248792
20
15.0378755634556
30
0
41
1
10
23.4852874718575
20
15.0343273907725
30
0
41
1
10
23.564466463804
20
15.0244085441616
30
0
41
1
10
23.6180651723716
20
15.0187632336906
30
0
41
1
10
23.781301819909
20
15.0049861501335
30
0
41
1
10
23.8933609680952
20
15
30
0
41
1
10
24.0088791813337
20
15
30
0
0
SPLINE
5
122
100
AcDbEntity
8
1
62
256
6
ByLayer
370
18
48
1
60
0
100
AcDbSpline
70
4
71
3
72
31
73
27
40
0
40
0
40
0
40
0
40
0.0625000000000021
40
0.0937500000000028
40
0.0937500000000028
40
0.125000000000003
40
0.125000000000003
40
0.250000000000003
40
0.250000000000003
40
0.375000000000002
40
0.375000000000002
40
0.437500000000002
40
0.437500000000002
40
0.500000000000003
40
0.500000000000003
40
0.625000000000002
40
0.625000000000002
40
0.687500000000001
40
0.687500000000001
40
0.718750000000001
40
0.718750000000001
40
0.750000000000001
40
0.750000000000001
40
0.875
40
0.875
40
1
40
1
40
1
40
1
41
1
10
43.4545652324953
20
-23.1392841770907
30
0
41
1
10
43.4628676638431
20
-23.1702553480148
30
0
41
1
10
43.4772847979776
20
-23.2184524315719
30
0
41
1
10
43.4951312264819
20
-23.2687820147973
30
0
41
1
10
43.5078436426678
20
-23.3027528108109
30
0
41
1
10
43.5146176047201
20
-23.3199710677159
30
0
41
1
10
43.5504873285007
20
-23.4065687207832
30
0
41
1
10
43.585625447546
20
-23.4775458036478
30
0
41
1
10
43.6703531115027
20
-23.6187671470394
30
0
41
1
10
43.719939188449
20
-23.6890179510359
30
0
41
1
10
43.8058483633546
20
-23.7908205484481
30
0
41
1
10
43.836516520617
20
-23.8242590910764
30
0
41
1
10
43.9007724474866
20
-23.8885132762056
30
0
41
1
10
43.9344244573022
20
-23.9194251616589
30
0
41
1
10
44.0396587094149
20
-24.008025885006
30
0
41
1
10
44.1155134274781
20
-24.0615674161416
30
0
41
1
10
44.2366934156042
20
-24.1319631469707
30
0
41
1
10
44.278320639565
20
-24.1537794285115
30
0
41
1
10
44.3424874292562
20
-24.1838472017205
30
0
41
1
10
44.3641854250845
20
-24.193433505934
30
0
41
1
10
44.4077782780382
20
-24.2115498871754
30
0
41
1
10
44.4297142709531
20
-24.2201005312751
30
0
41
1
10
44.5400177429761
20
-24.2603302267591
30
0
41
1
10
44.6302186757831
20
-24.2844540158376
30
0
41
1
10
44.8132362669731
20
-24.3167771085418
30
0
41
1
10
44.906051302401
20
-24.325
30
0
41
1
10
45
20
-24.325
30
0
0
SPLINE
5
123
100
AcDbEntity
8
1
62
256
6
ByLayer
370
18
48
1
60
0
100
AcDbSpline
70
4
71
3
72
10
73
6
40
0
40
0
40
0
40
0
40
0.5
40
0.5
40
1
40
1
40
1
40
1
41
1
10
21.4383186059721
20
-20.15
30
0
41
1
10
21.5026530582795
20
-20.15
30
0
41
1
10
21.5818581300204
20
-20.15
30
0
41
1
10
21.7665403341599
20
-20.15
30
0
41
1
10
21.8719981043012
20
-20.15
30
0
41
1
10
21.9886571763103
20
-20.15
30
0
0
SPLINE
5
124
100
AcDbEntity
8
1
62
256
6
ByLayer
370
18
48
1
60
0
100
AcDbSpline
70
4
71
3
72
18
73
14
40
0
40
0
40
0
40
0
40
0.0624999999999988
40
0.0624999999999988
40
0.124999999999998
40
0.124999999999998
40
0.249999999999997
40
0.249999999999997
40
0.499999999999998
40
0.499999999999998
40
0.749999999999999
40
0.749999999999999
40
1
40
1
40
1
40
1
41
1
10
20.9749422055416
20
16.393234489462
30
0
41
1
10
20.9578740509367
20
16.413099607807
30
0
41
1
10
20.9407590886763
20
16.433414320122
30
0
41
1
10
20.9065329462642
20
16.4748919245164
30
0
41
1
10
20.8894202828978
20
16.4960572295005
30
0
41
1
10
20.8383230901622
20
16.5606175083422
30
0
41
1
10
20.8045485606962
20
16.6051184681944
30
0
41
1
10
20.7050028347259
20
16.7423086576596
30
0
41
1
10
20.6410636854555
20
16.8386896302834
30
0
41
1
10
20.5215247977279
20
17.0373988862565
30
0
41
1
10
20.4659188123211
20
17.1397134703294
30
0
41
1
10
20.364859941692
20
17.3464105920789
30
0
41
1
10
20.3193961016117
20
17.4507802673112
30
0
41
1
10
20.2792076144253
20
17.5544724136169
30
0
0
SPLINE
5
125
100
AcDbEntity
8
1
62
256
6
ByLayer
370
18
48
1
60
0
100
AcDbSpline
70
4
71
3
72
26
73
22
40
0
40
0
40
0
40
0
40
0.125000000000002
40
0.125000000000002
40
0.250000000000005
40
0.250000000000005
40
0.312500000000005
40
0.312500000000005
40
0.375000000000006
40
0.375000000000006
40
0.500000000000004
40
0.500000000000004
40
0.625000000000003
40
0.625000000000003
40
0.687500000000001
40
0.687500000000001
40
0.749999999999999
40
0.749999999999999
40
0.875
40
0.875
40
1
40
1
40
1
40
1
41
1
10
21.4383186059721
20
-20.5738341596074
30
0
41
1
10
21.4282921676443
20
-20.5400307072536
30
0
41
1
10
21.4168537008597
20
-20.5084470824273
30
0
41
1
10
21.3918083014479
20
-20.4491875429736
30
0
41
1
10
21.3781974059814
20
-20.4215146674384
30
0
41
1
10
21.3565671749255
20
-20.3827323156501
30
0
41
1
10
21.3491543838031
20
-20.3702610455864
30
0
41
1
10
21.3339925499541
20
-20.3462150713792
30
0
41
1
10
21.3262217494445
20
-20.3346105181947
30
0
41
1
10
21.3026846287149
20
-20.3013725794568
30
0
41
1
10
21.2867400604275
20
-20.2813565713525
30
0
41
1
10
21.2550299973976
20
-20.2453378021303
30
0
41
1
10
21.2392602085073
20
-20.229334981262
30
0
41
1
10
21.2163491722416
20
-20.2083396048386
30
0
41
1
10
21.2088204159244
20
-20.2018309173627
30
0
41
1
10
21.1942205278229
20
-20.1899134143514
30
0
41
1
10
21.1871780012397
20
-20.1845258030517
30
0
41
1
10
21.1670105551621
20
-20.1700673764835
30
0
41
1
10
21.1548386465906
20
-20.1626900431081
30
0
41
1
10
21.1341970370319
20
-20.1526584258336
30
0
41
1
10
21.1257270499297
20
-20.15
30
0
41
1
10
21.1198011678432
20
-20.15
30
0
0
SPLINE
5
126
100
AcDbEntity
8
1
62
256
6
ByLayer
370
18
48
1
60
0
100
AcDbSpline
70
4
71
3
72
32
73
28
40
0
40
0
40
0
40
0
40
0.0235550906193246
40
0.0353326359289872
40
0.0412214085838184
40
0.0412214085838184
40
0.044165794911234
40
0.044165794911234
40
0.0471101812386496
40
0.0942203624772992
40
0.188440724954599
40
0.188440724954599
40
0.376881449909199
40
0.376881449909199
40
0.471101812386498
40
0.471101812386498
40
0.565322174863798
40
0.565322174863798
40
0.659542537341098
40
0.659542537341098
40
0.753762899818397
40
0.753762899818397
40
0.847983262295697
40
0.847983262295697
40
0.942203624772997
40
0.942203624772997
40
1
40
1
40
1
40
1
41
1
10
21.4383186059721
20
-20.15
30
0
41
1
10
21.4352125163844
20
-20.15
30
0
41
1
10
21.4303254295411
20
-20.15
30
0
41
1
10
21.4242457891085
20
-20.15
30
0
41
1
10
21.4215613977361
20
-20.15
30
0
41
1
10
21.4202062441116
20
-20.15
30
0
41
1
10
21.4197600907791
20
-20.15
30
0
41
1
10
21.4188593785309
20
-20.15
30
0
41
1
10
21.4111681473593
20
-20.15
30
0
41
1
10
21.3872891301368
20
-20.15
30
0
41
1
10
21.3597029991068
20
-20.15
30
0
41
1
10
21.3002759894113
20
-20.15
30
0
41
1
10
21.2549520224745
20
-20.15
30
0
41
1
10
21.1838151754295
20
-20.15
30
0
41
1
10
21.1595823294864
20
-20.15
30
0
41
1
10
21.111132603327
20
-20.15
30
0
41
1
10
21.0869130848902
20
-20.15
30
0
41
1
10
21.0397657642752
20
-20.15
30
0
41
1
10
21.0168365256431
20
-20.15
30
0
41
1
10
20.9738221524157
20
-20.15
30
0
41
1
10
20.953740253316
20
-20.15
30
0
41
1
10
20.918238561867
20
-20.15
30
0
41
1
10
20.9028318109912
20
-20.15
30
0
41
1
10
20.8785390466694
20
-20.15
30
0
41
1
10
20.8696753147315
20
-20.15
30
0
41
1
10
20.8617266030211
20
-20.15
30
0
41
1
10
20.8601916472609
20
-20.15
30
0
41
1
10
20.8601646059684
20
-20.15
30
0
0
SPLINE
5
127
100
AcDbEntity
8
1
62
256
6
ByLayer
370
18
48
1
60
0
100
AcDbSpline
70
4
71
3
72
34
73
30
40
0
40
0
40
0
40
0
40
0.0312500000000008
40
0.0312500000000008
40
0.0625000000000016
40
0.0625000000000016
40
0.125000000000006
40
0.125000000000006
40
0.250000000000012
40
0.250000000000012
40
0.375000000000018
40
0.375000000000018
40
0.43750000000002
40
0.43750000000002
40
0.468750000000021
40
0.468750000000021
40
0.500000000000021
40
0.500000000000021
40
0.625000000000018
40
0.625000000000018
40
0.750000000000014
40
0.750000000000014
40
0.781250000000013
40
0.781250000000013
40
0.812500000000012
40
0.812500000000012
40
0.875000000000007
40
0.875000000000007
40
1
40
1
40
1
40
1
41
1
10
20.9749422055425
20
16.3932344894627
30
0
41
1
10
20.9941848952418
20
16.3708384942892
30
0
41
1
10
21.0137768074567
20
16.3485376165374
30
0
41
1
10
21.0536807620485
20
16.3041340345678
30
0
41
1
10
21.0739924488661
20
16.2820332472175
30
0
41
1
10
21.1357558080176
20
16.216337720145
30
0
41
1
10
21.1781236927349
20
16.1732496324142
30
0
41
1
10
21.3089129032915
20
16.0461958079538
30
0
41
1
10
21.4010076780348
20
15.9644336934907
30
0
41
1
10
21.5958353426447
20
15.8073716139366
30
0
41
1
10
21.6985622161929
20
15.7320675338221
30
0
41
1
10
21.8615936130733
20
15.6245886977926
30
0
41
1
10
21.9174316764754
20
15.5896777263543
30
0
41
1
10
22.0035981692331
20
15.5387920126877
30
0
41
1
10
22.0327606727988
20
15.5220559190938
30
0
41
1
10
22.0917366540067
20
15.4892018116105
30
0
41
1
10
22.1215044727483
20
15.4731078754942
30
0
41
1
10
22.2717637740067
20
15.3943306255607
30
0
41
1
10
22.3965003027779
20
15.3367061758881
30
0
41
1
10
22.655804293816
20
15.2332141501595
30
0
41
1
10
22.7903648151656
20
15.1873380415565
30
0
41
1
10
22.9654979567374
20
15.1383062460198
30
0
41
1
10
23.0008527015304
20
15.1289257449162
30
0
41
1
10
23.0716890024555
20
15.1111688335733
30
0
41
1
10
23.1072410568952
20
15.1027721612805
30
0
41
1
10
23.2143000271938
20
15.0790321978965
30
0
41
1
10
23.28620943426
20
15.0651378271444
30
0
41
1
10
23.503567834598
20
15.02932902727
30
0
41
1
10
23.6506411343773
20
15.013267682572
30
0
41
1
10
23.8
20
15.0054575371382
30
0
0
SPLINE
5
128
100
AcDbEntity
8
1
62
256
6
ByLayer
370
18
48
1
60
0
100
AcDbSpline
70
4
71
3
72
16
73
12
40
0
40
0
40
0
40
0
40
0.25
40
0.25
40
0.5
40
0.5
40
0.625
40
0.625
40
0.750000000000001
40
0.750000000000001
40
1
40
1
40
1
40
1
41
1
10
20.2792076144253
20
15.1448692328525
30
0
41
1
10
20.3201715223188
20
15.2444656321548
30
0
41
1
10
20.3665354962305
20
15.3430299345556
30
0
41
1
10
20.4689984179546
20
15.5412003491607
30
0
41
1
10
20.5251031941275
20
15.6408085689639
30
0
41
1
10
20.6151111965872
20
15.7937791264686
30
0
41
1
10
20.6460816370516
20
15.8453666875585
30
0
41
1
10
20.7096165306427
20
15.9502536504022
30
0
41
1
10
20.7420899013881
20
16.0034039489183
30
0
41
1
10
20.8406836562816
20
16.1652840525235
30
0
41
1
10
20.9081092501896
20
16.2765867021221
30
0
41
1
10
20.9749422055424
20
16.3932344894627
30
0
0
SPLINE
5
129
100
AcDbEntity
8
1
62
256
6
ByLayer
370
18
48
1
60
0
100
AcDbSpline
70
4
71
3
72
28
73
24
40
0
40
0
40
0
40
0
40
0.0312500000000011
40
0.0312500000000011
40
0.0625000000000022
40
0.0625000000000022
40
0.125000000000001
40
0.125000000000001
40
0.249999999999998
40
0.249999999999998
40
0.312499999999998
40
0.312499999999998
40
0.374999999999998
40
0.374999999999998
40
0.499999999999999
40
0.499999999999999
40
0.625
40
0.625
40
0.750000000000002
40
0.750000000000002
40
0.875000000000001
40
0.875000000000001
40
1
40
1
40
1
40
1
41
1
10
21.4383186059727
20
-17.5243635992808
30
0
41
1
10
21.431744226581
20
-17.4914418419164
30
0
41
1
10
21.4244988568803
20
-17.4588010376329
30
0
41
1
10
21.4087968250166
20
-17.394038027597
30
0
41
1
10
21.4003247864613
20
-17.3618667222071
30
0
41
1
10
21.3734301533068
20
-17.2666622611058
30
0
41
1
10
21.3535128871016
20
-17.2047992609209
30
0
41
1
10
21.2891131614757
20
-17.0232848821776
30
0
41
1
10
21.2400209059795
20
-16.9076822447031
30
0
41
1
10
21.1609429341794
20
-16.7404660711645
30
0
41
1
10
21.1336635091697
20
-16.6857681929136
30
0
41
1
10
21.0777894722231
20
-16.5782048623018
30
0
41
1
10
21.0494747948797
20
-16.5258729875046
30
0
41
1
10
20.9641165028048
20
-16.3725848583648
30
0
41
1
10
20.9066777519226
20
-16.2753089699922
30
0
41
1
10
20.7937023040609
20
-16.0876415698582
30
0
41
1
10
20.738157189203
20
-15.9972597581102
30
0
41
1
10
20.6311880660356
20
-15.8208764928887
30
0
41
1
10
20.579760619701
20
-15.7348777356122
30
0
41
1
10
20.4826915720299
20
-15.5649928120256
30
0
41
1
10
20.4370482842043
20
-15.4811061377265
30
0
41
1
10
20.3527245343366
20
-15.3133929144801
30
0
41
1
10
20.3140426333
20
-15.229564337103
30
0
41
1
10
20.2792076144253
20
-15.1448692328525
30
0
0
SPLINE
5
12A
100
AcDbEntity
8
1
62
256
6
ByLayer
370
18
48
1
60
0
100
AcDbSpline
70
4
71
3
72
8
73
4
40
0
40
0
40
0
40
0
40
1
40
1
40
1
40
1
41
1
10
21.9886571763103
20
-20.15
30
0
41
1
10
21.7972217970425
20
-19.2738735160454
30
0
41
1
10
21.6129439860788
20
-18.3988148669937
30
0
41
1
10
21.4383186059721
20
-17.524363599281
30
0
0
SPLINE
5
12B
100
AcDbEntity
8
1
62
256
6
ByLayer
370
18
48
1
60
0
100
AcDbSpline
70
4
71
3
72
12
73
8
40
0
40
0
40
0
40
0
40
0.5
40
0.5
40
0.75
40
0.75
40
1
40
1
40
1
40
1
41
1
10
20.0491750809145
20
-13.9156055725456
30
0
41
1
10
20.0510178103657
20
-14.1335820037072
30
0
41
1
10
20.0695062886525
20
-14.3449925935648
30
0
41
1
10
20.1255267231704
20
-14.6523197138197
30
0
41
1
10
20.148933629704
20
-14.753128898599
30
0
41
1
10
20.2060594507484
20
-14.9514672538127
30
0
41
1
10
20.2397752830648
20
-15.0489965873567
30
0
41
1
10
20.2792076144253
20
-15.1448692328525
30
0
0
SPLINE
5
12C
100
AcDbEntity
8
1
62
256
6
ByLayer
370
18
48
1
60
0
100
AcDbSpline
70
4
71
3
72
12
73
8
40
0
40
0
40
0
40
0
40
0.250000000000001
40
0.250000000000001
40
0.500000000000001
40
0.500000000000001
40
1
40
1
40
1
40
1
41
1
10
20.2792076144253
20
15.1448692328525
30
0
41
1
10
20.2397752830648
20
15.0489965873567
30
0
41
1
10
20.2060594507484
20
14.9514672538127
30
0
41
1
10
20.148933629704
20
14.753128898599
30
0
41
1
10
20.1255267231704
20
14.6523197138197
30
0
41
1
10
20.0695062886525
20
14.3449925935648
30
0
41
1
10
20.0510178103657
20
14.1335820037072
30
0
41
1
10
20.0491750809145
20
13.9156055725456
30
0
0
SPLINE
5
12D
100
AcDbEntity
8
1
62
256
6
ByLayer
370
18
48
1
60
0
100
AcDbSpline
70
4
71
3
72
14
73
10
40
0
40
0
40
0
40
0
40
0.25
40
0.25
40
0.500000000000001
40
0.500000000000001
40
0.75
40
0.75
40
1
40
1
40
1
40
1
41
1
10
20.009031489077
20
18.9650938580065
30
0
41
1
10
20.0098538092763
20
18.8708652963928
30
0
41
1
10
20.0140412700175
20
18.7706425008102
30
0
41
1
10
20.0318979812089
20
18.558462533891
30
0
41
1
10
20.0455598863306
20
18.4465047827357
30
0
41
1
10
20.0856313692891
20
18.2110872069956
30
0
41
1
10
20.1120276170517
20
18.0876264793781
30
0
41
1
10
20.1816534449692
20
17.8294357266309
30
0
41
1
10
20.224857325194
20
17.6947040704241
30
0
41
1
10
20.2792076144253
20
17.5544724136169
30
0
0
SPLINE
5
12E
100
AcDbEntity
8
1
62
256
6
ByLayer
370
18
48
1
60
0
100
AcDbSpline
70
4
71
3
72
25
73
21
40
0
40
0
40
0
40
0
40
0.249999999999986
40
0.249999999999986
40
0.374999999999983
40
0.374999999999983
40
0.499999999999979
40
0.499999999999979
40
0.562499999999983
40
0.562499999999983
40
0.624999999999986
40
0.68749999999999
40
0.68749999999999
40
0.749999999999993
40
0.749999999999993
40
0.874999999999991
40
0.874999999999991
40
0.937499999999996
40
0.937499999999996
40
1
40
1
40
1
40
1
41
1
10
9.33660254037861
20
-19.0245744101322
30
0
41
1
10
9.32720842156829
20
-19.0356185274184
30
0
41
1
10
9.31588453947575
20
-19.0464153092313
30
0
41
1
10
9.29525647265243
20
-19.0619278372253
30
0
41
1
10
9.28776218432895
20
-19.0669920754349
30
0
41
1
10
9.27124506170023
20
-19.0768715139989
30
0
41
1
10
9.26222766550282
20
-19.0816874304591
30
0
41
1
10
9.24718147390908
20
-19.0886774015103
30
0
41
1
10
9.24190585527097
20
-19.0909686533589
30
0
41
1
10
9.23090181997068
20
-19.095399659777
30
0
41
1
10
9.21941536169066
20
-19.0996940974827
30
0
41
1
10
9.20680755935996
20
-19.1036766400565
30
0
41
1
10
9.19352784170755
20
-19.1074753109818
30
0
41
1
10
9.1865295196101
20
-19.109288210346
30
0
41
1
10
9.16442417341895
20
-19.1143521510704
30
0
41
1
10
9.14859952398743
20
-19.1171586755843
30
0
41
1
10
9.12253667740623
20
-19.1201714845572
30
0
41
1
10
9.11355518087368
20
-19.1209563802606
30
0
41
1
10
9.09541273714802
20
-19.1220079254874
30
0
41
1
10
9.08618793610023
20
-19.1222825906925
30
0
41
1
10
9.07679491924327
20
-19.1222825906925
30
0
0
SPLINE
5
12F
100
AcDbEntity
8
1
62
256
6
ByLayer
370
18
48
1
60
0
100
AcDbSpline
70
4
71
3
72
26
73
22
40
0
40
0
40
0
40
0
40
0.0624999999999999
40
0.0624999999999999
40
0.125
40
0.125
40
0.1875
40
0.1875
40
0.25
40
0.25
40
0.3125
40
0.3125
40
0.375
40
0.375
40
0.500000000000001
40
0.500000000000001
40
0.625000000000002
40
0.625000000000002
40
0.750000000000004
40
0.750000000000004
40
1
40
1
40
1
40
1
41
1
10
6.92320508075687
20
-19.1222825906926
30
0
41
1
10
6.91382447246664
20
-19.1222825906926
30
0
41
1
10
6.90445612562743
20
-19.1220042459418
30
0
41
1
10
6.88616578647202
20
-19.1209361972228
30
0
41
1
10
6.877306029935
20
-19.1201548450203
30
0
41
1
10
6.86008230329932
20
-19.1181607182976
30
0
41
1
10
6.85165205969534
20
-19.1169347436763
30
0
41
1
10
6.83564492760419
20
-19.1141675067423
30
0
41
1
10
6.82805305136273
20
-19.1126296584783
30
0
41
1
10
6.81353466302775
20
-19.1093020671091
30
0
41
1
10
6.80660916084835
20
-19.1075119510364
30
0
41
1
10
6.79332109685251
20
-19.1037159413756
30
0
41
1
10
6.78693692536262
20
-19.1017017213015
30
0
41
1
10
6.76873667859329
20
-19.0954500347066
30
0
41
1
10
6.75782269201741
20
-19.0910025433169
30
0
41
1
10
6.73776606630176
20
-19.0816841489935
30
0
41
1
10
6.72865815863287
20
-19.07681905156
30
0
41
1
10
6.712104492701
20
-19.0669068299453
30
0
41
1
10
6.70461359775268
20
-19.061836585657
30
0
41
1
10
6.68402554771032
20
-19.0463346141653
30
0
41
1
10
6.67278813956517
20
-19.0356144845436
30
0
41
1
10
6.66339745962154
20
-19.0245744101322
30
0
0
SPLINE
5
130
100
AcDbEntity
8
1
62
256
6
ByLayer
370
18
48
1
60
0
100
AcDbSpline
70
4
71
3
72
25
73
21
40
0
40
0
40
0
40
0
40
0.249999999999997
40
0.249999999999997
40
0.374999999999989
40
0.374999999999989
40
0.499999999999981
40
0.499999999999981
40
0.562499999999982
40
0.562499999999982
40
0.624999999999983
40
0.687499999999984
40
0.687499999999984
40
0.749999999999985
40
0.749999999999985
40
0.874999999999995
40
0.874999999999995
40
0.937499999999998
40
0.937499999999998
40
1
40
1
40
1
40
1
41
1
10
6.66339745962154
20
-6.16973001948571
30
0
41
1
10
6.67279157843183
20
-6.13567510453117
30
0
41
1
10
6.68411546052437
20
-6.10206728171741
30
0
41
1
10
6.70474352734769
20
-6.05336249030208
30
0
41
1
10
6.71223781567116
20
-6.03739036016586
30
0
41
1
10
6.72875493829989
20
-6.00610043240181
30
0
41
1
10
6.73777233449729
20
-5.99078025293949
30
0
41
1
10
6.75281852609103
20
-5.96845506553063
30
0
41
1
10
6.75809414472914
20
-5.96112164449841
30
0
41
1
10
6.76909818002943
20
-5.9469124104387
30
0
41
1
10
6.78058463830945
20
-5.93311315635253
30
0
41
1
10
6.79319244064015
20
-5.9202685823868
30
0
41
1
10
6.80647215829256
20
-5.90799699523123
30
0
41
1
10
6.81347048039001
20
-5.90212985895329
30
0
41
1
10
6.83557582658116
20
-5.88571770958595
30
0
41
1
10
6.85140047601269
20
-5.87658838136372
30
0
41
1
10
6.87746332259391
20
-5.86677544388641
30
0
41
1
10
6.88644481912644
20
-5.8642160875483
30
0
41
1
10
6.90458726285212
20
-5.8607863051715
30
0
41
1
10
6.91381206389988
20
-5.85988980456938
30
0
41
1
10
6.92320508075687
20
-5.85988980456938
30
0
0
SPLINE
5
131
100
AcDbEntity
8
1
62
256
6
ByLayer
370
18
48
1
60
0
100
AcDbSpline
70
4
71
3
72
26
73
22
40
0
40
0
40
0
40
0
40
0.0624999999999997
40
0.0624999999999997
40
0.124999999999999
40
0.124999999999999
40
0.187499999999999
40
0.187499999999999
40
0.249999999999999
40
0.249999999999999
40
0.312499999999998
40
0.312499999999998
40
0.374999999999998
40
0.374999999999998
40
0.499999999999998
40
0.499999999999998
40
0.624999999999999
40
0.624999999999999
40
0.749999999999999
40
0.749999999999999
40
1
40
1
40
1
40
1
41
1
10
9.07679491924327
20
-5.85988980456941
30
0
41
1
10
9.0861755275335
20
-5.85988980456941
30
0
41
1
10
9.09554387437268
20
-5.86079831910379
30
0
41
1
10
9.11383421352809
20
-5.86428190495297
30
0
41
1
10
9.12269397006511
20
-5.86682965857773
30
0
41
1
10
9.13991769670079
20
-5.8733246368358
30
0
41
1
10
9.1483479403048
20
-5.87731470491121
30
0
41
1
10
9.16435507239592
20
-5.88630806692444
30
0
41
1
10
9.17194694863738
20
-5.89130031342685
30
0
41
1
10
9.18646533697236
20
-5.90208491578252
30
0
41
1
10
9.19339083915176
20
-5.90787848896434
30
0
41
1
10
9.2066789031476
20
-5.92014175764382
30
0
41
1
10
9.21306307463749
20
-5.92663822853584
30
0
41
1
10
9.23126332140683
20
-5.94676259304853
30
0
41
1
10
9.24217730798267
20
-5.96102885758611
30
0
41
1
10
9.26223393369835
20
-5.99079069805944
30
0
41
1
10
9.27134184136725
20
-6.00626721095978
30
0
41
1
10
9.28789550729911
20
-6.0376597182682
30
0
41
1
10
9.29538640224743
20
-6.05364979751815
30
0
41
1
10
9.31597445228977
20
-6.10231901184949
30
0
41
1
10
9.32721186043494
20
-6.13568757087469
30
0
41
1
10
9.33660254037858
20
-6.16973001948574
30
0
0
SPLINE
5
132
100
AcDbEntity
8
1
62
256
6
ByLayer
370
18
48
1
60
0
100
AcDbSpline
70
4
71
3
72
25
73
21
40
0
40
0
40
0
40
0
40
0.250000000000006
40
0.250000000000006
40
0.375000000000002
40
0.375000000000002
40
0.499999999999997
40
0.499999999999997
40
0.562499999999998
40
0.562499999999998
40
0.624999999999999
40
0.6875
40
0.6875
40
0.750000000000001
40
0.750000000000001
40
0.874999999999999
40
0.874999999999999
40
0.9375
40
0.9375
40
1
40
1
40
1
40
1
41
1
10
6.66339745962154
20
19.0245744101322
30
0
41
1
10
6.67279157843183
20
19.0356185274184
30
0
41
1
10
6.68411546052437
20
19.0464153092313
30
0
41
1
10
6.70474352734769
20
19.0619278372253
30
0
41
1
10
6.71223781567116
20
19.0669920754349
30
0
41
1
10
6.72875493829989
20
19.0768715139989
30
0
41
1
10
6.73777233449729
20
19.0816874304591
30
0
41
1
10
6.75281852609103
20
19.0886774015103
30
0
41
1
10
6.75809414472914
20
19.0909686533589
30
0
41
1
10
6.76909818002946
20
19.095399659777
30
0
41
1
10
6.78058463830945
20
19.0996940974827
30
0
41
1
10
6.79319244064015
20
19.1036766400565
30
0
41
1
10
6.80647215829256
20
19.1074753109818
30
0
41
1
10
6.81347048039001
20
19.109288210346
30
0
41
1
10
6.83557582658119
20
19.1143521510704
30
0
41
1
10
6.85140047601269
20
19.1171586755844
30
0
41
1
10
6.87746332259388
20
19.1201714845572
30
0
41
1
10
6.88644481912644
20
19.1209563802606
30
0
41
1
10
6.90458726285212
20
19.1220079254874
30
0
41
1
10
6.91381206389988
20
19.1222825906925
30
0
41
1
10
6.92320508075687
20
19.1222825906925
30
0
0
SPLINE
5
133
100
AcDbEntity
8
1
62
256
6
ByLayer
370
18
48
1
60
0
100
AcDbSpline
70
4
71
3
72
26
73
22
40
0
40
0
40
0
40
0
40
0.0624999999999977
40
0.0624999999999977
40
0.124999999999995
40
0.124999999999995
40
0.187499999999993
40
0.187499999999993
40
0.249999999999991
40
0.249999999999991
40
0.312499999999989
40
0.312499999999989
40
0.374999999999986
40
0.374999999999986
40
0.499999999999987
40
0.499999999999987
40
0.624999999999987
40
0.624999999999987
40
0.749999999999988
40
0.749999999999988
40
1
40
1
40
1
40
1
41
1
10
9.07679491924327
20
19.1222825906925
30
0
41
1
10
9.0861755275335
20
19.1222825906925
30
0
41
1
10
9.09554387437268
20
19.1220042459418
30
0
41
1
10
9.11383421352812
20
19.1209361972228
30
0
41
1
10
9.12269397006514
20
19.1201548450203
30
0
41
1
10
9.13991769670082
20
19.1181607182976
30
0
41
1
10
9.14834794030483
20
19.1169347436763
30
0
41
1
10
9.16435507239595
20
19.1141675067423
30
0
41
1
10
9.17194694863741
20
19.1126296584783
30
0
41
1
10
9.18646533697239
20
19.1093020671091
30
0
41
1
10
9.19339083915179
20
19.1075119510364
30
0
41
1
10
9.20667890314763
20
19.1037159413756
30
0
41
1
10
9.21306307463752
20
19.1017017213015
30
0
41
1
10
9.23126332140686
20
19.0954500347066
30
0
41
1
10
9.24217730798273
20
19.0910025433169
30
0
41
1
10
9.26223393369838
20
19.0816841489935
30
0
41
1
10
9.27134184136727
20
19.07681905156
30
0
41
1
10
9.28789550729917
20
19.0669068299453
30
0
41
1
10
9.29538640224746
20
19.061836585657
30
0
41
1
10
9.31597445228982
20
19.0463346141653
30
0
41
1
10
9.32721186043506
20
19.0356144845434
30
0
41
1
10
9.33660254037869
20
19.0245744101321
30
0
0
SPLINE
5
134
100
AcDbEntity
8
1
62
256
6
ByLayer
370
18
48
1
60
0
100
AcDbSpline
70
4
71
3
72
25
73
21
40
0
40
0
40
0
40
0
40
0.249999999999976
40
0.249999999999976
40
0.374999999999968
40
0.374999999999968
40
0.499999999999958
40
0.499999999999958
40
0.562499999999959
40
0.562499999999959
40
0.62499999999996
40
0.687499999999961
40
0.687499999999961
40
0.749999999999962
40
0.749999999999962
40
0.874999999999977
40
0.874999999999977
40
0.937499999999988
40
0.937499999999988
40
1
40
1
40
1
40
1
41
1
10
9.33660254037869
20
6.16973001948611
30
0
41
1
10
9.32720842156843
20
6.13567510453157
30
0
41
1
10
9.31588453947577
20
6.10206728171747
30
0
41
1
10
9.29525647265245
20
6.05336249030211
30
0
41
1
10
9.28776218432898
20
6.03739036016592
30
0
41
1
10
9.27124506170026
20
6.00610043240187
30
0
41
1
10
9.26222766550285
20
5.99078025293954
30
0
41
1
10
9.24718147390911
20
5.96845506553066
30
0
41
1
10
9.241905855271
20
5.96112164449843
30
0
41
1
10
9.23090181997071
20
5.94691241043876
30
0
41
1
10
9.2194147994463
20
5.93311363814723
30
0
41
1
10
9.20680755935999
20
5.92026858238683
30
0
41
1
10
9.19352784170758
20
5.90799699523126
30
0
41
1
10
9.1865295196101
20
5.90212985895334
30
0
41
1
10
9.16442417341895
20
5.88571770958598
30
0
41
1
10
9.14859952398746
20
5.87658838136372
30
0
41
1
10
9.12253667740623
20
5.86677544388644
30
0
41
1
10
9.1135551808737
20
5.8642160875483
30
0
41
1
10
9.09541273714802
20
5.86078630517153
30
0
41
1
10
9.08618793610023
20
5.85988980456943
30
0
41
1
10
9.07679491924327
20
5.85988980456941
30
0
0
SPLINE
5
135
100
AcDbEntity
8
1
62
256
6
ByLayer
370
18
48
1
60
0
100
AcDbSpline
70
4
71
3
72
26
73
22
40
0
40
0
40
0
40
0
40
0.0624999999999992
40
0.0624999999999992
40
0.124999999999998
40
0.124999999999998
40
0.187499999999998
40
0.187499999999998
40
0.249999999999997
40
0.249999999999997
40
0.312499999999996
40
0.312499999999996
40
0.374999999999995
40
0.374999999999995
40
0.499999999999995
40
0.499999999999995
40
0.624999999999994
40
0.624999999999994
40
0.749999999999994
40
0.749999999999994
40
1
40
1
40
1
40
1
41
1
10
6.92320508075687
20
5.85988980456935
30
0
41
1
10
6.91382447246664
20
5.85988980456935
30
0
41
1
10
6.90445612562743
20
5.86079831910374
30
0
41
1
10
6.88616578647202
20
5.86428190495292
30
0
41
1
10
6.87730602993503
20
5.86682965857767
30
0
41
1
10
6.86008230329932
20
5.87332463683575
30
0
41
1
10
6.85165205969534
20
5.87731470491119
30
0
41
1
10
6.83564492760419
20
5.88630806692441
30
0
41
1
10
6.82805305136273
20
5.8913003134268
30
0
41
1
10
6.81353466302775
20
5.90208491578247
30
0
41
1
10
6.80660916084838
20
5.90787848896431
30
0
41
1
10
6.79332109685251
20
5.92014175764379
30
0
41
1
10
6.78693692536262
20
5.92663822853581
30
0
41
1
10
6.76873667859329
20
5.9467625930485
30
0
41
1
10
6.75782269201744
20
5.96102885758609
30
0
41
1
10
6.73776606630176
20
5.99079069805941
30
0
41
1
10
6.72865815863287
20
6.00626721095975
30
0
41
1
10
6.712104492701
20
6.03765971826817
30
0
41
1
10
6.70461359775271
20
6.05364979751812
30
0
41
1
10
6.68402554771035
20
6.10231901184949
30
0
41
1
10
6.67278813956517
20
6.13568757087467
30
0
41
1
10
6.66339745962154
20
6.16973001948571
30
0
0
SPLINE
5
136
100
AcDbEntity
8
SK1
62
256
6
ByLayer
370
13
48
1
60
0
100
AcDbSpline
70
4
71
3
72
18
73
14
40
0
40
0
40
0
40
0
40
0.0047272517206203
40
0.0849380751974566
40
0.165148898674293
40
0.325570545627965
40
0.405781369104802
40
0.485992192581638
40
0.64641383953531
40
0.806835486488983
40
0.887046309965819
40
0.967257133442656
40
1
40
1
40
1
40
1
41
1
10
-0.394913799811292
20
-5.00116108217654
30
0
41
1
10
-0.394913799811292
20
-5.02384266526144
30
0
41
1
10
-0.394913799811292
20
-5.43069780454792
30
0
41
1
10
-0.394913799811292
20
-6.19788950405021
30
0
41
1
10
-0.394913799811292
20
-7.59985122616763
30
0
41
1
10
-0.394913799811292
20
-8.86359092653058
30
0
41
1
10
-0.394913799811292
20
-9.98771978618734
30
0
41
1
10
-0.394913799811292
20
-11.015314225612
30
0
41
1
10
-0.394913799811292
20
-12.1118907902116
30
0
41
1
10
-0.394913799811292
20
-12.9393754432253
30
0
41
1
10
-0.394913799811292
20
-13.4200270263956
30
0
41
1
10
-0.394913799811292
20
-13.6305385249164
30
0
41
1
10
-0.394913799811292
20
-13.7181012197641
30
0
41
1
10
-0.394913799811292
20
-13.7403540821482
30
0
0
SPLINE
5
137
100
AcDbEntity
8
SK1
62
256
6
ByLayer
370
18
48
1
60
0
100
AcDbSpline
70
4
71
3
72
9
73
5
40
0
40
0
40
0
40
0
40
0.601387697622705
40
1
40
1
40
1
40
1
41
1
10
-0.394913799811292
20
-13.7403545288805
30
0
41
1
10
-0.394913799811292
20
-13.7726147174352
30
0
41
1
10
-0.394913799811292
20
-13.8153202987509
30
0
41
1
10
-0.394913799811292
20
-13.8386282511807
30
0
41
1
10
-0.394913799811292
20
-13.8446595289407
30
0
0
SPLINE
5
138
100
AcDbEntity
8
SK1
62
256
6
ByLayer
370
18
48
1
60
0
100
AcDbSpline
70
4
71
3
72
9
73
5
40
0
40
0
40
0
40
0
40
0.398611407755214
40
1
40
1
40
1
40
1
41
1
10
-0.394913799811292
20
13.8446596982821
30
0
41
1
10
-0.394913799811292
20
13.8386284705405
30
0
41
1
10
-0.394913799811292
20
13.8153206302248
30
0
41
1
10
-0.394913799811292
20
13.7726150014334
30
0
41
1
10
-0.39491379981132
20
13.7403546982822
30
0
0
SPLINE
5
139
100
AcDbEntity
8
SK1
62
256
6
ByLayer
370
13
48
1
60
0
100
AcDbSpline
70
4
71
3
72
18
73
14
40
0
40
0
40
0
40
0
40
0.0327429339004896
40
0.112953748826552
40
0.193164563752615
40
0.35358619360474
40
0.514007823456866
40
0.594218638382928
40
0.674429453308991
40
0.834851083161116
40
0.915061898087179
40
0.995272713013242
40
1
40
1
40
1
40
1
41
1
10
-0.39491379981132
20
13.7403545625947
30
0
41
1
10
-0.39491379981132
20
13.7181016404987
30
0
41
1
10
-0.394913799811292
20
13.6305387838052
30
0
41
1
10
-0.394913799811292
20
13.4200269261686
30
0
41
1
10
-0.394913799811292
20
12.9393760577865
30
0
41
1
10
-0.394913799811292
20
12.1118904563386
30
0
41
1
10
-0.394913799811292
20
11.0153145242408
30
0
41
1
10
-0.394913799811292
20
9.98771966705354
30
0
41
1
10
-0.394913799811292
20
8.86359091499725
30
0
41
1
10
-0.394913799811292
20
7.59985108367658
30
0
41
1
10
-0.394913799811292
20
6.19788936064779
30
0
41
1
10
-0.394913799811292
20
5.43069766104711
30
0
41
1
10
-0.394913799811292
20
5.02384231959817
30
0
41
1
10
-0.394913799811292
20
5.00116056257954
30
0
0
SPLINE
5
13A
100
AcDbEntity
8
SK1
62
256
6
ByLayer
370
18
48
1
60
0
100
AcDbSpline
70
4
71
3
72
38
73
34
40
0
40
0
40
0
40
0
40
0.0156249999999998
40
0.0156249999999998
40
0.0312499999999996
40
0.0312499999999996
40
0.0468749999999993
40
0.0468749999999993
40
0.0624999999999991
40
0.0624999999999991
40
0.0781249999999989
40
0.0781249999999989
40
0.0937499999999988
40
0.0937499999999988
40
0.124999999999998
40
0.124999999999998
40
0.156249999999997
40
0.156249999999997
40
0.187499999999996
40
0.187499999999996
40
0.249999999999995
40
0.249999999999995
40
0.312499999999993
40
0.312499999999993
40
0.374999999999992
40
0.374999999999992
40
0.499999999999993
40
0.499999999999993
40
0.624999999999995
40
0.624999999999995
40
0.749999999999996
40
0.749999999999996
40
1
40
1
40
1
40
1
41
1
10
-0.394913799807426
20
5.0011605625827
30
0
41
1
10
-0.391748910595936
20
4.99861131394735
30
0
41
1
10
-0.388451589186047
20
4.99624657017219
30
0
41
1
10
-0.381503554973733
20
4.99201030025037
30
0
41
1
10
-0.377826935748601
20
4.99013013351893
30
0
41
1
10
-0.370199866878068
20
4.98715038455433
30
0
41
1
10
-0.36623710796195
20
4.98603634171386
30
0
41
1
10
-0.357908257094152
20
4.98482371680839
30
0
41
1
10
-0.353680105341994
20
4.98475614855752
30
0
41
1
10
-0.345215229645106
20
4.98581465317153
30
0
41
1
10
-0.340970311888157
20
4.98696063906212
30
0
41
1
10
-0.332955447377685
20
4.99024185405628
30
0
41
1
10
-0.329074985882386
20
4.99241446107368
30
0
41
1
10
-0.318315705386453
20
4.99984728403027
30
0
41
1
10
-0.31208522105814
20
5.00607580183947
30
0
41
1
10
-0.301009391385094
20
5.01954154516272
30
0
41
1
10
-0.296146757250483
20
5.02681840777248
30
0
41
1
10
-0.287438460223086
20
5.04163217306564
30
0
41
1
10
-0.283588617015113
20
5.04917503165893
30
0
41
1
10
-0.272989810764841
20
5.07205528847362
30
0
41
1
10
-0.267174521636747
20
5.08763962812947
30
0
41
1
10
-0.25687294127701
20
5.11914471876437
30
0
41
1
10
-0.252415474862204
20
5.13507348953752
30
0
41
1
10
-0.244408671813716
20
5.16715112267377
30
0
41
1
10
-0.240869472299124
20
5.18329434587591
30
0
41
1
10
-0.231309806283861
20
5.23164989232507
30
0
41
1
10
-0.226295439929686
20
5.26391096453324
30
0
41
1
10
-0.217912063159474
20
5.3284110202664
30
0
41
1
10
-0.214571990690132
20
5.36058541153008
30
0
41
1
10
-0.209086134712749
20
5.42467998241563
30
0
41
1
10
-0.206944102193148
20
5.45662122324208
30
0
41
1
10
-0.201889292856521
20
5.55215860520599
30
0
41
1
10
-0.200325582586999
20
5.61546983788409
30
0
41
1
10
-0.199999999999989
20
5.67845150388044
30
0
0
SPLINE
5
13B
100
AcDbEntity
8
SK1
62
256
6
ByLayer
370
18
48
1
60
0
100
AcDbSpline
70
4
71
3
72
51
73
47
40
0
40
0
40
0
40
0
40
0.125
40
0.125
40
0.250000000000001
40
0.250000000000001
40
0.375000000000001
40
0.375000000000001
40
0.500000000000001
40
0.500000000000001
40
0.562500000000002
40
0.562500000000002
40
0.625000000000003
40
0.625000000000003
40
0.656250000000003
40
0.656250000000003
40
0.687500000000004
40
0.687500000000004
40
0.750000000000003
40
0.750000000000003
40
0.781250000000003
40
0.781250000000003
40
0.796875000000003
40
0.796875000000003
40
0.812500000000003
40
0.812500000000003
40
0.843750000000002
40
0.843750000000002
40
0.859375000000002
40
0.859375000000002
40
0.875000000000001
40
0.882812500000001
40
0.882812500000001
40
0.890625000000001
40
0.890625000000001
40
0.906250000000001
40
0.914062500000001
40
0.914062500000001
40
0.921875000000001
40
0.921875000000001
40
0.9375
40
0.953125
40
0.953125
40
0.96875
40
0.96875
40
1
40
1
40
1
40
1
41
1
10
-1.30710678118751
20
3.62853202212816
30
0
41
1
10
-1.29190613640859
20
3.70556358522939
30
0
41
1
10
-1.27564950878531
20
3.7820205106818
30
0
41
1
10
-1.24060841320622
20
3.93375870314148
30
0
41
1
10
-1.22181063294732
20
4.00910669461106
30
0
41
1
10
-1.18115763731655
20
4.15813319978361
30
0
41
1
10
-1.15931218721892
20
4.23182333008765
30
0
41
1
10
-1.11159177403968
20
4.37733091027962
30
0
41
1
10
-1.08574263925135
20
4.44915525032008
30
0
41
1
10
-1.04258655138119
20
4.55515277213792
30
0
41
1
10
-1.02746285247525
20
4.59019333091888
30
0
41
1
10
-0.995317234370305
20
4.65958274004282
30
0
41
1
10
-0.978301889811434
20
4.69393335632202
30
0
41
1
10
-0.950840081220861
20
4.74480636515827
30
0
41
1
10
-0.941360422010973
20
4.76165452150423
30
0
41
1
10
-0.921612206817855
20
4.79509560720325
30
0
41
1
10
-0.911330345780556
20
4.81170689277053
30
0
41
1
10
-0.879296662789443
20
4.86066233047501
30
0
41
1
10
-0.856343638951387
20
4.89227865327604
30
0
41
1
10
-0.818026122235779
20
4.93731968624948
30
0
41
1
10
-0.804596803075015
20
4.95193103239396
30
0
41
1
10
-0.783093038222916
20
4.97302905184745
30
0
41
1
10
-0.775696659387535
20
4.9799241664696
30
0
41
1
10
-0.760349771776134
20
4.99338317091983
30
0
41
1
10
-0.752392350049945
20
4.999948849948
30
0
41
1
10
-0.727880800919934
20
5.01875181169186
30
0
41
1
10
-0.710603681718226
20
5.03020967742904
30
0
41
1
10
-0.68262925493238
20
5.04504465543113
30
0
41
1
10
-0.672891603682132
20
5.04961808259611
30
0
41
1
10
-0.652894042393314
20
5.05762851177528
30
0
41
1
10
-0.63755105348244
20
5.06277719842694
30
0
41
1
10
-0.621612371118459
20
5.06644388397413
30
0
41
1
10
-0.610843200204982
20
5.06853179751513
30
0
41
1
10
-0.605373228252517
20
5.06939770112723
30
0
41
1
10
-0.589024240534229
20
5.07139043996949
30
0
41
1
10
-0.572669010460402
20
5.07220433725334
30
0
41
1
10
-0.556304392511265
20
5.07124292633216
30
0
41
1
10
-0.545392549087381
20
5.07020599311227
30
0
41
1
10
-0.539919309159188
20
5.06948506381411
30
0
41
1
10
-0.523814898152125
20
5.06678978581303
30
0
41
1
10
-0.50297983481218
20
5.06177117057427
30
0
41
1
10
-0.483228911030722
20
5.05432574420999
30
0
41
1
10
-0.463947967840653
20
5.04582591451216
30
0
41
1
10
-0.45453441672953
20
5.04103707702356
30
0
41
1
10
-0.427464692677432
20
5.02563245237855
30
0
41
1
10
-0.410735023483483
20
5.01390421017646
30
0
41
1
10
-0.394913799810496
20
5.00116056255814
30
0
0
SPLINE
5
13C
100
AcDbEntity
8
SK1
62
256
6
ByLayer
370
18
48
1
60
0
100
AcDbSpline
70
4
71
3
72
51
73
47
40
0
40
0
40
0
40
0
40
0.0312499999999998
40
0.0312499999999998
40
0.0468749999999998
40
0.0468749999999998
40
0.0624999999999999
40
0.0624999999999999
40
0.0781250000000002
40
0.0859375000000003
40
0.0859375000000003
40
0.0937500000000004
40
0.0937500000000004
40
0.125000000000001
40
0.125000000000001
40
0.132812500000001
40
0.132812500000001
40
0.140625000000001
40
0.140625000000001
40
0.156250000000001
40
0.156250000000001
40
0.171875000000001
40
0.171875000000001
40
0.1875
40
0.1875
40
0.21875
40
0.21875
40
0.250000000000001
40
0.250000000000001
40
0.312500000000001
40
0.312500000000001
40
0.375000000000001
40
0.375000000000001
40
0.437500000000001
40
0.437500000000001
40
0.500000000000001
40
0.500000000000001
40
0.562500000000002
40
0.562500000000002
40
0.625000000000002
40
0.625000000000002
40
0.750000000000001
40
0.750000000000001
40
0.875
40
0.875
40
1
40
1
40
1
40
1
41
1
10
-0.394913799811292
20
-5.00116108217659
30
0
41
1
10
-0.410665386495026
20
-5.01384862569722
30
0
41
1
10
-0.427444682539459
20
-5.02560401094567
30
0
41
1
10
-0.45422581270239
20
-5.04087055985525
30
0
41
1
10
-0.463438908679222
20
-5.04557564745028
30
0
41
1
10
-0.482560235211111
20
-5.05405619211425
30
0
41
1
10
-0.492542658095488
20
-5.05785401853598
30
0
41
1
10
-0.512988129699522
20
-5.06417699720825
30
0
41
1
10
-0.528606239136934
20
-5.06795442924033
30
0
41
1
10
-0.544698986354916
20
-5.07012184570777
30
0
41
1
10
-0.555539481232216
20
-5.07118703454174
30
0
41
1
10
-0.561044214178423
20
-5.0715296778481
30
0
41
1
10
-0.588380278389167
20
-5.07223202598755
30
0
41
1
10
-0.609788395540534
20
-5.06961980113229
30
0
41
1
10
-0.636038898961743
20
-5.06284104440826
30
0
41
1
10
-0.641273399804732
20
-5.06130432437081
30
0
41
1
10
-0.651523728611267
20
-5.05794894419779
30
0
41
1
10
-0.656561241457752
20
-5.05612553121156
30
0
41
1
10
-0.671435209911522
20
-5.05025831011366
30
0
41
1
10
-0.681034016074335
20
-5.04581904881579
30
0
41
1
10
-0.699699693093578
20
-5.0360533513589
30
0
41
1
10
-0.708803295444653
20
-5.03069978836885
30
0
41
1
10
-0.726275289417998
20
-5.01942067172476
30
0
41
1
10
-0.734670547069527
20
-5.01348585979886
30
0
41
1
10
-0.759028353676314
20
-4.99496074537163
30
0
41
1
10
-0.774172797668427
20
-4.98165817730296
30
0
41
1
10
-0.802914827069742
20
-4.95369126459417
30
0
41
1
10
-0.81654709362823
20
-4.93896729549496
30
0
41
1
10
-0.855145617589443
20
-4.89385654551648
30
0
41
1
10
-0.878053724810229
20
-4.86240606869328
30
0
41
1
10
-0.920529370906081
20
-4.79779601403041
30
0
41
1
10
-0.940052913520788
20
-4.76461628090829
30
0
41
1
10
-0.976740804435963
20
-4.69698582221125
30
0
41
1
10
-0.993913112071084
20
-4.66248133856587
30
0
41
1
10
-1.02632348400363
20
-4.59277716864142
30
0
41
1
10
-1.04157111619293
20
-4.55755616008759
30
0
41
1
10
-1.07057669597754
20
-4.48649265752218
30
0
41
1
10
-1.08433177378575
20
-4.4506493409462
30
0
41
1
10
-1.11062583028021
20
-4.37841416747673
30
0
41
1
10
-1.12316712175576
20
-4.34200882575533
30
0
41
1
10
-1.15918165202706
20
-4.23227919141883
30
0
41
1
10
-1.18109081197508
20
-4.1583703791232
30
0
41
1
10
-1.22178607754876
20
-4.0092085502001
30
0
41
1
10
-1.24056171778477
20
-3.9339536596444
30
0
41
1
10
-1.27561460874023
20
-3.78218340304136
30
0
41
1
10
-1.29188624779786
20
-3.70566670397201
30
0
41
1
10
-1.30710678118655
20
-3.62853433720645
30
0
0
SPLINE
5
13D
100
AcDbEntity
8
SK1
62
256
6
ByLayer
370
18
48
1
60
0
100
AcDbSpline
70
4
71
3
72
40
73
36
40
0
40
0
40
0
40
0
40
0.249999999999997
40
0.249999999999997
40
0.374999999999995
40
0.374999999999995
40
0.499999999999993
40
0.499999999999993
40
0.624999999999991
40
0.624999999999991
40
0.687499999999992
40
0.687499999999992
40
0.749999999999992
40
0.749999999999992
40
0.812499999999993
40
0.812499999999993
40
0.843749999999992
40
0.843749999999992
40
0.874999999999992
40
0.874999999999992
40
0.890624999999993
40
0.890624999999993
40
0.906249999999994
40
0.906249999999994
40
0.921874999999995
40
0.921874999999995
40
0.937499999999996
40
0.937499999999996
40
0.953124999999997
40
0.953124999999997
40
0.968749999999998
40
0.968749999999998
40
0.984374999999999
40
0.984374999999999
40
1
40
1
40
1
40
1
41
1
10
-0.199999999999989
20
-5.6784520164293
30
0
41
1
10
-0.200325540023954
20
-5.61547854140406
30
0
41
1
10
-0.201889470916598
20
-5.55222154865803
30
0
41
1
10
-0.206929588208141
20
-5.45686315009959
30
0
41
1
10
-0.209064130076882
20
-5.42499801712523
30
0
41
1
10
-0.214523044028141
20
-5.36109790788316
30
0
41
1
10
-0.217841153282251
20
-5.32906305985318
30
0
41
1
10
-0.226165642229034
20
-5.2648064330395
30
0
41
1
10
-0.23114988012145
20
-5.23258507573846
30
0
41
1
10
-0.240700146478559
20
-5.1840907743358
30
0
41
1
10
-0.244243877237153
20
-5.16786639775955
30
0
41
1
10
-0.252257427302908
20
-5.13565463294319
30
0
41
1
10
-0.256723214245568
20
-5.11964268012935
30
0
41
1
10
-0.267068575155236
20
-5.08792546636624
30
0
41
1
10
-0.272916655032219
20
-5.0722125984079
30
0
41
1
10
-0.283630596953657
20
-5.0490854463963
30
0
41
1
10
-0.287559273211883
20
-5.04140704567575
30
0
41
1
10
-0.29628672569271
20
-5.0266015359532
30
0
41
1
10
-0.301074093098151
20
-5.01945615581226
30
0
41
1
10
-0.309349269610607
20
-5.00940629678658
30
0
41
1
10
-0.31231630697954
20
-5.00615011165595
30
0
41
1
10
-0.31861660499726
20
-5.00011766639523
30
0
41
1
10
-0.321954234540129
20
-4.99732874567789
30
0
41
1
10
-0.329143040072381
20
-4.99237354459819
30
0
41
1
10
-0.33301572502674
20
-4.99021187411824
30
0
41
1
10
-0.341034463404867
20
-4.9869408469134
30
0
41
1
10
-0.34528594899416
20
-4.98580083402231
30
0
41
1
10
-0.353728848469132
20
-4.98475618750666
30
0
41
1
10
-0.358001975899782
20
-4.98483227377295
30
0
41
1
10
-0.366274570071312
20
-4.98604804966439
30
0
41
1
10
-0.370231991198097
20
-4.98716039898099
30
0
41
1
10
-0.377874829705576
20
-4.99015247985739
30
0
41
1
10
-0.381540018186683
20
-4.99203141004631
30
0
41
1
10
-0.388463488029373
20
-4.99625601274579
30
0
41
1
10
-0.391753438827749
20
-4.99861548354417
30
0
41
1
10
-0.394913799811292
20
-5.00116108217654
30
0
0
SPLINE
5
13E
100
AcDbEntity
8
SK1
62
256
6
ByLayer
370
18
48
1
60
0
100
AcDbSpline
70
4
71
3
72
38
73
34
40
0
40
0
40
0
40
0
40
0.0156249999999999
40
0.0156249999999999
40
0.03125
40
0.03125
40
0.046875
40
0.046875
40
0.0625000000000001
40
0.0625000000000001
40
0.0781250000000001
40
0.0781250000000001
40
0.0937500000000001
40
0.0937500000000001
40
0.125000000000001
40
0.125000000000001
40
0.156250000000002
40
0.156250000000002
40
0.187500000000003
40
0.187500000000003
40
0.250000000000004
40
0.250000000000004
40
0.312500000000004
40
0.312500000000004
40
0.375000000000005
40
0.375000000000005
40
0.500000000000004
40
0.500000000000004
40
0.625000000000002
40
0.625000000000002
40
0.750000000000001
40
0.750000000000001
40
1
40
1
40
1
40
1
41
1
10
-0.394913799814617
20
-13.8446595289409
30
0
41
1
10
-0.391749296202079
20
-13.8448424909269
30
0
41
1
10
-0.388452375608779
20
-13.8450961903932
30
0
41
1
10
-0.381505168769735
20
-13.8457938151623
30
0
41
1
10
-0.377829013893802
20
-13.846241915681
30
0
41
1
10
-0.37020286020072
20
-13.8473733313911
30
0
41
1
10
-0.366240526544658
20
-13.8480563938372
30
0
41
1
10
-0.357912392007819
20
-13.849739303977
30
0
41
1
10
-0.353684635700688
20
-13.8507136617023
30
0
41
1
10
-0.345220189226808
20
-13.8529238754024
30
0
41
1
10
-0.340975528995898
20
-13.854165851519
30
0
41
1
10
-0.332960961810898
20
-13.8567502285021
30
0
41
1
10
-0.329080600695079
20
-13.8581264595614
30
0
41
1
10
-0.318321797663032
20
-13.8622381003803
30
0
41
1
10
-0.312091372528243
20
-13.8650224034849
30
0
41
1
10
-0.301015966388775
20
-13.8704509077418
30
0
41
1
10
-0.296153419957164
20
-13.8731079755536
30
0
41
1
10
-0.287445517218686
20
-13.8782073044309
30
0
41
1
10
-0.283595780474968
20
-13.8806523483052
30
0
41
1
10
-0.272997114041232
20
-13.887771829979
30
0
41
1
10
-0.267181679795755
20
-13.8922335922221
30
0
41
1
10
-0.256879537942382
20
-13.9007947938235
30
0
41
1
10
-0.2524216589118
20
-13.9048892296203
30
0
41
1
10
-0.244413939321618
20
-13.9127918287045
30
0
41
1
10
-0.240874255815328
20
-13.9165963734791
30
0
41
1
10
-0.231313142997919
20
-13.9275805879124
30
0
41
1
10
-0.226297832831591
20
-13.9343664914098
30
0
41
1
10
-0.217912944663482
20
-13.947127348993
30
0
41
1
10
-0.214572317075493
20
-13.9530845047233
30
0
41
1
10
-0.209085750971383
20
-13.964280444998
30
0
41
1
10
-0.206943565198628
20
-13.9695217949656
30
0
41
1
10
-0.201888714477093
20
-13.9843134154885
30
0
41
1
10
-0.200325526921631
20
-13.9929377840209
30
0
41
1
10
-0.199999999999989
20
-14.0005306290775
30
0
0
SPLINE
5
13F
100
AcDbEntity
8
SK1
62
256
6
ByLayer
370
18
48
1
60
0
100
AcDbSpline
70
4
71
3
72
40
73
36
40
0
40
0
40
0
40
0
40
0.249999999999998
40
0.249999999999998
40
0.374999999999998
40
0.374999999999998
40
0.499999999999997
40
0.499999999999997
40
0.624999999999998
40
0.624999999999998
40
0.687499999999998
40
0.687499999999998
40
0.749999999999998
40
0.749999999999998
40
0.812499999999999
40
0.812499999999999
40
0.84375
40
0.84375
40
0.875000000000001
40
0.875000000000001
40
0.890625000000001
40
0.890625000000001
40
0.90625
40
0.90625
40
0.921875
40
0.921875
40
0.9375
40
0.9375
40
0.953125
40
0.953125
40
0.96875
40
0.96875
40
0.984375
40
0.984375
40
1
40
1
40
1
40
1
41
1
10
-0.199999999999989
20
14.0005308360297
30
0
41
1
10
-0.200325484931824
20
13.9929389755075
30
0
41
1
10
-0.201888899753499
20
13.9843210157469
30
0
41
1
10
-0.206929064368978
20
13.9695604951635
30
0
41
1
10
-0.209063760504847
20
13.9643331642487
30
0
41
1
10
-0.214523379010956
20
13.9531770452386
30
0
41
1
10
-0.217842040597986
20
13.9472498215878
30
0
41
1
10
-0.226167999261975
20
13.9345502713768
30
0
41
1
10
-0.231153161037923
20
13.9277833881154
30
0
41
1
10
-0.240704867227123
20
13.916782127484
30
0
41
1
10
-0.244249097570219
20
13.9129633802222
30
0
41
1
10
-0.252263586587134
20
13.9050370743235
30
0
41
1
10
-0.25672980210976
20
13.9009261566768
30
0
41
1
10
-0.267075773720649
20
13.8923152006562
30
0
41
1
10
-0.272924030069333
20
13.8878208927885
30
0
41
1
10
-0.2836379135897
20
13.8806243248759
30
0
41
1
10
-0.287566520738551
20
13.8781327420571
30
0
41
1
10
-0.296293809253314
20
13.8730299294695
30
0
41
1
10
-0.301081039190621
20
13.870417714082
30
0
41
1
10
-0.309355911672185
20
13.866364075454
30
0
41
1
10
-0.312322841306013
20
13.8649804039333
30
0
41
1
10
-0.318622944145005
20
13.8622234641578
30
0
41
1
10
-0.321960461861977
20
13.8608465411072
30
0
41
1
10
-0.329149016141258
20
13.858101654615
30
0
41
1
10
-0.333021571763879
20
13.8567295936368
30
0
41
1
10
-0.341039973310558
20
13.8541465128493
30
0
41
1
10
-0.345291253771677
20
13.8529042812469
30
0
41
1
10
-0.353733594241362
20
13.8507022641717
30
0
41
1
10
-0.35800639249598
20
13.8497192387353
30
0
41
1
10
-0.366278137943937
20
13.8480502152413
30
0
41
1
10
-0.370235109341735
20
13.8473680380174
30
0
41
1
10
-0.377877027729255
20
13.8462356418831
30
0
41
1
10
-0.381541736392848
20
13.8457899488977
30
0
41
1
10
-0.388464315595599
20
13.8450955240371
30
0
41
1
10
-0.391753842527152
20
13.8448423969163
30
0
41
1
10
-0.394913799811292
20
13.8446596982821
30
0
0
SPLINE
5
140
100
AcDbEntity
8
SK1
62
256
6
ByLayer
370
18
48
1
60
0
100
AcDbSpline
70
4
71
3
72
39
73
35
40
0
40
0
40
0
40
0
40
0.0233594615755841
40
0.0513972027989314
40
0.0794349440222788
40
0.107472685245626
40
0.163548167692321
40
0.219623650139016
40
0.247661391362363
40
0.27569913258571
40
0.331774615032405
40
0.359812356255752
40
0.387850097479099
40
0.415887838702447
40
0.443925579925794
40
0.471963321149142
40
0.485982191760815
40
0.500001062372489
40
0.514019932984163
40
0.528038803595836
40
0.556076544819184
40
0.584114286042531
40
0.612152027265878
40
0.640189768489226
40
0.668227509712573
40
0.724302992159268
40
0.752340733382615
40
0.780378474605962
40
0.836453957052657
40
0.892529439499352
40
0.920567180722699
40
0.948604921946046
40
0.976642663169394
40
1
40
1
40
1
40
1
41
1
10
-24
20
-12.6317140958603
30
0
41
1
10
-24
20
-12.6344703675015
30
0
41
1
10
-24
20
-12.6094822571095
30
0
41
1
10
-24
20
-12.4743689830171
30
0
41
1
10
-24
20
-12.230146179188
30
0
41
1
10
-24
20
-11.778244241418
30
0
41
1
10
-24
20
-11.0029092636263
30
0
41
1
10
-24
20
-9.97333247862687
30
0
41
1
10
-24
20
-9.00198713477033
30
0
41
1
10
-24
20
-7.94098140173097
30
0
41
1
10
-24
20
-6.76812921007328
30
0
41
1
10
-24
20
-5.45799637564653
30
0
41
1
10
-24
20
-4.42753733029454
30
0
41
1
10
-24
20
-3.35000222974921
30
0
41
1
10
-24
20
-2.23771741989395
30
0
41
1
10
-24
20
-1.30515932004789
30
0
41
1
10
-24
20
-0.551100854738877
30
0
41
1
10
-24
20
-2.454147534E-07
30
0
41
1
10
-24
20
0.551100895559586
30
0
41
1
10
-24
20
1.30515943417129
30
0
41
1
10
-24
20
2.23771697460674
30
0
41
1
10
-24
20
3.35000208235883
30
0
41
1
10
-24
20
4.4275375451636
30
0
41
1
10
-24
20
5.45799609225458
30
0
41
1
10
-24
20
6.76812911518888
30
0
41
1
10
-24
20
7.94098139760015
30
0
41
1
10
-24
20
9.00198709358403
30
0
41
1
10
-24
20
9.97333275207072
30
0
41
1
10
-24
20
11.0029089912388
30
0
41
1
10
-24
20
11.7782448377074
30
0
41
1
10
-24
20
12.2301460729139
30
0
41
1
10
-24
20
12.4743692733745
30
0
41
1
10
-24
20
12.6094790955194
30
0
41
1
10
-24
20
12.6344684140902
30
0
41
1
10
-24
20
12.631714935392
30
0
0
SPLINE
5
141
100
AcDbEntity
8
SK1
62
256
6
ByLayer
370
18
48
1
60
0
100
AcDbSpline
70
4
71
3
72
9
73
5
40
0
40
0
40
0
40
0
40
0.558773163175105
40
1
40
1
40
1
40
1
41
1
10
-1.49503997793928
20
13.8252670527505
30
0
41
1
10
-1.49503997793926
20
13.8253385716389
30
0
41
1
10
-1.49503997793928
20
13.8032101813892
30
0
41
1
10
-1.49503997793928
20
13.7451767930811
30
0
41
1
10
-1.49503997793928
20
13.7130156697484
30
0
0
SPLINE
5
142
100
AcDbEntity
8
SK1
62
256
6
ByLayer
370
13
48
1
60
0
100
AcDbSpline
70
4
71
3
72
20
73
16
40
0
40
0
40
0
40
0
40
0.0283171876598571
40
0.0975854516594247
40
0.166853715658992
40
0.305390243658128
40
0.443926771657263
40
0.513195035656831
40
0.582463299656398
40
0.720999827655534
40
0.790268091655101
40
0.859536355654669
40
0.928804619654236
40
0.998072883653804
40
1
40
1
40
1
40
1
41
1
10
-1.49503997793928
20
13.7130156697481
30
0
41
1
10
-1.49503997793928
20
13.6907766312131
30
0
41
1
10
-1.49503997793928
20
13.6033357132479
30
0
41
1
10
-1.49503997793928
20
13.3930993868039
30
0
41
1
10
-1.49503997793928
20
12.9130991355629
30
0
41
1
10
-1.49503997793928
20
12.0867937065467
30
0
41
1
10
-1.49503997793928
20
10.9917340076615
30
0
41
1
10
-1.49503997793928
20
9.96541209516295
30
0
41
1
10
-1.49503997793928
20
8.84271184628204
30
0
41
1
10
-1.49503997793928
20
7.58102884110858
30
0
41
1
10
-1.49503997793928
20
6.18114524290198
30
0
41
1
10
-1.49503997793928
20
5.06527592408099
30
0
41
1
10
-1.49503997793928
20
3.88412508952482
30
0
41
1
10
-1.49503997793928
20
3.04345441166049
30
0
41
1
10
-1.49503997793928
20
2.60753527399982
30
0
41
1
10
-1.49503997793928
20
2.59572866980201
30
0
0
SPLINE
5
143
100
AcDbEntity
8
SK1
62
256
6
ByLayer
370
13
48
1
60
0
100
AcDbSpline
70
4
71
3
72
20
73
16
40
0
40
0
40
0
40
0
40
0.0019270700262924
40
0.0711953294839218
40
0.140463588941551
40
0.209731848399181
40
0.27900010785681
40
0.417536626772069
40
0.486804886229698
40
0.556073145687327
40
0.694609664602586
40
0.833146183517845
40
0.902414442975474
40
0.971682702433104
40
1
40
1
40
1
40
1
41
1
10
-1.49503997793928
20
-2.59572959682796
30
0
41
1
10
-1.49503997793928
20
-2.60753591899177
30
0
41
1
10
-1.49503997793928
20
-3.04345481646683
30
0
41
1
10
-1.49503997793928
20
-3.88412534084222
30
0
41
1
10
-1.49503997793928
20
-5.0652758228772
30
0
41
1
10
-1.49503997793928
20
-6.18114538947242
30
0
41
1
10
-1.49503997793928
20
-7.58102898252227
30
0
41
1
10
-1.49503997793928
20
-8.84271185764786
30
0
41
1
10
-1.49503997793928
20
-9.96541221253273
30
0
41
1
10
-1.49503997793928
20
-10.9917337096027
30
0
41
1
10
-1.49503997793928
20
-12.0867940390283
30
0
41
1
10
-1.49503997793928
20
-12.9130985214152
30
0
41
1
10
-1.49503997793928
20
-13.3930994871677
30
0
41
1
10
-1.49503997793931
20
-13.6033356716184
30
0
41
1
10
-1.49503997793931
20
-13.6907765201874
30
0
41
1
10
-1.49503997793931
20
-13.7130155967632
30
0
0
SPLINE
5
144
100
AcDbEntity
8
SK1
62
256
6
ByLayer
370
18
48
1
60
0
100
AcDbSpline
70
4
71
3
72
9
73
5
40
0
40
0
40
0
40
0
40
0.44255886788058
40
1
40
1
40
1
40
1
41
1
10
-1.49503997793931
20
-13.7130150344734
30
0
41
1
10
-1.49503997793931
20
-13.7451762619456
30
0
41
1
10
-1.49503997793931
20
-13.8030351842543
30
0
41
1
10
-1.49503997793928
20
-13.8252049750438
30
0
41
1
10
-1.49503997793928
20
-13.8252670344729
30
0
0
SPLINE
5
145
100
AcDbEntity
8
SK1
62
256
6
ByLayer
370
18
48
1
60
0
100
AcDbSpline
70
4
71
3
72
21
73
17
40
0
40
0
40
0
40
0
40
0.0053471909143144
40
0.0675275880699278
40
0.129707985225541
40
0.191888382381154
40
0.254068779536768
40
0.378429573847995
40
0.440609971003608
40
0.502790368159221
40
0.627151162470448
40
0.751511956781675
40
0.813692353937288
40
0.875872751092902
40
0.938053148248515
40
1
40
1
40
1
40
1
41
1
10
-1.7
20
-2.58377808521789
30
0
41
1
10
-1.7
20
-2.6211130853342
30
0
41
1
10
-1.7
20
-3.09163207213677
30
0
41
1
10
-1.7
20
-3.97134131573901
30
0
41
1
10
-1.7
20
-5.16941096177055
30
0
41
1
10
-1.7
20
-6.29922705440438
30
0
41
1
10
-1.7
20
-7.71376588282689
30
0
41
1
10
-1.7
20
-8.98995375595479
30
0
41
1
10
-1.7
20
-10.1227281115305
30
0
41
1
10
-1.7
20
-11.1580265629749
30
0
41
1
10
-1.7
20
-12.2637795792515
30
0
41
1
10
-1.7
20
-13.0984067777707
30
0
41
1
10
-1.7
20
-13.5829959818305
30
0
41
1
10
-1.7
20
-13.8477062499051
30
0
41
1
10
-1.7
20
-14.0038343026436
30
0
41
1
10
-1.7
20
-14.0272338769359
30
0
41
1
10
-1.70000000000002
20
-14.01581195854
30
0
0
SPLINE
5
146
100
AcDbEntity
8
SK1
62
256
6
ByLayer
370
18
48
1
60
0
100
AcDbSpline
70
4
71
3
72
21
73
17
40
0
40
0
40
0
40
0
40
0.0619470342640194
40
0.124127416948908
40
0.186307799633797
40
0.248488182318686
40
0.372848947688464
40
0.497209713058242
40
0.559390095743131
40
0.62157047842802
40
0.745931243797798
40
0.808111626482687
40
0.870292009167576
40
0.932472391852465
40
0.994652774537354
40
1
40
1
40
1
40
1
41
1
10
-1.70000000000002
20
14.0158119278636
30
0
41
1
10
-1.7
20
14.0272339861286
30
0
41
1
10
-1.7
20
14.0038349661385
30
0
41
1
10
-1.7
20
13.8477064954836
30
0
41
1
10
-1.7
20
13.5829958824317
30
0
41
1
10
-1.7
20
13.0984073948343
30
0
41
1
10
-1.7
20
12.2637792369573
30
0
41
1
10
-1.7
20
11.158026865053
30
0
41
1
10
-1.7
20
10.1227279817209
30
0
41
1
10
-1.7
20
8.9899537434076
30
0
41
1
10
-1.7
20
7.71376573381551
30
0
41
1
10
-1.7
20
6.29922693017525
30
0
41
1
10
-1.7
20
5.16941104441418
30
0
41
1
10
-1.7
20
3.97134104745157
30
0
41
1
10
-1.7
20
3.09163174208075
30
0
41
1
10
-1.7
20
2.62111254506641
30
0
41
1
10
-1.7
20
2.58377729734613
30
0
0
SPLINE
5
147
100
AcDbEntity
8
SK1
62
256
6
ByLayer
370
18
48
1
60
0
100
AcDbSpline
70
4
71
3
72
39
73
35
40
0
40
0
40
0
40
0
40
0.0277680114836551
40
0.055546362216999
40
0.0833247129503431
40
0.111103063683687
40
0.166659765150375
40
0.222216466617063
40
0.249994817350407
40
0.277773168083751
40
0.333329869550439
40
0.361108220283783
40
0.388886571017127
40
0.416664921750471
40
0.444443272483815
40
0.472221623217159
40
0.486110798583831
40
0.499999973950503
40
0.513889149317175
40
0.527778324683847
40
0.555556675417191
40
0.583335026150535
40
0.611113376883879
40
0.638891727617223
40
0.666670078350567
40
0.722226779817255
40
0.750005130550599
40
0.777783481283943
40
0.833340182750631
40
0.888896884217319
40
0.916675234950663
40
0.944453585684007
40
0.972231936417351
40
1
40
1
40
1
40
1
41
1
10
-22.5
20
13.4936008037364
30
0
41
1
10
-22.5
20
13.5046599455275
30
0
41
1
10
-22.5
20
13.482197290537
30
0
41
1
10
-22.5
20
13.3308795934982
30
0
41
1
10
-22.5
20
13.0738789920944
30
0
41
1
10
-22.5
20
12.6015916721314
30
0
41
1
10
-22.5
20
11.7892769425394
30
0
41
1
10
-22.5
20
10.7121918739409
30
0
41
1
10
-22.5
20
9.70096045673193
30
0
41
1
10
-22.5
20
8.5951948167403
30
0
41
1
10
-22.5
20
7.35789505897995
30
0
41
1
10
-22.5
20
5.98264719956148
30
0
41
1
10
-22.5
20
4.89022238185547
30
0
41
1
10
-22.5
20
3.73751305004353
30
0
41
1
10
-22.5
20
2.52988134516508
30
0
41
1
10
-22.5
20
1.48826022368627
30
0
41
1
10
-22.5
20
0.637225639727404
30
0
41
1
10
-22.5
20
-1.01300202E-07
30
0
41
1
10
-22.5
20
-0.63722566300541
30
0
41
1
10
-22.5
20
-1.48826017841199
30
0
41
1
10
-22.5
20
-2.52988151772914
30
0
41
1
10
-22.5
20
-3.73751327283387
30
0
41
1
10
-22.5
20
-4.89022224945154
30
0
41
1
10
-22.5
20
-5.98264738368823
30
0
41
1
10
-22.5
20
-7.35789518762175
30
0
41
1
10
-22.5
20
-8.59519482612015
30
0
41
1
10
-22.5
20
-9.70096055319001
30
0
41
1
10
-22.5
20
-10.7121915826386
30
0
41
1
10
-22.5
20
-11.7892772585257
30
0
41
1
10
-22.5
20
-12.6015910628856
30
0
41
1
10
-22.5
20
-13.0738790940806
30
0
41
1
10
-22.5
20
-13.3308793310681
30
0
41
1
10
-22.5
20
-13.4821969002347
30
0
41
1
10
-22.5
20
-13.504659949057
30
0
41
1
10
-22.5
20
-13.4936006584938
30
0
0
SPLINE
5
148
100
AcDbEntity
8
SK1
62
256
6
ByLayer
370
18
48
1
60
0
100
AcDbSpline
70
4
71
3
72
50
73
46
40
0
40
0
40
0
40
0
40
0.125000000000012
40
0.125000000000012
40
0.250000000000024
40
0.250000000000024
40
0.312500000000031
40
0.312500000000031
40
0.375000000000038
40
0.375000000000038
40
0.437500000000045
40
0.437500000000045
40
0.468750000000048
40
0.468750000000048
40
0.48437500000005
40
0.48437500000005
40
0.500000000000052
40
0.500000000000052
40
0.515625000000054
40
0.515625000000054
40
0.523437500000057
40
0.523437500000057
40
0.531250000000059
40
0.531250000000059
40
0.535156250000059
40
0.535156250000059
40
0.539062500000059
40
0.539062500000059
40
0.546875000000059
40
0.546875000000059
40
0.562500000000056
40
0.562500000000056
40
0.578125000000054
40
0.578125000000054
40
0.593750000000052
40
0.593750000000052
40
0.625000000000048
40
0.625000000000048
40
0.68750000000004
40
0.68750000000004
40
0.750000000000032
40
0.750000000000032
40
0.875000000000016
40
0.875000000000016
40
1
40
1
40
1
40
1
41
1
10
-1.49503997793928
20
-2.59572959682799
30
0
41
1
10
-1.50259580380231
20
-2.54970538090487
30
0
41
1
10
-1.51044407919379
20
-2.5037485497009
30
0
41
1
10
-1.52696140207523
20
-2.41209242042987
30
0
41
1
10
-1.53561964544302
20
-2.36637992038092
30
0
41
1
10
-1.5496214994392
20
-2.29823508774663
30
0
41
1
10
-1.55445799280432
20
-2.27560423600821
30
0
41
1
10
-1.56462503300465
20
-2.23061031941455
30
0
41
1
10
-1.56994933734997
20
-2.20824327444524
30
0
41
1
10
-1.58141440210635
20
-2.1639829941042
30
0
41
1
10
-1.58752132339228
20
-2.14206819971534
30
0
41
1
10
-1.59800183776959
20
-2.11000295822438
30
0
41
1
10
-1.60173135359587
20
-2.09941136011767
30
0
41
1
10
-1.60792208521562
20
-2.0840854996479
30
0
41
1
10
-1.61008417279068
20
-2.0790771956942
30
0
41
1
10
-1.61471614069212
20
-2.06937654210969
30
0
41
1
10
-1.61717970743425
20
-2.06467763004105
30
0
41
1
10
-1.62266900676535
20
-2.05586039978144
30
0
41
1
10
-1.62570082643286
20
-2.05168607565219
30
0
41
1
10
-1.63098239203809
20
-2.04685996014615
30
0
41
1
10
-1.6329019457323
20
-2.04547928392895
30
0
41
1
10
-1.63699263810763
20
-2.04373469956386
30
0
41
1
10
-1.63921911624004
20
-2.04338149066749
30
0
41
1
10
-1.64253578152041
20
-2.04402974687966
30
0
41
1
10
-1.64365346396515
20
-2.04444453700538
30
0
41
1
10
-1.64576913847839
20
-2.04559596629972
30
0
41
1
10
-1.64678471429062
20
-2.04633307019134
30
0
41
1
10
-1.64972344115721
20
-2.04895713823333
30
0
41
1
10
-1.65146277058666
20
-2.05118187975825
30
0
41
1
10
-1.65615085025311
20
-2.05848683766303
30
0
41
1
10
-1.6585367992972
20
-2.06399527606521
30
0
41
1
10
-1.66277344227467
20
-2.07547629075165
30
0
41
1
10
-1.66455510466849
20
-2.0813878802806
30
0
41
1
10
-1.66776761506961
20
-2.09338046474815
30
0
41
1
10
-1.66917976470286
20
-2.09942277841125
30
0
41
1
10
-1.67305217630947
20
-2.11760538297838
30
0
41
1
10
-1.6751594901484
20
-2.12981712458023
30
0
41
1
10
-1.68075232756121
20
-2.16659121971193
30
0
41
1
10
-1.68351230038941
20
-2.19134004598717
30
0
41
1
10
-1.68813273270565
20
-2.24066381962936
30
0
41
1
10
-1.68996451253322
20
-2.26528111364473
30
0
41
1
10
-1.69458987013775
20
-2.33904299616424
30
0
41
1
10
-1.6965250123217
20
-2.38809848078014
30
0
41
1
10
-1.69914629015307
20
-2.48605219520391
30
0
41
1
10
-1.69980283176194
20
-2.53494813104055
30
0
41
1
10
-1.7
20
-2.58377808521789
30
0
0
SPLINE
5
149
100
AcDbEntity
8
SK1
62
256
6
ByLayer
370
18
48
1
60
0
100
AcDbSpline
70
4
71
3
72
8
73
4
40
0
40
0
40
0
40
0
40
1
40
1
40
1
40
1
41
1
10
-1.30710678118655
20
-3.62853433720642
30
0
41
1
10
-1.37356947571646
20
-3.29172452904805
30
0
41
1
10
-1.4372004972023
20
-2.94804273884375
30
0
41
1
10
-1.49503997793928
20
-2.59572959682799
30
0
0
SPLINE
5
14A
100
AcDbEntity
8
SK1
62
256
6
ByLayer
370
18
48
1
60
0
100
AcDbSpline
70
4
71
3
72
8
73
4
40
0
40
0
40
0
40
0
40
1
40
1
40
1
40
1
41
1
10
-1.49503997793928
20
2.59572866974992
30
0
41
1
10
-1.43720046286555
20
2.94804131885212
30
0
41
1
10
-1.37356940710868
20
3.29172262772087
30
0
41
1
10
-1.30710678118655
20
3.62853202212773
30
0
0
SPLINE
5
14B
100
AcDbEntity
8
SK1
62
256
6
ByLayer
370
18
48
1
60
0
100
AcDbSpline
70
4
71
3
72
50
73
46
40
0
40
0
40
0
40
0
40
0.125000000000011
40
0.125000000000011
40
0.250000000000021
40
0.250000000000021
40
0.312500000000027
40
0.312500000000027
40
0.375000000000032
40
0.375000000000032
40
0.406250000000035
40
0.406250000000035
40
0.421875000000036
40
0.421875000000036
40
0.437500000000038
40
0.437500000000038
40
0.453125000000039
40
0.453125000000039
40
0.460937500000039
40
0.460937500000039
40
0.468750000000038
40
0.468750000000038
40
0.476562500000038
40
0.476562500000038
40
0.484375000000037
40
0.484375000000037
40
0.492187500000037
40
0.492187500000037
40
0.500000000000036
40
0.500000000000036
40
0.515625000000035
40
0.515625000000035
40
0.531250000000034
40
0.531250000000034
40
0.562500000000032
40
0.562500000000032
40
0.625000000000028
40
0.625000000000028
40
0.687500000000023
40
0.687500000000023
40
0.750000000000019
40
0.750000000000019
40
0.87500000000001
40
0.87500000000001
40
1
40
1
40
1
40
1
41
1
10
-1.7
20
2.58377729734613
30
0
41
1
10
-1.69980436369318
20
2.53532682713825
30
0
41
1
10
-1.69915633746155
20
2.48678291130128
30
0
41
1
10
-1.69657077641125
20
2.38945991149225
30
0
41
1
10
-1.69465688317244
20
2.34062742639441
30
0
41
1
10
-1.69011547560279
20
2.26744567235394
30
0
41
1
10
-1.68832031406806
20
2.24305704289955
30
0
41
1
10
-1.68382251839573
20
2.19430149785723
30
0
41
1
10
-1.6811538035131
20
2.16993349213547
30
0
41
1
10
-1.67575012136615
20
2.13342095957782
30
0
41
1
10
-1.67370679113651
20
2.12121687034826
30
0
41
1
10
-1.66999109272727
20
2.10307013790924
30
0
41
1
10
-1.6686459486251
20
2.09706546109075
30
0
41
1
10
-1.66562961649734
20
2.08519083778748
30
0
41
1
10
-1.66396430018823
20
2.07931848353303
30
0
41
1
10
-1.6600558123808
20
2.06781172737621
30
0
41
1
10
-1.65780271049239
20
2.06209889338854
30
0
41
1
10
-1.65360265881839
20
2.05440095769973
30
0
41
1
10
-1.65203540861354
20
2.05194214116116
30
0
41
1
10
-1.64851622596237
20
2.04772090624601
30
0
41
1
10
-1.64651873271588
20
2.04593477970201
30
0
41
1
10
-1.64226262858723
20
2.043768326699
30
0
41
1
10
-1.63997873447313
20
2.04341449775865
30
0
41
1
10
-1.6356843696697
20
2.04410116240959
30
0
41
1
10
-1.63361913581856
20
2.0450986814044
30
0
41
1
10
-1.62982987335099
20
2.04777834300637
30
0
41
1
10
-1.62808309003236
20
2.04945955976308
30
0
41
1
10
-1.62484301170014
20
2.0531239146128
30
0
41
1
10
-1.62333314102943
20
2.05512691093279
30
0
41
1
10
-1.61901669792691
20
2.06146559975113
30
0
41
1
10
-1.61642392925381
20
2.06612103362772
30
0
41
1
10
-1.61160259165956
20
2.07573673930193
30
0
41
1
10
-1.60936320218998
20
2.08073614174975
30
0
41
1
10
-1.60299914819286
20
2.09599696577877
30
0
41
1
10
-1.59920684184681
20
2.10654042134561
30
0
41
1
10
-1.58850203306027
20
2.13871110702169
30
0
41
1
10
-1.58228349561369
20
2.16081267675321
30
0
41
1
10
-1.57063755711233
20
2.20542457669759
30
0
41
1
10
-1.56523752837914
20
2.22799607735607
30
0
41
1
10
-1.55494638829134
20
2.27335583269641
30
0
41
1
10
-1.55006067855432
20
2.29615277543081
30
0
41
1
10
-1.53593092606574
20
2.36476035150477
30
0
41
1
10
-1.52720389146864
20
2.41078220609728
30
0
41
1
10
-1.510557364089
20
2.5030840028657
30
0
41
1
10
-1.50265060758178
20
2.54937072424823
30
0
41
1
10
-1.49503997793928
20
2.59572866980201
30
0
0
SPLINE
5
14C
100
AcDbEntity
8
SK1
62
256
6
ByLayer
370
18
48
1
60
0
100
AcDbSpline
70
4
71
3
72
28
73
24
40
0
40
0
40
0
40
0
40
0.0625
40
0.0625
40
0.125
40
0.125
40
0.25
40
0.25
40
0.375
40
0.375
40
0.5
40
0.5
40
0.53125
40
0.53125
40
0.5625
40
0.5625
40
0.625
40
0.625
40
0.75
40
0.75
40
0.875
40
0.875
40
1
40
1
40
1
40
1
41
1
10
-1.7
20
-2.58377808521789
30
0
41
1
10
-1.71653480458672
20
-2.4797818566588
30
0
41
1
10
-1.73252928227532
20
-2.37518275958956
30
0
41
1
10
-1.76321329032666
20
-2.16467276723154
30
0
41
1
10
-1.7779104307611
20
-2.05868937391003
30
0
41
1
10
-1.8194991935238
20
-1.74011907259904
30
0
41
1
10
-1.84395869573467
20
-1.52647783394633
30
0
41
1
10
-1.88456941336776
20
-1.09633072422011
30
0
41
1
10
-1.90073152159664
20
-0.879827175945792
30
0
41
1
10
-1.92269285742202
20
-0.443534065874189
30
0
41
1
10
-1.9285260192795
20
-0.2237512458141
30
0
41
1
10
-1.92857376506791
20
0.0532112388235646
30
0
41
1
10
-1.92821915648835
20
0.108715900509111
30
0
41
1
10
-1.92678890529307
20
0.219949147197781
30
0
41
1
10
-1.92571062209051
20
0.275747908317783
30
0
41
1
10
-1.92143351430276
20
0.442459814342243
30
0
41
1
10
-1.91719408999322
20
0.552958450347262
30
0
41
1
10
-1.90057185673113
20
0.882620801089502
30
0
41
1
10
-1.88427766240595
20
1.09995043784016
30
0
41
1
10
-1.84353399204588
20
1.53043779083347
30
0
41
1
10
-1.81907192909576
20
1.7435914590406
30
0
41
1
10
-1.76383853333438
20
2.16627904107367
30
0
41
1
10
-1.7330653294344
20
2.37581216989977
30
0
41
1
10
-1.7
20
2.58377729734613
30
0
0
SPLINE
5
14D
100
AcDbEntity
8
1
62
256
6
ByLayer
370
18
48
1
60
0
100
AcDbSpline
70
4
71
2
72
6
73
3
40
0
40
0
40
0
40
1
40
1
40
1
41
1.03186391735993
10
40.0000100019494
20
-26.8031513524259
30
0
41
0.729637973226922
10
40.0000100019494
20
-27.0031513524259
30
0
41
1.03186391735993
10
40.2000100019494
20
-27.0031513524259
30
0
0
SPLINE
5
14E
100
AcDbEntity
8
1
62
256
6
ByLayer
370
18
48
1
60
0
100
AcDbSpline
70
4
71
2
72
6
73
3
40
0
40
0
40
0
40
1
40
1
40
1
41
1.03186391735993
10
40.2000100019494
20
-27.0031513524259
30
0
41
1.03138264657361
10
40.3222210551437
20
-27.0031513524259
30
0
41
1.03186391735993
10
40.4442041600888
20
-26.9956905461133
30
0
0
SPLINE
5
14F
100
AcDbEntity
8
1
62
256
6
ByLayer
370
18
48
1
60
0
100
AcDbSpline
70
4
71
2
72
6
73
3
40
0
40
0
40
0
40
1
40
1
40
1
41
1.03186391735993
10
59.7999899980506
20
-27.0031513524258
30
0
41
1.03138264657361
10
59.6777789448563
20
-27.0031513524258
30
0
41
1.03186391735993
10
59.5557958399112
20
-26.9956905461133
30
0
0
SPLINE
5
150
100
AcDbEntity
8
1
62
256
6
ByLayer
370
18
48
1
60
0
100
AcDbSpline
70
4
71
2
72
6
73
3
40
0
40
0
40
0
40
1
40
1
40
1
41
1.03186391735993
10
59.9999899980506
20
-26.8031513524259
30
0
41
0.729637973226922
10
59.9999899980506
20
-27.0031513524258
30
0
41
1.03186391735993
10
59.7999899980506
20
-27.0031513524258
30
0
0
SPLINE
5
151
100
AcDbEntity
8
1
62
256
6
ByLayer
370
18
48
1
60
0
100
AcDbSpline
70
4
71
2
72
6
73
3
40
0
40
0
40
0
40
1
40
1
40
1
41
1.03186391735993
10
59.7999899980506
20
-23.9968486475742
30
0
41
0.729637973226922
10
59.9999899980506
20
-23.9968486475741
30
0
41
1.03186391735993
10
59.9999899980506
20
-24.1968486475742
30
0
0
SPLINE
5
152
100
AcDbEntity
8
1
62
256
6
ByLayer
370
18
48
1
60
0
100
AcDbSpline
70
4
71
2
72
6
73
3
40
0
40
0
40
0
40
1
40
1
40
1
41
1.03186391735993
10
59.5557958399112
20
-24.0043094538867
30
0
41
1.03138264657361
10
59.6777789448563
20
-23.9968486475742
30
0
41
1.03186391735993
10
59.7999899980506
20
-23.9968486475742
30
0
0
SPLINE
5
153
100
AcDbEntity
8
1
62
256
6
ByLayer
370
18
48
1
60
0
100
AcDbSpline
70
4
71
3
72
8
73
4
40
0
40
0
40
0
40
0
40
1
40
1
40
1
40
1
41
1
10
42.541266989223
20
-26.9245614617607
30
0
41
1
10
42.5544387873141
20
-26.9240004053875
30
0
41
1
10
42.5675351982697
20
-26.9220991357971
30
0
41
1
10
42.5803305836088
20
-26.918874975218
30
0
0
SPLINE
5
154
100
AcDbEntity
8
1
62
256
6
ByLayer
370
18
48
1
60
0
100
AcDbSpline
70
4
71
3
72
8
73
4
40
0
40
0
40
0
40
0
40
1
40
1
40
1
40
1
41
1
10
57.4196694163912
20
-24.081125024782
30
0
41
1
10
57.432464869562
20
-24.0779008471108
30
0
41
1
10
57.4455611420818
20
-24.0759995976199
30
0
41
1
10
57.458733010777
20
-24.0754385382393
30
0
0
SPLINE
5
155
100
AcDbEntity
8
1
62
256
6
ByLayer
370
18
48
1
60
0
100
AcDbSpline
70
4
71
3
72
8
73
4
40
0
40
0
40
0
40
0
40
1
40
1
40
1
40
1
41
1
10
57.458733010784
20
-26.924561461761
30
0
41
1
10
57.4455611270319
20
-26.9240004017392
30
0
41
1
10
57.4324648843562
20
-26.9220991566169
30
0
41
1
10
57.4196694163936
20
-26.9188749752186
30
0
0
LINE
5
7D
100
AcDbEntity
8
1
62
256
6
ByLayer
370
18
48
1
60
0
100
AcDbLine
10
20
20
20
30
0
11
0.3
21
20
31
0
39
0
210
0
220
0
230
1
0
LINE
5
7E
100
AcDbEntity
8
1
62
256
6
ByLayer
370
18
48
1
60
0
100
AcDbLine
10
0.3
20
-20
30
0
11
20.279208
21
-20
31
0
39
0
210
0
220
0
230
1
0
LINE
5
7F
100
AcDbEntity
8
1
62
256
6
ByLayer
370
18
48
1
60
0
100
AcDbLine
10
0
20
-19.7
30
0
11
0.3
21
-20
31
0
39
0
210
0
220
0
230
1
0
LINE
5
80
100
AcDbEntity
8
1
62
256
6
ByLayer
370
18
48
1
60
0
100
AcDbLine
10
0.3
20
20
30
0
11
0
21
19.7
31
0
39
0
210
0
220
0
230
1
0
LINE
5
81
100
AcDbEntity
8
80
62
256
6
ByLayer
370
18
48
1
60
0
100
AcDbLine
10
0
20
0
30
0
11
-5
21
0
31
0
39
0
210
0
220
0
230
1
0
LINE
5
82
100
AcDbEntity
8
81
62
256
6
ByLayer
370
18
48
1
60
0
100
AcDbLine
10
60
20
-27
30
0
11
65
21
-27
31
0
39
0
210
0
220
0
230
1
0
LINE
5
83
100
AcDbEntity
8
1
62
256
6
ByLayer
370
18
48
1
60
0
100
AcDbLine
10
53.897124
20
-24.325
30
0
11
53.348584
21
-24.325
31
0
39
0
210
0
220
0
230
1
0
LINE
5
84
100
AcDbEntity
8
1
62
256
6
ByLayer
370
18
48
1
60
0
100
AcDbLine
10
53.897124
20
-26.675
30
0
11
53.348584
21
-26.675
31
0
39
0
210
0
220
0
230
1
0
LINE
5
85
100
AcDbEntity
8
1
62
256
6
ByLayer
370
18
48
1
60
0
100
AcDbLine
10
56.450863
20
-26.675
30
0
11
54.81552
21
-26.675
31
0
39
0
210
0
220
0
230
1
0
LINE
5
86
100
AcDbEntity
8
1
62
256
6
ByLayer
370
18
48
1
60
0
100
AcDbLine
10
53.896886
20
-24.350004
30
0
11
53.897124
21
-24.325
31
0
39
0
210
0
220
0
230
1
0
LINE
5
87
100
AcDbEntity
8
1
62
256
6
ByLayer
370
18
48
1
60
0
100
AcDbLine
10
54.81552
20
-24.325
30
0
11
53.897124
21
-24.325
31
0
39
0
210
0
220
0
230
1
0
LINE
5
88
100
AcDbEntity
8
1
62
256
6
ByLayer
370
18
48
1
60
0
100
AcDbLine
10
54.81552
20
-26.675
30
0
11
53.897124
21
-26.675
31
0
39
0
210
0
220
0
230
1
0
LINE
5
89
100
AcDbEntity
8
1
62
256
6
ByLayer
370
18
48
1
60
0
100
AcDbLine
10
54.81552
20
-26.675
30
0
11
54.815283
21
-26.649996
31
0
39
0
210
0
220
0
230
1
0
LINE
5
8A
100
AcDbEntity
8
1
62
256
6
ByLayer
370
18
48
1
60
0
100
AcDbLine
10
53.897124
20
-26.675
30
0
11
53.896886
21
-26.649996
31
0
39
0
210
0
220
0
230
1
0
LINE
5
8B
100
AcDbEntity
8
1
62
256
6
ByLayer
370
18
48
1
60
0
100
AcDbLine
10
56.450863
20
-24.325
30
0
11
54.81552
21
-24.325
31
0
39
0
210
0
220
0
230
1
0
LINE
5
8C
100
AcDbEntity
8
1
62
256
6
ByLayer
370
18
48
1
60
0
100
AcDbLine
10
54.815283
20
-24.350004
30
0
11
54.81552
21
-24.325
31
0
39
0
210
0
220
0
230
1
0
LINE
5
8D
100
AcDbEntity
8
1
62
256
6
ByLayer
370
18
48
1
60
0
100
AcDbLine
10
23.6
20
-26.675
30
0
11
23.060721
21
-26.675
31
0
39
0
210
0
220
0
230
1
0
LINE
5
8E
100
AcDbEntity
8
1
62
256
6
ByLayer
370
13
48
1
60
0
100
AcDbLine
10
23.6
20
-21.15
30
0
11
21.598885
21
-21.15
31
0
39
0
210
0
220
0
230
1
0
LINE
5
8F
100
AcDbEntity
8
1
62
256
6
ByLayer
370
13
48
1
60
0
100
AcDbLine
10
23.6
20
-26.675
30
0
11
23.6
21
-21.15
31
0
39
0
210
0
220
0
230
1
0
LINE
5
90
100
AcDbEntity
8
1
62
256
6
ByLayer
370
18
48
1
60
0
100
AcDbLine
10
27.293237
20
-26.675
30
0
11
23.6
21
-26.675
31
0
39
0
210
0
220
0
230
1
0
LINE
5
91
100
AcDbEntity
8
1
62
256
6
ByLayer
370
13
48
1
60
0
100
AcDbLine
10
23.6
20
-20.15
30
0
11
23.6
21
-21.15
31
0
39
0
210
0
220
0
230
1
0
LINE
5
92
100
AcDbEntity
8
1
62
256
6
ByLayer
370
13
48
1
60
0
100
AcDbLine
10
27.293237
20
-21.15
30
0
11
23.6
21
-21.15
31
0
39
0
210
0
220
0
230
1
0
LINE
5
93
100
AcDbEntity
8
1
62
256
6
ByLayer
370
18
48
1
60
0
100
AcDbLine
10
27.293237
20
-26.675
30
0
11
27.293237
21
-21.15
31
0
39
0
210
0
220
0
230
1
0
LINE
5
94
100
AcDbEntity
8
1
62
256
6
ByLayer
370
18
48
1
60
0
100
AcDbLine
10
27.293237
20
-26.675
30
0
11
27.679298
21
-26.675
31
0
39
0
210
0
220
0
230
1
0
LINE
5
95
100
AcDbEntity
8
1
62
256
6
ByLayer
370
18
48
1
60
0
100
AcDbLine
10
27.8
20
-26.675
30
0
11
27.679216
21
-26.675
31
0
39
0
210
0
220
0
230
1
0
LINE
5
96
100
AcDbEntity
8
1
62
256
6
ByLayer
370
18
48
1
60
0
100
AcDbLine
10
27.679216
20
-21.15
30
0
11
27.679216
21
-26.675
31
0
39
0
210
0
220
0
230
1
0
LINE
5
97
100
AcDbEntity
8
1
62
256
6
ByLayer
370
13
48
1
60
0
100
AcDbLine
10
27.8
20
-21.15
30
0
11
27.679216
21
-21.15
31
0
39
0
210
0
220
0
230
1
0
LINE
5
98
100
AcDbEntity
8
1
62
256
6
ByLayer
370
18
48
1
60
0
100
AcDbLine
10
50.25
20
-26.675
30
0
11
53.348671
21
-26.675
31
0
39
0
210
0
220
0
230
1
0
LINE
5
99
100
AcDbEntity
8
1
62
256
6
ByLayer
370
18
48
1
60
0
100
AcDbLine
10
50.25
20
-24.325
30
0
11
53.348671
21
-24.325
31
0
39
0
210
0
220
0
230
1
0
LINE
5
9A
100
AcDbEntity
8
1
62
256
6
ByLayer
370
18
48
1
60
0
100
AcDbLine
10
53.75
20
-25.451181
30
0
11
53.75
21
-25.548819
31
0
39
0
210
0
220
0
230
1
0
LINE
5
9B
100
AcDbEntity
8
1
62
256
6
ByLayer
370
18
48
1
60
0
100
AcDbLine
10
24.799843
20
-20.15
30
0
11
23.800157
21
-20.15
31
0
39
0
210
0
220
0
230
1
0
LINE
5
9C
100
AcDbEntity
8
1
62
256
6
ByLayer
370
18
48
1
60
0
100
AcDbLine
10
24.800019
20
15
30
0
11
24.008879
21
15
31
0
39
0
210
0
220
0
230
1
0
LINE
5
9D
100
AcDbEntity
8
1
62
256
6
ByLayer
370
18
48
1
60
0
100
AcDbLine
10
42.538001
20
-26.675
30
0
11
50.25
21
-26.675
31
0
39
0
210
0
220
0
230
1
0
LINE
5
9E
100
AcDbEntity
8
1
62
256
6
ByLayer
370
18
48
1
60
0
100
AcDbLine
10
50.25
20
-24.325
30
0
11
50.25
21
-26.675
31
0
39
0
210
0
220
0
230
1
0
LINE
5
9F
100
AcDbEntity
8
1
62
256
6
ByLayer
370
18
48
1
60
0
100
AcDbLine
10
45
20
-24.325
30
0
11
50.25
21
-24.325
31
0
39
0
210
0
220
0
230
1
0
LINE
5
A0
100
AcDbEntity
8
1
62
256
6
ByLayer
370
18
48
1
60
0
100
AcDbLine
10
26.8
20
-20.15
30
0
11
24.8
21
-20.15
31
0
39
0
210
0
220
0
230
1
0
LINE
5
A1
100
AcDbEntity
8
1
62
256
6
ByLayer
370
18
48
1
60
0
100
AcDbLine
10
24.8
20
15
30
0
11
34.3
21
15
31
0
39
0
210
0
220
0
230
1
0
LINE
5
A2
100
AcDbEntity
8
1
62
256
6
ByLayer
370
18
48
1
60
0
100
AcDbLine
10
24.8
20
-20.15
30
0
11
24.8
21
15
31
0
39
0
210
0
220
0
230
1
0
LINE
5
A3
100
AcDbEntity
8
1
62
256
6
ByLayer
370
18
48
1
60
0
100
AcDbLine
10
27.8
20
-26.675
30
0
11
27.8
21
-21.15
31
0
39
0
210
0
220
0
230
1
0
LINE
5
A4
100
AcDbEntity
8
1
62
256
6
ByLayer
370
18
48
1
60
0
100
AcDbLine
10
27.8
20
-26.675
30
0
11
42.538001
21
-26.675
31
0
39
0
210
0
220
0
230
1
0
LINE
5
A5
100
AcDbEntity
8
1
62
256
6
ByLayer
370
18
48
1
60
0
100
AcDbLine
10
42.538001
20
-26.675
30
0
11
42.538001
21
-24.325
31
0
39
0
210
0
220
0
230
1
0
LINE
5
A6
100
AcDbEntity
8
1
62
256
6
ByLayer
370
18
48
1
60
0
100
AcDbLine
10
43.4
20
-13.15
30
0
11
43.4
21
-22.725
31
0
39
0
210
0
220
0
230
1
0
LINE
5
A7
100
AcDbEntity
8
1
62
256
6
ByLayer
370
18
48
1
60
0
100
AcDbLine
10
43.4
20
-13.15
30
0
11
34.3
21
15
31
0
39
0
210
0
220
0
230
1
0
LINE
5
A8
100
AcDbEntity
8
1
62
256
6
ByLayer
370
13
48
1
60
0
100
AcDbLine
10
45
20
-24.325
30
0
11
42.538001
21
-24.325
31
0
39
0
210
0
220
0
230
1
0
LINE
5
A9
100
AcDbEntity
8
1
62
256
6
ByLayer
370
13
48
1
60
0
100
AcDbLine
10
21.438319
20
-17.524364
30
0
11
21.438319
21
-20.15
31
0
39
0
210
0
220
0
230
1
0
LINE
5
AA
100
AcDbEntity
8
1
62
256
6
ByLayer
370
18
48
1
60
0
100
AcDbLine
10
23.8
20
-20.15
30
0
11
23.8
21
15.005458
31
0
39
0
210
0
220
0
230
1
0
LINE
5
AB
100
AcDbEntity
8
1
62
256
6
ByLayer
370
18
48
1
60
0
100
AcDbLine
10
21.988657
20
-20.15
30
0
11
23.8
21
-20.15
31
0
39
0
210
0
220
0
230
1
0
LINE
5
AC
100
AcDbEntity
8
1
62
256
6
ByLayer
370
13
48
1
60
0
100
AcDbLine
10
9.076795
20
19.122283
30
0
11
9.076795
21
5.85989
31
0
39
0
210
0
220
0
230
1
0
LINE
5
AD
100
AcDbEntity
8
1
62
256
6
ByLayer
370
13
48
1
60
0
100
AcDbLine
10
9.336603
20
19.024574
30
0
11
9.336603
21
6.16973
31
0
39
0
210
0
220
0
230
1
0
LINE
5
AE
100
AcDbEntity
8
1
62
256
6
ByLayer
370
13
48
1
60
0
100
AcDbLine
10
6.663397
20
-6.16973
30
0
11
6.663397
21
-19.024574
31
0
39
0
210
0
220
0
230
1
0
LINE
5
AF
100
AcDbEntity
8
1
62
256
6
ByLayer
370
13
48
1
60
0
100
AcDbLine
10
6.923205
20
-5.85989
30
0
11
6.923205
21
-19.122283
31
0
39
0
210
0
220
0
230
1
0
LINE
5
B0
100
AcDbEntity
8
1
62
256
6
ByLayer
370
13
48
1
60
0
100
AcDbLine
10
9.076795
20
-5.85989
30
0
11
9.076795
21
-19.122283
31
0
39
0
210
0
220
0
230
1
0
LINE
5
B1
100
AcDbEntity
8
1
62
256
6
ByLayer
370
13
48
1
60
0
100
AcDbLine
10
9.336603
20
-6.16973
30
0
11
9.336603
21
-19.024574
31
0
39
0
210
0
220
0
230
1
0
LINE
5
B2
100
AcDbEntity
8
1
62
256
6
ByLayer
370
13
48
1
60
0
100
AcDbLine
10
6.663397
20
19.024574
30
0
11
6.663397
21
6.16973
31
0
39
0
210
0
220
0
230
1
0
LINE
5
B3
100
AcDbEntity
8
1
62
256
6
ByLayer
370
13
48
1
60
0
100
AcDbLine
10
6.923205
20
19.122283
30
0
11
6.923205
21
5.85989
31
0
39
0
210
0
220
0
230
1
0
LINE
5
B4
100
AcDbEntity
8
1
62
256
6
ByLayer
370
13
48
1
60
0
100
AcDbLine
10
20.049175
20
-13.915606
30
0
11
20.049175
21
13.915606
31
0
39
0
210
0
220
0
230
1
0
LINE
5
B5
100
AcDbEntity
8
1
62
256
6
ByLayer
370
13
48
1
60
0
100
AcDbLine
10
20.279208
20
17.554472
30
0
11
20.279208
21
15.144869
31
0
39
0
210
0
220
0
230
1
0
LINE
5
B6
100
AcDbEntity
8
1
62
256
6
ByLayer
370
18
48
1
60
0
100
AcDbLine
10
20.009031
20
18.965094
30
0
11
20
21
20
31
0
39
0
210
0
220
0
230
1
0
LINE
5
B7
100
AcDbEntity
8
1
62
256
6
ByLayer
370
13
48
1
60
0
100
AcDbLine
10
20.279208
20
-20
30
0
11
20.279208
21
-15.144869
31
0
39
0
210
0
220
0
230
1
0
LINE
5
B8
100
AcDbEntity
8
1
62
256
6
ByLayer
370
18
48
1
60
0
100
AcDbLine
10
9.076795
20
-19.122283
30
0
11
6.923205
21
-19.122283
31
0
39
0
210
0
220
0
230
1
0
LINE
5
B9
100
AcDbEntity
8
1
62
256
6
ByLayer
370
18
48
1
60
0
100
AcDbLine
10
6.923205
20
-5.85989
30
0
11
9.076795
21
-5.85989
31
0
39
0
210
0
220
0
230
1
0
LINE
5
BA
100
AcDbEntity
8
1
62
256
6
ByLayer
370
18
48
1
60
0
100
AcDbLine
10
6.923205
20
19.122283
30
0
11
9.076795
21
19.122283
31
0
39
0
210
0
220
0
230
1
0
LINE
5
BB
100
AcDbEntity
8
1
62
256
6
ByLayer
370
18
48
1
60
0
100
AcDbLine
10
9.076795
20
5.85989
30
0
11
6.923205
21
5.85989
31
0
39
0
210
0
220
0
230
1
0
LINE
5
BC
100
AcDbEntity
8
1
62
256
6
ByLayer
370
18
48
1
60
0
100
AcDbLine
10
0.3
20
20
30
0
11
0.3
21
-20
31
0
39
0
210
0
220
0
230
1
0
LINE
5
BD
100
AcDbEntity
8
1
62
256
6
ByLayer
370
18
48
1
60
0
100
AcDbLine
10
0
20
19.7
30
0
11
0
21
-19.7
31
0
39
0
210
0
220
0
230
1
0
LINE
5
BE
100
AcDbEntity
8
SK1
62
256
6
ByLayer
370
18
48
1
60
0
100
AcDbLine
10
-0.2
20
-14.083485
30
0
11
-0.2
21
-5.678452
31
0
39
0
210
0
220
0
230
1
0
LINE
5
C0
100
AcDbEntity
8
SK1
62
256
6
ByLayer
370
18
48
1
60
0
100
AcDbLine
10
-0.2
20
14.083485
30
0
11
-0.2
21
5.678452
31
0
39
0
210
0
220
0
230
1
0
LINE
5
C1
100
AcDbEntity
8
SK1
62
256
6
ByLayer
370
13
48
1
60
0
100
AcDbLine
10
-1.307107
20
3.628532
30
0
11
-1.307107
21
-3.628534
31
0
39
0
210
0
220
0
230
1
0
LINE
5
C2
100
AcDbEntity
8
1
62
256
6
ByLayer
370
18
48
1
60
0
100
AcDbLine
10
40.444204
20
-26.995691
30
0
11
41.390989
21
-26.937783
31
0
39
0
210
0
220
0
230
1
0
LINE
5
C3
100
AcDbEntity
8
1
62
256
6
ByLayer
370
18
48
1
60
0
100
AcDbLine
10
40.00001
20
-26.674995
30
0
11
40.00001
21
-26.803151
31
0
39
0
210
0
220
0
230
1
0
LINE
5
C4
100
AcDbEntity
8
1
62
256
6
ByLayer
370
18
48
1
60
0
100
AcDbLine
10
58.609011
20
-24.062217
30
0
11
59.555796
21
-24.004309
31
0
39
0
210
0
220
0
230
1
0
LINE
5
C5
100
AcDbEntity
8
1
62
256
6
ByLayer
370
18
48
1
60
0
100
AcDbLine
10
59.555796
20
-26.995691
30
0
11
58.609011
21
-26.937783
31
0
39
0
210
0
220
0
230
1
0
LINE
5
C6
100
AcDbEntity
8
1
62
256
6
ByLayer
370
18
48
1
60
0
100
AcDbLine
10
59.99999
20
-24.196849
30
0
11
59.99999
21
-26.803151
31
0
39
0
210
0
220
0
230
1
0
LINE
5
C7
100
AcDbEntity
8
1
62
256
6
ByLayer
370
18
48
1
60
0
100
AcDbLine
10
57.851573
20
-24.058705
30
0
11
58.609011
21
-24.062217
31
0
39
0
210
0
220
0
230
1
0
LINE
5
C8
100
AcDbEntity
8
1
62
256
6
ByLayer
370
18
48
1
60
0
100
AcDbLine
10
58.609011
20
-26.937783
30
0
11
57.851573
21
-26.941295
31
0
39
0
210
0
220
0
230
1
0
LINE
5
C9
100
AcDbEntity
8
1
62
256
6
ByLayer
370
18
48
1
60
0
100
AcDbLine
10
58.609011
20
-26.937783
30
0
11
58.609011
21
-24.062217
31
0
39
0
210
0
220
0
230
1
0
LINE
5
CA
100
AcDbEntity
8
1
62
256
6
ByLayer
370
18
48
1
60
0
100
AcDbLine
10
41.390989
20
-26.937783
30
0
11
42.148427
21
-26.941295
31
0
39
0
210
0
220
0
230
1
0
LINE
5
CB
100
AcDbEntity
8
1
62
256
6
ByLayer
370
18
48
1
60
0
100
AcDbLine
10
41.390989
20
-26.937783
30
0
11
41.390989
21
-26.674983
31
0
39
0
210
0
220
0
230
1
0
LINE
5
CC
100
AcDbEntity
8
1
62
256
6
ByLayer
370
13
48
1
60
0
100
AcDbLine
10
57.18134
20
-25.5
30
0
11
53.749782
21
-25.5
31
0
39
0
210
0
220
0
230
1
0
LINE
5
CD
100
AcDbEntity
8
1
62
256
6
ByLayer
370
13
48
1
60
0
100
AcDbLine
10
56.397706
20
-25.697335
30
0
11
53.670484
21
-25.697335
31
0
39
0
210
0
220
0
230
1
0
LINE
5
CE
100
AcDbEntity
8
1
62
256
6
ByLayer
370
13
48
1
60
0
100
AcDbLine
10
53.670484
20
-25.302665
30
0
11
56.397706
21
-25.302665
31
0
39
0
210
0
220
0
230
1
0
LINE
5
CF
100
AcDbEntity
8
1
62
256
6
ByLayer
370
13
48
1
60
0
100
AcDbLine
10
53.664692
20
-25.299244
30
0
11
56.344414
21
-25.299244
31
0
39
0
210
0
220
0
230
1
0
LINE
5
D0
100
AcDbEntity
8
1
62
256
6
ByLayer
370
13
48
1
60
0
100
AcDbLine
10
53.664692
20
-25.700756
30
0
11
56.344414
21
-25.700756
31
0
39
0
210
0
220
0
230
1
0
LINE
5
D1
100
AcDbEntity
8
1
62
256
6
ByLayer
370
13
48
1
60
0
100
AcDbLine
10
53.580781
20
-25.248976
30
0
11
55.636252
21
-25.248976
31
0
39
0
210
0
220
0
230
1
0
LINE
5
D2
100
AcDbEntity
8
1
62
256
6
ByLayer
370
13
48
1
60
0
100
AcDbLine
10
53.580781
20
-25.751024
30
0
11
55.636252
21
-25.751024
31
0
39
0
210
0
220
0
230
1
0
LINE
5
D3
100
AcDbEntity
8
1
62
256
6
ByLayer
370
13
48
1
60
0
100
AcDbLine
10
53.551458
20
-25.867998
30
0
11
55.024167
21
-25.867998
31
0
39
0
210
0
220
0
230
1
0
LINE
5
D4
100
AcDbEntity
8
1
62
256
6
ByLayer
370
13
48
1
60
0
100
AcDbLine
10
53.551458
20
-25.132002
30
0
11
55.024167
21
-25.132002
31
0
39
0
210
0
220
0
230
1
0
LINE
5
D5
100
AcDbEntity
8
1
62
256
6
ByLayer
370
13
48
1
60
0
100
AcDbLine
10
53.398651
20
-26.475984
30
0
11
53.82005
21
-26.475984
31
0
39
0
210
0
220
0
230
1
0
LINE
5
D6
100
AcDbEntity
8
1
62
256
6
ByLayer
370
18
48
1
60
0
100
AcDbLine
10
53.35492
20
-26.65
30
0
11
53.772487
21
-26.65
31
0
39
0
210
0
220
0
230
1
0
LINE
5
D7
100
AcDbEntity
8
1
62
256
6
ByLayer
370
13
48
1
60
0
100
AcDbLine
10
53.772487
20
-26.525438
30
0
11
53.386161
21
-26.525438
31
0
39
0
210
0
220
0
230
1
0
LINE
5
D8
100
AcDbEntity
8
1
62
256
6
ByLayer
370
18
48
1
60
0
100
AcDbLine
10
42.148427
20
-26.941295
30
0
11
42.148427
21
-26.67497
31
0
39
0
210
0
220
0
230
1
0
LINE
5
D9
100
AcDbEntity
8
1
62
256
6
ByLayer
370
18
48
1
60
0
100
AcDbLine
10
42.148427
20
-26.941295
30
0
11
42.541267
21
-26.924561
31
0
39
0
210
0
220
0
230
1
0
LINE
5
DA
100
AcDbEntity
8
1
62
256
6
ByLayer
370
18
48
1
60
0
100
AcDbLine
10
42.580331
20
-26.918875
30
0
11
43.527535
21
-26.6802
31
0
39
0
210
0
220
0
230
1
0
LINE
5
DB
100
AcDbEntity
8
1
62
256
6
ByLayer
370
18
48
1
60
0
100
AcDbLine
10
53.772487
20
-26.65
30
0
11
56.228061
21
-26.65
31
0
39
0
210
0
220
0
230
1
0
LINE
5
DC
100
AcDbEntity
8
1
62
256
6
ByLayer
370
18
48
1
60
0
100
AcDbLine
10
56.472465
20
-24.3198
30
0
11
57.419669
21
-24.081125
31
0
39
0
210
0
220
0
230
1
0
LINE
5
DD
100
AcDbEntity
8
1
62
256
6
ByLayer
370
18
48
1
60
0
100
AcDbLine
10
56.228061
20
-24.35
30
0
11
53.772487
21
-24.35
31
0
39
0
210
0
220
0
230
1
0
LINE
5
DE
100
AcDbEntity
8
1
62
256
6
ByLayer
370
18
48
1
60
0
100
AcDbLine
10
55.024167
20
-25.132002
30
0
11
53.82005
21
-24.524016
31
0
39
0
210
0
220
0
230
1
0
LINE
5
DF
100
AcDbEntity
8
1
62
256
6
ByLayer
370
18
48
1
60
0
100
AcDbLine
10
56.397706
20
-25.302665
30
0
11
56.344414
21
-25.299244
31
0
39
0
210
0
220
0
230
1
0
LINE
5
E0
100
AcDbEntity
8
1
62
256
6
ByLayer
370
18
48
1
60
0
100
AcDbLine
10
56.344414
20
-25.700756
30
0
11
56.397706
21
-25.697335
31
0
39
0
210
0
220
0
230
1
0
LINE
5
E1
100
AcDbEntity
8
1
62
256
6
ByLayer
370
18
48
1
60
0
100
AcDbLine
10
53.82005
20
-26.475984
30
0
11
55.024167
21
-25.867998
31
0
39
0
210
0
220
0
230
1
0
LINE
5
E2
100
AcDbEntity
8
1
62
256
6
ByLayer
370
18
48
1
60
0
100
AcDbLine
10
53.772487
20
-26.65
30
0
11
53.772487
21
-26.525438
31
0
39
0
210
0
220
0
230
1
0
LINE
5
E3
100
AcDbEntity
8
1
62
256
6
ByLayer
370
18
48
1
60
0
100
AcDbLine
10
57.419669
20
-26.918875
30
0
11
56.472465
21
-26.6802
31
0
39
0
210
0
220
0
230
1
0
LINE
5
E4
100
AcDbEntity
8
1
62
256
6
ByLayer
370
18
48
1
60
0
100
AcDbLine
10
57.851573
20
-26.941295
30
0
11
57.458733
21
-26.924561
31
0
39
0
210
0
220
0
230
1
0
LINE
5
E5
100
AcDbEntity
8
1
62
256
6
ByLayer
370
18
48
1
60
0
100
AcDbLine
10
57.851573
20
-26.941295
30
0
11
57.851573
21
-24.058705
31
0
39
0
210
0
220
0
230
1
0
LINE
5
E6
100
AcDbEntity
8
1
62
256
6
ByLayer
370
18
48
1
60
0
100
AcDbLine
10
57.458733
20
-24.075439
30
0
11
57.851573
21
-24.058705
31
0
39
0
210
0
220
0
230
1
0
LINE
5
E7
100
AcDbEntity
8
1
62
256
6
ByLayer
370
18
48
1
60
0
100
AcDbLine
10
53.772487
20
-24.474562
30
0
11
53.772487
21
-24.35
31
0
39
0
210
0
220
0
230
1
0
LINE
5
E8
100
AcDbEntity
8
1
62
256
6
ByLayer
370
18
48
1
60
0
100
AcDbLine
10
53.772487
20
-24.35
30
0
11
53.35492
21
-24.35
31
0
39
0
210
0
220
0
230
1
0
LINE
5
E9
100
AcDbEntity
8
1
62
256
6
ByLayer
370
13
48
1
60
0
100
AcDbLine
10
53.82005
20
-24.524016
30
0
11
53.398651
21
-24.524016
31
0
39
0
210
0
220
0
230
1
0
LINE
5
EA
100
AcDbEntity
8
1
62
256
6
ByLayer
370
13
48
1
60
0
100
AcDbLine
10
53.386161
20
-24.474562
30
0
11
53.772487
21
-24.474562
31
0
39
0
210
0
220
0
230
1
0
LINE
5
EB
100
AcDbEntity
8
SK2
62
256
6
ByLayer
370
18
48
1
60
0
100
AcDbLine
10
-33.975
20
-20
30
0
11
-33.975
21
20
31
0
39
0
210
0
220
0
230
1
0
LINE
5
ED
100
AcDbEntity
8
SK2
62
256
6
ByLayer
370
18
48
1
60
0
100
AcDbLine
10
-1.2875
20
20
30
0
11
-35.975
21
20
31
0
39
0
210
0
220
0
230
1
0
LINE
5
EE
100
AcDbEntity
8
SK2
62
256
6
ByLayer
370
18
48
1
60
0
100
AcDbLine
10
-1.2875
20
-20
30
0
11
-35.975
21
-20
31
0
39
0
210
0
220
0
230
1
0
LINE
5
EF
100
AcDbEntity
8
1
62
256
6
ByLayer
370
18
48
1
60
1
100
AcDbLine
10
-33.975
20
20
30
0
11
-33.514216
21
16.500002
31
0
39
0
210
0
220
0
230
1
0
LINE
5
F0
100
AcDbEntity
8
1
62
256
6
ByLayer
370
18
48
1
60
1
100
AcDbLine
10
-33.514216
20
16.500002
30
0
11
-34.435784
21
16.499998
31
0
39
0
210
0
220
0
230
1
0
LINE
5
F1
100
AcDbEntity
8
1
62
256
6
ByLayer
370
18
48
1
60
1
100
AcDbLine
10
-34.435784
20
16.499998
30
0
11
-33.975
21
20
31
0
39
0
210
0
220
0
230
1
0
LINE
5
F2
100
AcDbEntity
8
1
62
256
6
ByLayer
370
18
48
1
60
1
100
AcDbLine
10
-33.975
20
-20
30
0
11
-34.435784
21
-16.500002
31
0
39
0
210
0
220
0
230
1
0
LINE
5
F3
100
AcDbEntity
8
1
62
256
6
ByLayer
370
18
48
1
60
1
100
AcDbLine
10
-34.435784
20
-16.500002
30
0
11
-33.514216
21
-16.499998
31
0
39
0
210
0
220
0
230
1
0
LINE
5
F4
100
AcDbEntity
8
1
62
256
6
ByLayer
370
18
48
1
60
1
100
AcDbLine
10
-33.514216
20
-16.499998
30
0
11
-33.975
21
-20
31
0
39
0
210
0
220
0
230
1
0
LINE
5
15A
100
AcDbEntity
8
1
62
256
6
ByLayer
370
18
48
1
60
1
100
AcDbLine
10
-33.975
20
20
30
0
11
-33.514216
21
16.500002
31
0
39
0
210
0
220
0
230
1
0
LINE
5
15B
100
AcDbEntity
8
1
62
256
6
ByLayer
370
18
48
1
60
1
100
AcDbLine
10
-33.514216
20
16.500002
30
0
11
-34.435784
21
16.499998
31
0
39
0
210
0
220
0
230
1
0
LINE
5
15C
100
AcDbEntity
8
1
62
256
6
ByLayer
370
18
48
1
60
1
100
AcDbLine
10
-34.435784
20
16.499998
30
0
11
-33.975
21
20
31
0
39
0
210
0
220
0
230
1
0
LINE
5
15E
100
AcDbEntity
8
1
62
256
6
ByLayer
370
18
48
1
60
1
100
AcDbLine
10
-33.975
20
-20
30
0
11
-34.435784
21
-16.500002
31
0
39
0
210
0
220
0
230
1
0
LINE
5
15F
100
AcDbEntity
8
1
62
256
6
ByLayer
370
18
48
1
60
1
100
AcDbLine
10
-34.435784
20
-16.500002
30
0
11
-33.514216
21
-16.499998
31
0
39
0
210
0
220
0
230
1
0
LINE
5
160
100
AcDbEntity
8
1
62
256
6
ByLayer
370
18
48
1
60
1
100
AcDbLine
10
-33.514216
20
-16.499998
30
0
11
-33.975
21
-20
31
0
39
0
210
0
220
0
230
1
0
MTEXT
5
156
100
AcDbEntity
8
SK2
62
256
6
ByLayer
370
18
48
1
60
0
100
AcDbMText
10
-35.539634
20
-4.714889
30
0
210
0
220
0
230
1
1
%%c
40
3.5
41
0
44
1.084337
50
90
71
7
72
5
7
iso_b_vert
0
MTEXT
5
159
100
AcDbEntity
8
SK2
62
256
6
ByLayer
370
18
48
1
60
0
100
AcDbMText
10
-35.539634
20
2.257767
30
0
210
0
220
0
230
1
1
\W0.7361;40
40
3.5
41
0
44
1.084337
50
90
71
7
72
5
7
iso_b_vert
0
MTEXT
5
162
100
AcDbEntity
8
SK6
62
256
6
ByLayer
370
18
48
1
60
0
100
AcDbMText
10
-14.3145
20
-57.724579
30
0
210
0
220
0
230
1
1
\W0.7402;C2R-CC4-LG15CB
40
3.5
41
0
44
1.084337
50
0
71
7
72
5
7
iso_b_vert
0
HATCH
5
15D
100
AcDbEntity
8
SK2
62
256
6
ByLayer
370
13
48
1
60
0
100
AcDbHatch
10
0
20
0
30
0
210
0
220
0
230
1
2
ANSI31
70
0
71
0
91
1
92
5
93
3
72
1
10
-33.9750000000001
20
20
11
-33.5142162584473
21
16.5000016925532
72
1
10
-33.5142162584473
20
16.5000016925532
11
-34.4357837415529
21
16.4999983074468
72
1
10
-34.4357837415529
20
16.4999983074468
11
-33.9750000000001
21
20
97
0
75
0
76
1
52
0
41
0.0062
77
0
78
1
53
45
43
0
44
0
45
-0.0139193969876572
46
0.0139193969876572
79
0
47
0
98
1
10
0
20
0
0
HATCH
5
161
100
AcDbEntity
8
SK2
62
256
6
ByLayer
370
13
48
1
60
0
100
AcDbHatch
10
0
20
0
30
0
210
0
220
0
230
1
2
ANSI31
70
0
71
0
91
1
92
5
93
3
72
1
10
-33.9750000000001
20
-20
11
-34.4357837415529
21
-16.5000016925532
72
1
10
-34.4357837415529
20
-16.5000016925532
11
-33.5142162584473
21
-16.4999983074468
72
1
10
-33.5142162584473
20
-16.4999983074468
11
-33.9750000000001
21
-20
97
0
75
0
76
1
52
0
41
0.0062
77
0
78
1
53
45
43
0
44
0
45
-0.0139193969876572
46
0.0139193969876572
79
0
47
0
98
1
10
0
20
0
0
DIMENSION
5
165
100
AcDbEntity
8
2
62
256
6
ByLayer
370
18
48
1
60
0
100
AcDbDimension
2
_U0
10
91.1
20
0
30
0
11
91.1
21
-13.5
31
0
70
32
71
1
72
1
41
1
210
0
220
0
230
1
3
Standard
100
AcDbAlignedDimension
13
60
23
-27
33
0
14
0
24
0
34
0
50
90
100
AcDbRotatedDimension
1001
ACAD
1000
DSTYLE
1002
{
1070
   371
1070
    13
1070
   372
1070
    13
1070
   170
1070
     0
1070
   144
1040
1.0
1070
   277
1070
     2
1070
   284
1070
     8
1070
   278
1070
    46
1070
   146
1040
1.0
1070
   345
1005
16
1070
   347
1005
16
1070
   346
1005
16
1070
   344
1005
0
1070
   343
1005
0
1070
   172
1070
     1
1070
    76
1070
     0
1070
    75
1070
     0
1070
   282
1070
     0
1070
   281
1070
     0
1070
    71
1070
     0
1070
    74
1070
     0
1070
   279
1070
     0
1070
   173
1070
     1
1070
   340
1005
157
1070
   271
1070
     1
1070
   272
1070
     2
1070
    77
1070
     1
1070
    73
1070
     0
1070
   171
1070
     3
1070
   274
1070
     4
1070
   177
1070
     2
1070
   176
1070
     2
1070
   178
1070
     2
1070
    78
1070
     8
1070
    48
1040
-0.1
1070
    41
1040
3.5
1070
   147
1040
1.75
1070
    42
1040
1.5875
1070
    44
1040
2.0
1070
   140
1040
3.5
1002
}
1001
ACAD_DSTYLE_DIM_LINETYPE
1070
   380
1005
16
1001
ACAD_DSTYLE_DIM_EXT1_LINETYPE
1070
   381
1005
16
1001
ACAD_DSTYLE_DIM_EXT2_LINETYPE
1070
   382
1005
16
0
DIMENSION
5
17F
100
AcDbEntity
8
2
62
256
6
ByLayer
370
18
48
1
60
0
100
AcDbDimension
2
_U1
10
80.1
20
-27
30
0
11
80.1
21
-25.5
31
0
70
32
71
1
72
1
41
1
210
0
220
0
230
1
3
Standard
100
AcDbAlignedDimension
13
60
23
-24
33
0
14
60
24
-27
34
0
50
90
100
AcDbRotatedDimension
1001
ACAD
1000
DSTYLE
1002
{
1070
   371
1070
    13
1070
   372
1070
    13
1070
   170
1070
     0
1070
   144
1040
1.0
1070
   277
1070
     2
1070
   284
1070
     8
1070
   278
1070
    46
1070
   146
1040
1.0
1070
   345
1005
16
1070
   347
1005
16
1070
   346
1005
16
1070
   344
1005
0
1070
   343
1005
0
1070
   172
1070
     1
1070
    76
1070
     0
1070
    75
1070
     0
1070
   282
1070
     0
1070
   281
1070
     0
1070
    71
1070
     0
1070
    74
1070
     0
1070
   279
1070
     0
1070
   173
1070
     1
1070
   340
1005
157
1070
   271
1070
     1
1070
   272
1070
     2
1070
    77
1070
     1
1070
    73
1070
     0
1070
   171
1070
     3
1070
   274
1070
     4
1070
   177
1070
     2
1070
   176
1070
     2
1070
   178
1070
     2
1070
    78
1070
     8
1070
    48
1040
-0.1
1070
    41
1040
3.5
1070
   147
1040
1.75
1070
    42
1040
1.5875
1070
    44
1040
2.0
1070
   140
1040
3.5
1002
}
1001
ACAD_DSTYLE_DIM_LINETYPE
1070
   380
1005
16
1001
ACAD_DSTYLE_DIM_EXT1_LINETYPE
1070
   381
1005
16
1001
ACAD_DSTYLE_DIM_EXT2_LINETYPE
1070
   382
1005
16
0
DIMENSION
5
198
100
AcDbEntity
8
2
62
256
6
ByLayer
370
18
48
1
60
0
100
AcDbDimension
2
_U2
10
60
20
13.925
30
0
11
52.5
21
13.925
31
0
70
32
71
1
72
1
41
1
210
0
220
0
230
1
3
Standard
100
AcDbAlignedDimension
13
45
23
-24.325
33
0
14
60
24
-24
34
0
50
0
100
AcDbRotatedDimension
1001
ACAD
1000
DSTYLE
1002
{
1070
   371
1070
    13
1070
   372
1070
    13
1070
   170
1070
     0
1070
   144
1040
1.0
1070
   277
1070
     2
1070
   284
1070
     8
1070
   278
1070
    46
1070
   146
1040
1.0
1070
   345
1005
16
1070
   347
1005
16
1070
   346
1005
16
1070
   344
1005
0
1070
   343
1005
0
1070
   172
1070
     1
1070
    76
1070
     0
1070
    75
1070
     0
1070
   282
1070
     0
1070
   281
1070
     0
1070
    71
1070
     0
1070
    74
1070
     0
1070
   279
1070
     0
1070
   173
1070
     1
1070
   340
1005
157
1070
   271
1070
     1
1070
   272
1070
     2
1070
    77
1070
     1
1070
    73
1070
     1
1070
   171
1070
     3
1070
   274
1070
     4
1070
   177
1070
     2
1070
   176
1070
     2
1070
   178
1070
     2
1070
    78
1070
     8
1070
    48
1040
-0.1
1070
    41
1040
3.5
1070
   147
1040
1.75
1070
    42
1040
1.5875
1070
    44
1040
2.0
1070
   140
1040
3.5
1002
}
1001
ACAD_DSTYLE_DIM_LINETYPE
1070
   380
1005
16
1001
ACAD_DSTYLE_DIM_EXT1_LINETYPE
1070
   381
1005
16
1001
ACAD_DSTYLE_DIM_EXT2_LINETYPE
1070
   382
1005
16
0
DIMENSION
5
1B1
100
AcDbEntity
8
2
62
256
6
ByLayer
370
18
48
1
60
0
100
AcDbDimension
2
_U3
10
60
20
-45.75
30
0
11
30
21
-45.75
31
0
70
32
71
1
72
1
41
1
210
0
220
0
230
1
3
Standard
100
AcDbAlignedDimension
13
0
23
0
33
0
14
60
24
-27
34
0
50
0
100
AcDbRotatedDimension
1001
ACAD
1000
DSTYLE
1002
{
1070
   371
1070
    13
1070
   372
1070
    13
1070
   170
1070
     0
1070
   144
1040
1.0
1070
   277
1070
     2
1070
   284
1070
     8
1070
   278
1070
    46
1070
   146
1040
1.0
1070
   345
1005
16
1070
   347
1005
16
1070
   346
1005
16
1070
   344
1005
0
1070
   343
1005
0
1070
   172
1070
     1
1070
    76
1070
     0
1070
    75
1070
     0
1070
   282
1070
     0
1070
   281
1070
     0
1070
    71
1070
     0
1070
    74
1070
     0
1070
   279
1070
     0
1070
   173
1070
     1
1070
   340
1005
157
1070
   271
1070
     1
1070
   272
1070
     2
1070
    77
1070
     1
1070
    73
1070
     1
1070
   171
1070
     3
1070
   274
1070
     4
1070
   177
1070
     2
1070
   176
1070
     2
1070
   178
1070
     2
1070
    78
1070
     8
1070
    48
1040
-0.1
1070
    41
1040
3.5
1070
   147
1040
1.75
1070
    42
1040
1.5875
1070
    44
1040
2.0
1070
   140
1040
3.5
1002
}
1001
ACAD_DSTYLE_DIM_LINETYPE
1070
   380
1005
16
1001
ACAD_DSTYLE_DIM_EXT1_LINETYPE
1070
   381
1005
16
1001
ACAD_DSTYLE_DIM_EXT2_LINETYPE
1070
   382
1005
16
0
ENDSEC
0
SECTION
2
OBJECTS
0
DICTIONARY
5
238
330
0
100
AcDbDictionary
280
0
281
1
3
ACAD_GROUP
350
239
3
ACAD_MLINESTYLE
350
23a
0
DICTIONARY
5
239
330
0
100
AcDbDictionary
280
0
281
1
0
DICTIONARY
5
23a
330
0
100
AcDbDictionary
280
0
281
1
3
Standard
350
18
0
MLINESTYLE
5
18
330
23a
100
AcDbMlineStyle
2
Standard
70
0
3

62
256
51
90
52
90
71
2
49
-0.5
62
256
6
ByLayer
49
0.5
62
256
6
ByLayer
0
RASTERVARIABLES
5
227
330

100
AcDbRasterVariables
90
0
70
1
71
1
72
1
0
ENDSEC
0
EOF
