0
SECTION
2
HEADER
9
$ACADVER
1
AC1015
9
$DWGCODEPAGE
3
ANSI_1252
9
$HANDSEED
5
247
9
$ANGBASE
50
0
9
$ANGDIR
70
0
9
$ATTMODE
70
1
9
$AUNITS
70
0
9
$AUPREC
70
0
9
$CECOLOR
62
256
9
$CELTSCALE
40
1
9
$CELTYPE
6
ByLayer
9
$CELWEIGHT
370
18
9
$CLAYER
8
0
9
$CMLJUST
70
0
9
$CMLSCALE
40
1
9
$CMLSTYLE
2
Standard
9
$DIMSTYLE
2
Standard
9
$TEXTSIZE
40
0.2
9
$TEXTSTYLE
7
Standard
9
$LUNITS
70
2
9
$LUPREC
70
4
9
$EXTNAMES
290
1
9
$INSUNITS
70
4
9
$LTSCALE
40
1
9
$LWDISPLAY
290
1
9
$PDMODE
70
0
9
$PDSIZE
40
0
9
$PLINEGEN
70
0
0
ENDSEC
0
SECTION
2
CLASSES
0
CLASS
1
RASTERVARIABLES
2
AcDbRasterVariables
3
ISM
90
0
280
0
281
0
0
ENDSEC
0
SECTION
2
TABLES
0
TABLE
2
VPORT
5
23d
100
AcDbSymbolTable
0
VPORT
5
1
100
AcDbSymbolTableRecord
100
AcDbViewportTableRecord
2
*Active
70
0
10
0
20
0
11
1
21
1
12
-1
22
1
13
0
23
0
14
0.5
24
0.5
15
10
25
10
16
0
26
0
36
1
17
0
27
0
37
0
0
ENDTAB
0
TABLE
2
LTYPE
5
23e
100
AcDbSymbolTable
0
LTYPE
5
14
100
AcDbSymbolTableRecord
100
AcDbLinetypeTableRecord
70
0
2
ByBlock
3

72
65
73
0
40
0
0
LTYPE
5
15
100
AcDbSymbolTableRecord
100
AcDbLinetypeTableRecord
70
0
2
ByLayer
3

72
65
73
0
40
0
0
LTYPE
5
16
100
AcDbSymbolTableRecord
100
AcDbLinetypeTableRecord
70
0
2
Continuous
3
Solid line
72
65
73
0
40
0
0
LTYPE
5
6E
100
AcDbSymbolTableRecord
100
AcDbLinetypeTableRecord
70
0
2
CENTER
3
____ _ ____ _ ____ _ ____
72
65
73
4
40
47.5
49
22
74
0
49
-8.5
74
0
49
8.5
74
0
49
-8.5
74
0
0
LTYPE
5
6F
100
AcDbSymbolTableRecord
100
AcDbLinetypeTableRecord
70
0
2
DASHED
3
__ __ __ __ __ __ __ __ __
72
65
73
2
40
25.72
49
12.86
74
0
49
-12.86
74
0
0
ENDTAB
0
TABLE
2
LAYER
5
23f
100
AcDbSymbolTable
0
LAYER
5
10
100
AcDbSymbolTableRecord
100
AcDbLayerTableRecord
2
0
70
0
62
7
6
Continuous
290
1
370
-3
390
0
0
LAYER
5
71
100
AcDbSymbolTableRecord
100
AcDbLayerTableRecord
2
80
70
0
62
-6
6
Continuous
290
1
370
-3
390
0
0
LAYER
5
73
100
AcDbSymbolTableRecord
100
AcDbLayerTableRecord
2
81
70
0
62
-3
6
Continuous
290
1
370
-3
390
0
0
LAYER
5
75
100
AcDbSymbolTableRecord
100
AcDbLayerTableRecord
2
1
70
0
62
4
6
Continuous
290
1
370
-3
390
0
0
LAYER
5
16A
100
AcDbSymbolTableRecord
100
AcDbLayerTableRecord
2
Defpoints
70
0
62
7
6
Continuous
290
0
370
-3
390
0
0
LAYER
5
177
100
AcDbSymbolTableRecord
100
AcDbLayerTableRecord
2
2
70
0
62
7
6
Continuous
290
1
370
-3
390
0
0
LAYER
5
22a
100
AcDbSymbolTableRecord
100
AcDbLayerTableRecord
2
SK1
70
0
62
4
6
Continuous
290
1
370
-3
390
0
0
LAYER
5
22b
100
AcDbSymbolTableRecord
100
AcDbLayerTableRecord
2
SK2
70
0
62
7
6
Continuous
290
1
370
-3
390
0
0
LAYER
5
22c
100
AcDbSymbolTableRecord
100
AcDbLayerTableRecord
2
SK6
70
0
62
5
6
Continuous
290
1
370
-3
390
0
0
ENDTAB
0
TABLE
2
STYLE
5
240
100
AcDbSymbolTable
0
STYLE
5
11
100
AcDbSymbolTableRecord
100
AcDbTextStyleTableRecord
2
Standard
3
txt
70
0
71
0
40
0
41
1
42
0
50
0
0
STYLE
5
159
100
AcDbSymbolTableRecord
100
AcDbTextStyleTableRecord
2
iso_b_vert
3
simplex.shx
70
0
71
0
40
0
41
1
42
0
50
0
0
STYLE
5
15A
100
AcDbSymbolTableRecord
100
AcDbTextStyleTableRecord
2
DWGDirectTextStyle
3
simplex
70
0
71
0
40
0
41
1
42
0
50
0
0
ENDTAB
0
TABLE
2
DIMSTYLE
5
241
100
AcDbSymbolTable
100
AcDbDimStyleTable
0
DIMSTYLE
105
27
100
AcDbSymbolTableRecord
100
AcDbDimStyleTableRecord
2
Standard
70
0
3
<>
41
0.18
42
0.0625
44
0.18
140
0.18
147
0.09
73
0
74
0
77
1
271
2
275
0
278
52
280
0
340
11
0
ENDTAB
0
TABLE
2
VIEW
5
242
100
AcDbSymbolTable
0
ENDTAB
0
TABLE
2
UCS
5
243
100
AcDbSymbolTable
0
ENDTAB
0
TABLE
2
APPID
5
244
100
AcDbSymbolTable
0
APPID
5
12
100
AcDbSymbolTableRecord
100
AcDbRegAppTableRecord
2
ACAD
70
0
0
APPID
5
166
100
AcDbSymbolTableRecord
100
AcDbRegAppTableRecord
2
ACAD_DSTYLE_DIMBREAK
70
0
0
APPID
5
1E9
100
AcDbSymbolTableRecord
100
AcDbRegAppTableRecord
2
ACAD_DSTYLE_DIM_LINETYPE
70
0
0
APPID
5
1EA
100
AcDbSymbolTableRecord
100
AcDbRegAppTableRecord
2
ACAD_DSTYLE_DIM_EXT1_LINETYPE
70
0
0
APPID
5
1EB
100
AcDbSymbolTableRecord
100
AcDbRegAppTableRecord
2
ACAD_DSTYLE_DIM_EXT2_LINETYPE
70
0
0
APPID
5
226
100
AcDbSymbolTableRecord
100
AcDbRegAppTableRecord
2
ACAD_MLEADERVER
70
0
0
ENDTAB
0
TABLE
2
BLOCK_RECORD
5
245
100
AcDbSymbolTable
0
BLOCK_RECORD
5
1F
100
AcDbSymbolTableRecord
100
AcDbBlockTableRecord
2
*Model_Space
340
0
70
0
0
BLOCK_RECORD
5
1B
100
AcDbSymbolTableRecord
100
AcDbBlockTableRecord
2
*Paper_Space
340
0
70
0
0
BLOCK_RECORD
5
23
100
AcDbSymbolTableRecord
100
AcDbBlockTableRecord
2
*Paper_Space0
340
0
70
0
0
BLOCK_RECORD
5
16B
100
AcDbSymbolTableRecord
100
AcDbBlockTableRecord
2
*D1
340
0
70
0
0
BLOCK_RECORD
5
178
100
AcDbSymbolTableRecord
100
AcDbBlockTableRecord
2
_U0
340
0
70
0
0
BLOCK_RECORD
5
184
100
AcDbSymbolTableRecord
100
AcDbBlockTableRecord
2
*D3
340
0
70
0
0
BLOCK_RECORD
5
191
100
AcDbSymbolTableRecord
100
AcDbBlockTableRecord
2
_U1
340
0
70
0
0
BLOCK_RECORD
5
19D
100
AcDbSymbolTableRecord
100
AcDbBlockTableRecord
2
*D5
340
0
70
0
0
BLOCK_RECORD
5
1AA
100
AcDbSymbolTableRecord
100
AcDbBlockTableRecord
2
_U2
340
0
70
0
0
BLOCK_RECORD
5
1B6
100
AcDbSymbolTableRecord
100
AcDbBlockTableRecord
2
*D7
340
0
70
0
0
BLOCK_RECORD
5
1C2
100
AcDbSymbolTableRecord
100
AcDbBlockTableRecord
2
_U3
340
0
70
0
0
ENDTAB
0
ENDSEC
0
SECTION
2
BLOCKS
0
BLOCK
5
20
100
AcDbEntity
8
0
100
AcDbBlockBegin
2
*Model_Space
70
0
10
0
20
0
30
0
3
*Model_Space
0
ENDBLK
5
21
100
AcDbEntity
8
0
100
AcDbBlockEnd
0
BLOCK
5
1C
100
AcDbEntity
8
0
100
AcDbBlockBegin
2
*Paper_Space
70
0
10
0
20
0
30
0
3
*Paper_Space
0
ENDBLK
5
1D
100
AcDbEntity
8
0
100
AcDbBlockEnd
0
BLOCK
5
24
100
AcDbEntity
8
0
100
AcDbBlockBegin
2
*Paper_Space0
70
0
10
0
20
0
30
0
3
*Paper_Space0
0
ENDBLK
5
25
100
AcDbEntity
8
0
100
AcDbBlockEnd
0
BLOCK
5
16C
100
AcDbEntity
8
0
100
AcDbBlockBegin
2
*D1
70
1
10
0
20
0
30
0
3
*D1
0
LINE
5
16E
100
AcDbEntity
8
0
62
256
6
ByLayer
370
-2
48
1
60
0
100
AcDbLine
10
51.5875
20
22
30
0
11
83.1
21
22
31
0
39
0
210
0
220
0
230
1
0
LINE
5
16F
100
AcDbEntity
8
0
62
256
6
ByLayer
370
-2
48
1
60
0
100
AcDbLine
10
1.5875
20
0
30
0
11
83.1
21
0
31
0
39
0
210
0
220
0
230
1
0
LINE
5
170
100
AcDbEntity
8
0
62
256
6
ByLayer
370
-2
48
1
60
0
100
AcDbLine
10
81.1
20
18.5
30
0
11
81.1
21
3.5
31
0
39
0
210
0
220
0
230
1
0
SOLID
5
171
100
AcDbEntity
8
0
62
256
6
ByLayer
370
-1
48
1
60
0
100
AcDbTrace
10
81.683333
20
18.5
30
0
11
80.516667
21
18.5
31
0
12
81.1
22
22
32
0
13
81.1
23
22
33
0
39
0
210
0
220
0
230
1
0
SOLID
5
172
100
AcDbEntity
8
0
62
256
6
ByLayer
370
-1
48
1
60
0
100
AcDbTrace
10
80.516667
20
3.5
30
0
11
81.683333
21
3.5
31
0
12
81.1
22
0
32
0
13
81.1
23
0
33
0
39
0
210
0
220
0
230
1
0
MTEXT
5
173
100
AcDbEntity
8
0
62
256
6
ByLayer
370
18
48
1
60
0
100
AcDbMText
10
74.1
20
11
30
0
210
0
220
0
230
1
1
\A1;22
40
3.5
41
0
44
1
50
90
71
5
72
5
7
iso_b_vert
0
POINT
5
174
100
AcDbEntity
8
Defpoints
62
0
6
ByLayer
370
-1
48
1
60
0
100
AcDbPoint
10
50
20
22
30
0
39
0
210
0
220
0
230
1
50
360
0
POINT
5
175
100
AcDbEntity
8
Defpoints
62
0
6
ByLayer
370
-1
48
1
60
0
100
AcDbPoint
10
0
20
0
30
0
39
0
210
0
220
0
230
1
50
360
0
POINT
5
176
100
AcDbEntity
8
Defpoints
62
0
6
ByLayer
370
-1
48
1
60
0
100
AcDbPoint
10
81.1
20
0
30
0
39
0
210
0
220
0
230
1
50
360
0
ENDBLK
5
16D
100
AcDbEntity
8
0
100
AcDbBlockEnd
0
BLOCK
5
17F
100
AcDbEntity
8
0
100
AcDbBlockBegin
2
_U0
70
0
10
0
20
0
30
0
3
_U0
0
MTEXT
5
179
100
AcDbEntity
8
2
62
256
6
ByLayer
370
18
48
1
60
0
100
AcDbMText
10
80.410366
20
9.067034
30
0
210
0
220
0
230
1
1
\W0.6740;22
40
3.5
41
0
44
1.084337
50
90
71
7
72
5
7
iso_b_vert
0
LINE
5
17A
100
AcDbEntity
8
2
62
256
6
ByLayer
370
13
48
1
60
0
100
AcDbLine
10
51.5875
20
22
30
0
11
83.1
21
22
31
0
39
0
210
0
220
0
230
1
0
LINE
5
17B
100
AcDbEntity
8
2
62
256
6
ByLayer
370
13
48
1
60
0
100
AcDbLine
10
1.5875
20
0
30
0
11
83.1
21
0
31
0
39
0
210
0
220
0
230
1
0
LINE
5
17C
100
AcDbEntity
8
2
62
256
6
ByLayer
370
13
48
1
60
0
100
AcDbLine
10
81.1
20
22
30
0
11
81.1
21
0
31
0
39
0
210
0
220
0
230
1
0
SOLID
5
17D
100
AcDbEntity
8
2
62
256
6
ByLayer
370
18
48
1
60
0
100
AcDbTrace
10
81.1
20
22
30
0
11
81.560784
21
18.500002
31
0
12
80.639216
22
18.499998
32
0
13
80.639216
23
18.499998
33
0
39
0
210
0
220
0
230
1
0
SOLID
5
17E
100
AcDbEntity
8
2
62
256
6
ByLayer
370
18
48
1
60
0
100
AcDbTrace
10
81.1
20
0
30
0
11
80.639216
21
3.499998
31
0
12
81.560784
22
3.500002
32
0
13
81.560784
23
3.500002
33
0
39
0
210
0
220
0
230
1
0
ENDBLK
5
180
100
AcDbEntity
8
0
100
AcDbBlockEnd
0
BLOCK
5
185
100
AcDbEntity
8
0
100
AcDbBlockBegin
2
*D3
70
1
10
0
20
0
30
0
3
*D3
0
LINE
5
187
100
AcDbEntity
8
0
62
256
6
ByLayer
370
-2
48
1
60
0
100
AcDbLine
10
51.5875
20
19
30
0
11
72.1
21
19
31
0
39
0
210
0
220
0
230
1
0
LINE
5
188
100
AcDbEntity
8
0
62
256
6
ByLayer
370
-2
48
1
60
0
100
AcDbLine
10
51.5875
20
22
30
0
11
72.1
21
22
31
0
39
0
210
0
220
0
230
1
0
LINE
5
189
100
AcDbEntity
8
0
62
256
6
ByLayer
370
-2
48
1
60
0
100
AcDbLine
10
70.1
20
15.5
30
0
11
70.1
21
12
31
0
39
0
210
0
220
0
230
1
0
LINE
5
18A
100
AcDbEntity
8
0
62
256
6
ByLayer
370
-2
48
1
60
0
100
AcDbLine
10
70.1
20
25.5
30
0
11
70.1
21
29
31
0
39
0
210
0
220
0
230
1
0
SOLID
5
18B
100
AcDbEntity
8
0
62
256
6
ByLayer
370
-1
48
1
60
0
100
AcDbTrace
10
70.683333
20
15.5
30
0
11
69.516667
21
15.5
31
0
12
70.1
22
19
32
0
13
70.1
23
19
33
0
39
0
210
0
220
0
230
1
0
SOLID
5
18C
100
AcDbEntity
8
0
62
256
6
ByLayer
370
-1
48
1
60
0
100
AcDbTrace
10
69.516667
20
25.5
30
0
11
70.683333
21
25.5
31
0
12
70.1
22
22
32
0
13
70.1
23
22
33
0
39
0
210
0
220
0
230
1
0
MTEXT
5
18D
100
AcDbEntity
8
0
62
256
6
ByLayer
370
18
48
1
60
0
100
AcDbMText
10
63.1
20
20.5
30
0
210
0
220
0
230
1
1
\A1;3
40
3.5
41
0
44
1
50
90
71
5
72
5
7
iso_b_vert
0
POINT
5
18E
100
AcDbEntity
8
Defpoints
62
0
6
ByLayer
370
-1
48
1
60
0
100
AcDbPoint
10
50
20
19
30
0
39
0
210
0
220
0
230
1
50
360
0
POINT
5
18F
100
AcDbEntity
8
Defpoints
62
0
6
ByLayer
370
-1
48
1
60
0
100
AcDbPoint
10
50
20
22
30
0
39
0
210
0
220
0
230
1
50
360
0
POINT
5
190
100
AcDbEntity
8
Defpoints
62
0
6
ByLayer
370
-1
48
1
60
0
100
AcDbPoint
10
70.1
20
22
30
0
39
0
210
0
220
0
230
1
50
360
0
ENDBLK
5
186
100
AcDbEntity
8
0
100
AcDbBlockEnd
0
BLOCK
5
198
100
AcDbEntity
8
0
100
AcDbBlockBegin
2
_U1
70
0
10
0
20
0
30
0
3
_U1
0
MTEXT
5
192
100
AcDbEntity
8
2
62
256
6
ByLayer
370
18
48
1
60
0
100
AcDbMText
10
69.410366
20
19.874767
30
0
210
0
220
0
230
1
1
\W0.5404;3
40
3.5
41
0
44
1.084337
50
90
71
7
72
5
7
iso_b_vert
0
LINE
5
193
100
AcDbEntity
8
2
62
256
6
ByLayer
370
13
48
1
60
0
100
AcDbLine
10
51.5875
20
19
30
0
11
72.1
21
19
31
0
39
0
210
0
220
0
230
1
0
LINE
5
194
100
AcDbEntity
8
2
62
256
6
ByLayer
370
13
48
1
60
0
100
AcDbLine
10
51.5875
20
22
30
0
11
72.1
21
22
31
0
39
0
210
0
220
0
230
1
0
LINE
5
195
100
AcDbEntity
8
2
62
256
6
ByLayer
370
13
48
1
60
0
100
AcDbLine
10
70.1
20
10.25
30
0
11
70.1
21
30.75
31
0
39
0
210
0
220
0
230
1
0
SOLID
5
196
100
AcDbEntity
8
2
62
256
6
ByLayer
370
18
48
1
60
0
100
AcDbTrace
10
70.1
20
19
30
0
11
70.560784
21
15.500002
31
0
12
69.639216
22
15.499998
32
0
13
69.639216
23
15.499998
33
0
39
0
210
0
220
0
230
1
0
SOLID
5
197
100
AcDbEntity
8
2
62
256
6
ByLayer
370
18
48
1
60
0
100
AcDbTrace
10
70.1
20
22
30
0
11
69.639216
21
25.499998
31
0
12
70.560784
22
25.500002
32
0
13
70.560784
23
25.500002
33
0
39
0
210
0
220
0
230
1
0
ENDBLK
5
199
100
AcDbEntity
8
0
100
AcDbBlockEnd
0
BLOCK
5
19E
100
AcDbEntity
8
0
100
AcDbBlockBegin
2
*D5
70
1
10
0
20
0
30
0
3
*D5
0
LINE
5
1A0
100
AcDbEntity
8
0
62
256
6
ByLayer
370
-2
48
1
60
0
100
AcDbLine
10
40
20
17.7375
30
0
11
40
21
-16.425
31
0
39
0
210
0
220
0
230
1
0
LINE
5
1A1
100
AcDbEntity
8
0
62
256
6
ByLayer
370
-2
48
1
60
0
100
AcDbLine
10
50
20
17.4125
30
0
11
50
21
-16.425
31
0
39
0
210
0
220
0
230
1
0
LINE
5
1A2
100
AcDbEntity
8
0
62
256
6
ByLayer
370
-2
48
1
60
0
100
AcDbLine
10
36.5
20
-14.425
30
0
11
33
21
-14.425
31
0
39
0
210
0
220
0
230
1
0
LINE
5
1A3
100
AcDbEntity
8
0
62
256
6
ByLayer
370
-2
48
1
60
0
100
AcDbLine
10
53.5
20
-14.425
30
0
11
57
21
-14.425
31
0
39
0
210
0
220
0
230
1
0
SOLID
5
1A4
100
AcDbEntity
8
0
62
256
6
ByLayer
370
-1
48
1
60
0
100
AcDbTrace
10
36.5
20
-15.008333
30
0
11
36.5
21
-13.841667
31
0
12
40
22
-14.425
32
0
13
40
23
-14.425
33
0
39
0
210
0
220
0
230
1
0
SOLID
5
1A5
100
AcDbEntity
8
0
62
256
6
ByLayer
370
-1
48
1
60
0
100
AcDbTrace
10
53.5
20
-13.841667
30
0
11
53.5
21
-15.008333
31
0
12
50
22
-14.425
32
0
13
50
23
-14.425
33
0
39
0
210
0
220
0
230
1
0
MTEXT
5
1A6
100
AcDbEntity
8
0
62
256
6
ByLayer
370
18
48
1
60
0
100
AcDbMText
10
45
20
-7.425
30
0
210
0
220
0
230
1
1
\A1;10
40
3.5
41
0
44
1
50
0
71
5
72
5
7
iso_b_vert
0
POINT
5
1A7
100
AcDbEntity
8
Defpoints
62
0
6
ByLayer
370
-1
48
1
60
0
100
AcDbPoint
10
40
20
19.325
30
0
39
0
210
0
220
0
230
1
50
360
0
POINT
5
1A8
100
AcDbEntity
8
Defpoints
62
0
6
ByLayer
370
-1
48
1
60
0
100
AcDbPoint
10
50
20
19
30
0
39
0
210
0
220
0
230
1
50
360
0
POINT
5
1A9
100
AcDbEntity
8
Defpoints
62
0
6
ByLayer
370
-1
48
1
60
0
100
AcDbPoint
10
50
20
-14.425
30
0
39
0
210
0
220
0
230
1
50
360
0
ENDBLK
5
19F
100
AcDbEntity
8
0
100
AcDbBlockEnd
0
BLOCK
5
1B1
100
AcDbEntity
8
0
100
AcDbBlockBegin
2
_U2
70
0
10
0
20
0
30
0
3
_U2
0
MTEXT
5
1AB
100
AcDbEntity
8
2
62
256
6
ByLayer
370
18
48
1
60
0
100
AcDbMText
10
43.532467
20
-13.392366
30
0
210
0
220
0
230
1
1
\W0.5321;10
40
3.5
41
0
44
1.084337
50
0
71
7
72
5
7
iso_b_vert
0
LINE
5
1AC
100
AcDbEntity
8
2
62
256
6
ByLayer
370
13
48
1
60
0
100
AcDbLine
10
40
20
17.7375
30
0
11
40
21
-16.425
31
0
39
0
210
0
220
0
230
1
0
LINE
5
1AD
100
AcDbEntity
8
2
62
256
6
ByLayer
370
13
48
1
60
0
100
AcDbLine
10
50
20
17.4125
30
0
11
50
21
-16.425
31
0
39
0
210
0
220
0
230
1
0
LINE
5
1AE
100
AcDbEntity
8
2
62
256
6
ByLayer
370
13
48
1
60
0
100
AcDbLine
10
40
20
-14.425
30
0
11
50
21
-14.425
31
0
39
0
210
0
220
0
230
1
0
SOLID
5
1AF
100
AcDbEntity
8
2
62
256
6
ByLayer
370
18
48
1
60
0
100
AcDbTrace
10
40
20
-14.425
30
0
11
43.499998
21
-13.964216
31
0
12
43.500002
22
-14.885784
32
0
13
43.500002
23
-14.885784
33
0
39
0
210
0
220
0
230
1
0
SOLID
5
1B0
100
AcDbEntity
8
2
62
256
6
ByLayer
370
18
48
1
60
0
100
AcDbTrace
10
50
20
-14.425
30
0
11
46.500002
21
-14.885784
31
0
12
46.499998
22
-13.964216
32
0
13
46.499998
23
-13.964216
33
0
39
0
210
0
220
0
230
1
0
ENDBLK
5
1B2
100
AcDbEntity
8
0
100
AcDbBlockEnd
0
BLOCK
5
1B7
100
AcDbEntity
8
0
100
AcDbBlockBegin
2
*D7
70
1
10
0
20
0
30
0
3
*D7
0
LINE
5
1B9
100
AcDbEntity
8
0
62
256
6
ByLayer
370
-2
48
1
60
0
100
AcDbLine
10
0
20
1.5875
30
0
11
0
21
40.25
31
0
39
0
210
0
220
0
230
1
0
LINE
5
1BA
100
AcDbEntity
8
0
62
256
6
ByLayer
370
-2
48
1
60
0
100
AcDbLine
10
50
20
23.5875
30
0
11
50
21
40.25
31
0
39
0
210
0
220
0
230
1
0
LINE
5
1BB
100
AcDbEntity
8
0
62
256
6
ByLayer
370
-2
48
1
60
0
100
AcDbLine
10
3.5
20
38.25
30
0
11
46.5
21
38.25
31
0
39
0
210
0
220
0
230
1
0
SOLID
5
1BC
100
AcDbEntity
8
0
62
256
6
ByLayer
370
-1
48
1
60
0
100
AcDbTrace
10
3.5
20
38.833333
30
0
11
3.5
21
37.666667
31
0
12
0
22
38.25
32
0
13
0
23
38.25
33
0
39
0
210
0
220
0
230
1
0
SOLID
5
1BD
100
AcDbEntity
8
0
62
256
6
ByLayer
370
-1
48
1
60
0
100
AcDbTrace
10
46.5
20
37.666667
30
0
11
46.5
21
38.833333
31
0
12
50
22
38.25
32
0
13
50
23
38.25
33
0
39
0
210
0
220
0
230
1
0
MTEXT
5
1BE
100
AcDbEntity
8
0
62
256
6
ByLayer
370
18
48
1
60
0
100
AcDbMText
10
25
20
45.25
30
0
210
0
220
0
230
1
1
\A1;50
40
3.5
41
0
44
1
50
0
71
5
72
5
7
iso_b_vert
0
POINT
5
1BF
100
AcDbEntity
8
Defpoints
62
0
6
ByLayer
370
-1
48
1
60
0
100
AcDbPoint
10
0
20
0
30
0
39
0
210
0
220
0
230
1
50
360
0
POINT
5
1C0
100
AcDbEntity
8
Defpoints
62
0
6
ByLayer
370
-1
48
1
60
0
100
AcDbPoint
10
50
20
22
30
0
39
0
210
0
220
0
230
1
50
360
0
POINT
5
1C1
100
AcDbEntity
8
Defpoints
62
0
6
ByLayer
370
-1
48
1
60
0
100
AcDbPoint
10
50
20
38.25
30
0
39
0
210
0
220
0
230
1
50
360
0
ENDBLK
5
1B8
100
AcDbEntity
8
0
100
AcDbBlockEnd
0
BLOCK
5
1C9
100
AcDbEntity
8
0
100
AcDbBlockBegin
2
_U3
70
0
10
0
20
0
30
0
3
_U3
0
MTEXT
5
1C3
100
AcDbEntity
8
2
62
256
6
ByLayer
370
18
48
1
60
0
100
AcDbMText
10
23.095034
20
39.282634
30
0
210
0
220
0
230
1
1
\W0.6740;50
40
3.5
41
0
44
1.084337
50
0
71
7
72
5
7
iso_b_vert
0
LINE
5
1C4
100
AcDbEntity
8
2
62
256
6
ByLayer
370
13
48
1
60
0
100
AcDbLine
10
0
20
1.5875
30
0
11
0
21
40.25
31
0
39
0
210
0
220
0
230
1
0
LINE
5
1C5
100
AcDbEntity
8
2
62
256
6
ByLayer
370
13
48
1
60
0
100
AcDbLine
10
50
20
23.5875
30
0
11
50
21
40.25
31
0
39
0
210
0
220
0
230
1
0
LINE
5
1C6
100
AcDbEntity
8
2
62
256
6
ByLayer
370
13
48
1
60
0
100
AcDbLine
10
0
20
38.25
30
0
11
50
21
38.25
31
0
39
0
210
0
220
0
230
1
0
SOLID
5
1C7
100
AcDbEntity
8
2
62
256
6
ByLayer
370
18
48
1
60
0
100
AcDbTrace
10
0
20
38.25
30
0
11
3.499998
21
38.710784
31
0
12
3.500002
22
37.789216
32
0
13
3.500002
23
37.789216
33
0
39
0
210
0
220
0
230
1
0
SOLID
5
1C8
100
AcDbEntity
8
2
62
256
6
ByLayer
370
18
48
1
60
0
100
AcDbTrace
10
50
20
38.25
30
0
11
46.500002
21
37.789216
31
0
12
46.499998
22
38.710784
32
0
13
46.499998
23
38.710784
33
0
39
0
210
0
220
0
230
1
0
ENDBLK
5
1CA
100
AcDbEntity
8
0
100
AcDbBlockEnd
0
ENDSEC
0
SECTION
2
ENTITIES
0
ARC
5
F6
100
AcDbEntity
8
1
62
256
6
ByLayer
370
18
48
1
60
0
100
AcDbCircle
39
0
10
15.279208
20
17.2
30
0
40
1.2
210
0
220
0
230
1
100
AcDbArc
50
270
51
299.226183
0
ARC
5
F7
100
AcDbEntity
8
SK1
62
256
6
ByLayer
370
18
48
1
60
0
100
AcDbCircle
39
0
10
-0.6
20
11.8
30
0
40
0.999999999999996
210
0
220
0
230
1
100
AcDbArc
50
293.578178
51
306.869898
0
ARC
5
F8
100
AcDbEntity
8
SK1
62
256
6
ByLayer
370
18
48
1
60
0
100
AcDbCircle
39
0
10
-0.6
20
-11.8
30
0
40
0.999999999999996
210
0
220
0
230
1
100
AcDbArc
50
53.130102
51
66.421822
0
ARC
5
FC
100
AcDbEntity
8
1
62
256
6
ByLayer
370
18
48
1
60
0
100
AcDbCircle
39
0
10
21.8
20
17.15
30
0
40
1
210
0
220
0
230
1
100
AcDbArc
50
270
51
0
0
CIRCLE
5
F9
100
AcDbEntity
8
1
62
256
6
ByLayer
370
18
48
1
60
0
100
AcDbCircle
10
32.85
20
12.7
30
0
40
2.15
39
0
210
0
220
0
230
1
0
CIRCLE
5
FA
100
AcDbEntity
8
1
62
256
6
ByLayer
370
18
48
1
60
0
100
AcDbCircle
10
32.85
20
12.7
30
0
40
2.75
39
0
210
0
220
0
230
1
0
CIRCLE
5
FB
100
AcDbEntity
8
1
62
256
6
ByLayer
370
18
48
1
60
0
100
AcDbCircle
10
32.85
20
12.7
30
0
40
4.55
39
0
210
0
220
0
230
1
0
ELLIPSE
5
FD
100
AcDbEntity
8
1
62
256
6
ByLayer
370
18
48
1
60
0
100
AcDbEllipse
10
42.012416
20
20.5
30
0
11
0.612993513784825
21
7.18094540177525E-16
31
0
210
0
220
0
230
1
40
0.978803
41
0
42
6.28318530717959
0
ELLIPSE
5
FE
100
AcDbEntity
8
1
62
256
6
ByLayer
370
18
48
1
60
0
100
AcDbEllipse
10
35.327516
20
19.325
30
0
11
-2.78951487299376
21
3.41605763755018E-16
31
0
210
0
220
0
230
1
40
0.573576
41
0
42
1.5707963267949
0
ELLIPSE
5
FF
100
AcDbEntity
8
1
62
256
6
ByLayer
370
18
48
1
60
0
100
AcDbEllipse
10
-0.928203
20
0
30
0
11
7.49393430382602
21
15.7933993222004
31
0
210
0
220
0
230
1
40
0.341999
41
-1.08757920120051
42
-0.16146657119771
0
ELLIPSE
5
100
100
AcDbEntity
8
1
62
256
6
ByLayer
370
18
48
1
60
0
100
AcDbEllipse
10
12.928203
20
0
30
0
11
7.49393430382462
21
-15.7933993221993
31
0
210
0
220
0
230
1
40
0.341999
41
-2.98012608239206
42
-2.05401345238921
0
ELLIPSE
5
101
100
AcDbEntity
8
1
62
256
6
ByLayer
370
18
48
1
60
0
100
AcDbEllipse
10
12.928203
20
0
30
0
11
7.49393430382517
21
15.7933993222
31
0
210
0
220
0
230
1
40
0.341999
41
2.05401345238925
42
2.98012608239207
0
ELLIPSE
5
102
100
AcDbEntity
8
1
62
256
6
ByLayer
370
18
48
1
60
0
100
AcDbEllipse
10
-0.928203
20
0
30
0
11
7.49393430382587
21
-15.7933993222002
31
0
210
0
220
0
230
1
40
0.341999
41
0.161466571197716
42
1.08757920120051
0
ELLIPSE
5
103
100
AcDbEntity
8
1
62
256
6
ByLayer
370
18
48
1
60
0
100
AcDbEllipse
10
15.13963
20
0
30
0
11
9.79685083058943E-16
21
16.000000000017
31
0
210
0
220
0
230
1
40
0.008727
41
1.11479008040069
42
2.0268025731891
0
ELLIPSE
5
104
100
AcDbEntity
8
1
62
256
6
ByLayer
370
18
48
1
60
0
100
AcDbEllipse
10
46.228061
20
22.45
30
0
11
0.897993681729524
21
1.05195951582326E-15
31
0
210
0
220
0
230
1
40
0.890875
41
-1.5707963267949
42
-1.29515256582535
0
ELLIPSE
5
105
100
AcDbEntity
8
1
62
256
6
ByLayer
370
18
48
1
60
0
100
AcDbEllipse
10
46.095006
20
20.933936
30
0
11
1.13425636391778
21
1.32873070232335E-15
31
0
210
0
220
0
230
1
40
0.176327
41
-2.80561677258018
42
-1.98717825108436
0
ELLIPSE
5
106
100
AcDbEntity
8
1
62
256
6
ByLayer
370
18
48
1
60
0
100
AcDbEllipse
10
50.223799
20
22.580141
30
0
11
11.3425635150313
21
-1.37999213787474E-08
31
0
210
0
220
0
230
1
40
0.176327
41
-1.98717824782336
42
-1.91986217328735
0
ELLIPSE
5
107
100
AcDbEntity
8
1
62
256
6
ByLayer
370
18
48
1
60
0
100
AcDbEllipse
10
45.990371
20
20.5
30
0
11
1.19096918211252
21
1.39516723743817E-15
31
0
210
0
220
0
230
1
40
0.176327
41
0
42
1.221730476396
0
ELLIPSE
5
108
100
AcDbEntity
8
1
62
256
6
ByLayer
370
18
48
1
60
0
100
AcDbEllipse
10
45.990371
20
20.5
30
0
11
1.19096918211238
21
1.39516723743801E-15
31
0
210
0
220
0
230
1
40
0.176327
41
-1.22173047639606
42
0
0
ELLIPSE
5
109
100
AcDbEntity
8
1
62
256
6
ByLayer
370
18
48
1
60
0
100
AcDbEllipse
10
50.223799
20
18.419859
30
0
11
11.3425638052694
21
-1.82663374186133E-08
31
0
210
0
220
0
230
1
40
0.176327
41
1.91986218227742
42
1.98717825529996
0
ELLIPSE
5
10A
100
AcDbEntity
8
1
62
256
6
ByLayer
370
18
48
1
60
0
100
AcDbEllipse
10
46.095006
20
20.066064
30
0
11
1.1342563639161
21
1.32873070232138E-15
31
0
210
0
220
0
230
1
40
0.176327
41
1.98717825108369
42
2.80561677258057
0
ELLIPSE
5
10B
100
AcDbEntity
8
1
62
256
6
ByLayer
370
18
48
1
60
0
100
AcDbEllipse
10
44.623179
20
19.474562
30
0
11
0.850692272934752
21
9.96548026738316E-16
31
0
210
0
220
0
230
1
40
0.176327
41
2.80561677258034
42
3.14159265358979
0
ELLIPSE
5
10C
100
AcDbEntity
8
1
62
256
6
ByLayer
370
18
48
1
60
0
100
AcDbEllipse
10
46.228061
20
18.55
30
0
11
0.897993681830117
21
1.0519595159411E-15
31
0
210
0
220
0
230
1
40
0.890875
41
1.29515256585621
42
1.5707963267949
0
ELLIPSE
5
10D
100
AcDbEntity
8
1
62
256
6
ByLayer
370
18
48
1
60
0
100
AcDbEllipse
10
45.571498
20
21.25
30
0
11
-2.3287088041805E-17
21
-0.126773189709051
31
0
210
0
220
0
230
1
40
0.984808
41
0
42
6.28318530717959
0
ELLIPSE
5
10E
100
AcDbEntity
8
1
62
256
6
ByLayer
370
18
48
1
60
0
100
AcDbEllipse
10
44.623179
20
21.525438
30
0
11
0.850692273074108
21
9.96548026901566E-16
31
0
210
0
220
0
230
1
40
0.176327
41
3.14159265358979
42
-2.8056167726083
0
POINT
5
70
100
AcDbEntity
8
80
62
256
6
ByLayer
370
18
48
1
60
0
100
AcDbPoint
10
0
20
0
30
0
39
0
210
0
220
0
230
1
50
360
0
POINT
5
72
100
AcDbEntity
8
81
62
256
6
ByLayer
370
18
48
1
60
0
100
AcDbPoint
10
50
20
22
30
0
39
0
210
0
220
0
230
1
50
360
0
POINT
5
74
100
AcDbEntity
8
1
62
256
6
ByLayer
370
18
48
1
60
1
100
AcDbPoint
10
50
20
22
30
0
39
0
210
0
220
0
230
1
50
360
0
POINT
5
76
100
AcDbEntity
8
1
62
256
6
ByLayer
370
18
48
1
60
1
100
AcDbPoint
10
0
20
0
30
0
39
0
210
0
220
0
230
1
50
360
0
POINT
5
77
100
AcDbEntity
8
1
62
256
6
ByLayer
370
18
48
1
60
1
100
AcDbPoint
10
50
20
19
30
0
39
0
210
0
220
0
230
1
50
360
0
POINT
5
78
100
AcDbEntity
8
1
62
256
6
ByLayer
370
18
48
1
60
1
100
AcDbPoint
10
50
20
22
30
0
39
0
210
0
220
0
230
1
50
360
0
POINT
5
79
100
AcDbEntity
8
1
62
256
6
ByLayer
370
18
48
1
60
1
100
AcDbPoint
10
40
20
19.325
30
0
39
0
210
0
220
0
230
1
50
360
0
POINT
5
7A
100
AcDbEntity
8
1
62
256
6
ByLayer
370
18
48
1
60
1
100
AcDbPoint
10
50
20
19
30
0
39
0
210
0
220
0
230
1
50
360
0
POINT
5
7B
100
AcDbEntity
8
1
62
256
6
ByLayer
370
18
48
1
60
1
100
AcDbPoint
10
0
20
0
30
0
39
0
210
0
220
0
230
1
50
360
0
POINT
5
7C
100
AcDbEntity
8
1
62
256
6
ByLayer
370
18
48
1
60
1
100
AcDbPoint
10
50
20
22
30
0
39
0
210
0
220
0
230
1
50
360
0
SPLINE
5
10F
100
AcDbEntity
8
SK1
62
256
6
ByLayer
370
18
48
1
60
0
100
AcDbSpline
70
4
71
2
72
6
73
3
40
0
40
0
40
0
40
1
40
1
40
1
41
1
10
-0.394913799811292
20
10.7561253011184
30
0
41
1
10
-0.944976888870372
20
10.7424218878285
30
0
41
1
10
-1.49503997793928
20
10.7287184519682
30
0
0
SPLINE
5
110
100
AcDbEntity
8
SK1
62
256
6
ByLayer
370
18
48
1
60
0
100
AcDbSpline
70
4
71
2
72
6
73
3
40
0
40
0
40
0
40
1
40
1
40
1
41
1
10
-1.49503997793928
20
-10.7287185965104
30
0
41
1
10
-0.944976888870372
20
-10.742422032064
30
0
41
1
10
-0.394913799811292
20
-10.7561254450469
30
0
0
SPLINE
5
111
100
AcDbEntity
8
SK1
62
256
6
ByLayer
370
18
48
1
60
0
100
AcDbSpline
70
4
71
2
72
6
73
3
40
0
40
0
40
0
40
1
40
1
40
1
41
1
10
-18
20
10.6101496008039
30
0
41
1
10
-18.4999993598728
20
10.3216388688797
30
0
41
1
10
-19
20
10.0331225704842
30
0
0
SPLINE
5
112
100
AcDbEntity
8
SK1
62
256
6
ByLayer
370
18
48
1
60
0
100
AcDbSpline
70
4
71
2
72
6
73
3
40
0
40
0
40
0
40
1
40
1
40
1
41
1
10
-19
20
-10.033122704642
30
0
41
1
10
-18.499999359849
20
-10.3216390035828
30
0
41
1
10
-18
20
-10.6101497360692
30
0
0
SPLINE
5
113
100
AcDbEntity
8
SK1
62
256
6
ByLayer
370
18
48
1
60
0
100
AcDbSpline
70
4
71
3
72
13
73
9
40
0
40
0
40
0
40
0
40
0.239503299986072
40
0.368422974046453
40
0.500068382752372
40
0.631702431366343
40
0.760590771380856
40
1
40
1
40
1
40
1
41
1
10
-1.49503997793928
20
10.8252677308309
30
0
41
1
10
-1.52110932222988
20
10.8248656203855
30
0
41
1
10
-1.55883875866954
20
10.8310353403565
30
0
41
1
10
-1.60627575626165
20
10.8540692579952
30
0
41
1
10
-1.63886251160179
20
10.8792258274844
30
0
41
1
10
-1.66563496160413
20
10.9104942540852
30
0
41
1
10
-1.69103211703248
20
10.9566935764512
30
0
41
1
10
-1.69909125944702
20
10.994051696625
30
0
41
1
10
-1.69999999999999
20
11.020099440279
30
0
0
SPLINE
5
114
100
AcDbEntity
8
SK1
62
256
6
ByLayer
370
18
48
1
60
0
100
AcDbSpline
70
4
71
3
72
13
73
9
40
0
40
0
40
0
40
0
40
0.239409228197305
40
0.368297568070461
40
0.499931616633788
40
0.631577025391789
40
0.760496699593568
40
1
40
1
40
1
40
1
41
1
10
-1.69999999999999
20
-11.0200995388071
30
0
41
1
10
-1.69909125944079
20
-10.9940517952282
30
0
41
1
10
-1.69103211702637
20
-10.9566936751655
30
0
41
1
10
-1.66563496159546
20
-10.9104943529528
30
0
41
1
10
-1.63886251159008
20
-10.8792259264472
30
0
41
1
10
-1.60627575624898
20
-10.854069357026
30
0
41
1
10
-1.55883875865177
20
-10.8310354394285
30
0
41
1
10
-1.52110932222061
20
-10.8248657194289
30
0
41
1
10
-1.49503997793928
20
-10.825267829839
30
0
0
SPLINE
5
115
100
AcDbEntity
8
SK1
62
256
6
ByLayer
370
18
48
1
60
0
100
AcDbSpline
70
4
71
2
72
6
73
3
40
0
40
0
40
0
40
1
40
1
40
1
41
1
10
-1.69999999999999
20
11.0168487405457
30
0
41
1
10
-9.84999999929856
20
10.8122283432519
30
0
41
1
10
-18
20
10.607607381218
30
0
0
SPLINE
5
116
100
AcDbEntity
8
SK1
62
256
6
ByLayer
370
18
48
1
60
0
100
AcDbSpline
70
4
71
2
72
6
73
3
40
0
40
0
40
0
40
1
40
1
40
1
41
1
10
-18
20
-10.6076075596898
30
0
41
1
10
-9.84999999929849
20
-10.812228522059
30
0
41
1
10
-1.69999999999999
20
-11.0168489196732
30
0
0
SPLINE
5
117
100
AcDbEntity
8
1
62
256
6
ByLayer
370
18
48
1
60
0
100
AcDbSpline
70
4
71
3
72
8
73
4
40
0
40
0
40
0
40
0
40
1
40
1
40
1
40
1
41
1
10
17.8091907607777
20
21.6750000000001
30
0
41
1
10
17.4112066613536
20
20.1670497438633
30
0
41
1
10
17.0143054520465
20
18.6588095167936
30
0
41
1
10
16.6195942797497
20
17.15
30
0
0
SPLINE
5
118
100
AcDbEntity
8
1
62
256
6
ByLayer
370
18
48
1
60
0
100
AcDbSpline
70
4
71
3
72
13
73
9
40
0
40
0
40
0
40
0
40
0.25
40
0.5
40
0.5
40
0.75
40
0.75
40
1
40
1
40
1
40
1
41
1
10
16.6195942797497
20
17.15
30
0
41
1
10
16.6042683536996
20
17.0914156357836
30
0
41
1
10
16.5735082851438
20
16.9760732879199
30
0
41
1
10
16.5425227449737
20
16.8642203295038
30
0
41
1
10
16.5114226488673
20
16.754189498179
30
0
41
1
10
16.4962548505516
20
16.7016404892709
30
0
41
1
10
16.4666933531886
20
16.6013695080092
30
0
41
1
10
16.4522958950038
20
16.5536344409027
30
0
41
1
10
16.4383186059721
20
16.5084351655183
30
0
0
SPLINE
5
119
100
AcDbEntity
8
1
62
256
6
ByLayer
370
18
48
1
60
0
100
AcDbSpline
70
4
71
3
72
37
73
33
40
0
40
0
40
0
40
0
40
0.0312500000000039
40
0.0312500000000039
40
0.0625000000000079
40
0.125000000000015
40
0.125000000000015
40
0.250000000000029
40
0.250000000000029
40
0.281250000000032
40
0.281250000000032
40
0.312500000000035
40
0.312500000000035
40
0.375000000000035
40
0.375000000000035
40
0.500000000000029
40
0.500000000000029
40
0.531250000000025
40
0.531250000000025
40
0.562500000000021
40
0.625000000000017
40
0.687500000000013
40
0.687500000000013
40
0.718750000000011
40
0.718750000000011
40
0.750000000000009
40
0.750000000000009
40
0.875000000000002
40
0.875000000000002
40
0.937500000000001
40
0.937500000000001
40
1
40
1
40
1
40
1
41
1
10
21.0979991993594
20
16.15
30
0
41
1
10
21.1161596625569
20
16.15
30
0
41
1
10
21.1343436715721
20
16.1503025762776
30
0
41
1
10
21.1705404692686
20
16.1515196643775
30
0
41
1
10
21.2246748030338
20
16.1542634146374
30
0
41
1
10
21.2783209647337
20
16.1597933881372
30
0
41
1
10
21.3849379288975
20
16.1747079219338
30
0
41
1
10
21.4551208774946
20
16.1897592794783
30
0
41
1
10
21.5415829778381
20
16.2158024637559
30
0
41
1
10
21.5588116390369
20
16.2213750019034
30
0
41
1
10
21.5931357597246
20
16.2332803218201
30
0
41
1
10
21.6102683325627
20
16.2396289977521
30
0
41
1
10
21.6610060787218
20
16.2596878790594
30
0
41
1
10
21.6940493017973
20
16.2744353258394
30
0
41
1
10
21.7907724756647
20
16.3229089218058
30
0
41
1
10
21.8520714248128
20
16.3608215019205
30
0
41
1
10
21.9242042253867
20
16.4161083927451
30
0
41
1
10
21.9384465541441
20
16.4276015592398
30
0
41
1
10
21.9661892927071
20
16.4511913425105
30
0
41
1
10
22.0067111080116
20
16.4874857382757
30
0
41
1
10
22.0688053756179
20
16.5525088685648
30
0
41
1
10
22.1125622959425
20
16.6094566175086
30
0
41
1
10
22.1430477949145
20
16.6541098054289
30
0
41
1
10
22.1528200581636
20
16.6693186563508
30
0
41
1
10
22.1715554404667
20
16.7004102576542
30
0
41
1
10
22.1805452052648
20
16.7163445309867
30
0
41
1
10
22.2230509325826
20
16.7971584961779
30
0
41
1
10
22.2488697960024
20
16.8644367321645
30
0
41
1
10
22.2752531168167
20
16.9693159907482
30
0
41
1
10
22.2819729542626
20
17.0049415512713
30
0
41
1
10
22.2910147230196
20
17.0776041037324
30
0
41
1
10
22.2932370625239
20
17.1138738724257
30
0
41
1
10
22.2932370625239
20
17.15
30
0
0
SPLINE
5
11A
100
AcDbEntity
8
1
62
256
6
ByLayer
370
18
48
1
60
0
100
AcDbSpline
70
4
71
3
72
33
73
29
40
0
40
0
40
0
40
0
40
0.124999999999988
40
0.124999999999988
40
0.187499999999982
40
0.187499999999982
40
0.249999999999976
40
0.31249999999997
40
0.31249999999997
40
0.343749999999968
40
0.343749999999968
40
0.374999999999967
40
0.374999999999967
40
0.499999999999966
40
0.499999999999966
40
0.562499999999966
40
0.562499999999966
40
0.593749999999968
40
0.593749999999968
40
0.624999999999971
40
0.624999999999971
40
0.749999999999984
40
0.749999999999984
40
0.812499999999986
40
0.812499999999986
40
0.874999999999989
40
0.874999999999989
40
1
40
1
40
1
40
1
41
1
10
22.6792156108743
20
17.15
30
0
41
1
10
22.6792156108743
20
17.0832436260867
30
0
41
1
10
22.6724024636134
20
17.017099031744
30
0
41
1
10
22.6519070702788
20
16.918804833698
30
0
41
1
10
22.643288334735
20
16.8860488117296
30
0
41
1
10
22.6229298975619
20
16.8222481913133
30
0
41
1
10
22.5994237772518
20
16.7598760962957
30
0
41
1
10
22.5697769675525
20
16.7002908544577
30
0
41
1
10
22.5452277297467
20
16.6566521540257
30
0
41
1
10
22.5366582573285
20
16.6422812788688
30
0
41
1
10
22.5187359240042
20
16.6138950568287
30
0
41
1
10
22.5093565962303
20
16.5998444499673
30
0
41
1
10
22.4609510550854
20
16.5311735123727
30
0
41
1
10
22.4172761539375
20
16.4809191664987
30
0
41
1
10
22.3446575523051
20
16.412259099656
30
0
41
1
10
22.3192581400242
20
16.3905010109516
30
0
41
1
10
22.279331242548
20
16.3595926841259
30
0
41
1
10
22.2657552067244
20
16.3496106169166
30
0
41
1
10
22.2382758559521
20
16.3304211683923
30
0
41
1
10
22.2243435742831
20
16.3211910993284
30
0
41
1
10
22.1537383245528
20
16.2768276981421
30
0
41
1
10
22.0942590621149
20
16.2470074317023
30
0
41
1
10
22.0005995875411
20
16.2106842391689
30
0
41
1
10
21.9685154439817
20
16.1999671223374
30
0
41
1
10
21.9040980234736
20
16.1817637186531
30
0
41
1
10
21.8716360317391
20
16.1742157749747
30
0
41
1
10
21.7735131192457
20
16.1560926942454
30
0
41
1
10
21.7071055833143
20
16.15
30
0
41
1
10
21.6397368307141
20
16.15
30
0
0
SPLINE
5
11B
100
AcDbEntity
8
1
62
256
6
ByLayer
370
18
48
1
60
0
100
AcDbSpline
70
4
71
3
72
12
73
8
40
0
40
0
40
0
40
0
40
0.5
40
0.5
40
0.75
40
0.75
40
1
40
1
40
1
40
1
41
1
10
43.5812077706279
20
20.25
30
0
41
1
10
43.5437775330762
20
20.0950408536173
30
0
41
1
10
43.5059758657855
20
19.9403036963876
30
0
41
1
10
43.448159045107
20
19.7088639462464
30
0
41
1
10
43.4286973549829
20
19.6318305698023
30
0
41
1
10
43.3891994859593
20
19.4781071665796
30
0
41
1
10
43.3691678996685
20
19.401414394977
30
0
41
1
10
43.348670536758
20
19.325
30
0
0
SPLINE
5
11C
100
AcDbEntity
8
1
62
256
6
ByLayer
370
18
48
1
60
0
100
AcDbSpline
70
4
71
3
72
8
73
4
40
0
40
0
40
0
40
0
40
1
40
1
40
1
40
1
41
1
10
43.6865106453464
20
20.3121010091006
30
0
41
1
10
43.6514466721628
20
20.2912513603502
30
0
41
1
10
43.6163519950296
20
20.2705256665267
30
0
41
1
10
43.581207770628
20
20.2500000000001
30
0
0
SPLINE
5
11D
100
AcDbEntity
8
1
62
256
6
ByLayer
370
18
48
1
60
0
100
AcDbSpline
70
4
71
3
72
20
73
16
40
0
40
0
40
0
40
0
40
0.250000000000017
40
0.250000000000017
40
0.375000000000014
40
0.375000000000014
40
0.500000000000011
40
0.500000000000011
40
0.625000000000008
40
0.625000000000008
40
0.750000000000006
40
0.750000000000006
40
0.875000000000003
40
0.875000000000003
40
1
40
1
40
1
40
1
41
1
10
43.75
20
20.4511810389476
30
0
41
1
10
43.75
20
20.4359842728918
30
0
41
1
10
43.7484779810557
20
20.4211868229534
30
0
41
1
10
43.7439599708086
20
20.3995770167443
30
0
41
1
10
43.7420864241383
20
20.3925551918343
30
0
41
1
10
43.7377115139115
20
20.3791589968836
30
0
41
1
10
43.7352004104125
20
20.3727365409518
30
0
41
1
10
43.7295292230758
20
20.360444346019
30
0
41
1
10
43.7263617408319
20
20.3545803174143
30
0
41
1
10
43.7195881949015
20
20.3437814419371
30
0
41
1
10
43.7159594784963
20
20.3387926766347
30
0
41
1
10
43.7082253053791
20
20.3296243603783
30
0
41
1
10
43.7040937531756
20
20.3254272185598
30
0
41
1
10
43.6955397235204
20
20.3180428738551
30
0
41
1
10
43.6911040884285
20
20.314832350307
30
0
41
1
10
43.6865106453464
20
20.3121010091006
30
0
0
SPLINE
5
11E
100
AcDbEntity
8
1
62
256
6
ByLayer
370
18
48
1
60
0
100
AcDbSpline
70
4
71
3
72
20
73
16
40
0
40
0
40
0
40
0
40
0.25
40
0.25
40
0.375
40
0.375
40
0.5
40
0.5
40
0.625
40
0.625
40
0.75
40
0.75
40
0.875
40
0.875
40
1
40
1
40
1
40
1
41
1
10
43.6865106453465
20
20.6878989908994
30
0
41
1
10
43.6957000859098
20
20.6824347895964
30
0
41
1
10
43.704189305352
20
20.6751290512659
30
0
41
1
10
43.7158510597949
20
20.66135095542
30
0
41
1
10
43.7195461549389
20
20.6562788106681
30
0
41
1
10
43.7263182970862
20
20.6454956293184
30
0
41
1
10
43.7294293560826
20
20.6397475513341
30
0
41
1
10
43.7350908262978
20
20.627524649763
30
0
41
1
10
43.7376593079985
20
20.6209865990583
30
0
41
1
10
43.7420660944706
20
20.6075210867982
30
0
41
1
10
43.7439160773347
20
20.6005896613163
30
0
41
1
10
43.7469146404436
20
20.5863325174432
30
0
41
1
10
43.7480661815218
20
20.5789785157967
30
0
41
1
10
43.7496122894076
20
20.5639762744384
30
0
41
1
10
43.7500000000053
20
20.5564235687165
30
0
41
1
10
43.7500000000053
20
20.5488189610531
30
0
0
SPLINE
5
11F
100
AcDbEntity
8
1
62
256
6
ByLayer
370
18
48
1
60
0
100
AcDbSpline
70
4
71
3
72
8
73
4
40
0
40
0
40
0
40
0
40
1
40
1
40
1
40
1
41
1
10
43.5812077706279
20
20.75
30
0
41
1
10
43.6163490340968
20
20.7294760627793
30
0
41
1
10
43.6514441464644
20
20.708750141474
30
0
41
1
10
43.6865106453465
20
20.6878989908994
30
0
0
SPLINE
5
120
100
AcDbEntity
8
1
62
256
6
ByLayer
370
18
48
1
60
0
100
AcDbSpline
70
4
71
3
72
12
73
8
40
0
40
0
40
0
40
0
40
0.249999999999999
40
0.249999999999999
40
0.499999999999998
40
0.499999999999998
40
1
40
1
40
1
40
1
41
1
10
43.3486705367579
20
21.6750000000002
30
0
41
1
10
43.3691678996685
20
21.5985856050232
30
0
41
1
10
43.3891994859593
20
21.5218928334205
30
0
41
1
10
43.4286973549828
20
21.3681694301979
30
0
41
1
10
43.448159045107
20
21.2911360537537
30
0
41
1
10
43.5059758657856
20
21.0596963036125
30
0
41
1
10
43.5437775330761
20
20.9049591463828
30
0
41
1
10
43.5812077706279
20
20.75
30
0
0
SPLINE
5
121
100
AcDbEntity
8
1
62
256
6
ByLayer
370
18
48
1
60
0
100
AcDbSpline
70
4
71
3
72
70
73
66
40
0
40
0
40
0
40
0
40
0.062510676844039
40
0.062510676844039
40
0.0937660152660585
40
0.0937660152660585
40
0.109393684477069
40
0.109393684477069
40
0.12502135368808
40
0.12502135368808
40
0.187532030532124
40
0.187532030532124
40
0.218787368954146
40
0.218787368954146
40
0.234415038165158
40
0.234415038165158
40
0.250042707376169
40
0.250042707376169
40
0.312553384220211
40
0.312553384220211
40
0.343808722642231
40
0.343808722642231
40
0.359436391853242
40
0.359436391853242
40
0.375064061064252
40
0.375064061064252
40
0.437574737908295
40
0.437574737908295
40
0.468830076330317
40
0.468830076330317
40
0.484457745541328
40
0.484457745541328
40
0.500085414752339
40
0.500085414752339
40
0.562596091596384
40
0.562596091596384
40
0.593851430018406
40
0.593851430018406
40
0.609479099229418
40
0.609479099229418
40
0.625106768440429
40
0.625106768440429
40
0.687617445284477
40
0.687617445284477
40
0.703245114495488
40
0.703245114495488
40
0.7188727837065
40
0.7188727837065
40
0.750128122128523
40
0.750128122128523
40
0.81263879897257
40
0.81263879897257
40
0.828266468183582
40
0.828266468183582
40
0.843894137394594
40
0.843894137394594
40
0.875149475816617
40
0.875149475816617
40
0.937660152660663
40
0.937660152660663
40
0.953287821871675
40
0.953287821871675
40
0.968915491082686
40
0.968915491082686
40
1
40
1
40
1
40
1
41
1
10
18.9914254457522
20
-13
30
0
41
1
10
18.8764774482719
20
-13
30
0
41
1
10
18.7650480250561
20
-13.0049368442311
30
0
41
1
10
18.6028398705685
20
-13.0185498446477
30
0
41
1
10
18.5495980452476
20
-13.0241254436083
30
0
41
1
10
18.4709753575224
20
-13.0339151306784
30
0
41
1
10
18.4449747456059
20
-13.0374161507405
30
0
41
1
10
18.3933906092677
20
-13.0448725097093
30
0
41
1
10
18.3677738674832
20
-13.0488344871317
30
0
41
1
10
18.2419670277898
20
-13.0695146230695
30
0
41
1
10
18.1476087793785
20
-13.0889570605627
30
0
41
1
10
18.014848789954
20
-13.1207772820457
30
0
41
1
10
17.9720678490267
20
-13.1318291732811
30
0
41
1
10
17.9101049965717
20
-13.1488696529649
30
0
41
1
10
17.8897888409808
20
-13.1546358449901
30
0
41
1
10
17.8500399653313
20
-13.1662462417767
30
0
41
1
10
17.8306700037617
20
-13.1720714353045
30
0
41
1
10
17.7362840327972
20
-13.2012022015064
30
0
41
1
10
17.6685970533548
20
-13.224523025465
30
0
41
1
10
17.5784582829214
20
-13.257734759266
30
0
41
1
10
17.5503227908174
20
-13.2685103564117
30
0
41
1
10
17.5110560957178
20
-13.2839934683796
30
0
41
1
10
17.4984282032655
20
-13.2890529142967
30
0
41
1
10
17.4743360682433
20
-13.2988368234281
30
0
41
1
10
17.4628785490219
20
-13.3035580238632
30
0
41
1
10
17.4084897616162
20
-13.3262366713292
30
0
41
1
10
17.3741858637963
20
-13.3414082861373
30
0
41
1
10
17.3365496753773
20
-13.3583553875792
30
0
41
1
10
17.3263209714908
20
-13.3630367997435
30
0
41
1
10
17.3145819994418
20
-13.3684418476194
30
0
41
1
10
17.3112648509678
20
-13.3699767032098
30
0
41
1
10
17.305894901143
20
-13.3724670170079
30
0
41
1
10
17.3038481933296
20
-13.3734195897028
30
0
41
1
10
17.2967462774178
20
-13.376727749625
30
0
41
1
10
17.3010164931499
20
-13.3747060050733
30
0
41
1
10
17.3220701576879
20
-13.3649879413702
30
0
41
1
10
17.3315429644666
20
-13.3606369726404
30
0
41
1
10
17.3495253467248
20
-13.3525067047406
30
0
41
1
10
17.3561479507095
20
-13.3495302606886
30
0
41
1
10
17.3705096401429
20
-13.3431306073983
30
0
41
1
10
17.3782634192264
20
-13.339700736462
30
0
41
1
10
17.4198431253298
20
-13.3214883757363
30
0
41
1
10
17.4620317659652
20
-13.303519560771
30
0
41
1
10
17.5257833218701
20
-13.2781615488729
30
0
41
1
10
17.5390887502413
20
-13.2729449968124
30
0
41
1
10
17.5668238893139
20
-13.2622558568962
30
0
41
1
10
17.5812674148011
20
-13.2567786093291
30
0
41
1
10
17.6259042863581
20
-13.2401648745491
30
0
41
1
10
17.6575172009815
20
-13.2288014268085
30
0
41
1
10
17.7578163310238
20
-13.1943189718926
30
0
41
1
10
17.8319162479642
20
-13.1708065046357
30
0
41
1
10
17.9339480453356
20
-13.1422557662668
30
0
41
1
10
17.9548284969905
20
-13.1365876807104
30
0
41
1
10
17.9975624653139
20
-13.1253742943176
30
0
41
1
10
18.0192774574045
20
-13.1198655797693
30
0
41
1
10
18.0853989879826
20
-13.1036972167127
30
0
41
1
10
18.1308056233387
20
-13.0933887317087
30
0
41
1
10
18.2709979556275
20
-13.0642540030434
30
0
41
1
10
18.3697234074182
20
-13.0472083644189
30
0
41
1
10
18.5001666037417
20
-13.0301943440112
30
0
41
1
10
18.5266096689808
20
-13.0270069558886
30
0
41
1
10
18.580227296302
20
-13.0211002127746
30
0
41
1
10
18.6073170744504
20
-13.0183913095388
30
0
41
1
10
18.6886866611283
20
-13.0111023234123
30
0
41
1
10
18.7435340362704
20
-13.0073013059353
30
0
41
1
10
18.7990840858541
20
-13.0046270760156
30
0
0
SPLINE
5
122
100
AcDbEntity
8
1
62
256
6
ByLayer
370
18
48
1
60
0
100
AcDbSpline
70
4
71
3
72
49
73
45
40
0
40
0
40
0
40
0
40
0.0625257418092354
40
0.0625257418092354
40
0.125051483618471
40
0.125051483618471
40
0.187577225427706
40
0.187577225427706
40
0.203208660880014
40
0.203208660880014
40
0.218840096332321
40
0.250102967236933
40
0.250102967236933
40
0.312628709046153
40
0.312628709046153
40
0.375154450855374
40
0.375154450855374
40
0.406417321759983
40
0.406417321759983
40
0.437680192664591
40
0.437680192664591
40
0.500205934473809
40
0.500205934473809
40
0.562731676283027
40
0.562731676283027
40
0.593994547187636
40
0.593994547187636
40
0.625257418092244
40
0.625257418092244
40
0.750308901710676
40
0.750308901710676
40
0.76594033716298
40
0.76594033716298
40
0.781571772615284
40
0.781571772615284
40
0.812834643519891
40
0.812834643519891
40
0.875360385329108
40
0.875360385329108
40
0.937886127138324
40
0.937886127138324
40
0.969148998042933
40
0.969148998042933
40
1
40
1
40
1
40
1
41
1
10
40
20
19.325
30
0
41
1
10
39.9282856551218
20
19.325
30
0
41
1
10
39.8572419216922
20
19.3201973772988
30
0
41
1
10
39.7165969717878
20
19.3012985964161
30
0
41
1
10
39.6469966371076
20
19.2871956279596
30
0
41
1
10
39.5096698652021
20
19.2496779703067
30
0
41
1
10
39.4419430524345
20
19.2262581138133
30
0
41
1
10
39.3589253949398
20
19.1910656766702
30
0
41
1
10
39.3423820634698
20
19.1837200068829
30
0
41
1
10
39.309660921653
20
19.1685225546675
30
0
41
1
10
39.2610813000252
20
19.1449505081365
30
0
41
1
10
39.2140464596978
20
19.1191111225838
30
0
41
1
10
39.1221512216847
20
19.0645733204689
30
0
41
1
10
39.0637854389054
20
19.0243979970496
30
0
41
1
10
38.9535279620555
20
18.9373650988635
30
0
41
1
10
38.9016389185091
20
18.8905039002717
30
0
41
1
10
38.8291881303957
20
18.8160539252091
30
0
41
1
10
38.8059135596587
20
18.7905104697874
30
0
41
1
10
38.7617465782462
20
18.7388458717913
30
0
41
1
10
38.7407815584297
20
18.7126550503952
30
0
41
1
10
38.6811811700331
20
18.6333453211045
30
0
41
1
10
38.6458470056421
20
18.5794886669721
30
0
41
1
10
38.5835049287288
20
18.4716076125896
30
0
41
1
10
38.5564979389304
20
18.4175815063522
30
0
41
1
10
38.5217139700933
20
18.3377905430047
30
0
41
1
10
38.5110468328328
20
18.3113285668339
30
0
41
1
10
38.4916987216573
20
18.2595932809643
30
0
41
1
10
38.4829965774611
20
18.234284104913
30
0
41
1
10
38.4438054758716
20
18.1109709046826
30
0
41
1
10
38.4262172820696
20
18.02276846999
30
0
41
1
10
38.4145490755458
20
17.9404777228338
30
0
41
1
10
38.4133664896291
20
17.9315681478397
30
0
41
1
10
38.4112057246831
20
17.9142327843001
30
0
41
1
10
38.4102262749495
20
17.9057945656099
30
0
41
1
10
38.4075731800453
20
17.8813506007276
30
0
41
1
10
38.406180876592
20
17.8662015403329
30
0
41
1
10
38.4028310339538
20
17.8241987219278
30
0
41
1
10
38.4016850615757
20
17.8007871114469
30
0
41
1
10
38.4003444567976
20
17.7631637492104
30
0
41
1
10
38.4001507293746
20
17.748946468492
30
0
41
1
10
38.4000218516852
20
17.734628366087
30
0
41
1
10
38.4000095292401
20
17.7310251700557
30
0
41
1
10
38.3999987099206
20
17.7262364805378
30
0
41
1
10
38.3999999774093
20
17.7250212391649
30
0
41
1
10
38.3999999946277
20
17.7250047690575
30
0
0
SPLINE
5
123
100
AcDbEntity
8
1
62
256
6
ByLayer
370
18
48
1
60
0
100
AcDbSpline
70
4
71
3
72
12
73
8
40
0
40
0
40
0
40
0
40
0.5
40
0.5
40
0.75
40
0.75
40
1
40
1
40
1
40
1
41
1
10
16.4383186059721
20
16.15
30
0
41
1
10
16.5158067972681
20
16.15
30
0
41
1
10
16.6146391546679
20
16.15
30
0
41
1
10
16.7894733595373
20
16.15
30
0
41
1
10
16.8522019587274
20
16.15
30
0
41
1
10
16.9852765976214
20
16.15
30
0
41
1
10
17.0556423470355
20
16.15
30
0
41
1
10
17.129364721646
20
16.15
30
0
0
SPLINE
5
124
100
AcDbEntity
8
1
62
256
6
ByLayer
370
18
48
1
60
0
100
AcDbSpline
70
4
71
3
72
8
73
4
40
0
40
0
40
0
40
0
40
1
40
1
40
1
40
1
41
1
10
16.6591256168518
20
-13.7503265536194
30
0
41
1
10
16.5806901315321
20
-13.8066199234023
30
0
41
1
10
16.5069403526226
20
-13.8638749980624
30
0
41
1
10
16.4383186059721
20
-13.9207719368861
30
0
0
SPLINE
5
125
100
AcDbEntity
8
1
62
256
6
ByLayer
370
18
48
1
60
0
100
AcDbSpline
70
4
71
3
72
24
73
20
40
0
40
0
40
0
40
0
40
0.195140953798999
40
0.195140953798999
40
0.390281907597998
40
0.390281907597998
40
0.487852384497498
40
0.487852384497498
40
0.585422861396998
40
0.585422861396998
40
0.682993338296497
40
0.682993338296497
40
0.780563815195997
40
0.780563815195997
40
0.878134292095497
40
0.878134292095497
40
0.975704768994997
40
0.975704768994997
40
1
40
1
40
1
40
1
41
1
10
16.4383186059721
20
16.15
30
0
41
1
10
16.4129791657012
20
16.15
30
0
41
1
10
16.3776738393675
20
16.15
30
0
41
1
10
16.2952069495878
20
16.15
30
0
41
1
10
16.2479614721562
20
16.15
30
0
41
1
10
16.17405172169
20
16.15
30
0
41
1
10
16.148914521297
20
16.15
30
0
41
1
10
16.0988343332314
20
16.15
30
0
41
1
10
16.0738889529189
20
16.15
30
0
41
1
10
16.0256494184474
20
16.15
30
0
41
1
10
16.0023538420076
20
16.15
30
0
41
1
10
15.9592071525484
20
16.15
30
0
41
1
10
15.9393614802933
20
16.15
30
0
41
1
10
15.9052089783333
20
16.15
30
0
41
1
10
15.8909212267309
20
16.15
30
0
41
1
10
15.8699353320541
20
16.15
30
0
41
1
10
15.8632655304521
20
16.15
30
0
41
1
10
15.860458950167
20
16.15
30
0
41
1
10
15.8601743589823
20
16.15
30
0
41
1
10
15.8601626059738
20
16.15
30
0
0
SPLINE
5
126
100
AcDbEntity
8
1
62
256
6
ByLayer
370
18
48
1
60
0
100
AcDbSpline
70
4
71
3
72
26
73
22
40
0
40
0
40
0
40
0
40
0.125000000000003
40
0.125000000000003
40
0.250000000000006
40
0.250000000000006
40
0.312500000000008
40
0.312500000000008
40
0.375000000000009
40
0.375000000000009
40
0.500000000000011
40
0.500000000000011
40
0.625000000000012
40
0.625000000000012
40
0.687500000000011
40
0.687500000000011
40
0.750000000000009
40
0.750000000000009
40
0.875000000000005
40
0.875000000000005
40
1
40
1
40
1
40
1
41
1
10
16.1654364093677
20
16.15
30
0
41
1
10
16.1713920665632
20
16.15
30
0
41
1
10
16.1791615054772
20
16.1521742037098
30
0
41
1
10
16.1973787321917
20
16.1604464627657
30
0
41
1
10
16.2078270791238
20
16.166546980286
30
0
41
1
10
16.2249025396983
20
16.1785261515829
30
0
41
1
10
16.2308292307569
20
16.1829924498474
30
0
41
1
10
16.243062429654
20
16.1928727646692
30
0
41
1
10
16.249380418148
20
16.1982973217311
30
0
41
1
10
16.2687012869054
20
16.2159436549267
30
0
41
1
10
16.2819498470149
20
16.2294207306935
30
0
41
1
10
16.3085474319033
20
16.2597372838578
30
0
41
1
10
16.3218991342964
20
16.2765773347327
30
0
41
1
10
16.3416029904247
20
16.30445265617
30
0
41
1
10
16.348117511246
20
16.3141816939082
30
0
41
1
10
16.3609757232561
20
16.3345474125541
30
0
41
1
10
16.3673343629252
20
16.3452116334775
30
0
41
1
10
16.3859245080864
20
16.3783923421345
30
0
41
1
10
16.3976704240409
20
16.4020762084593
30
0
41
1
10
16.4194203230358
20
16.4527211011582
30
0
41
1
10
16.4294267012645
20
16.4796808306353
30
0
41
1
10
16.4383186059721
20
16.5084351655183
30
0
0
SPLINE
5
127
100
AcDbEntity
8
1
62
256
6
ByLayer
370
18
48
1
60
0
100
AcDbSpline
70
4
71
3
72
28
73
24
40
0
40
0
40
0
40
0
40
0.125
40
0.125
40
0.250000000000001
40
0.250000000000001
40
0.375000000000001
40
0.375000000000001
40
0.437500000000001
40
0.437500000000001
40
0.500000000000001
40
0.500000000000001
40
0.625000000000001
40
0.625000000000001
40
0.75
40
0.75
40
0.8125
40
0.8125
40
0.875
40
0.875
40
0.9375
40
0.9375
40
1
40
1
40
1
40
1
41
1
10
15.2792076144252
20
-15.5102219048535
30
0
41
1
10
15.3036876104775
20
-15.4492228351586
30
0
41
1
10
15.3318039065811
20
-15.3835095532046
30
0
41
1
10
15.3963966396086
20
-15.2445402147746
30
0
41
1
10
15.432888219511
20
-15.1712792700501
30
0
41
1
10
15.5148367562374
20
-15.0199147031931
30
0
41
1
10
15.5603123442413
20
-14.9418124831016
30
0
41
1
10
15.6349403846912
20
-14.8237242184425
30
0
41
1
10
15.6608788767122
20
-14.7842084155391
30
0
41
1
10
15.714635085075
20
-14.7054591469131
30
0
41
1
10
15.7424571948128
20
-14.6662195086593
30
0
41
1
10
15.8282793886781
20
-14.5497323960198
30
0
41
1
10
15.8887022261885
20
-14.4737175442584
30
0
41
1
10
16.0119163295737
20
-14.3295094364487
30
0
41
1
10
16.074717877759
20
-14.261319788226
30
0
41
1
10
16.1659909688996
20
-14.1682499930402
30
0
41
1
10
16.195909259536
20
-14.13876082715
30
0
41
1
10
16.2536937774656
20
-14.0834222684611
30
0
41
1
10
16.2815627874617
20
-14.0575701238464
30
0
41
1
10
16.3339805562779
20
-14.0101445081266
30
0
41
1
10
16.3585358837917
20
-13.9885647906234
30
0
41
1
10
16.4026981445088
20
-13.9505180070132
30
0
41
1
10
16.4223220059692
20
-13.9340353353884
30
0
41
1
10
16.4383186059721
20
-13.9207719368861
30
0
0
SPLINE
5
128
100
AcDbEntity
8
1
62
256
6
ByLayer
370
18
48
1
60
0
100
AcDbSpline
70
4
71
3
72
10
73
6
40
0
40
0
40
0
40
0
40
0.5
40
0.5
40
1
40
1
40
1
40
1
41
1
10
17.129364721646
20
16.15
30
0
41
1
10
17.0047828651407
20
15.5447172003208
30
0
41
1
10
16.8843273269042
20
14.9394689530649
30
0
41
1
10
16.653373127856
20
13.7285078984243
30
0
41
1
10
16.5428782715133
20
13.1227960298832
30
0
41
1
10
16.4383186059721
20
12.5165093023851
30
0
0
SPLINE
5
129
100
AcDbEntity
8
1
62
256
6
ByLayer
370
18
48
1
60
0
100
AcDbSpline
70
4
71
3
72
27
73
23
40
0
40
0
40
0
40
0
40
0.125000000000001
40
0.125000000000001
40
0.250000000000003
40
0.250000000000003
40
0.375000000000004
40
0.375000000000004
40
0.500000000000006
40
0.500000000000006
40
0.625000000000007
40
0.625000000000007
40
0.656250000000007
40
0.656250000000007
40
0.687500000000007
40
0.750000000000006
40
0.750000000000006
40
0.875000000000003
40
0.875000000000003
40
0.937500000000002
40
0.937500000000002
40
1
40
1
40
1
40
1
41
1
10
15.2792076144252
20
9.37174114820567
30
0
41
1
10
15.3137412646751
20
9.4963792441271
30
0
41
1
10
15.3519914505441
20
9.619604863462
30
0
41
1
10
15.4355488898989
20
9.864602607666
30
0
41
1
10
15.4808594369558
20
9.98637645756139
30
0
41
1
10
15.5775581833777
20
10.2301855656694
30
0
41
1
10
15.6289486434699
20
10.3522227983605
30
0
41
1
10
15.7361332927834
20
10.5985562309594
30
0
41
1
10
15.7919297266739
20
10.722853090091
30
0
41
1
10
15.9054955550085
20
10.9759395356204
30
0
41
1
10
15.9632700144521
20
11.1047255789715
30
0
41
1
10
16.0346691808459
20
11.2700782847896
30
0
41
1
10
16.0489168318847
20
11.3033949579671
30
0
41
1
10
16.077174595654
20
11.3702969583079
30
0
41
1
10
16.1192247546862
20
11.4710995450002
30
0
41
1
10
16.1599745330804
20
11.573375217827
30
0
41
1
10
16.2388940314007
20
11.7802452153948
30
0
41
1
10
16.2881214518317
20
11.9212218831079
30
0
41
1
10
16.3527988288237
20
12.1390199223173
30
0
41
1
10
16.3728206392269
20
12.2126795608629
30
0
41
1
10
16.4088701951302
20
12.3625399471325
30
0
41
1
10
16.4249058710279
20
12.4387358786267
30
0
41
1
10
16.4383186059721
20
12.5165093023851
30
0
0
SPLINE
5
12A
100
AcDbEntity
8
1
62
256
6
ByLayer
370
18
48
1
60
0
100
AcDbSpline
70
4
71
3
72
27
73
23
40
0
40
0
40
0
40
0
40
0.0624999999999999
40
0.0624999999999999
40
0.125
40
0.125
40
0.250000000000001
40
0.250000000000001
40
0.281250000000001
40
0.281250000000001
40
0.312500000000001
40
0.375000000000001
40
0.375000000000001
40
0.500000000000001
40
0.500000000000001
40
0.625
40
0.625
40
0.75
40
0.75
40
0.875
40
0.875
40
1
40
1
40
1
40
1
41
1
10
16.4383186059721
20
-12.5165093023851
30
0
41
1
10
16.4249262659534
20
-12.4388541381161
30
0
41
1
10
16.4088940310531
20
-12.3626367271305
30
0
41
1
10
16.3727838562588
20
-12.2125289599695
30
0
41
1
10
16.3526985008554
20
-12.1386427064581
30
0
41
1
10
16.2877128345096
20
-11.9199251720716
30
0
41
1
10
16.2381196660062
20
-11.7780191743753
30
0
41
1
10
16.1717160755614
20
-11.6042051310512
30
0
41
1
10
16.1581980323088
20
-11.5695894106841
30
0
41
1
10
16.1308529992609
20
-11.500853934746
30
0
41
1
10
16.0894082629542
20
-11.3985838073516
30
0
41
1
10
16.0470067341171
20
-11.2985984966568
30
0
41
1
10
15.961683005877
20
-11.1011598805332
30
0
41
1
10
15.904133128855
20
-10.9729017216638
30
0
41
1
10
15.7909594192315
20
-10.7206923390475
30
0
41
1
10
15.7353311438692
20
-10.5967442724701
30
0
41
1
10
15.6284247432235
20
-10.3509868164803
30
0
41
1
10
15.5771448109702
20
-10.2291765798554
30
0
41
1
10
15.4806222621424
20
-9.98574497658242
30
0
41
1
10
15.4353776852007
20
-9.86412151309415
30
0
41
1
10
15.3519237821951
20
-9.61938550141778
30
0
41
1
10
15.3137113165052
20
-9.49627115584656
30
0
41
1
10
15.2792076144252
20
-9.37174114820567
30
0
0
SPLINE
5
12B
100
AcDbEntity
8
1
62
256
6
ByLayer
370
18
48
1
60
0
100
AcDbSpline
70
4
71
3
72
8
73
4
40
0
40
0
40
0
40
0
40
1
40
1
40
1
40
1
41
1
10
16.4383186059721
20
-12.5165093023851
30
0
41
1
10
16.5092873736201
20
-12.9280200093975
30
0
41
1
10
16.5829903172974
20
-13.339255362522
30
0
41
1
10
16.6591256168518
20
-13.7503265536194
30
0
0
SPLINE
5
12C
100
AcDbEntity
8
1
62
256
6
ByLayer
370
18
48
1
60
0
100
AcDbSpline
70
4
71
3
72
25
73
21
40
0
40
0
40
0
40
0
40
0.250000000000016
40
0.250000000000016
40
0.31250000000002
40
0.343750000000021
40
0.343750000000021
40
0.375000000000023
40
0.375000000000023
40
0.500000000000026
40
0.500000000000026
40
0.75000000000003
40
0.75000000000003
40
0.781250000000028
40
0.781250000000028
40
0.812500000000025
40
0.812500000000025
40
0.875000000000016
40
0.875000000000016
40
1
40
1
40
1
40
1
41
1
10
18.8
20
-13.0045830882474
30
0
41
1
10
18.5965707869122
20
-13.0143296375198
30
0
41
1
10
18.3973018458721
20
-13.0393520606836
30
0
41
1
10
18.1530945139203
20
-13.0885190230323
30
0
41
1
10
18.0802003995055
20
-13.1046187495055
30
0
41
1
10
18.0078556087913
20
-13.1227318676043
30
0
41
1
10
17.9597477500027
20
-13.1352543516082
30
0
41
1
10
17.9357253189722
20
-13.1417477568888
30
0
41
1
10
17.8165122868376
20
-13.1751615543269
30
0
41
1
10
17.7237025888272
20
-13.2049863207173
30
0
41
1
10
17.4523126592029
20
-13.3029563024044
30
0
41
1
10
17.2807299243466
20
-13.3795472162396
30
0
41
1
10
17.0970397510559
20
-13.4769563512383
30
0
41
1
10
17.0767603590305
20
-13.4879368394121
30
0
41
1
10
17.0364602073477
20
-13.5102090385096
30
0
41
1
10
17.0164251085188
20
-13.5215093792637
30
0
41
1
10
16.9569392890744
20
-13.5557352888062
30
0
41
1
10
16.9180388293667
20
-13.5790222112634
30
0
41
1
10
16.8034924806485
20
-13.6502188566484
30
0
41
1
10
16.7299972607514
20
-13.699461774229
30
0
41
1
10
16.6591256168518
20
-13.7503265536194
30
0
0
SPLINE
5
12D
100
AcDbEntity
8
1
62
256
6
ByLayer
370
18
48
1
60
0
100
AcDbSpline
70
4
71
3
72
14
73
10
40
0
40
0
40
0
40
0
40
0.25
40
0.25
40
0.5
40
0.5
40
0.75
40
0.75
40
1
40
1
40
1
40
1
41
1
10
15.2792076144252
20
9.37174114820567
30
0
41
1
10
15.2288713228965
20
9.19006850466837
30
0
41
1
10
15.1877755693608
20
9.00522755145204
30
0
41
1
10
15.1203452291585
20
8.62944184606252
30
0
41
1
10
15.0940253955619
20
8.43849623021063
30
0
41
1
10
15.0533282296036
20
8.05066291481234
30
0
41
1
10
15.0389592457916
20
7.85377474328183
30
0
41
1
10
15.0198663992482
20
7.45416893572983
30
0
41
1
10
15.0151476398308
20
7.25145103084847
30
0
41
1
10
15.0142676097515
20
7.04585540943492
30
0
0
SPLINE
5
12E
100
AcDbEntity
8
1
62
256
6
ByLayer
370
18
48
1
60
0
100
AcDbSpline
70
4
71
3
72
16
73
12
40
0
40
0
40
0
40
0
40
0.249423080430374
40
0.249423080430374
40
0.498846160860748
40
0.498846160860748
40
0.748269241291121
40
0.748269241291121
40
0.997692321721495
40
0.997692321721495
40
1
40
1
40
1
40
1
41
1
10
15.2792076144252
20
-15.5102219048535
30
0
41
1
10
15.2464771809127
20
-15.5917793524412
30
0
41
1
10
15.2209480890886
20
-15.6629712913491
30
0
41
1
10
15.1798709860919
20
-15.7850111663419
30
0
41
1
10
15.1643403762961
20
-15.8358591141257
30
0
41
1
10
15.1404826577962
20
-15.9173902942854
30
0
41
1
10
15.1321631932172
20
-15.9480737665842
30
0
41
1
10
15.1211764550497
20
-15.989244498231
30
0
41
1
10
15.1185112070444
20
-15.9997323492338
30
0
41
1
10
15.1184427768199
20
-15.9999973769252
30
0
41
1
10
15.1184424091075
20
-15.9999987876367
30
0
41
1
10
15.1184421502649
20
-15.9999997536531
30
0
0
SPLINE
5
12F
100
AcDbEntity
8
1
62
256
6
ByLayer
370
18
48
1
60
0
100
AcDbSpline
70
4
71
3
72
14
73
10
40
0
40
0
40
0
40
0
40
0.25
40
0.25
40
0.5
40
0.5
40
0.75
40
0.75
40
1
40
1
40
1
40
1
41
1
10
15.0142676097515
20
-7.04585540943492
30
0
41
1
10
15.0151476398308
20
-7.25145103084847
30
0
41
1
10
15.0198663992482
20
-7.45416893572983
30
0
41
1
10
15.0389592457916
20
-7.85377474328183
30
0
41
1
10
15.0533282296036
20
-8.05066291481234
30
0
41
1
10
15.0940253955619
20
-8.43849623021063
30
0
41
1
10
15.1203452291585
20
-8.62944184606252
30
0
41
1
10
15.1877755693608
20
-9.00522755145204
30
0
41
1
10
15.2288713228964
20
-9.19006850466837
30
0
41
1
10
15.2792076144252
20
-9.37174114820567
30
0
0
SPLINE
5
130
100
AcDbEntity
8
1
62
256
6
ByLayer
370
18
48
1
60
0
100
AcDbSpline
70
4
71
3
72
24
73
20
40
0
40
0
40
0
40
0
40
0.0624999999999987
40
0.0624999999999987
40
0.124999999999997
40
0.124999999999997
40
0.249999999999997
40
0.249999999999997
40
0.374999999999996
40
0.374999999999996
40
0.437499999999997
40
0.437499999999997
40
0.499999999999998
40
0.499999999999998
40
0.624999999999997
40
0.624999999999997
40
0.749999999999995
40
0.749999999999995
40
1
40
1
40
1
40
1
41
1
10
7.07679491924327
20
15.2769622091385
30
0
41
1
10
7.08626323279279
20
15.2769622091385
30
0
41
1
10
7.09555909908858
20
15.2766767665958
30
0
41
1
10
7.11383636157848
20
15.2755844637371
30
0
41
1
10
7.12288968289403
20
15.2747681865974
30
0
41
1
10
7.14908346306851
20
15.2716451329302
30
0
41
1
10
7.16496872151981
20
15.268738812049
30
0
41
1
10
7.1945315827696
20
15.261747480553
30
0
41
1
10
7.20768429079325
20
15.2577843892056
30
0
41
1
10
7.2257383204562
20
15.2513732657938
30
0
41
1
10
7.2314739307844
20
15.2491554094552
30
0
41
1
10
7.24245955537376
20
15.24457767362
30
0
41
1
10
7.24772142874491
20
15.2422111791404
30
0
41
1
10
7.26269940300645
20
15.2350027269099
30
0
41
1
10
7.27167180250149
20
15.2300336355428
30
0
41
1
10
7.28809973591254
20
15.2198327834235
30
0
41
1
10
7.29554986762537
20
15.214600303678
30
0
41
1
10
7.31604838234088
20
15.198560277361
30
0
41
1
10
7.32728622413828
20
15.1873822623297
30
0
41
1
10
7.33660254037864
20
15.1759383782004
30
0
0
SPLINE
5
131
100
AcDbEntity
8
1
62
256
6
ByLayer
370
18
48
1
60
0
100
AcDbSpline
70
4
71
3
72
26
73
22
40
0
40
0
40
0
40
0
40
0.25
40
0.25
40
0.375
40
0.375
40
0.5
40
0.5
40
0.625
40
0.625
40
0.6875
40
0.6875
40
0.75
40
0.75
40
0.8125
40
0.8125
40
0.875
40
0.875
40
0.9375
40
0.9375
40
1
40
1
40
1
40
1
41
1
10
7.33660254037858
20
5.0686185831118
30
0
41
1
10
7.32728982767759
20
5.03436773122377
30
0
41
1
10
7.31614231629348
20
5.00076260618602
30
0
41
1
10
7.29568810990139
20
4.95169735098642
30
0
41
1
10
7.28824166023676
20
4.93556834940273
30
0
41
1
10
7.27177247547104
20
4.90388358540412
30
0
41
1
10
7.26270511696598
20
4.88825374454379
30
0
41
1
10
7.24272264769479
20
4.8581790589264
30
0
41
1
10
7.23183787729363
20
4.84374619181003
30
0
41
1
10
7.2136568799915
20
4.82335822863098
30
0
41
1
10
7.2072802857497
20
4.81677720791066
30
0
41
1
10
7.19399447938267
20
4.80434108428398
30
0
41
1
10
7.18706371265947
20
4.79845918233451
30
0
41
1
10
7.17251656377681
20
4.78749730730044
30
0
41
1
10
7.16490128977483
20
4.78241603395364
30
0
41
1
10
7.148819916848
20
4.77324997167185
30
0
41
1
10
7.1403600578945
20
4.76918729638879
30
0
41
1
10
7.12304490820168
20
4.76256082995423
30
0
41
1
10
7.11412407245967
20
4.75995494840856
30
0
41
1
10
7.09567030488512
20
4.75638866313565
30
0
41
1
10
7.08624924967634
20
4.75546271781752
30
0
41
1
10
7.07679491924327
20
4.75546271781752
30
0
0
SPLINE
5
132
100
AcDbEntity
8
1
62
256
6
ByLayer
370
18
48
1
60
0
100
AcDbSpline
70
4
71
3
72
24
73
20
40
0
40
0
40
0
40
0
40
0.0624999999999981
40
0.0624999999999981
40
0.124999999999996
40
0.124999999999996
40
0.250000000000001
40
0.250000000000001
40
0.375000000000006
40
0.375000000000006
40
0.437500000000009
40
0.437500000000009
40
0.500000000000012
40
0.500000000000012
40
0.62500000000001
40
0.62500000000001
40
0.750000000000009
40
0.750000000000009
40
1
40
1
40
1
40
1
41
1
10
4.92320508075687
20
4.75546271781758
30
0
41
1
10
4.91373676720735
20
4.75546271781758
30
0
41
1
10
4.90444090091157
20
4.75637996187979
30
0
41
1
10
4.88616363842164
20
4.75988683311402
30
0
41
1
10
4.87711031710609
20
4.76250659424693
30
0
41
1
10
4.85091653693161
20
4.77251545749058
30
0
41
1
10
4.8350312784803
20
4.78181464126988
30
0
41
1
10
4.80546841723051
20
4.8040815994184
30
0
41
1
10
4.79231570920686
20
4.81666025178743
30
0
41
1
10
4.77426167954391
20
4.83690641005074
30
0
41
1
10
4.76852606921571
20
4.84389474378378
30
0
41
1
10
4.75754044462639
20
4.8582824684799
30
0
41
1
10
4.7522785712552
20
4.86570247833646
30
0
41
1
10
4.73730059699366
20
4.88824517182357
30
0
41
1
10
4.72832819749866
20
4.90370784583433
30
0
41
1
10
4.71190026408757
20
4.93527762356774
30
0
41
1
10
4.70445013237475
20
4.95138709271157
30
0
41
1
10
4.68395161765923
20
5.00049514204593
30
0
41
1
10
4.67271377586187
20
5.03435447791105
30
0
41
1
10
4.66339745962148
20
5.06861858311171
30
0
0
SPLINE
5
133
100
AcDbEntity
8
1
62
256
6
ByLayer
370
18
48
1
60
0
100
AcDbSpline
70
4
71
3
72
26
73
22
40
0
40
0
40
0
40
0
40
0.249999999999998
40
0.249999999999998
40
0.374999999999998
40
0.374999999999998
40
0.499999999999998
40
0.499999999999998
40
0.624999999999998
40
0.624999999999998
40
0.687499999999999
40
0.687499999999999
40
0.749999999999999
40
0.749999999999999
40
0.812499999999999
40
0.812499999999999
40
0.874999999999999
40
0.874999999999999
40
0.9375
40
0.9375
40
1
40
1
40
1
40
1
41
1
10
4.66339745962154
20
15.1759383782004
30
0
41
1
10
4.67271017232255
20
15.1873778358497
30
0
41
1
10
4.68385768370663
20
15.198472208594
30
0
41
1
10
4.70431189009872
20
15.214499313942
30
0
41
1
10
4.71175833976335
20
15.2197385738514
30
0
41
1
10
4.7282275245291
20
15.2299771164901
30
0
41
1
10
4.73729488303417
20
15.2349999859553
30
0
41
1
10
4.75727735230532
20
15.2446169343317
30
0
41
1
10
4.76816212270651
20
15.249207392375
30
0
41
1
10
4.78634312000864
20
15.2556634144466
30
0
41
1
10
4.79271971425041
20
15.2577422915747
30
0
41
1
10
4.80600552061748
20
15.261662728963
30
0
41
1
10
4.81293628734068
20
15.263512783028
30
0
41
1
10
4.82748343622333
20
15.2669545926744
30
0
41
1
10
4.83509871022531
20
15.2685467526768
30
0
41
1
10
4.85118008315214
20
15.271414727144
30
0
41
1
10
4.85963994210564
20
15.2726836076142
30
0
41
1
10
4.87695509179844
20
15.2747512708819
30
0
41
1
10
4.88587592754044
20
15.2755632425517
30
0
41
1
10
4.90432969511502
20
15.276674061237
30
0
41
1
10
4.9137507503238
20
15.2769622091386
30
0
41
1
10
4.92320508075684
20
15.2769622091386
30
0
0
SPLINE
5
134
100
AcDbEntity
8
1
62
256
6
ByLayer
370
18
48
1
60
0
100
AcDbSpline
70
4
71
3
72
24
73
20
40
0
40
0
40
0
40
0
40
0.062499999999999
40
0.062499999999999
40
0.124999999999998
40
0.124999999999998
40
0.25
40
0.25
40
0.375000000000002
40
0.375000000000002
40
0.437500000000002
40
0.437500000000002
40
0.500000000000001
40
0.500000000000001
40
0.625000000000002
40
0.625000000000002
40
0.750000000000003
40
0.750000000000003
40
1
40
1
40
1
40
1
41
1
10
4.92320508075687
20
-15.2769622091385
30
0
41
1
10
4.91373676720735
20
-15.2769622091385
30
0
41
1
10
4.90444090091157
20
-15.2766767665958
30
0
41
1
10
4.88616363842164
20
-15.2755844637371
30
0
41
1
10
4.87711031710609
20
-15.2747681865974
30
0
41
1
10
4.85091653693161
20
-15.2716451329302
30
0
41
1
10
4.8350312784803
20
-15.268738812049
30
0
41
1
10
4.80546841723051
20
-15.261747480553
30
0
41
1
10
4.79231570920686
20
-15.2577843892056
30
0
41
1
10
4.77426167954391
20
-15.2513732657938
30
0
41
1
10
4.76852606921571
20
-15.2491554094552
30
0
41
1
10
4.75754044462636
20
-15.24457767362
30
0
41
1
10
4.7522785712552
20
-15.2422111791405
30
0
41
1
10
4.73730059699366
20
-15.2350027269099
30
0
41
1
10
4.72832819749863
20
-15.2300336355428
30
0
41
1
10
4.71190026408757
20
-15.2198327834236
30
0
41
1
10
4.70445013237475
20
-15.214600303678
30
0
41
1
10
4.68395161765923
20
-15.198560277361
30
0
41
1
10
4.67271377586187
20
-15.1873822623297
30
0
41
1
10
4.66339745962148
20
-15.1759383782004
30
0
0
SPLINE
5
135
100
AcDbEntity
8
1
62
256
6
ByLayer
370
18
48
1
60
0
100
AcDbSpline
70
4
71
3
72
26
73
22
40
0
40
0
40
0
40
0
40
0.250000000000003
40
0.250000000000003
40
0.375000000000005
40
0.375000000000005
40
0.500000000000006
40
0.500000000000006
40
0.625000000000008
40
0.625000000000008
40
0.687500000000007
40
0.687500000000007
40
0.750000000000005
40
0.750000000000005
40
0.812500000000004
40
0.812500000000004
40
0.875000000000003
40
0.875000000000003
40
0.937500000000001
40
0.937500000000001
40
1
40
1
40
1
40
1
41
1
10
4.66339745962154
20
-5.06861858311171
30
0
41
1
10
4.67271017232255
20
-5.03436773122371
30
0
41
1
10
4.68385768370663
20
-5.00076260618599
30
0
41
1
10
4.70431189009872
20
-4.95169735098636
30
0
41
1
10
4.71175833976335
20
-4.93556834940267
30
0
41
1
10
4.7282275245291
20
-4.90388358540409
30
0
41
1
10
4.73729488303417
20
-4.88825374454376
30
0
41
1
10
4.75727735230535
20
-4.85817905892637
30
0
41
1
10
4.76816212270651
20
-4.84374619181
30
0
41
1
10
4.78634312000864
20
-4.82335822863095
30
0
41
1
10
4.79271971425041
20
-4.8167772079106
30
0
41
1
10
4.80600552061748
20
-4.80434108428395
30
0
41
1
10
4.81293628734068
20
-4.79845918233445
30
0
41
1
10
4.82748343622333
20
-4.78749730730041
30
0
41
1
10
4.83509871022531
20
-4.78241603395361
30
0
41
1
10
4.85118008315214
20
-4.77324997167182
30
0
41
1
10
4.85963994210564
20
-4.76918729638874
30
0
41
1
10
4.87695509179844
20
-4.7625608299542
30
0
41
1
10
4.88587592754044
20
-4.75995494840851
30
0
41
1
10
4.90432969511502
20
-4.75638866313562
30
0
41
1
10
4.9137507503238
20
-4.75546271781749
30
0
41
1
10
4.92320508075687
20
-4.75546271781747
30
0
0
SPLINE
5
136
100
AcDbEntity
8
1
62
256
6
ByLayer
370
18
48
1
60
0
100
AcDbSpline
70
4
71
3
72
24
73
20
40
0
40
0
40
0
40
0
40
0.0624999999999998
40
0.0624999999999998
40
0.125
40
0.125
40
0.250000000000001
40
0.250000000000001
40
0.375000000000001
40
0.375000000000001
40
0.4375
40
0.4375
40
0.499999999999999
40
0.499999999999999
40
0.625
40
0.625
40
0.750000000000002
40
0.750000000000002
40
1
40
1
40
1
40
1
41
1
10
7.07679491924327
20
-4.75546271781761
30
0
41
1
10
7.08626323279279
20
-4.75546271781761
30
0
41
1
10
7.09555909908858
20
-4.75637996187982
30
0
41
1
10
7.11383636157851
20
-4.75988683311402
30
0
41
1
10
7.12288968289405
20
-4.76250659424696
30
0
41
1
10
7.14908346306854
20
-4.77251545749061
30
0
41
1
10
7.16496872151984
20
-4.7818146412699
30
0
41
1
10
7.19453158276963
20
-4.80408159941845
30
0
41
1
10
7.20768429079328
20
-4.81666025178745
30
0
41
1
10
7.22573832045623
20
-4.83690641005077
30
0
41
1
10
7.23147393078443
20
-4.84389474378384
30
0
41
1
10
7.24245955537378
20
-4.85828246847996
30
0
41
1
10
7.24772142874494
20
-4.86570247833652
30
0
41
1
10
7.26269940300648
20
-4.88824517182363
30
0
41
1
10
7.27167180250151
20
-4.90370784583439
30
0
41
1
10
7.2880997359126
20
-4.93527762356783
30
0
41
1
10
7.2955498676254
20
-4.95138709271166
30
0
41
1
10
7.31604838234091
20
-5.00049514204602
30
0
41
1
10
7.32728622413839
20
-5.03435447791148
30
0
41
1
10
7.33660254037875
20
-5.06861858311214
30
0
0
SPLINE
5
137
100
AcDbEntity
8
1
62
256
6
ByLayer
370
18
48
1
60
0
100
AcDbSpline
70
4
71
3
72
26
73
22
40
0
40
0
40
0
40
0
40
0.249999999999998
40
0.249999999999998
40
0.374999999999999
40
0.374999999999999
40
0.500000000000001
40
0.500000000000001
40
0.625000000000002
40
0.625000000000002
40
0.687500000000002
40
0.687500000000002
40
0.750000000000001
40
0.750000000000001
40
0.812500000000001
40
0.812500000000001
40
0.875000000000001
40
0.875000000000001
40
0.9375
40
0.9375
40
1
40
1
40
1
40
1
41
1
10
7.33660254037869
20
-15.1759383782002
30
0
41
1
10
7.3272898276777
20
-15.1873778358496
30
0
41
1
10
7.31614231629351
20
-15.198472208594
30
0
41
1
10
7.29568810990142
20
-15.214499313942
30
0
41
1
10
7.28824166023679
20
-15.2197385738514
30
0
41
1
10
7.27177247547107
20
-15.22997711649
30
0
41
1
10
7.262705116966
20
-15.2349999859552
30
0
41
1
10
7.24272264769482
20
-15.2446169343317
30
0
41
1
10
7.23183787729366
20
-15.249207392375
30
0
41
1
10
7.21365687999153
20
-15.2556634144465
30
0
41
1
10
7.20728028574973
20
-15.2577422915747
30
0
41
1
10
7.1939944793827
20
-15.2616627289629
30
0
41
1
10
7.18706371265949
20
-15.263512783028
30
0
41
1
10
7.17251656377684
20
-15.2669545926744
30
0
41
1
10
7.16490128977483
20
-15.2685467526768
30
0
41
1
10
7.148819916848
20
-15.271414727144
30
0
41
1
10
7.1403600578945
20
-15.2726836076142
30
0
41
1
10
7.12304490820171
20
-15.2747512708819
30
0
41
1
10
7.1141240724597
20
-15.2755632425517
30
0
41
1
10
7.09567030488512
20
-15.276674061237
30
0
41
1
10
7.08624924967634
20
-15.2769622091386
30
0
41
1
10
7.07679491924327
20
-15.2769622091386
30
0
0
SPLINE
5
138
100
AcDbEntity
8
SK1
62
256
6
ByLayer
370
18
48
1
60
0
100
AcDbSpline
70
4
71
3
72
8
73
4
40
0
40
0
40
0
40
0
40
1
40
1
40
1
40
1
41
1
10
-0.394913799811292
20
10.7863826978029
30
0
41
1
10
-0.394913799811292
20
10.7772102101423
30
0
41
1
10
-0.394913799811292
20
10.767131757724
30
0
41
1
10
-0.394913799811292
20
10.7561716978029
30
0
0
SPLINE
5
139
100
AcDbEntity
8
SK1
62
256
6
ByLayer
370
13
48
1
60
0
100
AcDbSpline
70
4
71
3
72
17
73
13
40
0
40
0
40
0
40
0
40
0.0281908533221593
40
0.11466434362183
40
0.2011378339215
40
0.37408481452084
40
0.547031795120181
40
0.633505285419851
40
0.719978775719522
40
0.892925756318862
40
0.979399246618533
40
1
40
1
40
1
40
1
41
1
10
-0.394913799811292
20
10.7561711443723
30
0
41
1
10
-0.394913799811292
20
10.7416120995984
30
0
41
1
10
-0.394913799811292
20
10.6760666838461
30
0
41
1
10
-0.394913799811292
20
10.5176015241825
30
0
41
1
10
-0.394913799811292
20
10.1419122155822
30
0
41
1
10
-0.394913799811292
20
9.49397590704038
30
0
41
1
10
-0.394913799811292
20
8.63424142104822
30
0
41
1
10
-0.394913799811292
20
7.82801077124961
30
0
41
1
10
-0.394913799811292
20
6.94587050581816
30
0
41
1
10
-0.394913799811292
20
5.95443994194233
30
0
41
1
10
-0.394913799811292
20
5.06372374199364
30
0
41
1
10
-0.394913799811292
20
4.70990996410777
30
0
41
1
10
-0.394913799811292
20
4.64134914436013
30
0
0
SPLINE
5
13A
100
AcDbEntity
8
SK1
62
256
6
ByLayer
370
13
48
1
60
0
100
AcDbSpline
70
4
71
3
72
17
73
13
40
0
40
0
40
0
40
0
40
0.0206008114847568
40
0.107074291438951
40
0.280021251347338
40
0.366494731301531
40
0.452968211255725
40
0.625915171164113
40
0.7988621310725
40
0.885335611026694
40
0.971809090980887
40
1
40
1
40
1
40
1
41
1
10
-0.394913799811292
20
-4.64134848730563
30
0
41
1
10
-0.394913799811292
20
-4.70990950240184
30
0
41
1
10
-0.394913799811292
20
-5.06372344169986
30
0
41
1
10
-0.394913799811292
20
-5.95443982150178
30
0
41
1
10
-0.394913799811292
20
-6.94587050303235
30
0
41
1
10
-0.394913799811292
20
-7.82801067908787
30
0
41
1
10
-0.394913799811292
20
-8.63424165383259
30
0
41
1
10
-0.394913799811292
20
-9.49397564760932
30
0
41
1
10
-0.394913799811292
20
-10.1419126962119
30
0
41
1
10
-0.394913799811292
20
-10.5176014399701
30
0
41
1
10
-0.394913799811292
20
-10.6760668753129
30
0
41
1
10
-0.394913799811263
20
-10.7416124016418
30
0
41
1
10
-0.394913799811292
20
-10.7561714872985
30
0
0
SPLINE
5
13B
100
AcDbEntity
8
SK1
62
256
6
ByLayer
370
18
48
1
60
0
100
AcDbSpline
70
4
71
3
72
8
73
4
40
0
40
0
40
0
40
0
40
1
40
1
40
1
40
1
41
1
10
-0.394913799811292
20
-10.7561718177086
30
0
41
1
10
-0.394913799811292
20
-10.7671318775953
30
0
41
1
10
-0.394913799811292
20
-10.7772103303562
30
0
41
1
10
-0.394913799811292
20
-10.7863828177394
30
0
0
SPLINE
5
13C
100
AcDbEntity
8
SK1
62
256
6
ByLayer
370
18
48
1
60
0
100
AcDbSpline
70
4
71
3
72
36
73
32
40
0
40
0
40
0
40
0
40
0.250000000000009
40
0.250000000000009
40
0.375000000000013
40
0.375000000000013
40
0.500000000000016
40
0.500000000000016
40
0.625000000000019
40
0.625000000000019
40
0.687500000000018
40
0.687500000000018
40
0.750000000000018
40
0.750000000000018
40
0.812500000000017
40
0.812500000000017
40
0.843750000000014
40
0.843750000000014
40
0.875000000000011
40
0.875000000000011
40
0.906250000000009
40
0.906250000000009
40
0.921875000000008
40
0.921875000000008
40
0.937500000000006
40
0.937500000000006
40
0.953125000000005
40
0.953125000000005
40
0.968750000000004
40
0.968750000000004
40
1
40
1
40
1
40
1
41
1
10
-0.199999999999989
20
-5.33617165766907
30
0
41
1
10
-0.200315036908961
20
-5.27289521367564
30
0
41
1
10
-0.201789875664218
20
-5.20909745628526
30
0
41
1
10
-0.206624587173906
20
-5.11250115776278
30
0
41
1
10
-0.208678726715391
20
-5.08015186615313
30
0
41
1
10
-0.21396377316492
20
-5.01511877685402
30
0
41
1
10
-0.21719280977581
20
-4.98240206952661
30
0
41
1
10
-0.225317789620732
20
-4.91677347333891
30
0
41
1
10
-0.230191721451263
20
-4.88386769345621
30
0
41
1
10
-0.239523041011836
20
-4.83438451823684
30
0
41
1
10
-0.242981263754075
20
-4.81784570689231
30
0
41
1
10
-0.250820187075703
20
-4.78490372523328
30
0
41
1
10
-0.255194249132046
20
-4.76849148766289
30
0
41
1
10
-0.265341062182387
20
-4.73587605207916
30
0
41
1
10
-0.271083459937017
20
-4.71966709939039
30
0
41
1
10
-0.281609047729489
20
-4.69567298808659
30
0
41
1
10
-0.285461791842181
20
-4.6876968242268
30
0
41
1
10
-0.294043491658414
20
-4.6721963164303
30
0
41
1
10
-0.298764108881414
20
-4.66464732333566
30
0
41
1
10
-0.309721117058871
20
-4.65026872536157
30
0
41
1
10
-0.315847861838733
20
-4.64354733439694
30
0
41
1
10
-0.326745887820323
20
-4.63511696599338
30
0
41
1
10
-0.330584548634334
20
-4.63265939381191
30
0
41
1
10
-0.338813417399337
20
-4.62868790402121
30
0
41
1
10
-0.34317305623847
20
-4.6272155817847
30
0
41
1
10
-0.351980615732828
20
-4.62559605054793
30
0
41
1
10
-0.356492604281158
20
-4.62544479071906
30
0
41
1
10
-0.365142247836957
20
-4.62634244958329
30
0
41
1
10
-0.369383299461418
20
-4.62738999635829
30
0
41
1
10
-0.381287419818449
20
-4.63171844250411
30
0
41
1
10
-0.388425258622902
20
-4.63618835793983
30
0
41
1
10
-0.394913799811292
20
-4.64134848730546
30
0
0
SPLINE
5
13D
100
AcDbEntity
8
SK1
62
256
6
ByLayer
370
18
48
1
60
0
100
AcDbSpline
70
4
71
3
72
38
73
34
40
0
40
0
40
0
40
0
40
0.0156250000000001
40
0.0156250000000001
40
0.0312500000000001
40
0.0312500000000001
40
0.0468750000000002
40
0.0468750000000002
40
0.0625000000000003
40
0.0625000000000003
40
0.0781250000000003
40
0.0781250000000003
40
0.0937500000000004
40
0.0937500000000004
40
0.125
40
0.125
40
0.15625
40
0.15625
40
0.1875
40
0.1875
40
0.25
40
0.25
40
0.3125
40
0.3125
40
0.375
40
0.375
40
0.5
40
0.5
40
0.625
40
0.625
40
0.75
40
0.75
40
1
40
1
40
1
40
1
41
1
10
-0.394913799811292
20
-10.7863828177394
30
0
41
1
10
-0.3916537605202
20
-10.7868073974503
30
0
41
1
10
-0.388248787569921
20
-10.7872931954185
30
0
41
1
10
-0.381044741115744
20
-10.7884335693737
30
0
41
1
10
-0.377204200362598
20
-10.7890960220832
30
0
41
1
10
-0.369217304814953
20
-10.7906171798376
30
0
41
1
10
-0.365072240206047
20
-10.7914740808883
30
0
41
1
10
-0.356374930614635
20
-10.7934464855686
30
0
41
1
10
-0.351831659317668
20
-10.7945648569913
30
0
41
1
10
-0.342969526903488
20
-10.7969321132109
30
0
41
1
10
-0.338551791726502
20
-10.7982071558628
30
0
41
1
10
-0.330303438066068
20
-10.8007493496092
30
0
41
1
10
-0.326369654867136
20
-10.8020461167561
30
0
41
1
10
-0.315536517292372
20
-10.8058045642772
30
0
41
1
10
-0.30932633272792
20
-10.8082174869319
30
0
41
1
10
-0.29844620070773
20
-10.8127210422056
30
0
41
1
10
-0.293734896847099
20
-10.8148292922467
30
0
41
1
10
-0.285156710198265
20
-10.8188587541708
30
0
41
1
10
-0.281308084304015
20
-10.8207758502489
30
0
41
1
10
-0.270808032640446
20
-10.8262193711045
30
0
41
1
10
-0.265079336283264
20
-10.8294898497133
30
0
41
1
10
-0.254957395207782
20
-10.8355789099845
30
0
41
1
10
-0.250594351467868
20
-10.8383909645595
30
0
41
1
10
-0.242775853961433
20
-10.8436594160096
30
0
41
1
10
-0.239322535162302
20
-10.8461181112255
30
0
41
1
10
-0.230013012871865
20
-10.8530063957256
30
0
41
1
10
-0.225170221794059
20
-10.856962537247
30
0
41
1
10
-0.217103926423249
20
-10.8639154388083
30
0
41
1
10
-0.213901863970477
20
-10.8669066874342
30
0
41
1
10
-0.208648832379311
20
-10.8720738307053
30
0
41
1
10
-0.206604004109437
20
-10.8742481192771
30
0
41
1
10
-0.201788333226148
20
-10.8796826575044
30
0
41
1
10
-0.200314798330851
20
-10.8818612008295
30
0
41
1
10
-0.199999999999989
20
-10.8828072437538
30
0
0
SPLINE
5
13E
100
AcDbEntity
8
SK1
62
256
6
ByLayer
370
18
48
1
60
0
100
AcDbSpline
70
4
71
3
72
30
73
26
40
0
40
0
40
0
40
0
40
0.146364699109516
40
0.146364699109516
40
0.288637249257934
40
0.288637249257934
40
0.430909799406352
40
0.430909799406352
40
0.57318234955477
40
0.57318234955477
40
0.644318624628977
40
0.644318624628977
40
0.715454899703185
40
0.715454899703185
40
0.786591174777392
40
0.786591174777392
40
0.822159312314494
40
0.822159312314494
40
0.857727449851596
40
0.857727449851596
40
0.893295587388698
40
0.893295587388698
40
0.928863724925799
40
0.928863724925799
40
1
40
1
40
1
40
1
41
1
10
-0.227816434489654
20
10.8548826471132
30
0
41
1
10
-0.230376916588
20
10.8528278745423
30
0
41
1
10
-0.233220851459123
20
10.8506285009895
30
0
41
1
10
-0.239531834141502
20
10.8459675871965
30
0
41
1
10
-0.242990287729214
20
10.8435098262164
30
0
41
1
10
-0.250829509162742
20
10.8382377057441
30
0
41
1
10
-0.255203622748127
20
10.8354242429045
30
0
41
1
10
-0.265350305450426
20
10.8293335169385
30
0
41
1
10
-0.271092516939376
20
10.8260627858261
30
0
41
1
10
-0.281617658957231
20
10.8206200367945
30
0
41
1
10
-0.285470142006773
20
10.8187061746377
30
0
41
1
10
-0.294050968040153
20
10.8146863407048
30
0
41
1
10
-0.298771103309974
20
10.8125793071682
30
0
41
1
10
-0.309727185477641
20
10.8080590642197
30
0
41
1
10
-0.315854674148483
20
10.8056853782479
30
0
41
1
10
-0.326751827399363
20
10.8019180767803
30
0
41
1
10
-0.330590319508559
20
10.8006572352284
30
0
41
1
10
-0.3388193569767
20
10.7981283892307
30
0
41
1
10
-0.343178718210851
20
10.7968736830311
30
0
41
1
10
-0.351986317586722
20
10.7945259507966
30
0
41
1
10
-0.356497925187341
20
10.7934172166753
30
0
41
1
10
-0.365146941171417
20
10.7914582979728
30
0
41
1
10
-0.369387457526784
20
10.7905830468156
30
0
41
1
10
-0.381289694858736
20
10.7883210861532
30
0
41
1
10
-0.388426507712154
20
10.787227586153
30
0
41
1
10
-0.394913799811292
20
10.7863826978029
30
0
0
SPLINE
5
13F
100
AcDbEntity
8
SK1
62
256
6
ByLayer
370
18
48
1
60
0
100
AcDbSpline
70
4
71
3
72
38
73
34
40
0
40
0
40
0
40
0
40
0.0156249999999998
40
0.0156249999999998
40
0.0312499999999995
40
0.0312499999999995
40
0.0468749999999993
40
0.0468749999999993
40
0.0624999999999991
40
0.0624999999999991
40
0.0781249999999988
40
0.0781249999999988
40
0.0937499999999986
40
0.0937499999999986
40
0.124999999999998
40
0.124999999999998
40
0.156249999999998
40
0.156249999999998
40
0.187499999999998
40
0.187499999999998
40
0.249999999999998
40
0.249999999999998
40
0.312499999999998
40
0.312499999999998
40
0.374999999999999
40
0.374999999999999
40
0.5
40
0.5
40
0.625
40
0.625
40
0.750000000000001
40
0.750000000000001
40
1
40
1
40
1
40
1
41
1
10
-0.394913799811292
20
4.64134914436011
30
0
41
1
10
-0.391653189194216
20
4.63875608233846
30
0
41
1
10
-0.3882476444644
20
4.63635905357208
30
0
41
1
10
-0.381042481174973
20
4.6320995470027
30
0
41
1
10
-0.377201381196471
20
4.63022186752829
30
0
41
1
10
-0.369213525336733
20
4.62734082823926
30
0
41
1
10
-0.365068062021663
20
4.62632645462108
30
0
41
1
10
-0.356370248565042
20
4.62544187206512
30
0
41
1
10
-0.351826851563402
20
4.62560736428983
30
0
41
1
10
-0.34296474122587
20
4.62727285800153
30
0
41
1
10
-0.338547041295897
20
4.6287905488239
30
0
41
1
10
-0.330298737873164
20
4.6328263706809
30
0
41
1
10
-0.326364934955137
20
4.63537991970733
30
0
41
1
10
-0.315531464191878
20
4.64386259141477
30
0
41
1
10
-0.309321048903229
20
4.65073469454796
30
0
41
1
10
-0.298440053614058
20
4.6651370301698
30
0
41
1
10
-0.293728422559809
20
4.67271763549797
30
0
41
1
10
-0.285149710641122
20
4.68831331247333
30
0
41
1
10
-0.281300680936283
20
4.69633189696827
30
0
41
1
10
-0.270799710556361
20
4.72041012361524
30
0
41
1
10
-0.265070718767532
20
4.73666607870942
30
0
41
1
10
-0.254948515158304
20
4.76936595895617
30
0
41
1
10
-0.250585513465324
20
4.78581541608034
30
0
41
1
10
-0.24276732672277
20
4.81882524209507
30
0
41
1
10
-0.239314267493143
20
4.83541616500196
30
0
41
1
10
-0.230005515013176
20
4.88501617585194
30
0
41
1
10
-0.225163636448798
20
4.91788495786889
30
0
41
1
10
-0.217099280693446
20
4.98329719794708
30
0
41
1
10
-0.213898213829594
20
5.01583953785894
30
0
41
1
10
-0.208646822672336
20
5.08063396121401
30
0
41
1
10
-0.206602645472998
20
5.1128857104508
30
0
41
1
10
-0.201788314269919
20
5.20924017881703
30
0
41
1
10
-0.200314800742888
20
5.27294373858308
30
0
41
1
10
-0.199999999999989
20
5.33617277211951
30
0
0
SPLINE
5
140
100
AcDbEntity
8
SK1
62
256
6
ByLayer
370
18
48
1
60
0
100
AcDbSpline
70
4
71
3
72
51
73
47
40
0
40
0
40
0
40
0
40
0.124999999999999
40
0.124999999999999
40
0.249999999999997
40
0.249999999999997
40
0.374999999999996
40
0.374999999999996
40
0.437499999999995
40
0.437499999999995
40
0.499999999999994
40
0.499999999999994
40
0.562499999999993
40
0.562499999999993
40
0.624999999999992
40
0.624999999999992
40
0.687499999999991
40
0.687499999999991
40
0.74999999999999
40
0.74999999999999
40
0.76562499999999
40
0.76562499999999
40
0.781249999999991
40
0.781249999999991
40
0.812499999999993
40
0.812499999999993
40
0.843749999999994
40
0.843749999999994
40
0.859374999999995
40
0.859374999999995
40
0.874999999999996
40
0.874999999999996
40
0.890624999999997
40
0.898437499999997
40
0.898437499999997
40
0.906249999999997
40
0.906249999999997
40
0.921874999999998
40
0.921874999999998
40
0.937499999999999
40
0.937499999999999
40
0.96875
40
0.96875
40
0.984375
40
0.984375
40
1
40
1
40
1
40
1
41
1
10
-1.30710678118655
20
3.31451661882926
30
0
41
1
10
-1.29142986997667
20
3.3897630763625
30
0
41
1
10
-1.2747067856634
20
3.46427410813732
30
0
41
1
10
-1.23877915534885
20
3.61180951708161
30
0
41
1
10
-1.21957882703771
20
3.68483461732913
30
0
41
1
10
-1.17811208044554
20
3.82934535289559
30
0
41
1
10
-1.15585567945416
20
3.90083274551358
30
0
41
1
10
-1.11943756194688
20
4.00681611681387
30
0
41
1
10
-1.10678144688853
20
4.04195283320607
30
0
41
1
10
-1.08030614075895
20
4.11162708010295
30
0
41
1
10
-1.06648472871339
20
4.14617704758263
30
0
41
1
10
-1.03740732877088
20
4.21463704338331
30
0
41
1
10
-1.02215411448117
20
4.24854782318411
30
0
41
1
10
-0.989810534632511
20
4.31562720626889
30
0
41
1
10
-0.972703118936408
20
4.3488316390202
30
0
41
1
10
-0.936235844758926
20
4.41390614485465
30
0
41
1
10
-0.916870779376723
20
4.44582238792879
30
0
41
1
10
-0.874845150953718
20
4.50797334116768
30
0
41
1
10
-0.852227053599194
20
4.53822671358751
30
0
41
1
10
-0.820553631186357
20
4.57441330787634
30
0
41
1
10
-0.814043724021872
20
4.58156684750043
30
0
41
1
10
-0.800609998002358
20
4.59567874151736
30
0
41
1
10
-0.793669891873009
20
4.60265230200582
30
0
41
1
10
-0.772270499685675
20
4.62306727311523
30
0
41
1
10
-0.757231647480637
20
4.63603379142552
30
0
41
1
10
-0.724940396994384
20
4.66015250963079
30
0
41
1
10
-0.707546163600369
20
4.67137767327185
30
0
41
1
10
-0.679832616693687
20
4.68564152883172
30
0
41
1
10
-0.670305694635118
20
4.68998135172839
30
0
41
1
10
-0.650546741946187
20
4.69765260580627
30
0
41
1
10
-0.640222164998676
20
4.70100461325833
30
0
41
1
10
-0.619253175912235
20
4.70631884291771
30
0
41
1
10
-0.603294335310665
20
4.70928016936773
30
0
41
1
10
-0.586953973627345
20
4.71055934574198
30
0
41
1
10
-0.575971256180566
20
4.71101914305441
30
0
41
1
10
-0.570446527115422
20
4.71104969942959
30
0
41
1
10
-0.554075802154358
20
4.71055195258873
30
0
41
1
10
-0.543321725827383
20
4.70944141268532
30
0
41
1
10
-0.522108041141621
20
4.70578341121956
30
0
41
1
10
-0.511566178687644
20
4.70320510552418
30
0
41
1
10
-0.48118048269788
20
4.69375600670261
30
0
41
1
10
-0.462414422633373
20
4.68523355319658
30
0
41
1
10
-0.435788278906472
20
4.67016153959389
30
0
41
1
10
-0.427196329503317
20
4.66475992808148
30
0
41
1
10
-0.41064685578408
20
4.65344243596107
30
0
41
1
10
-0.402660711616647
20
4.64751002192168
30
0
41
1
10
-0.394913799811292
20
4.64134914436013
30
0
0
SPLINE
5
141
100
AcDbEntity
8
SK1
62
256
6
ByLayer
370
18
48
1
60
0
100
AcDbSpline
70
4
71
3
72
49
73
45
40
0
40
0
40
0
40
0
40
0.0312499999999989
40
0.0312499999999989
40
0.0468749999999988
40
0.0468749999999988
40
0.0624999999999987
40
0.0624999999999987
40
0.0781249999999985
40
0.0781249999999985
40
0.0859374999999984
40
0.0859374999999984
40
0.0937499999999982
40
0.109374999999998
40
0.109374999999998
40
0.124999999999998
40
0.124999999999998
40
0.140624999999997
40
0.140624999999997
40
0.156249999999997
40
0.156249999999997
40
0.187499999999996
40
0.187499999999996
40
0.203124999999996
40
0.203124999999996
40
0.218749999999996
40
0.218749999999996
40
0.249999999999997
40
0.249999999999997
40
0.312499999999998
40
0.312499999999998
40
0.374999999999999
40
0.374999999999999
40
0.4375
40
0.4375
40
0.500000000000001
40
0.500000000000001
40
0.625
40
0.625
40
0.75
40
0.75
40
0.875
40
0.875
40
1
40
1
40
1
40
1
41
1
10
-0.394913799811292
20
-4.64134848730561
30
0
41
1
10
-0.410472906339265
20
-4.65372214729592
30
0
41
1
10
-0.426942829143144
20
-4.66516143545468
30
0
41
1
10
-0.453665922887126
20
-4.68027682446794
30
0
41
1
10
-0.462966990665905
20
-4.68499077617696
30
0
41
1
10
-0.482040652820245
20
-4.69338840362659
30
0
41
1
10
-0.49183103531746
20
-4.69708841757182
30
0
41
1
10
-0.512007846856022
20
-4.70331959628984
30
0
41
1
10
-0.522393850510127
20
-4.70585160410928
30
0
41
1
10
-0.538509027232777
20
-4.7086003971155
30
0
41
1
10
-0.543976580029977
20
-4.70933923526332
30
0
41
1
10
-0.554868580612833
20
-4.71041558869646
30
0
41
1
10
-0.571225704249997
20
-4.71144475460159
30
0
41
1
10
-0.587640507307071
20
-4.71070982968027
30
0
41
1
10
-0.609578781712287
20
-4.70814275449186
30
0
41
1
10
-0.620374827492924
20
-4.70608282011185
30
0
41
1
10
-0.641350213090249
20
-4.70066349410453
30
0
41
1
10
-0.651584949943015
20
-4.69729749278468
30
0
41
1
10
-0.671613199750624
20
-4.68941827906221
30
0
41
1
10
-0.681210585475696
20
-4.68498433991073
30
0
41
1
10
-0.708965296078389
20
-4.67052822129415
30
0
41
1
10
-0.726125293179763
20
-4.65935713023322
30
0
41
1
10
-0.750492243423082
20
-4.64101614114151
30
0
41
1
10
-0.758331050800251
20
-4.63466996063099
30
0
41
1
10
-0.773435300259308
20
-4.62169082720084
30
0
41
1
10
-0.780721313355457
20
-4.61504174878664
30
0
41
1
10
-0.801920392594155
20
-4.59469556410733
30
0
41
1
10
-0.81518147456859
20
-4.58060351558976
30
0
41
1
10
-0.853068613917884
20
-4.53715229328867
30
0
41
1
10
-0.875849179816697
20
-4.50661286524704
30
0
41
1
10
-0.918270620990739
20
-4.4436195297605
30
0
41
1
10
-0.937648218653891
20
-4.41151284912419
30
0
41
1
10
-0.973982716029639
20
-4.346410546671
30
0
41
1
10
-0.990922443825184
20
-4.31341024355515
30
0
41
1
10
-1.02300701475588
20
-4.24668344942171
30
0
41
1
10
-1.03814572296363
20
-4.21295529145058
30
0
41
1
10
-1.08144833641848
20
-4.11082832832503
30
0
41
1
10
-1.10752892291299
20
-4.04149516781195
30
0
41
1
10
-1.15587378854892
20
-3.90075641540054
30
0
41
1
10
-1.17812664766188
20
-3.82929955489214
30
0
41
1
10
-1.21961966811577
20
-3.68468606745111
30
0
41
1
10
-1.23882094986982
20
-3.61164482751008
30
0
41
1
10
-1.27473665787787
20
-3.46414251617398
30
0
41
1
10
-1.2914467565532
20
-3.38968077243681
30
0
41
1
10
-1.30710678118655
20
-3.3145152459299
30
0
0
SPLINE
5
142
100
AcDbEntity
8
SK1
62
256
6
ByLayer
370
18
48
1
60
0
100
AcDbSpline
70
4
71
3
72
39
73
35
40
0
40
0
40
0
40
0
40
0.0234567258122009
40
0.0514886805057851
40
0.0795206351993693
40
0.107552589892954
40
0.163616499280122
40
0.21968040866729
40
0.247712363360875
40
0.275744318054459
40
0.331808227441627
40
0.359840182135212
40
0.387872136828796
40
0.41590409152238
40
0.443936046215964
40
0.471968000909548
40
0.48598397825634
40
0.499999955603133
40
0.514015932949925
40
0.528031910296717
40
0.556063864990301
40
0.584095819683885
40
0.612127774377469
40
0.640159729071054
40
0.668191683764638
40
0.724255593151806
40
0.752287547845391
40
0.780319502538975
40
0.836383411926143
40
0.892447321313312
40
0.920479276006896
40
0.94851123070048
40
0.976543185394064
40
1
40
1
40
1
40
1
41
1
10
-19
20
-10.033123855786
30
0
41
1
10
-19
20
-10.0359545751647
30
0
41
1
10
-19
20
-10.0171751052325
30
0
41
1
10
-19
20
-9.9112384954864
30
0
41
1
10
-19
20
-9.71891814529593
30
0
41
1
10
-19
20
-9.36252651571962
30
0
41
1
10
-19
20
-8.74965879408046
30
0
41
1
10
-19
20
-7.93503539480022
30
0
41
1
10
-19
20
-7.16669627657109
30
0
41
1
10
-19
20
-6.32708816497822
30
0
41
1
10
-19
20
-5.39691150719781
30
0
41
1
10
-19
20
-4.35855334822477
30
0
41
1
10
-19
20
-3.54050720156599
30
0
41
1
10
-19
20
-2.68380947355118
30
0
41
1
10
-19
20
-1.79728161122435
30
0
41
1
10
-19
20
-1.05021119288873
30
0
41
1
10
-19
20
-0.444754022193024
30
0
41
1
10
-19
20
1.751603804E-07
30
0
41
1
10
-19
20
0.444753991208074
30
0
41
1
10
-19
20
1.0502111192676
30
0
41
1
10
-19
20
1.79728192772168
30
0
41
1
10
-19
20
2.6838095858885
30
0
41
1
10
-19
20
3.54050705744922
30
0
41
1
10
-19
20
4.35855354299241
30
0
41
1
10
-19
20
5.39691159718635
30
0
41
1
10
-19
20
6.32708816044823
30
0
41
1
10
-19
20
7.16669631785615
30
0
41
1
10
-19
20
7.9350351787146
30
0
41
1
10
-19
20
8.74965901233355
30
0
41
1
10
-19
20
9.36252604803425
30
0
41
1
10
-19
20
9.71891823175801
30
0
41
1
10
-19
20
9.91123825969149
30
0
41
1
10
-19
20
10.0171748805627
30
0
41
1
10
-19
20
10.0359545209595
30
0
41
1
10
-19
20
10.0331237419601
30
0
0
SPLINE
5
143
100
AcDbEntity
8
SK1
62
256
6
ByLayer
370
18
48
1
60
0
100
AcDbSpline
70
4
71
3
72
9
73
5
40
0
40
0
40
0
40
0
40
0.518667906909044
40
1
40
1
40
1
40
1
41
1
10
-1.49503997793928
20
10.8252683823188
30
0
41
1
10
-1.49503997793928
20
10.8252040306186
30
0
41
1
10
-1.49503997793928
20
10.8074035786776
30
0
41
1
10
-1.49503997793928
20
10.7587880254986
30
0
41
1
10
-1.49503997793928
20
10.7287503823187
30
0
0
SPLINE
5
144
100
AcDbEntity
8
SK1
62
256
6
ByLayer
370
13
48
1
60
0
100
AcDbSpline
70
4
71
3
72
19
73
15
40
0
40
0
40
0
40
0
40
0.0232344806956801
40
0.0945100567365253
40
0.16578563277737
40
0.308336784859061
40
0.450887936940752
40
0.522163512981597
40
0.593439089022442
40
0.735990241104133
40
0.807265817144978
40
0.878541393185823
40
0.949816969226668
40
1
40
1
40
1
40
1
41
1
10
-1.49503997793928
20
10.7287503823186
30
0
41
1
10
-1.49503997793928
20
10.7142230482604
30
0
41
1
10
-1.49503997793928
20
10.6488155776717
30
0
41
1
10
-1.49503997793928
20
10.4906675023526
30
0
41
1
10
-1.49503997793928
20
10.1156289513023
30
0
41
1
10
-1.49503997793928
20
9.46887528495321
30
0
41
1
10
-1.49503997793928
20
8.61066206691208
30
0
41
1
10
-1.49503997793928
20
7.80570924310555
30
0
41
1
10
-1.49503997793928
20
6.92500328929282
30
0
41
1
10
-1.49503997793928
20
5.93563839600924
30
0
41
1
10
-1.49503997793928
20
4.83747557076666
30
0
41
1
10
-1.49503997793928
20
3.96252944300574
30
0
41
1
10
-1.49503997793928
20
3.12815554972912
30
0
41
1
10
-1.49503997793928
20
2.57901008145927
30
0
41
1
10
-1.49503997793928
20
2.34849338234218
30
0
0
SPLINE
5
145
100
AcDbEntity
8
SK1
62
256
6
ByLayer
370
13
48
1
60
0
100
AcDbSpline
70
4
71
3
72
19
73
15
40
0
40
0
40
0
40
0
40
0.0501831328102637
40
0.121458725255663
40
0.192734317701063
40
0.264009910146462
40
0.406561095037261
40
0.47783668748266
40
0.54911227992806
40
0.691663464818859
40
0.834214649709658
40
0.905490242155057
40
0.976765834600457
40
1
40
1
40
1
40
1
41
1
10
-1.49503997793928
20
-2.3484920325788
30
0
41
1
10
-1.49503997793928
20
-2.57900913866001
30
0
41
1
10
-1.49503997793928
20
-3.12815500226569
30
0
41
1
10
-1.49503997793928
20
-3.96252951444396
30
0
41
1
10
-1.49503997793928
20
-4.83747546310531
30
0
41
1
10
-1.49503997793928
20
-5.93563827659562
30
0
41
1
10
-1.49503997793928
20
-6.92500328675371
30
0
41
1
10
-1.49503997793928
20
-7.80570915265955
30
0
41
1
10
-1.49503997793928
20
-8.61066229913334
30
0
41
1
10
-1.49503997793928
20
-9.46887502691081
30
0
41
1
10
-1.49503997793928
20
-10.1156294314955
30
0
41
1
10
-1.49503997793928
20
-10.4906674180643
30
0
41
1
10
-1.49503997793926
20
-10.6488154173487
30
0
41
1
10
-1.49503997793926
20
-10.7142228392931
30
0
41
1
10
-1.49503997793926
20
-10.7287500325326
30
0
0
SPLINE
5
146
100
AcDbEntity
8
SK1
62
256
6
ByLayer
370
18
48
1
60
0
100
AcDbSpline
70
4
71
3
72
9
73
5
40
0
40
0
40
0
40
0
40
0.480965350518444
40
1
40
1
40
1
40
1
41
1
10
-1.49503997793926
20
-10.728750703245
30
0
41
1
10
-1.49503997793926
20
-10.758788347897
30
0
41
1
10
-1.49503997793928
20
-10.8074409488733
30
0
41
1
10
-1.49503997793931
20
-10.8252312892149
30
0
41
1
10
-1.49503997793931
20
-10.8252687032451
30
0
0
SPLINE
5
147
100
AcDbEntity
8
SK1
62
256
6
ByLayer
370
18
48
1
60
0
100
AcDbSpline
70
4
71
3
72
20
73
16
40
0
40
0
40
0
40
0
40
0.0618285641164893
40
0.125322966093078
40
0.188817368069667
40
0.252311770046255
40
0.379300573999433
40
0.50628937795261
40
0.569783779929199
40
0.633278181905787
40
0.760266985858965
40
0.823761387835553
40
0.887255789812142
40
0.950750191788731
40
1
40
1
40
1
40
1
41
1
10
-1.69999999999999
20
11.0168587088195
30
0
41
1
10
-1.69999999999996
20
11.0254727809335
30
0
41
1
10
-1.69999999999999
20
11.0077567930825
30
0
41
1
10
-1.69999999999999
20
10.8874544346102
30
0
41
1
10
-1.69999999999999
20
10.6806097131649
30
0
41
1
10
-1.69999999999999
20
10.3009819355762
30
0
41
1
10
-1.69999999999999
20
9.64588812329171
30
0
41
1
10
-1.69999999999999
20
8.77694672660428
30
0
41
1
10
-1.69999999999999
20
7.96298250837995
30
0
41
1
10
-1.69999999999999
20
7.07216160324029
30
0
41
1
10
-1.69999999999999
20
6.06822933336571
30
0
41
1
10
-1.69999999999999
20
4.95534741364133
30
0
41
1
10
-1.69999999999999
20
4.06639719899749
30
0
41
1
10
-1.69999999999999
20
3.19422498243512
30
0
41
1
10
-1.69999999999999
20
2.6085619558728
30
0
41
1
10
-1.69999999999999
20
2.34765420370229
30
0
0
SPLINE
5
148
100
AcDbEntity
8
SK1
62
256
6
ByLayer
370
18
48
1
60
0
100
AcDbSpline
70
4
71
3
72
20
73
16
40
0
40
0
40
0
40
0
40
0.0492498069229926
40
0.112744110620502
40
0.176238414318012
40
0.239732718015522
40
0.366721325410542
40
0.430215629108052
40
0.493709932805561
40
0.620698540200581
40
0.747687147595601
40
0.811181451293111
40
0.87467575499062
40
0.93817005868813
40
1
40
1
40
1
40
1
41
1
10
-1.69999999999999
20
-2.34765294686034
30
0
41
1
10
-1.69999999999999
20
-2.60856107921731
30
0
41
1
10
-1.69999999999999
20
-3.19422443293118
30
0
41
1
10
-1.69999999999999
20
-4.06639725254811
30
0
41
1
10
-1.69999999999999
20
-4.95534732741851
30
0
41
1
10
-1.69999999999999
20
-6.06822920671002
30
0
41
1
10
-1.69999999999999
20
-7.07216159896134
30
0
41
1
10
-1.69999999999999
20
-7.96298240583451
30
0
41
1
10
-1.69999999999999
20
-8.77694696279681
30
0
41
1
10
-1.69999999999999
20
-9.64588785545641
30
0
41
1
10
-1.69999999999999
20
-10.3009824188478
30
0
41
1
10
-1.69999999999999
20
-10.6806096294116
30
0
41
1
10
-1.69999999999999
20
-10.8874546409424
30
0
41
1
10
-1.69999999999996
20
-11.0077581004909
30
0
41
1
10
-1.69999999999999
20
-11.0254732754583
30
0
41
1
10
-1.69999999999999
20
-11.0168581573604
30
0
0
SPLINE
5
149
100
AcDbEntity
8
SK1
62
256
6
ByLayer
370
18
48
1
60
0
100
AcDbSpline
70
4
71
3
72
39
73
35
40
0
40
0
40
0
40
0
40
0.0271657236821634
40
0.0549795265444934
40
0.0827933294068235
40
0.110607132269154
40
0.166234737993814
40
0.221862343718474
40
0.249676146580804
40
0.277489949443134
40
0.333117555167794
40
0.360931358030124
40
0.388745160892454
40
0.416558963754784
40
0.444372766617114
40
0.472186569479444
40
0.486093470910609
40
0.500000372341774
40
0.513907273772939
40
0.527814175204104
40
0.555627978066434
40
0.583441780928764
40
0.611255583791094
40
0.639069386653424
40
0.666883189515755
40
0.722510795240415
40
0.750324598102745
40
0.778138400965075
40
0.833766006689735
40
0.889393612414395
40
0.917207415276725
40
0.945021218139055
40
0.972835021001385
40
1
40
1
40
1
40
1
41
1
10
-18
20
10.6076106344729
30
0
41
1
10
-18
20
10.6159562144536
30
0
41
1
10
-18
20
10.5989384270299
30
0
41
1
10
-18
20
10.4823597514038
30
0
41
1
10
-18
20
10.2815422565791
30
0
41
1
10
-18
20
9.91155641668578
30
0
41
1
10
-18
20
9.27398520146792
30
0
41
1
10
-18
20
8.42758364438683
30
0
41
1
10
-18
20
7.63255231230303
30
0
41
1
10
-18
20
6.76298285981449
30
0
41
1
10
-18
20
5.78965656162174
30
0
41
1
10
-18
20
4.70769937196641
30
0
41
1
10
-18
20
3.84817166067387
30
0
41
1
10
-18
20
2.9411794741566
30
0
41
1
10
-18
20
1.9909558545304
30
0
41
1
10
-18
20
1.17129189084349
30
0
41
1
10
-18
20
0.501599059707559
30
0
41
1
10
-18
20
7.85940131E-08
30
0
41
1
10
-18
20
-0.501599044412444
30
0
41
1
10
-18
20
-1.17129192458174
30
0
41
1
10
-18
20
-1.99095571595876
30
0
41
1
10
-18
20
-2.94117931205881
30
0
41
1
10
-18
20
-3.84817175180621
30
0
41
1
10
-18
20
-4.70769924070137
30
0
41
1
10
-18
20
-5.78965645018161
30
0
41
1
10
-18
20
-6.76298285919094
30
0
41
1
10
-18
20
-7.63255223517845
30
0
41
1
10
-18
20
-8.42758387223572
30
0
41
1
10
-18
20
-9.27398495420746
30
0
41
1
10
-18
20
-9.91155689348966
30
0
41
1
10
-18
20
-10.2815421717017
30
0
41
1
10
-18
20
-10.482359969962
30
0
41
1
10
-18
20
-10.5989377389275
30
0
41
1
10
-18
20
-10.6159558331453
30
0
41
1
10
-18
20
-10.6076113868694
30
0
0
SPLINE
5
14A
100
AcDbEntity
8
SK1
62
256
6
ByLayer
370
18
48
1
60
0
100
AcDbSpline
70
4
71
3
72
50
73
46
40
0
40
0
40
0
40
0
40
0.124999999999993
40
0.124999999999993
40
0.249999999999987
40
0.249999999999987
40
0.312499999999983
40
0.312499999999983
40
0.343749999999981
40
0.343749999999981
40
0.374999999999979
40
0.374999999999979
40
0.406249999999978
40
0.406249999999978
40
0.421874999999977
40
0.421874999999977
40
0.437499999999976
40
0.437499999999976
40
0.453124999999976
40
0.453124999999976
40
0.460937499999976
40
0.460937499999976
40
0.468749999999976
40
0.468749999999976
40
0.476562499999977
40
0.476562499999977
40
0.484374999999977
40
0.484374999999977
40
0.499999999999978
40
0.499999999999978
40
0.515624999999979
40
0.515624999999979
40
0.531249999999981
40
0.531249999999981
40
0.562499999999983
40
0.562499999999983
40
0.624999999999986
40
0.624999999999986
40
0.687499999999989
40
0.687499999999989
40
0.749999999999991
40
0.749999999999991
40
0.874999999999996
40
0.874999999999996
40
1
40
1
40
1
40
1
41
1
10
-1.69999999999999
20
2.34765420370229
30
0
41
1
10
-1.69980343680021
20
2.30204296329814
30
0
41
1
10
-1.69915039367987
20
2.25635328938307
30
0
41
1
10
-1.69653309873968
20
2.16478330538484
30
0
41
1
10
-1.69459916908718
20
2.11890560637775
30
0
41
1
10
-1.68995560549763
20
2.04988104532177
30
0
41
1
10
-1.68811440381069
20
2.026837939378
30
0
41
1
10
-1.68462315938689
20
1.99219601544965
30
0
41
1
10
-1.68333613778455
20
1.98063568355289
30
0
41
1
10
-1.68041145611022
20
1.95748001200514
30
0
41
1
10
-1.67877301232556
20
1.94586360536206
30
0
41
1
10
-1.6749748309669
20
1.92276974286997
30
0
41
1
10
-1.67282618887015
20
1.91127637950416
30
0
41
1
10
-1.66887115205898
20
1.8941928758147
30
0
41
1
10
-1.66742423583295
20
1.88851124598514
30
0
41
1
10
-1.66416551260079
20
1.87735964831145
30
0
41
1
10
-1.662359861196
20
1.8718764964907
30
0
41
1
10
-1.65807410816046
20
1.86126309906433
30
0
41
1
10
-1.6555824073387
20
1.8560666599372
30
0
41
1
10
-1.65094843729227
20
1.84951261814737
30
0
41
1
10
-1.64926857345711
20
1.84756086938978
30
0
41
1
10
-1.64547058536633
20
1.84443339232337
30
0
41
1
10
-1.64342437159499
20
1.84335697758959
30
0
41
1
10
-1.63925809788927
20
1.8424625676509
30
0
41
1
10
-1.6371643613507
20
1.84265099543569
30
0
41
1
10
-1.63324922719181
20
1.8439380266808
30
0
41
1
10
-1.63139685760362
20
1.84502279335263
30
0
41
1
10
-1.62620205615826
20
1.84900379634971
30
0
41
1
10
-1.62321157089434
20
1.85255132027478
30
0
41
1
10
-1.61769248369455
20
1.86030187295179
30
0
41
1
10
-1.61521688012277
20
1.86447571968583
30
0
41
1
10
-1.61056317312594
20
1.87313396792089
30
0
41
1
10
-1.60839150238641
20
1.8776251804901
30
0
41
1
10
-1.60217434005762
20
1.89140717435808
30
0
41
1
10
-1.59841255627543
20
1.90102400468518
30
0
41
1
10
-1.58782214937702
20
1.9302989986453
30
0
41
1
10
-1.58166446065891
20
1.9503889844722
30
0
41
1
10
-1.57011438927677
20
1.99102269015194
30
0
41
1
10
-1.564757186142
20
2.01158981154214
30
0
41
1
10
-1.55453695277316
20
2.05299657334311
30
0
41
1
10
-1.54968042595411
20
2.07384054331874
30
0
41
1
10
-1.53563332649338
20
2.13663479390587
30
0
41
1
10
-1.52695339101723
20
2.17884887827933
30
0
41
1
10
-1.51042221129256
20
2.26350502578163
30
0
41
1
10
-1.50258018333608
20
2.30596680519997
30
0
41
1
10
-1.49503997793928
20
2.34849338234218
30
0
0
SPLINE
5
14B
100
AcDbEntity
8
SK1
62
256
6
ByLayer
370
18
48
1
60
0
100
AcDbSpline
70
4
71
3
72
28
73
24
40
0
40
0
40
0
40
0
40
0.125
40
0.125
40
0.25
40
0.25
40
0.375
40
0.375
40
0.40625
40
0.40625
40
0.4375
40
0.4375
40
0.5
40
0.5
40
0.625
40
0.625
40
0.75
40
0.75
40
0.8125
40
0.8125
40
0.875
40
0.875
40
1
40
1
40
1
40
1
41
1
10
-1.69999999999999
20
-2.34765294686034
30
0
41
1
10
-1.73205415669224
20
-2.16038584160381
30
0
41
1
10
-1.76222065032135
20
-1.97131662577766
30
0
41
1
10
-1.81699375220626
20
-1.58898156364668
30
0
41
1
10
-1.84157210171963
20
-1.39570674274961
30
0
41
1
10
-1.88287055486933
20
-1.00413788392149
30
0
41
1
10
-1.89960742958058
20
-0.805850441666081
30
0
41
1
10
-1.91396022727267
20
-0.554216735189272
30
0
41
1
10
-1.91649855456245
20
-0.503699732728535
30
0
41
1
10
-1.92087575570554
20
-0.402270484700296
30
0
41
1
10
-1.92271432260526
20
-0.351352531619966
30
0
41
1
10
-1.92711759702394
20
-0.1991732695476
30
0
41
1
10
-1.92858996593
20
-0.098096875673491
30
0
41
1
10
-1.92851257349815
20
0.203996833737762
30
0
41
1
10
-1.92249647820373
20
0.403884260844393
30
0
41
1
10
-1.89992814454848
20
0.800898512891649
30
0
41
1
10
-1.88342776895729
20
0.998033489767096
30
0
41
1
10
-1.85255630843312
20
1.29195216882439
30
0
41
1
10
-1.84124169681192
20
1.38962690798928
30
0
41
1
10
-1.81682576986773
20
1.58441982262914
30
0
41
1
10
-1.8037097377476
20
1.68162305605506
30
0
41
1
10
-1.76234965181257
20
1.97058473862921
30
0
41
1
10
-1.73206310969363
20
2.16033448890278
30
0
41
1
10
-1.69999999999999
20
2.34765420370229
30
0
0
SPLINE
5
14C
100
AcDbEntity
8
SK1
62
256
6
ByLayer
370
18
48
1
60
0
100
AcDbSpline
70
4
71
3
72
50
73
46
40
0
40
0
40
0
40
0
40
0.124999999999993
40
0.124999999999993
40
0.249999999999986
40
0.249999999999986
40
0.312499999999982
40
0.312499999999982
40
0.374999999999977
40
0.374999999999977
40
0.437499999999973
40
0.437499999999973
40
0.46874999999997
40
0.46874999999997
40
0.484374999999968
40
0.484374999999968
40
0.499999999999967
40
0.499999999999967
40
0.507812499999967
40
0.507812499999967
40
0.515624999999967
40
0.515624999999967
40
0.523437499999968
40
0.523437499999968
40
0.531249999999968
40
0.531249999999968
40
0.539062499999969
40
0.539062499999969
40
0.546874999999969
40
0.546874999999969
40
0.562499999999971
40
0.562499999999971
40
0.578124999999972
40
0.578124999999972
40
0.593749999999973
40
0.593749999999973
40
0.624999999999975
40
0.624999999999975
40
0.687499999999979
40
0.687499999999979
40
0.749999999999983
40
0.749999999999983
40
0.874999999999992
40
0.874999999999992
40
1
40
1
40
1
40
1
41
1
10
-1.49503997793988
20
-2.3484920325786
30
0
41
1
10
-1.50264486299136
20
-2.30560072837358
30
0
41
1
10
-1.51055569104386
20
-2.26278077026905
30
0
41
1
10
-1.52723779413651
20
-2.17743187773848
30
0
41
1
10
-1.53599602067251
20
-2.13489523766006
30
0
41
1
10
-1.55020424476854
20
-2.07156115964614
30
0
41
1
10
-1.55512152574804
20
-2.05052989285036
30
0
41
1
10
-1.56549038663996
20
-2.0087292593407
30
0
41
1
10
-1.57093965450312
20
-1.9879376472413
30
0
41
1
10
-1.58270783684463
20
-1.94692992432044
30
0
41
1
10
-1.58898554423647
20
-1.9266909664797
30
0
41
1
10
-1.59982985491632
20
-1.89736086048552
30
0
41
1
10
-1.60367776004784
20
-1.88777253140711
30
0
41
1
10
-1.61012801536765
20
-1.87403352849674
30
0
41
1
10
-1.61238739824751
20
-1.86957502492965
30
0
41
1
10
-1.61725988408105
20
-1.86105354384
30
0
41
1
10
-1.6198801252792
20
-1.85696555156221
30
0
41
1
10
-1.62422190548617
20
-1.85152626087802
30
0
41
1
10
-1.62574025018972
20
-1.84982698790452
30
0
41
1
10
-1.62899704637212
20
-1.84678183261011
30
0
41
1
10
-1.63073797021957
20
-1.84543674111649
30
0
41
1
10
-1.63444006998856
20
-1.84343334345596
30
0
41
1
10
-1.63643104528748
20
-1.84277379291592
30
0
41
1
10
-1.64049371863734
20
-1.84257528778565
30
0
41
1
10
-1.64263141831242
20
-1.84306719353074
30
0
41
1
10
-1.64661670075128
20
-1.84520272843358
30
0
41
1
10
-1.64851494362384
20
-1.84684788948113
30
0
41
1
10
-1.65189818459373
20
-1.85070880506405
30
0
41
1
10
-1.65343748347132
20
-1.85296435164068
30
0
41
1
10
-1.65758301818303
20
-1.86005243113519
30
0
41
1
10
-1.65983641715789
20
-1.86533039904762
30
0
41
1
10
-1.66377295358205
20
-1.87606716402044
30
0
41
1
10
-1.66545095510659
20
-1.88154764100148
30
0
41
1
10
-1.66849020043534
20
-1.89263136704571
30
0
41
1
10
-1.66984560772775
20
-1.89823686093516
30
0
41
1
10
-1.6735892782589
20
-1.91517885650296
30
0
41
1
10
-1.67566088610397
20
-1.92664763316904
30
0
41
1
10
-1.68112003269374
20
-1.96089400109636
30
0
41
1
10
-1.68380553438459
20
-1.9837178331704
30
0
41
1
10
-1.6883263063022
20
-2.02935224085806
30
0
41
1
10
-1.69012636136873
20
-2.05216278261108
30
0
41
1
10
-1.69467464365059
20
-2.12057478489859
30
0
41
1
10
-1.69658414869915
20
-2.16620101192839
30
0
41
1
10
-1.69916210808094
20
-2.25713844148177
30
0
41
1
10
-1.6998052211259
20
-2.30245581760673
30
0
41
1
10
-1.69999999999999
20
-2.34765294685576
30
0
0
SPLINE
5
14D
100
AcDbEntity
8
SK1
62
256
6
ByLayer
370
18
48
1
60
0
100
AcDbSpline
70
4
71
3
72
10
73
6
40
0
40
0
40
0
40
0
40
0.5
40
0.5
40
1
40
1
40
1
40
1
41
1
10
-1.30710678118655
20
-3.3145152459299
30
0
41
1
10
-1.33975739597588
20
-3.15779769861589
30
0
41
1
10
-1.37201250439205
20
-2.99910289734024
30
0
41
1
10
-1.43497554121927
20
-2.67729808228725
30
0
41
1
10
-1.46566312449343
20
-2.51417653001474
30
0
41
1
10
-1.49503997793928
20
-2.34849203258926
30
0
0
SPLINE
5
14E
100
AcDbEntity
8
SK1
62
256
6
ByLayer
370
18
48
1
60
0
100
AcDbSpline
70
4
71
3
72
10
73
6
40
0
40
0
40
0
40
0
40
0.5
40
0.5
40
1
40
1
40
1
40
1
41
1
10
-1.49503997793928
20
2.34849338234218
30
0
41
1
10
-1.46566316358729
20
2.51417790895556
30
0
41
1
10
-1.4349756098799
20
2.6772994834665
30
0
41
1
10
-1.37201258068183
20
2.99910431043691
30
0
41
1
10
-1.33975744342439
20
3.15779909733413
30
0
41
1
10
-1.30710678118655
20
3.31451661882926
30
0
0
SPLINE
5
14F
100
AcDbEntity
8
1
62
256
6
ByLayer
370
18
48
1
60
0
100
AcDbSpline
70
4
71
2
72
6
73
3
40
0
40
0
40
0
40
1
40
1
40
1
41
1.03186391735993
10
30.2000100019494
20
22.0031513524258
30
0
41
0.729637973226922
10
30.0000100019494
20
22.0031513524258
30
0
41
1.03186391735993
10
30.0000100019494
20
21.8031513524258
30
0
0
SPLINE
5
150
100
AcDbEntity
8
1
62
256
6
ByLayer
370
18
48
1
60
0
100
AcDbSpline
70
4
71
2
72
6
73
3
40
0
40
0
40
0
40
1
40
1
40
1
41
1.03186391735993
10
30.4442041600888
20
21.9956905461133
30
0
41
1.03138264657361
10
30.3222210551437
20
22.0031513524258
30
0
41
1.03186391735993
10
30.2000100019494
20
22.0031513524258
30
0
0
SPLINE
5
151
100
AcDbEntity
8
1
62
256
6
ByLayer
370
18
48
1
60
0
100
AcDbSpline
70
4
71
2
72
6
73
3
40
0
40
0
40
0
40
1
40
1
40
1
41
1.03186391735993
10
49.9999899980506
20
19.1968486475741
30
0
41
0.729637973226922
10
49.9999899980506
20
18.9968486475741
30
0
41
1.03186391735993
10
49.7999899980506
20
18.9968486475742
30
0
0
SPLINE
5
152
100
AcDbEntity
8
1
62
256
6
ByLayer
370
18
48
1
60
0
100
AcDbSpline
70
4
71
2
72
6
73
3
40
0
40
0
40
0
40
1
40
1
40
1
41
1.03186391735993
10
49.7999899980506
20
22.0031513524258
30
0
41
0.729637973226922
10
49.9999899980506
20
22.0031513524258
30
0
41
1.03186391735993
10
49.9999899980506
20
21.8031513524259
30
0
0
SPLINE
5
153
100
AcDbEntity
8
1
62
256
6
ByLayer
370
18
48
1
60
0
100
AcDbSpline
70
4
71
2
72
6
73
3
40
0
40
0
40
0
40
1
40
1
40
1
41
1.03186391735993
10
49.7999899980506
20
18.9968486475742
30
0
41
1.03138264657361
10
49.6777789448563
20
18.9968486475742
30
0
41
1.03186391735993
10
49.5557958399112
20
19.0043094538867
30
0
0
SPLINE
5
154
100
AcDbEntity
8
1
62
256
6
ByLayer
370
18
48
1
60
0
100
AcDbSpline
70
4
71
2
72
6
73
3
40
0
40
0
40
0
40
1
40
1
40
1
41
1.03186391735993
10
49.5557958399112
20
21.9956905461133
30
0
41
1.03138264657361
10
49.6777789448563
20
22.0031513524258
30
0
41
1.03186391735993
10
49.7999899980506
20
22.0031513524258
30
0
0
SPLINE
5
155
100
AcDbEntity
8
1
62
256
6
ByLayer
370
18
48
1
60
0
100
AcDbSpline
70
4
71
3
72
8
73
4
40
0
40
0
40
0
40
0
40
1
40
1
40
1
40
1
41
1
10
32.5803305836063
20
21.9188749752186
30
0
41
1
10
32.5675351840277
20
21.9220991393856
30
0
41
1
10
32.5544388017949
20
21.9240004047708
30
0
41
1
10
32.541266989216
20
21.924561461761
30
0
0
SPLINE
5
156
100
AcDbEntity
8
1
62
256
6
ByLayer
370
18
48
1
60
0
100
AcDbSpline
70
4
71
3
72
8
73
4
40
0
40
0
40
0
40
0
40
1
40
1
40
1
40
1
41
1
10
47.4196694163912
20
21.918874975218
30
0
41
1
10
47.4324648695621
20
21.9220991528893
30
0
41
1
10
47.4455611420818
20
21.9240004023801
30
0
41
1
10
47.458733010777
20
21.9245614617607
30
0
0
SPLINE
5
157
100
AcDbEntity
8
1
62
256
6
ByLayer
370
18
48
1
60
0
100
AcDbSpline
70
4
71
3
72
8
73
4
40
0
40
0
40
0
40
0
40
1
40
1
40
1
40
1
41
1
10
47.458733010784
20
19.075438538239
30
0
41
1
10
47.4455611270319
20
19.0759995982608
30
0
41
1
10
47.4324648843562
20
19.0779008433832
30
0
41
1
10
47.4196694163936
20
19.0811250247814
30
0
0
LINE
5
7D
100
AcDbEntity
8
1
62
256
6
ByLayer
370
18
48
1
60
0
100
AcDbLine
10
0
20
-15.7
30
0
11
0.3
21
-16
31
0
39
0
210
0
220
0
230
1
0
LINE
5
7E
100
AcDbEntity
8
1
62
256
6
ByLayer
370
18
48
1
60
0
100
AcDbLine
10
0.3
20
16
30
0
11
0
21
15.7
31
0
39
0
210
0
220
0
230
1
0
LINE
5
7F
100
AcDbEntity
8
1
62
256
6
ByLayer
370
18
48
1
60
0
100
AcDbLine
10
15.279208
20
16
30
0
11
0.3
21
16
31
0
39
0
210
0
220
0
230
1
0
LINE
5
80
100
AcDbEntity
8
1
62
256
6
ByLayer
370
18
48
1
60
0
100
AcDbLine
10
0.3
20
-16
30
0
11
15.120396
21
-16
31
0
39
0
210
0
220
0
230
1
0
LINE
5
81
100
AcDbEntity
8
81
62
256
6
ByLayer
370
18
48
1
60
0
100
AcDbLine
10
50
20
22
30
0
11
55
21
22
31
0
39
0
210
0
220
0
230
1
0
LINE
5
82
100
AcDbEntity
8
80
62
256
6
ByLayer
370
18
48
1
60
0
100
AcDbLine
10
0
20
0
30
0
11
-5
21
0
31
0
39
0
210
0
220
0
230
1
0
LINE
5
83
100
AcDbEntity
8
1
62
256
6
ByLayer
370
18
48
1
60
0
100
AcDbLine
10
43.348664
20
19.325
30
0
11
43.897124
21
19.325
31
0
39
0
210
0
220
0
230
1
0
LINE
5
84
100
AcDbEntity
8
1
62
256
6
ByLayer
370
18
48
1
60
0
100
AcDbLine
10
43.348584
20
21.675
30
0
11
43.897124
21
21.675
31
0
39
0
210
0
220
0
230
1
0
LINE
5
85
100
AcDbEntity
8
1
62
256
6
ByLayer
370
18
48
1
60
0
100
AcDbLine
10
43.897124
20
19.325
30
0
11
43.896886
21
19.350004
31
0
39
0
210
0
220
0
230
1
0
LINE
5
86
100
AcDbEntity
8
1
62
256
6
ByLayer
370
18
48
1
60
0
100
AcDbLine
10
43.897124
20
19.325
30
0
11
44.81552
21
19.325
31
0
39
0
210
0
220
0
230
1
0
LINE
5
87
100
AcDbEntity
8
1
62
256
6
ByLayer
370
18
48
1
60
0
100
AcDbLine
10
43.897124
20
21.675
30
0
11
44.81552
21
21.675
31
0
39
0
210
0
220
0
230
1
0
LINE
5
88
100
AcDbEntity
8
1
62
256
6
ByLayer
370
18
48
1
60
0
100
AcDbLine
10
43.896886
20
21.649996
30
0
11
43.897124
21
21.675
31
0
39
0
210
0
220
0
230
1
0
LINE
5
89
100
AcDbEntity
8
1
62
256
6
ByLayer
370
18
48
1
60
0
100
AcDbLine
10
44.81552
20
19.325
30
0
11
46.450863
21
19.325
31
0
39
0
210
0
220
0
230
1
0
LINE
5
8A
100
AcDbEntity
8
1
62
256
6
ByLayer
370
18
48
1
60
0
100
AcDbLine
10
44.81552
20
19.325
30
0
11
44.815283
21
19.350004
31
0
39
0
210
0
220
0
230
1
0
LINE
5
8B
100
AcDbEntity
8
1
62
256
6
ByLayer
370
18
48
1
60
0
100
AcDbLine
10
44.81552
20
21.675
30
0
11
46.450863
21
21.675
31
0
39
0
210
0
220
0
230
1
0
LINE
5
8C
100
AcDbEntity
8
1
62
256
6
ByLayer
370
18
48
1
60
0
100
AcDbLine
10
44.815283
20
21.649996
30
0
11
44.81552
21
21.675
31
0
39
0
210
0
220
0
230
1
0
LINE
5
8D
100
AcDbEntity
8
1
62
256
6
ByLayer
370
18
48
1
60
0
100
AcDbLine
10
17.809191
20
21.675
30
0
11
18.6
21
21.675
31
0
39
0
210
0
220
0
230
1
0
LINE
5
8E
100
AcDbEntity
8
1
62
256
6
ByLayer
370
13
48
1
60
0
100
AcDbLine
10
16.619594
20
17.15
30
0
11
18.6
21
17.15
31
0
39
0
210
0
220
0
230
1
0
LINE
5
8F
100
AcDbEntity
8
1
62
256
6
ByLayer
370
13
48
1
60
0
100
AcDbLine
10
18.6
20
17.15
30
0
11
18.6
21
16.15
31
0
39
0
210
0
220
0
230
1
0
LINE
5
90
100
AcDbEntity
8
1
62
256
6
ByLayer
370
18
48
1
60
0
100
AcDbLine
10
18.6
20
21.675
30
0
11
22.293237
21
21.675
31
0
39
0
210
0
220
0
230
1
0
LINE
5
91
100
AcDbEntity
8
1
62
256
6
ByLayer
370
13
48
1
60
0
100
AcDbLine
10
18.6
20
17.15
30
0
11
18.6
21
21.675
31
0
39
0
210
0
220
0
230
1
0
LINE
5
92
100
AcDbEntity
8
1
62
256
6
ByLayer
370
13
48
1
60
0
100
AcDbLine
10
18.6
20
17.15
30
0
11
22.293237
21
17.15
31
0
39
0
210
0
220
0
230
1
0
LINE
5
93
100
AcDbEntity
8
1
62
256
6
ByLayer
370
18
48
1
60
0
100
AcDbLine
10
22.679224
20
21.675
30
0
11
22.293237
21
21.675
31
0
39
0
210
0
220
0
230
1
0
LINE
5
94
100
AcDbEntity
8
1
62
256
6
ByLayer
370
18
48
1
60
0
100
AcDbLine
10
22.293237
20
17.15
30
0
11
22.293237
21
21.675
31
0
39
0
210
0
220
0
230
1
0
LINE
5
95
100
AcDbEntity
8
1
62
256
6
ByLayer
370
18
48
1
60
0
100
AcDbLine
10
22.8
20
21.675
30
0
11
22.679216
21
21.675
31
0
39
0
210
0
220
0
230
1
0
LINE
5
96
100
AcDbEntity
8
1
62
256
6
ByLayer
370
18
48
1
60
0
100
AcDbLine
10
22.679216
20
21.675
30
0
11
22.679216
21
17.15
31
0
39
0
210
0
220
0
230
1
0
LINE
5
97
100
AcDbEntity
8
1
62
256
6
ByLayer
370
13
48
1
60
0
100
AcDbLine
10
22.8
20
17.15
30
0
11
22.679216
21
17.15
31
0
39
0
210
0
220
0
230
1
0
LINE
5
98
100
AcDbEntity
8
1
62
256
6
ByLayer
370
18
48
1
60
0
100
AcDbLine
10
43.348671
20
21.675
30
0
11
40.25
21
21.675
31
0
39
0
210
0
220
0
230
1
0
LINE
5
99
100
AcDbEntity
8
1
62
256
6
ByLayer
370
18
48
1
60
0
100
AcDbLine
10
43.348671
20
19.325
30
0
11
40.25
21
19.325
31
0
39
0
210
0
220
0
230
1
0
LINE
5
9A
100
AcDbEntity
8
1
62
256
6
ByLayer
370
18
48
1
60
0
100
AcDbLine
10
43.75
20
20.548819
30
0
11
43.75
21
20.451181
31
0
39
0
210
0
220
0
230
1
0
LINE
5
9B
100
AcDbEntity
8
1
62
256
6
ByLayer
370
18
48
1
60
0
100
AcDbLine
10
19.799843
20
16.15
30
0
11
18.800157
21
16.15
31
0
39
0
210
0
220
0
230
1
0
LINE
5
9C
100
AcDbEntity
8
1
62
256
6
ByLayer
370
18
48
1
60
0
100
AcDbLine
10
19.8
20
-13
30
0
11
18.991425
21
-13
31
0
39
0
210
0
220
0
230
1
0
LINE
5
9D
100
AcDbEntity
8
1
62
256
6
ByLayer
370
18
48
1
60
0
100
AcDbLine
10
19.8
20
16.15
30
0
11
21.8
21
16.15
31
0
39
0
210
0
220
0
230
1
0
LINE
5
9E
100
AcDbEntity
8
1
62
256
6
ByLayer
370
18
48
1
60
0
100
AcDbLine
10
32.538001
20
21.675
30
0
11
22.8
21
21.675
31
0
39
0
210
0
220
0
230
1
0
LINE
5
9F
100
AcDbEntity
8
1
62
256
6
ByLayer
370
18
48
1
60
0
100
AcDbLine
10
29.3
20
-13
30
0
11
19.8
21
-13
31
0
39
0
210
0
220
0
230
1
0
LINE
5
A0
100
AcDbEntity
8
1
62
256
6
ByLayer
370
18
48
1
60
0
100
AcDbLine
10
19.8
20
-13
30
0
11
19.8
21
16.15
31
0
39
0
210
0
220
0
230
1
0
LINE
5
A1
100
AcDbEntity
8
1
62
256
6
ByLayer
370
18
48
1
60
0
100
AcDbLine
10
38.4
20
17.725
30
0
11
38.4
21
8.15
31
0
39
0
210
0
220
0
230
1
0
LINE
5
A2
100
AcDbEntity
8
1
62
256
6
ByLayer
370
18
48
1
60
0
100
AcDbLine
10
29.3
20
-13
30
0
11
38.4
21
8.15
31
0
39
0
210
0
220
0
230
1
0
LINE
5
A3
100
AcDbEntity
8
1
62
256
6
ByLayer
370
18
48
1
60
0
100
AcDbLine
10
38.4
20
17.725
30
0
11
35.327516
21
17.725
31
0
39
0
210
0
220
0
230
1
0
LINE
5
A4
100
AcDbEntity
8
1
62
256
6
ByLayer
370
18
48
1
60
0
100
AcDbLine
10
22.8
20
17.15
30
0
11
22.8
21
21.675
31
0
39
0
210
0
220
0
230
1
0
LINE
5
A5
100
AcDbEntity
8
1
62
256
6
ByLayer
370
18
48
1
60
0
100
AcDbLine
10
40.25
20
21.675
30
0
11
32.538001
21
21.675
31
0
39
0
210
0
220
0
230
1
0
LINE
5
A6
100
AcDbEntity
8
1
62
256
6
ByLayer
370
18
48
1
60
0
100
AcDbLine
10
32.538001
20
19.325
30
0
11
32.538001
21
21.675
31
0
39
0
210
0
220
0
230
1
0
LINE
5
A7
100
AcDbEntity
8
1
62
256
6
ByLayer
370
13
48
1
60
0
100
AcDbLine
10
32.538001
20
19.325
30
0
11
40
21
19.325
31
0
39
0
210
0
220
0
230
1
0
LINE
5
A8
100
AcDbEntity
8
1
62
256
6
ByLayer
370
18
48
1
60
0
100
AcDbLine
10
40.25
20
19.325
30
0
11
40
21
19.325
31
0
39
0
210
0
220
0
230
1
0
LINE
5
A9
100
AcDbEntity
8
1
62
256
6
ByLayer
370
18
48
1
60
0
100
AcDbLine
10
40.25
20
21.675
30
0
11
40.25
21
19.325
31
0
39
0
210
0
220
0
230
1
0
LINE
5
AA
100
AcDbEntity
8
1
62
256
6
ByLayer
370
13
48
1
60
0
100
AcDbLine
10
16.438319
20
16.15
30
0
11
16.438319
21
12.516509
31
0
39
0
210
0
220
0
230
1
0
LINE
5
AB
100
AcDbEntity
8
1
62
256
6
ByLayer
370
13
48
1
60
0
100
AcDbLine
10
16.438319
20
-12.516509
30
0
11
16.438319
21
-13.920772
31
0
39
0
210
0
220
0
230
1
0
LINE
5
AC
100
AcDbEntity
8
1
62
256
6
ByLayer
370
18
48
1
60
0
100
AcDbLine
10
18.8
20
-13.004583
30
0
11
18.8
21
16.15
31
0
39
0
210
0
220
0
230
1
0
LINE
5
AD
100
AcDbEntity
8
1
62
256
6
ByLayer
370
18
48
1
60
0
100
AcDbLine
10
18.8
20
16.15
30
0
11
17.129365
21
16.15
31
0
39
0
210
0
220
0
230
1
0
LINE
5
AE
100
AcDbEntity
8
1
62
256
6
ByLayer
370
13
48
1
60
0
100
AcDbLine
10
7.076795
20
-4.755463
30
0
11
7.076795
21
-15.276962
31
0
39
0
210
0
220
0
230
1
0
LINE
5
AF
100
AcDbEntity
8
1
62
256
6
ByLayer
370
13
48
1
60
0
100
AcDbLine
10
7.336603
20
-5.068619
30
0
11
7.336603
21
-15.175938
31
0
39
0
210
0
220
0
230
1
0
LINE
5
B0
100
AcDbEntity
8
1
62
256
6
ByLayer
370
13
48
1
60
0
100
AcDbLine
10
4.663397
20
15.175938
30
0
11
4.663397
21
5.068619
31
0
39
0
210
0
220
0
230
1
0
LINE
5
B1
100
AcDbEntity
8
1
62
256
6
ByLayer
370
13
48
1
60
0
100
AcDbLine
10
4.923205
20
15.276962
30
0
11
4.923205
21
4.755463
31
0
39
0
210
0
220
0
230
1
0
LINE
5
B2
100
AcDbEntity
8
1
62
256
6
ByLayer
370
13
48
1
60
0
100
AcDbLine
10
4.663397
20
-5.068619
30
0
11
4.663397
21
-15.175938
31
0
39
0
210
0
220
0
230
1
0
LINE
5
B3
100
AcDbEntity
8
1
62
256
6
ByLayer
370
13
48
1
60
0
100
AcDbLine
10
4.923205
20
-4.755463
30
0
11
4.923205
21
-15.276962
31
0
39
0
210
0
220
0
230
1
0
LINE
5
B4
100
AcDbEntity
8
1
62
256
6
ByLayer
370
13
48
1
60
0
100
AcDbLine
10
7.076795
20
15.276962
30
0
11
7.076795
21
4.755463
31
0
39
0
210
0
220
0
230
1
0
LINE
5
B5
100
AcDbEntity
8
1
62
256
6
ByLayer
370
13
48
1
60
0
100
AcDbLine
10
7.336603
20
15.175938
30
0
11
7.336603
21
5.068619
31
0
39
0
210
0
220
0
230
1
0
LINE
5
B6
100
AcDbEntity
8
1
62
256
6
ByLayer
370
18
48
1
60
0
100
AcDbLine
10
0
20
-15.7
30
0
11
0
21
15.7
31
0
39
0
210
0
220
0
230
1
0
LINE
5
B7
100
AcDbEntity
8
1
62
256
6
ByLayer
370
13
48
1
60
0
100
AcDbLine
10
15.279208
20
16
30
0
11
15.279208
21
9.371741
31
0
39
0
210
0
220
0
230
1
0
LINE
5
B8
100
AcDbEntity
8
1
62
256
6
ByLayer
370
13
48
1
60
0
100
AcDbLine
10
15.279208
20
-9.371741
30
0
11
15.279208
21
-15.510222
31
0
39
0
210
0
220
0
230
1
0
LINE
5
B9
100
AcDbEntity
8
1
62
256
6
ByLayer
370
18
48
1
60
0
100
AcDbLine
10
0.3
20
-16
30
0
11
0.3
21
16
31
0
39
0
210
0
220
0
230
1
0
LINE
5
BA
100
AcDbEntity
8
1
62
256
6
ByLayer
370
18
48
1
60
0
100
AcDbLine
10
7.076795
20
4.755463
30
0
11
4.923205
21
4.755463
31
0
39
0
210
0
220
0
230
1
0
LINE
5
BB
100
AcDbEntity
8
1
62
256
6
ByLayer
370
18
48
1
60
0
100
AcDbLine
10
4.923205
20
15.276962
30
0
11
7.076795
21
15.276962
31
0
39
0
210
0
220
0
230
1
0
LINE
5
BC
100
AcDbEntity
8
1
62
256
6
ByLayer
370
18
48
1
60
0
100
AcDbLine
10
4.923205
20
-4.755463
30
0
11
7.076795
21
-4.755463
31
0
39
0
210
0
220
0
230
1
0
LINE
5
BD
100
AcDbEntity
8
1
62
256
6
ByLayer
370
18
48
1
60
0
100
AcDbLine
10
7.076795
20
-15.276962
30
0
11
4.923205
21
-15.276962
31
0
39
0
210
0
220
0
230
1
0
LINE
5
BE
100
AcDbEntity
8
1
62
256
6
ByLayer
370
13
48
1
60
0
100
AcDbLine
10
15.014268
20
-7.045855
30
0
11
15.014268
21
7.045855
31
0
39
0
210
0
220
0
230
1
0
LINE
5
BF
100
AcDbEntity
8
SK1
62
256
6
ByLayer
370
18
48
1
60
0
100
AcDbLine
10
-0.2
20
-5.336172
30
0
11
-0.2
21
-10.883485
31
0
39
0
210
0
220
0
230
1
0
LINE
5
C1
100
AcDbEntity
8
SK1
62
256
6
ByLayer
370
18
48
1
60
0
100
AcDbLine
10
-0.2
20
10.883485
30
0
11
-0.2
21
5.336173
31
0
39
0
210
0
220
0
230
1
0
LINE
5
C2
100
AcDbEntity
8
SK1
62
256
6
ByLayer
370
13
48
1
60
0
100
AcDbLine
10
-1.307107
20
3.314517
30
0
11
-1.307107
21
-3.314515
31
0
39
0
210
0
220
0
230
1
0
LINE
5
C3
100
AcDbEntity
8
1
62
256
6
ByLayer
370
18
48
1
60
0
100
AcDbLine
10
31.390989
20
21.937783
30
0
11
30.444204
21
21.995691
31
0
39
0
210
0
220
0
230
1
0
LINE
5
C4
100
AcDbEntity
8
1
62
256
6
ByLayer
370
18
48
1
60
0
100
AcDbLine
10
30.00001
20
21.803151
30
0
11
30.00001
21
21.674995
31
0
39
0
210
0
220
0
230
1
0
LINE
5
C5
100
AcDbEntity
8
1
62
256
6
ByLayer
370
18
48
1
60
0
100
AcDbLine
10
48.609011
20
21.937783
30
0
11
49.555796
21
21.995691
31
0
39
0
210
0
220
0
230
1
0
LINE
5
C6
100
AcDbEntity
8
1
62
256
6
ByLayer
370
18
48
1
60
0
100
AcDbLine
10
49.555796
20
19.004309
30
0
11
48.609011
21
19.062217
31
0
39
0
210
0
220
0
230
1
0
LINE
5
C7
100
AcDbEntity
8
1
62
256
6
ByLayer
370
18
48
1
60
0
100
AcDbLine
10
49.99999
20
21.803151
30
0
11
49.99999
21
19.196849
31
0
39
0
210
0
220
0
230
1
0
LINE
5
C8
100
AcDbEntity
8
1
62
256
6
ByLayer
370
18
48
1
60
0
100
AcDbLine
10
47.851573
20
21.941295
30
0
11
48.609011
21
21.937783
31
0
39
0
210
0
220
0
230
1
0
LINE
5
C9
100
AcDbEntity
8
1
62
256
6
ByLayer
370
18
48
1
60
0
100
AcDbLine
10
48.609011
20
19.062217
30
0
11
47.851573
21
19.058705
31
0
39
0
210
0
220
0
230
1
0
LINE
5
CA
100
AcDbEntity
8
1
62
256
6
ByLayer
370
18
48
1
60
0
100
AcDbLine
10
48.609011
20
19.062217
30
0
11
48.609011
21
21.937783
31
0
39
0
210
0
220
0
230
1
0
LINE
5
CB
100
AcDbEntity
8
1
62
256
6
ByLayer
370
18
48
1
60
0
100
AcDbLine
10
32.148427
20
21.941295
30
0
11
31.390989
21
21.937783
31
0
39
0
210
0
220
0
230
1
0
LINE
5
CC
100
AcDbEntity
8
1
62
256
6
ByLayer
370
18
48
1
60
0
100
AcDbLine
10
31.390989
20
21.674983
30
0
11
31.390989
21
21.937783
31
0
39
0
210
0
220
0
230
1
0
LINE
5
CD
100
AcDbEntity
8
1
62
256
6
ByLayer
370
13
48
1
60
0
100
AcDbLine
10
47.18134
20
20.5
30
0
11
43.749782
21
20.5
31
0
39
0
210
0
220
0
230
1
0
LINE
5
CE
100
AcDbEntity
8
1
62
256
6
ByLayer
370
13
48
1
60
0
100
AcDbLine
10
46.397706
20
20.302665
30
0
11
43.670484
21
20.302665
31
0
39
0
210
0
220
0
230
1
0
LINE
5
CF
100
AcDbEntity
8
1
62
256
6
ByLayer
370
13
48
1
60
0
100
AcDbLine
10
43.670484
20
20.697335
30
0
11
46.397706
21
20.697335
31
0
39
0
210
0
220
0
230
1
0
LINE
5
D0
100
AcDbEntity
8
1
62
256
6
ByLayer
370
13
48
1
60
0
100
AcDbLine
10
43.664692
20
20.700756
30
0
11
46.344414
21
20.700756
31
0
39
0
210
0
220
0
230
1
0
LINE
5
D1
100
AcDbEntity
8
1
62
256
6
ByLayer
370
13
48
1
60
0
100
AcDbLine
10
43.664692
20
20.299244
30
0
11
46.344414
21
20.299244
31
0
39
0
210
0
220
0
230
1
0
LINE
5
D2
100
AcDbEntity
8
1
62
256
6
ByLayer
370
13
48
1
60
0
100
AcDbLine
10
43.580781
20
20.751024
30
0
11
45.636252
21
20.751024
31
0
39
0
210
0
220
0
230
1
0
LINE
5
D3
100
AcDbEntity
8
1
62
256
6
ByLayer
370
13
48
1
60
0
100
AcDbLine
10
43.580781
20
20.248976
30
0
11
45.636252
21
20.248976
31
0
39
0
210
0
220
0
230
1
0
LINE
5
D4
100
AcDbEntity
8
1
62
256
6
ByLayer
370
13
48
1
60
0
100
AcDbLine
10
43.551458
20
20.132002
30
0
11
45.024167
21
20.132002
31
0
39
0
210
0
220
0
230
1
0
LINE
5
D5
100
AcDbEntity
8
1
62
256
6
ByLayer
370
13
48
1
60
0
100
AcDbLine
10
43.551458
20
20.867998
30
0
11
45.024167
21
20.867998
31
0
39
0
210
0
220
0
230
1
0
LINE
5
D6
100
AcDbEntity
8
1
62
256
6
ByLayer
370
13
48
1
60
0
100
AcDbLine
10
43.398651
20
19.524016
30
0
11
43.82005
21
19.524016
31
0
39
0
210
0
220
0
230
1
0
LINE
5
D7
100
AcDbEntity
8
1
62
256
6
ByLayer
370
18
48
1
60
0
100
AcDbLine
10
43.35492
20
19.35
30
0
11
43.772487
21
19.35
31
0
39
0
210
0
220
0
230
1
0
LINE
5
D8
100
AcDbEntity
8
1
62
256
6
ByLayer
370
13
48
1
60
0
100
AcDbLine
10
43.772487
20
19.474562
30
0
11
43.386161
21
19.474562
31
0
39
0
210
0
220
0
230
1
0
LINE
5
D9
100
AcDbEntity
8
1
62
256
6
ByLayer
370
18
48
1
60
0
100
AcDbLine
10
32.541267
20
21.924561
30
0
11
32.148427
21
21.941295
31
0
39
0
210
0
220
0
230
1
0
LINE
5
DA
100
AcDbEntity
8
1
62
256
6
ByLayer
370
18
48
1
60
0
100
AcDbLine
10
32.148427
20
21.67497
30
0
11
32.148427
21
21.941295
31
0
39
0
210
0
220
0
230
1
0
LINE
5
DB
100
AcDbEntity
8
1
62
256
6
ByLayer
370
18
48
1
60
0
100
AcDbLine
10
33.527535
20
21.6802
30
0
11
32.580331
21
21.918875
31
0
39
0
210
0
220
0
230
1
0
LINE
5
DC
100
AcDbEntity
8
1
62
256
6
ByLayer
370
18
48
1
60
0
100
AcDbLine
10
43.772487
20
21.65
30
0
11
43.35492
21
21.65
31
0
39
0
210
0
220
0
230
1
0
LINE
5
DD
100
AcDbEntity
8
1
62
256
6
ByLayer
370
18
48
1
60
0
100
AcDbLine
10
46.472465
20
21.6802
30
0
11
47.419669
21
21.918875
31
0
39
0
210
0
220
0
230
1
0
LINE
5
DE
100
AcDbEntity
8
1
62
256
6
ByLayer
370
18
48
1
60
0
100
AcDbLine
10
46.228061
20
21.65
30
0
11
43.772487
21
21.65
31
0
39
0
210
0
220
0
230
1
0
LINE
5
DF
100
AcDbEntity
8
1
62
256
6
ByLayer
370
18
48
1
60
0
100
AcDbLine
10
43.772487
20
21.525438
30
0
11
43.772487
21
21.65
31
0
39
0
210
0
220
0
230
1
0
LINE
5
E0
100
AcDbEntity
8
1
62
256
6
ByLayer
370
18
48
1
60
0
100
AcDbLine
10
45.024167
20
20.867998
30
0
11
43.82005
21
21.475984
31
0
39
0
210
0
220
0
230
1
0
LINE
5
E1
100
AcDbEntity
8
1
62
256
6
ByLayer
370
18
48
1
60
0
100
AcDbLine
10
46.397706
20
20.697335
30
0
11
46.344414
21
20.700756
31
0
39
0
210
0
220
0
230
1
0
LINE
5
E2
100
AcDbEntity
8
1
62
256
6
ByLayer
370
18
48
1
60
0
100
AcDbLine
10
46.344414
20
20.299244
30
0
11
46.397706
21
20.302665
31
0
39
0
210
0
220
0
230
1
0
LINE
5
E3
100
AcDbEntity
8
1
62
256
6
ByLayer
370
18
48
1
60
0
100
AcDbLine
10
43.82005
20
19.524016
30
0
11
45.024167
21
20.132002
31
0
39
0
210
0
220
0
230
1
0
LINE
5
E4
100
AcDbEntity
8
1
62
256
6
ByLayer
370
18
48
1
60
0
100
AcDbLine
10
43.772487
20
19.35
30
0
11
43.772487
21
19.474562
31
0
39
0
210
0
220
0
230
1
0
LINE
5
E5
100
AcDbEntity
8
1
62
256
6
ByLayer
370
18
48
1
60
0
100
AcDbLine
10
43.772487
20
19.35
30
0
11
46.228061
21
19.35
31
0
39
0
210
0
220
0
230
1
0
LINE
5
E6
100
AcDbEntity
8
1
62
256
6
ByLayer
370
18
48
1
60
0
100
AcDbLine
10
47.419669
20
19.081125
30
0
11
46.472465
21
19.3198
31
0
39
0
210
0
220
0
230
1
0
LINE
5
E7
100
AcDbEntity
8
1
62
256
6
ByLayer
370
18
48
1
60
0
100
AcDbLine
10
47.851573
20
19.058705
30
0
11
47.458733
21
19.075439
31
0
39
0
210
0
220
0
230
1
0
LINE
5
E8
100
AcDbEntity
8
1
62
256
6
ByLayer
370
18
48
1
60
0
100
AcDbLine
10
47.851573
20
19.058705
30
0
11
47.851573
21
21.941295
31
0
39
0
210
0
220
0
230
1
0
LINE
5
E9
100
AcDbEntity
8
1
62
256
6
ByLayer
370
18
48
1
60
0
100
AcDbLine
10
47.458733
20
21.924561
30
0
11
47.851573
21
21.941295
31
0
39
0
210
0
220
0
230
1
0
LINE
5
EA
100
AcDbEntity
8
1
62
256
6
ByLayer
370
13
48
1
60
0
100
AcDbLine
10
43.82005
20
21.475984
30
0
11
43.398651
21
21.475984
31
0
39
0
210
0
220
0
230
1
0
LINE
5
EB
100
AcDbEntity
8
1
62
256
6
ByLayer
370
13
48
1
60
0
100
AcDbLine
10
43.386161
20
21.525438
30
0
11
43.772487
21
21.525438
31
0
39
0
210
0
220
0
230
1
0
LINE
5
EC
100
AcDbEntity
8
SK2
62
256
6
ByLayer
370
18
48
1
60
0
100
AcDbLine
10
-28.975
20
-16
30
0
11
-28.975
21
16
31
0
39
0
210
0
220
0
230
1
0
LINE
5
EE
100
AcDbEntity
8
SK2
62
256
6
ByLayer
370
18
48
1
60
0
100
AcDbLine
10
-1.2875
20
16
30
0
11
-30.975
21
16
31
0
39
0
210
0
220
0
230
1
0
LINE
5
EF
100
AcDbEntity
8
SK2
62
256
6
ByLayer
370
18
48
1
60
0
100
AcDbLine
10
-1.2875
20
-16
30
0
11
-30.975
21
-16
31
0
39
0
210
0
220
0
230
1
0
LINE
5
F0
100
AcDbEntity
8
1
62
256
6
ByLayer
370
18
48
1
60
1
100
AcDbLine
10
-28.975
20
16
30
0
11
-28.514216
21
12.500002
31
0
39
0
210
0
220
0
230
1
0
LINE
5
F1
100
AcDbEntity
8
1
62
256
6
ByLayer
370
18
48
1
60
1
100
AcDbLine
10
-28.514216
20
12.500002
30
0
11
-29.435784
21
12.499998
31
0
39
0
210
0
220
0
230
1
0
LINE
5
F2
100
AcDbEntity
8
1
62
256
6
ByLayer
370
18
48
1
60
1
100
AcDbLine
10
-29.435784
20
12.499998
30
0
11
-28.975
21
16
31
0
39
0
210
0
220
0
230
1
0
LINE
5
F3
100
AcDbEntity
8
1
62
256
6
ByLayer
370
18
48
1
60
1
100
AcDbLine
10
-28.975
20
-16
30
0
11
-29.435784
21
-12.500002
31
0
39
0
210
0
220
0
230
1
0
LINE
5
F4
100
AcDbEntity
8
1
62
256
6
ByLayer
370
18
48
1
60
1
100
AcDbLine
10
-29.435784
20
-12.500002
30
0
11
-28.514216
21
-12.499998
31
0
39
0
210
0
220
0
230
1
0
LINE
5
F5
100
AcDbEntity
8
1
62
256
6
ByLayer
370
18
48
1
60
1
100
AcDbLine
10
-28.514216
20
-12.499998
30
0
11
-28.975
21
-16
31
0
39
0
210
0
220
0
230
1
0
LINE
5
15C
100
AcDbEntity
8
1
62
256
6
ByLayer
370
18
48
1
60
1
100
AcDbLine
10
-28.975
20
16
30
0
11
-28.514216
21
12.500002
31
0
39
0
210
0
220
0
230
1
0
LINE
5
15D
100
AcDbEntity
8
1
62
256
6
ByLayer
370
18
48
1
60
1
100
AcDbLine
10
-28.514216
20
12.500002
30
0
11
-29.435784
21
12.499998
31
0
39
0
210
0
220
0
230
1
0
LINE
5
15E
100
AcDbEntity
8
1
62
256
6
ByLayer
370
18
48
1
60
1
100
AcDbLine
10
-29.435784
20
12.499998
30
0
11
-28.975
21
16
31
0
39
0
210
0
220
0
230
1
0
LINE
5
160
100
AcDbEntity
8
1
62
256
6
ByLayer
370
18
48
1
60
1
100
AcDbLine
10
-28.975
20
-16
30
0
11
-29.435784
21
-12.500002
31
0
39
0
210
0
220
0
230
1
0
LINE
5
161
100
AcDbEntity
8
1
62
256
6
ByLayer
370
18
48
1
60
1
100
AcDbLine
10
-29.435784
20
-12.500002
30
0
11
-28.514216
21
-12.499998
31
0
39
0
210
0
220
0
230
1
0
LINE
5
162
100
AcDbEntity
8
1
62
256
6
ByLayer
370
18
48
1
60
1
100
AcDbLine
10
-28.514216
20
-12.499998
30
0
11
-28.975
21
-16
31
0
39
0
210
0
220
0
230
1
0
MTEXT
5
158
100
AcDbEntity
8
SK2
62
256
6
ByLayer
370
18
48
1
60
0
100
AcDbMText
10
-30.539634
20
-4.530622
30
0
210
0
220
0
230
1
1
%%c
40
3.5
41
0
44
1.084337
50
90
71
7
72
5
7
iso_b_vert
0
MTEXT
5
15B
100
AcDbEntity
8
SK2
62
256
6
ByLayer
370
18
48
1
60
0
100
AcDbMText
10
-30.539634
20
2.442034
30
0
210
0
220
0
230
1
1
\W0.6740;32
40
3.5
41
0
44
1.084337
50
90
71
7
72
5
7
iso_b_vert
0
MTEXT
5
164
100
AcDbEntity
8
SK6
62
256
6
ByLayer
370
18
48
1
60
0
100
AcDbMText
10
-16.8145
20
-51.283734
30
0
210
0
220
0
230
1
1
\W0.7303;C2R-CC3-RG10CB
40
3.5
41
0
44
1.084337
50
0
71
7
72
5
7
iso_b_vert
0
HATCH
5
15F
100
AcDbEntity
8
SK2
62
256
6
ByLayer
370
13
48
1
60
0
100
AcDbHatch
10
0
20
0
30
0
210
0
220
0
230
1
2
ANSI31
70
0
71
0
91
1
92
5
93
3
72
1
10
-28.9750000000001
20
16
11
-28.5142162584473
21
12.5000016925532
72
1
10
-28.5142162584473
20
12.5000016925532
11
-29.4357837415528
21
12.4999983074468
72
1
10
-29.4357837415528
20
12.4999983074468
11
-28.9750000000001
21
16
97
0
75
0
76
1
52
0
41
0.0062
77
0
78
1
53
45
43
0
44
0
45
-0.0139193969876572
46
0.0139193969876572
79
0
47
0
98
1
10
0
20
0
0
HATCH
5
163
100
AcDbEntity
8
SK2
62
256
6
ByLayer
370
13
48
1
60
0
100
AcDbHatch
10
0
20
0
30
0
210
0
220
0
230
1
2
ANSI31
70
0
71
0
91
1
92
5
93
3
72
1
10
-28.9750000000001
20
-16
11
-29.4357837415528
21
-12.5000016925532
72
1
10
-29.4357837415528
20
-12.5000016925532
11
-28.5142162584473
21
-12.4999983074468
72
1
10
-28.5142162584473
20
-12.4999983074468
11
-28.9750000000001
21
-16
97
0
75
0
76
1
52
0
41
0.0062
77
0
78
1
53
45
43
0
44
0
45
-0.0139193969876572
46
0.0139193969876572
79
0
47
0
98
1
10
0
20
0
0
DIMENSION
5
167
100
AcDbEntity
8
2
62
256
6
ByLayer
370
18
48
1
60
0
100
AcDbDimension
2
_U0
10
81.1
20
0
30
0
11
81.1
21
11
31
0
70
32
71
1
72
1
41
1
210
0
220
0
230
1
3
Standard
100
AcDbAlignedDimension
13
50
23
22
33
0
14
0
24
0
34
0
50
90
100
AcDbRotatedDimension
1001
ACAD
1000
DSTYLE
1002
{
1070
   371
1070
    13
1070
   372
1070
    13
1070
   170
1070
     0
1070
   144
1040
1.0
1070
   277
1070
     2
1070
   284
1070
     8
1070
   278
1070
    46
1070
   146
1040
1.0
1070
   345
1005
16
1070
   347
1005
16
1070
   346
1005
16
1070
   344
1005
0
1070
   343
1005
0
1070
   172
1070
     1
1070
    76
1070
     0
1070
    75
1070
     0
1070
   282
1070
     0
1070
   281
1070
     0
1070
    71
1070
     0
1070
    74
1070
     0
1070
   279
1070
     0
1070
   173
1070
     1
1070
   340
1005
159
1070
   271
1070
     1
1070
   272
1070
     2
1070
    77
1070
     1
1070
    73
1070
     0
1070
   171
1070
     3
1070
   274
1070
     4
1070
   177
1070
     2
1070
   176
1070
     2
1070
   178
1070
     2
1070
    78
1070
     8
1070
    48
1040
-0.1
1070
    41
1040
3.5
1070
   147
1040
1.75
1070
    42
1040
1.5875
1070
    44
1040
2.0
1070
   140
1040
3.5
1002
}
1001
ACAD_DSTYLE_DIM_LINETYPE
1070
   380
1005
16
1001
ACAD_DSTYLE_DIM_EXT1_LINETYPE
1070
   381
1005
16
1001
ACAD_DSTYLE_DIM_EXT2_LINETYPE
1070
   382
1005
16
0
DIMENSION
5
181
100
AcDbEntity
8
2
62
256
6
ByLayer
370
18
48
1
60
0
100
AcDbDimension
2
_U1
10
70.1
20
22
30
0
11
70.1
21
20.5
31
0
70
32
71
1
72
1
41
1
210
0
220
0
230
1
3
Standard
100
AcDbAlignedDimension
13
50
23
19
33
0
14
50
24
22
34
0
50
90
100
AcDbRotatedDimension
1001
ACAD
1000
DSTYLE
1002
{
1070
   371
1070
    13
1070
   372
1070
    13
1070
   170
1070
     0
1070
   144
1040
1.0
1070
   277
1070
     2
1070
   284
1070
     8
1070
   278
1070
    46
1070
   146
1040
1.0
1070
   345
1005
16
1070
   347
1005
16
1070
   346
1005
16
1070
   344
1005
0
1070
   343
1005
0
1070
   172
1070
     1
1070
    76
1070
     0
1070
    75
1070
     0
1070
   282
1070
     0
1070
   281
1070
     0
1070
    71
1070
     0
1070
    74
1070
     0
1070
   279
1070
     0
1070
   173
1070
     1
1070
   340
1005
159
1070
   271
1070
     1
1070
   272
1070
     2
1070
    77
1070
     1
1070
    73
1070
     0
1070
   171
1070
     3
1070
   274
1070
     4
1070
   177
1070
     2
1070
   176
1070
     2
1070
   178
1070
     2
1070
    78
1070
     8
1070
    48
1040
-0.1
1070
    41
1040
3.5
1070
   147
1040
1.75
1070
    42
1040
1.5875
1070
    44
1040
2.0
1070
   140
1040
3.5
1002
}
1001
ACAD_DSTYLE_DIM_LINETYPE
1070
   380
1005
16
1001
ACAD_DSTYLE_DIM_EXT1_LINETYPE
1070
   381
1005
16
1001
ACAD_DSTYLE_DIM_EXT2_LINETYPE
1070
   382
1005
16
0
DIMENSION
5
19A
100
AcDbEntity
8
2
62
256
6
ByLayer
370
18
48
1
60
0
100
AcDbDimension
2
_U2
10
50
20
-14.425
30
0
11
45
21
-14.425
31
0
70
32
71
1
72
1
41
1
210
0
220
0
230
1
3
Standard
100
AcDbAlignedDimension
13
40
23
19.325
33
0
14
50
24
19
34
0
50
0
100
AcDbRotatedDimension
1001
ACAD
1000
DSTYLE
1002
{
1070
   371
1070
    13
1070
   372
1070
    13
1070
   170
1070
     0
1070
   144
1040
1.0
1070
   277
1070
     2
1070
   284
1070
     8
1070
   278
1070
    46
1070
   146
1040
1.0
1070
   345
1005
16
1070
   347
1005
16
1070
   346
1005
16
1070
   344
1005
0
1070
   343
1005
0
1070
   172
1070
     1
1070
    76
1070
     0
1070
    75
1070
     0
1070
   282
1070
     0
1070
   281
1070
     0
1070
    71
1070
     0
1070
    74
1070
     0
1070
   279
1070
     0
1070
   173
1070
     1
1070
   340
1005
159
1070
   271
1070
     1
1070
   272
1070
     2
1070
    77
1070
     1
1070
    73
1070
     1
1070
   171
1070
     3
1070
   274
1070
     4
1070
   177
1070
     2
1070
   176
1070
     2
1070
   178
1070
     2
1070
    78
1070
     8
1070
    48
1040
-0.1
1070
    41
1040
3.5
1070
   147
1040
1.75
1070
    42
1040
1.5875
1070
    44
1040
2.0
1070
   140
1040
3.5
1002
}
1001
ACAD_DSTYLE_DIM_LINETYPE
1070
   380
1005
16
1001
ACAD_DSTYLE_DIM_EXT1_LINETYPE
1070
   381
1005
16
1001
ACAD_DSTYLE_DIM_EXT2_LINETYPE
1070
   382
1005
16
0
DIMENSION
5
1B3
100
AcDbEntity
8
2
62
256
6
ByLayer
370
18
48
1
60
0
100
AcDbDimension
2
_U3
10
50
20
38.25
30
0
11
25
21
38.25
31
0
70
32
71
1
72
1
41
1
210
0
220
0
230
1
3
Standard
100
AcDbAlignedDimension
13
0
23
0
33
0
14
50
24
22
34
0
50
0
100
AcDbRotatedDimension
1001
ACAD
1000
DSTYLE
1002
{
1070
   371
1070
    13
1070
   372
1070
    13
1070
   170
1070
     0
1070
   144
1040
1.0
1070
   277
1070
     2
1070
   284
1070
     8
1070
   278
1070
    46
1070
   146
1040
1.0
1070
   345
1005
16
1070
   347
1005
16
1070
   346
1005
16
1070
   344
1005
0
1070
   343
1005
0
1070
   172
1070
     1
1070
    76
1070
     0
1070
    75
1070
     0
1070
   282
1070
     0
1070
   281
1070
     0
1070
    71
1070
     0
1070
    74
1070
     0
1070
   279
1070
     0
1070
   173
1070
     1
1070
   340
1005
159
1070
   271
1070
     1
1070
   272
1070
     2
1070
    77
1070
     1
1070
    73
1070
     1
1070
   171
1070
     3
1070
   274
1070
     4
1070
   177
1070
     2
1070
   176
1070
     2
1070
   178
1070
     2
1070
    78
1070
     8
1070
    48
1040
-0.1
1070
    41
1040
3.5
1070
   147
1040
1.75
1070
    42
1040
1.5875
1070
    44
1040
2.0
1070
   140
1040
3.5
1002
}
1001
ACAD_DSTYLE_DIM_LINETYPE
1070
   380
1005
16
1001
ACAD_DSTYLE_DIM_EXT1_LINETYPE
1070
   381
1005
16
1001
ACAD_DSTYLE_DIM_EXT2_LINETYPE
1070
   382
1005
16
0
ENDSEC
0
SECTION
2
OBJECTS
0
DICTIONARY
5
23a
330
0
100
AcDbDictionary
280
0
281
1
3
ACAD_GROUP
350
23b
3
ACAD_MLINESTYLE
350
23c
0
DICTIONARY
5
23b
330
0
100
AcDbDictionary
280
0
281
1
0
DICTIONARY
5
23c
330
0
100
AcDbDictionary
280
0
281
1
3
Standard
350
18
0
MLINESTYLE
5
18
330
23c
100
AcDbMlineStyle
2
Standard
70
0
3

62
256
51
90
52
90
71
2
49
-0.5
62
256
6
ByLayer
49
0.5
62
256
6
ByLayer
0
RASTERVARIABLES
5
229
330

100
AcDbRasterVariables
90
0
70
1
71
1
72
1
0
ENDSEC
0
EOF
