0
SECTION
2
HEADER
9
$ACADVER
1
AC1015
9
$DWGCODEPAGE
3
ANSI_1252
9
$HANDSEED
5
245
9
$ANGBASE
50
0
9
$ANGDIR
70
0
9
$ATTMODE
70
1
9
$AUNITS
70
0
9
$AUPREC
70
0
9
$CECOLOR
62
256
9
$CELTSCALE
40
1
9
$CELTYPE
6
ByLayer
9
$CELWEIGHT
370
18
9
$CLAYER
8
0
9
$CMLJUST
70
0
9
$CMLSCALE
40
1
9
$CMLSTYLE
2
Standard
9
$DIMSTYLE
2
Standard
9
$TEXTSIZE
40
0.2
9
$TEXTSTYLE
7
Standard
9
$LUNITS
70
2
9
$LUPREC
70
4
9
$EXTNAMES
290
1
9
$INSUNITS
70
4
9
$LTSCALE
40
1
9
$LWDISPLAY
290
1
9
$PDMODE
70
0
9
$PDSIZE
40
0
9
$PLINEGEN
70
0
0
ENDSEC
0
SECTION
2
CLASSES
0
CLASS
1
RASTERVARIABLES
2
AcDbRasterVariables
3
ISM
90
0
280
0
281
0
0
ENDSEC
0
SECTION
2
TABLES
0
TABLE
2
VPORT
5
23b
100
AcDbSymbolTable
0
VPORT
5
1
100
AcDbSymbolTableRecord
100
AcDbViewportTableRecord
2
*Active
70
0
10
0
20
0
11
1
21
1
12
-1
22
1
13
0
23
0
14
0.5
24
0.5
15
10
25
10
16
0
26
0
36
1
17
0
27
0
37
0
0
ENDTAB
0
TABLE
2
LTYPE
5
23c
100
AcDbSymbolTable
0
LTYPE
5
14
100
AcDbSymbolTableRecord
100
AcDbLinetypeTableRecord
70
0
2
ByBlock
3

72
65
73
0
40
0
0
LTYPE
5
15
100
AcDbSymbolTableRecord
100
AcDbLinetypeTableRecord
70
0
2
ByLayer
3

72
65
73
0
40
0
0
LTYPE
5
16
100
AcDbSymbolTableRecord
100
AcDbLinetypeTableRecord
70
0
2
Continuous
3
Solid line
72
65
73
0
40
0
0
LTYPE
5
6E
100
AcDbSymbolTableRecord
100
AcDbLinetypeTableRecord
70
0
2
CENTER
3
____ _ ____ _ ____ _ ____
72
65
73
4
40
47.5
49
22
74
0
49
-8.5
74
0
49
8.5
74
0
49
-8.5
74
0
0
LTYPE
5
6F
100
AcDbSymbolTableRecord
100
AcDbLinetypeTableRecord
70
0
2
DASHED
3
__ __ __ __ __ __ __ __ __
72
65
73
2
40
25.72
49
12.86
74
0
49
-12.86
74
0
0
ENDTAB
0
TABLE
2
LAYER
5
23d
100
AcDbSymbolTable
0
LAYER
5
10
100
AcDbSymbolTableRecord
100
AcDbLayerTableRecord
2
0
70
0
62
7
6
Continuous
290
1
370
-3
390
0
0
LAYER
5
71
100
AcDbSymbolTableRecord
100
AcDbLayerTableRecord
2
80
70
0
62
-6
6
Continuous
290
1
370
-3
390
0
0
LAYER
5
73
100
AcDbSymbolTableRecord
100
AcDbLayerTableRecord
2
81
70
0
62
-3
6
Continuous
290
1
370
-3
390
0
0
LAYER
5
75
100
AcDbSymbolTableRecord
100
AcDbLayerTableRecord
2
1
70
0
62
4
6
Continuous
290
1
370
-3
390
0
0
LAYER
5
168
100
AcDbSymbolTableRecord
100
AcDbLayerTableRecord
2
Defpoints
70
0
62
7
6
Continuous
290
0
370
-3
390
0
0
LAYER
5
175
100
AcDbSymbolTableRecord
100
AcDbLayerTableRecord
2
2
70
0
62
7
6
Continuous
290
1
370
-3
390
0
0
LAYER
5
228
100
AcDbSymbolTableRecord
100
AcDbLayerTableRecord
2
SK1
70
0
62
4
6
Continuous
290
1
370
-3
390
0
0
LAYER
5
229
100
AcDbSymbolTableRecord
100
AcDbLayerTableRecord
2
SK2
70
0
62
7
6
Continuous
290
1
370
-3
390
0
0
LAYER
5
22a
100
AcDbSymbolTableRecord
100
AcDbLayerTableRecord
2
SK6
70
0
62
5
6
Continuous
290
1
370
-3
390
0
0
ENDTAB
0
TABLE
2
STYLE
5
23e
100
AcDbSymbolTable
0
STYLE
5
11
100
AcDbSymbolTableRecord
100
AcDbTextStyleTableRecord
2
Standard
3
txt
70
0
71
0
40
0
41
1
42
0
50
0
0
STYLE
5
157
100
AcDbSymbolTableRecord
100
AcDbTextStyleTableRecord
2
iso_b_vert
3
simplex.shx
70
0
71
0
40
0
41
1
42
0
50
0
0
STYLE
5
158
100
AcDbSymbolTableRecord
100
AcDbTextStyleTableRecord
2
DWGDirectTextStyle
3
simplex
70
0
71
0
40
0
41
1
42
0
50
0
0
ENDTAB
0
TABLE
2
DIMSTYLE
5
23f
100
AcDbSymbolTable
100
AcDbDimStyleTable
0
DIMSTYLE
105
27
100
AcDbSymbolTableRecord
100
AcDbDimStyleTableRecord
2
Standard
70
0
3
<>
41
0.18
42
0.0625
44
0.18
140
0.18
147
0.09
73
0
74
0
77
1
271
2
275
0
278
52
280
0
340
11
0
ENDTAB
0
TABLE
2
VIEW
5
240
100
AcDbSymbolTable
0
ENDTAB
0
TABLE
2
UCS
5
241
100
AcDbSymbolTable
0
ENDTAB
0
TABLE
2
APPID
5
242
100
AcDbSymbolTable
0
APPID
5
12
100
AcDbSymbolTableRecord
100
AcDbRegAppTableRecord
2
ACAD
70
0
0
APPID
5
164
100
AcDbSymbolTableRecord
100
AcDbRegAppTableRecord
2
ACAD_DSTYLE_DIMBREAK
70
0
0
APPID
5
1E7
100
AcDbSymbolTableRecord
100
AcDbRegAppTableRecord
2
ACAD_DSTYLE_DIM_LINETYPE
70
0
0
APPID
5
1E8
100
AcDbSymbolTableRecord
100
AcDbRegAppTableRecord
2
ACAD_DSTYLE_DIM_EXT1_LINETYPE
70
0
0
APPID
5
1E9
100
AcDbSymbolTableRecord
100
AcDbRegAppTableRecord
2
ACAD_DSTYLE_DIM_EXT2_LINETYPE
70
0
0
APPID
5
224
100
AcDbSymbolTableRecord
100
AcDbRegAppTableRecord
2
ACAD_MLEADERVER
70
0
0
ENDTAB
0
TABLE
2
BLOCK_RECORD
5
243
100
AcDbSymbolTable
0
BLOCK_RECORD
5
1F
100
AcDbSymbolTableRecord
100
AcDbBlockTableRecord
2
*Model_Space
340
0
70
0
0
BLOCK_RECORD
5
1B
100
AcDbSymbolTableRecord
100
AcDbBlockTableRecord
2
*Paper_Space
340
0
70
0
0
BLOCK_RECORD
5
23
100
AcDbSymbolTableRecord
100
AcDbBlockTableRecord
2
*Paper_Space0
340
0
70
0
0
BLOCK_RECORD
5
169
100
AcDbSymbolTableRecord
100
AcDbBlockTableRecord
2
*D1
340
0
70
0
0
BLOCK_RECORD
5
176
100
AcDbSymbolTableRecord
100
AcDbBlockTableRecord
2
_U0
340
0
70
0
0
BLOCK_RECORD
5
182
100
AcDbSymbolTableRecord
100
AcDbBlockTableRecord
2
*D3
340
0
70
0
0
BLOCK_RECORD
5
18F
100
AcDbSymbolTableRecord
100
AcDbBlockTableRecord
2
_U1
340
0
70
0
0
BLOCK_RECORD
5
19B
100
AcDbSymbolTableRecord
100
AcDbBlockTableRecord
2
*D5
340
0
70
0
0
BLOCK_RECORD
5
1A8
100
AcDbSymbolTableRecord
100
AcDbBlockTableRecord
2
_U2
340
0
70
0
0
BLOCK_RECORD
5
1B4
100
AcDbSymbolTableRecord
100
AcDbBlockTableRecord
2
*D7
340
0
70
0
0
BLOCK_RECORD
5
1C0
100
AcDbSymbolTableRecord
100
AcDbBlockTableRecord
2
_U3
340
0
70
0
0
ENDTAB
0
ENDSEC
0
SECTION
2
BLOCKS
0
BLOCK
5
20
100
AcDbEntity
8
0
100
AcDbBlockBegin
2
*Model_Space
70
0
10
0
20
0
30
0
3
*Model_Space
0
ENDBLK
5
21
100
AcDbEntity
8
0
100
AcDbBlockEnd
0
BLOCK
5
1C
100
AcDbEntity
8
0
100
AcDbBlockBegin
2
*Paper_Space
70
0
10
0
20
0
30
0
3
*Paper_Space
0
ENDBLK
5
1D
100
AcDbEntity
8
0
100
AcDbBlockEnd
0
BLOCK
5
24
100
AcDbEntity
8
0
100
AcDbBlockBegin
2
*Paper_Space0
70
0
10
0
20
0
30
0
3
*Paper_Space0
0
ENDBLK
5
25
100
AcDbEntity
8
0
100
AcDbBlockEnd
0
BLOCK
5
16A
100
AcDbEntity
8
0
100
AcDbBlockBegin
2
*D1
70
1
10
0
20
0
30
0
3
*D1
0
LINE
5
16C
100
AcDbEntity
8
0
62
256
6
ByLayer
370
-2
48
1
60
0
100
AcDbLine
10
56.5875
20
22
30
0
11
88.1
21
22
31
0
39
0
210
0
220
0
230
1
0
LINE
5
16D
100
AcDbEntity
8
0
62
256
6
ByLayer
370
-2
48
1
60
0
100
AcDbLine
10
1.5875
20
0
30
0
11
88.1
21
0
31
0
39
0
210
0
220
0
230
1
0
LINE
5
16E
100
AcDbEntity
8
0
62
256
6
ByLayer
370
-2
48
1
60
0
100
AcDbLine
10
86.1
20
18.5
30
0
11
86.1
21
3.5
31
0
39
0
210
0
220
0
230
1
0
SOLID
5
16F
100
AcDbEntity
8
0
62
256
6
ByLayer
370
-1
48
1
60
0
100
AcDbTrace
10
86.683333
20
18.5
30
0
11
85.516667
21
18.5
31
0
12
86.1
22
22
32
0
13
86.1
23
22
33
0
39
0
210
0
220
0
230
1
0
SOLID
5
170
100
AcDbEntity
8
0
62
256
6
ByLayer
370
-1
48
1
60
0
100
AcDbTrace
10
85.516667
20
3.5
30
0
11
86.683333
21
3.5
31
0
12
86.1
22
0
32
0
13
86.1
23
0
33
0
39
0
210
0
220
0
230
1
0
MTEXT
5
171
100
AcDbEntity
8
0
62
256
6
ByLayer
370
18
48
1
60
0
100
AcDbMText
10
79.1
20
11
30
0
210
0
220
0
230
1
1
\A1;22
40
3.5
41
0
44
1
50
90
71
5
72
5
7
iso_b_vert
0
POINT
5
172
100
AcDbEntity
8
Defpoints
62
0
6
ByLayer
370
-1
48
1
60
0
100
AcDbPoint
10
55
20
22
30
0
39
0
210
0
220
0
230
1
50
360
0
POINT
5
173
100
AcDbEntity
8
Defpoints
62
0
6
ByLayer
370
-1
48
1
60
0
100
AcDbPoint
10
0
20
0
30
0
39
0
210
0
220
0
230
1
50
360
0
POINT
5
174
100
AcDbEntity
8
Defpoints
62
0
6
ByLayer
370
-1
48
1
60
0
100
AcDbPoint
10
86.1
20
0
30
0
39
0
210
0
220
0
230
1
50
360
0
ENDBLK
5
16B
100
AcDbEntity
8
0
100
AcDbBlockEnd
0
BLOCK
5
17D
100
AcDbEntity
8
0
100
AcDbBlockBegin
2
_U0
70
0
10
0
20
0
30
0
3
_U0
0
MTEXT
5
177
100
AcDbEntity
8
2
62
256
6
ByLayer
370
18
48
1
60
0
100
AcDbMText
10
85.410366
20
9.067034
30
0
210
0
220
0
230
1
1
\W0.6740;22
40
3.5
41
0
44
1.084337
50
90
71
7
72
5
7
iso_b_vert
0
LINE
5
178
100
AcDbEntity
8
2
62
256
6
ByLayer
370
13
48
1
60
0
100
AcDbLine
10
56.5875
20
22
30
0
11
88.1
21
22
31
0
39
0
210
0
220
0
230
1
0
LINE
5
179
100
AcDbEntity
8
2
62
256
6
ByLayer
370
13
48
1
60
0
100
AcDbLine
10
1.5875
20
0
30
0
11
88.1
21
0
31
0
39
0
210
0
220
0
230
1
0
LINE
5
17A
100
AcDbEntity
8
2
62
256
6
ByLayer
370
13
48
1
60
0
100
AcDbLine
10
86.1
20
22
30
0
11
86.1
21
0
31
0
39
0
210
0
220
0
230
1
0
SOLID
5
17B
100
AcDbEntity
8
2
62
256
6
ByLayer
370
18
48
1
60
0
100
AcDbTrace
10
86.1
20
22
30
0
11
86.560784
21
18.500002
31
0
12
85.639216
22
18.499998
32
0
13
85.639216
23
18.499998
33
0
39
0
210
0
220
0
230
1
0
SOLID
5
17C
100
AcDbEntity
8
2
62
256
6
ByLayer
370
18
48
1
60
0
100
AcDbTrace
10
86.1
20
0
30
0
11
85.639216
21
3.499998
31
0
12
86.560784
22
3.500002
32
0
13
86.560784
23
3.500002
33
0
39
0
210
0
220
0
230
1
0
ENDBLK
5
17E
100
AcDbEntity
8
0
100
AcDbBlockEnd
0
BLOCK
5
183
100
AcDbEntity
8
0
100
AcDbBlockBegin
2
*D3
70
1
10
0
20
0
30
0
3
*D3
0
LINE
5
185
100
AcDbEntity
8
0
62
256
6
ByLayer
370
-2
48
1
60
0
100
AcDbLine
10
56.5875
20
20
30
0
11
77.1
21
20
31
0
39
0
210
0
220
0
230
1
0
LINE
5
186
100
AcDbEntity
8
0
62
256
6
ByLayer
370
-2
48
1
60
0
100
AcDbLine
10
56.5875
20
22
30
0
11
77.1
21
22
31
0
39
0
210
0
220
0
230
1
0
LINE
5
187
100
AcDbEntity
8
0
62
256
6
ByLayer
370
-2
48
1
60
0
100
AcDbLine
10
75.1
20
16.5
30
0
11
75.1
21
13
31
0
39
0
210
0
220
0
230
1
0
LINE
5
188
100
AcDbEntity
8
0
62
256
6
ByLayer
370
-2
48
1
60
0
100
AcDbLine
10
75.1
20
25.5
30
0
11
75.1
21
29
31
0
39
0
210
0
220
0
230
1
0
SOLID
5
189
100
AcDbEntity
8
0
62
256
6
ByLayer
370
-1
48
1
60
0
100
AcDbTrace
10
75.683333
20
16.5
30
0
11
74.516667
21
16.5
31
0
12
75.1
22
20
32
0
13
75.1
23
20
33
0
39
0
210
0
220
0
230
1
0
SOLID
5
18A
100
AcDbEntity
8
0
62
256
6
ByLayer
370
-1
48
1
60
0
100
AcDbTrace
10
74.516667
20
25.5
30
0
11
75.683333
21
25.5
31
0
12
75.1
22
22
32
0
13
75.1
23
22
33
0
39
0
210
0
220
0
230
1
0
MTEXT
5
18B
100
AcDbEntity
8
0
62
256
6
ByLayer
370
18
48
1
60
0
100
AcDbMText
10
68.1
20
21
30
0
210
0
220
0
230
1
1
\A1;2
40
3.5
41
0
44
1
50
90
71
5
72
5
7
iso_b_vert
0
POINT
5
18C
100
AcDbEntity
8
Defpoints
62
0
6
ByLayer
370
-1
48
1
60
0
100
AcDbPoint
10
55
20
20
30
0
39
0
210
0
220
0
230
1
50
360
0
POINT
5
18D
100
AcDbEntity
8
Defpoints
62
0
6
ByLayer
370
-1
48
1
60
0
100
AcDbPoint
10
55
20
22
30
0
39
0
210
0
220
0
230
1
50
360
0
POINT
5
18E
100
AcDbEntity
8
Defpoints
62
0
6
ByLayer
370
-1
48
1
60
0
100
AcDbPoint
10
75.1
20
22
30
0
39
0
210
0
220
0
230
1
50
360
0
ENDBLK
5
184
100
AcDbEntity
8
0
100
AcDbBlockEnd
0
BLOCK
5
196
100
AcDbEntity
8
0
100
AcDbBlockBegin
2
_U1
70
0
10
0
20
0
30
0
3
_U1
0
MTEXT
5
190
100
AcDbEntity
8
2
62
256
6
ByLayer
370
18
48
1
60
0
100
AcDbMText
10
74.410366
20
20.374767
30
0
210
0
220
0
230
1
1
\W0.5404;2
40
3.5
41
0
44
1.084337
50
90
71
7
72
5
7
iso_b_vert
0
LINE
5
191
100
AcDbEntity
8
2
62
256
6
ByLayer
370
13
48
1
60
0
100
AcDbLine
10
56.5875
20
20
30
0
11
77.1
21
20
31
0
39
0
210
0
220
0
230
1
0
LINE
5
192
100
AcDbEntity
8
2
62
256
6
ByLayer
370
13
48
1
60
0
100
AcDbLine
10
56.5875
20
22
30
0
11
77.1
21
22
31
0
39
0
210
0
220
0
230
1
0
LINE
5
193
100
AcDbEntity
8
2
62
256
6
ByLayer
370
13
48
1
60
0
100
AcDbLine
10
75.1
20
11.25
30
0
11
75.1
21
30.75
31
0
39
0
210
0
220
0
230
1
0
SOLID
5
194
100
AcDbEntity
8
2
62
256
6
ByLayer
370
18
48
1
60
0
100
AcDbTrace
10
75.1
20
20
30
0
11
75.560784
21
16.500002
31
0
12
74.639216
22
16.499998
32
0
13
74.639216
23
16.499998
33
0
39
0
210
0
220
0
230
1
0
SOLID
5
195
100
AcDbEntity
8
2
62
256
6
ByLayer
370
18
48
1
60
0
100
AcDbTrace
10
75.1
20
22
30
0
11
74.639216
21
25.499998
31
0
12
75.560784
22
25.500002
32
0
13
75.560784
23
25.500002
33
0
39
0
210
0
220
0
230
1
0
ENDBLK
5
197
100
AcDbEntity
8
0
100
AcDbBlockEnd
0
BLOCK
5
19C
100
AcDbEntity
8
0
100
AcDbBlockBegin
2
*D5
70
1
10
0
20
0
30
0
3
*D5
0
LINE
5
19E
100
AcDbEntity
8
0
62
256
6
ByLayer
370
-2
48
1
60
0
100
AcDbLine
10
40
20
18.6625
30
0
11
40
21
-15.5
31
0
39
0
210
0
220
0
230
1
0
LINE
5
19F
100
AcDbEntity
8
0
62
256
6
ByLayer
370
-2
48
1
60
0
100
AcDbLine
10
55
20
18.4125
30
0
11
55
21
-15.5
31
0
39
0
210
0
220
0
230
1
0
LINE
5
1A0
100
AcDbEntity
8
0
62
256
6
ByLayer
370
-2
48
1
60
0
100
AcDbLine
10
36.5
20
-13.5
30
0
11
33
21
-13.5
31
0
39
0
210
0
220
0
230
1
0
LINE
5
1A1
100
AcDbEntity
8
0
62
256
6
ByLayer
370
-2
48
1
60
0
100
AcDbLine
10
58.5
20
-13.5
30
0
11
62
21
-13.5
31
0
39
0
210
0
220
0
230
1
0
SOLID
5
1A2
100
AcDbEntity
8
0
62
256
6
ByLayer
370
-1
48
1
60
0
100
AcDbTrace
10
36.5
20
-14.083333
30
0
11
36.5
21
-12.916667
31
0
12
40
22
-13.5
32
0
13
40
23
-13.5
33
0
39
0
210
0
220
0
230
1
0
SOLID
5
1A3
100
AcDbEntity
8
0
62
256
6
ByLayer
370
-1
48
1
60
0
100
AcDbTrace
10
58.5
20
-12.916667
30
0
11
58.5
21
-14.083333
31
0
12
55
22
-13.5
32
0
13
55
23
-13.5
33
0
39
0
210
0
220
0
230
1
0
MTEXT
5
1A4
100
AcDbEntity
8
0
62
256
6
ByLayer
370
18
48
1
60
0
100
AcDbMText
10
47.5
20
-6.5
30
0
210
0
220
0
230
1
1
\A1;15
40
3.5
41
0
44
1
50
0
71
5
72
5
7
iso_b_vert
0
POINT
5
1A5
100
AcDbEntity
8
Defpoints
62
0
6
ByLayer
370
-1
48
1
60
0
100
AcDbPoint
10
40
20
20.25
30
0
39
0
210
0
220
0
230
1
50
360
0
POINT
5
1A6
100
AcDbEntity
8
Defpoints
62
0
6
ByLayer
370
-1
48
1
60
0
100
AcDbPoint
10
55
20
20
30
0
39
0
210
0
220
0
230
1
50
360
0
POINT
5
1A7
100
AcDbEntity
8
Defpoints
62
0
6
ByLayer
370
-1
48
1
60
0
100
AcDbPoint
10
55
20
-13.5
30
0
39
0
210
0
220
0
230
1
50
360
0
ENDBLK
5
19D
100
AcDbEntity
8
0
100
AcDbBlockEnd
0
BLOCK
5
1AF
100
AcDbEntity
8
0
100
AcDbBlockBegin
2
_U2
70
0
10
0
20
0
30
0
3
_U2
0
MTEXT
5
1A9
100
AcDbEntity
8
2
62
256
6
ByLayer
370
18
48
1
60
0
100
AcDbMText
10
46.032467
20
-12.467366
30
0
210
0
220
0
230
1
1
\W0.5321;15
40
3.5
41
0
44
1.084337
50
0
71
7
72
5
7
iso_b_vert
0
LINE
5
1AA
100
AcDbEntity
8
2
62
256
6
ByLayer
370
13
48
1
60
0
100
AcDbLine
10
40
20
18.6625
30
0
11
40
21
-15.5
31
0
39
0
210
0
220
0
230
1
0
LINE
5
1AB
100
AcDbEntity
8
2
62
256
6
ByLayer
370
13
48
1
60
0
100
AcDbLine
10
55
20
18.4125
30
0
11
55
21
-15.5
31
0
39
0
210
0
220
0
230
1
0
LINE
5
1AC
100
AcDbEntity
8
2
62
256
6
ByLayer
370
13
48
1
60
0
100
AcDbLine
10
40
20
-13.5
30
0
11
55
21
-13.5
31
0
39
0
210
0
220
0
230
1
0
SOLID
5
1AD
100
AcDbEntity
8
2
62
256
6
ByLayer
370
18
48
1
60
0
100
AcDbTrace
10
40
20
-13.5
30
0
11
43.499998
21
-13.039216
31
0
12
43.500002
22
-13.960784
32
0
13
43.500002
23
-13.960784
33
0
39
0
210
0
220
0
230
1
0
SOLID
5
1AE
100
AcDbEntity
8
2
62
256
6
ByLayer
370
18
48
1
60
0
100
AcDbTrace
10
55
20
-13.5
30
0
11
51.500002
21
-13.960784
31
0
12
51.499998
22
-13.039216
32
0
13
51.499998
23
-13.039216
33
0
39
0
210
0
220
0
230
1
0
ENDBLK
5
1B0
100
AcDbEntity
8
0
100
AcDbBlockEnd
0
BLOCK
5
1B5
100
AcDbEntity
8
0
100
AcDbBlockBegin
2
*D7
70
1
10
0
20
0
30
0
3
*D7
0
LINE
5
1B7
100
AcDbEntity
8
0
62
256
6
ByLayer
370
-2
48
1
60
0
100
AcDbLine
10
0
20
1.5875
30
0
11
0
21
40.25
31
0
39
0
210
0
220
0
230
1
0
LINE
5
1B8
100
AcDbEntity
8
0
62
256
6
ByLayer
370
-2
48
1
60
0
100
AcDbLine
10
55
20
23.5875
30
0
11
55
21
40.25
31
0
39
0
210
0
220
0
230
1
0
LINE
5
1B9
100
AcDbEntity
8
0
62
256
6
ByLayer
370
-2
48
1
60
0
100
AcDbLine
10
3.5
20
38.25
30
0
11
51.5
21
38.25
31
0
39
0
210
0
220
0
230
1
0
SOLID
5
1BA
100
AcDbEntity
8
0
62
256
6
ByLayer
370
-1
48
1
60
0
100
AcDbTrace
10
3.5
20
38.833333
30
0
11
3.5
21
37.666667
31
0
12
0
22
38.25
32
0
13
0
23
38.25
33
0
39
0
210
0
220
0
230
1
0
SOLID
5
1BB
100
AcDbEntity
8
0
62
256
6
ByLayer
370
-1
48
1
60
0
100
AcDbTrace
10
51.5
20
37.666667
30
0
11
51.5
21
38.833333
31
0
12
55
22
38.25
32
0
13
55
23
38.25
33
0
39
0
210
0
220
0
230
1
0
MTEXT
5
1BC
100
AcDbEntity
8
0
62
256
6
ByLayer
370
18
48
1
60
0
100
AcDbMText
10
27.5
20
45.25
30
0
210
0
220
0
230
1
1
\A1;55
40
3.5
41
0
44
1
50
0
71
5
72
5
7
iso_b_vert
0
POINT
5
1BD
100
AcDbEntity
8
Defpoints
62
0
6
ByLayer
370
-1
48
1
60
0
100
AcDbPoint
10
0
20
0
30
0
39
0
210
0
220
0
230
1
50
360
0
POINT
5
1BE
100
AcDbEntity
8
Defpoints
62
0
6
ByLayer
370
-1
48
1
60
0
100
AcDbPoint
10
55
20
22
30
0
39
0
210
0
220
0
230
1
50
360
0
POINT
5
1BF
100
AcDbEntity
8
Defpoints
62
0
6
ByLayer
370
-1
48
1
60
0
100
AcDbPoint
10
55
20
38.25
30
0
39
0
210
0
220
0
230
1
50
360
0
ENDBLK
5
1B6
100
AcDbEntity
8
0
100
AcDbBlockEnd
0
BLOCK
5
1C7
100
AcDbEntity
8
0
100
AcDbBlockBegin
2
_U3
70
0
10
0
20
0
30
0
3
_U3
0
MTEXT
5
1C1
100
AcDbEntity
8
2
62
256
6
ByLayer
370
18
48
1
60
0
100
AcDbMText
10
25.595034
20
39.282634
30
0
210
0
220
0
230
1
1
\W0.6740;55
40
3.5
41
0
44
1.084337
50
0
71
7
72
5
7
iso_b_vert
0
LINE
5
1C2
100
AcDbEntity
8
2
62
256
6
ByLayer
370
13
48
1
60
0
100
AcDbLine
10
0
20
1.5875
30
0
11
0
21
40.25
31
0
39
0
210
0
220
0
230
1
0
LINE
5
1C3
100
AcDbEntity
8
2
62
256
6
ByLayer
370
13
48
1
60
0
100
AcDbLine
10
55
20
23.5875
30
0
11
55
21
40.25
31
0
39
0
210
0
220
0
230
1
0
LINE
5
1C4
100
AcDbEntity
8
2
62
256
6
ByLayer
370
13
48
1
60
0
100
AcDbLine
10
0
20
38.25
30
0
11
55
21
38.25
31
0
39
0
210
0
220
0
230
1
0
SOLID
5
1C5
100
AcDbEntity
8
2
62
256
6
ByLayer
370
18
48
1
60
0
100
AcDbTrace
10
0
20
38.25
30
0
11
3.499998
21
38.710784
31
0
12
3.500002
22
37.789216
32
0
13
3.500002
23
37.789216
33
0
39
0
210
0
220
0
230
1
0
SOLID
5
1C6
100
AcDbEntity
8
2
62
256
6
ByLayer
370
18
48
1
60
0
100
AcDbTrace
10
55
20
38.25
30
0
11
51.500002
21
37.789216
31
0
12
51.499998
22
38.710784
32
0
13
51.499998
23
38.710784
33
0
39
0
210
0
220
0
230
1
0
ENDBLK
5
1C8
100
AcDbEntity
8
0
100
AcDbBlockEnd
0
ENDSEC
0
SECTION
2
ENTITIES
0
ARC
5
F3
100
AcDbEntity
8
1
62
256
6
ByLayer
370
18
48
1
60
0
100
AcDbCircle
39
0
10
15.279208
20
17.2
30
0
40
1.2
210
0
220
0
230
1
100
AcDbArc
50
270
51
299.226183
0
ARC
5
F4
100
AcDbEntity
8
SK1
62
256
6
ByLayer
370
18
48
1
60
0
100
AcDbCircle
39
0
10
-0.6
20
11.8
30
0
40
0.999999999999996
210
0
220
0
230
1
100
AcDbArc
50
293.578178
51
306.869898
0
ARC
5
F5
100
AcDbEntity
8
SK1
62
256
6
ByLayer
370
18
48
1
60
0
100
AcDbCircle
39
0
10
-0.6
20
-11.8
30
0
40
0.999999999999996
210
0
220
0
230
1
100
AcDbArc
50
53.130102
51
66.421822
0
ARC
5
F8
100
AcDbEntity
8
1
62
256
6
ByLayer
370
18
48
1
60
0
100
AcDbCircle
39
0
10
40
20
18.65
30
0
40
1.6
210
0
220
0
230
1
100
AcDbArc
50
164.99356
51
180
0
ARC
5
FA
100
AcDbEntity
8
1
62
256
6
ByLayer
370
18
48
1
60
0
100
AcDbCircle
39
0
10
23.3
20
17.15
30
0
40
1
210
0
220
0
230
1
100
AcDbArc
50
270
51
0
0
CIRCLE
5
F6
100
AcDbEntity
8
1
62
256
6
ByLayer
370
18
48
1
60
0
100
AcDbCircle
10
33.6
20
14.2
30
0
40
1.7
39
0
210
0
220
0
230
1
0
CIRCLE
5
F7
100
AcDbEntity
8
1
62
256
6
ByLayer
370
18
48
1
60
0
100
AcDbCircle
10
33.6
20
14.2
30
0
40
2.25
39
0
210
0
220
0
230
1
0
CIRCLE
5
F9
100
AcDbEntity
8
1
62
256
6
ByLayer
370
18
48
1
60
0
100
AcDbCircle
10
33.6
20
14.2
30
0
40
3.8
39
0
210
0
220
0
230
1
0
ELLIPSE
5
FB
100
AcDbEntity
8
1
62
256
6
ByLayer
370
18
48
1
60
0
100
AcDbEllipse
10
47.1881
20
21
30
0
11
2.44921270764474E-17
21
0.399999999999998
31
0
210
0
220
0
230
1
40
0.99554
41
0
42
6.28318530717959
0
ELLIPSE
5
FC
100
AcDbEntity
8
1
62
256
6
ByLayer
370
18
48
1
60
0
100
AcDbEllipse
10
40.327516
20
20.25
30
0
11
-2.78951487299376
21
3.41605763755018E-16
31
0
210
0
220
0
230
1
40
0.573576
41
0
42
0.834666137439598
0
ELLIPSE
5
FD
100
AcDbEntity
8
1
62
256
6
ByLayer
370
18
48
1
60
0
100
AcDbEllipse
10
15.13963
20
0
30
0
11
9.79685083058943E-16
21
16.000000000017
31
0
210
0
220
0
230
1
40
0.008727
41
1.11479008040069
42
2.0268025731891
0
ELLIPSE
5
FE
100
AcDbEntity
8
1
62
256
6
ByLayer
370
18
48
1
60
0
100
AcDbEllipse
10
-0.928203
20
0
30
0
11
7.49393430382602
21
15.7933993222004
31
0
210
0
220
0
230
1
40
0.341999
41
-1.08757920120051
42
-0.16146657119771
0
ELLIPSE
5
FF
100
AcDbEntity
8
1
62
256
6
ByLayer
370
18
48
1
60
0
100
AcDbEllipse
10
12.928203
20
0
30
0
11
7.49393430382462
21
-15.7933993221993
31
0
210
0
220
0
230
1
40
0.341999
41
-2.98012608239206
42
-2.05401345238921
0
ELLIPSE
5
100
100
AcDbEntity
8
1
62
256
6
ByLayer
370
18
48
1
60
0
100
AcDbEllipse
10
12.928203
20
0
30
0
11
7.49393430382517
21
15.7933993222
31
0
210
0
220
0
230
1
40
0.341999
41
2.05401345238925
42
2.98012608239207
0
ELLIPSE
5
101
100
AcDbEntity
8
1
62
256
6
ByLayer
370
18
48
1
60
0
100
AcDbEllipse
10
-0.928203
20
0
30
0
11
7.49393430382587
21
-15.7933993222002
31
0
210
0
220
0
230
1
40
0.341999
41
0.161466571197716
42
1.08757920120051
0
ELLIPSE
5
102
100
AcDbEntity
8
1
62
256
6
ByLayer
370
18
48
1
60
0
100
AcDbEllipse
10
37.660107
20
22.6
30
0
11
0.909842478112136
21
1.06583985190952E-15
31
0
210
0
220
0
230
1
40
0.879273
41
-1.84644008770979
42
-1.5707963267949
0
ELLIPSE
5
103
100
AcDbEntity
8
1
62
256
6
ByLayer
370
18
48
1
60
0
100
AcDbEllipse
10
52.339893
20
22.6
30
0
11
0.909842477967909
21
1.06583985174056E-15
31
0
210
0
220
0
230
1
40
0.879273
41
-1.5707963267949
42
-1.29515256583621
0
ELLIPSE
5
104
100
AcDbEntity
8
1
62
256
6
ByLayer
370
18
48
1
60
0
100
AcDbEllipse
10
50.368909
20
21.675438
30
0
11
0.705694516331462
21
8.26689626912961E-16
31
0
210
0
220
0
230
1
40
0.212557
41
3.14159265358979
42
-2.80561677255902
0
ELLIPSE
5
105
100
AcDbEntity
8
1
62
256
6
ByLayer
370
18
48
1
60
0
100
AcDbEllipse
10
51.014842
20
21.433936
30
0
11
0.94092602190048
21
1.10225283603061E-15
31
0
210
0
220
0
230
1
40
0.212557
41
-2.80561677257914
42
-1.98717825108622
0
ELLIPSE
5
106
100
AcDbEntity
8
1
62
256
6
ByLayer
370
18
48
1
60
0
100
AcDbEllipse
10
54.439895
20
23.080141
30
0
11
9.40926021190418
21
1.10225283519881E-14
31
0
210
0
220
0
230
1
40
0.212557
41
-1.98717825132069
42
-1.91986217737424
0
ELLIPSE
5
107
100
AcDbEntity
8
1
62
256
6
ByLayer
370
18
48
1
60
0
100
AcDbEllipse
10
50.928041
20
21
30
0
11
0.987972322990457
21
1.15736547782623E-15
31
0
210
0
220
0
230
1
40
0.212557
41
0
42
1.22173047639604
0
ELLIPSE
5
108
100
AcDbEntity
8
1
62
256
6
ByLayer
370
18
48
1
60
0
100
AcDbEllipse
10
50.928041
20
21
30
0
11
0.987972322990458
21
1.15736547782623E-15
31
0
210
0
220
0
230
1
40
0.212557
41
-1.22173047639604
42
0
0
ELLIPSE
5
109
100
AcDbEntity
8
1
62
256
6
ByLayer
370
18
48
1
60
0
100
AcDbEllipse
10
54.439895
20
18.919859
30
0
11
9.40926008013872
21
1.88516289520566E-08
31
0
210
0
220
0
230
1
40
0.212557
41
1.91986217180913
42
1.98717824657035
0
ELLIPSE
5
10A
100
AcDbEntity
8
1
62
256
6
ByLayer
370
18
48
1
60
0
100
AcDbEllipse
10
51.014842
20
20.566064
30
0
11
0.94092602190048
21
1.10225283603061E-15
31
0
210
0
220
0
230
1
40
0.212557
41
1.98717825108622
42
2.80561677257912
0
ELLIPSE
5
10B
100
AcDbEntity
8
1
62
256
6
ByLayer
370
18
48
1
60
0
100
AcDbEllipse
10
50.368909
20
20.324562
30
0
11
0.70569451633108
21
8.26689626912514E-16
31
0
210
0
220
0
230
1
40
0.212557
41
2.80561677255894
42
3.14159265358979
0
ELLIPSE
5
10C
100
AcDbEntity
8
1
62
256
6
ByLayer
370
18
48
1
60
0
100
AcDbEllipse
10
52.339893
20
19.4
30
0
11
0.909842478083816
21
1.06583985187634E-15
31
0
210
0
220
0
230
1
40
0.879273
41
1.29515256587132
42
1.5707963267949
0
ELLIPSE
5
10D
100
AcDbEntity
8
1
62
256
6
ByLayer
370
18
48
1
60
0
100
AcDbEllipse
10
51.365427
20
21.55
30
0
11
7.85307604188964E-18
21
0.128254700253314
31
0
210
0
220
0
230
1
40
0.978148
41
0
42
6.28318530717959
0
POINT
5
70
100
AcDbEntity
8
80
62
256
6
ByLayer
370
18
48
1
60
0
100
AcDbPoint
10
0
20
0
30
0
39
0
210
0
220
0
230
1
50
360
0
POINT
5
72
100
AcDbEntity
8
81
62
256
6
ByLayer
370
18
48
1
60
0
100
AcDbPoint
10
55
20
22
30
0
39
0
210
0
220
0
230
1
50
360
0
POINT
5
74
100
AcDbEntity
8
1
62
256
6
ByLayer
370
18
48
1
60
1
100
AcDbPoint
10
55
20
22
30
0
39
0
210
0
220
0
230
1
50
360
0
POINT
5
76
100
AcDbEntity
8
1
62
256
6
ByLayer
370
18
48
1
60
1
100
AcDbPoint
10
0
20
0
30
0
39
0
210
0
220
0
230
1
50
360
0
POINT
5
77
100
AcDbEntity
8
1
62
256
6
ByLayer
370
18
48
1
60
1
100
AcDbPoint
10
55
20
20
30
0
39
0
210
0
220
0
230
1
50
360
0
POINT
5
78
100
AcDbEntity
8
1
62
256
6
ByLayer
370
18
48
1
60
1
100
AcDbPoint
10
55
20
22
30
0
39
0
210
0
220
0
230
1
50
360
0
POINT
5
79
100
AcDbEntity
8
1
62
256
6
ByLayer
370
18
48
1
60
1
100
AcDbPoint
10
40
20
20.25
30
0
39
0
210
0
220
0
230
1
50
360
0
POINT
5
7A
100
AcDbEntity
8
1
62
256
6
ByLayer
370
18
48
1
60
1
100
AcDbPoint
10
55
20
20
30
0
39
0
210
0
220
0
230
1
50
360
0
POINT
5
7B
100
AcDbEntity
8
1
62
256
6
ByLayer
370
18
48
1
60
1
100
AcDbPoint
10
0
20
0
30
0
39
0
210
0
220
0
230
1
50
360
0
POINT
5
7C
100
AcDbEntity
8
1
62
256
6
ByLayer
370
18
48
1
60
1
100
AcDbPoint
10
55
20
22
30
0
39
0
210
0
220
0
230
1
50
360
0
SPLINE
5
10E
100
AcDbEntity
8
SK1
62
256
6
ByLayer
370
18
48
1
60
0
100
AcDbSpline
70
4
71
2
72
6
73
3
40
0
40
0
40
0
40
1
40
1
40
1
41
1
10
-0.394913799811292
20
10.7561253011184
30
0
41
1
10
-0.944976888870372
20
10.7424218878285
30
0
41
1
10
-1.49503997793928
20
10.7287184519682
30
0
0
SPLINE
5
10F
100
AcDbEntity
8
SK1
62
256
6
ByLayer
370
18
48
1
60
0
100
AcDbSpline
70
4
71
2
72
6
73
3
40
0
40
0
40
0
40
1
40
1
40
1
41
1
10
-1.49503997793928
20
-10.7287185965104
30
0
41
1
10
-0.944976888870372
20
-10.742422032064
30
0
41
1
10
-0.394913799811292
20
-10.7561254450469
30
0
0
SPLINE
5
110
100
AcDbEntity
8
SK1
62
256
6
ByLayer
370
18
48
1
60
0
100
AcDbSpline
70
4
71
2
72
6
73
3
40
0
40
0
40
0
40
1
40
1
40
1
41
1
10
-18
20
10.6101496008039
30
0
41
1
10
-18.4999993598728
20
10.3216388688797
30
0
41
1
10
-19
20
10.0331225704842
30
0
0
SPLINE
5
111
100
AcDbEntity
8
SK1
62
256
6
ByLayer
370
18
48
1
60
0
100
AcDbSpline
70
4
71
2
72
6
73
3
40
0
40
0
40
0
40
1
40
1
40
1
41
1
10
-19
20
-10.033122704642
30
0
41
1
10
-18.499999359849
20
-10.3216390035828
30
0
41
1
10
-18
20
-10.6101497360692
30
0
0
SPLINE
5
112
100
AcDbEntity
8
SK1
62
256
6
ByLayer
370
18
48
1
60
0
100
AcDbSpline
70
4
71
3
72
13
73
9
40
0
40
0
40
0
40
0
40
0.239503299986072
40
0.368422974046453
40
0.500068382752372
40
0.631702431366343
40
0.760590771380856
40
1
40
1
40
1
40
1
41
1
10
-1.49503997793928
20
10.8252677308309
30
0
41
1
10
-1.52110932222989
20
10.8248656203855
30
0
41
1
10
-1.55883875866955
20
10.8310353403565
30
0
41
1
10
-1.60627575626165
20
10.8540692579953
30
0
41
1
10
-1.63886251160179
20
10.8792258274844
30
0
41
1
10
-1.66563496160413
20
10.9104942540852
30
0
41
1
10
-1.69103211703248
20
10.9566935764512
30
0
41
1
10
-1.69909125944702
20
10.994051696625
30
0
41
1
10
-1.7
20
11.020099440279
30
0
0
SPLINE
5
113
100
AcDbEntity
8
SK1
62
256
6
ByLayer
370
18
48
1
60
0
100
AcDbSpline
70
4
71
3
72
13
73
9
40
0
40
0
40
0
40
0
40
0.239409228197305
40
0.368297568070461
40
0.499931616633788
40
0.631577025391789
40
0.760496699593568
40
1
40
1
40
1
40
1
41
1
10
-1.7
20
-11.0200995388071
30
0
41
1
10
-1.69909125944079
20
-10.9940517952282
30
0
41
1
10
-1.69103211702638
20
-10.9566936751655
30
0
41
1
10
-1.66563496159546
20
-10.9104943529528
30
0
41
1
10
-1.63886251159008
20
-10.8792259264472
30
0
41
1
10
-1.60627575624898
20
-10.854069357026
30
0
41
1
10
-1.55883875865177
20
-10.8310354394285
30
0
41
1
10
-1.5211093222206
20
-10.8248657194289
30
0
41
1
10
-1.49503997793928
20
-10.825267829839
30
0
0
SPLINE
5
114
100
AcDbEntity
8
SK1
62
256
6
ByLayer
370
18
48
1
60
0
100
AcDbSpline
70
4
71
2
72
6
73
3
40
0
40
0
40
0
40
1
40
1
40
1
41
1
10
-1.7
20
11.0168487405457
30
0
41
1
10
-9.84999999929856
20
10.8122283432519
30
0
41
1
10
-18
20
10.607607381218
30
0
0
SPLINE
5
115
100
AcDbEntity
8
SK1
62
256
6
ByLayer
370
18
48
1
60
0
100
AcDbSpline
70
4
71
2
72
6
73
3
40
0
40
0
40
0
40
1
40
1
40
1
41
1
10
-18
20
-10.6076075596898
30
0
41
1
10
-9.84999999929849
20
-10.812228522059
30
0
41
1
10
-1.7
20
-11.0168489196732
30
0
0
SPLINE
5
116
100
AcDbEntity
8
1
62
256
6
ByLayer
370
18
48
1
60
0
100
AcDbSpline
70
4
71
3
72
8
73
4
40
0
40
0
40
0
40
0
40
1
40
1
40
1
40
1
41
1
10
17.8289860704118
20
21.7500000000001
30
0
41
1
10
17.4243650374024
20
20.2170599729828
30
0
41
1
10
17.0208489865498
20
18.6838226094676
30
0
41
1
10
16.6195942797497
20
17.15
30
0
0
SPLINE
5
117
100
AcDbEntity
8
1
62
256
6
ByLayer
370
18
48
1
60
0
100
AcDbSpline
70
4
71
3
72
13
73
9
40
0
40
0
40
0
40
0
40
0.25
40
0.5
40
0.5
40
0.75
40
0.75
40
1
40
1
40
1
40
1
41
1
10
16.6195942797497
20
17.15
30
0
41
1
10
16.6042683536996
20
17.0914156357836
30
0
41
1
10
16.5735082851438
20
16.9760732879199
30
0
41
1
10
16.5425227449737
20
16.8642203295038
30
0
41
1
10
16.5114226488673
20
16.754189498179
30
0
41
1
10
16.4962548505516
20
16.7016404892709
30
0
41
1
10
16.4666933531886
20
16.6013695080092
30
0
41
1
10
16.4522958950038
20
16.5536344409027
30
0
41
1
10
16.4383186059721
20
16.5084351655182
30
0
0
SPLINE
5
118
100
AcDbEntity
8
1
62
256
6
ByLayer
370
18
48
1
60
0
100
AcDbSpline
70
4
71
3
72
37
73
33
40
0
40
0
40
0
40
0
40
0.0312499999999991
40
0.0312499999999991
40
0.0624999999999982
40
0.124999999999996
40
0.124999999999996
40
0.249999999999991
40
0.249999999999991
40
0.28124999999999
40
0.28124999999999
40
0.312499999999989
40
0.312499999999989
40
0.374999999999993
40
0.374999999999993
40
0.500000000000007
40
0.500000000000007
40
0.531250000000008
40
0.531250000000008
40
0.562500000000008
40
0.625000000000006
40
0.687500000000003
40
0.687500000000003
40
0.718750000000001
40
0.718750000000001
40
0.75
40
0.75
40
0.874999999999997
40
0.874999999999997
40
0.937499999999998
40
0.937499999999998
40
1
40
1
40
1
40
1
41
1
10
22.5979991993594
20
16.15
30
0
41
1
10
22.6161596625569
20
16.15
30
0
41
1
10
22.6343436715721
20
16.1503025762776
30
0
41
1
10
22.6705404692686
20
16.1515196643775
30
0
41
1
10
22.7246748030338
20
16.1542634146374
30
0
41
1
10
22.7783209647337
20
16.1597933881372
30
0
41
1
10
22.8849379288975
20
16.1747079219338
30
0
41
1
10
22.9551208774946
20
16.1897592794783
30
0
41
1
10
23.0415829778381
20
16.2158024637559
30
0
41
1
10
23.0588116390369
20
16.2213750019034
30
0
41
1
10
23.0931357597247
20
16.2332803218201
30
0
41
1
10
23.1102683325627
20
16.2396289977521
30
0
41
1
10
23.1610060787218
20
16.2596878790594
30
0
41
1
10
23.1940493017973
20
16.2744353258394
30
0
41
1
10
23.2907724756647
20
16.3229089218058
30
0
41
1
10
23.3520714248128
20
16.3608215019205
30
0
41
1
10
23.4242042253867
20
16.4161083927452
30
0
41
1
10
23.4384465541441
20
16.4276015592398
30
0
41
1
10
23.4661892927071
20
16.4511913425105
30
0
41
1
10
23.5067111080116
20
16.4874857382757
30
0
41
1
10
23.5688047152749
20
16.5525094185346
30
0
41
1
10
23.6125622959425
20
16.6094566175086
30
0
41
1
10
23.6430477949145
20
16.6541098054289
30
0
41
1
10
23.6528200581636
20
16.6693186563508
30
0
41
1
10
23.6715554404667
20
16.7004102576541
30
0
41
1
10
23.6805452052648
20
16.7163445309867
30
0
41
1
10
23.7230509325826
20
16.7971584961779
30
0
41
1
10
23.7488697960024
20
16.8644367321645
30
0
41
1
10
23.7752531168167
20
16.9693159907482
30
0
41
1
10
23.7819729542626
20
17.0049415512714
30
0
41
1
10
23.7910147230196
20
17.0776041037324
30
0
41
1
10
23.7932370625239
20
17.1138738724257
30
0
41
1
10
23.7932370625239
20
17.15
30
0
0
SPLINE
5
119
100
AcDbEntity
8
1
62
256
6
ByLayer
370
18
48
1
60
0
100
AcDbSpline
70
4
71
3
72
33
73
29
40
0
40
0
40
0
40
0
40
0.125000000000006
40
0.125000000000006
40
0.187500000000008
40
0.187500000000008
40
0.250000000000011
40
0.312500000000014
40
0.312500000000014
40
0.343750000000014
40
0.343750000000014
40
0.375000000000014
40
0.375000000000014
40
0.500000000000018
40
0.500000000000018
40
0.56250000000002
40
0.56250000000002
40
0.593750000000019
40
0.593750000000019
40
0.625000000000018
40
0.625000000000018
40
0.750000000000015
40
0.750000000000015
40
0.812500000000013
40
0.812500000000013
40
0.875000000000011
40
0.875000000000011
40
1
40
1
40
1
40
1
41
1
10
24.1792156108743
20
17.15
30
0
41
1
10
24.1792156108743
20
17.0832436260867
30
0
41
1
10
24.1724024636134
20
17.017099031744
30
0
41
1
10
24.1519070702788
20
16.918804833698
30
0
41
1
10
24.143288334735
20
16.8860488117296
30
0
41
1
10
24.1229298975619
20
16.8222481913133
30
0
41
1
10
24.0994237772518
20
16.7598760962957
30
0
41
1
10
24.0697769675525
20
16.7002908544577
30
0
41
1
10
24.0452277297467
20
16.6566521540257
30
0
41
1
10
24.0366582573285
20
16.6422812788688
30
0
41
1
10
24.0187359240042
20
16.6138950568287
30
0
41
1
10
24.0093565962303
20
16.5998444499673
30
0
41
1
10
23.9609510550854
20
16.5311735123727
30
0
41
1
10
23.9172761539375
20
16.4809191664987
30
0
41
1
10
23.8446575523051
20
16.412259099656
30
0
41
1
10
23.8192581400242
20
16.3905010109515
30
0
41
1
10
23.779331242548
20
16.3595926841259
30
0
41
1
10
23.7657552067244
20
16.3496106169166
30
0
41
1
10
23.7382758559522
20
16.3304211683923
30
0
41
1
10
23.7243435742832
20
16.3211910993284
30
0
41
1
10
23.6537383245528
20
16.2768276981421
30
0
41
1
10
23.5942590621149
20
16.2470074317023
30
0
41
1
10
23.5005995875411
20
16.2106842391689
30
0
41
1
10
23.4685154439817
20
16.1999671223374
30
0
41
1
10
23.4040980234737
20
16.1817637186531
30
0
41
1
10
23.3716360317392
20
16.1742157749747
30
0
41
1
10
23.2735131192457
20
16.1560926942454
30
0
41
1
10
23.2071055833143
20
16.15
30
0
41
1
10
23.1397368307141
20
16.15
30
0
0
SPLINE
5
11A
100
AcDbEntity
8
1
62
256
6
ByLayer
370
18
48
1
60
0
100
AcDbSpline
70
4
71
3
72
8
73
4
40
0
40
0
40
0
40
0
40
1
40
1
40
1
40
1
41
1
10
48.5812077706279
20
20.75
30
0
41
1
10
48.5408666046078
20
20.582989768181
30
0
41
1
10
48.5000989992124
20
20.4162285074006
30
0
41
1
10
48.4584188900179
20
20.25
30
0
0
SPLINE
5
11B
100
AcDbEntity
8
1
62
256
6
ByLayer
370
18
48
1
60
0
100
AcDbSpline
70
4
71
3
72
8
73
4
40
0
40
0
40
0
40
0
40
1
40
1
40
1
40
1
41
1
10
48.6865106453464
20
20.8121010091006
30
0
41
1
10
48.6514466721628
20
20.7912513603502
30
0
41
1
10
48.6163519950296
20
20.7705256665267
30
0
41
1
10
48.581207770628
20
20.7500000000001
30
0
0
SPLINE
5
11C
100
AcDbEntity
8
1
62
256
6
ByLayer
370
18
48
1
60
0
100
AcDbSpline
70
4
71
3
72
20
73
16
40
0
40
0
40
0
40
0
40
0.249999999999982
40
0.249999999999982
40
0.374999999999985
40
0.374999999999985
40
0.499999999999988
40
0.499999999999988
40
0.624999999999991
40
0.624999999999991
40
0.749999999999994
40
0.749999999999994
40
0.874999999999997
40
0.874999999999997
40
1
40
1
40
1
40
1
41
1
10
48.75
20
20.9511810389476
30
0
41
1
10
48.75
20
20.9359842728918
30
0
41
1
10
48.7484779810557
20
20.9211868229534
30
0
41
1
10
48.7439599708086
20
20.8995770167443
30
0
41
1
10
48.7420864241383
20
20.8925551918343
30
0
41
1
10
48.7377115139115
20
20.8791589968836
30
0
41
1
10
48.7352004104125
20
20.8727365409518
30
0
41
1
10
48.7295292230758
20
20.8604443460191
30
0
41
1
10
48.726361740832
20
20.8545803174143
30
0
41
1
10
48.7195881949015
20
20.8437814419371
30
0
41
1
10
48.7159594784963
20
20.8387926766347
30
0
41
1
10
48.7082253053791
20
20.8296243603783
30
0
41
1
10
48.7040937531756
20
20.8254272185598
30
0
41
1
10
48.6955397235204
20
20.8180428738552
30
0
41
1
10
48.6911040884285
20
20.814832350307
30
0
41
1
10
48.6865106453464
20
20.8121010091006
30
0
0
SPLINE
5
11D
100
AcDbEntity
8
1
62
256
6
ByLayer
370
18
48
1
60
0
100
AcDbSpline
70
4
71
3
72
20
73
16
40
0
40
0
40
0
40
0
40
0.249999999999999
40
0.249999999999999
40
0.374999999999999
40
0.374999999999999
40
0.499999999999999
40
0.499999999999999
40
0.625
40
0.625
40
0.75
40
0.75
40
0.875
40
0.875
40
1
40
1
40
1
40
1
41
1
10
48.6865106453465
20
21.1878989908994
30
0
41
1
10
48.6957000859098
20
21.1824347895964
30
0
41
1
10
48.704189305352
20
21.1751290512659
30
0
41
1
10
48.7158510597948
20
21.1613509554201
30
0
41
1
10
48.7195461549389
20
21.1562788106681
30
0
41
1
10
48.7263182970862
20
21.1454956293184
30
0
41
1
10
48.7294293560827
20
21.1397475513341
30
0
41
1
10
48.7350908262978
20
21.127524649763
30
0
41
1
10
48.7376593079985
20
21.1209865990583
30
0
41
1
10
48.7420660944706
20
21.1075210867982
30
0
41
1
10
48.7439160773347
20
21.1005896613163
30
0
41
1
10
48.7469146404436
20
21.0863325174432
30
0
41
1
10
48.7480661815218
20
21.0789785157967
30
0
41
1
10
48.7496122894076
20
21.0639762744384
30
0
41
1
10
48.7500000000053
20
21.0564235687165
30
0
41
1
10
48.7500000000053
20
21.0488189610531
30
0
0
SPLINE
5
11E
100
AcDbEntity
8
1
62
256
6
ByLayer
370
18
48
1
60
0
100
AcDbSpline
70
4
71
3
72
8
73
4
40
0
40
0
40
0
40
0
40
1
40
1
40
1
40
1
41
1
10
48.5812077706279
20
21.25
30
0
41
1
10
48.6163490340968
20
21.2294760627793
30
0
41
1
10
48.6514441464644
20
21.208750141474
30
0
41
1
10
48.6865106453465
20
21.1878989908994
30
0
0
SPLINE
5
11F
100
AcDbEntity
8
1
62
256
6
ByLayer
370
18
48
1
60
0
100
AcDbSpline
70
4
71
3
72
8
73
4
40
0
40
0
40
0
40
0
40
1
40
1
40
1
40
1
41
1
10
48.4584188900178
20
21.7500000000002
30
0
41
1
10
48.5000989992123
20
21.5837714925996
30
0
41
1
10
48.5408666046078
20
21.4170102318191
30
0
41
1
10
48.5812077706279
20
21.25
30
0
0
SPLINE
5
120
100
AcDbEntity
8
1
62
256
6
ByLayer
370
18
48
1
60
0
100
AcDbSpline
70
4
71
3
72
31
73
27
40
0
40
0
40
0
40
0
40
0.124999999999996
40
0.124999999999996
40
0.249999999999992
40
0.249999999999992
40
0.281249999999992
40
0.281249999999992
40
0.312499999999992
40
0.312499999999992
40
0.374999999999994
40
0.374999999999994
40
0.499999999999993
40
0.499999999999993
40
0.562499999999995
40
0.562499999999995
40
0.624999999999997
40
0.624999999999997
40
0.749999999999998
40
0.749999999999998
40
0.874999999999999
40
0.874999999999999
40
0.90625
40
0.90625
40
0.9375
40
1
40
1
40
1
40
1
41
1
10
40
20
20.25
30
0
41
1
10
39.9060513024011
20
20.25
30
0
41
1
10
39.8132362669731
20
20.2417771085418
30
0
41
1
10
39.6302186757832
20
20.2094540158377
30
0
41
1
10
39.5400177429761
20
20.1853302267591
30
0
41
1
10
39.4297142709533
20
20.1451005312752
30
0
41
1
10
39.4077782780384
20
20.1365498871754
30
0
41
1
10
39.3641854250847
20
20.118433505934
30
0
41
1
10
39.3424874292564
20
20.1088472017206
30
0
41
1
10
39.2783206395652
20
20.0787794285116
30
0
41
1
10
39.2366934156043
20
20.0569631469708
30
0
41
1
10
39.1155134274784
20
19.9865674161417
30
0
41
1
10
39.0396587094152
20
19.9330258850061
30
0
41
1
10
38.9344244573025
20
19.8444251616591
30
0
41
1
10
38.9007724474869
20
19.8135132762058
30
0
41
1
10
38.8365165206173
20
19.7492590910767
30
0
41
1
10
38.8058483633549
20
19.7158205484483
30
0
41
1
10
38.7199391884493
20
19.6140179510362
30
0
41
1
10
38.670353111503
20
19.5437671470397
30
0
41
1
10
38.5856254475462
20
19.4025458036482
30
0
41
1
10
38.5504873285009
20
19.3315687207836
30
0
41
1
10
38.5146176047203
20
19.2449710677164
30
0
41
1
10
38.507843642668
20
19.2277528108113
30
0
41
1
10
38.4951312264821
20
19.1937820147978
30
0
41
1
10
38.4772847979778
20
19.1434524315723
30
0
41
1
10
38.4628676638433
20
19.0952553480152
30
0
41
1
10
38.4545652324954
20
19.0642841770911
30
0
0
SPLINE
5
121
100
AcDbEntity
8
1
62
256
6
ByLayer
370
18
48
1
60
0
100
AcDbSpline
70
4
71
3
72
13
73
9
40
0
40
0
40
0
40
0
40
0.5
40
0.5
40
0.625
40
0.625
40
0.75
40
1
40
1
40
1
40
1
41
1
10
16.4383186059721
20
16.15
30
0
41
1
10
16.5158075890116
20
16.15
30
0
41
1
10
16.6146472142267
20
16.15
30
0
41
1
10
16.7603667185546
20
16.15
30
0
41
1
10
16.7906233446513
20
16.15
30
0
41
1
10
16.8531982248138
20
16.15
30
0
41
1
10
16.9501203076202
20
16.15
30
0
41
1
10
17.0556537400152
20
16.15
30
0
41
1
10
17.129364721646
20
16.15
30
0
0
SPLINE
5
122
100
AcDbEntity
8
1
62
256
6
ByLayer
370
18
48
1
60
0
100
AcDbSpline
70
4
71
3
72
8
73
4
40
0
40
0
40
0
40
0
40
1
40
1
40
1
40
1
41
1
10
16.6591256168518
20
-13.7503265536194
30
0
41
1
10
16.5806901315321
20
-13.8066199234023
30
0
41
1
10
16.5069403526226
20
-13.8638749980624
30
0
41
1
10
16.4383186059721
20
-13.9207719368861
30
0
0
SPLINE
5
123
100
AcDbEntity
8
1
62
256
6
ByLayer
370
18
48
1
60
0
100
AcDbSpline
70
4
71
3
72
24
73
20
40
0
40
0
40
0
40
0
40
0.195140953798999
40
0.195140953798999
40
0.390281907597998
40
0.390281907597998
40
0.487852384497498
40
0.487852384497498
40
0.585422861396998
40
0.585422861396998
40
0.682993338296497
40
0.682993338296497
40
0.780563815195997
40
0.780563815195997
40
0.878134292095497
40
0.878134292095497
40
0.975704768994997
40
0.975704768994997
40
1
40
1
40
1
40
1
41
1
10
16.4383186059721
20
16.15
30
0
41
1
10
16.4129791657012
20
16.15
30
0
41
1
10
16.3776738393675
20
16.15
30
0
41
1
10
16.2952069495878
20
16.15
30
0
41
1
10
16.2479614721562
20
16.15
30
0
41
1
10
16.17405172169
20
16.15
30
0
41
1
10
16.148914521297
20
16.15
30
0
41
1
10
16.0988343332314
20
16.15
30
0
41
1
10
16.0738889529189
20
16.15
30
0
41
1
10
16.0256494184474
20
16.15
30
0
41
1
10
16.0023538420076
20
16.15
30
0
41
1
10
15.9592071525484
20
16.15
30
0
41
1
10
15.9393614802933
20
16.15
30
0
41
1
10
15.9052089783333
20
16.15
30
0
41
1
10
15.8909212267309
20
16.15
30
0
41
1
10
15.8699353320541
20
16.15
30
0
41
1
10
15.8632655304521
20
16.15
30
0
41
1
10
15.860458950167
20
16.15
30
0
41
1
10
15.8601743589823
20
16.15
30
0
41
1
10
15.8601626059738
20
16.15
30
0
0
SPLINE
5
124
100
AcDbEntity
8
1
62
256
6
ByLayer
370
18
48
1
60
0
100
AcDbSpline
70
4
71
3
72
26
73
22
40
0
40
0
40
0
40
0
40
0.125000000000003
40
0.125000000000003
40
0.250000000000006
40
0.250000000000006
40
0.312500000000007
40
0.312500000000007
40
0.375000000000008
40
0.375000000000008
40
0.500000000000005
40
0.500000000000005
40
0.625000000000002
40
0.625000000000002
40
0.687500000000003
40
0.687500000000003
40
0.750000000000003
40
0.750000000000003
40
0.875000000000002
40
0.875000000000002
40
1
40
1
40
1
40
1
41
1
10
16.1654364093677
20
16.15
30
0
41
1
10
16.1713920665632
20
16.15
30
0
41
1
10
16.1791615054772
20
16.1521742037098
30
0
41
1
10
16.1973787321917
20
16.1604464627657
30
0
41
1
10
16.2078270791238
20
16.166546980286
30
0
41
1
10
16.2249025396983
20
16.1785261515829
30
0
41
1
10
16.2308292307569
20
16.1829924498474
30
0
41
1
10
16.243062429654
20
16.1928727646692
30
0
41
1
10
16.249380418148
20
16.1982973217311
30
0
41
1
10
16.2687012869054
20
16.2159436549267
30
0
41
1
10
16.2819498470149
20
16.2294207306935
30
0
41
1
10
16.3085474319033
20
16.2597372838578
30
0
41
1
10
16.3218991342964
20
16.2765773347327
30
0
41
1
10
16.3416029904247
20
16.30445265617
30
0
41
1
10
16.348117511246
20
16.3141816939082
30
0
41
1
10
16.3609757232561
20
16.3345474125541
30
0
41
1
10
16.3673343629252
20
16.3452116334775
30
0
41
1
10
16.3859245080864
20
16.3783923421345
30
0
41
1
10
16.3976704240409
20
16.4020762084593
30
0
41
1
10
16.4194203230358
20
16.4527211011582
30
0
41
1
10
16.4294267012645
20
16.4796808306353
30
0
41
1
10
16.4383186059721
20
16.5084351655182
30
0
0
SPLINE
5
125
100
AcDbEntity
8
1
62
256
6
ByLayer
370
18
48
1
60
0
100
AcDbSpline
70
4
71
3
72
28
73
24
40
0
40
0
40
0
40
0
40
0.125
40
0.125
40
0.250000000000001
40
0.250000000000001
40
0.375000000000001
40
0.375000000000001
40
0.437500000000001
40
0.437500000000001
40
0.500000000000001
40
0.500000000000001
40
0.625000000000001
40
0.625000000000001
40
0.75
40
0.75
40
0.8125
40
0.8125
40
0.875
40
0.875
40
0.9375
40
0.9375
40
1
40
1
40
1
40
1
41
1
10
15.2792076144252
20
-15.5102219048535
30
0
41
1
10
15.3036876104775
20
-15.4492228351586
30
0
41
1
10
15.3318039065811
20
-15.3835095532046
30
0
41
1
10
15.3963966396086
20
-15.2445402147746
30
0
41
1
10
15.432888219511
20
-15.1712792700501
30
0
41
1
10
15.5148367562374
20
-15.0199147031931
30
0
41
1
10
15.5603123442413
20
-14.9418124831016
30
0
41
1
10
15.6349403846912
20
-14.8237242184425
30
0
41
1
10
15.6608788767122
20
-14.7842084155391
30
0
41
1
10
15.714635085075
20
-14.7054591469131
30
0
41
1
10
15.7424571948128
20
-14.6662195086593
30
0
41
1
10
15.8282793886781
20
-14.5497323960198
30
0
41
1
10
15.8887022261885
20
-14.4737175442584
30
0
41
1
10
16.0119163295737
20
-14.3295094364487
30
0
41
1
10
16.074717877759
20
-14.261319788226
30
0
41
1
10
16.1659909688996
20
-14.1682499930402
30
0
41
1
10
16.195909259536
20
-14.13876082715
30
0
41
1
10
16.2536937774656
20
-14.0834222684611
30
0
41
1
10
16.2815627874617
20
-14.0575701238464
30
0
41
1
10
16.3339805562779
20
-14.0101445081266
30
0
41
1
10
16.3585358837917
20
-13.9885647906234
30
0
41
1
10
16.4026981445088
20
-13.9505180070132
30
0
41
1
10
16.4223220059692
20
-13.9340353353884
30
0
41
1
10
16.4383186059721
20
-13.9207719368861
30
0
0
SPLINE
5
126
100
AcDbEntity
8
1
62
256
6
ByLayer
370
18
48
1
60
0
100
AcDbSpline
70
4
71
3
72
10
73
6
40
0
40
0
40
0
40
0
40
0.5
40
0.5
40
1
40
1
40
1
40
1
41
1
10
17.129364721646
20
16.15
30
0
41
1
10
17.0047844682936
20
15.5447249892627
30
0
41
1
10
16.8843296091733
20
14.9394805828704
30
0
41
1
10
16.6533752660971
20
13.7285194466526
30
0
41
1
10
16.542879585608
20
13.12280364963
30
0
41
1
10
16.4383186059721
20
12.5165093023851
30
0
0
SPLINE
5
127
100
AcDbEntity
8
1
62
256
6
ByLayer
370
18
48
1
60
0
100
AcDbSpline
70
4
71
3
72
27
73
23
40
0
40
0
40
0
40
0
40
0.125000000000001
40
0.125000000000001
40
0.250000000000003
40
0.250000000000003
40
0.375000000000004
40
0.375000000000004
40
0.500000000000006
40
0.500000000000006
40
0.625000000000007
40
0.625000000000007
40
0.656250000000007
40
0.656250000000007
40
0.687500000000007
40
0.750000000000006
40
0.750000000000006
40
0.875000000000003
40
0.875000000000003
40
0.937500000000002
40
0.937500000000002
40
1
40
1
40
1
40
1
41
1
10
15.2792076144252
20
9.37174114820567
30
0
41
1
10
15.3137412646751
20
9.4963792441271
30
0
41
1
10
15.3519914505441
20
9.619604863462
30
0
41
1
10
15.4355488898989
20
9.864602607666
30
0
41
1
10
15.4808594369558
20
9.98637645756139
30
0
41
1
10
15.5775581833777
20
10.2301855656694
30
0
41
1
10
15.6289486434699
20
10.3522227983605
30
0
41
1
10
15.7361332927834
20
10.5985562309594
30
0
41
1
10
15.7919297266739
20
10.722853090091
30
0
41
1
10
15.9054955550085
20
10.9759395356204
30
0
41
1
10
15.9632700144521
20
11.1047255789715
30
0
41
1
10
16.0346691808459
20
11.2700782847896
30
0
41
1
10
16.0489168318847
20
11.3033949579671
30
0
41
1
10
16.077174595654
20
11.3702969583079
30
0
41
1
10
16.1192247546862
20
11.4710995450002
30
0
41
1
10
16.1599745330804
20
11.573375217827
30
0
41
1
10
16.2388940314007
20
11.7802452153948
30
0
41
1
10
16.2881214518317
20
11.9212218831079
30
0
41
1
10
16.3527988288237
20
12.1390199223173
30
0
41
1
10
16.3728206392269
20
12.2126795608629
30
0
41
1
10
16.4088701951302
20
12.3625399471325
30
0
41
1
10
16.4249058710279
20
12.4387358786267
30
0
41
1
10
16.4383186059721
20
12.5165093023851
30
0
0
SPLINE
5
128
100
AcDbEntity
8
1
62
256
6
ByLayer
370
18
48
1
60
0
100
AcDbSpline
70
4
71
3
72
27
73
23
40
0
40
0
40
0
40
0
40
0.0624999999999999
40
0.0624999999999999
40
0.125
40
0.125
40
0.250000000000001
40
0.250000000000001
40
0.281250000000001
40
0.281250000000001
40
0.312500000000001
40
0.375000000000001
40
0.375000000000001
40
0.500000000000001
40
0.500000000000001
40
0.625
40
0.625
40
0.75
40
0.75
40
0.875
40
0.875
40
1
40
1
40
1
40
1
41
1
10
16.4383186059721
20
-12.5165093023851
30
0
41
1
10
16.4249262659534
20
-12.4388541381161
30
0
41
1
10
16.4088940310531
20
-12.3626367271305
30
0
41
1
10
16.3727838562588
20
-12.2125289599695
30
0
41
1
10
16.3526985008554
20
-12.1386427064581
30
0
41
1
10
16.2877128345096
20
-11.9199251720716
30
0
41
1
10
16.2381196660062
20
-11.7780191743753
30
0
41
1
10
16.1717160755614
20
-11.6042051310512
30
0
41
1
10
16.1581980323088
20
-11.5695894106841
30
0
41
1
10
16.1308529992609
20
-11.500853934746
30
0
41
1
10
16.0894082629542
20
-11.3985838073516
30
0
41
1
10
16.0470067341171
20
-11.2985984966568
30
0
41
1
10
15.961683005877
20
-11.1011598805332
30
0
41
1
10
15.904133128855
20
-10.9729017216638
30
0
41
1
10
15.7909594192315
20
-10.7206923390475
30
0
41
1
10
15.7353311438692
20
-10.5967442724701
30
0
41
1
10
15.6284247432235
20
-10.3509868164803
30
0
41
1
10
15.5771448109702
20
-10.2291765798554
30
0
41
1
10
15.4806222621424
20
-9.98574497658242
30
0
41
1
10
15.4353776852007
20
-9.86412151309415
30
0
41
1
10
15.3519237821951
20
-9.61938550141778
30
0
41
1
10
15.3137113165052
20
-9.49627115584656
30
0
41
1
10
15.2792076144252
20
-9.37174114820567
30
0
0
SPLINE
5
129
100
AcDbEntity
8
1
62
256
6
ByLayer
370
18
48
1
60
0
100
AcDbSpline
70
4
71
3
72
8
73
4
40
0
40
0
40
0
40
0
40
1
40
1
40
1
40
1
41
1
10
16.4383186059721
20
-12.5165093023851
30
0
41
1
10
16.5092874003614
20
-12.9280201644566
30
0
41
1
10
16.5829903464563
20
-13.3392555199573
30
0
41
1
10
16.6591256168518
20
-13.7503265536194
30
0
0
SPLINE
5
12A
100
AcDbEntity
8
1
62
256
6
ByLayer
370
18
48
1
60
0
100
AcDbSpline
70
4
71
3
72
25
73
21
40
0
40
0
40
0
40
0
40
0.124999999999995
40
0.124999999999995
40
0.249999999999991
40
0.374999999999986
40
0.374999999999986
40
0.437499999999985
40
0.437499999999985
40
0.499999999999985
40
0.499999999999985
40
0.624999999999986
40
0.624999999999986
40
0.749999999999988
40
0.749999999999988
40
0.812499999999992
40
0.812499999999992
40
0.874999999999995
40
0.874999999999995
40
1
40
1
40
1
40
1
41
1
10
18.9914254457522
20
-13
30
0
41
1
10
18.8803558683609
20
-13
30
0
41
1
10
18.7705429862735
20
-13.0046163102598
30
0
41
1
10
18.5532940681737
20
-13.0225735977735
30
0
41
1
10
18.3384225865482
20
-13.0492577437252
30
0
41
1
10
18.1281462719215
20
-13.0927966410148
30
0
41
1
10
17.972137825143
20
-13.1316767196133
30
0
41
1
10
17.9202984278234
20
-13.1457155032335
30
0
41
1
10
17.8183183708361
20
-13.1755207071637
30
0
41
1
10
17.7680627383196
20
-13.19131043988
30
0
41
1
10
17.6193958340617
20
-13.241215001911
30
0
41
1
10
17.5230800180719
20
-13.277859724675
30
0
41
1
10
17.3356172236966
20
-13.3573820326641
30
0
41
1
10
17.2444714942759
20
-13.4002611516956
30
0
41
1
10
17.1114136288591
20
-13.4689877457753
30
0
41
1
10
17.0676596710196
20
-13.4926393441411
30
0
41
1
10
16.9813977071116
20
-13.5413525741709
30
0
41
1
10
16.9391573416253
20
-13.566262056406
30
0
41
1
10
16.8149593623343
20
-13.6425548502307
30
0
41
1
10
16.7355189306866
20
-13.6954988560904
30
0
41
1
10
16.6591256168518
20
-13.7503265536194
30
0
0
SPLINE
5
12B
100
AcDbEntity
8
1
62
256
6
ByLayer
370
18
48
1
60
0
100
AcDbSpline
70
4
71
3
72
14
73
10
40
0
40
0
40
0
40
0
40
0.25
40
0.25
40
0.5
40
0.5
40
0.75
40
0.75
40
1
40
1
40
1
40
1
41
1
10
15.2792076144252
20
9.37174114820567
30
0
41
1
10
15.2288713228965
20
9.19006850466837
30
0
41
1
10
15.1877755693608
20
9.00522755145204
30
0
41
1
10
15.1203452291585
20
8.62944184606252
30
0
41
1
10
15.0940253955619
20
8.43849623021063
30
0
41
1
10
15.0533282296036
20
8.05066291481234
30
0
41
1
10
15.0389592457916
20
7.85377474328186
30
0
41
1
10
15.0198663992482
20
7.45416893572983
30
0
41
1
10
15.0151476398308
20
7.25145103084847
30
0
41
1
10
15.0142676097515
20
7.04585540943492
30
0
0
SPLINE
5
12C
100
AcDbEntity
8
1
62
256
6
ByLayer
370
18
48
1
60
0
100
AcDbSpline
70
4
71
3
72
16
73
12
40
0
40
0
40
0
40
0
40
0.249423080430374
40
0.249423080430374
40
0.498846160860748
40
0.498846160860748
40
0.748269241291121
40
0.748269241291121
40
0.997692321721495
40
0.997692321721495
40
1
40
1
40
1
40
1
41
1
10
15.2792076144252
20
-15.5102219048535
30
0
41
1
10
15.2464771809127
20
-15.5917793524412
30
0
41
1
10
15.2209480890886
20
-15.6629712913491
30
0
41
1
10
15.1798709860919
20
-15.7850111663419
30
0
41
1
10
15.1643403762961
20
-15.8358591141257
30
0
41
1
10
15.1404826577962
20
-15.9173902942854
30
0
41
1
10
15.1321631932172
20
-15.9480737665842
30
0
41
1
10
15.1211764550497
20
-15.989244498231
30
0
41
1
10
15.1185112070444
20
-15.9997323492338
30
0
41
1
10
15.1184427768199
20
-15.9999973769252
30
0
41
1
10
15.1184424091075
20
-15.9999987876368
30
0
41
1
10
15.1184421502649
20
-15.9999997536532
30
0
0
SPLINE
5
12D
100
AcDbEntity
8
1
62
256
6
ByLayer
370
18
48
1
60
0
100
AcDbSpline
70
4
71
3
72
14
73
10
40
0
40
0
40
0
40
0
40
0.25
40
0.25
40
0.5
40
0.5
40
0.75
40
0.75
40
1
40
1
40
1
40
1
41
1
10
15.0142676097515
20
-7.04585540943492
30
0
41
1
10
15.0151476398308
20
-7.25145103084847
30
0
41
1
10
15.0198663992482
20
-7.45416893572983
30
0
41
1
10
15.0389592457916
20
-7.85377474328183
30
0
41
1
10
15.0533282296036
20
-8.05066291481234
30
0
41
1
10
15.0940253955619
20
-8.43849623021063
30
0
41
1
10
15.1203452291585
20
-8.62944184606252
30
0
41
1
10
15.1877755693608
20
-9.00522755145204
30
0
41
1
10
15.2288713228964
20
-9.19006850466837
30
0
41
1
10
15.2792076144252
20
-9.37174114820567
30
0
0
SPLINE
5
12E
100
AcDbEntity
8
1
62
256
6
ByLayer
370
18
48
1
60
0
100
AcDbSpline
70
4
71
3
72
24
73
20
40
0
40
0
40
0
40
0
40
0.0624999999999987
40
0.0624999999999987
40
0.124999999999997
40
0.124999999999997
40
0.249999999999997
40
0.249999999999997
40
0.374999999999996
40
0.374999999999996
40
0.437499999999997
40
0.437499999999997
40
0.499999999999998
40
0.499999999999998
40
0.624999999999997
40
0.624999999999997
40
0.749999999999995
40
0.749999999999995
40
1
40
1
40
1
40
1
41
1
10
7.07679491924327
20
15.2769622091385
30
0
41
1
10
7.08626323279279
20
15.2769622091385
30
0
41
1
10
7.09555909908858
20
15.2766767665958
30
0
41
1
10
7.11383636157848
20
15.2755844637371
30
0
41
1
10
7.12288968289403
20
15.2747681865974
30
0
41
1
10
7.14908346306851
20
15.2716451329302
30
0
41
1
10
7.16496872151981
20
15.268738812049
30
0
41
1
10
7.1945315827696
20
15.261747480553
30
0
41
1
10
7.20768429079325
20
15.2577843892056
30
0
41
1
10
7.2257383204562
20
15.2513732657938
30
0
41
1
10
7.2314739307844
20
15.2491554094552
30
0
41
1
10
7.24245955537376
20
15.24457767362
30
0
41
1
10
7.24772142874491
20
15.2422111791404
30
0
41
1
10
7.26269940300645
20
15.2350027269099
30
0
41
1
10
7.27167180250149
20
15.2300336355428
30
0
41
1
10
7.28809973591254
20
15.2198327834235
30
0
41
1
10
7.29554986762537
20
15.214600303678
30
0
41
1
10
7.31604838234088
20
15.198560277361
30
0
41
1
10
7.32728622413828
20
15.1873822623297
30
0
41
1
10
7.33660254037864
20
15.1759383782003
30
0
0
SPLINE
5
12F
100
AcDbEntity
8
1
62
256
6
ByLayer
370
18
48
1
60
0
100
AcDbSpline
70
4
71
3
72
26
73
22
40
0
40
0
40
0
40
0
40
0.25
40
0.25
40
0.375
40
0.375
40
0.5
40
0.5
40
0.625
40
0.625
40
0.6875
40
0.6875
40
0.75
40
0.75
40
0.8125
40
0.8125
40
0.875
40
0.875
40
0.9375
40
0.9375
40
1
40
1
40
1
40
1
41
1
10
7.33660254037858
20
5.0686185831118
30
0
41
1
10
7.32728982767759
20
5.03436773122377
30
0
41
1
10
7.31614231629348
20
5.00076260618602
30
0
41
1
10
7.29568810990139
20
4.95169735098642
30
0
41
1
10
7.28824166023676
20
4.93556834940273
30
0
41
1
10
7.27177247547104
20
4.90388358540412
30
0
41
1
10
7.26270511696598
20
4.88825374454379
30
0
41
1
10
7.24272264769479
20
4.8581790589264
30
0
41
1
10
7.23183787729363
20
4.84374619181003
30
0
41
1
10
7.2136568799915
20
4.82335822863098
30
0
41
1
10
7.2072802857497
20
4.81677720791066
30
0
41
1
10
7.19399447938267
20
4.80434108428398
30
0
41
1
10
7.18706371265947
20
4.79845918233451
30
0
41
1
10
7.17251656377681
20
4.78749730730044
30
0
41
1
10
7.16490128977483
20
4.78241603395364
30
0
41
1
10
7.148819916848
20
4.77324997167185
30
0
41
1
10
7.1403600578945
20
4.76918729638879
30
0
41
1
10
7.12304490820168
20
4.76256082995423
30
0
41
1
10
7.11412407245967
20
4.75995494840856
30
0
41
1
10
7.09567030488512
20
4.75638866313565
30
0
41
1
10
7.08624924967634
20
4.75546271781752
30
0
41
1
10
7.07679491924327
20
4.75546271781752
30
0
0
SPLINE
5
130
100
AcDbEntity
8
1
62
256
6
ByLayer
370
18
48
1
60
0
100
AcDbSpline
70
4
71
3
72
24
73
20
40
0
40
0
40
0
40
0
40
0.0624999999999981
40
0.0624999999999981
40
0.124999999999996
40
0.124999999999996
40
0.250000000000001
40
0.250000000000001
40
0.375000000000006
40
0.375000000000006
40
0.437500000000009
40
0.437500000000009
40
0.500000000000012
40
0.500000000000012
40
0.62500000000001
40
0.62500000000001
40
0.750000000000009
40
0.750000000000009
40
1
40
1
40
1
40
1
41
1
10
4.92320508075687
20
4.75546271781758
30
0
41
1
10
4.91373676720735
20
4.75546271781758
30
0
41
1
10
4.90444090091157
20
4.75637996187979
30
0
41
1
10
4.88616363842164
20
4.75988683311402
30
0
41
1
10
4.87711031710609
20
4.76250659424693
30
0
41
1
10
4.85091653693161
20
4.77251545749058
30
0
41
1
10
4.8350312784803
20
4.78181464126988
30
0
41
1
10
4.80546841723051
20
4.8040815994184
30
0
41
1
10
4.79231570920686
20
4.81666025178743
30
0
41
1
10
4.77426167954391
20
4.83690641005074
30
0
41
1
10
4.76852606921571
20
4.84389474378378
30
0
41
1
10
4.75754044462639
20
4.8582824684799
30
0
41
1
10
4.7522785712552
20
4.86570247833646
30
0
41
1
10
4.73730059699366
20
4.88824517182357
30
0
41
1
10
4.72832819749866
20
4.90370784583433
30
0
41
1
10
4.71190026408757
20
4.93527762356774
30
0
41
1
10
4.70445013237475
20
4.95138709271157
30
0
41
1
10
4.68395161765923
20
5.00049514204593
30
0
41
1
10
4.67271377586187
20
5.03435447791105
30
0
41
1
10
4.66339745962148
20
5.06861858311171
30
0
0
SPLINE
5
131
100
AcDbEntity
8
1
62
256
6
ByLayer
370
18
48
1
60
0
100
AcDbSpline
70
4
71
3
72
26
73
22
40
0
40
0
40
0
40
0
40
0.249999999999998
40
0.249999999999998
40
0.374999999999998
40
0.374999999999998
40
0.499999999999998
40
0.499999999999998
40
0.624999999999998
40
0.624999999999998
40
0.687499999999999
40
0.687499999999999
40
0.749999999999999
40
0.749999999999999
40
0.812499999999999
40
0.812499999999999
40
0.874999999999999
40
0.874999999999999
40
0.9375
40
0.9375
40
1
40
1
40
1
40
1
41
1
10
4.66339745962154
20
15.1759383782004
30
0
41
1
10
4.67271017232255
20
15.1873778358497
30
0
41
1
10
4.68385768370663
20
15.198472208594
30
0
41
1
10
4.70431189009872
20
15.214499313942
30
0
41
1
10
4.71175833976335
20
15.2197385738514
30
0
41
1
10
4.7282275245291
20
15.22997711649
30
0
41
1
10
4.73729488303417
20
15.2349999859553
30
0
41
1
10
4.75727735230532
20
15.2446169343317
30
0
41
1
10
4.76816212270651
20
15.249207392375
30
0
41
1
10
4.78634312000864
20
15.2556634144466
30
0
41
1
10
4.79271971425041
20
15.2577422915747
30
0
41
1
10
4.80600552061748
20
15.261662728963
30
0
41
1
10
4.81293628734068
20
15.263512783028
30
0
41
1
10
4.82748343622333
20
15.2669545926744
30
0
41
1
10
4.83509871022531
20
15.2685467526768
30
0
41
1
10
4.85118008315214
20
15.271414727144
30
0
41
1
10
4.85963994210564
20
15.2726836076142
30
0
41
1
10
4.87695509179844
20
15.2747512708819
30
0
41
1
10
4.88587592754044
20
15.2755632425517
30
0
41
1
10
4.90432969511502
20
15.276674061237
30
0
41
1
10
4.9137507503238
20
15.2769622091386
30
0
41
1
10
4.92320508075684
20
15.2769622091386
30
0
0
SPLINE
5
132
100
AcDbEntity
8
1
62
256
6
ByLayer
370
18
48
1
60
0
100
AcDbSpline
70
4
71
3
72
24
73
20
40
0
40
0
40
0
40
0
40
0.062499999999999
40
0.062499999999999
40
0.124999999999998
40
0.124999999999998
40
0.25
40
0.25
40
0.375000000000002
40
0.375000000000002
40
0.437500000000002
40
0.437500000000002
40
0.500000000000001
40
0.500000000000001
40
0.625000000000002
40
0.625000000000002
40
0.750000000000003
40
0.750000000000003
40
1
40
1
40
1
40
1
41
1
10
4.92320508075687
20
-15.2769622091385
30
0
41
1
10
4.91373676720735
20
-15.2769622091385
30
0
41
1
10
4.90444090091157
20
-15.2766767665958
30
0
41
1
10
4.88616363842164
20
-15.2755844637371
30
0
41
1
10
4.87711031710609
20
-15.2747681865974
30
0
41
1
10
4.85091653693161
20
-15.2716451329302
30
0
41
1
10
4.8350312784803
20
-15.268738812049
30
0
41
1
10
4.80546841723051
20
-15.261747480553
30
0
41
1
10
4.79231570920686
20
-15.2577843892056
30
0
41
1
10
4.77426167954391
20
-15.2513732657938
30
0
41
1
10
4.76852606921571
20
-15.2491554094552
30
0
41
1
10
4.75754044462636
20
-15.24457767362
30
0
41
1
10
4.7522785712552
20
-15.2422111791405
30
0
41
1
10
4.73730059699366
20
-15.2350027269099
30
0
41
1
10
4.72832819749863
20
-15.2300336355428
30
0
41
1
10
4.71190026408757
20
-15.2198327834236
30
0
41
1
10
4.70445013237475
20
-15.214600303678
30
0
41
1
10
4.68395161765923
20
-15.198560277361
30
0
41
1
10
4.67271377586187
20
-15.1873822623297
30
0
41
1
10
4.66339745962148
20
-15.1759383782004
30
0
0
SPLINE
5
133
100
AcDbEntity
8
1
62
256
6
ByLayer
370
18
48
1
60
0
100
AcDbSpline
70
4
71
3
72
26
73
22
40
0
40
0
40
0
40
0
40
0.250000000000003
40
0.250000000000003
40
0.375000000000005
40
0.375000000000005
40
0.500000000000006
40
0.500000000000006
40
0.625000000000008
40
0.625000000000008
40
0.687500000000007
40
0.687500000000007
40
0.750000000000005
40
0.750000000000005
40
0.812500000000004
40
0.812500000000004
40
0.875000000000003
40
0.875000000000003
40
0.937500000000001
40
0.937500000000001
40
1
40
1
40
1
40
1
41
1
10
4.66339745962154
20
-5.06861858311171
30
0
41
1
10
4.67271017232255
20
-5.03436773122371
30
0
41
1
10
4.68385768370663
20
-5.00076260618599
30
0
41
1
10
4.70431189009872
20
-4.95169735098636
30
0
41
1
10
4.71175833976335
20
-4.93556834940267
30
0
41
1
10
4.7282275245291
20
-4.90388358540409
30
0
41
1
10
4.73729488303417
20
-4.88825374454376
30
0
41
1
10
4.75727735230535
20
-4.85817905892637
30
0
41
1
10
4.76816212270651
20
-4.84374619181
30
0
41
1
10
4.78634312000864
20
-4.82335822863095
30
0
41
1
10
4.79271971425041
20
-4.8167772079106
30
0
41
1
10
4.80600552061748
20
-4.80434108428395
30
0
41
1
10
4.81293628734068
20
-4.79845918233445
30
0
41
1
10
4.82748343622333
20
-4.78749730730041
30
0
41
1
10
4.83509871022531
20
-4.78241603395361
30
0
41
1
10
4.85118008315214
20
-4.77324997167182
30
0
41
1
10
4.85963994210564
20
-4.76918729638874
30
0
41
1
10
4.87695509179844
20
-4.76256082995417
30
0
41
1
10
4.88587592754044
20
-4.75995494840851
30
0
41
1
10
4.90432969511502
20
-4.75638866313562
30
0
41
1
10
4.9137507503238
20
-4.75546271781747
30
0
41
1
10
4.92320508075687
20
-4.75546271781747
30
0
0
SPLINE
5
134
100
AcDbEntity
8
1
62
256
6
ByLayer
370
18
48
1
60
0
100
AcDbSpline
70
4
71
3
72
24
73
20
40
0
40
0
40
0
40
0
40
0.0624999999999998
40
0.0624999999999998
40
0.125
40
0.125
40
0.250000000000001
40
0.250000000000001
40
0.375000000000001
40
0.375000000000001
40
0.4375
40
0.4375
40
0.499999999999999
40
0.499999999999999
40
0.625
40
0.625
40
0.750000000000002
40
0.750000000000002
40
1
40
1
40
1
40
1
41
1
10
7.07679491924327
20
-4.75546271781761
30
0
41
1
10
7.08626323279279
20
-4.75546271781761
30
0
41
1
10
7.09555909908858
20
-4.75637996187982
30
0
41
1
10
7.11383636157851
20
-4.75988683311402
30
0
41
1
10
7.12288968289405
20
-4.76250659424696
30
0
41
1
10
7.14908346306854
20
-4.77251545749061
30
0
41
1
10
7.16496872151984
20
-4.7818146412699
30
0
41
1
10
7.19453158276963
20
-4.80408159941845
30
0
41
1
10
7.20768429079328
20
-4.81666025178745
30
0
41
1
10
7.22573832045623
20
-4.83690641005077
30
0
41
1
10
7.23147393078443
20
-4.84389474378384
30
0
41
1
10
7.24245955537378
20
-4.85828246847996
30
0
41
1
10
7.24772142874494
20
-4.86570247833652
30
0
41
1
10
7.26269940300648
20
-4.88824517182363
30
0
41
1
10
7.27167180250151
20
-4.90370784583439
30
0
41
1
10
7.2880997359126
20
-4.93527762356783
30
0
41
1
10
7.2955498676254
20
-4.95138709271166
30
0
41
1
10
7.31604838234091
20
-5.00049514204602
30
0
41
1
10
7.32728622413839
20
-5.03435447791148
30
0
41
1
10
7.33660254037875
20
-5.06861858311214
30
0
0
SPLINE
5
135
100
AcDbEntity
8
1
62
256
6
ByLayer
370
18
48
1
60
0
100
AcDbSpline
70
4
71
3
72
26
73
22
40
0
40
0
40
0
40
0
40
0.249999999999998
40
0.249999999999998
40
0.374999999999999
40
0.374999999999999
40
0.500000000000001
40
0.500000000000001
40
0.625000000000002
40
0.625000000000002
40
0.687500000000002
40
0.687500000000002
40
0.750000000000001
40
0.750000000000001
40
0.812500000000001
40
0.812500000000001
40
0.875000000000001
40
0.875000000000001
40
0.9375
40
0.9375
40
1
40
1
40
1
40
1
41
1
10
7.33660254037869
20
-15.1759383782002
30
0
41
1
10
7.3272898276777
20
-15.1873778358496
30
0
41
1
10
7.31614231629351
20
-15.198472208594
30
0
41
1
10
7.29568810990142
20
-15.214499313942
30
0
41
1
10
7.28824166023679
20
-15.2197385738514
30
0
41
1
10
7.27177247547107
20
-15.22997711649
30
0
41
1
10
7.262705116966
20
-15.2349999859553
30
0
41
1
10
7.24272264769482
20
-15.2446169343317
30
0
41
1
10
7.23183787729366
20
-15.249207392375
30
0
41
1
10
7.21365687999153
20
-15.2556634144465
30
0
41
1
10
7.20728028574973
20
-15.2577422915747
30
0
41
1
10
7.1939944793827
20
-15.2616627289629
30
0
41
1
10
7.18706371265949
20
-15.263512783028
30
0
41
1
10
7.17251656377684
20
-15.2669545926744
30
0
41
1
10
7.16490128977483
20
-15.2685467526768
30
0
41
1
10
7.148819916848
20
-15.271414727144
30
0
41
1
10
7.1403600578945
20
-15.2726836076142
30
0
41
1
10
7.12304490820171
20
-15.2747512708819
30
0
41
1
10
7.1141240724597
20
-15.2755632425517
30
0
41
1
10
7.09567030488512
20
-15.276674061237
30
0
41
1
10
7.08624924967634
20
-15.2769622091386
30
0
41
1
10
7.07679491924327
20
-15.2769622091386
30
0
0
SPLINE
5
136
100
AcDbEntity
8
SK1
62
256
6
ByLayer
370
18
48
1
60
0
100
AcDbSpline
70
4
71
3
72
8
73
4
40
0
40
0
40
0
40
0
40
1
40
1
40
1
40
1
41
1
10
-0.394913799811292
20
10.7863826978029
30
0
41
1
10
-0.394913799811292
20
10.7772102101423
30
0
41
1
10
-0.394913799811292
20
10.767131757724
30
0
41
1
10
-0.394913799811292
20
10.7561716978029
30
0
0
SPLINE
5
137
100
AcDbEntity
8
SK1
62
256
6
ByLayer
370
13
48
1
60
0
100
AcDbSpline
70
4
71
3
72
17
73
13
40
0
40
0
40
0
40
0
40
0.0281908532957508
40
0.114664343597771
40
0.201137833899791
40
0.374084814503832
40
0.547031795107872
40
0.633505285409892
40
0.719978775711912
40
0.892925756315953
40
0.979399246617973
40
1
40
1
40
1
40
1
41
1
10
-0.394913799811292
20
10.7561711443302
30
0
41
1
10
-0.394913799811292
20
10.7416120995674
30
0
41
1
10
-0.394913799811292
20
10.6760666838247
30
0
41
1
10
-0.394913799811292
20
10.5176015241825
30
0
41
1
10
-0.394913799811292
20
10.1419122155822
30
0
41
1
10
-0.394913799811292
20
9.49397590704038
30
0
41
1
10
-0.394913799811292
20
8.63424142104822
30
0
41
1
10
-0.394913799811292
20
7.82801077124961
30
0
41
1
10
-0.394913799811292
20
6.94587050581816
30
0
41
1
10
-0.394913799811292
20
5.95443994194233
30
0
41
1
10
-0.394913799811292
20
5.06372374199364
30
0
41
1
10
-0.394913799811292
20
4.70990996410777
30
0
41
1
10
-0.394913799811292
20
4.64134914436013
30
0
0
SPLINE
5
138
100
AcDbEntity
8
SK1
62
256
6
ByLayer
370
13
48
1
60
0
100
AcDbSpline
70
4
71
3
72
17
73
13
40
0
40
0
40
0
40
0
40
0.0206008114847104
40
0.107074291438709
40
0.280021251346707
40
0.366494731300706
40
0.452968211254705
40
0.625915171162702
40
0.7988621310707
40
0.885335611024699
40
0.971809090978698
40
1
40
1
40
1
40
1
41
1
10
-0.394913799811292
20
-4.64134848730563
30
0
41
1
10
-0.394913799811292
20
-4.70990950240184
30
0
41
1
10
-0.394913799811292
20
-5.06372344169986
30
0
41
1
10
-0.394913799811292
20
-5.95443982150175
30
0
41
1
10
-0.394913799811292
20
-6.94587050303235
30
0
41
1
10
-0.394913799811292
20
-7.82801067908787
30
0
41
1
10
-0.394913799811292
20
-8.63424165383259
30
0
41
1
10
-0.394913799811292
20
-9.49397564760932
30
0
41
1
10
-0.394913799811292
20
-10.1419126962119
30
0
41
1
10
-0.394913799811292
20
-10.5176014399701
30
0
41
1
10
-0.39491379981132
20
-10.6760668753147
30
0
41
1
10
-0.394913799811292
20
-10.7416124016444
30
0
41
1
10
-0.394913799811263
20
-10.756171487302
30
0
0
SPLINE
5
139
100
AcDbEntity
8
SK1
62
256
6
ByLayer
370
18
48
1
60
0
100
AcDbSpline
70
4
71
3
72
8
73
4
40
0
40
0
40
0
40
0
40
1
40
1
40
1
40
1
41
1
10
-0.394913799811263
20
-10.7561718177489
30
0
41
1
10
-0.394913799811263
20
-10.76713187762
30
0
41
1
10
-0.394913799811263
20
-10.7772103303675
30
0
41
1
10
-0.394913799811292
20
-10.7863828177394
30
0
0
SPLINE
5
13A
100
AcDbEntity
8
SK1
62
256
6
ByLayer
370
18
48
1
60
0
100
AcDbSpline
70
4
71
3
72
36
73
32
40
0
40
0
40
0
40
0
40
0.250000000000009
40
0.250000000000009
40
0.375000000000013
40
0.375000000000013
40
0.500000000000016
40
0.500000000000016
40
0.625000000000019
40
0.625000000000019
40
0.687500000000018
40
0.687500000000018
40
0.750000000000018
40
0.750000000000018
40
0.812500000000017
40
0.812500000000017
40
0.843750000000014
40
0.843750000000014
40
0.875000000000011
40
0.875000000000011
40
0.906250000000009
40
0.906250000000009
40
0.921875000000008
40
0.921875000000008
40
0.937500000000006
40
0.937500000000006
40
0.953125000000005
40
0.953125000000005
40
0.968750000000004
40
0.968750000000004
40
1
40
1
40
1
40
1
41
1
10
-0.199999999999989
20
-5.33617165766907
30
0
41
1
10
-0.200315036908961
20
-5.27289521367564
30
0
41
1
10
-0.201789875664218
20
-5.20909745628526
30
0
41
1
10
-0.206624587173906
20
-5.11250115776278
30
0
41
1
10
-0.208678726715391
20
-5.08015186615313
30
0
41
1
10
-0.21396377316492
20
-5.01511877685402
30
0
41
1
10
-0.21719280977581
20
-4.98240206952661
30
0
41
1
10
-0.225317789620732
20
-4.91677347333891
30
0
41
1
10
-0.230191721451263
20
-4.88386769345621
30
0
41
1
10
-0.239523041011836
20
-4.83438451823684
30
0
41
1
10
-0.242981263754075
20
-4.81784570689231
30
0
41
1
10
-0.250820187075703
20
-4.78490372523328
30
0
41
1
10
-0.255194249132046
20
-4.76849148766289
30
0
41
1
10
-0.265341062182387
20
-4.73587605207916
30
0
41
1
10
-0.271083459937017
20
-4.71966709939039
30
0
41
1
10
-0.281609047729489
20
-4.69567298808659
30
0
41
1
10
-0.285461791842181
20
-4.6876968242268
30
0
41
1
10
-0.294043491658414
20
-4.6721963164303
30
0
41
1
10
-0.298764108881414
20
-4.66464732333566
30
0
41
1
10
-0.309721117058871
20
-4.65026872536157
30
0
41
1
10
-0.315847861838733
20
-4.64354733439694
30
0
41
1
10
-0.326745887820323
20
-4.63511696599338
30
0
41
1
10
-0.330584548634334
20
-4.63265939381191
30
0
41
1
10
-0.338813417399337
20
-4.62868790402121
30
0
41
1
10
-0.34317305623847
20
-4.6272155817847
30
0
41
1
10
-0.351980615732828
20
-4.62559605054793
30
0
41
1
10
-0.356492604281158
20
-4.62544479071906
30
0
41
1
10
-0.365142247836957
20
-4.62634244958329
30
0
41
1
10
-0.369383299461418
20
-4.62738999635829
30
0
41
1
10
-0.381287419818449
20
-4.63171844250411
30
0
41
1
10
-0.388425258622902
20
-4.63618835793983
30
0
41
1
10
-0.394913799811292
20
-4.64134848730546
30
0
0
SPLINE
5
13B
100
AcDbEntity
8
SK1
62
256
6
ByLayer
370
18
48
1
60
0
100
AcDbSpline
70
4
71
3
72
38
73
34
40
0
40
0
40
0
40
0
40
0.0156250000000001
40
0.0156250000000001
40
0.0312500000000001
40
0.0312500000000001
40
0.0468750000000002
40
0.0468750000000002
40
0.0625000000000003
40
0.0625000000000003
40
0.0781250000000003
40
0.0781250000000003
40
0.0937500000000004
40
0.0937500000000004
40
0.125
40
0.125
40
0.15625
40
0.15625
40
0.1875
40
0.1875
40
0.25
40
0.25
40
0.3125
40
0.3125
40
0.375
40
0.375
40
0.5
40
0.5
40
0.625
40
0.625
40
0.75
40
0.75
40
1
40
1
40
1
40
1
41
1
10
-0.394913799811292
20
-10.7863828177394
30
0
41
1
10
-0.3916537605202
20
-10.7868073974503
30
0
41
1
10
-0.388248787569921
20
-10.7872931954185
30
0
41
1
10
-0.381044741115744
20
-10.7884335693737
30
0
41
1
10
-0.377204200362598
20
-10.7890960220832
30
0
41
1
10
-0.369217304814953
20
-10.7906171798377
30
0
41
1
10
-0.365072240206047
20
-10.7914740808883
30
0
41
1
10
-0.356374930614635
20
-10.7934464855686
30
0
41
1
10
-0.351831659317668
20
-10.7945648569913
30
0
41
1
10
-0.342969526903488
20
-10.7969321132109
30
0
41
1
10
-0.338551791726502
20
-10.7982071558628
30
0
41
1
10
-0.330303438066068
20
-10.8007493496092
30
0
41
1
10
-0.326369654867136
20
-10.8020461167561
30
0
41
1
10
-0.315536517292372
20
-10.8058045642772
30
0
41
1
10
-0.30932633272792
20
-10.8082174869319
30
0
41
1
10
-0.29844620070773
20
-10.8127210422056
30
0
41
1
10
-0.293734896847099
20
-10.8148292922467
30
0
41
1
10
-0.285156710198265
20
-10.8188587541708
30
0
41
1
10
-0.281308084304015
20
-10.8207758502489
30
0
41
1
10
-0.270808032640446
20
-10.8262193711045
30
0
41
1
10
-0.265079336283264
20
-10.8294898497133
30
0
41
1
10
-0.254957395207782
20
-10.8355789099845
30
0
41
1
10
-0.250594351467868
20
-10.8383909645595
30
0
41
1
10
-0.242775853961433
20
-10.8436594160096
30
0
41
1
10
-0.239322535162302
20
-10.8461181112255
30
0
41
1
10
-0.230013012871865
20
-10.8530063957256
30
0
41
1
10
-0.225170221794059
20
-10.856962537247
30
0
41
1
10
-0.217103926423249
20
-10.8639154388083
30
0
41
1
10
-0.213901863970477
20
-10.8669066874342
30
0
41
1
10
-0.208648832379311
20
-10.8720738307053
30
0
41
1
10
-0.206604004109437
20
-10.8742481192771
30
0
41
1
10
-0.201788333226148
20
-10.8796826575044
30
0
41
1
10
-0.200314798330851
20
-10.8818612008295
30
0
41
1
10
-0.199999999999989
20
-10.8828072437538
30
0
0
SPLINE
5
13C
100
AcDbEntity
8
SK1
62
256
6
ByLayer
370
18
48
1
60
0
100
AcDbSpline
70
4
71
3
72
30
73
26
40
0
40
0
40
0
40
0
40
0.146364699138411
40
0.146364699138411
40
0.288637249282013
40
0.288637249282013
40
0.430909799425615
40
0.430909799425615
40
0.573182349569217
40
0.573182349569217
40
0.644318624641017
40
0.644318624641017
40
0.715454899712817
40
0.715454899712817
40
0.786591174784616
40
0.786591174784616
40
0.822159312320514
40
0.822159312320514
40
0.857727449856412
40
0.857727449856412
40
0.893295587392309
40
0.893295587392309
40
0.928863724928207
40
0.928863724928207
40
1
40
1
40
1
40
1
41
1
10
-0.227816434487863
20
10.8548826471146
30
0
41
1
10
-0.230376916586664
20
10.8528278745434
30
0
41
1
10
-0.233220851458384
20
10.8506285009901
30
0
41
1
10
-0.239531834141502
20
10.8459675871965
30
0
41
1
10
-0.242990287729214
20
10.8435098262164
30
0
41
1
10
-0.250829509162742
20
10.8382377057441
30
0
41
1
10
-0.255203622748127
20
10.8354242429045
30
0
41
1
10
-0.265350305450426
20
10.8293335169385
30
0
41
1
10
-0.271092516939376
20
10.8260627858261
30
0
41
1
10
-0.281617658957231
20
10.8206200367945
30
0
41
1
10
-0.285470142006773
20
10.8187061746377
30
0
41
1
10
-0.294050968040153
20
10.8146863407048
30
0
41
1
10
-0.298771103309974
20
10.8125793071682
30
0
41
1
10
-0.309727185477641
20
10.8080590642197
30
0
41
1
10
-0.315854674148483
20
10.8056853782479
30
0
41
1
10
-0.326751827399363
20
10.8019180767803
30
0
41
1
10
-0.330590319508559
20
10.8006572352284
30
0
41
1
10
-0.3388193569767
20
10.7981283892307
30
0
41
1
10
-0.343178718210851
20
10.7968736830311
30
0
41
1
10
-0.351986317586722
20
10.7945259507966
30
0
41
1
10
-0.356497925187341
20
10.7934172166753
30
0
41
1
10
-0.365146941171417
20
10.7914582979728
30
0
41
1
10
-0.369387457526784
20
10.7905830468156
30
0
41
1
10
-0.381289694858736
20
10.7883210861532
30
0
41
1
10
-0.388426507712154
20
10.787227586153
30
0
41
1
10
-0.394913799811292
20
10.7863826978029
30
0
0
SPLINE
5
13D
100
AcDbEntity
8
SK1
62
256
6
ByLayer
370
18
48
1
60
0
100
AcDbSpline
70
4
71
3
72
38
73
34
40
0
40
0
40
0
40
0
40
0.0156249999999998
40
0.0156249999999998
40
0.0312499999999995
40
0.0312499999999995
40
0.0468749999999993
40
0.0468749999999993
40
0.0624999999999991
40
0.0624999999999991
40
0.0781249999999988
40
0.0781249999999988
40
0.0937499999999986
40
0.0937499999999986
40
0.124999999999998
40
0.124999999999998
40
0.156249999999998
40
0.156249999999998
40
0.187499999999998
40
0.187499999999998
40
0.249999999999998
40
0.249999999999998
40
0.312499999999998
40
0.312499999999998
40
0.374999999999999
40
0.374999999999999
40
0.5
40
0.5
40
0.625
40
0.625
40
0.750000000000001
40
0.750000000000001
40
1
40
1
40
1
40
1
41
1
10
-0.394913799811292
20
4.64134914436011
30
0
41
1
10
-0.391653189194216
20
4.63875608233846
30
0
41
1
10
-0.3882476444644
20
4.63635905357208
30
0
41
1
10
-0.381042481174973
20
4.6320995470027
30
0
41
1
10
-0.377201381196471
20
4.63022186752829
30
0
41
1
10
-0.369213525336733
20
4.62734082823926
30
0
41
1
10
-0.365068062021663
20
4.62632645462108
30
0
41
1
10
-0.356370248565042
20
4.62544187206512
30
0
41
1
10
-0.351826851563402
20
4.62560736428983
30
0
41
1
10
-0.34296474122587
20
4.62727285800153
30
0
41
1
10
-0.338547041295897
20
4.6287905488239
30
0
41
1
10
-0.330298737873164
20
4.6328263706809
30
0
41
1
10
-0.326364934955137
20
4.63537991970733
30
0
41
1
10
-0.315531464191878
20
4.64386259141477
30
0
41
1
10
-0.309321048903229
20
4.65073469454796
30
0
41
1
10
-0.298440053614058
20
4.6651370301698
30
0
41
1
10
-0.293728422559809
20
4.67271763549797
30
0
41
1
10
-0.285149710641122
20
4.68831331247333
30
0
41
1
10
-0.281300680936283
20
4.69633189696827
30
0
41
1
10
-0.270799710556361
20
4.72041012361524
30
0
41
1
10
-0.265070718767532
20
4.73666607870942
30
0
41
1
10
-0.254948515158304
20
4.76936595895617
30
0
41
1
10
-0.250585513465324
20
4.78581541608034
30
0
41
1
10
-0.24276732672277
20
4.81882524209507
30
0
41
1
10
-0.239314267493143
20
4.83541616500196
30
0
41
1
10
-0.230005515013176
20
4.88501617585194
30
0
41
1
10
-0.225163636448798
20
4.91788495786889
30
0
41
1
10
-0.217099280693446
20
4.98329719794708
30
0
41
1
10
-0.213898213829594
20
5.01583953785894
30
0
41
1
10
-0.208646822672336
20
5.08063396121401
30
0
41
1
10
-0.206602645472998
20
5.1128857104508
30
0
41
1
10
-0.201788314269919
20
5.20924017881703
30
0
41
1
10
-0.200314800742888
20
5.27294373858308
30
0
41
1
10
-0.199999999999989
20
5.33617277211951
30
0
0
SPLINE
5
13E
100
AcDbEntity
8
SK1
62
256
6
ByLayer
370
18
48
1
60
0
100
AcDbSpline
70
4
71
3
72
51
73
47
40
0
40
0
40
0
40
0
40
0.124999999999999
40
0.124999999999999
40
0.249999999999997
40
0.249999999999997
40
0.374999999999996
40
0.374999999999996
40
0.437499999999995
40
0.437499999999995
40
0.499999999999994
40
0.499999999999994
40
0.562499999999993
40
0.562499999999993
40
0.624999999999992
40
0.624999999999992
40
0.687499999999991
40
0.687499999999991
40
0.74999999999999
40
0.74999999999999
40
0.76562499999999
40
0.76562499999999
40
0.781249999999991
40
0.781249999999991
40
0.812499999999993
40
0.812499999999993
40
0.843749999999994
40
0.843749999999994
40
0.859374999999995
40
0.859374999999995
40
0.874999999999996
40
0.874999999999996
40
0.890624999999997
40
0.898437499999997
40
0.898437499999997
40
0.906249999999997
40
0.906249999999997
40
0.921874999999998
40
0.921874999999998
40
0.937499999999999
40
0.937499999999999
40
0.96875
40
0.96875
40
0.984375
40
0.984375
40
1
40
1
40
1
40
1
41
1
10
-1.30710678118655
20
3.31451661882926
30
0
41
1
10
-1.29142986997667
20
3.3897630763625
30
0
41
1
10
-1.2747067856634
20
3.46427410813732
30
0
41
1
10
-1.23877915534885
20
3.61180951708161
30
0
41
1
10
-1.21957882703771
20
3.68483461732913
30
0
41
1
10
-1.17811208044554
20
3.82934535289559
30
0
41
1
10
-1.15585567945416
20
3.90083274551358
30
0
41
1
10
-1.11943756194688
20
4.00681611681387
30
0
41
1
10
-1.10678144688853
20
4.04195283320607
30
0
41
1
10
-1.08030614075895
20
4.11162708010295
30
0
41
1
10
-1.06648472871339
20
4.14617704758263
30
0
41
1
10
-1.03740732877088
20
4.21463704338331
30
0
41
1
10
-1.02215411448117
20
4.24854782318411
30
0
41
1
10
-0.989810534632511
20
4.31562720626889
30
0
41
1
10
-0.972703118936408
20
4.3488316390202
30
0
41
1
10
-0.936235844758926
20
4.41390614485465
30
0
41
1
10
-0.916870779376723
20
4.44582238792879
30
0
41
1
10
-0.874845150953718
20
4.50797334116768
30
0
41
1
10
-0.852227053599194
20
4.53822671358751
30
0
41
1
10
-0.820553631186357
20
4.57441330787634
30
0
41
1
10
-0.814043724021872
20
4.58156684750043
30
0
41
1
10
-0.800609998002358
20
4.59567874151736
30
0
41
1
10
-0.793669891873009
20
4.60265230200582
30
0
41
1
10
-0.772270499685675
20
4.62306727311523
30
0
41
1
10
-0.757231647480637
20
4.63603379142552
30
0
41
1
10
-0.724940396994384
20
4.66015250963079
30
0
41
1
10
-0.707546163600369
20
4.67137767327185
30
0
41
1
10
-0.679832616693687
20
4.68564152883172
30
0
41
1
10
-0.670305694635118
20
4.68998135172839
30
0
41
1
10
-0.650546741946187
20
4.69765260580627
30
0
41
1
10
-0.640222164998676
20
4.70100461325833
30
0
41
1
10
-0.619253175912235
20
4.70631884291771
30
0
41
1
10
-0.603294335310665
20
4.70928016936773
30
0
41
1
10
-0.586953973627345
20
4.71055934574198
30
0
41
1
10
-0.575971256180566
20
4.71101914305441
30
0
41
1
10
-0.570446527115422
20
4.71104969942959
30
0
41
1
10
-0.554075802154358
20
4.71055195258873
30
0
41
1
10
-0.543321725827383
20
4.70944141268532
30
0
41
1
10
-0.522108041141621
20
4.70578341121956
30
0
41
1
10
-0.511566178687644
20
4.70320510552418
30
0
41
1
10
-0.48118048269788
20
4.69375600670261
30
0
41
1
10
-0.462414422633373
20
4.68523355319658
30
0
41
1
10
-0.435788278906472
20
4.67016153959389
30
0
41
1
10
-0.427196329503317
20
4.66475992808148
30
0
41
1
10
-0.41064685578408
20
4.65344243596107
30
0
41
1
10
-0.402660711616647
20
4.64751002192168
30
0
41
1
10
-0.394913799811292
20
4.64134914436013
30
0
0
SPLINE
5
13F
100
AcDbEntity
8
SK1
62
256
6
ByLayer
370
18
48
1
60
0
100
AcDbSpline
70
4
71
3
72
49
73
45
40
0
40
0
40
0
40
0
40
0.0312499999999989
40
0.0312499999999989
40
0.0468749999999988
40
0.0468749999999988
40
0.0624999999999987
40
0.0624999999999987
40
0.0781249999999985
40
0.0781249999999985
40
0.0859374999999984
40
0.0859374999999984
40
0.0937499999999982
40
0.109374999999998
40
0.109374999999998
40
0.124999999999998
40
0.124999999999998
40
0.140624999999997
40
0.140624999999997
40
0.156249999999997
40
0.156249999999997
40
0.187499999999996
40
0.187499999999996
40
0.203124999999996
40
0.203124999999996
40
0.218749999999996
40
0.218749999999996
40
0.249999999999997
40
0.249999999999997
40
0.312499999999998
40
0.312499999999998
40
0.374999999999999
40
0.374999999999999
40
0.4375
40
0.4375
40
0.500000000000001
40
0.500000000000001
40
0.625
40
0.625
40
0.75
40
0.75
40
0.875
40
0.875
40
1
40
1
40
1
40
1
41
1
10
-0.394913799811292
20
-4.64134848730561
30
0
41
1
10
-0.410472906339265
20
-4.65372214729592
30
0
41
1
10
-0.426942829143144
20
-4.66516143545468
30
0
41
1
10
-0.453665922887126
20
-4.68027682446794
30
0
41
1
10
-0.462966990665905
20
-4.68499077617696
30
0
41
1
10
-0.482040652820245
20
-4.69338840362659
30
0
41
1
10
-0.49183103531746
20
-4.69708841757182
30
0
41
1
10
-0.512007846856022
20
-4.70331959628982
30
0
41
1
10
-0.522393850510127
20
-4.70585160410928
30
0
41
1
10
-0.538509027232777
20
-4.7086003971155
30
0
41
1
10
-0.543976580029977
20
-4.70933923526332
30
0
41
1
10
-0.554868580612833
20
-4.71041558869646
30
0
41
1
10
-0.571225704249997
20
-4.71144475460159
30
0
41
1
10
-0.587640507307071
20
-4.71070982968027
30
0
41
1
10
-0.609578781712287
20
-4.70814275449186
30
0
41
1
10
-0.620374827492924
20
-4.70608282011185
30
0
41
1
10
-0.641350213090249
20
-4.70066349410453
30
0
41
1
10
-0.651584949943015
20
-4.69729749278468
30
0
41
1
10
-0.671613199750624
20
-4.68941827906221
30
0
41
1
10
-0.681210585475696
20
-4.68498433991073
30
0
41
1
10
-0.708965296078389
20
-4.67052822129415
30
0
41
1
10
-0.726125293179763
20
-4.65935713023322
30
0
41
1
10
-0.750492243423082
20
-4.64101614114151
30
0
41
1
10
-0.758331050800251
20
-4.63466996063099
30
0
41
1
10
-0.773435300259308
20
-4.62169082720084
30
0
41
1
10
-0.780721313355457
20
-4.61504174878664
30
0
41
1
10
-0.801920392594155
20
-4.59469556410733
30
0
41
1
10
-0.81518147456859
20
-4.58060351558976
30
0
41
1
10
-0.853068613917884
20
-4.53715229328867
30
0
41
1
10
-0.875849179816697
20
-4.50661286524704
30
0
41
1
10
-0.918270620990739
20
-4.4436195297605
30
0
41
1
10
-0.937648218653891
20
-4.41151284912419
30
0
41
1
10
-0.973982716029639
20
-4.346410546671
30
0
41
1
10
-0.990922443825184
20
-4.31341024355515
30
0
41
1
10
-1.02300701475588
20
-4.24668344942171
30
0
41
1
10
-1.03814572296363
20
-4.21295529145058
30
0
41
1
10
-1.08144833641848
20
-4.110828328325
30
0
41
1
10
-1.10752892291299
20
-4.04149516781195
30
0
41
1
10
-1.15587378854892
20
-3.90075641540054
30
0
41
1
10
-1.17812664766188
20
-3.82929955489214
30
0
41
1
10
-1.21961966811577
20
-3.68468606745111
30
0
41
1
10
-1.23882094986982
20
-3.61164482751008
30
0
41
1
10
-1.27473665787787
20
-3.46414251617398
30
0
41
1
10
-1.2914467565532
20
-3.38968077243681
30
0
41
1
10
-1.30710678118655
20
-3.3145152459299
30
0
0
SPLINE
5
140
100
AcDbEntity
8
SK1
62
256
6
ByLayer
370
18
48
1
60
0
100
AcDbSpline
70
4
71
3
72
39
73
35
40
0
40
0
40
0
40
0
40
0.0234567259910666
40
0.0514886806808133
40
0.07952063537056
40
0.107552590060307
40
0.1636164994398
40
0.219680408819294
40
0.247712363509041
40
0.275744318198787
40
0.331808227578281
40
0.359840182268028
40
0.387872136957774
40
0.415904091647521
40
0.443936046337268
40
0.471968001027014
40
0.485983978371888
40
0.499999955716761
40
0.514015933061635
40
0.528031910406508
40
0.556063865096255
40
0.584095819786002
40
0.612127774475748
40
0.640159729165495
40
0.668191683855242
40
0.724255593234735
40
0.752287547924482
40
0.780319502614229
40
0.836383411993722
40
0.892447321373216
40
0.920479276062962
40
0.948511230752709
40
0.976543185442456
40
1
40
1
40
1
40
1
41
1
10
-19
20
-10.03312385572
30
0
41
1
10
-19
20
-10.0359545752975
30
0
41
1
10
-19
20
-10.0171751054751
30
0
41
1
10
-19
20
-9.9112384954864
30
0
41
1
10
-19
20
-9.7189181452959
30
0
41
1
10
-19
20
-9.36252651571962
30
0
41
1
10
-19
20
-8.74965879408046
30
0
41
1
10
-19
20
-7.93503539480022
30
0
41
1
10
-19
20
-7.16669627657109
30
0
41
1
10
-19
20
-6.32708816497822
30
0
41
1
10
-19
20
-5.39691150719781
30
0
41
1
10
-19
20
-4.35855334822477
30
0
41
1
10
-19
20
-3.54050720156599
30
0
41
1
10
-19
20
-2.68380947355118
30
0
41
1
10
-19
20
-1.79728161122435
30
0
41
1
10
-19
20
-1.05021119288873
30
0
41
1
10
-19
20
-0.444754022193024
30
0
41
1
10
-19
20
1.751603804E-07
30
0
41
1
10
-19
20
0.444753991208074
30
0
41
1
10
-19
20
1.0502111192676
30
0
41
1
10
-19
20
1.79728192772168
30
0
41
1
10
-19
20
2.6838095858885
30
0
41
1
10
-19
20
3.54050705744922
30
0
41
1
10
-19
20
4.35855354299241
30
0
41
1
10
-19
20
5.39691159718635
30
0
41
1
10
-19
20
6.32708816044823
30
0
41
1
10
-19
20
7.16669631785615
30
0
41
1
10
-19
20
7.9350351787146
30
0
41
1
10
-19
20
8.74965901233355
30
0
41
1
10
-19
20
9.36252604803423
30
0
41
1
10
-19
20
9.71891823175801
30
0
41
1
10
-19
20
9.91123825969146
30
0
41
1
10
-19
20
10.0171748805025
30
0
41
1
10
-19
20
10.0359545209265
30
0
41
1
10
-19
20
10.0331237419764
30
0
0
SPLINE
5
141
100
AcDbEntity
8
SK1
62
256
6
ByLayer
370
18
48
1
60
0
100
AcDbSpline
70
4
71
3
72
9
73
5
40
0
40
0
40
0
40
0
40
0.518667854844999
40
1
40
1
40
1
40
1
41
1
10
-1.49503997793928
20
10.8252683822787
30
0
41
1
10
-1.49503997793928
20
10.825204026776
30
0
41
1
10
-1.49503997793928
20
10.8074035734264
30
0
41
1
10
-1.49503997793928
20
10.7587880254777
30
0
41
1
10
-1.49503997793923
20
10.7287503822786
30
0
0
SPLINE
5
142
100
AcDbEntity
8
SK1
62
256
6
ByLayer
370
13
48
1
60
0
100
AcDbSpline
70
4
71
3
72
19
73
15
40
0
40
0
40
0
40
0
40
0.0232344806751538
40
0.0945100567174969
40
0.16578563275984
40
0.308336784844526
40
0.450887936929212
40
0.522163512971555
40
0.593439089013898
40
0.735990241098584
40
0.807265817140928
40
0.878541393183271
40
0.949816969225614
40
1
40
1
40
1
40
1
41
1
10
-1.49503997793928
20
10.7287503822792
30
0
41
1
10
-1.49503997793928
20
10.7142230482313
30
0
41
1
10
-1.49503997793928
20
10.6488155776517
30
0
41
1
10
-1.49503997793928
20
10.4906675023526
30
0
41
1
10
-1.49503997793928
20
10.1156289513023
30
0
41
1
10
-1.49503997793928
20
9.46887528495321
30
0
41
1
10
-1.49503997793928
20
8.61066206691208
30
0
41
1
10
-1.49503997793928
20
7.80570924310555
30
0
41
1
10
-1.49503997793928
20
6.92500328929282
30
0
41
1
10
-1.49503997793928
20
5.93563839600924
30
0
41
1
10
-1.49503997793928
20
4.83747557076666
30
0
41
1
10
-1.49503997793928
20
3.96252944300574
30
0
41
1
10
-1.49503997793928
20
3.12815554972912
30
0
41
1
10
-1.49503997793928
20
2.57901008145927
30
0
41
1
10
-1.49503997793928
20
2.34849338234218
30
0
0
SPLINE
5
143
100
AcDbEntity
8
SK1
62
256
6
ByLayer
370
13
48
1
60
0
100
AcDbSpline
70
4
71
3
72
19
73
15
40
0
40
0
40
0
40
0
40
0.050183132810075
40
0.121458725255206
40
0.192734317700338
40
0.264009910145469
40
0.406561095035732
40
0.477836687480864
40
0.549112279925995
40
0.691663464816258
40
0.834214649706521
40
0.905490242151652
40
0.976765834596784
40
1
40
1
40
1
40
1
41
1
10
-1.49503997793928
20
-2.3484920325788
30
0
41
1
10
-1.49503997793928
20
-2.57900913866001
30
0
41
1
10
-1.49503997793928
20
-3.12815500226569
30
0
41
1
10
-1.49503997793928
20
-3.96252951444396
30
0
41
1
10
-1.49503997793928
20
-4.83747546310531
30
0
41
1
10
-1.49503997793928
20
-5.93563827659562
30
0
41
1
10
-1.49503997793928
20
-6.92500328675371
30
0
41
1
10
-1.49503997793928
20
-7.80570915265955
30
0
41
1
10
-1.49503997793928
20
-8.61066229913334
30
0
41
1
10
-1.49503997793928
20
-9.46887502691081
30
0
41
1
10
-1.49503997793928
20
-10.1156294314955
30
0
41
1
10
-1.49503997793928
20
-10.4906674180643
30
0
41
1
10
-1.49503997793928
20
-10.6488154173523
30
0
41
1
10
-1.49503997793928
20
-10.7142228392983
30
0
41
1
10
-1.49503997793928
20
-10.7287500325396
30
0
0
SPLINE
5
144
100
AcDbEntity
8
SK1
62
256
6
ByLayer
370
18
48
1
60
0
100
AcDbSpline
70
4
71
3
72
9
73
5
40
0
40
0
40
0
40
0
40
0.480965065788498
40
1
40
1
40
1
40
1
41
1
10
-1.49503997793928
20
-10.7287507033729
30
0
41
1
10
-1.49503997793928
20
-10.7587883479634
30
0
41
1
10
-1.49503997793931
20
-10.8074409776519
30
0
41
1
10
-1.49503997793931
20
-10.8252313102524
30
0
41
1
10
-1.49503997793928
20
-10.825268703373
30
0
0
SPLINE
5
145
100
AcDbEntity
8
SK1
62
256
6
ByLayer
370
18
48
1
60
0
100
AcDbSpline
70
4
71
3
72
20
73
16
40
0
40
0
40
0
40
0
40
0.0618285641941374
40
0.125322966165471
40
0.188817368136804
40
0.252311770108138
40
0.379300574050805
40
0.506289377993472
40
0.569783779964806
40
0.633278181936139
40
0.760266985878806
40
0.82376138785014
40
0.887255789821473
40
0.950750191792807
40
1
40
1
40
1
40
1
41
1
10
-1.69999999999999
20
11.016858708785
30
0
41
1
10
-1.69999999999997
20
11.025472780957
30
0
41
1
10
-1.7
20
11.0077567931352
30
0
41
1
10
-1.7
20
10.8874544346102
30
0
41
1
10
-1.7
20
10.6806097131649
30
0
41
1
10
-1.7
20
10.3009819355762
30
0
41
1
10
-1.7
20
9.64588812329171
30
0
41
1
10
-1.7
20
8.77694672660428
30
0
41
1
10
-1.7
20
7.96298250837995
30
0
41
1
10
-1.7
20
7.07216160324032
30
0
41
1
10
-1.7
20
6.06822933336571
30
0
41
1
10
-1.7
20
4.95534741364133
30
0
41
1
10
-1.7
20
4.06639719899749
30
0
41
1
10
-1.7
20
3.19422498243512
30
0
41
1
10
-1.7
20
2.6085619558728
30
0
41
1
10
-1.7
20
2.34765420370229
30
0
0
SPLINE
5
146
100
AcDbEntity
8
SK1
62
256
6
ByLayer
370
18
48
1
60
0
100
AcDbSpline
70
4
71
3
72
20
73
16
40
0
40
0
40
0
40
0
40
0.0492498069297764
40
0.112744110636032
40
0.176238414342288
40
0.239732718048543
40
0.366721325461055
40
0.43021562916731
40
0.493709932873566
40
0.620698540286077
40
0.747687147698588
40
0.811181451404844
40
0.874675755111099
40
0.938170058817355
40
1
40
1
40
1
40
1
41
1
10
-1.7
20
-2.34765294686034
30
0
41
1
10
-1.7
20
-2.60856107921731
30
0
41
1
10
-1.7
20
-3.19422443293118
30
0
41
1
10
-1.7
20
-4.06639725254811
30
0
41
1
10
-1.7
20
-4.95534732741851
30
0
41
1
10
-1.7
20
-6.06822920671002
30
0
41
1
10
-1.7
20
-7.07216159896134
30
0
41
1
10
-1.7
20
-7.96298240583451
30
0
41
1
10
-1.7
20
-8.77694696279681
30
0
41
1
10
-1.7
20
-9.64588785545641
30
0
41
1
10
-1.7
20
-10.3009824188478
30
0
41
1
10
-1.7
20
-10.6806096294116
30
0
41
1
10
-1.7
20
-10.8874546409424
30
0
41
1
10
-1.7
20
-11.0077581004031
30
0
41
1
10
-1.7
20
-11.0254732754194
30
0
41
1
10
-1.7
20
-11.016858157418
30
0
0
SPLINE
5
147
100
AcDbEntity
8
SK1
62
256
6
ByLayer
370
18
48
1
60
0
100
AcDbSpline
70
4
71
3
72
39
73
35
40
0
40
0
40
0
40
0
40
0.0271657230028437
40
0.0549795258718057
40
0.0827933287407678
40
0.11060713160973
40
0.166234737347654
40
0.221862343085578
40
0.24967614595454
40
0.277489948823502
40
0.333117554561426
40
0.360931357430388
40
0.38874516029935
40
0.416558963168312
40
0.444372766037274
40
0.472186568906237
40
0.486093470340717
40
0.500000371775199
40
0.51390727320968
40
0.527814174644161
40
0.555627977513123
40
0.583441780382085
40
0.611255583251047
40
0.639069386120009
40
0.666883188988971
40
0.722510794726895
40
0.750324597595857
40
0.778138400464819
40
0.833766006202743
40
0.889393611940667
40
0.91720741480963
40
0.945021217678592
40
0.972835020547554
40
1
40
1
40
1
40
1
41
1
10
-18
20
10.607610635105
30
0
41
1
10
-18
20
10.615956214029
30
0
41
1
10
-18
20
10.5989384260643
30
0
41
1
10
-18
20
10.4823597514038
30
0
41
1
10
-18
20
10.2815422565791
30
0
41
1
10
-18
20
9.91155641668578
30
0
41
1
10
-18
20
9.27398520146792
30
0
41
1
10
-18
20
8.42758364438683
30
0
41
1
10
-18
20
7.63255231230303
30
0
41
1
10
-18
20
6.76298285981449
30
0
41
1
10
-18
20
5.78965656162174
30
0
41
1
10
-18
20
4.70769937196641
30
0
41
1
10
-18
20
3.84817166067387
30
0
41
1
10
-18
20
2.9411794741566
30
0
41
1
10
-18
20
1.9909558545304
30
0
41
1
10
-18
20
1.17129189084349
30
0
41
1
10
-18
20
0.501599059707559
30
0
41
1
10
-18
20
7.85940131E-08
30
0
41
1
10
-18
20
-0.501599044412444
30
0
41
1
10
-18
20
-1.17129192458174
30
0
41
1
10
-18
20
-1.99095571595876
30
0
41
1
10
-18
20
-2.94117931205881
30
0
41
1
10
-18
20
-3.84817175180621
30
0
41
1
10
-18
20
-4.70769924070134
30
0
41
1
10
-18
20
-5.78965645018161
30
0
41
1
10
-18
20
-6.76298285919094
30
0
41
1
10
-18
20
-7.63255223517845
30
0
41
1
10
-18
20
-8.42758387223572
30
0
41
1
10
-18
20
-9.27398495420746
30
0
41
1
10
-18
20
-9.91155689348966
30
0
41
1
10
-18
20
-10.2815421717017
30
0
41
1
10
-18
20
-10.482359969962
30
0
41
1
10
-18
20
-10.5989377395574
30
0
41
1
10
-18
20
-10.6159558334222
30
0
41
1
10
-18
20
-10.6076113864572
30
0
0
SPLINE
5
148
100
AcDbEntity
8
SK1
62
256
6
ByLayer
370
18
48
1
60
0
100
AcDbSpline
70
4
71
3
72
50
73
46
40
0
40
0
40
0
40
0
40
0.124999999999993
40
0.124999999999993
40
0.249999999999987
40
0.249999999999987
40
0.312499999999983
40
0.312499999999983
40
0.343749999999981
40
0.343749999999981
40
0.374999999999979
40
0.374999999999979
40
0.406249999999978
40
0.406249999999978
40
0.421874999999977
40
0.421874999999977
40
0.437499999999976
40
0.437499999999976
40
0.453124999999976
40
0.453124999999976
40
0.460937499999976
40
0.460937499999976
40
0.468749999999976
40
0.468749999999976
40
0.476562499999977
40
0.476562499999977
40
0.484374999999977
40
0.484374999999977
40
0.499999999999978
40
0.499999999999978
40
0.515624999999979
40
0.515624999999979
40
0.531249999999981
40
0.531249999999981
40
0.562499999999983
40
0.562499999999983
40
0.624999999999986
40
0.624999999999986
40
0.687499999999989
40
0.687499999999989
40
0.749999999999991
40
0.749999999999991
40
0.874999999999996
40
0.874999999999996
40
1
40
1
40
1
40
1
41
1
10
-1.7
20
2.34765420370229
30
0
41
1
10
-1.6998034368002
20
2.30204296329814
30
0
41
1
10
-1.69915039367987
20
2.25635328938307
30
0
41
1
10
-1.69653309873968
20
2.16478330538484
30
0
41
1
10
-1.69459916908717
20
2.11890560637775
30
0
41
1
10
-1.68995560549762
20
2.04988104532177
30
0
41
1
10
-1.68811440381067
20
2.026837939378
30
0
41
1
10
-1.68462315938689
20
1.99219601544965
30
0
41
1
10
-1.68333613778455
20
1.98063568355289
30
0
41
1
10
-1.68041145611024
20
1.95748001200514
30
0
41
1
10
-1.67877301232556
20
1.94586360536206
30
0
41
1
10
-1.67497483096689
20
1.92276974286997
30
0
41
1
10
-1.67282618887015
20
1.91127637950416
30
0
41
1
10
-1.66887115205898
20
1.8941928758147
30
0
41
1
10
-1.66742423583295
20
1.88851124598514
30
0
41
1
10
-1.66416551260078
20
1.87735964831145
30
0
41
1
10
-1.662359861196
20
1.8718764964907
30
0
41
1
10
-1.65807410816048
20
1.86126309906433
30
0
41
1
10
-1.65558240733868
20
1.8560666599372
30
0
41
1
10
-1.65094843729229
20
1.84951261814737
30
0
41
1
10
-1.64926857345709
20
1.84756086938978
30
0
41
1
10
-1.64547058536634
20
1.84443339232337
30
0
41
1
10
-1.64342437159498
20
1.84335697758959
30
0
41
1
10
-1.63925809788927
20
1.8424625676509
30
0
41
1
10
-1.63716436135068
20
1.84265099543569
30
0
41
1
10
-1.6332492271918
20
1.8439380266808
30
0
41
1
10
-1.63139685760363
20
1.84502279335263
30
0
41
1
10
-1.62620205615828
20
1.84900379634971
30
0
41
1
10
-1.62321157089434
20
1.85255132027478
30
0
41
1
10
-1.61769248369454
20
1.86030187295179
30
0
41
1
10
-1.61521688012277
20
1.86447571968583
30
0
41
1
10
-1.61056317312595
20
1.87313396792089
30
0
41
1
10
-1.6083915023864
20
1.8776251804901
30
0
41
1
10
-1.60217434005762
20
1.89140717435808
30
0
41
1
10
-1.59841255627542
20
1.90102400468518
30
0
41
1
10
-1.587822149377
20
1.9302989986453
30
0
41
1
10
-1.58166446065891
20
1.9503889844722
30
0
41
1
10
-1.57011438927675
20
1.99102269015194
30
0
41
1
10
-1.564757186142
20
2.01158981154214
30
0
41
1
10
-1.55453695277318
20
2.05299657334311
30
0
41
1
10
-1.54968042595411
20
2.07384054331874
30
0
41
1
10
-1.53563332649338
20
2.13663479390587
30
0
41
1
10
-1.52695339101722
20
2.17884887827933
30
0
41
1
10
-1.51042221129256
20
2.26350502578163
30
0
41
1
10
-1.50258018333608
20
2.30596680519997
30
0
41
1
10
-1.49503997793928
20
2.34849338234218
30
0
0
SPLINE
5
149
100
AcDbEntity
8
SK1
62
256
6
ByLayer
370
18
48
1
60
0
100
AcDbSpline
70
4
71
3
72
28
73
24
40
0
40
0
40
0
40
0
40
0.125
40
0.125
40
0.25
40
0.25
40
0.375
40
0.375
40
0.40625
40
0.40625
40
0.4375
40
0.4375
40
0.5
40
0.5
40
0.625
40
0.625
40
0.75
40
0.75
40
0.8125
40
0.8125
40
0.875
40
0.875
40
1
40
1
40
1
40
1
41
1
10
-1.7
20
-2.34765294686034
30
0
41
1
10
-1.73205415669226
20
-2.16038584160381
30
0
41
1
10
-1.76222065032135
20
-1.97131662577766
30
0
41
1
10
-1.81699375220627
20
-1.58898156364668
30
0
41
1
10
-1.84157210171965
20
-1.39570674274961
30
0
41
1
10
-1.88287055486933
20
-1.00413788392149
30
0
41
1
10
-1.89960742958058
20
-0.805850441666081
30
0
41
1
10
-1.91396022727268
20
-0.554216735189272
30
0
41
1
10
-1.91649855456244
20
-0.503699732728535
30
0
41
1
10
-1.92087575570552
20
-0.402270484700296
30
0
41
1
10
-1.92271432260526
20
-0.351352531619966
30
0
41
1
10
-1.92711759702395
20
-0.1991732695476
30
0
41
1
10
-1.92858996592999
20
-0.098096875673491
30
0
41
1
10
-1.92851257349817
20
0.203996833737762
30
0
41
1
10
-1.92249647820374
20
0.403884260844393
30
0
41
1
10
-1.89992814454848
20
0.800898512891649
30
0
41
1
10
-1.88342776895729
20
0.998033489767096
30
0
41
1
10
-1.85255630843314
20
1.29195216882439
30
0
41
1
10
-1.84124169681192
20
1.38962690798928
30
0
41
1
10
-1.81682576986775
20
1.58441982262914
30
0
41
1
10
-1.80370973774758
20
1.68162305605506
30
0
41
1
10
-1.76234965181258
20
1.97058473862921
30
0
41
1
10
-1.73206310969364
20
2.16033448890278
30
0
41
1
10
-1.7
20
2.34765420370229
30
0
0
SPLINE
5
14A
100
AcDbEntity
8
SK1
62
256
6
ByLayer
370
18
48
1
60
0
100
AcDbSpline
70
4
71
3
72
50
73
46
40
0
40
0
40
0
40
0
40
0.124999999999993
40
0.124999999999993
40
0.249999999999986
40
0.249999999999986
40
0.312499999999982
40
0.312499999999982
40
0.374999999999977
40
0.374999999999977
40
0.437499999999973
40
0.437499999999973
40
0.46874999999997
40
0.46874999999997
40
0.484374999999968
40
0.484374999999968
40
0.499999999999967
40
0.499999999999967
40
0.507812499999967
40
0.507812499999967
40
0.515624999999967
40
0.515624999999967
40
0.523437499999968
40
0.523437499999968
40
0.531249999999968
40
0.531249999999968
40
0.539062499999969
40
0.539062499999969
40
0.546874999999969
40
0.546874999999969
40
0.562499999999971
40
0.562499999999971
40
0.578124999999972
40
0.578124999999972
40
0.593749999999973
40
0.593749999999973
40
0.624999999999975
40
0.624999999999975
40
0.687499999999979
40
0.687499999999979
40
0.749999999999983
40
0.749999999999983
40
0.874999999999992
40
0.874999999999992
40
1
40
1
40
1
40
1
41
1
10
-1.49503997793988
20
-2.3484920325786
30
0
41
1
10
-1.50264486299135
20
-2.30560072837358
30
0
41
1
10
-1.51055569104386
20
-2.26278077026905
30
0
41
1
10
-1.5272377941365
20
-2.17743187773848
30
0
41
1
10
-1.53599602067253
20
-2.13489523766006
30
0
41
1
10
-1.55020424476854
20
-2.07156115964614
30
0
41
1
10
-1.55512152574804
20
-2.05052989285036
30
0
41
1
10
-1.56549038663996
20
-2.0087292593407
30
0
41
1
10
-1.57093965450312
20
-1.9879376472413
30
0
41
1
10
-1.58270783684462
20
-1.94692992432044
30
0
41
1
10
-1.58898554423647
20
-1.92669096647967
30
0
41
1
10
-1.59982985491632
20
-1.89736086048552
30
0
41
1
10
-1.60367776004783
20
-1.88777253140711
30
0
41
1
10
-1.61012801536764
20
-1.87403352849674
30
0
41
1
10
-1.61238739824751
20
-1.86957502492965
30
0
41
1
10
-1.61725988408107
20
-1.86105354384
30
0
41
1
10
-1.61988012527918
20
-1.85696555156221
30
0
41
1
10
-1.62422190548617
20
-1.85152626087802
30
0
41
1
10
-1.62574025018971
20
-1.84982698790452
30
0
41
1
10
-1.62899704637212
20
-1.84678183261011
30
0
41
1
10
-1.63073797021957
20
-1.84543674111649
30
0
41
1
10
-1.63444006998854
20
-1.84343334345596
30
0
41
1
10
-1.6364310452875
20
-1.84277379291592
30
0
41
1
10
-1.64049371863734
20
-1.84257528778565
30
0
41
1
10
-1.64263141831242
20
-1.84306719353074
30
0
41
1
10
-1.6466167007513
20
-1.84520272843358
30
0
41
1
10
-1.64851494362384
20
-1.84684788948113
30
0
41
1
10
-1.65189818459372
20
-1.85070880506405
30
0
41
1
10
-1.65343748347131
20
-1.85296435164068
30
0
41
1
10
-1.65758301818303
20
-1.86005243113519
30
0
41
1
10
-1.65983641715788
20
-1.86533039904762
30
0
41
1
10
-1.66377295358205
20
-1.87606716402044
30
0
41
1
10
-1.66545095510661
20
-1.88154764100148
30
0
41
1
10
-1.66849020043533
20
-1.89263136704571
30
0
41
1
10
-1.66984560772775
20
-1.89823686093516
30
0
41
1
10
-1.67358927825892
20
-1.91517885650296
30
0
41
1
10
-1.67566088610396
20
-1.92664763316904
30
0
41
1
10
-1.68112003269373
20
-1.96089400109636
30
0
41
1
10
-1.68380553438459
20
-1.9837178331704
30
0
41
1
10
-1.68832630630219
20
-2.02935224085806
30
0
41
1
10
-1.69012636136873
20
-2.05216278261108
30
0
41
1
10
-1.69467464365059
20
-2.12057478489859
30
0
41
1
10
-1.69658414869913
20
-2.16620101192839
30
0
41
1
10
-1.69916210808094
20
-2.25713844148177
30
0
41
1
10
-1.6998052211259
20
-2.30245581760673
30
0
41
1
10
-1.7
20
-2.34765294685576
30
0
0
SPLINE
5
14B
100
AcDbEntity
8
SK1
62
256
6
ByLayer
370
18
48
1
60
0
100
AcDbSpline
70
4
71
3
72
10
73
6
40
0
40
0
40
0
40
0
40
0.5
40
0.5
40
1
40
1
40
1
40
1
41
1
10
-1.30710678118655
20
-3.3145152459299
30
0
41
1
10
-1.33975739597588
20
-3.15779769861589
30
0
41
1
10
-1.37201250439205
20
-2.99910289734024
30
0
41
1
10
-1.43497554121927
20
-2.67729808228725
30
0
41
1
10
-1.46566312449343
20
-2.51417653001474
30
0
41
1
10
-1.49503997793928
20
-2.34849203258926
30
0
0
SPLINE
5
14C
100
AcDbEntity
8
SK1
62
256
6
ByLayer
370
18
48
1
60
0
100
AcDbSpline
70
4
71
3
72
10
73
6
40
0
40
0
40
0
40
0
40
0.5
40
0.5
40
1
40
1
40
1
40
1
41
1
10
-1.49503997793928
20
2.34849338234218
30
0
41
1
10
-1.46566316358729
20
2.51417790895556
30
0
41
1
10
-1.4349756098799
20
2.6772994834665
30
0
41
1
10
-1.37201258068183
20
2.99910431043691
30
0
41
1
10
-1.33975744342439
20
3.15779909733413
30
0
41
1
10
-1.30710678118655
20
3.31451661882926
30
0
0
SPLINE
5
14D
100
AcDbEntity
8
1
62
256
6
ByLayer
370
18
48
1
60
0
100
AcDbSpline
70
4
71
2
72
6
73
3
40
0
40
0
40
0
40
1
40
1
40
1
41
1.03186391735993
10
35
20
21.8027032771659
30
0
41
0.729637973226922
10
35
20
22.0027032771659
30
0
41
1.03186391735993
10
35.2
20
22.0027032771659
30
0
0
SPLINE
5
14E
100
AcDbEntity
8
1
62
256
6
ByLayer
370
18
48
1
60
0
100
AcDbSpline
70
4
71
2
72
6
73
3
40
0
40
0
40
0
40
1
40
1
40
1
41
1.03186391735993
10
35.2
20
22.0027032771659
30
0
41
1.03138264657361
10
35.3222110531944
20
22.002703277166
30
0
41
1.03186391735993
10
35.4441941581394
20
21.9952424708534
30
0
0
SPLINE
5
14F
100
AcDbEntity
8
1
62
256
6
ByLayer
370
18
48
1
60
0
100
AcDbSpline
70
4
71
2
72
6
73
3
40
0
40
0
40
0
40
1
40
1
40
1
41
1.03186391735993
10
54.8
20
19.997296722834
30
0
41
0.729637973226922
10
55
20
19.9972967228341
30
0
41
1.03186391735993
10
55
20
20.197296722834
30
0
0
SPLINE
5
150
100
AcDbEntity
8
1
62
256
6
ByLayer
370
18
48
1
60
0
100
AcDbSpline
70
4
71
2
72
6
73
3
40
0
40
0
40
0
40
1
40
1
40
1
41
1.03186391735993
10
55
20
21.802703277166
30
0
41
0.729637973226922
10
55
20
22.0027032771659
30
0
41
1.03186391735993
10
54.8
20
22.0027032771659
30
0
0
SPLINE
5
151
100
AcDbEntity
8
1
62
256
6
ByLayer
370
18
48
1
60
0
100
AcDbSpline
70
4
71
2
72
6
73
3
40
0
40
0
40
0
40
1
40
1
40
1
41
1.03186391735993
10
54.5558058418606
20
20.0047575291466
30
0
41
1.03138264657361
10
54.6777889468057
20
19.9972967228341
30
0
41
1.03186391735993
10
54.8
20
19.997296722834
30
0
0
SPLINE
5
152
100
AcDbEntity
8
1
62
256
6
ByLayer
370
18
48
1
60
0
100
AcDbSpline
70
4
71
2
72
6
73
3
40
0
40
0
40
0
40
1
40
1
40
1
41
1.03186391735993
10
54.8
20
22.0027032771659
30
0
41
1.03138264657361
10
54.6777889468057
20
22.002703277166
30
0
41
1.03186391735993
10
54.5558058418606
20
21.9952424708534
30
0
0
SPLINE
5
153
100
AcDbEntity
8
1
62
256
6
ByLayer
370
18
48
1
60
0
100
AcDbSpline
70
4
71
3
72
8
73
4
40
0
40
0
40
0
40
0
40
1
40
1
40
1
40
1
41
1
10
53.0155276838538
20
21.9293982963666
30
0
41
1
10
53.0021504377982
20
21.9293127960131
30
0
41
1
10
52.9887889225588
20
21.9279037088682
30
0
41
1
10
52.9756211251736
20
21.9251206725718
30
0
0
SPLINE
5
154
100
AcDbEntity
8
1
62
256
6
ByLayer
370
18
48
1
60
0
100
AcDbSpline
70
4
71
3
72
8
73
4
40
0
40
0
40
0
40
0
40
1
40
1
40
1
40
1
41
1
10
52.9756211251846
20
20.0748793274259
30
0
41
1
10
52.9887890590187
20
20.0720962622912
30
0
41
1
10
53.002150330567
20
20.0706872046718
30
0
41
1
10
53.0155276838674
20
20.0706017036333
30
0
0
SPLINE
5
155
100
AcDbEntity
8
1
62
256
6
ByLayer
370
18
48
1
60
0
100
AcDbSpline
70
4
71
3
72
8
73
4
40
0
40
0
40
0
40
0
40
1
40
1
40
1
40
1
41
1
10
36.9844723161326
20
21.9293982963667
30
0
41
1
10
36.997849562189
20
21.9293127960136
30
0
41
1
10
37.0112110774294
20
21.9279037088703
30
0
41
1
10
37.0243788748155
20
21.9251206725741
30
0
0
LINE
5
7D
100
AcDbEntity
8
1
62
256
6
ByLayer
370
18
48
1
60
0
100
AcDbLine
10
0
20
-15.7
30
0
11
0.3
21
-16
31
0
39
0
210
0
220
0
230
1
0
LINE
5
7E
100
AcDbEntity
8
1
62
256
6
ByLayer
370
18
48
1
60
0
100
AcDbLine
10
0.3
20
16
30
0
11
0
21
15.7
31
0
39
0
210
0
220
0
230
1
0
LINE
5
7F
100
AcDbEntity
8
1
62
256
6
ByLayer
370
18
48
1
60
0
100
AcDbLine
10
15.279208
20
16
30
0
11
0.3
21
16
31
0
39
0
210
0
220
0
230
1
0
LINE
5
80
100
AcDbEntity
8
1
62
256
6
ByLayer
370
18
48
1
60
0
100
AcDbLine
10
0.3
20
-16
30
0
11
15.120396
21
-16
31
0
39
0
210
0
220
0
230
1
0
LINE
5
81
100
AcDbEntity
8
81
62
256
6
ByLayer
370
18
48
1
60
0
100
AcDbLine
10
55
20
22
30
0
11
60
21
22
31
0
39
0
210
0
220
0
230
1
0
LINE
5
82
100
AcDbEntity
8
80
62
256
6
ByLayer
370
18
48
1
60
0
100
AcDbLine
10
0
20
0
30
0
11
-5
21
0
31
0
39
0
210
0
220
0
230
1
0
LINE
5
83
100
AcDbEntity
8
1
62
256
6
ByLayer
370
18
48
1
60
0
100
AcDbLine
10
17.828986
20
21.75
30
0
11
20.1
21
21.75
31
0
39
0
210
0
220
0
230
1
0
LINE
5
84
100
AcDbEntity
8
1
62
256
6
ByLayer
370
13
48
1
60
0
100
AcDbLine
10
16.619594
20
17.15
30
0
11
20.1
21
17.15
31
0
39
0
210
0
220
0
230
1
0
LINE
5
85
100
AcDbEntity
8
1
62
256
6
ByLayer
370
13
48
1
60
0
100
AcDbLine
10
20.1
20
17.15
30
0
11
20.1
21
16.15
31
0
39
0
210
0
220
0
230
1
0
LINE
5
86
100
AcDbEntity
8
1
62
256
6
ByLayer
370
13
48
1
60
0
100
AcDbLine
10
20.1
20
17.15
30
0
11
20.1
21
21.75
31
0
39
0
210
0
220
0
230
1
0
LINE
5
87
100
AcDbEntity
8
1
62
256
6
ByLayer
370
13
48
1
60
0
100
AcDbLine
10
20.1
20
17.15
30
0
11
23.793237
21
17.15
31
0
39
0
210
0
220
0
230
1
0
LINE
5
88
100
AcDbEntity
8
1
62
256
6
ByLayer
370
18
48
1
60
0
100
AcDbLine
10
20.1
20
21.75
30
0
11
23.793237
21
21.75
31
0
39
0
210
0
220
0
230
1
0
LINE
5
89
100
AcDbEntity
8
1
62
256
6
ByLayer
370
18
48
1
60
0
100
AcDbLine
10
24.179273
20
21.75
30
0
11
23.793237
21
21.75
31
0
39
0
210
0
220
0
230
1
0
LINE
5
8A
100
AcDbEntity
8
1
62
256
6
ByLayer
370
18
48
1
60
0
100
AcDbLine
10
23.793237
20
17.15
30
0
11
23.793237
21
21.75
31
0
39
0
210
0
220
0
230
1
0
LINE
5
8B
100
AcDbEntity
8
1
62
256
6
ByLayer
370
18
48
1
60
0
100
AcDbLine
10
24.3
20
21.75
30
0
11
24.179216
21
21.75
31
0
39
0
210
0
220
0
230
1
0
LINE
5
8C
100
AcDbEntity
8
1
62
256
6
ByLayer
370
18
48
1
60
0
100
AcDbLine
10
24.179216
20
21.75
30
0
11
24.179216
21
17.15
31
0
39
0
210
0
220
0
230
1
0
LINE
5
8D
100
AcDbEntity
8
1
62
256
6
ByLayer
370
13
48
1
60
0
100
AcDbLine
10
24.3
20
17.15
30
0
11
24.179216
21
17.15
31
0
39
0
210
0
220
0
230
1
0
LINE
5
8E
100
AcDbEntity
8
1
62
256
6
ByLayer
370
18
48
1
60
0
100
AcDbLine
10
48.458419
20
21.75
30
0
11
45.25
21
21.75
31
0
39
0
210
0
220
0
230
1
0
LINE
5
8F
100
AcDbEntity
8
1
62
256
6
ByLayer
370
18
48
1
60
0
100
AcDbLine
10
48.458419
20
20.25
30
0
11
45.25
21
20.25
31
0
39
0
210
0
220
0
230
1
0
LINE
5
90
100
AcDbEntity
8
1
62
256
6
ByLayer
370
18
48
1
60
0
100
AcDbLine
10
48.75
20
21.048819
30
0
11
48.75
21
20.951181
31
0
39
0
210
0
220
0
230
1
0
LINE
5
91
100
AcDbEntity
8
1
62
256
6
ByLayer
370
18
48
1
60
0
100
AcDbLine
10
21.299843
20
16.15
30
0
11
20.300157
21
16.15
31
0
39
0
210
0
220
0
230
1
0
LINE
5
92
100
AcDbEntity
8
1
62
256
6
ByLayer
370
18
48
1
60
0
100
AcDbLine
10
21.300034
20
-13
30
0
11
20.300071
21
-13
31
0
39
0
210
0
220
0
230
1
0
LINE
5
93
100
AcDbEntity
8
1
62
256
6
ByLayer
370
18
48
1
60
0
100
AcDbLine
10
21.3
20
16.15
30
0
11
23.3
21
16.15
31
0
39
0
210
0
220
0
230
1
0
LINE
5
94
100
AcDbEntity
8
1
62
256
6
ByLayer
370
18
48
1
60
0
100
AcDbLine
10
37.538001
20
21.75
30
0
11
24.3
21
21.75
31
0
39
0
210
0
220
0
230
1
0
LINE
5
95
100
AcDbEntity
8
1
62
256
6
ByLayer
370
18
48
1
60
0
100
AcDbLine
10
21.3
20
-13
30
0
11
21.3
21
16.15
31
0
39
0
210
0
220
0
230
1
0
LINE
5
96
100
AcDbEntity
8
1
62
256
6
ByLayer
370
18
48
1
60
0
100
AcDbLine
10
30.8
20
-13
30
0
11
38.4
21
10.4
31
0
39
0
210
0
220
0
230
1
0
LINE
5
97
100
AcDbEntity
8
1
62
256
6
ByLayer
370
18
48
1
60
0
100
AcDbLine
10
30.8
20
-13
30
0
11
21.3
21
-13
31
0
39
0
210
0
220
0
230
1
0
LINE
5
98
100
AcDbEntity
8
1
62
256
6
ByLayer
370
18
48
1
60
0
100
AcDbLine
10
38.4
20
18.65
30
0
11
38.4
21
10.4
31
0
39
0
210
0
220
0
230
1
0
LINE
5
99
100
AcDbEntity
8
1
62
256
6
ByLayer
370
18
48
1
60
0
100
AcDbLine
10
24.3
20
17.15
30
0
11
24.3
21
21.75
31
0
39
0
210
0
220
0
230
1
0
LINE
5
9A
100
AcDbEntity
8
1
62
256
6
ByLayer
370
18
48
1
60
0
100
AcDbLine
10
19.014115
20
16.15
30
0
11
20.3
21
16.15
31
0
39
0
210
0
220
0
230
1
0
LINE
5
9B
100
AcDbEntity
8
1
62
256
6
ByLayer
370
18
48
1
60
0
100
AcDbLine
10
20.3
20
-13
30
0
11
19.014115
21
-13
31
0
39
0
210
0
220
0
230
1
0
LINE
5
9C
100
AcDbEntity
8
1
62
256
6
ByLayer
370
18
48
1
60
0
100
AcDbLine
10
20.3
20
16.15
30
0
11
20.3
21
-13
31
0
39
0
210
0
220
0
230
1
0
LINE
5
9D
100
AcDbEntity
8
1
62
256
6
ByLayer
370
18
48
1
60
0
100
AcDbLine
10
45.25
20
21.75
30
0
11
37.538001
21
21.75
31
0
39
0
210
0
220
0
230
1
0
LINE
5
9E
100
AcDbEntity
8
1
62
256
6
ByLayer
370
18
48
1
60
0
100
AcDbLine
10
37.538001
20
20.25
30
0
11
37.538001
21
21.75
31
0
39
0
210
0
220
0
230
1
0
LINE
5
9F
100
AcDbEntity
8
1
62
256
6
ByLayer
370
18
48
1
60
0
100
AcDbLine
10
45.25
20
20.25
30
0
11
40
21
20.25
31
0
39
0
210
0
220
0
230
1
0
LINE
5
A0
100
AcDbEntity
8
1
62
256
6
ByLayer
370
18
48
1
60
0
100
AcDbLine
10
45.25
20
21.75
30
0
11
45.25
21
20.25
31
0
39
0
210
0
220
0
230
1
0
LINE
5
A1
100
AcDbEntity
8
1
62
256
6
ByLayer
370
13
48
1
60
0
100
AcDbLine
10
37.538001
20
20.25
30
0
11
40
21
20.25
31
0
39
0
210
0
220
0
230
1
0
LINE
5
A2
100
AcDbEntity
8
1
62
256
6
ByLayer
370
13
48
1
60
0
100
AcDbLine
10
16.438319
20
16.15
30
0
11
16.438319
21
12.516509
31
0
39
0
210
0
220
0
230
1
0
LINE
5
A3
100
AcDbEntity
8
1
62
256
6
ByLayer
370
13
48
1
60
0
100
AcDbLine
10
16.438319
20
-12.516509
30
0
11
16.438319
21
-13.920772
31
0
39
0
210
0
220
0
230
1
0
LINE
5
A4
100
AcDbEntity
8
1
62
256
6
ByLayer
370
13
48
1
60
0
100
AcDbLine
10
19.014115
20
16.15
30
0
11
19.014115
21
-13
31
0
39
0
210
0
220
0
230
1
0
LINE
5
A5
100
AcDbEntity
8
1
62
256
6
ByLayer
370
18
48
1
60
0
100
AcDbLine
10
19.014115
20
16.15
30
0
11
17.129365
21
16.15
31
0
39
0
210
0
220
0
230
1
0
LINE
5
A6
100
AcDbEntity
8
1
62
256
6
ByLayer
370
18
48
1
60
0
100
AcDbLine
10
18.991425
20
-13
30
0
11
19.014115
21
-13
31
0
39
0
210
0
220
0
230
1
0
LINE
5
A7
100
AcDbEntity
8
1
62
256
6
ByLayer
370
13
48
1
60
0
100
AcDbLine
10
7.076795
20
-4.755463
30
0
11
7.076795
21
-15.276962
31
0
39
0
210
0
220
0
230
1
0
LINE
5
A8
100
AcDbEntity
8
1
62
256
6
ByLayer
370
13
48
1
60
0
100
AcDbLine
10
7.336603
20
-5.068619
30
0
11
7.336603
21
-15.175938
31
0
39
0
210
0
220
0
230
1
0
LINE
5
A9
100
AcDbEntity
8
1
62
256
6
ByLayer
370
13
48
1
60
0
100
AcDbLine
10
4.663397
20
15.175938
30
0
11
4.663397
21
5.068619
31
0
39
0
210
0
220
0
230
1
0
LINE
5
AA
100
AcDbEntity
8
1
62
256
6
ByLayer
370
13
48
1
60
0
100
AcDbLine
10
4.923205
20
15.276962
30
0
11
4.923205
21
4.755463
31
0
39
0
210
0
220
0
230
1
0
LINE
5
AB
100
AcDbEntity
8
1
62
256
6
ByLayer
370
13
48
1
60
0
100
AcDbLine
10
4.663397
20
-5.068619
30
0
11
4.663397
21
-15.175938
31
0
39
0
210
0
220
0
230
1
0
LINE
5
AC
100
AcDbEntity
8
1
62
256
6
ByLayer
370
13
48
1
60
0
100
AcDbLine
10
4.923205
20
-4.755463
30
0
11
4.923205
21
-15.276962
31
0
39
0
210
0
220
0
230
1
0
LINE
5
AD
100
AcDbEntity
8
1
62
256
6
ByLayer
370
13
48
1
60
0
100
AcDbLine
10
7.076795
20
15.276962
30
0
11
7.076795
21
4.755463
31
0
39
0
210
0
220
0
230
1
0
LINE
5
AE
100
AcDbEntity
8
1
62
256
6
ByLayer
370
13
48
1
60
0
100
AcDbLine
10
7.336603
20
15.175938
30
0
11
7.336603
21
5.068619
31
0
39
0
210
0
220
0
230
1
0
LINE
5
AF
100
AcDbEntity
8
1
62
256
6
ByLayer
370
18
48
1
60
0
100
AcDbLine
10
0
20
-15.7
30
0
11
0
21
15.7
31
0
39
0
210
0
220
0
230
1
0
LINE
5
B0
100
AcDbEntity
8
1
62
256
6
ByLayer
370
13
48
1
60
0
100
AcDbLine
10
15.014268
20
-7.045855
30
0
11
15.014268
21
7.045855
31
0
39
0
210
0
220
0
230
1
0
LINE
5
B1
100
AcDbEntity
8
1
62
256
6
ByLayer
370
13
48
1
60
0
100
AcDbLine
10
15.279208
20
16
30
0
11
15.279208
21
9.371741
31
0
39
0
210
0
220
0
230
1
0
LINE
5
B2
100
AcDbEntity
8
1
62
256
6
ByLayer
370
13
48
1
60
0
100
AcDbLine
10
15.279208
20
-9.371741
30
0
11
15.279208
21
-15.510222
31
0
39
0
210
0
220
0
230
1
0
LINE
5
B3
100
AcDbEntity
8
1
62
256
6
ByLayer
370
18
48
1
60
0
100
AcDbLine
10
0.3
20
-16
30
0
11
0.3
21
16
31
0
39
0
210
0
220
0
230
1
0
LINE
5
B4
100
AcDbEntity
8
1
62
256
6
ByLayer
370
18
48
1
60
0
100
AcDbLine
10
7.076795
20
4.755463
30
0
11
4.923205
21
4.755463
31
0
39
0
210
0
220
0
230
1
0
LINE
5
B5
100
AcDbEntity
8
1
62
256
6
ByLayer
370
18
48
1
60
0
100
AcDbLine
10
4.923205
20
15.276962
30
0
11
7.076795
21
15.276962
31
0
39
0
210
0
220
0
230
1
0
LINE
5
B6
100
AcDbEntity
8
1
62
256
6
ByLayer
370
18
48
1
60
0
100
AcDbLine
10
4.923205
20
-4.755463
30
0
11
7.076795
21
-4.755463
31
0
39
0
210
0
220
0
230
1
0
LINE
5
B7
100
AcDbEntity
8
1
62
256
6
ByLayer
370
18
48
1
60
0
100
AcDbLine
10
7.076795
20
-15.276962
30
0
11
4.923205
21
-15.276962
31
0
39
0
210
0
220
0
230
1
0
LINE
5
B8
100
AcDbEntity
8
SK1
62
256
6
ByLayer
370
18
48
1
60
0
100
AcDbLine
10
-0.2
20
-5.336172
30
0
11
-0.2
21
-10.883485
31
0
39
0
210
0
220
0
230
1
0
LINE
5
BA
100
AcDbEntity
8
SK1
62
256
6
ByLayer
370
18
48
1
60
0
100
AcDbLine
10
-0.2
20
10.883485
30
0
11
-0.2
21
5.336173
31
0
39
0
210
0
220
0
230
1
0
LINE
5
BB
100
AcDbEntity
8
SK1
62
256
6
ByLayer
370
13
48
1
60
0
100
AcDbLine
10
-1.307107
20
3.314517
30
0
11
-1.307107
21
-3.314515
31
0
39
0
210
0
220
0
230
1
0
LINE
5
BC
100
AcDbEntity
8
1
62
256
6
ByLayer
370
18
48
1
60
0
100
AcDbLine
10
35.444194
20
21.995242
30
0
11
36.466622
21
21.932708
31
0
39
0
210
0
220
0
230
1
0
LINE
5
BD
100
AcDbEntity
8
1
62
256
6
ByLayer
370
18
48
1
60
0
100
AcDbLine
10
35
20
21.749976
30
0
11
35
21
21.802703
31
0
39
0
210
0
220
0
230
1
0
LINE
5
BE
100
AcDbEntity
8
1
62
256
6
ByLayer
370
18
48
1
60
0
100
AcDbLine
10
54.555806
20
21.995242
30
0
11
53.533378
21
21.932708
31
0
39
0
210
0
220
0
230
1
0
LINE
5
BF
100
AcDbEntity
8
1
62
256
6
ByLayer
370
18
48
1
60
0
100
AcDbLine
10
53.533378
20
20.067292
30
0
11
54.555806
21
20.004758
31
0
39
0
210
0
220
0
230
1
0
LINE
5
C0
100
AcDbEntity
8
1
62
256
6
ByLayer
370
18
48
1
60
0
100
AcDbLine
10
55
20
20.197297
30
0
11
55
21
21.802703
31
0
39
0
210
0
220
0
230
1
0
LINE
5
C1
100
AcDbEntity
8
1
62
256
6
ByLayer
370
18
48
1
60
0
100
AcDbLine
10
52.975621
20
21.925121
30
0
11
52.932822
21
21.916075
31
0
39
0
210
0
220
0
230
1
0
LINE
5
C2
100
AcDbEntity
8
1
62
256
6
ByLayer
370
18
48
1
60
0
100
AcDbLine
10
52.932822
20
20.083925
30
0
11
52.975621
21
20.074879
31
0
39
0
210
0
220
0
230
1
0
LINE
5
C3
100
AcDbEntity
8
1
62
256
6
ByLayer
370
18
48
1
60
0
100
AcDbLine
10
53.015528
20
20.070602
30
0
11
53.533378
21
20.067292
31
0
39
0
210
0
220
0
230
1
0
LINE
5
C4
100
AcDbEntity
8
1
62
256
6
ByLayer
370
18
48
1
60
0
100
AcDbLine
10
53.533378
20
20.067292
30
0
11
53.533378
21
21.932708
31
0
39
0
210
0
220
0
230
1
0
LINE
5
C5
100
AcDbEntity
8
1
62
256
6
ByLayer
370
18
48
1
60
0
100
AcDbLine
10
53.533378
20
21.932708
30
0
11
53.015528
21
21.929398
31
0
39
0
210
0
220
0
230
1
0
LINE
5
C6
100
AcDbEntity
8
1
62
256
6
ByLayer
370
18
48
1
60
0
100
AcDbLine
10
37.024379
20
21.925121
30
0
11
37.067178
21
21.916075
31
0
39
0
210
0
220
0
230
1
0
LINE
5
C7
100
AcDbEntity
8
1
62
256
6
ByLayer
370
18
48
1
60
0
100
AcDbLine
10
36.466622
20
21.749985
30
0
11
36.466622
21
21.932708
31
0
39
0
210
0
220
0
230
1
0
LINE
5
C8
100
AcDbEntity
8
1
62
256
6
ByLayer
370
18
48
1
60
0
100
AcDbLine
10
36.466622
20
21.932708
30
0
11
36.984472
21
21.929398
31
0
39
0
210
0
220
0
230
1
0
LINE
5
C9
100
AcDbEntity
8
1
62
256
6
ByLayer
370
13
48
1
60
0
100
AcDbLine
10
51.916013
20
21
30
0
11
48.749992
21
21
31
0
39
0
210
0
220
0
230
1
0
LINE
5
CA
100
AcDbEntity
8
1
62
256
6
ByLayer
370
13
48
1
60
0
100
AcDbLine
10
48.670475
20
21.197335
30
0
11
51.265948
21
21.197335
31
0
39
0
210
0
220
0
230
1
0
LINE
5
CB
100
AcDbEntity
8
1
62
256
6
ByLayer
370
13
48
1
60
0
100
AcDbLine
10
51.265948
20
20.802665
30
0
11
48.670475
21
20.802665
31
0
39
0
210
0
220
0
230
1
0
LINE
5
CC
100
AcDbEntity
8
1
62
256
6
ByLayer
370
13
48
1
60
0
100
AcDbLine
10
48.664604
20
21.200756
30
0
11
51.221739
21
21.200756
31
0
39
0
210
0
220
0
230
1
0
LINE
5
CD
100
AcDbEntity
8
1
62
256
6
ByLayer
370
13
48
1
60
0
100
AcDbLine
10
48.664604
20
20.799244
30
0
11
51.221739
21
20.799244
31
0
39
0
210
0
220
0
230
1
0
LINE
5
CE
100
AcDbEntity
8
1
62
256
6
ByLayer
370
13
48
1
60
0
100
AcDbLine
10
48.580937
20
21.251024
30
0
11
50.634281
21
21.251024
31
0
39
0
210
0
220
0
230
1
0
LINE
5
CF
100
AcDbEntity
8
1
62
256
6
ByLayer
370
13
48
1
60
0
100
AcDbLine
10
48.580937
20
20.748976
30
0
11
50.634281
21
20.748976
31
0
39
0
210
0
220
0
230
1
0
LINE
5
D0
100
AcDbEntity
8
1
62
256
6
ByLayer
370
13
48
1
60
0
100
AcDbLine
10
48.552201
20
20.632002
30
0
11
50.126524
21
20.632002
31
0
39
0
210
0
220
0
230
1
0
LINE
5
D1
100
AcDbEntity
8
1
62
256
6
ByLayer
370
13
48
1
60
0
100
AcDbLine
10
48.552201
20
21.367998
30
0
11
50.126524
21
21.367998
31
0
39
0
210
0
220
0
230
1
0
LINE
5
D2
100
AcDbEntity
8
1
62
256
6
ByLayer
370
13
48
1
60
0
100
AcDbLine
10
48.488794
20
20.374016
30
0
11
49.70267
21
20.374016
31
0
39
0
210
0
220
0
230
1
0
LINE
5
D3
100
AcDbEntity
8
1
62
256
6
ByLayer
370
13
48
1
60
0
100
AcDbLine
10
49.70267
20
21.625984
30
0
11
48.488794
21
21.625984
31
0
39
0
210
0
220
0
230
1
0
LINE
5
D4
100
AcDbEntity
8
1
62
256
6
ByLayer
370
18
48
1
60
0
100
AcDbLine
10
40.336786
20
21.8
30
0
11
37.660107
21
21.8
31
0
39
0
210
0
220
0
230
1
0
LINE
5
D5
100
AcDbEntity
8
1
62
256
6
ByLayer
370
18
48
1
60
0
100
AcDbLine
10
37.067178
20
21.749979
30
0
11
37.067178
21
21.916075
31
0
39
0
210
0
220
0
230
1
0
LINE
5
D6
100
AcDbEntity
8
1
62
256
6
ByLayer
370
18
48
1
60
0
100
AcDbLine
10
39.621987
20
20.2
30
0
11
40.336786
21
20.2
31
0
39
0
210
0
220
0
230
1
0
LINE
5
D7
100
AcDbEntity
8
1
62
256
6
ByLayer
370
18
48
1
60
0
100
AcDbLine
10
37.067178
20
21.916075
30
0
11
37.412478
21
21.8302
31
0
39
0
210
0
220
0
230
1
0
LINE
5
D8
100
AcDbEntity
8
1
62
256
6
ByLayer
370
18
48
1
60
0
100
AcDbLine
10
49.663214
20
21.8
30
0
11
52.339893
21
21.8
31
0
39
0
210
0
220
0
230
1
0
LINE
5
D9
100
AcDbEntity
8
1
62
256
6
ByLayer
370
18
48
1
60
0
100
AcDbLine
10
52.932822
20
21.916075
30
0
11
52.587522
21
21.8302
31
0
39
0
210
0
220
0
230
1
0
LINE
5
DA
100
AcDbEntity
8
1
62
256
6
ByLayer
370
18
48
1
60
0
100
AcDbLine
10
49.70267
20
21.625984
30
0
11
50.126524
21
21.367998
31
0
39
0
210
0
220
0
230
1
0
LINE
5
DB
100
AcDbEntity
8
1
62
256
6
ByLayer
370
18
48
1
60
0
100
AcDbLine
10
51.221739
20
21.200756
30
0
11
51.265948
21
21.197335
31
0
39
0
210
0
220
0
230
1
0
LINE
5
DC
100
AcDbEntity
8
1
62
256
6
ByLayer
370
18
48
1
60
0
100
AcDbLine
10
51.265948
20
20.802665
30
0
11
51.221739
21
20.799244
31
0
39
0
210
0
220
0
230
1
0
LINE
5
DD
100
AcDbEntity
8
1
62
256
6
ByLayer
370
18
48
1
60
0
100
AcDbLine
10
50.126524
20
20.632002
30
0
11
49.70267
21
20.374016
31
0
39
0
210
0
220
0
230
1
0
LINE
5
DE
100
AcDbEntity
8
1
62
256
6
ByLayer
370
18
48
1
60
0
100
AcDbLine
10
52.339893
20
20.2
30
0
11
49.663214
21
20.2
31
0
39
0
210
0
220
0
230
1
0
LINE
5
DF
100
AcDbEntity
8
1
62
256
6
ByLayer
370
18
48
1
60
0
100
AcDbLine
10
52.587522
20
20.1698
30
0
11
52.932822
21
20.083925
31
0
39
0
210
0
220
0
230
1
0
LINE
5
E0
100
AcDbEntity
8
1
62
256
6
ByLayer
370
18
48
1
60
0
100
AcDbLine
10
52.932822
20
20.083925
30
0
11
52.932822
21
21.916075
31
0
39
0
210
0
220
0
230
1
0
LINE
5
E1
100
AcDbEntity
8
1
62
256
6
ByLayer
370
18
48
1
60
0
100
AcDbLine
10
49.663214
20
20.324562
30
0
11
49.663214
21
20.2
31
0
39
0
210
0
220
0
230
1
0
LINE
5
E2
100
AcDbEntity
8
1
62
256
6
ByLayer
370
13
48
1
60
0
100
AcDbLine
10
49.663214
20
20.324562
30
0
11
48.476718
21
20.324562
31
0
39
0
210
0
220
0
230
1
0
LINE
5
E3
100
AcDbEntity
8
1
62
256
6
ByLayer
370
18
48
1
60
0
100
AcDbLine
10
40.336786
20
20.250002
30
0
11
40.336786
21
20.2
31
0
39
0
210
0
220
0
230
1
0
LINE
5
E4
100
AcDbEntity
8
1
62
256
6
ByLayer
370
18
48
1
60
0
100
AcDbLine
10
40.336786
20
20.2
30
0
11
49.663214
21
20.2
31
0
39
0
210
0
220
0
230
1
0
LINE
5
E5
100
AcDbEntity
8
1
62
256
6
ByLayer
370
18
48
1
60
0
100
AcDbLine
10
49.663214
20
21.8
30
0
11
49.663214
21
21.675438
31
0
39
0
210
0
220
0
230
1
0
LINE
5
E6
100
AcDbEntity
8
1
62
256
6
ByLayer
370
18
48
1
60
0
100
AcDbLine
10
49.663214
20
21.8
30
0
11
40.336786
21
21.8
31
0
39
0
210
0
220
0
230
1
0
LINE
5
E7
100
AcDbEntity
8
1
62
256
6
ByLayer
370
18
48
1
60
0
100
AcDbLine
10
40.336786
20
21.8
30
0
11
40.336786
21
21.749998
31
0
39
0
210
0
220
0
230
1
0
LINE
5
E8
100
AcDbEntity
8
1
62
256
6
ByLayer
370
13
48
1
60
0
100
AcDbLine
10
48.476718
20
21.675438
30
0
11
49.663214
21
21.675438
31
0
39
0
210
0
220
0
230
1
0
LINE
5
E9
100
AcDbEntity
8
SK2
62
256
6
ByLayer
370
18
48
1
60
0
100
AcDbLine
10
-28.975
20
-16
30
0
11
-28.975
21
16
31
0
39
0
210
0
220
0
230
1
0
LINE
5
EB
100
AcDbEntity
8
SK2
62
256
6
ByLayer
370
18
48
1
60
0
100
AcDbLine
10
-1.2875
20
16
30
0
11
-30.975
21
16
31
0
39
0
210
0
220
0
230
1
0
LINE
5
EC
100
AcDbEntity
8
SK2
62
256
6
ByLayer
370
18
48
1
60
0
100
AcDbLine
10
-1.2875
20
-16
30
0
11
-30.975
21
-16
31
0
39
0
210
0
220
0
230
1
0
LINE
5
ED
100
AcDbEntity
8
1
62
256
6
ByLayer
370
18
48
1
60
1
100
AcDbLine
10
-28.975
20
16
30
0
11
-28.514216
21
12.500002
31
0
39
0
210
0
220
0
230
1
0
LINE
5
EE
100
AcDbEntity
8
1
62
256
6
ByLayer
370
18
48
1
60
1
100
AcDbLine
10
-28.514216
20
12.500002
30
0
11
-29.435784
21
12.499998
31
0
39
0
210
0
220
0
230
1
0
LINE
5
EF
100
AcDbEntity
8
1
62
256
6
ByLayer
370
18
48
1
60
1
100
AcDbLine
10
-29.435784
20
12.499998
30
0
11
-28.975
21
16
31
0
39
0
210
0
220
0
230
1
0
LINE
5
F0
100
AcDbEntity
8
1
62
256
6
ByLayer
370
18
48
1
60
1
100
AcDbLine
10
-28.975
20
-16
30
0
11
-29.435784
21
-12.500002
31
0
39
0
210
0
220
0
230
1
0
LINE
5
F1
100
AcDbEntity
8
1
62
256
6
ByLayer
370
18
48
1
60
1
100
AcDbLine
10
-29.435784
20
-12.500002
30
0
11
-28.514216
21
-12.499998
31
0
39
0
210
0
220
0
230
1
0
LINE
5
F2
100
AcDbEntity
8
1
62
256
6
ByLayer
370
18
48
1
60
1
100
AcDbLine
10
-28.514216
20
-12.499998
30
0
11
-28.975
21
-16
31
0
39
0
210
0
220
0
230
1
0
LINE
5
15A
100
AcDbEntity
8
1
62
256
6
ByLayer
370
18
48
1
60
1
100
AcDbLine
10
-28.975
20
16
30
0
11
-28.514216
21
12.500002
31
0
39
0
210
0
220
0
230
1
0
LINE
5
15B
100
AcDbEntity
8
1
62
256
6
ByLayer
370
18
48
1
60
1
100
AcDbLine
10
-28.514216
20
12.500002
30
0
11
-29.435784
21
12.499998
31
0
39
0
210
0
220
0
230
1
0
LINE
5
15C
100
AcDbEntity
8
1
62
256
6
ByLayer
370
18
48
1
60
1
100
AcDbLine
10
-29.435784
20
12.499998
30
0
11
-28.975
21
16
31
0
39
0
210
0
220
0
230
1
0
LINE
5
15E
100
AcDbEntity
8
1
62
256
6
ByLayer
370
18
48
1
60
1
100
AcDbLine
10
-28.975
20
-16
30
0
11
-29.435784
21
-12.500002
31
0
39
0
210
0
220
0
230
1
0
LINE
5
15F
100
AcDbEntity
8
1
62
256
6
ByLayer
370
18
48
1
60
1
100
AcDbLine
10
-29.435784
20
-12.500002
30
0
11
-28.514216
21
-12.499998
31
0
39
0
210
0
220
0
230
1
0
LINE
5
160
100
AcDbEntity
8
1
62
256
6
ByLayer
370
18
48
1
60
1
100
AcDbLine
10
-28.514216
20
-12.499998
30
0
11
-28.975
21
-16
31
0
39
0
210
0
220
0
230
1
0
MTEXT
5
156
100
AcDbEntity
8
SK2
62
256
6
ByLayer
370
18
48
1
60
0
100
AcDbMText
10
-30.539634
20
-4.530622
30
0
210
0
220
0
230
1
1
%%c
40
3.5
41
0
44
1.084337
50
90
71
7
72
5
7
iso_b_vert
0
MTEXT
5
159
100
AcDbEntity
8
SK2
62
256
6
ByLayer
370
18
48
1
60
0
100
AcDbMText
10
-30.539634
20
2.442034
30
0
210
0
220
0
230
1
1
\W0.6740;32
40
3.5
41
0
44
1.084337
50
90
71
7
72
5
7
iso_b_vert
0
MTEXT
5
162
100
AcDbEntity
8
SK6
62
256
6
ByLayer
370
18
48
1
60
0
100
AcDbMText
10
-14.3145
20
-51.283958
30
0
210
0
220
0
230
1
1
\W0.7274;C2R-CC3-RE15CB
40
3.5
41
0
44
1.084337
50
0
71
7
72
5
7
iso_b_vert
0
HATCH
5
15D
100
AcDbEntity
8
SK2
62
256
6
ByLayer
370
13
48
1
60
0
100
AcDbHatch
10
0
20
0
30
0
210
0
220
0
230
1
2
ANSI31
70
0
71
0
91
1
92
5
93
3
72
1
10
-28.9750000000001
20
16
11
-28.5142162584473
21
12.5000016925532
72
1
10
-28.5142162584473
20
12.5000016925532
11
-29.4357837415528
21
12.4999983074468
72
1
10
-29.4357837415528
20
12.4999983074468
11
-28.9750000000001
21
16
97
0
75
0
76
1
52
0
41
0.0062
77
0
78
1
53
45
43
0
44
0
45
-0.0139193969876572
46
0.0139193969876572
79
0
47
0
98
1
10
0
20
0
0
HATCH
5
161
100
AcDbEntity
8
SK2
62
256
6
ByLayer
370
13
48
1
60
0
100
AcDbHatch
10
0
20
0
30
0
210
0
220
0
230
1
2
ANSI31
70
0
71
0
91
1
92
5
93
3
72
1
10
-28.9750000000001
20
-16
11
-29.4357837415528
21
-12.5000016925532
72
1
10
-29.4357837415528
20
-12.5000016925532
11
-28.5142162584473
21
-12.4999983074468
72
1
10
-28.5142162584473
20
-12.4999983074468
11
-28.9750000000001
21
-16
97
0
75
0
76
1
52
0
41
0.0062
77
0
78
1
53
45
43
0
44
0
45
-0.0139193969876572
46
0.0139193969876572
79
0
47
0
98
1
10
0
20
0
0
DIMENSION
5
165
100
AcDbEntity
8
2
62
256
6
ByLayer
370
18
48
1
60
0
100
AcDbDimension
2
_U0
10
86.1
20
0
30
0
11
86.1
21
11
31
0
70
32
71
1
72
1
41
1
210
0
220
0
230
1
3
Standard
100
AcDbAlignedDimension
13
55
23
22
33
0
14
0
24
0
34
0
50
90
100
AcDbRotatedDimension
1001
ACAD
1000
DSTYLE
1002
{
1070
   371
1070
    13
1070
   372
1070
    13
1070
   170
1070
     0
1070
   144
1040
1.0
1070
   277
1070
     2
1070
   284
1070
     8
1070
   278
1070
    46
1070
   146
1040
1.0
1070
   345
1005
16
1070
   347
1005
16
1070
   346
1005
16
1070
   344
1005
0
1070
   343
1005
0
1070
   172
1070
     1
1070
    76
1070
     0
1070
    75
1070
     0
1070
   282
1070
     0
1070
   281
1070
     0
1070
    71
1070
     0
1070
    74
1070
     0
1070
   279
1070
     0
1070
   173
1070
     1
1070
   340
1005
157
1070
   271
1070
     1
1070
   272
1070
     2
1070
    77
1070
     1
1070
    73
1070
     0
1070
   171
1070
     3
1070
   274
1070
     4
1070
   177
1070
     2
1070
   176
1070
     2
1070
   178
1070
     2
1070
    78
1070
     8
1070
    48
1040
-0.1
1070
    41
1040
3.5
1070
   147
1040
1.75
1070
    42
1040
1.5875
1070
    44
1040
2.0
1070
   140
1040
3.5
1002
}
1001
ACAD_DSTYLE_DIM_LINETYPE
1070
   380
1005
16
1001
ACAD_DSTYLE_DIM_EXT1_LINETYPE
1070
   381
1005
16
1001
ACAD_DSTYLE_DIM_EXT2_LINETYPE
1070
   382
1005
16
0
DIMENSION
5
17F
100
AcDbEntity
8
2
62
256
6
ByLayer
370
18
48
1
60
0
100
AcDbDimension
2
_U1
10
75.1
20
22
30
0
11
75.1
21
21
31
0
70
32
71
1
72
1
41
1
210
0
220
0
230
1
3
Standard
100
AcDbAlignedDimension
13
55
23
20
33
0
14
55
24
22
34
0
50
90
100
AcDbRotatedDimension
1001
ACAD
1000
DSTYLE
1002
{
1070
   371
1070
    13
1070
   372
1070
    13
1070
   170
1070
     0
1070
   144
1040
1.0
1070
   277
1070
     2
1070
   284
1070
     8
1070
   278
1070
    46
1070
   146
1040
1.0
1070
   345
1005
16
1070
   347
1005
16
1070
   346
1005
16
1070
   344
1005
0
1070
   343
1005
0
1070
   172
1070
     1
1070
    76
1070
     0
1070
    75
1070
     0
1070
   282
1070
     0
1070
   281
1070
     0
1070
    71
1070
     0
1070
    74
1070
     0
1070
   279
1070
     0
1070
   173
1070
     1
1070
   340
1005
157
1070
   271
1070
     1
1070
   272
1070
     2
1070
    77
1070
     1
1070
    73
1070
     0
1070
   171
1070
     3
1070
   274
1070
     4
1070
   177
1070
     2
1070
   176
1070
     2
1070
   178
1070
     2
1070
    78
1070
     8
1070
    48
1040
-0.1
1070
    41
1040
3.5
1070
   147
1040
1.75
1070
    42
1040
1.5875
1070
    44
1040
2.0
1070
   140
1040
3.5
1002
}
1001
ACAD_DSTYLE_DIM_LINETYPE
1070
   380
1005
16
1001
ACAD_DSTYLE_DIM_EXT1_LINETYPE
1070
   381
1005
16
1001
ACAD_DSTYLE_DIM_EXT2_LINETYPE
1070
   382
1005
16
0
DIMENSION
5
198
100
AcDbEntity
8
2
62
256
6
ByLayer
370
18
48
1
60
0
100
AcDbDimension
2
_U2
10
55
20
-13.5
30
0
11
47.5
21
-13.5
31
0
70
32
71
1
72
1
41
1
210
0
220
0
230
1
3
Standard
100
AcDbAlignedDimension
13
40
23
20.25
33
0
14
55
24
20
34
0
50
0
100
AcDbRotatedDimension
1001
ACAD
1000
DSTYLE
1002
{
1070
   371
1070
    13
1070
   372
1070
    13
1070
   170
1070
     0
1070
   144
1040
1.0
1070
   277
1070
     2
1070
   284
1070
     8
1070
   278
1070
    46
1070
   146
1040
1.0
1070
   345
1005
16
1070
   347
1005
16
1070
   346
1005
16
1070
   344
1005
0
1070
   343
1005
0
1070
   172
1070
     1
1070
    76
1070
     0
1070
    75
1070
     0
1070
   282
1070
     0
1070
   281
1070
     0
1070
    71
1070
     0
1070
    74
1070
     0
1070
   279
1070
     0
1070
   173
1070
     1
1070
   340
1005
157
1070
   271
1070
     1
1070
   272
1070
     2
1070
    77
1070
     1
1070
    73
1070
     1
1070
   171
1070
     3
1070
   274
1070
     4
1070
   177
1070
     2
1070
   176
1070
     2
1070
   178
1070
     2
1070
    78
1070
     8
1070
    48
1040
-0.1
1070
    41
1040
3.5
1070
   147
1040
1.75
1070
    42
1040
1.5875
1070
    44
1040
2.0
1070
   140
1040
3.5
1002
}
1001
ACAD_DSTYLE_DIM_LINETYPE
1070
   380
1005
16
1001
ACAD_DSTYLE_DIM_EXT1_LINETYPE
1070
   381
1005
16
1001
ACAD_DSTYLE_DIM_EXT2_LINETYPE
1070
   382
1005
16
0
DIMENSION
5
1B1
100
AcDbEntity
8
2
62
256
6
ByLayer
370
18
48
1
60
0
100
AcDbDimension
2
_U3
10
55
20
38.25
30
0
11
27.5
21
38.25
31
0
70
32
71
1
72
1
41
1
210
0
220
0
230
1
3
Standard
100
AcDbAlignedDimension
13
0
23
0
33
0
14
55
24
22
34
0
50
0
100
AcDbRotatedDimension
1001
ACAD
1000
DSTYLE
1002
{
1070
   371
1070
    13
1070
   372
1070
    13
1070
   170
1070
     0
1070
   144
1040
1.0
1070
   277
1070
     2
1070
   284
1070
     8
1070
   278
1070
    46
1070
   146
1040
1.0
1070
   345
1005
16
1070
   347
1005
16
1070
   346
1005
16
1070
   344
1005
0
1070
   343
1005
0
1070
   172
1070
     1
1070
    76
1070
     0
1070
    75
1070
     0
1070
   282
1070
     0
1070
   281
1070
     0
1070
    71
1070
     0
1070
    74
1070
     0
1070
   279
1070
     0
1070
   173
1070
     1
1070
   340
1005
157
1070
   271
1070
     1
1070
   272
1070
     2
1070
    77
1070
     1
1070
    73
1070
     1
1070
   171
1070
     3
1070
   274
1070
     4
1070
   177
1070
     2
1070
   176
1070
     2
1070
   178
1070
     2
1070
    78
1070
     8
1070
    48
1040
-0.1
1070
    41
1040
3.5
1070
   147
1040
1.75
1070
    42
1040
1.5875
1070
    44
1040
2.0
1070
   140
1040
3.5
1002
}
1001
ACAD_DSTYLE_DIM_LINETYPE
1070
   380
1005
16
1001
ACAD_DSTYLE_DIM_EXT1_LINETYPE
1070
   381
1005
16
1001
ACAD_DSTYLE_DIM_EXT2_LINETYPE
1070
   382
1005
16
0
ENDSEC
0
SECTION
2
OBJECTS
0
DICTIONARY
5
238
330
0
100
AcDbDictionary
280
0
281
1
3
ACAD_GROUP
350
239
3
ACAD_MLINESTYLE
350
23a
0
DICTIONARY
5
239
330
0
100
AcDbDictionary
280
0
281
1
0
DICTIONARY
5
23a
330
0
100
AcDbDictionary
280
0
281
1
3
Standard
350
18
0
MLINESTYLE
5
18
330
23a
100
AcDbMlineStyle
2
Standard
70
0
3

62
256
51
90
52
90
71
2
49
-0.5
62
256
6
ByLayer
49
0.5
62
256
6
ByLayer
0
RASTERVARIABLES
5
227
330

100
AcDbRasterVariables
90
0
70
1
71
1
72
1
0
ENDSEC
0
EOF
