0
SECTION
2
HEADER
9
$ACADVER
1
AC1015
9
$DWGCODEPAGE
3
ANSI_1252
9
$HANDSEED
5
21d
9
$ANGBASE
50
0
9
$ANGDIR
70
0
9
$ATTMODE
70
1
9
$AUNITS
70
0
9
$AUPREC
70
0
9
$CECOLOR
62
256
9
$CELTSCALE
40
1
9
$CELTYPE
6
ByLayer
9
$CELWEIGHT
370
18
9
$CLAYER
8
0
9
$CMLJUST
70
0
9
$CMLSCALE
40
1
9
$CMLSTYLE
2
Standard
9
$DIMSTYLE
2
Standard
9
$TEXTSIZE
40
0.2
9
$TEXTSTYLE
7
Standard
9
$LUNITS
70
2
9
$LUPREC
70
4
9
$EXTNAMES
290
1
9
$INSUNITS
70
4
9
$LTSCALE
40
1
9
$LWDISPLAY
290
1
9
$PDMODE
70
0
9
$PDSIZE
40
0
9
$PLINEGEN
70
0
0
ENDSEC
0
SECTION
2
CLASSES
0
CLASS
1
RASTERVARIABLES
2
AcDbRasterVariables
3
ISM
90
0
280
0
281
0
0
ENDSEC
0
SECTION
2
TABLES
0
TABLE
2
VPORT
5
213
100
AcDbSymbolTable
0
VPORT
5
1
100
AcDbSymbolTableRecord
100
AcDbViewportTableRecord
2
*Active
70
0
10
0
20
0
11
1
21
1
12
-1
22
1
13
0
23
0
14
0.5
24
0.5
15
10
25
10
16
0
26
0
36
1
17
0
27
0
37
0
0
ENDTAB
0
TABLE
2
LTYPE
5
214
100
AcDbSymbolTable
0
LTYPE
5
14
100
AcDbSymbolTableRecord
100
AcDbLinetypeTableRecord
70
0
2
ByBlock
3

72
65
73
0
40
0
0
LTYPE
5
15
100
AcDbSymbolTableRecord
100
AcDbLinetypeTableRecord
70
0
2
ByLayer
3

72
65
73
0
40
0
0
LTYPE
5
16
100
AcDbSymbolTableRecord
100
AcDbLinetypeTableRecord
70
0
2
Continuous
3
Solid line
72
65
73
0
40
0
0
LTYPE
5
6E
100
AcDbSymbolTableRecord
100
AcDbLinetypeTableRecord
70
0
2
CENTER
3
____ _ ____ _ ____ _ ____
72
65
73
4
40
47.5
49
22
74
0
49
-8.5
74
0
49
8.5
74
0
49
-8.5
74
0
0
LTYPE
5
6F
100
AcDbSymbolTableRecord
100
AcDbLinetypeTableRecord
70
0
2
DASHED
3
__ __ __ __ __ __ __ __ __
72
65
73
2
40
25.72
49
12.86
74
0
49
-12.86
74
0
0
ENDTAB
0
TABLE
2
LAYER
5
215
100
AcDbSymbolTable
0
LAYER
5
10
100
AcDbSymbolTableRecord
100
AcDbLayerTableRecord
2
0
70
0
62
7
6
Continuous
290
1
370
-3
390
0
0
LAYER
5
71
100
AcDbSymbolTableRecord
100
AcDbLayerTableRecord
2
80
70
0
62
-6
6
Continuous
290
1
370
-3
390
0
0
LAYER
5
73
100
AcDbSymbolTableRecord
100
AcDbLayerTableRecord
2
81
70
0
62
-3
6
Continuous
290
1
370
-3
390
0
0
LAYER
5
75
100
AcDbSymbolTableRecord
100
AcDbLayerTableRecord
2
1
70
0
62
4
6
Continuous
290
1
370
-3
390
0
0
LAYER
5
129
100
AcDbSymbolTableRecord
100
AcDbLayerTableRecord
2
Defpoints
70
0
62
7
6
Continuous
290
0
370
-3
390
0
0
LAYER
5
136
100
AcDbSymbolTableRecord
100
AcDbLayerTableRecord
2
2
70
0
62
7
6
Continuous
290
1
370
-3
390
0
0
LAYER
5
201
100
AcDbSymbolTableRecord
100
AcDbLayerTableRecord
2
SK6
70
0
62
5
6
Continuous
290
1
370
-3
390
0
0
LAYER
5
202
100
AcDbSymbolTableRecord
100
AcDbLayerTableRecord
2
SK2
70
0
62
7
6
Continuous
290
1
370
-3
390
0
0
ENDTAB
0
TABLE
2
STYLE
5
216
100
AcDbSymbolTable
0
STYLE
5
11
100
AcDbSymbolTableRecord
100
AcDbTextStyleTableRecord
2
Standard
3
txt
70
0
71
0
40
0
41
1
42
0
50
0
0
STYLE
5
122
100
AcDbSymbolTableRecord
100
AcDbTextStyleTableRecord
2
iso_b_vert
3
simplex.shx
70
0
71
0
40
0
41
1
42
0
50
0
0
STYLE
5
123
100
AcDbSymbolTableRecord
100
AcDbTextStyleTableRecord
2
DWGDirectTextStyle
3
simplex
70
0
71
0
40
0
41
1
42
0
50
0
0
ENDTAB
0
TABLE
2
DIMSTYLE
5
217
100
AcDbSymbolTable
100
AcDbDimStyleTable
0
DIMSTYLE
105
27
100
AcDbSymbolTableRecord
100
AcDbDimStyleTableRecord
2
Standard
70
0
3
<>
41
0.18
42
0.0625
44
0.18
140
0.18
147
0.09
73
0
74
0
77
1
271
2
275
0
278
52
280
0
340
11
0
ENDTAB
0
TABLE
2
VIEW
5
218
100
AcDbSymbolTable
0
ENDTAB
0
TABLE
2
UCS
5
219
100
AcDbSymbolTable
0
ENDTAB
0
TABLE
2
APPID
5
21a
100
AcDbSymbolTable
0
APPID
5
12
100
AcDbSymbolTableRecord
100
AcDbRegAppTableRecord
2
ACAD
70
0
0
APPID
5
125
100
AcDbSymbolTableRecord
100
AcDbRegAppTableRecord
2
ACAD_DSTYLE_DIMBREAK
70
0
0
APPID
5
1C0
100
AcDbSymbolTableRecord
100
AcDbRegAppTableRecord
2
ACAD_DSTYLE_DIM_LINETYPE
70
0
0
APPID
5
1C1
100
AcDbSymbolTableRecord
100
AcDbRegAppTableRecord
2
ACAD_DSTYLE_DIM_EXT1_LINETYPE
70
0
0
APPID
5
1C2
100
AcDbSymbolTableRecord
100
AcDbRegAppTableRecord
2
ACAD_DSTYLE_DIM_EXT2_LINETYPE
70
0
0
APPID
5
1FD
100
AcDbSymbolTableRecord
100
AcDbRegAppTableRecord
2
ACAD_MLEADERVER
70
0
0
ENDTAB
0
TABLE
2
BLOCK_RECORD
5
21b
100
AcDbSymbolTable
0
BLOCK_RECORD
5
1F
100
AcDbSymbolTableRecord
100
AcDbBlockTableRecord
2
*Model_Space
340
0
70
0
0
BLOCK_RECORD
5
1B
100
AcDbSymbolTableRecord
100
AcDbBlockTableRecord
2
*Paper_Space
340
0
70
0
0
BLOCK_RECORD
5
23
100
AcDbSymbolTableRecord
100
AcDbBlockTableRecord
2
*Paper_Space0
340
0
70
0
0
BLOCK_RECORD
5
12A
100
AcDbSymbolTableRecord
100
AcDbBlockTableRecord
2
*D1
340
0
70
0
0
BLOCK_RECORD
5
137
100
AcDbSymbolTableRecord
100
AcDbBlockTableRecord
2
_U0
340
0
70
0
0
BLOCK_RECORD
5
143
100
AcDbSymbolTableRecord
100
AcDbBlockTableRecord
2
*D3
340
0
70
0
0
BLOCK_RECORD
5
150
100
AcDbSymbolTableRecord
100
AcDbBlockTableRecord
2
_U1
340
0
70
0
0
BLOCK_RECORD
5
15C
100
AcDbSymbolTableRecord
100
AcDbBlockTableRecord
2
*D5
340
0
70
0
0
BLOCK_RECORD
5
169
100
AcDbSymbolTableRecord
100
AcDbBlockTableRecord
2
_U2
340
0
70
0
0
BLOCK_RECORD
5
175
100
AcDbSymbolTableRecord
100
AcDbBlockTableRecord
2
*D7
340
0
70
0
0
BLOCK_RECORD
5
181
100
AcDbSymbolTableRecord
100
AcDbBlockTableRecord
2
_U3
340
0
70
0
0
BLOCK_RECORD
5
18D
100
AcDbSymbolTableRecord
100
AcDbBlockTableRecord
2
*D9
340
0
70
0
0
BLOCK_RECORD
5
199
100
AcDbSymbolTableRecord
100
AcDbBlockTableRecord
2
_U4
340
0
70
0
0
ENDTAB
0
ENDSEC
0
SECTION
2
BLOCKS
0
BLOCK
5
20
100
AcDbEntity
8
0
100
AcDbBlockBegin
2
*Model_Space
70
0
10
0
20
0
30
0
3
*Model_Space
0
ENDBLK
5
21
100
AcDbEntity
8
0
100
AcDbBlockEnd
0
BLOCK
5
1C
100
AcDbEntity
8
0
100
AcDbBlockBegin
2
*Paper_Space
70
0
10
0
20
0
30
0
3
*Paper_Space
0
ENDBLK
5
1D
100
AcDbEntity
8
0
100
AcDbBlockEnd
0
BLOCK
5
24
100
AcDbEntity
8
0
100
AcDbBlockBegin
2
*Paper_Space0
70
0
10
0
20
0
30
0
3
*Paper_Space0
0
ENDBLK
5
25
100
AcDbEntity
8
0
100
AcDbBlockEnd
0
BLOCK
5
12B
100
AcDbEntity
8
0
100
AcDbBlockBegin
2
*D1
70
1
10
0
20
0
30
0
3
*D1
0
LINE
5
12D
100
AcDbEntity
8
0
62
256
6
ByLayer
370
-2
48
1
60
0
100
AcDbLine
10
126.5875
20
10.6625
30
0
11
154.75
21
10.6625
31
0
39
0
210
0
220
0
230
1
0
LINE
5
12E
100
AcDbEntity
8
0
62
256
6
ByLayer
370
-2
48
1
60
0
100
AcDbLine
10
1.5875
20
-9.9375
30
0
11
154.75
21
-9.9375
31
0
39
0
210
0
220
0
230
1
0
LINE
5
12F
100
AcDbEntity
8
0
62
256
6
ByLayer
370
-2
48
1
60
0
100
AcDbLine
10
152.75
20
7.1625
30
0
11
152.75
21
-6.4375
31
0
39
0
210
0
220
0
230
1
0
SOLID
5
130
100
AcDbEntity
8
0
62
256
6
ByLayer
370
-1
48
1
60
0
100
AcDbTrace
10
153.333333
20
7.1625
30
0
11
152.166667
21
7.1625
31
0
12
152.75
22
10.6625
32
0
13
152.75
23
10.6625
33
0
39
0
210
0
220
0
230
1
0
SOLID
5
131
100
AcDbEntity
8
0
62
256
6
ByLayer
370
-1
48
1
60
0
100
AcDbTrace
10
152.166667
20
-6.4375
30
0
11
153.333333
21
-6.4375
31
0
12
152.75
22
-9.9375
32
0
13
152.75
23
-9.9375
33
0
39
0
210
0
220
0
230
1
0
MTEXT
5
132
100
AcDbEntity
8
0
62
256
6
ByLayer
370
18
48
1
60
0
100
AcDbMText
10
145.75
20
0.3625
30
0
210
0
220
0
230
1
1
\A1;20.6
40
3.5
41
0
44
1
50
90
71
5
72
5
7
iso_b_vert
0
POINT
5
133
100
AcDbEntity
8
Defpoints
62
0
6
ByLayer
370
-1
48
1
60
0
100
AcDbPoint
10
125
20
10.6625
30
0
39
0
210
0
220
0
230
1
50
360
0
POINT
5
134
100
AcDbEntity
8
Defpoints
62
0
6
ByLayer
370
-1
48
1
60
0
100
AcDbPoint
10
0
20
-9.9375
30
0
39
0
210
0
220
0
230
1
50
360
0
POINT
5
135
100
AcDbEntity
8
Defpoints
62
0
6
ByLayer
370
-1
48
1
60
0
100
AcDbPoint
10
152.75
20
-9.9375
30
0
39
0
210
0
220
0
230
1
50
360
0
ENDBLK
5
12C
100
AcDbEntity
8
0
100
AcDbBlockEnd
0
BLOCK
5
13E
100
AcDbEntity
8
0
100
AcDbBlockBegin
2
_U0
70
0
10
0
20
0
30
0
3
_U0
0
MTEXT
5
138
100
AcDbEntity
8
2
62
256
6
ByLayer
370
18
48
1
60
0
100
AcDbMText
10
152.060366
20
-3.587199
30
0
210
0
220
0
230
1
1
\W0.7346;20.6
40
3.5
41
0
44
1.084337
50
90
71
7
72
5
7
iso_b_vert
0
LINE
5
139
100
AcDbEntity
8
2
62
256
6
ByLayer
370
13
48
1
60
0
100
AcDbLine
10
126.5875
20
10.6625
30
0
11
154.75
21
10.6625
31
0
39
0
210
0
220
0
230
1
0
LINE
5
13A
100
AcDbEntity
8
2
62
256
6
ByLayer
370
13
48
1
60
0
100
AcDbLine
10
1.5875
20
-9.9375
30
0
11
154.75
21
-9.9375
31
0
39
0
210
0
220
0
230
1
0
LINE
5
13B
100
AcDbEntity
8
2
62
256
6
ByLayer
370
13
48
1
60
0
100
AcDbLine
10
152.75
20
10.6625
30
0
11
152.75
21
-9.9375
31
0
39
0
210
0
220
0
230
1
0
SOLID
5
13C
100
AcDbEntity
8
2
62
256
6
ByLayer
370
18
48
1
60
0
100
AcDbTrace
10
152.75
20
10.6625
30
0
11
153.210784
21
7.162502
31
0
12
152.289216
22
7.162498
32
0
13
152.289216
23
7.162498
33
0
39
0
210
0
220
0
230
1
0
SOLID
5
13D
100
AcDbEntity
8
2
62
256
6
ByLayer
370
18
48
1
60
0
100
AcDbTrace
10
152.75
20
-9.9375
30
0
11
152.289216
21
-6.437502
31
0
12
153.210784
22
-6.437498
32
0
13
153.210784
23
-6.437498
33
0
39
0
210
0
220
0
230
1
0
ENDBLK
5
13F
100
AcDbEntity
8
0
100
AcDbBlockEnd
0
BLOCK
5
144
100
AcDbEntity
8
0
100
AcDbBlockBegin
2
*D3
70
1
10
0
20
0
30
0
3
*D3
0
LINE
5
146
100
AcDbEntity
8
0
62
256
6
ByLayer
370
-2
48
1
60
0
100
AcDbLine
10
126.5875
20
7.6625
30
0
11
147.1
21
7.6625
31
0
39
0
210
0
220
0
230
1
0
LINE
5
147
100
AcDbEntity
8
0
62
256
6
ByLayer
370
-2
48
1
60
0
100
AcDbLine
10
126.5875
20
10.6625
30
0
11
147.1
21
10.6625
31
0
39
0
210
0
220
0
230
1
0
LINE
5
148
100
AcDbEntity
8
0
62
256
6
ByLayer
370
-2
48
1
60
0
100
AcDbLine
10
145.1
20
4.1625
30
0
11
145.1
21
0.6625
31
0
39
0
210
0
220
0
230
1
0
LINE
5
149
100
AcDbEntity
8
0
62
256
6
ByLayer
370
-2
48
1
60
0
100
AcDbLine
10
145.1
20
14.1625
30
0
11
145.1
21
17.6625
31
0
39
0
210
0
220
0
230
1
0
SOLID
5
14A
100
AcDbEntity
8
0
62
256
6
ByLayer
370
-1
48
1
60
0
100
AcDbTrace
10
145.683333
20
4.1625
30
0
11
144.516667
21
4.1625
31
0
12
145.1
22
7.6625
32
0
13
145.1
23
7.6625
33
0
39
0
210
0
220
0
230
1
0
SOLID
5
14B
100
AcDbEntity
8
0
62
256
6
ByLayer
370
-1
48
1
60
0
100
AcDbTrace
10
144.516667
20
14.1625
30
0
11
145.683333
21
14.1625
31
0
12
145.1
22
10.6625
32
0
13
145.1
23
10.6625
33
0
39
0
210
0
220
0
230
1
0
MTEXT
5
14C
100
AcDbEntity
8
0
62
256
6
ByLayer
370
18
48
1
60
0
100
AcDbMText
10
138.1
20
9.1625
30
0
210
0
220
0
230
1
1
\A1;3
40
3.5
41
0
44
1
50
90
71
5
72
5
7
iso_b_vert
0
POINT
5
14D
100
AcDbEntity
8
Defpoints
62
0
6
ByLayer
370
-1
48
1
60
0
100
AcDbPoint
10
125
20
7.6625
30
0
39
0
210
0
220
0
230
1
50
360
0
POINT
5
14E
100
AcDbEntity
8
Defpoints
62
0
6
ByLayer
370
-1
48
1
60
0
100
AcDbPoint
10
125
20
10.6625
30
0
39
0
210
0
220
0
230
1
50
360
0
POINT
5
14F
100
AcDbEntity
8
Defpoints
62
0
6
ByLayer
370
-1
48
1
60
0
100
AcDbPoint
10
145.1
20
10.6625
30
0
39
0
210
0
220
0
230
1
50
360
0
ENDBLK
5
145
100
AcDbEntity
8
0
100
AcDbBlockEnd
0
BLOCK
5
157
100
AcDbEntity
8
0
100
AcDbBlockBegin
2
_U1
70
0
10
0
20
0
30
0
3
_U1
0
MTEXT
5
151
100
AcDbEntity
8
2
62
256
6
ByLayer
370
18
48
1
60
0
100
AcDbMText
10
144.410366
20
8.537267
30
0
210
0
220
0
230
1
1
\W0.5404;3
40
3.5
41
0
44
1.084337
50
90
71
7
72
5
7
iso_b_vert
0
LINE
5
152
100
AcDbEntity
8
2
62
256
6
ByLayer
370
13
48
1
60
0
100
AcDbLine
10
126.5875
20
7.6625
30
0
11
147.1
21
7.6625
31
0
39
0
210
0
220
0
230
1
0
LINE
5
153
100
AcDbEntity
8
2
62
256
6
ByLayer
370
13
48
1
60
0
100
AcDbLine
10
126.5875
20
10.6625
30
0
11
147.1
21
10.6625
31
0
39
0
210
0
220
0
230
1
0
LINE
5
154
100
AcDbEntity
8
2
62
256
6
ByLayer
370
13
48
1
60
0
100
AcDbLine
10
145.1
20
-1.0875
30
0
11
145.1
21
19.4125
31
0
39
0
210
0
220
0
230
1
0
SOLID
5
155
100
AcDbEntity
8
2
62
256
6
ByLayer
370
18
48
1
60
0
100
AcDbTrace
10
145.1
20
7.6625
30
0
11
145.560784
21
4.162502
31
0
12
144.639216
22
4.162498
32
0
13
144.639216
23
4.162498
33
0
39
0
210
0
220
0
230
1
0
SOLID
5
156
100
AcDbEntity
8
2
62
256
6
ByLayer
370
18
48
1
60
0
100
AcDbTrace
10
145.1
20
10.6625
30
0
11
144.639216
21
14.162498
31
0
12
145.560784
22
14.162502
32
0
13
145.560784
23
14.162502
33
0
39
0
210
0
220
0
230
1
0
ENDBLK
5
158
100
AcDbEntity
8
0
100
AcDbBlockEnd
0
BLOCK
5
15D
100
AcDbEntity
8
0
100
AcDbBlockBegin
2
*D5
70
1
10
0
20
0
30
0
3
*D5
0
LINE
5
15F
100
AcDbEntity
8
0
62
256
6
ByLayer
370
-2
48
1
60
0
100
AcDbLine
10
-1.5875
20
-9.9375
30
0
11
-18.6
21
-9.9375
31
0
39
0
210
0
220
0
230
1
0
LINE
5
160
100
AcDbEntity
8
0
62
256
6
ByLayer
370
-2
48
1
60
0
100
AcDbLine
10
-1.5875
20
10.0625
30
0
11
-18.6
21
10.0625
31
0
39
0
210
0
220
0
230
1
0
LINE
5
161
100
AcDbEntity
8
0
62
256
6
ByLayer
370
-2
48
1
60
0
100
AcDbLine
10
-16.6
20
-6.4375
30
0
11
-16.6
21
6.5625
31
0
39
0
210
0
220
0
230
1
0
SOLID
5
162
100
AcDbEntity
8
0
62
256
6
ByLayer
370
-1
48
1
60
0
100
AcDbTrace
10
-17.183333
20
-6.4375
30
0
11
-16.016667
21
-6.4375
31
0
12
-16.6
22
-9.9375
32
0
13
-16.6
23
-9.9375
33
0
39
0
210
0
220
0
230
1
0
SOLID
5
163
100
AcDbEntity
8
0
62
256
6
ByLayer
370
-1
48
1
60
0
100
AcDbTrace
10
-16.016667
20
6.5625
30
0
11
-17.183333
21
6.5625
31
0
12
-16.6
22
10.0625
32
0
13
-16.6
23
10.0625
33
0
39
0
210
0
220
0
230
1
0
MTEXT
5
164
100
AcDbEntity
8
0
62
256
6
ByLayer
370
18
48
1
60
0
100
AcDbMText
10
-23.6
20
0.0625
30
0
210
0
220
0
230
1
1
\A1;20
40
3.5
41
0
44
1
50
90
71
5
72
5
7
iso_b_vert
0
POINT
5
165
100
AcDbEntity
8
Defpoints
62
0
6
ByLayer
370
-1
48
1
60
0
100
AcDbPoint
10
0
20
-9.9375
30
0
39
0
210
0
220
0
230
1
50
360
0
POINT
5
166
100
AcDbEntity
8
Defpoints
62
0
6
ByLayer
370
-1
48
1
60
0
100
AcDbPoint
10
0
20
10.0625
30
0
39
0
210
0
220
0
230
1
50
360
0
POINT
5
167
100
AcDbEntity
8
Defpoints
62
0
6
ByLayer
370
-1
48
1
60
0
100
AcDbPoint
10
-16.6
20
10.0625
30
0
39
0
210
0
220
0
230
1
50
360
0
ENDBLK
5
15E
100
AcDbEntity
8
0
100
AcDbBlockEnd
0
BLOCK
5
170
100
AcDbEntity
8
0
100
AcDbBlockBegin
2
_U2
70
0
10
0
20
0
30
0
3
_U2
0
MTEXT
5
16A
100
AcDbEntity
8
SK2
62
256
6
ByLayer
370
18
48
1
60
0
100
AcDbMText
10
-17.289634
20
-1.870466
30
0
210
0
220
0
230
1
1
\W0.6740;20
40
3.5
41
0
44
1.084337
50
90
71
7
72
5
7
iso_b_vert
0
LINE
5
16B
100
AcDbEntity
8
SK2
62
256
6
ByLayer
370
13
48
1
60
0
100
AcDbLine
10
-1.5875
20
-9.9375
30
0
11
-18.6
21
-9.9375
31
0
39
0
210
0
220
0
230
1
0
LINE
5
16C
100
AcDbEntity
8
SK2
62
256
6
ByLayer
370
13
48
1
60
0
100
AcDbLine
10
-1.5875
20
10.0625
30
0
11
-18.6
21
10.0625
31
0
39
0
210
0
220
0
230
1
0
LINE
5
16D
100
AcDbEntity
8
SK2
62
256
6
ByLayer
370
13
48
1
60
0
100
AcDbLine
10
-16.6
20
-9.9375
30
0
11
-16.6
21
10.0625
31
0
39
0
210
0
220
0
230
1
0
SOLID
5
16E
100
AcDbEntity
8
SK2
62
256
6
ByLayer
370
18
48
1
60
0
100
AcDbTrace
10
-16.6
20
-9.9375
30
0
11
-17.060784
21
-6.437502
31
0
12
-16.139216
22
-6.437498
32
0
13
-16.139216
23
-6.437498
33
0
39
0
210
0
220
0
230
1
0
SOLID
5
16F
100
AcDbEntity
8
SK2
62
256
6
ByLayer
370
18
48
1
60
0
100
AcDbTrace
10
-16.6
20
10.0625
30
0
11
-16.139216
21
6.562502
31
0
12
-17.060784
22
6.562498
32
0
13
-17.060784
23
6.562498
33
0
39
0
210
0
220
0
230
1
0
ENDBLK
5
171
100
AcDbEntity
8
0
100
AcDbBlockEnd
0
BLOCK
5
176
100
AcDbEntity
8
0
100
AcDbBlockBegin
2
*D7
70
1
10
0
20
0
30
0
3
*D7
0
LINE
5
178
100
AcDbEntity
8
0
62
256
6
ByLayer
370
-2
48
1
60
0
100
AcDbLine
10
103
20
7.575
30
0
11
103
21
-23.6875
31
0
39
0
210
0
220
0
230
1
0
LINE
5
179
100
AcDbEntity
8
0
62
256
6
ByLayer
370
-2
48
1
60
0
100
AcDbLine
10
125
20
7.575
30
0
11
125
21
-23.6875
31
0
39
0
210
0
220
0
230
1
0
LINE
5
17A
100
AcDbEntity
8
0
62
256
6
ByLayer
370
-2
48
1
60
0
100
AcDbLine
10
106.5
20
-21.6875
30
0
11
121.5
21
-21.6875
31
0
39
0
210
0
220
0
230
1
0
SOLID
5
17B
100
AcDbEntity
8
0
62
256
6
ByLayer
370
-1
48
1
60
0
100
AcDbTrace
10
106.5
20
-21.104167
30
0
11
106.5
21
-22.270833
31
0
12
103
22
-21.6875
32
0
13
103
23
-21.6875
33
0
39
0
210
0
220
0
230
1
0
SOLID
5
17C
100
AcDbEntity
8
0
62
256
6
ByLayer
370
-1
48
1
60
0
100
AcDbTrace
10
121.5
20
-22.270833
30
0
11
121.5
21
-21.104167
31
0
12
125
22
-21.6875
32
0
13
125
23
-21.6875
33
0
39
0
210
0
220
0
230
1
0
MTEXT
5
17D
100
AcDbEntity
8
0
62
256
6
ByLayer
370
18
48
1
60
0
100
AcDbMText
10
114
20
-14.6875
30
0
210
0
220
0
230
1
1
\A1;22
40
3.5
41
0
44
1
50
0
71
5
72
5
7
iso_b_vert
0
POINT
5
17E
100
AcDbEntity
8
Defpoints
62
0
6
ByLayer
370
-1
48
1
60
0
100
AcDbPoint
10
103
20
9.1625
30
0
39
0
210
0
220
0
230
1
50
360
0
POINT
5
17F
100
AcDbEntity
8
Defpoints
62
0
6
ByLayer
370
-1
48
1
60
0
100
AcDbPoint
10
125
20
9.1625
30
0
39
0
210
0
220
0
230
1
50
360
0
POINT
5
180
100
AcDbEntity
8
Defpoints
62
0
6
ByLayer
370
-1
48
1
60
0
100
AcDbPoint
10
125
20
-21.6875
30
0
39
0
210
0
220
0
230
1
50
360
0
ENDBLK
5
177
100
AcDbEntity
8
0
100
AcDbBlockEnd
0
BLOCK
5
188
100
AcDbEntity
8
0
100
AcDbBlockBegin
2
_U3
70
0
10
0
20
0
30
0
3
_U3
0
MTEXT
5
182
100
AcDbEntity
8
2
62
256
6
ByLayer
370
18
48
1
60
0
100
AcDbMText
10
112.095034
20
-20.654866
30
0
210
0
220
0
230
1
1
\W0.6740;22
40
3.5
41
0
44
1.084337
50
0
71
7
72
5
7
iso_b_vert
0
LINE
5
183
100
AcDbEntity
8
2
62
256
6
ByLayer
370
13
48
1
60
0
100
AcDbLine
10
103
20
7.575
30
0
11
103
21
-23.6875
31
0
39
0
210
0
220
0
230
1
0
LINE
5
184
100
AcDbEntity
8
2
62
256
6
ByLayer
370
13
48
1
60
0
100
AcDbLine
10
125
20
7.575
30
0
11
125
21
-23.6875
31
0
39
0
210
0
220
0
230
1
0
LINE
5
185
100
AcDbEntity
8
2
62
256
6
ByLayer
370
13
48
1
60
0
100
AcDbLine
10
103
20
-21.6875
30
0
11
125
21
-21.6875
31
0
39
0
210
0
220
0
230
1
0
SOLID
5
186
100
AcDbEntity
8
2
62
256
6
ByLayer
370
18
48
1
60
0
100
AcDbTrace
10
103
20
-21.6875
30
0
11
106.499998
21
-21.226716
31
0
12
106.500002
22
-22.148284
32
0
13
106.500002
23
-22.148284
33
0
39
0
210
0
220
0
230
1
0
SOLID
5
187
100
AcDbEntity
8
2
62
256
6
ByLayer
370
18
48
1
60
0
100
AcDbTrace
10
125
20
-21.6875
30
0
11
121.500002
21
-22.148284
31
0
12
121.499998
22
-21.226716
32
0
13
121.499998
23
-21.226716
33
0
39
0
210
0
220
0
230
1
0
ENDBLK
5
189
100
AcDbEntity
8
0
100
AcDbBlockEnd
0
BLOCK
5
18E
100
AcDbEntity
8
0
100
AcDbBlockBegin
2
*D9
70
1
10
0
20
0
30
0
3
*D9
0
LINE
5
190
100
AcDbEntity
8
0
62
256
6
ByLayer
370
-2
48
1
60
0
100
AcDbLine
10
0
20
-11.525
30
0
11
0
21
-29.6875
31
0
39
0
210
0
220
0
230
1
0
LINE
5
191
100
AcDbEntity
8
0
62
256
6
ByLayer
370
-2
48
1
60
0
100
AcDbLine
10
125
20
9.075
30
0
11
125
21
-29.6875
31
0
39
0
210
0
220
0
230
1
0
LINE
5
192
100
AcDbEntity
8
0
62
256
6
ByLayer
370
-2
48
1
60
0
100
AcDbLine
10
3.5
20
-27.6875
30
0
11
121.5
21
-27.6875
31
0
39
0
210
0
220
0
230
1
0
SOLID
5
193
100
AcDbEntity
8
0
62
256
6
ByLayer
370
-1
48
1
60
0
100
AcDbTrace
10
3.5
20
-27.104167
30
0
11
3.5
21
-28.270833
31
0
12
0
22
-27.6875
32
0
13
0
23
-27.6875
33
0
39
0
210
0
220
0
230
1
0
SOLID
5
194
100
AcDbEntity
8
0
62
256
6
ByLayer
370
-1
48
1
60
0
100
AcDbTrace
10
121.5
20
-28.270833
30
0
11
121.5
21
-27.104167
31
0
12
125
22
-27.6875
32
0
13
125
23
-27.6875
33
0
39
0
210
0
220
0
230
1
0
MTEXT
5
195
100
AcDbEntity
8
0
62
256
6
ByLayer
370
18
48
1
60
0
100
AcDbMText
10
62.5
20
-20.6875
30
0
210
0
220
0
230
1
1
\A1;125
40
3.5
41
0
44
1
50
0
71
5
72
5
7
iso_b_vert
0
POINT
5
196
100
AcDbEntity
8
Defpoints
62
0
6
ByLayer
370
-1
48
1
60
0
100
AcDbPoint
10
0
20
-9.9375
30
0
39
0
210
0
220
0
230
1
50
360
0
POINT
5
197
100
AcDbEntity
8
Defpoints
62
0
6
ByLayer
370
-1
48
1
60
0
100
AcDbPoint
10
125
20
10.6625
30
0
39
0
210
0
220
0
230
1
50
360
0
POINT
5
198
100
AcDbEntity
8
Defpoints
62
0
6
ByLayer
370
-1
48
1
60
0
100
AcDbPoint
10
125
20
-27.6875
30
0
39
0
210
0
220
0
230
1
50
360
0
ENDBLK
5
18F
100
AcDbEntity
8
0
100
AcDbBlockEnd
0
BLOCK
5
1A0
100
AcDbEntity
8
0
100
AcDbBlockBegin
2
_U4
70
0
10
0
20
0
30
0
3
_U4
0
MTEXT
5
19A
100
AcDbEntity
8
SK2
62
256
6
ByLayer
370
18
48
1
60
0
100
AcDbMText
10
59.724734
20
-26.654866
30
0
210
0
220
0
230
1
1
\W0.6217;125
40
3.5
41
0
44
1.084337
50
0
71
7
72
5
7
iso_b_vert
0
LINE
5
19B
100
AcDbEntity
8
SK2
62
256
6
ByLayer
370
13
48
1
60
0
100
AcDbLine
10
0
20
-11.525
30
0
11
0
21
-29.6875
31
0
39
0
210
0
220
0
230
1
0
LINE
5
19C
100
AcDbEntity
8
SK2
62
256
6
ByLayer
370
13
48
1
60
0
100
AcDbLine
10
125
20
9.075
30
0
11
125
21
-29.6875
31
0
39
0
210
0
220
0
230
1
0
LINE
5
19D
100
AcDbEntity
8
SK2
62
256
6
ByLayer
370
13
48
1
60
0
100
AcDbLine
10
0
20
-27.6875
30
0
11
125
21
-27.6875
31
0
39
0
210
0
220
0
230
1
0
SOLID
5
19E
100
AcDbEntity
8
SK2
62
256
6
ByLayer
370
18
48
1
60
0
100
AcDbTrace
10
0
20
-27.6875
30
0
11
3.499998
21
-27.226716
31
0
12
3.500002
22
-28.148284
32
0
13
3.500002
23
-28.148284
33
0
39
0
210
0
220
0
230
1
0
SOLID
5
19F
100
AcDbEntity
8
SK2
62
256
6
ByLayer
370
18
48
1
60
0
100
AcDbTrace
10
125
20
-27.6875
30
0
11
121.500002
21
-28.148284
31
0
12
121.499998
22
-27.226716
32
0
13
121.499998
23
-27.226716
33
0
39
0
210
0
220
0
230
1
0
ENDBLK
5
1A1
100
AcDbEntity
8
0
100
AcDbBlockEnd
0
ENDSEC
0
SECTION
2
ENTITIES
0
ARC
5
DB
100
AcDbEntity
8
1
62
256
6
ByLayer
370
18
48
1
60
0
100
AcDbCircle
39
0
10
95.85
20
2.3625
30
0
40
1.416
210
0
220
0
230
1
100
AcDbArc
50
150.190711
51
209.809289
0
ARC
5
DC
100
AcDbEntity
8
1
62
256
6
ByLayer
370
18
48
1
60
0
100
AcDbCircle
39
0
10
95.85
20
2.3625
30
0
40
1.416
210
0
220
0
230
1
100
AcDbArc
50
276.192438
51
330.190711
0
ARC
5
DD
100
AcDbEntity
8
1
62
256
6
ByLayer
370
18
48
1
60
0
100
AcDbCircle
39
0
10
95.85
20
2.3625
30
0
40
1.416
210
0
220
0
230
1
100
AcDbArc
50
209.809289
51
263.807562
0
ARC
5
DE
100
AcDbEntity
8
1
62
256
6
ByLayer
370
18
48
1
60
0
100
AcDbCircle
39
0
10
95.85
20
2.3625
30
0
40
1.416
210
0
220
0
230
1
100
AcDbArc
50
29.809289
51
83.807562
0
ARC
5
DF
100
AcDbEntity
8
1
62
256
6
ByLayer
370
18
48
1
60
0
100
AcDbCircle
39
0
10
95.85
20
2.3625
30
0
40
1.416
210
0
220
0
230
1
100
AcDbArc
50
96.192438
51
150.190711
0
ARC
5
E0
100
AcDbEntity
8
1
62
256
6
ByLayer
370
18
48
1
60
0
100
AcDbCircle
39
0
10
95.85
20
2.3625
30
0
40
1.416
210
0
220
0
230
1
100
AcDbArc
50
330.190711
51
29.809289
0
ARC
5
E1
100
AcDbEntity
8
1
62
256
6
ByLayer
370
18
48
1
60
0
100
AcDbCircle
39
0
10
95.85
20
2.3625
30
0
40
1.416
210
0
220
0
230
1
100
AcDbArc
50
263.807562
51
276.192438
0
ARC
5
E2
100
AcDbEntity
8
1
62
256
6
ByLayer
370
18
48
1
60
0
100
AcDbCircle
39
0
10
95.85
20
2.3625
30
0
40
1.416
210
0
220
0
230
1
100
AcDbArc
50
83.807562
51
96.192438
0
ARC
5
E3
100
AcDbEntity
8
1
62
256
6
ByLayer
370
18
48
1
60
0
100
AcDbCircle
39
0
10
95.85
20
2.3625
30
0
40
1.9685
210
0
220
0
230
1
100
AcDbArc
50
300.381422
51
0
0
ARC
5
E4
100
AcDbEntity
8
1
62
256
6
ByLayer
370
18
48
1
60
0
100
AcDbCircle
39
0
10
95.85
20
2.3625
30
0
40
1.9685
210
0
220
0
230
1
100
AcDbArc
50
239.618578
51
300.381422
0
ARC
5
E5
100
AcDbEntity
8
1
62
256
6
ByLayer
370
18
48
1
60
0
100
AcDbCircle
39
0
10
95.85
20
2.3625
30
0
40
1.9685
210
0
220
0
230
1
100
AcDbArc
50
180
51
239.618578
0
ARC
5
E6
100
AcDbEntity
8
1
62
256
6
ByLayer
370
18
48
1
60
0
100
AcDbCircle
39
0
10
95.85
20
2.3625
30
0
40
1.9685
210
0
220
0
230
1
100
AcDbArc
50
120.381422
51
180
0
ARC
5
E7
100
AcDbEntity
8
1
62
256
6
ByLayer
370
18
48
1
60
0
100
AcDbCircle
39
0
10
95.85
20
2.3625
30
0
40
1.9685
210
0
220
0
230
1
100
AcDbArc
50
59.618578
51
120.381422
0
ARC
5
E8
100
AcDbEntity
8
1
62
256
6
ByLayer
370
18
48
1
60
0
100
AcDbCircle
39
0
10
95.85
20
2.3625
30
0
40
1.9685
210
0
220
0
230
1
100
AcDbArc
50
0
51
59.618578
0
ARC
5
EB
100
AcDbEntity
8
1
62
256
6
ByLayer
370
18
48
1
60
0
100
AcDbCircle
39
0
10
103
20
6.3875
30
0
40
1.6
210
0
220
0
230
1
100
AcDbArc
50
90
51
180
0
CIRCLE
5
E9
100
AcDbEntity
8
1
62
256
6
ByLayer
370
18
48
1
60
0
100
AcDbCircle
10
95.85
20
2.3625
30
0
40
4.25
39
0
210
0
220
0
230
1
0
CIRCLE
5
EA
100
AcDbEntity
8
1
62
256
6
ByLayer
370
18
48
1
60
0
100
AcDbCircle
10
95.85
20
2.3625
30
0
40
3.75
39
0
210
0
220
0
230
1
0
CIRCLE
5
EC
100
AcDbEntity
8
1
62
256
6
ByLayer
370
18
48
1
60
0
100
AcDbCircle
10
95.85
20
2.3625
30
0
40
4.55
39
0
210
0
220
0
230
1
0
ELLIPSE
5
ED
100
AcDbEntity
8
1
62
256
6
ByLayer
370
18
48
1
60
0
100
AcDbEllipse
10
81.795788
20
-9.947099
30
0
11
3.00000000000001
21
3.51436609374758E-15
31
0
210
0
220
0
230
1
40
0.004363
41
0.261799387798948
42
2.3183806764637
0
ELLIPSE
5
EE
100
AcDbEntity
8
1
62
256
6
ByLayer
370
18
48
1
60
0
100
AcDbEllipse
10
121.228061
20
11.1125
30
0
11
0.897993681942354
21
1.05195951607258E-15
31
0
210
0
220
0
230
1
40
0.890875
41
-1.5707963267949
42
-1.29515256589099
0
ELLIPSE
5
EF
100
AcDbEntity
8
1
62
256
6
ByLayer
370
18
48
1
60
0
100
AcDbEllipse
10
119.623179
20
10.187938
30
0
11
0.850692273023188
21
9.96548026841914E-16
31
0
210
0
220
0
230
1
40
0.176327
41
3.14159265358979
42
-2.80561677259807
0
ELLIPSE
5
F0
100
AcDbEntity
8
1
62
256
6
ByLayer
370
18
48
1
60
0
100
AcDbEllipse
10
121.095006
20
9.596436
30
0
11
1.13425636391738
21
1.32873070232288E-15
31
0
210
0
220
0
230
1
40
0.176327
41
-2.8056167725808
42
-1.98717825108443
0
ELLIPSE
5
F1
100
AcDbEntity
8
1
62
256
6
ByLayer
370
18
48
1
60
0
100
AcDbEllipse
10
125.223799
20
11.242641
30
0
11
11.3425636083475
21
-3.53168186403377E-09
31
0
210
0
220
0
230
1
40
0.176327
41
-1.98717825019745
42
-1.91986217614883
0
ELLIPSE
5
F2
100
AcDbEntity
8
1
62
256
6
ByLayer
370
18
48
1
60
0
100
AcDbEllipse
10
120.990371
20
9.1625
30
0
11
1.19096918211252
21
1.39516723743817E-15
31
0
210
0
220
0
230
1
40
0.176327
41
0
42
1.22173047639599
0
ELLIPSE
5
F3
100
AcDbEntity
8
1
62
256
6
ByLayer
370
18
48
1
60
0
100
AcDbEllipse
10
120.990371
20
9.1625
30
0
11
1.19096918211252
21
1.39516723743817E-15
31
0
210
0
220
0
230
1
40
0.176327
41
-1.22173047639599
42
0
0
ELLIPSE
5
F4
100
AcDbEntity
8
1
62
256
6
ByLayer
370
18
48
1
60
0
100
AcDbEllipse
10
125.223799
20
7.082359
30
0
11
11.3425635167118
21
1.34917337918874E-08
31
0
210
0
220
0
230
1
40
0.176327
41
1.91986217342773
42
1.98717824795734
0
ELLIPSE
5
F5
100
AcDbEntity
8
1
62
256
6
ByLayer
370
18
48
1
60
0
100
AcDbEllipse
10
121.095006
20
8.728564
30
0
11
1.13425636391866
21
1.32873070232438E-15
31
0
210
0
220
0
230
1
40
0.176327
41
1.98717825108485
42
2.80561677258026
0
ELLIPSE
5
F6
100
AcDbEntity
8
1
62
256
6
ByLayer
370
18
48
1
60
0
100
AcDbEllipse
10
119.623179
20
8.137062
30
0
11
0.850692273110886
21
9.96548026944649E-16
31
0
210
0
220
0
230
1
40
0.176327
41
2.80561677261567
42
3.14159265358979
0
ELLIPSE
5
F7
100
AcDbEntity
8
1
62
256
6
ByLayer
370
18
48
1
60
0
100
AcDbEllipse
10
121.228061
20
7.2125
30
0
11
0.897993681827315
21
1.05195951593782E-15
31
0
210
0
220
0
230
1
40
0.890875
41
1.29515256585568
42
1.5707963267949
0
ELLIPSE
5
F8
100
AcDbEntity
8
1
62
256
6
ByLayer
370
18
48
1
60
0
100
AcDbEllipse
10
120.571498
20
9.9125
30
0
11
-2.3287088041805E-17
21
-0.126773189709051
31
0
210
0
220
0
230
1
40
0.984808
41
0
42
6.28318530717959
0
POINT
5
70
100
AcDbEntity
8
80
62
256
6
ByLayer
370
18
48
1
60
0
100
AcDbPoint
10
0
20
0
30
0
39
0
210
0
220
0
230
1
50
360
0
POINT
5
72
100
AcDbEntity
8
81
62
256
6
ByLayer
370
18
48
1
60
0
100
AcDbPoint
10
125
20
10.6625
30
0
39
0
210
0
220
0
230
1
50
360
0
POINT
5
74
100
AcDbEntity
8
1
62
256
6
ByLayer
370
18
48
1
60
0
100
AcDbPoint
10
0
20
-9.9375
30
0
39
0
210
0
220
0
230
1
50
360
0
POINT
5
76
100
AcDbEntity
8
81
62
256
6
ByLayer
370
18
48
1
60
0
100
AcDbPoint
10
125
20
10.6625
30
0
39
0
210
0
220
0
230
1
50
360
0
POINT
5
77
100
AcDbEntity
8
1
62
256
6
ByLayer
370
18
48
1
60
1
100
AcDbPoint
10
125
20
10.6625
30
0
39
0
210
0
220
0
230
1
50
360
0
POINT
5
78
100
AcDbEntity
8
1
62
256
6
ByLayer
370
18
48
1
60
1
100
AcDbPoint
10
0
20
-9.9375
30
0
39
0
210
0
220
0
230
1
50
360
0
POINT
5
79
100
AcDbEntity
8
1
62
256
6
ByLayer
370
18
48
1
60
1
100
AcDbPoint
10
125
20
7.6625
30
0
39
0
210
0
220
0
230
1
50
360
0
POINT
5
7A
100
AcDbEntity
8
1
62
256
6
ByLayer
370
18
48
1
60
1
100
AcDbPoint
10
0
20
-9.9375
30
0
39
0
210
0
220
0
230
1
50
360
0
POINT
5
7B
100
AcDbEntity
8
1
62
256
6
ByLayer
370
18
48
1
60
1
100
AcDbPoint
10
0
20
10.0625
30
0
39
0
210
0
220
0
230
1
50
360
0
POINT
5
7C
100
AcDbEntity
8
1
62
256
6
ByLayer
370
18
48
1
60
1
100
AcDbPoint
10
103
20
9.1625
30
0
39
0
210
0
220
0
230
1
50
360
0
POINT
5
7D
100
AcDbEntity
8
1
62
256
6
ByLayer
370
18
48
1
60
1
100
AcDbPoint
10
125
20
9.1625
30
0
39
0
210
0
220
0
230
1
50
360
0
POINT
5
7E
100
AcDbEntity
8
1
62
256
6
ByLayer
370
18
48
1
60
1
100
AcDbPoint
10
0
20
-9.9375
30
0
39
0
210
0
220
0
230
1
50
360
0
SPLINE
5
F9
100
AcDbEntity
8
1
62
256
6
ByLayer
370
18
48
1
60
0
100
AcDbSpline
70
4
71
3
72
26
73
22
40
0
40
0
40
0
40
0
40
0.124999999999944
40
0.124999999999944
40
0.249999999999888
40
0.249999999999888
40
0.312499999999858
40
0.312499999999858
40
0.374999999999828
40
0.374999999999828
40
0.499999999999818
40
0.499999999999818
40
0.562499999999813
40
0.562499999999813
40
0.624999999999809
40
0.624999999999809
40
0.749999999999873
40
0.749999999999873
40
0.874999999999936
40
0.874999999999936
40
1
40
1
40
1
40
1
41
1
10
97.8185
20
2.36250000000001
30
0
41
1
10
97.8185
20
2.3812420838797
30
0
41
1
10
97.8168627955046
20
2.40029002412101
30
0
41
1
10
97.8104852806829
20
2.43717054585437
30
0
41
1
10
97.8057727916655
20
2.45514683747936
30
0
41
1
10
97.7964653861032
20
2.48142723056083
30
0
41
1
10
97.7929675250953
20
2.49011361056296
30
0
41
1
10
97.785334130236
20
2.50698254761599
30
0
41
1
10
97.7811990992649
20
2.51517739551585
30
0
41
1
10
97.7678823294157
20
2.5390732518195
30
0
41
1
10
97.7577945624933
20
2.55408993692456
30
0
41
1
10
97.7409047070862
20
2.57527553940841
30
0
41
1
10
97.7349926173844
20
2.58209191856909
30
0
41
1
10
97.7227973718428
20
2.59505958951073
30
0
41
1
10
97.7164912967854
20
2.60124038277121
30
0
41
1
10
97.6969763527758
20
2.61890908220133
30
0
41
1
10
97.6831741276621
20
2.62952827097109
30
0
41
1
10
97.6540455332399
20
2.64850138094616
30
0
41
1
10
97.6389772941862
20
2.65668115880459
30
0
41
1
10
97.6081177476999
20
2.67052201982395
30
0
41
1
10
97.5922948894881
20
2.67620198365543
30
0
41
1
10
97.5760954401443
20
2.68066196954686
30
0
0
SPLINE
5
FA
100
AcDbEntity
8
1
62
256
6
ByLayer
370
18
48
1
60
0
100
AcDbSpline
70
4
71
3
72
24
73
20
40
0
40
0
40
0
40
0
40
0.0625000000000069
40
0.0625000000000069
40
0.125000000000014
40
0.125000000000014
40
0.249999999999948
40
0.249999999999948
40
0.31249999999995
40
0.31249999999995
40
0.374999999999953
40
0.374999999999953
40
0.499999999999962
40
0.499999999999962
40
0.624999999999971
40
0.624999999999971
40
0.74999999999998
40
0.74999999999998
40
1
40
1
40
1
40
1
41
1
10
96.8455768895952
20
4.06068105833978
30
0
41
1
10
96.8536786098131
20
4.05593133782244
30
0
41
1
10
96.8616498092273
20
4.05078978898649
30
0
41
1
10
96.8770930657009
20
4.03985532158603
30
0
41
1
10
96.8845176951367
20
4.03410082777495
30
0
41
1
10
96.9059327516277
20
4.01600705640504
30
0
41
1
10
96.9190702395251
20
4.0028431053359
30
0
41
1
10
96.9370804779762
20
3.98146037283979
30
0
41
1
10
96.9428053544558
20
3.97404312092055
30
0
41
1
10
96.9534709134985
20
3.95895701884024
30
0
41
1
10
96.9584425345147
20
3.95125416851681
30
0
41
1
10
96.9723152303602
20
3.9276865615503
30
0
41
1
10
96.9801807177285
20
3.91136555606639
30
0
41
1
10
96.99319032756
20
3.8775376500416
30
0
41
1
10
96.9981650609018
20
3.86047339489599
30
0
41
1
10
97.0053239924833
20
3.82610299775965
30
0
41
1
10
97.0075093069186
20
3.80873705874805
30
0
41
1
10
97.009939210046
20
3.75666944413004
30
0
41
1
10
97.0061392917688
20
3.72310391070849
30
0
41
1
10
96.9974510335848
20
3.69065233797861
30
0
0
SPLINE
5
FB
100
AcDbEntity
8
1
62
256
6
ByLayer
370
18
48
1
60
0
100
AcDbSpline
70
4
71
3
72
34
73
30
40
0
40
0
40
0
40
0
40
0.124999999999999
40
0.124999999999999
40
0.187499999999996
40
0.187499999999996
40
0.218749999999996
40
0.218749999999996
40
0.249999999999996
40
0.249999999999996
40
0.374999999999989
40
0.374999999999989
40
0.406249999999987
40
0.406249999999987
40
0.437499999999986
40
0.499999999999987
40
0.562499999999989
40
0.562499999999989
40
0.62499999999999
40
0.62499999999999
40
0.687499999999991
40
0.687499999999991
40
0.749999999999993
40
0.749999999999993
40
0.874999999999996
40
0.874999999999996
40
0.937499999999998
40
0.937499999999998
40
1
40
1
40
1
40
1
41
1
10
96.9974510335848
20
3.69065233797861
30
0
41
1
10
96.9843344617787
20
3.64166054066771
30
0
41
1
10
96.9757021841093
20
3.59155490158099
30
0
41
1
10
96.9697920396002
20
3.51439762753932
30
0
41
1
10
96.9690034763643
20
3.48834204988259
30
0
41
1
10
96.9697305093599
20
3.4486721053907
30
0
41
1
10
96.9702941991533
20
3.43532019146966
30
0
41
1
10
96.9720841231121
20
3.40854626410066
30
0
41
1
10
96.9733059015271
20
3.39516781005992
30
0
41
1
10
96.9810667159455
20
3.32830545809458
30
0
41
1
10
96.9924898482796
20
3.27491056350018
30
0
41
1
10
97.0142326497362
20
3.20808862454962
30
0
41
1
10
97.0189691450463
20
3.19470380677606
30
0
41
1
10
97.0290646484468
20
3.1683521630066
30
0
41
1
10
97.0451902853305
20
3.12929400704016
30
0
41
1
10
97.0769243633583
20
3.06651379315977
30
0
41
1
10
97.1075308036426
20
3.01877531742272
30
0
41
1
10
97.1408496924492
20
2.97233026845168
30
0
41
1
10
97.1584643199489
20
2.95031360473564
30
0
41
1
10
97.1954460187747
20
2.90855078297548
30
0
41
1
10
97.2148195503294
20
2.88879700866821
30
0
41
1
10
97.2552849051021
20
2.85143969467129
30
0
41
1
10
97.2764595228914
20
2.83379314060147
30
0
41
1
10
97.34098420587
20
2.78512695712485
30
0
41
1
10
97.3857731548309
20
2.75786015162592
30
0
41
1
10
97.4555692050284
20
2.72370755727806
30
0
41
1
10
97.4793508452626
20
2.71343412604776
30
0
41
1
10
97.5273911550033
20
2.69528061880328
30
0
41
1
10
97.5516292402272
20
2.68739793347569
30
0
41
1
10
97.5760954401443
20
2.68066196954686
30
0
0
SPLINE
5
FC
100
AcDbEntity
8
1
62
256
6
ByLayer
370
18
48
1
60
0
100
AcDbSpline
70
4
71
3
72
24
73
20
40
0
40
0
40
0
40
0
40
0.125000000000056
40
0.125000000000056
40
0.187500000000041
40
0.187500000000041
40
0.250000000000026
40
0.250000000000026
40
0.375000000000085
40
0.375000000000085
40
0.500000000000144
40
0.500000000000144
40
0.625000000000204
40
0.625000000000204
40
0.687500000000195
40
0.687500000000195
40
0.750000000000187
40
0.750000000000187
40
1
40
1
40
1
40
1
41
1
10
94.8544231104048
20
0.664318941660241
30
0
41
1
10
94.8710491574261
20
0.654571742974696
30
0
41
1
10
94.8883617511803
20
0.646364263310176
30
0
41
1
10
94.9153474437873
20
0.636334236502336
30
0
41
1
10
94.9245473711184
20
0.633364058704302
30
0
41
1
10
94.9431445348273
20
0.628251450444878
30
0
41
1
10
94.9524509205632
20
0.626130410733936
30
0
41
1
10
94.9803910341182
20
0.621003655386971
30
0
41
1
10
94.9990456597562
20
0.619225926173129
30
0
41
1
10
95.0363999419419
20
0.618818496541678
30
0
41
1
10
95.0552389224264
20
0.620239521995643
30
0
41
1
10
95.0914151049205
20
0.62601270509694
30
0
41
1
10
95.108930473553
20
0.630341375368602
30
0
41
1
10
95.1343888768184
20
0.638847903608792
30
0
41
1
10
95.142738497813
20
0.642020860601264
30
0
41
1
10
95.1591639408511
20
0.649037015530041
30
0
41
1
10
95.1672667445912
20
0.65289714857272
30
0
41
1
10
95.2064158715205
20
0.673515358692953
30
0
41
1
10
95.2339249856771
20
0.694285847626475
30
0
41
1
10
95.2578822958328
20
0.71891737191126
30
0
0
SPLINE
5
FD
100
AcDbEntity
8
1
62
256
6
ByLayer
370
18
48
1
60
0
100
AcDbSpline
70
4
71
3
72
24
73
20
40
0
40
0
40
0
40
0
40
0.249999999999821
40
0.249999999999821
40
0.312499999999815
40
0.312499999999815
40
0.374999999999809
40
0.374999999999809
40
0.499999999999866
40
0.499999999999866
40
0.624999999999923
40
0.624999999999923
40
0.749999999999979
40
0.749999999999979
40
0.812499999999964
40
0.812499999999964
40
0.874999999999949
40
0.874999999999949
40
1
40
1
40
1
40
1
41
1
10
96.4421177041672
20
0.71891737191126
30
0
41
1
10
96.4660750143229
20
0.694285847626475
30
0
41
1
10
96.4935841284794
20
0.673515358692953
30
0
41
1
10
96.5327332554088
20
0.65289714857272
30
0
41
1
10
96.5408360591489
20
0.649037015530041
30
0
41
1
10
96.5572615021869
20
0.642020860601264
30
0
41
1
10
96.5656111231816
20
0.638847903608792
30
0
41
1
10
96.591069526447
20
0.630341375368602
30
0
41
1
10
96.6085848950795
20
0.62601270509694
30
0
41
1
10
96.6447610775736
20
0.620239521995643
30
0
41
1
10
96.6636000580581
20
0.618818496541678
30
0
41
1
10
96.7009543402438
20
0.619225926173129
30
0
41
1
10
96.7196089658818
20
0.621003655386971
30
0
41
1
10
96.7475490794368
20
0.626130410733936
30
0
41
1
10
96.7568554651726
20
0.628251450444878
30
0
41
1
10
96.7754526288815
20
0.633364058704302
30
0
41
1
10
96.7846525562127
20
0.636334236502336
30
0
41
1
10
96.8116382488197
20
0.646364263310176
30
0
41
1
10
96.8289508425739
20
0.654571742974696
30
0
41
1
10
96.8455768895952
20
0.664318941660241
30
0
0
SPLINE
5
FE
100
AcDbEntity
8
1
62
256
6
ByLayer
370
18
48
1
60
0
100
AcDbSpline
70
4
71
3
72
18
73
14
40
0
40
0
40
0
40
0
40
0.250000000000133
40
0.250000000000133
40
0.375000000000164
40
0.375000000000164
40
0.437500000000149
40
0.437500000000149
40
0.500000000000134
40
0.500000000000134
40
0.750000000000067
40
0.750000000000067
40
1
40
1
40
1
40
1
41
1
10
95.6972587066235
20
0.954762063700201
30
0
41
1
10
95.6528337171424
20
0.946402976564855
30
0
41
1
10
95.6104712723167
20
0.934694076136992
30
0
41
1
10
95.5495124020601
20
0.912714700415336
30
0
41
1
10
95.529627187147
20
0.904646017769238
30
0
41
1
10
95.5004148537566
20
0.891459093753156
30
0
41
1
10
95.4907801565428
20
0.886882525553006
30
0
41
1
10
95.4717121243908
20
0.877369290995176
30
0
41
1
10
95.4622579701755
20
0.872420875856136
30
0
41
1
10
95.4157912081224
20
0.8469501468565
30
0
41
1
10
95.381166656145
20
0.824283002532724
30
0
41
1
10
95.3162930246902
20
0.774749470540257
30
0
41
1
10
95.2860508004757
20
0.747878603438039
30
0
41
1
10
95.2578822958328
20
0.71891737191126
30
0
0
SPLINE
5
FF
100
AcDbEntity
8
1
62
256
6
ByLayer
370
18
48
1
60
0
100
AcDbSpline
70
4
71
3
72
17
73
13
40
0
40
0
40
0
40
0
40
0.250000000000045
40
0.250000000000045
40
0.500000000000091
40
0.500000000000091
40
0.562500000000066
40
0.562500000000066
40
0.625000000000041
40
0.75000000000005
40
0.75000000000005
40
1
40
1
40
1
40
1
41
1
10
96.4421177041672
20
0.71891737191126
30
0
41
1
10
96.4139523188094
20
0.747875396368926
30
0
41
1
10
96.3837257578645
20
0.774730941096408
30
0
41
1
10
96.3189216766128
20
0.824219738366992
30
0
41
1
10
96.2843506951335
20
0.84685729218694
30
0
41
1
10
96.2379885118563
20
0.872289477387653
30
0
41
1
10
96.2285347098109
20
0.87724244796317
30
0
41
1
10
96.2094252761132
20
0.886783641644627
30
0
41
1
10
96.1804620369477
20
0.900549888472653
30
0
41
1
10
96.1505862767429
20
0.912676966548503
30
0
41
1
10
96.0895493879215
20
0.934690923673202
30
0
41
1
10
96.0471581972668
20
0.946404497964409
30
0
41
1
10
96.0027412933764
20
0.954762063700201
30
0
0
SPLINE
5
100
100
AcDbEntity
8
1
62
256
6
ByLayer
370
18
48
1
60
0
100
AcDbSpline
70
4
71
3
72
17
73
13
40
0
40
0
40
0
40
0
40
0.25000000000004
40
0.25000000000004
40
0.50000000000008
40
0.50000000000008
40
0.562500000000077
40
0.562500000000077
40
0.625000000000075
40
0.750000000000073
40
0.750000000000073
40
1
40
1
40
1
40
1
41
1
10
95.2578822958328
20
4.00608262808876
30
0
41
1
10
95.2860476811905
20
3.97712460363115
30
0
41
1
10
95.3162742421353
20
3.9502690589037
30
0
41
1
10
95.381078323387
20
3.90078026163317
30
0
41
1
10
95.4156493048662
20
3.87814270781328
30
0
41
1
10
95.4620114881434
20
3.85271052261257
30
0
41
1
10
95.4714652901887
20
3.84775755203708
30
0
41
1
10
95.4905747238863
20
3.83821635835562
30
0
41
1
10
95.5195379630518
20
3.82445011152757
30
0
41
1
10
95.5494137232566
20
3.81232303345169
30
0
41
1
10
95.6104506120782
20
3.79030907632696
30
0
41
1
10
95.6528418027329
20
3.77859550203567
30
0
41
1
10
95.6972587066235
20
3.77023793629985
30
0
0
SPLINE
5
101
100
AcDbEntity
8
1
62
256
6
ByLayer
370
18
48
1
60
0
100
AcDbSpline
70
4
71
3
72
18
73
14
40
0
40
0
40
0
40
0
40
0.250000000000032
40
0.250000000000032
40
0.375000000000049
40
0.375000000000049
40
0.437500000000057
40
0.437500000000057
40
0.500000000000065
40
0.500000000000065
40
0.750000000000032
40
0.750000000000032
40
1
40
1
40
1
40
1
41
1
10
96.0027412933764
20
3.77023793629985
30
0
41
1
10
96.0471662828573
20
3.77859702343511
30
0
41
1
10
96.0895287276828
20
3.79030592386292
30
0
41
1
10
96.1504875979396
20
3.81228529958457
30
0
41
1
10
96.1703728128529
20
3.82035398223073
30
0
41
1
10
96.1995851462435
20
3.83354090624687
30
0
41
1
10
96.2092198434572
20
3.83811747444705
30
0
41
1
10
96.2282878756095
20
3.84763070900496
30
0
41
1
10
96.2377420298248
20
3.85257912414406
30
0
41
1
10
96.2842087918777
20
3.87804985314361
30
0
41
1
10
96.318833343855
20
3.90071699746733
30
0
41
1
10
96.3837069753097
20
3.95025052945971
30
0
41
1
10
96.4139491995242
20
3.97712139656193
30
0
41
1
10
96.4421177041672
20
4.00608262808876
30
0
0
SPLINE
5
102
100
AcDbEntity
8
1
62
256
6
ByLayer
370
18
48
1
60
0
100
AcDbSpline
70
4
71
3
72
24
73
20
40
0
40
0
40
0
40
0
40
0.125000000000056
40
0.125000000000056
40
0.187500000000041
40
0.187500000000041
40
0.250000000000026
40
0.250000000000026
40
0.375000000000085
40
0.375000000000085
40
0.500000000000144
40
0.500000000000144
40
0.625000000000204
40
0.625000000000204
40
0.687500000000195
40
0.687500000000195
40
0.750000000000187
40
0.750000000000187
40
1
40
1
40
1
40
1
41
1
10
96.8455768895952
20
4.06068105833978
30
0
41
1
10
96.8289508425739
20
4.07042825702533
30
0
41
1
10
96.8116382488197
20
4.07863573668988
30
0
41
1
10
96.7846525562127
20
4.08866576349769
30
0
41
1
10
96.7754526288815
20
4.09163594129575
30
0
41
1
10
96.7568554651726
20
4.09674854955514
30
0
41
1
10
96.7475490794368
20
4.09886958926609
30
0
41
1
10
96.7196089658818
20
4.10399634461305
30
0
41
1
10
96.7009543402438
20
4.10577407382692
30
0
41
1
10
96.6636000580581
20
4.10618150345837
30
0
41
1
10
96.6447610775736
20
4.10476047800438
30
0
41
1
10
96.6085848950795
20
4.09898729490311
30
0
41
1
10
96.591069526447
20
4.09465862463142
30
0
41
1
10
96.5656111231816
20
4.08615209639126
30
0
41
1
10
96.5572615021869
20
4.08297913939879
30
0
41
1
10
96.5408360591489
20
4.07596298446998
30
0
41
1
10
96.5327332554088
20
4.0721028514273
30
0
41
1
10
96.4935841284794
20
4.0514846413071
30
0
41
1
10
96.4660750143229
20
4.03071415237355
30
0
41
1
10
96.4421177041672
20
4.00608262808876
30
0
0
SPLINE
5
103
100
AcDbEntity
8
1
62
256
6
ByLayer
370
18
48
1
60
0
100
AcDbSpline
70
4
71
3
72
24
73
20
40
0
40
0
40
0
40
0
40
0.249999999999805
40
0.249999999999805
40
0.312499999999795
40
0.312499999999795
40
0.374999999999785
40
0.374999999999785
40
0.499999999999845
40
0.499999999999845
40
0.624999999999905
40
0.624999999999905
40
0.749999999999965
40
0.749999999999965
40
0.812499999999954
40
0.812499999999954
40
0.874999999999942
40
0.874999999999942
40
1
40
1
40
1
40
1
41
1
10
95.2578822958328
20
4.00608262808876
30
0
41
1
10
95.2339249856771
20
4.03071415237355
30
0
41
1
10
95.2064158715205
20
4.05148464130707
30
0
41
1
10
95.1672667445912
20
4.0721028514273
30
0
41
1
10
95.1591639408511
20
4.07596298446998
30
0
41
1
10
95.142738497813
20
4.08297913939876
30
0
41
1
10
95.1343888768184
20
4.08615209639123
30
0
41
1
10
95.108930473553
20
4.09465862463145
30
0
41
1
10
95.0914151049205
20
4.09898729490311
30
0
41
1
10
95.0552389224264
20
4.10476047800438
30
0
41
1
10
95.0363999419419
20
4.10618150345837
30
0
41
1
10
94.9990456597562
20
4.10577407382692
30
0
41
1
10
94.9803910341182
20
4.10399634461305
30
0
41
1
10
94.9524509205632
20
4.09886958926609
30
0
41
1
10
94.9431445348273
20
4.09674854955517
30
0
41
1
10
94.9245473711185
20
4.09163594129575
30
0
41
1
10
94.9153474437873
20
4.08866576349769
30
0
41
1
10
94.8883617511803
20
4.07863573668988
30
0
41
1
10
94.871049157426
20
4.07042825702533
30
0
41
1
10
94.8544231104048
20
4.06068105833978
30
0
0
SPLINE
5
104
100
AcDbEntity
8
1
62
256
6
ByLayer
370
18
48
1
60
0
100
AcDbSpline
70
4
71
3
72
26
73
22
40
0
40
0
40
0
40
0
40
0.124999999999944
40
0.124999999999944
40
0.249999999999888
40
0.249999999999888
40
0.312499999999858
40
0.312499999999858
40
0.374999999999828
40
0.374999999999828
40
0.499999999999818
40
0.499999999999818
40
0.562499999999813
40
0.562499999999813
40
0.624999999999809
40
0.624999999999809
40
0.749999999999873
40
0.749999999999873
40
0.874999999999936
40
0.874999999999936
40
1
40
1
40
1
40
1
41
1
10
93.8815
20
2.36250000000001
30
0
41
1
10
93.8815
20
2.34375791612035
30
0
41
1
10
93.8831372044954
20
2.32470997587902
30
0
41
1
10
93.8895147193171
20
2.28782945414568
30
0
41
1
10
93.8942272083345
20
2.26985316252069
30
0
41
1
10
93.9035346138969
20
2.2435727694392
30
0
41
1
10
93.9070324749047
20
2.23488638943707
30
0
41
1
10
93.9146658697639
20
2.21801745238403
30
0
41
1
10
93.9188009007351
20
2.20982260448417
30
0
41
1
10
93.9321176705843
20
2.18592674818052
30
0
41
1
10
93.9422054375066
20
2.17091006307547
30
0
41
1
10
93.9590952929138
20
2.14972446059161
30
0
41
1
10
93.9650073826156
20
2.14290808143093
30
0
41
1
10
93.9772026281571
20
2.1299404104893
30
0
41
1
10
93.9835087032146
20
2.12375961722884
30
0
41
1
10
94.0030236472242
20
2.1060909177987
30
0
41
1
10
94.0168258723379
20
2.09547172902896
30
0
41
1
10
94.0459544667601
20
2.07649861905389
30
0
41
1
10
94.0610227058137
20
2.06831884119544
30
0
41
1
10
94.0918822523001
20
2.05447798017607
30
0
41
1
10
94.1077051105118
20
2.04879801634459
30
0
41
1
10
94.1239045598557
20
2.04433803045319
30
0
0
SPLINE
5
105
100
AcDbEntity
8
1
62
256
6
ByLayer
370
18
48
1
60
0
100
AcDbSpline
70
4
71
3
72
34
73
30
40
0
40
0
40
0
40
0
40
0.124999999999995
40
0.124999999999995
40
0.187499999999994
40
0.187499999999994
40
0.218749999999994
40
0.218749999999994
40
0.249999999999995
40
0.249999999999995
40
0.374999999999988
40
0.374999999999988
40
0.406249999999987
40
0.406249999999987
40
0.437499999999985
40
0.499999999999987
40
0.562499999999988
40
0.562499999999988
40
0.624999999999989
40
0.624999999999989
40
0.68749999999999
40
0.68749999999999
40
0.749999999999992
40
0.749999999999992
40
0.874999999999994
40
0.874999999999994
40
0.937499999999997
40
0.937499999999997
40
1
40
1
40
1
40
1
41
1
10
94.7025489664151
20
1.03434766202145
30
0
41
1
10
94.7156655382212
20
1.08333945933234
30
0
41
1
10
94.7242978158907
20
1.13344509841906
30
0
41
1
10
94.7302079603997
20
1.2106023724607
30
0
41
1
10
94.7309965236357
20
1.23665795011743
30
0
41
1
10
94.7302694906401
20
1.27632789460935
30
0
41
1
10
94.7297058008467
20
1.28967980853037
30
0
41
1
10
94.7279158768879
20
1.31645373589939
30
0
41
1
10
94.7266940984728
20
1.32983218994013
30
0
41
1
10
94.7189332840545
20
1.39669454190548
30
0
41
1
10
94.7075101517205
20
1.45008943649984
30
0
41
1
10
94.6857673502638
20
1.51691137545041
30
0
41
1
10
94.6810308549537
20
1.53029619322399
30
0
41
1
10
94.6709353515532
20
1.55664783699342
30
0
41
1
10
94.6548097146694
20
1.59570599295989
30
0
41
1
10
94.6230753596689
20
1.6584860666201
30
0
41
1
10
94.5924691963573
20
1.7062246825773
30
0
41
1
10
94.5591503075509
20
1.75266973154837
30
0
41
1
10
94.5415356800511
20
1.77468639526438
30
0
41
1
10
94.5045539812253
20
1.81644921702454
30
0
41
1
10
94.4851804496706
20
1.83620299133182
30
0
41
1
10
94.4447150948979
20
1.87356030532877
30
0
41
1
10
94.4235404771085
20
1.89120685939855
30
0
41
1
10
94.35901579413
20
1.93987304287518
30
0
41
1
10
94.314226845169
20
1.96713984837413
30
0
41
1
10
94.2444307949715
20
2.00129244272199
30
0
41
1
10
94.2206491547374
20
2.01156587395229
30
0
41
1
10
94.1726088449967
20
2.02971938119674
30
0
41
1
10
94.1483707597727
20
2.03760206652436
30
0
41
1
10
94.1239045598557
20
2.04433803045319
30
0
0
SPLINE
5
106
100
AcDbEntity
8
1
62
256
6
ByLayer
370
18
48
1
60
0
100
AcDbSpline
70
4
71
3
72
24
73
20
40
0
40
0
40
0
40
0
40
0.0625000000000071
40
0.0625000000000071
40
0.125000000000014
40
0.125000000000014
40
0.249999999999949
40
0.249999999999949
40
0.312499999999951
40
0.312499999999951
40
0.374999999999954
40
0.374999999999954
40
0.499999999999963
40
0.499999999999963
40
0.624999999999973
40
0.624999999999973
40
0.749999999999982
40
0.749999999999982
40
1
40
1
40
1
40
1
41
1
10
94.8544231104048
20
0.664318941660241
30
0
41
1
10
94.8463213901869
20
0.66906866217758
30
0
41
1
10
94.8383501907726
20
0.674210211013531
30
0
41
1
10
94.8229069342991
20
0.685144678413991
30
0
41
1
10
94.8154823048632
20
0.690899172225073
30
0
41
1
10
94.7940672483723
20
0.708992943594978
30
0
41
1
10
94.7809297604749
20
0.722156894664153
30
0
41
1
10
94.7629195220238
20
0.743539627160231
30
0
41
1
10
94.7571946455442
20
0.750956879079467
30
0
41
1
10
94.7465290865015
20
0.766042981159814
30
0
41
1
10
94.7415574654853
20
0.773745831483211
30
0
41
1
10
94.7276847696398
20
0.797313438449748
30
0
41
1
10
94.7198192822715
20
0.813634443933665
30
0
41
1
10
94.7068096724401
20
0.84746234995842
30
0
41
1
10
94.7018349390982
20
0.864526605104061
30
0
41
1
10
94.6946760075167
20
0.898897002240375
30
0
41
1
10
94.6924906930814
20
0.916262941251972
30
0
41
1
10
94.6900607899539
20
0.968330555870011
30
0
41
1
10
94.6938607082312
20
1.00189608929156
30
0
41
1
10
94.7025489664151
20
1.03434766202145
30
0
0
SPLINE
5
107
100
AcDbEntity
8
1
62
256
6
ByLayer
370
18
48
1
60
0
100
AcDbSpline
70
4
71
3
72
26
73
22
40
0
40
0
40
0
40
0
40
0.250000000000275
40
0.250000000000275
40
0.312500000000322
40
0.312500000000322
40
0.375000000000369
40
0.375000000000369
40
0.50000000000039
40
0.50000000000039
40
0.562500000000372
40
0.562500000000372
40
0.625000000000354
40
0.625000000000354
40
0.750000000000259
40
0.750000000000259
40
0.812500000000191
40
0.812500000000191
40
0.875000000000123
40
0.875000000000123
40
1
40
1
40
1
40
1
41
1
10
94.1239045598557
20
2.68066196954686
30
0
41
1
10
94.091422966651
20
2.67171923054695
30
0
41
1
10
94.0605363102681
20
2.65798763225908
30
0
41
1
10
94.0242014826782
20
2.63433533882906
30
0
41
1
10
94.0170225425758
20
2.62924950677316
30
0
41
1
10
94.0031406054395
20
2.61855300917634
30
0
41
1
10
93.996418405553
20
2.61293339907115
30
0
41
1
10
93.976913273691
20
2.59525950334932
30
0
41
1
10
93.9647871913635
20
2.58239578411684
30
0
41
1
10
93.9480105932508
20
2.56138105486795
30
0
41
1
10
93.9426548828068
20
2.5540883106091
30
0
41
1
10
93.9324484339636
20
2.53889161344387
30
0
41
1
10
93.9276378870957
20
2.53104117071129
30
0
41
1
10
93.9142755070615
20
2.5070437728381
30
0
41
1
10
93.9067030959552
20
2.49033349964961
30
0
41
1
10
93.8974160201486
20
2.4641705104134
30
0
41
1
10
93.8946672684173
20
2.45526567009648
30
0
41
1
10
93.8898983058961
20
2.43707076974329
30
0
41
1
10
93.8878854744954
20
2.42778459894993
30
0
41
1
10
93.8830964162866
20
2.39998127685257
30
0
41
1
10
93.8815
20
2.38130895329004
30
0
41
1
10
93.8815
20
2.36250000000001
30
0
0
SPLINE
5
108
100
AcDbEntity
8
1
62
256
6
ByLayer
370
18
48
1
60
0
100
AcDbSpline
70
4
71
3
72
34
73
30
40
0
40
0
40
0
40
0
40
0.125000000000008
40
0.125000000000008
40
0.187499999999999
40
0.187499999999999
40
0.218749999999983
40
0.218749999999983
40
0.249999999999966
40
0.249999999999966
40
0.374999999999912
40
0.374999999999912
40
0.406249999999909
40
0.406249999999909
40
0.437499999999905
40
0.499999999999916
40
0.562499999999926
40
0.562499999999926
40
0.624999999999937
40
0.624999999999937
40
0.687499999999947
40
0.687499999999947
40
0.749999999999958
40
0.749999999999958
40
0.874999999999982
40
0.874999999999982
40
0.937499999999991
40
0.937499999999991
40
1
40
1
40
1
40
1
41
1
10
94.1239045598557
20
2.68066196954686
30
0
41
1
10
94.1728024474156
20
2.69412439558425
30
0
41
1
10
94.2203932733043
20
2.71201865207459
30
0
41
1
10
94.2899442135094
20
2.74594270749563
30
0
41
1
10
94.3128205991033
20
2.75844014622359
30
0
41
1
10
94.3466752774303
20
2.77913057817221
30
0
41
1
10
94.3579085887575
20
2.78636964646046
30
0
41
1
10
94.3801005962748
20
2.80145479578334
30
0
41
1
10
94.3910239703539
20
2.80927500395947
30
0
41
1
10
94.4447795651754
20
2.84978599049111
30
0
41
1
10
94.4850648551457
20
2.88664515702251
30
0
41
1
10
94.5317141444802
20
2.93919765776826
30
0
41
1
10
94.5408654260726
20
2.95005315220084
30
0
41
1
10
94.5584925585892
20
2.97208976756019
30
0
41
1
10
94.5840315512345
20
3.00575481453049
30
0
41
1
10
94.622141002854
20
3.06488244383098
30
0
41
1
10
94.6478445910823
20
3.1154298677765
30
0
41
1
10
94.6710605372973
20
3.16766310638838
30
0
41
1
10
94.681145151145
20
3.19399386630505
30
0
41
1
10
94.6984693616773
20
3.24701886991412
30
0
41
1
10
94.7057122601158
20
3.27372253564476
30
0
41
1
10
94.7174740645799
20
3.32752471010036
30
0
41
1
10
94.7219882041611
20
3.35471639707706
30
0
41
1
10
94.7313378145354
20
3.43499352089435
30
0
41
1
10
94.732208086854
20
3.48742224670647
30
0
41
1
10
94.7263711320473
20
3.56490655888618
30
0
41
1
10
94.723206130606
20
3.59061828053669
30
0
41
1
10
94.71457017437
20
3.64124279472236
30
0
41
1
10
94.7091118809309
20
3.66613915095999
30
0
41
1
10
94.7025489664151
20
3.69065233797861
30
0
0
SPLINE
5
109
100
AcDbEntity
8
1
62
256
6
ByLayer
370
18
48
1
60
0
100
AcDbSpline
70
4
71
3
72
24
73
20
40
0
40
0
40
0
40
0
40
0.0625000000000076
40
0.0625000000000076
40
0.125000000000015
40
0.125000000000015
40
0.249999999999969
40
0.249999999999969
40
0.312499999999974
40
0.312499999999974
40
0.374999999999978
40
0.374999999999978
40
0.499999999999983
40
0.499999999999983
40
0.624999999999988
40
0.624999999999988
40
0.749999999999992
40
0.749999999999992
40
1
40
1
40
1
40
1
41
1
10
94.8544231104048
20
4.06068105833978
30
0
41
1
10
94.8463213901869
20
4.05593133782244
30
0
41
1
10
94.8383501907726
20
4.05078978898649
30
0
41
1
10
94.8229069342991
20
4.03985532158603
30
0
41
1
10
94.8154823048633
20
4.03410082777495
30
0
41
1
10
94.7940672483723
20
4.01600705640504
30
0
41
1
10
94.7809297604749
20
4.0028431053359
30
0
41
1
10
94.7629195220237
20
3.98146037283979
30
0
41
1
10
94.7571946455442
20
3.97404312092055
30
0
41
1
10
94.7465290865014
20
3.95895701884024
30
0
41
1
10
94.7415574654853
20
3.95125416851681
30
0
41
1
10
94.7276847696398
20
3.9276865615503
30
0
41
1
10
94.7198192822715
20
3.91136555606639
30
0
41
1
10
94.7068096724401
20
3.8775376500416
30
0
41
1
10
94.7018349390982
20
3.86047339489599
30
0
41
1
10
94.6946760075167
20
3.82610299775965
30
0
41
1
10
94.6924906930814
20
3.80873705874805
30
0
41
1
10
94.6900607899539
20
3.75666944413004
30
0
41
1
10
94.6938607082312
20
3.72310391070846
30
0
41
1
10
94.7025489664151
20
3.69065233797861
30
0
0
SPLINE
5
10A
100
AcDbEntity
8
1
62
256
6
ByLayer
370
18
48
1
60
0
100
AcDbSpline
70
4
71
3
72
26
73
22
40
0
40
0
40
0
40
0
40
0.250000000000275
40
0.250000000000275
40
0.312500000000322
40
0.312500000000322
40
0.375000000000369
40
0.375000000000369
40
0.50000000000039
40
0.50000000000039
40
0.562500000000372
40
0.562500000000372
40
0.625000000000354
40
0.625000000000354
40
0.750000000000259
40
0.750000000000259
40
0.812500000000191
40
0.812500000000191
40
0.875000000000123
40
0.875000000000123
40
1
40
1
40
1
40
1
41
1
10
97.5760954401443
20
2.04433803045319
30
0
41
1
10
97.608577033349
20
2.0532807694531
30
0
41
1
10
97.6394636897319
20
2.06701236774097
30
0
41
1
10
97.6757985173218
20
2.09066466117099
30
0
41
1
10
97.6829774574241
20
2.09575049322686
30
0
41
1
10
97.6968593945605
20
2.10644699082368
30
0
41
1
10
97.7035815944469
20
2.11206660092887
30
0
41
1
10
97.723086726309
20
2.1297404966507
30
0
41
1
10
97.7352128086364
20
2.14260421588318
30
0
41
1
10
97.7519894067492
20
2.16361894513207
30
0
41
1
10
97.7573451171932
20
2.17091168939095
30
0
41
1
10
97.7675515660364
20
2.18610838655618
30
0
41
1
10
97.7723621129043
20
2.19395882928876
30
0
41
1
10
97.7857244929385
20
2.21795622716192
30
0
41
1
10
97.7932969040447
20
2.23466650035041
30
0
41
1
10
97.8025839798513
20
2.26082948958663
30
0
41
1
10
97.8053327315827
20
2.26973432990354
30
0
41
1
10
97.8101016941038
20
2.28792923025676
30
0
41
1
10
97.8121145255045
20
2.2972154010501
30
0
41
1
10
97.8169035837134
20
2.32501872314745
30
0
41
1
10
97.8185
20
2.34369104671001
30
0
41
1
10
97.8185
20
2.36250000000001
30
0
0
SPLINE
5
10B
100
AcDbEntity
8
1
62
256
6
ByLayer
370
18
48
1
60
0
100
AcDbSpline
70
4
71
3
72
34
73
30
40
0
40
0
40
0
40
0
40
0.125000000000008
40
0.125000000000008
40
0.187499999999999
40
0.187499999999999
40
0.218749999999983
40
0.218749999999983
40
0.249999999999966
40
0.249999999999966
40
0.374999999999912
40
0.374999999999912
40
0.406249999999909
40
0.406249999999909
40
0.437499999999905
40
0.499999999999916
40
0.562499999999926
40
0.562499999999926
40
0.624999999999937
40
0.624999999999937
40
0.687499999999947
40
0.687499999999947
40
0.749999999999958
40
0.749999999999958
40
0.874999999999982
40
0.874999999999982
40
0.937499999999991
40
0.937499999999991
40
1
40
1
40
1
40
1
41
1
10
97.5760954401443
20
2.04433803045319
30
0
41
1
10
97.5271975525844
20
2.03087560441577
30
0
41
1
10
97.4796067266957
20
2.01298134792546
30
0
41
1
10
97.4100557864905
20
1.97905729250439
30
0
41
1
10
97.3871794008968
20
1.96655985377643
30
0
41
1
10
97.3533247225697
20
1.94586942182784
30
0
41
1
10
97.3420914112425
20
1.93863035353957
30
0
41
1
10
97.3198994037252
20
1.92354520421668
30
0
41
1
10
97.3089760296461
20
1.91572499604055
30
0
41
1
10
97.2552204348246
20
1.87521400950891
30
0
41
1
10
97.2149351448543
20
1.83835484297754
30
0
41
1
10
97.1682858555198
20
1.78580234223176
30
0
41
1
10
97.1591345739274
20
1.77494684779921
30
0
41
1
10
97.1415074414109
20
1.75291023243986
30
0
41
1
10
97.1159684487655
20
1.71924518546953
30
0
41
1
10
97.077858997146
20
1.66011755616904
30
0
41
1
10
97.0521554089176
20
1.60957013222352
30
0
41
1
10
97.0289394627027
20
1.55733689361168
30
0
41
1
10
97.0188548488549
20
1.53100613369497
30
0
41
1
10
97.0015306383227
20
1.47798113008594
30
0
41
1
10
96.9942877398841
20
1.45127746435526
30
0
41
1
10
96.9825259354201
20
1.39747528989966
30
0
41
1
10
96.9780117958388
20
1.370283602923
30
0
41
1
10
96.9686621854646
20
1.29000647910567
30
0
41
1
10
96.967791913146
20
1.23757775329358
30
0
41
1
10
96.9736288679527
20
1.16009344111387
30
0
41
1
10
96.9767938693939
20
1.13438171946333
30
0
41
1
10
96.9854298256299
20
1.08375720527766
30
0
41
1
10
96.9908881190691
20
1.05886084904003
30
0
41
1
10
96.9974510335848
20
1.03434766202145
30
0
0
SPLINE
5
10C
100
AcDbEntity
8
1
62
256
6
ByLayer
370
18
48
1
60
0
100
AcDbSpline
70
4
71
3
72
24
73
20
40
0
40
0
40
0
40
0
40
0.0625000000000016
40
0.0625000000000016
40
0.125000000000003
40
0.125000000000003
40
0.249999999999945
40
0.249999999999945
40
0.312499999999944
40
0.312499999999944
40
0.374999999999942
40
0.374999999999942
40
0.499999999999954
40
0.499999999999954
40
0.624999999999966
40
0.624999999999966
40
0.749999999999978
40
0.749999999999978
40
1
40
1
40
1
40
1
41
1
10
96.8455768895952
20
0.664318941660241
30
0
41
1
10
96.8536786098131
20
0.669068662177608
30
0
41
1
10
96.8616498092273
20
0.674210211013531
30
0
41
1
10
96.8770930657009
20
0.685144678413991
30
0
41
1
10
96.8845176951368
20
0.690899172225073
30
0
41
1
10
96.9059327516277
20
0.708992943594978
30
0
41
1
10
96.9190702395251
20
0.722156894664153
30
0
41
1
10
96.9370804779762
20
0.743539627160231
30
0
41
1
10
96.9428053544558
20
0.750956879079467
30
0
41
1
10
96.9534709134985
20
0.766042981159814
30
0
41
1
10
96.9584425345147
20
0.773745831483211
30
0
41
1
10
96.9723152303602
20
0.797313438449748
30
0
41
1
10
96.9801807177285
20
0.813634443933665
30
0
41
1
10
96.9931903275599
20
0.84746234995842
30
0
41
1
10
96.9981650609018
20
0.864526605104032
30
0
41
1
10
97.0053239924833
20
0.898897002240375
30
0
41
1
10
97.0075093069186
20
0.916262941252
30
0
41
1
10
97.0099392100461
20
0.968330555870011
30
0
41
1
10
97.0061392917688
20
1.00189608929156
30
0
41
1
10
96.9974510335848
20
1.03434766202145
30
0
0
SPLINE
5
10D
100
AcDbEntity
8
1
62
256
6
ByLayer
370
18
48
1
60
0
100
AcDbSpline
70
4
71
3
72
45
73
41
40
0
40
0
40
0
40
0
40
0.0624999999999845
40
0.0624999999999845
40
0.124999999999969
40
0.124999999999969
40
0.156249999999961
40
0.171874999999959
40
0.171874999999959
40
0.187499999999957
40
0.187499999999957
40
0.249999999999957
40
0.249999999999957
40
0.312499999999957
40
0.312499999999957
40
0.343749999999957
40
0.343749999999957
40
0.374999999999957
40
0.374999999999957
40
0.499999999999963
40
0.499999999999963
40
0.531249999999961
40
0.531249999999961
40
0.56249999999996
40
0.56249999999996
40
0.624999999999967
40
0.624999999999967
40
0.749999999999995
40
0.749999999999995
40
0.781249999999996
40
0.781249999999996
40
0.812499999999997
40
0.812499999999997
40
0.874999999999998
40
0.937499999999999
40
0.937499999999999
40
0.96875
40
0.984375
40
0.984375
40
1
40
1
40
1
40
1
41
1
10
113.134082420647
20
6.38749999999999
30
0
41
1
10
113.134082420647
20
6.44474201134688
30
0
41
1
10
113.137144658502
20
6.50136253777092
30
0
41
1
10
113.149110491041
20
6.61341785239705
30
0
41
1
10
113.158015108206
20
6.66885243256357
30
0
41
1
10
113.175697630366
20
6.75112575071714
30
0
41
1
10
113.185622560929
20
6.79204230602932
30
0
41
1
10
113.19718274338
20
6.83262658733329
30
0
41
1
10
113.205255435977
20
6.85960840670489
30
0
41
1
10
113.209479527285
20
6.8730751666634
30
0
41
1
10
113.231375318466
20
6.93979246229651
30
0
41
1
10
113.251453598153
20
6.99151526612153
30
0
41
1
10
113.296411714519
20
7.09186184432275
30
0
41
1
10
113.321292856935
20
7.14048478231132
30
0
41
1
10
113.362105516208
20
7.21116223788428
30
0
41
1
10
113.376292776798
20
7.2343444416299
30
0
41
1
10
113.405828622225
20
7.27995732236343
30
0
41
1
10
113.421202641623
20
7.30241703094509
30
0
41
1
10
113.500106114177
20
7.41167101990016
30
0
41
1
10
113.570237354184
20
7.49037050612014
30
0
41
1
10
113.665787779571
20
7.57889633543959
30
0
41
1
10
113.685296376868
20
7.59610387691021
30
0
41
1
10
113.725104357775
20
7.62953009848832
30
0
41
1
10
113.745429208983
20
7.64576457006976
30
0
41
1
10
113.807018313632
20
7.69257154837834
30
0
41
1
10
113.849063388372
20
7.72140215569732
30
0
41
1
10
113.977971258623
20
7.80118684810714
30
0
41
1
10
114.067583914783
20
7.84548804733259
30
0
41
1
10
114.183986236149
20
7.89016963288043
30
0
41
1
10
114.207438499448
20
7.89854539636261
30
0
41
1
10
114.25440594165
20
7.91410488833935
30
0
41
1
10
114.277961517753
20
7.92130438109055
30
0
41
1
10
114.348837714143
20
7.9412036867262
30
0
41
1
10
114.443896931465
20
7.96321208058441
30
0
41
1
10
114.540031459276
20
7.97643042740808
30
0
41
1
10
114.612531906336
20
7.98306083937931
30
0
41
1
10
114.648882178593
20
7.98555400540613
30
0
41
1
10
114.68538335658
20
7.98680513867913
30
0
41
1
10
114.709751211479
20
7.98736140578075
30
0
41
1
10
114.722012750925
20
7.98750000000001
30
0
41
1
10
114.734082420647
20
7.98750000000001
30
0
0
SPLINE
5
10E
100
AcDbEntity
8
1
62
256
6
ByLayer
370
18
48
1
60
0
100
AcDbSpline
70
4
71
3
72
18
73
14
40
0
40
0
40
0
40
0
40
0.249999999999988
40
0.249999999999988
40
0.499999999999975
40
0.499999999999975
40
0.562499999999966
40
0.562499999999966
40
0.624999999999956
40
0.624999999999956
40
0.749999999999964
40
0.749999999999964
40
1
40
1
40
1
40
1
41
1
10
84.0422250070725
20
10.3375
30
0
41
1
10
83.9753526092607
20
10.2785240886052
30
0
41
1
10
83.9035290754617
20
10.2250284483321
30
0
41
1
10
83.7490453419579
20
10.1293649739067
30
0
41
1
10
83.6664002804255
20
10.0871872567837
30
0
41
1
10
83.5551775137766
20
10.0427613134211
30
0
41
1
10
83.532534117917
20
10.0342955102311
30
0
41
1
10
83.4864065384508
20
10.0182541168173
30
0
41
1
10
83.4629029071891
20
10.0106761708631
30
0
41
1
10
83.3917935213924
20
9.98956970673024
30
0
41
1
10
83.343367923185
20
9.97758203114674
30
0
41
1
10
83.1949302983982
20
9.94827025836148
30
0
41
1
10
83.0917827422513
20
9.9375
30
0
41
1
10
82.9839244826466
20
9.9375
30
0
0
SPLINE
5
10F
100
AcDbEntity
8
1
62
256
6
ByLayer
370
18
48
1
60
0
100
AcDbSpline
70
4
71
3
72
16
73
12
40
0
40
0
40
0
40
0
40
0.249999999999996
40
0.249999999999996
40
0.499999999999991
40
0.499999999999991
40
0.749999999999987
40
0.749999999999987
40
0.874999999999993
40
0.874999999999993
40
1
40
1
40
1
40
1
41
1
10
118.54194654951
20
8.91249999999999
30
0
41
1
10
118.520157669547
20
8.84089560213911
30
0
41
1
10
118.498101176615
20
8.76944093141452
30
0
41
1
10
118.45323226736
20
8.62695452255048
30
0
41
1
10
118.430423318955
20
8.5559208441409
30
0
41
1
10
118.383683755503
20
8.4144810500851
30
0
41
1
10
118.359762185026
20
8.34406987408033
30
0
41
1
10
118.322527048715
20
8.23920997909107
30
0
41
1
10
118.309886831317
20
8.20438452749264
30
0
41
1
10
118.283996015321
20
8.13507512728592
30
0
41
1
10
118.270740289967
20
8.10057496789233
30
0
41
1
10
118.257107673531
20
8.06642680845843
30
0
0
SPLINE
5
110
100
AcDbEntity
8
1
62
256
6
ByLayer
370
18
48
1
60
0
100
AcDbSpline
70
4
71
3
72
8
73
4
40
0
40
0
40
0
40
0
40
1
40
1
40
1
40
1
41
1
10
118.672624407594
20
8.97460100910058
30
0
41
1
10
118.629168809705
20
8.95351763157097
30
0
41
1
10
118.585627483412
20
8.93275094896904
30
0
41
1
10
118.54194654951
20
8.91250000000002
30
0
0
SPLINE
5
111
100
AcDbEntity
8
1
62
256
6
ByLayer
370
18
48
1
60
0
100
AcDbSpline
70
4
71
3
72
18
73
14
40
0
40
0
40
0
40
0
40
0.249999999999966
40
0.249999999999966
40
0.499999999999933
40
0.499999999999933
40
0.62499999999995
40
0.62499999999995
40
0.749999999999966
40
0.749999999999966
40
0.874999999999983
40
0.874999999999983
40
1
40
1
40
1
40
1
41
1
10
118.75
20
9.11368103894762
30
0
41
1
10
118.75
20
9.09814969106841
30
0
41
1
10
118.748074874443
20
9.08306095052143
30
0
41
1
10
118.740476428856
20
9.05374522015865
30
0
41
1
10
118.73498497726
20
9.04025914320755
30
0
41
1
10
118.724427823638
20
9.02180621418177
30
0
41
1
10
118.720569341207
20
9.01605392056703
30
0
41
1
10
118.712307570516
20
9.00542300937127
30
0
41
1
10
118.707890634794
20
9.00052126228664
30
0
41
1
10
118.69849588846
20
8.9915289494194
30
0
41
1
10
118.693545894877
20
8.98747323529429
30
0
41
1
10
118.683346892562
20
8.98034342376823
30
0
41
1
10
118.678071789762
20
8.9772439186541
30
0
41
1
10
118.672624407594
20
8.97460100910058
30
0
0
SPLINE
5
112
100
AcDbEntity
8
1
62
256
6
ByLayer
370
18
48
1
60
0
100
AcDbSpline
70
4
71
3
72
19
73
15
40
0
40
0
40
0
40
0
40
0.250000000000002
40
0.250000000000002
40
0.375000000000001
40
0.375000000000001
40
0.500000000000001
40
0.500000000000001
40
0.625000000000001
40
0.625000000000001
40
0.750000000000001
40
0.875
40
0.875
40
1
40
1
40
1
40
1
41
1
10
118.672624407594
20
9.35039899089932
30
0
41
1
10
118.683528428955
20
9.34510868055688
30
0
41
1
10
118.693695085216
20
9.33804356994341
30
0
41
1
10
118.707766355919
20
9.32460880016072
30
0
41
1
10
118.712263333941
20
9.31962891725297
30
0
41
1
10
118.720535209183
20
9.3089949472274
30
0
41
1
10
118.724351425904
20
9.303306661752
30
0
41
1
10
118.731322675597
20
9.2911622403723
30
0
41
1
10
118.73450033494
20
9.28464927994966
30
0
41
1
10
118.740017284313
20
9.27105154414099
30
0
41
1
10
118.744655432719
20
9.25702793688734
30
0
41
1
10
118.747546769038
20
9.24215781555995
30
0
41
1
10
118.749506675706
20
9.2268363186578
30
0
41
1
10
118.750000000005
20
9.21909859410044
30
0
41
1
10
118.750000000005
20
9.21131896105294
30
0
0
SPLINE
5
113
100
AcDbEntity
8
1
62
256
6
ByLayer
370
18
48
1
60
0
100
AcDbSpline
70
4
71
3
72
8
73
4
40
0
40
0
40
0
40
0
40
1
40
1
40
1
40
1
41
1
10
118.54194654951
20
9.41250000000002
30
0
41
1
10
118.585621660355
20
9.3922517506625
30
0
41
1
10
118.629163870732
20
9.37148476467337
30
0
41
1
10
118.672624407594
20
9.35039899089932
30
0
0
SPLINE
5
114
100
AcDbEntity
8
1
62
256
6
ByLayer
370
18
48
1
60
0
100
AcDbSpline
70
4
71
3
72
14
73
10
40
0
40
0
40
0
40
0
40
0.25
40
0.25
40
0.5
40
0.5
40
0.75
40
0.75
40
1
40
1
40
1
40
1
41
1
10
118.25710767353
20
10.2585731915437
30
0
41
1
10
118.284415118607
20
10.1901711358888
30
0
41
1
10
118.310091348435
20
10.12080792901
30
0
41
1
10
118.359715906427
20
9.98106339406829
30
0
41
1
10
118.383634686446
20
9.910664655528
30
0
41
1
10
118.430377074071
20
9.76922187654387
30
0
41
1
10
118.453191804933
20
9.69817260570875
30
0
41
1
10
118.498077447002
20
9.5556357876234
30
0
41
1
10
118.52014494115
20
9.48414622695972
30
0
41
1
10
118.54194654951
20
9.41250000000016
30
0
0
SPLINE
5
115
100
AcDbEntity
8
1
62
256
6
ByLayer
370
18
48
1
60
0
100
AcDbSpline
70
4
71
2
72
6
73
3
40
0
40
0
40
0
40
1
40
1
40
1
41
1.03186391735993
10
124.799989998051
20
10.6656513524259
30
0
41
0.729637973226922
10
124.999989998051
20
10.6656513524259
30
0
41
1.03186391735993
10
124.999989998051
20
10.4656513524259
30
0
0
SPLINE
5
116
100
AcDbEntity
8
1
62
256
6
ByLayer
370
18
48
1
60
0
100
AcDbSpline
70
4
71
2
72
6
73
3
40
0
40
0
40
0
40
1
40
1
40
1
41
1.03186391735993
10
124.799989998051
20
7.65934864757418
30
0
41
1.03138264657361
10
124.677778944856
20
7.65934864757414
30
0
41
1.03186391735993
10
124.555795839911
20
7.66680945388669
30
0
0
SPLINE
5
117
100
AcDbEntity
8
1
62
256
6
ByLayer
370
18
48
1
60
0
100
AcDbSpline
70
4
71
2
72
6
73
3
40
0
40
0
40
0
40
1
40
1
40
1
41
1.03186391735993
10
124.555795839911
20
10.6581905461133
30
0
41
1.03138264657361
10
124.677778944856
20
10.6656513524259
30
0
41
1.03186391735993
10
124.799989998051
20
10.6656513524259
30
0
0
SPLINE
5
118
100
AcDbEntity
8
1
62
256
6
ByLayer
370
18
48
1
60
0
100
AcDbSpline
70
4
71
2
72
6
73
3
40
0
40
0
40
0
40
1
40
1
40
1
41
1.03186391735993
10
124.999989998051
20
7.85934864757417
30
0
41
0.729637973226922
10
124.999989998051
20
7.65934864757419
30
0
41
1.03186391735993
10
124.799989998051
20
7.65934864757418
30
0
0
SPLINE
5
119
100
AcDbEntity
8
1
62
256
6
ByLayer
370
18
48
1
60
0
100
AcDbSpline
70
4
71
2
72
6
73
3
40
0
40
0
40
0
40
1
40
1
40
1
41
1.03186391735993
10
105.444204160089
20
10.6581905461133
30
0
41
1.03138264657361
10
105.322221055144
20
10.6656513524258
30
0
41
1.03186391735993
10
105.200010001949
20
10.6656513524258
30
0
0
SPLINE
5
11A
100
AcDbEntity
8
1
62
256
6
ByLayer
370
18
48
1
60
0
100
AcDbSpline
70
4
71
2
72
6
73
3
40
0
40
0
40
0
40
1
40
1
40
1
41
1.03186391735993
10
105.200010001949
20
7.65934864757415
30
0
41
1.03138264657361
10
105.322221055144
20
7.65934864757411
30
0
41
1.03186391735993
10
105.444204160089
20
7.66680945388669
30
0
0
SPLINE
5
11B
100
AcDbEntity
8
1
62
256
6
ByLayer
370
18
48
1
60
0
100
AcDbSpline
70
4
71
2
72
6
73
3
40
0
40
0
40
0
40
1
40
1
40
1
41
1.03186391735993
10
105.200010001949
20
10.6656513524258
30
0
41
0.729637973226922
10
105.000010001949
20
10.6656513524258
30
0
41
1.03186391735993
10
105.000010001949
20
10.4656513524258
30
0
0
SPLINE
5
11C
100
AcDbEntity
8
1
62
256
6
ByLayer
370
18
48
1
60
0
100
AcDbSpline
70
4
71
2
72
6
73
3
40
0
40
0
40
0
40
1
40
1
40
1
41
1.03186391735993
10
105.000010001949
20
7.85934864757414
30
0
41
0.729637973226922
10
105.000010001949
20
7.65934864757415
30
0
41
1.03186391735993
10
105.200010001949
20
7.65934864757415
30
0
0
SPLINE
5
11D
100
AcDbEntity
8
1
62
256
6
ByLayer
370
18
48
1
60
0
100
AcDbSpline
70
4
71
3
72
8
73
4
40
0
40
0
40
0
40
0
40
1
40
1
40
1
40
1
41
1
10
107.541266989223
20
7.73793853823932
30
0
41
1
10
107.554438787314
20
7.73849959461253
30
0
41
1
10
107.56753519827
20
7.74040086420285
30
0
41
1
10
107.580330583609
20
7.74362502478201
30
0
0
SPLINE
5
11E
100
AcDbEntity
8
1
62
256
6
ByLayer
370
18
48
1
60
0
100
AcDbSpline
70
4
71
3
72
8
73
4
40
0
40
0
40
0
40
0
40
1
40
1
40
1
40
1
41
1
10
107.580330583606
20
10.5813749752186
30
0
41
1
10
107.567535184028
20
10.5845991393855
30
0
41
1
10
107.554438801795
20
10.5865004047708
30
0
41
1
10
107.541266989216
20
10.5870614617609
30
0
0
SPLINE
5
11F
100
AcDbEntity
8
1
62
256
6
ByLayer
370
18
48
1
60
0
100
AcDbSpline
70
4
71
3
72
8
73
4
40
0
40
0
40
0
40
0
40
1
40
1
40
1
40
1
41
1
10
122.419669416391
20
10.581374975218
30
0
41
1
10
122.432464869562
20
10.5845991528893
30
0
41
1
10
122.445561142082
20
10.5865004023801
30
0
41
1
10
122.458733010777
20
10.5870614617607
30
0
0
SPLINE
5
120
100
AcDbEntity
8
1
62
256
6
ByLayer
370
18
48
1
60
0
100
AcDbSpline
70
4
71
3
72
8
73
4
40
0
40
0
40
0
40
0
40
1
40
1
40
1
40
1
41
1
10
122.458733010784
20
7.73793853823904
30
0
41
1
10
122.445561127032
20
7.73849959826086
30
0
41
1
10
122.432464884356
20
7.74040084338316
30
0
41
1
10
122.419669416394
20
7.74362502478144
30
0
0
LINE
5
7F
100
AcDbEntity
8
81
62
256
6
ByLayer
370
18
48
1
60
0
100
AcDbLine
10
125
20
10.6625
30
0
11
130
21
10.6625
31
0
39
0
210
0
220
0
230
1
0
LINE
5
80
100
AcDbEntity
8
80
62
256
6
ByLayer
370
18
48
1
60
0
100
AcDbLine
10
0
20
0
30
0
11
-5
21
0
31
0
39
0
210
0
220
0
230
1
0
LINE
5
81
100
AcDbEntity
8
1
62
256
6
ByLayer
370
18
48
1
60
0
100
AcDbLine
10
118.897124
20
7.9875
30
0
11
118.225546
21
7.9875
31
0
39
0
210
0
220
0
230
1
0
LINE
5
82
100
AcDbEntity
8
1
62
256
6
ByLayer
370
18
48
1
60
0
100
AcDbLine
10
118.897124
20
10.3375
30
0
11
118.225546
21
10.3375
31
0
39
0
210
0
220
0
230
1
0
LINE
5
83
100
AcDbEntity
8
1
62
256
6
ByLayer
370
18
48
1
60
0
100
AcDbLine
10
119.81552
20
10.3375
30
0
11
118.897124
21
10.3375
31
0
39
0
210
0
220
0
230
1
0
LINE
5
84
100
AcDbEntity
8
1
62
256
6
ByLayer
370
18
48
1
60
0
100
AcDbLine
10
118.896886
20
10.312496
30
0
11
118.897124
21
10.3375
31
0
39
0
210
0
220
0
230
1
0
LINE
5
85
100
AcDbEntity
8
1
62
256
6
ByLayer
370
18
48
1
60
0
100
AcDbLine
10
121.450863
20
10.3375
30
0
11
119.81552
21
10.3375
31
0
39
0
210
0
220
0
230
1
0
LINE
5
86
100
AcDbEntity
8
1
62
256
6
ByLayer
370
18
48
1
60
0
100
AcDbLine
10
119.815283
20
10.312496
30
0
11
119.81552
21
10.3375
31
0
39
0
210
0
220
0
230
1
0
LINE
5
87
100
AcDbEntity
8
1
62
256
6
ByLayer
370
18
48
1
60
0
100
AcDbLine
10
119.81552
20
7.9875
30
0
11
118.897124
21
7.9875
31
0
39
0
210
0
220
0
230
1
0
LINE
5
88
100
AcDbEntity
8
1
62
256
6
ByLayer
370
18
48
1
60
0
100
AcDbLine
10
118.897124
20
7.9875
30
0
11
118.896886
21
8.012504
31
0
39
0
210
0
220
0
230
1
0
LINE
5
89
100
AcDbEntity
8
1
62
256
6
ByLayer
370
18
48
1
60
0
100
AcDbLine
10
121.450863
20
7.9875
30
0
11
119.81552
21
7.9875
31
0
39
0
210
0
220
0
230
1
0
LINE
5
8A
100
AcDbEntity
8
1
62
256
6
ByLayer
370
18
48
1
60
0
100
AcDbLine
10
119.81552
20
7.9875
30
0
11
119.815283
21
8.012504
31
0
39
0
210
0
220
0
230
1
0
LINE
5
8B
100
AcDbEntity
8
1
62
256
6
ByLayer
370
18
48
1
60
0
100
AcDbLine
10
113.134082
20
0.463613
30
0
11
101.4543
21
-5.367349
31
0
39
0
210
0
220
0
230
1
0
LINE
5
8C
100
AcDbEntity
8
1
62
256
6
ByLayer
370
18
48
1
60
0
100
AcDbLine
10
113.134082
20
0.463613
30
0
11
113.134082
21
6.3875
31
0
39
0
210
0
220
0
230
1
0
LINE
5
8D
100
AcDbEntity
8
1
62
256
6
ByLayer
370
13
48
1
60
0
100
AcDbLine
10
113.134082
20
6.3875
30
0
11
101.4543
21
6.3875
31
0
39
0
210
0
220
0
230
1
0
LINE
5
8E
100
AcDbEntity
8
1
62
256
6
ByLayer
370
18
48
1
60
0
100
AcDbLine
10
101.4543
20
-5.367349
30
0
11
101.407593
21
-5.390667
31
0
39
0
210
0
220
0
230
1
0
LINE
5
8F
100
AcDbEntity
8
1
62
256
6
ByLayer
370
18
48
1
60
0
100
AcDbLine
10
101.4543
20
6.3875
30
0
11
101.4543
21
-5.367349
31
0
39
0
210
0
220
0
230
1
0
LINE
5
90
100
AcDbEntity
8
1
62
256
6
ByLayer
370
18
48
1
60
0
100
AcDbLine
10
0
20
-9.9375
30
0
11
79.75618
21
-9.9375
31
0
39
0
210
0
220
0
230
1
0
LINE
5
91
100
AcDbEntity
8
1
62
256
6
ByLayer
370
18
48
1
60
0
100
AcDbLine
10
0
20
-9.9375
30
0
11
0
21
9.9375
31
0
39
0
210
0
220
0
230
1
0
LINE
5
92
100
AcDbEntity
8
1
62
256
6
ByLayer
370
18
48
1
60
0
100
AcDbLine
10
0
20
9.9375
30
0
11
79.75618
21
9.9375
31
0
39
0
210
0
220
0
230
1
0
LINE
5
93
100
AcDbEntity
8
1
62
256
6
ByLayer
370
18
48
1
60
0
100
AcDbLine
10
101.407628
20
-5.390649
30
0
11
101.4
21
-5.394457
31
0
39
0
210
0
220
0
230
1
0
LINE
5
94
100
AcDbEntity
8
1
62
256
6
ByLayer
370
18
48
1
60
0
100
AcDbLine
10
101.407628
20
-5.390649
30
0
11
101.407628
21
6.3875
31
0
39
0
210
0
220
0
230
1
0
LINE
5
95
100
AcDbEntity
8
1
62
256
6
ByLayer
370
13
48
1
60
0
100
AcDbLine
10
101.4
20
6.3875
30
0
11
101.407628
21
6.3875
31
0
39
0
210
0
220
0
230
1
0
LINE
5
96
100
AcDbEntity
8
1
62
256
6
ByLayer
370
18
48
1
60
0
100
AcDbLine
10
84.042225
20
10.3375
30
0
11
84.693566
21
10.3375
31
0
39
0
210
0
220
0
230
1
0
LINE
5
97
100
AcDbEntity
8
1
62
256
6
ByLayer
370
18
48
1
60
0
100
AcDbLine
10
79.75618
20
9.9375
30
0
11
82.983924
21
9.9375
31
0
39
0
210
0
220
0
230
1
0
LINE
5
98
100
AcDbEntity
8
1
62
256
6
ByLayer
370
18
48
1
60
0
100
AcDbLine
10
79.75618
20
9.9375
30
0
11
79.75618
21
-9.9375
31
0
39
0
210
0
220
0
230
1
0
LINE
5
99
100
AcDbEntity
8
1
62
256
6
ByLayer
370
18
48
1
60
0
100
AcDbLine
10
118.225599
20
7.9875
30
0
11
115.25
21
7.9875
31
0
39
0
210
0
220
0
230
1
0
LINE
5
9A
100
AcDbEntity
8
1
62
256
6
ByLayer
370
18
48
1
60
0
100
AcDbLine
10
115.25
20
10.3375
30
0
11
118.225599
21
10.3375
31
0
39
0
210
0
220
0
230
1
0
LINE
5
9B
100
AcDbEntity
8
1
62
256
6
ByLayer
370
18
48
1
60
0
100
AcDbLine
10
118.257108
20
8.066427
30
0
11
118.225599
21
7.9875
31
0
39
0
210
0
220
0
230
1
0
LINE
5
9C
100
AcDbEntity
8
1
62
256
6
ByLayer
370
18
48
1
60
0
100
AcDbLine
10
118.75
20
9.211319
30
0
11
118.75
21
9.113681
31
0
39
0
210
0
220
0
230
1
0
LINE
5
9D
100
AcDbEntity
8
1
62
256
6
ByLayer
370
18
48
1
60
0
100
AcDbLine
10
118.225599
20
10.3375
30
0
11
118.257108
21
10.258573
31
0
39
0
210
0
220
0
230
1
0
LINE
5
9E
100
AcDbEntity
8
1
62
256
6
ByLayer
370
18
48
1
60
0
100
AcDbLine
10
115.25
20
7.9875
30
0
11
107.538001
21
7.9875
31
0
39
0
210
0
220
0
230
1
0
LINE
5
9F
100
AcDbEntity
8
1
62
256
6
ByLayer
370
18
48
1
60
0
100
AcDbLine
10
107.538001
20
10.3375
30
0
11
115.25
21
10.3375
31
0
39
0
210
0
220
0
230
1
0
LINE
5
A0
100
AcDbEntity
8
1
62
256
6
ByLayer
370
18
48
1
60
0
100
AcDbLine
10
115.25
20
10.3375
30
0
11
115.25
21
7.9875
31
0
39
0
210
0
220
0
230
1
0
LINE
5
A1
100
AcDbEntity
8
1
62
256
6
ByLayer
370
18
48
1
60
0
100
AcDbLine
10
101.4
20
-5.394457
30
0
11
92.216751
21
-9.979061
31
0
39
0
210
0
220
0
230
1
0
LINE
5
A2
100
AcDbEntity
8
1
62
256
6
ByLayer
370
18
48
1
60
0
100
AcDbLine
10
86.864345
20
-9.979061
30
0
11
92.216751
21
-9.979061
31
0
39
0
210
0
220
0
230
1
0
LINE
5
A3
100
AcDbEntity
8
1
62
256
6
ByLayer
370
18
48
1
60
0
100
AcDbLine
10
103
20
7.9875
30
0
11
107.538001
21
7.9875
31
0
39
0
210
0
220
0
230
1
0
LINE
5
A4
100
AcDbEntity
8
1
62
256
6
ByLayer
370
18
48
1
60
0
100
AcDbLine
10
86.864345
20
10.3375
30
0
11
107.538001
21
10.3375
31
0
39
0
210
0
220
0
230
1
0
LINE
5
A5
100
AcDbEntity
8
1
62
256
6
ByLayer
370
18
48
1
60
0
100
AcDbLine
10
101.4
20
6.3875
30
0
11
101.4
21
-5.394457
31
0
39
0
210
0
220
0
230
1
0
LINE
5
A6
100
AcDbEntity
8
1
62
256
6
ByLayer
370
18
48
1
60
0
100
AcDbLine
10
107.538001
20
7.9875
30
0
11
107.538001
21
10.3375
31
0
39
0
210
0
220
0
230
1
0
LINE
5
A7
100
AcDbEntity
8
1
62
256
6
ByLayer
370
18
48
1
60
0
100
AcDbLine
10
84.693566
20
-9.943711
30
0
11
86.864345
21
-9.979061
31
0
39
0
210
0
220
0
230
1
0
LINE
5
A8
100
AcDbEntity
8
1
62
256
6
ByLayer
370
18
48
1
60
0
100
AcDbLine
10
84.693566
20
10.3375
30
0
11
86.864345
21
10.3375
31
0
39
0
210
0
220
0
230
1
0
LINE
5
A9
100
AcDbEntity
8
1
62
256
6
ByLayer
370
13
48
1
60
0
100
AcDbLine
10
84.693566
20
-9.943711
30
0
11
84.693566
21
10.3375
31
0
39
0
210
0
220
0
230
1
0
LINE
5
AA
100
AcDbEntity
8
1
62
256
6
ByLayer
370
18
48
1
60
0
100
AcDbLine
10
86.864345
20
10.3375
30
0
11
86.864345
21
-9.979061
31
0
39
0
210
0
220
0
230
1
0
LINE
5
AB
100
AcDbEntity
8
1
62
256
6
ByLayer
370
18
48
1
60
0
100
AcDbLine
10
123.609011
20
10.600283
30
0
11
124.555796
21
10.658191
31
0
39
0
210
0
220
0
230
1
0
LINE
5
AC
100
AcDbEntity
8
1
62
256
6
ByLayer
370
18
48
1
60
0
100
AcDbLine
10
124.555796
20
7.666809
30
0
11
123.609011
21
7.724717
31
0
39
0
210
0
220
0
230
1
0
LINE
5
AD
100
AcDbEntity
8
1
62
256
6
ByLayer
370
18
48
1
60
0
100
AcDbLine
10
124.99999
20
10.465651
30
0
11
124.99999
21
7.859349
31
0
39
0
210
0
220
0
230
1
0
LINE
5
AE
100
AcDbEntity
8
1
62
256
6
ByLayer
370
18
48
1
60
0
100
AcDbLine
10
105.444204
20
7.666809
30
0
11
106.390989
21
7.724717
31
0
39
0
210
0
220
0
230
1
0
LINE
5
AF
100
AcDbEntity
8
1
62
256
6
ByLayer
370
18
48
1
60
0
100
AcDbLine
10
106.390989
20
10.600283
30
0
11
105.444204
21
10.658191
31
0
39
0
210
0
220
0
230
1
0
LINE
5
B0
100
AcDbEntity
8
1
62
256
6
ByLayer
370
18
48
1
60
0
100
AcDbLine
10
105.00001
20
10.465651
30
0
11
105.00001
21
10.337495
31
0
39
0
210
0
220
0
230
1
0
LINE
5
B1
100
AcDbEntity
8
1
62
256
6
ByLayer
370
18
48
1
60
0
100
AcDbLine
10
105.00001
20
7.987505
30
0
11
105.00001
21
7.859349
31
0
39
0
210
0
220
0
230
1
0
LINE
5
B2
100
AcDbEntity
8
1
62
256
6
ByLayer
370
18
48
1
60
0
100
AcDbLine
10
122.851573
20
10.603795
30
0
11
123.609011
21
10.600283
31
0
39
0
210
0
220
0
230
1
0
LINE
5
B3
100
AcDbEntity
8
1
62
256
6
ByLayer
370
18
48
1
60
0
100
AcDbLine
10
123.609011
20
7.724717
30
0
11
122.851573
21
7.721205
31
0
39
0
210
0
220
0
230
1
0
LINE
5
B4
100
AcDbEntity
8
1
62
256
6
ByLayer
370
18
48
1
60
0
100
AcDbLine
10
123.609011
20
7.724717
30
0
11
123.609011
21
10.600283
31
0
39
0
210
0
220
0
230
1
0
LINE
5
B5
100
AcDbEntity
8
1
62
256
6
ByLayer
370
18
48
1
60
0
100
AcDbLine
10
106.390989
20
7.724717
30
0
11
107.148427
21
7.721205
31
0
39
0
210
0
220
0
230
1
0
LINE
5
B6
100
AcDbEntity
8
1
62
256
6
ByLayer
370
18
48
1
60
0
100
AcDbLine
10
107.148427
20
10.603795
30
0
11
106.390989
21
10.600283
31
0
39
0
210
0
220
0
230
1
0
LINE
5
B7
100
AcDbEntity
8
1
62
256
6
ByLayer
370
18
48
1
60
0
100
AcDbLine
10
106.390989
20
7.724717
30
0
11
106.390989
21
7.987517
31
0
39
0
210
0
220
0
230
1
0
LINE
5
B8
100
AcDbEntity
8
1
62
256
6
ByLayer
370
18
48
1
60
0
100
AcDbLine
10
106.390989
20
10.337483
30
0
11
106.390989
21
10.600283
31
0
39
0
210
0
220
0
230
1
0
LINE
5
B9
100
AcDbEntity
8
1
62
256
6
ByLayer
370
13
48
1
60
0
100
AcDbLine
10
122.18134
20
9.1625
30
0
11
118.749782
21
9.1625
31
0
39
0
210
0
220
0
230
1
0
LINE
5
BA
100
AcDbEntity
8
1
62
256
6
ByLayer
370
13
48
1
60
0
100
AcDbLine
10
118.65269
20
9.359835
30
0
11
121.397706
21
9.359835
31
0
39
0
210
0
220
0
230
1
0
LINE
5
BB
100
AcDbEntity
8
1
62
256
6
ByLayer
370
13
48
1
60
0
100
AcDbLine
10
121.397706
20
8.965165
30
0
11
118.65269
21
8.965165
31
0
39
0
210
0
220
0
230
1
0
LINE
5
BC
100
AcDbEntity
8
1
62
256
6
ByLayer
370
13
48
1
60
0
100
AcDbLine
10
118.64546
20
8.961744
30
0
11
121.344414
21
8.961744
31
0
39
0
210
0
220
0
230
1
0
LINE
5
BD
100
AcDbEntity
8
1
62
256
6
ByLayer
370
13
48
1
60
0
100
AcDbLine
10
118.64546
20
9.363256
30
0
11
121.344414
21
9.363256
31
0
39
0
210
0
220
0
230
1
0
LINE
5
BE
100
AcDbEntity
8
1
62
256
6
ByLayer
370
13
48
1
60
0
100
AcDbLine
10
118.541504
20
8.911476
30
0
11
120.636252
21
8.911476
31
0
39
0
210
0
220
0
230
1
0
LINE
5
BF
100
AcDbEntity
8
1
62
256
6
ByLayer
370
13
48
1
60
0
100
AcDbLine
10
118.541504
20
9.413524
30
0
11
120.636252
21
9.413524
31
0
39
0
210
0
220
0
230
1
0
LINE
5
C0
100
AcDbEntity
8
1
62
256
6
ByLayer
370
13
48
1
60
0
100
AcDbLine
10
118.50263
20
8.794502
30
0
11
120.024167
21
8.794502
31
0
39
0
210
0
220
0
230
1
0
LINE
5
C1
100
AcDbEntity
8
1
62
256
6
ByLayer
370
13
48
1
60
0
100
AcDbLine
10
118.502159
20
9.530498
30
0
11
120.024167
21
9.530498
31
0
39
0
210
0
220
0
230
1
0
LINE
5
C2
100
AcDbEntity
8
1
62
256
6
ByLayer
370
13
48
1
60
0
100
AcDbLine
10
118.300523
20
8.186516
30
0
11
118.82005
21
8.186516
31
0
39
0
210
0
220
0
230
1
0
LINE
5
C3
100
AcDbEntity
8
1
62
256
6
ByLayer
370
18
48
1
60
0
100
AcDbLine
10
118.235497
20
8.0125
30
0
11
118.772487
21
8.0125
31
0
39
0
210
0
220
0
230
1
0
LINE
5
C4
100
AcDbEntity
8
1
62
256
6
ByLayer
370
13
48
1
60
0
100
AcDbLine
10
118.772487
20
8.137062
30
0
11
118.284068
21
8.137062
31
0
39
0
210
0
220
0
230
1
0
LINE
5
C5
100
AcDbEntity
8
1
62
256
6
ByLayer
370
13
48
1
60
0
100
AcDbLine
10
118.82005
20
10.138484
30
0
11
118.297419
21
10.138484
31
0
39
0
210
0
220
0
230
1
0
LINE
5
C6
100
AcDbEntity
8
1
62
256
6
ByLayer
370
18
48
1
60
0
100
AcDbLine
10
118.772487
20
10.3125
30
0
11
118.235497
21
10.3125
31
0
39
0
210
0
220
0
230
1
0
LINE
5
C7
100
AcDbEntity
8
1
62
256
6
ByLayer
370
13
48
1
60
0
100
AcDbLine
10
118.280885
20
10.187938
30
0
11
118.772487
21
10.187938
31
0
39
0
210
0
220
0
230
1
0
LINE
5
C8
100
AcDbEntity
8
1
62
256
6
ByLayer
370
18
48
1
60
0
100
AcDbLine
10
107.541267
20
10.587061
30
0
11
107.148427
21
10.603795
31
0
39
0
210
0
220
0
230
1
0
LINE
5
C9
100
AcDbEntity
8
1
62
256
6
ByLayer
370
18
48
1
60
0
100
AcDbLine
10
107.148427
20
7.721205
30
0
11
107.148427
21
7.98753
31
0
39
0
210
0
220
0
230
1
0
LINE
5
CA
100
AcDbEntity
8
1
62
256
6
ByLayer
370
18
48
1
60
0
100
AcDbLine
10
107.148427
20
10.33747
30
0
11
107.148427
21
10.603795
31
0
39
0
210
0
220
0
230
1
0
LINE
5
CB
100
AcDbEntity
8
1
62
256
6
ByLayer
370
18
48
1
60
0
100
AcDbLine
10
107.148427
20
7.721205
30
0
11
107.541267
21
7.737939
31
0
39
0
210
0
220
0
230
1
0
LINE
5
CC
100
AcDbEntity
8
1
62
256
6
ByLayer
370
18
48
1
60
0
100
AcDbLine
10
107.580331
20
7.743625
30
0
11
108.527535
21
7.9823
31
0
39
0
210
0
220
0
230
1
0
LINE
5
CD
100
AcDbEntity
8
1
62
256
6
ByLayer
370
18
48
1
60
0
100
AcDbLine
10
108.527535
20
10.3427
30
0
11
107.580331
21
10.581375
31
0
39
0
210
0
220
0
230
1
0
LINE
5
CE
100
AcDbEntity
8
1
62
256
6
ByLayer
370
18
48
1
60
0
100
AcDbLine
10
118.772487
20
8.0125
30
0
11
121.228061
21
8.0125
31
0
39
0
210
0
220
0
230
1
0
LINE
5
CF
100
AcDbEntity
8
1
62
256
6
ByLayer
370
18
48
1
60
0
100
AcDbLine
10
121.472465
20
10.3427
30
0
11
122.419669
21
10.581375
31
0
39
0
210
0
220
0
230
1
0
LINE
5
D0
100
AcDbEntity
8
1
62
256
6
ByLayer
370
18
48
1
60
0
100
AcDbLine
10
121.228061
20
10.3125
30
0
11
118.772487
21
10.3125
31
0
39
0
210
0
220
0
230
1
0
LINE
5
D1
100
AcDbEntity
8
1
62
256
6
ByLayer
370
18
48
1
60
0
100
AcDbLine
10
118.772487
20
10.187938
30
0
11
118.772487
21
10.3125
31
0
39
0
210
0
220
0
230
1
0
LINE
5
D2
100
AcDbEntity
8
1
62
256
6
ByLayer
370
18
48
1
60
0
100
AcDbLine
10
120.024167
20
9.530498
30
0
11
118.82005
21
10.138484
31
0
39
0
210
0
220
0
230
1
0
LINE
5
D3
100
AcDbEntity
8
1
62
256
6
ByLayer
370
18
48
1
60
0
100
AcDbLine
10
121.397706
20
9.359835
30
0
11
121.344414
21
9.363256
31
0
39
0
210
0
220
0
230
1
0
LINE
5
D4
100
AcDbEntity
8
1
62
256
6
ByLayer
370
18
48
1
60
0
100
AcDbLine
10
121.344414
20
8.961744
30
0
11
121.397706
21
8.965165
31
0
39
0
210
0
220
0
230
1
0
LINE
5
D5
100
AcDbEntity
8
1
62
256
6
ByLayer
370
18
48
1
60
0
100
AcDbLine
10
118.82005
20
8.186516
30
0
11
120.024167
21
8.794502
31
0
39
0
210
0
220
0
230
1
0
LINE
5
D6
100
AcDbEntity
8
1
62
256
6
ByLayer
370
18
48
1
60
0
100
AcDbLine
10
118.772487
20
8.0125
30
0
11
118.772487
21
8.137062
31
0
39
0
210
0
220
0
230
1
0
LINE
5
D7
100
AcDbEntity
8
1
62
256
6
ByLayer
370
18
48
1
60
0
100
AcDbLine
10
122.419669
20
7.743625
30
0
11
121.472465
21
7.9823
31
0
39
0
210
0
220
0
230
1
0
LINE
5
D8
100
AcDbEntity
8
1
62
256
6
ByLayer
370
18
48
1
60
0
100
AcDbLine
10
122.851573
20
7.721205
30
0
11
122.458733
21
7.737939
31
0
39
0
210
0
220
0
230
1
0
LINE
5
D9
100
AcDbEntity
8
1
62
256
6
ByLayer
370
18
48
1
60
0
100
AcDbLine
10
122.851573
20
7.721205
30
0
11
122.851573
21
10.603795
31
0
39
0
210
0
220
0
230
1
0
LINE
5
DA
100
AcDbEntity
8
1
62
256
6
ByLayer
370
18
48
1
60
0
100
AcDbLine
10
122.458733
20
10.587061
30
0
11
122.851573
21
10.603795
31
0
39
0
210
0
220
0
230
1
0
MTEXT
5
121
100
AcDbEntity
8
SK6
62
256
6
ByLayer
370
18
48
1
60
0
100
AcDbMText
10
27.6855
20
-53.868434
30
0
210
0
220
0
230
1
1
\W0.7736;C2R-RS20-RG22DD
40
3.5
41
0
44
1.084337
50
0
71
7
72
5
7
iso_b_vert
0
DIMENSION
5
126
100
AcDbEntity
8
2
62
256
6
ByLayer
370
18
48
1
60
0
100
AcDbDimension
2
_U0
10
152.75
20
-9.9375
30
0
11
152.75
21
0.3625
31
0
70
32
71
1
72
1
41
1
210
0
220
0
230
1
3
Standard
100
AcDbAlignedDimension
13
125
23
10.6625
33
0
14
0
24
-9.9375
34
0
50
90
100
AcDbRotatedDimension
1001
ACAD
1000
DSTYLE
1002
{
1070
   371
1070
    13
1070
   372
1070
    13
1070
   170
1070
     0
1070
   144
1040
1.0
1070
   277
1070
     2
1070
   284
1070
     8
1070
   278
1070
    46
1070
   146
1040
1.0
1070
   345
1005
16
1070
   347
1005
16
1070
   346
1005
16
1070
   344
1005
0
1070
   343
1005
0
1070
   172
1070
     1
1070
    76
1070
     0
1070
    75
1070
     0
1070
   282
1070
     0
1070
   281
1070
     0
1070
    71
1070
     0
1070
    74
1070
     0
1070
   279
1070
     0
1070
   173
1070
     1
1070
   340
1005
122
1070
   271
1070
     2
1070
   272
1070
     2
1070
    77
1070
     1
1070
    73
1070
     0
1070
   171
1070
     3
1070
   274
1070
     4
1070
   177
1070
     2
1070
   176
1070
     2
1070
   178
1070
     2
1070
    78
1070
     8
1070
    48
1040
-0.1
1070
    41
1040
3.5
1070
   147
1040
1.75
1070
    42
1040
1.5875
1070
    44
1040
2.0
1070
   140
1040
3.5
1002
}
1001
ACAD_DSTYLE_DIM_LINETYPE
1070
   380
1005
16
1001
ACAD_DSTYLE_DIM_EXT1_LINETYPE
1070
   381
1005
16
1001
ACAD_DSTYLE_DIM_EXT2_LINETYPE
1070
   382
1005
16
0
DIMENSION
5
140
100
AcDbEntity
8
2
62
256
6
ByLayer
370
18
48
1
60
0
100
AcDbDimension
2
_U1
10
145.1
20
10.6625
30
0
11
145.1
21
9.1625
31
0
70
32
71
1
72
1
41
1
210
0
220
0
230
1
3
Standard
100
AcDbAlignedDimension
13
125
23
7.6625
33
0
14
125
24
10.6625
34
0
50
90
100
AcDbRotatedDimension
1001
ACAD
1000
DSTYLE
1002
{
1070
   371
1070
    13
1070
   372
1070
    13
1070
   170
1070
     0
1070
   144
1040
1.0
1070
   277
1070
     2
1070
   284
1070
     8
1070
   278
1070
    46
1070
   146
1040
1.0
1070
   345
1005
16
1070
   347
1005
16
1070
   346
1005
16
1070
   344
1005
0
1070
   343
1005
0
1070
   172
1070
     1
1070
    76
1070
     0
1070
    75
1070
     0
1070
   282
1070
     0
1070
   281
1070
     0
1070
    71
1070
     0
1070
    74
1070
     0
1070
   279
1070
     0
1070
   173
1070
     1
1070
   340
1005
122
1070
   271
1070
     2
1070
   272
1070
     2
1070
    77
1070
     1
1070
    73
1070
     0
1070
   171
1070
     3
1070
   274
1070
     4
1070
   177
1070
     2
1070
   176
1070
     2
1070
   178
1070
     2
1070
    78
1070
     8
1070
    48
1040
-0.1
1070
    41
1040
3.5
1070
   147
1040
1.75
1070
    42
1040
1.5875
1070
    44
1040
2.0
1070
   140
1040
3.5
1002
}
1001
ACAD_DSTYLE_DIM_LINETYPE
1070
   380
1005
16
1001
ACAD_DSTYLE_DIM_EXT1_LINETYPE
1070
   381
1005
16
1001
ACAD_DSTYLE_DIM_EXT2_LINETYPE
1070
   382
1005
16
0
DIMENSION
5
159
100
AcDbEntity
8
SK2
62
256
6
ByLayer
370
18
48
1
60
0
100
AcDbDimension
2
_U2
10
-16.6
20
10.0625
30
0
11
-16.6
21
0.0625
31
0
70
32
71
1
72
1
41
1
210
0
220
0
230
1
3
Standard
100
AcDbAlignedDimension
13
0
23
-9.9375
33
0
14
0
24
10.0625
34
0
50
90
100
AcDbRotatedDimension
1001
ACAD
1000
DSTYLE
1002
{
1070
   371
1070
    13
1070
   372
1070
    13
1070
   170
1070
     0
1070
   144
1040
1.0
1070
   277
1070
     2
1070
   284
1070
     8
1070
   278
1070
    46
1070
   146
1040
1.0
1070
   345
1005
16
1070
   347
1005
16
1070
   346
1005
16
1070
   344
1005
0
1070
   343
1005
0
1070
   172
1070
     1
1070
    76
1070
     0
1070
    75
1070
     0
1070
   282
1070
     0
1070
   281
1070
     0
1070
    71
1070
     0
1070
    74
1070
     0
1070
   279
1070
     0
1070
   173
1070
     1
1070
   340
1005
122
1070
   271
1070
     2
1070
   272
1070
     2
1070
    77
1070
     1
1070
    73
1070
     0
1070
   171
1070
     3
1070
   274
1070
     4
1070
   177
1070
     2
1070
   176
1070
     2
1070
   178
1070
     2
1070
    78
1070
     8
1070
    48
1040
-0.1
1070
    41
1040
3.5
1070
   147
1040
1.75
1070
    42
1040
1.5875
1070
    44
1040
2.0
1070
   140
1040
3.5
1002
}
1001
ACAD_DSTYLE_DIM_LINETYPE
1070
   380
1005
16
1001
ACAD_DSTYLE_DIM_EXT1_LINETYPE
1070
   381
1005
16
1001
ACAD_DSTYLE_DIM_EXT2_LINETYPE
1070
   382
1005
16
0
DIMENSION
5
172
100
AcDbEntity
8
2
62
256
6
ByLayer
370
18
48
1
60
0
100
AcDbDimension
2
_U3
10
125
20
-21.6875
30
0
11
114
21
-21.6875
31
0
70
32
71
1
72
1
41
1
210
0
220
0
230
1
3
Standard
100
AcDbAlignedDimension
13
103
23
9.1625
33
0
14
125
24
9.1625
34
0
50
0
100
AcDbRotatedDimension
1001
ACAD
1000
DSTYLE
1002
{
1070
   371
1070
    13
1070
   372
1070
    13
1070
   170
1070
     0
1070
   144
1040
1.0
1070
   277
1070
     2
1070
   284
1070
     8
1070
   278
1070
    46
1070
   146
1040
1.0
1070
   345
1005
16
1070
   347
1005
16
1070
   346
1005
16
1070
   344
1005
0
1070
   343
1005
0
1070
   172
1070
     1
1070
    76
1070
     0
1070
    75
1070
     0
1070
   282
1070
     0
1070
   281
1070
     0
1070
    71
1070
     0
1070
    74
1070
     0
1070
   279
1070
     0
1070
   173
1070
     1
1070
   340
1005
122
1070
   271
1070
     1
1070
   272
1070
     2
1070
    77
1070
     1
1070
    73
1070
     1
1070
   171
1070
     3
1070
   274
1070
     4
1070
   177
1070
     2
1070
   176
1070
     2
1070
   178
1070
     2
1070
    78
1070
     8
1070
    48
1040
-0.1
1070
    41
1040
3.5
1070
   147
1040
1.75
1070
    42
1040
1.5875
1070
    44
1040
2.0
1070
   140
1040
3.5
1002
}
1001
ACAD_DSTYLE_DIM_LINETYPE
1070
   380
1005
16
1001
ACAD_DSTYLE_DIM_EXT1_LINETYPE
1070
   381
1005
16
1001
ACAD_DSTYLE_DIM_EXT2_LINETYPE
1070
   382
1005
16
0
DIMENSION
5
18A
100
AcDbEntity
8
SK2
62
256
6
ByLayer
370
18
48
1
60
0
100
AcDbDimension
2
_U4
10
125
20
-27.6875
30
0
11
62.5
21
-27.6875
31
0
70
32
71
1
72
1
41
1
210
0
220
0
230
1
3
Standard
100
AcDbAlignedDimension
13
0
23
-9.9375
33
0
14
125
24
10.6625
34
0
50
0
100
AcDbRotatedDimension
1001
ACAD
1000
DSTYLE
1002
{
1070
   371
1070
    13
1070
   372
1070
    13
1070
   170
1070
     0
1070
   144
1040
1.0
1070
   277
1070
     2
1070
   284
1070
     8
1070
   278
1070
    46
1070
   146
1040
1.0
1070
   345
1005
16
1070
   347
1005
16
1070
   346
1005
16
1070
   344
1005
0
1070
   343
1005
0
1070
   172
1070
     1
1070
    76
1070
     0
1070
    75
1070
     0
1070
   282
1070
     0
1070
   281
1070
     0
1070
    71
1070
     0
1070
    74
1070
     0
1070
   279
1070
     0
1070
   173
1070
     1
1070
   340
1005
122
1070
   271
1070
     1
1070
   272
1070
     2
1070
    77
1070
     1
1070
    73
1070
     1
1070
   171
1070
     3
1070
   274
1070
     4
1070
   177
1070
     2
1070
   176
1070
     2
1070
   178
1070
     2
1070
    78
1070
     8
1070
    48
1040
-0.1
1070
    41
1040
3.5
1070
   147
1040
1.75
1070
    42
1040
1.5875
1070
    44
1040
2.0
1070
   140
1040
3.5
1002
}
1001
ACAD_DSTYLE_DIM_LINETYPE
1070
   380
1005
16
1001
ACAD_DSTYLE_DIM_EXT1_LINETYPE
1070
   381
1005
16
1001
ACAD_DSTYLE_DIM_EXT2_LINETYPE
1070
   382
1005
16
0
ENDSEC
0
SECTION
2
OBJECTS
0
DICTIONARY
5
210
330
0
100
AcDbDictionary
280
0
281
1
3
ACAD_GROUP
350
211
3
ACAD_MLINESTYLE
350
212
0
DICTIONARY
5
211
330
0
100
AcDbDictionary
280
0
281
1
0
DICTIONARY
5
212
330
0
100
AcDbDictionary
280
0
281
1
3
Standard
350
18
0
MLINESTYLE
5
18
330
212
100
AcDbMlineStyle
2
Standard
70
0
3

62
256
51
90
52
90
71
2
49
-0.5
62
256
6
ByLayer
49
0.5
62
256
6
ByLayer
0
RASTERVARIABLES
5
200
330

100
AcDbRasterVariables
90
0
70
1
71
1
72
1
0
ENDSEC
0
EOF
